  0
SECTION
  2
HEADER
  9
$ACADVER
  1
AC1015
  9
$ACADMAINTVER
 70
     6
  9
$DWGCODEPAGE
  3
ANSI_949
  9
$INSBASE
 10
0.0
 20
0.0
 30
0.0
  9
$EXTMIN
 10
1.000000000000000E+20
 20
1.000000000000000E+20
 30
1.000000000000000E+20
  9
$EXTMAX
 10
-1.000000000000000E+20
 20
-1.000000000000000E+20
 30
-1.000000000000000E+20
  9
$LIMMIN
 10
0.0
 20
0.0
  9
$LIMMAX
 10
420.0
 20
297.0
  9
$ORTHOMODE
 70
     0
  9
$REGENMODE
 70
     1
  9
$FILLMODE
 70
     1
  9
$QTEXTMODE
 70
     0
  9
$MIRRTEXT
 70
     1
  9
$LTSCALE
 40
1.0
  9
$ATTMODE
 70
     1
  9
$TEXTSIZE
 40
3.5
  9
$TRACEWID
 40
1.0
  9
$TEXTSTYLE
  7
Standard
  9
$CLAYER
  8
0
  9
$CELTYPE
  6
ByLayer
  9
$CECOLOR
 62
   256
  9
$CELTSCALE
 40
1.0
  9
$DISPSILH
 70
     0
  9
$DIMSCALE
 40
1.0
  9
$DIMASZ
 40
3.302
  9
$DIMEXO
 40
1.0
  9
$DIMDLI
 40
3.75
  9
$DIMRND
 40
0.0
  9
$DIMDLE
 40
0.0
  9
$DIMEXE
 40
1.0
  9
$DIMTP
 40
0.0
  9
$DIMTM
 40
0.0
  9
$DIMTXT
 40
3.5
  9
$DIMCEN
 40
2.5
  9
$DIMTSZ
 40
0.0
  9
$DIMTOL
 70
     0
  9
$DIMLIM
 70
     0
  9
$DIMTIH
 70
     1
  9
$DIMTOH
 70
     1
  9
$DIMSE1
 70
     0
  9
$DIMSE2
 70
     0
  9
$DIMTAD
 70
     1
  9
$DIMZIN
 70
     0
  9
$DIMBLK
  1

  9
$DIMASO
 70
     1
  9
$DIMSHO
 70
     1
  9
$DIMPOST
  1

  9
$DIMAPOST
  1

  9
$DIMALT
 70
     0
  9
$DIMALTD
 70
     3
  9
$DIMALTF
 40
0.0393700787401575
  9
$DIMLFAC
 40
1.0
  9
$DIMTOFL
 70
     1
  9
$DIMTVP
 40
0.0
  9
$DIMTIX
 70
     0
  9
$DIMSOXD
 70
     0
  9
$DIMSAH
 70
     0
  9
$DIMBLK1
  1

  9
$DIMBLK2
  1

  9
$DIMSTYLE
  2
ISO-25
  9
$DIMCLRD
 70
     0
  9
$DIMCLRE
 70
     0
  9
$DIMCLRT
 70
     0
  9
$DIMTFAC
 40
1.0
  9
$DIMGAP
 40
1.524
  9
$DIMJUST
 70
     0
  9
$DIMSD1
 70
     0
  9
$DIMSD2
 70
     0
  9
$DIMTOLJ
 70
     0
  9
$DIMTZIN
 70
     0
  9
$DIMALTZ
 70
     0
  9
$DIMALTTZ
 70
     0
  9
$DIMUPT
 70
     0
  9
$DIMDEC
 70
     2
  9
$DIMTDEC
 70
     2
  9
$DIMALTU
 70
     2
  9
$DIMALTTD
 70
     3
  9
$DIMTXSTY
  7
Standard
  9
$DIMAUNIT
 70
     0
  9
$DIMADEC
 70
     2
  9
$DIMALTRND
 40
0.0
  9
$DIMAZIN
 70
     0
  9
$DIMDSEP
 70
    44
  9
$DIMATFIT
 70
     3
  9
$DIMFRAC
 70
     0
  9
$DIMLDRBLK
  1

  9
$DIMLUNIT
 70
     2
  9
$DIMLWD
 70
    -2
  9
$DIMLWE
 70
    -2
  9
$DIMTMOVE
 70
     0
  9
$LUNITS
 70
     2
  9
$LUPREC
 70
     2
  9
$SKETCHINC
 40
1.0
  9
$FILLETRAD
 40
10.0
  9
$AUNITS
 70
     0
  9
$AUPREC
 70
     2
  9
$MENU
  1
.
  9
$ELEVATION
 40
0.0
  9
$PELEVATION
 40
0.0
  9
$THICKNESS
 40
0.0
  9
$LIMCHECK
 70
     0
  9
$CHAMFERA
 40
0.0
  9
$CHAMFERB
 40
0.0
  9
$CHAMFERC
 40
0.0
  9
$CHAMFERD
 40
0.0
  9
$SKPOLY
 70
     0
  9
$TDCREATE
 40
2458288.654274965
  9
$TDUCREATE
 40
2458288.279274965
  9
$TDUPDATE
 40
2458295.65816632
  9
$TDUUPDATE
 40
2458295.28316632
  9
$TDINDWG
 40
0.0003418056
  9
$TDUSRTIMER
 40
2458295.282824988
  9
$USRTIMER
 70
     1
  9
$ANGBASE
 50
0.0
  9
$ANGDIR
 70
     0
  9
$PDMODE
 70
     0
  9
$PDSIZE
 40
-1.0
  9
$PLINEWID
 40
0.0
  9
$SPLFRAME
 70
     0
  9
$SPLINETYPE
 70
     6
  9
$SPLINESEGS
 70
     8
  9
$HANDSEED
  5
4AF
  9
$SURFTAB1
 70
     6
  9
$SURFTAB2
 70
     6
  9
$SURFTYPE
 70
     6
  9
$SURFU
 70
     6
  9
$SURFV
 70
     6
  9
$UCSBASE
  2

  9
$UCSNAME
  2

  9
$UCSORG
 10
0.0
 20
0.0
 30
0.0
  9
$UCSXDIR
 10
1.0
 20
0.0
 30
0.0
  9
$UCSYDIR
 10
0.0
 20
1.0
 30
0.0
  9
$UCSORTHOREF
  2

  9
$UCSORTHOVIEW
 70
     0
  9
$UCSORGTOP
 10
0.0
 20
0.0
 30
0.0
  9
$UCSORGBOTTOM
 10
0.0
 20
0.0
 30
0.0
  9
$UCSORGLEFT
 10
0.0
 20
0.0
 30
0.0
  9
$UCSORGRIGHT
 10
0.0
 20
0.0
 30
0.0
  9
$UCSORGFRONT
 10
0.0
 20
0.0
 30
0.0
  9
$UCSORGBACK
 10
0.0
 20
0.0
 30
0.0
  9
$PUCSBASE
  2

  9
$PUCSNAME
  2

  9
$PUCSORG
 10
0.0
 20
0.0
 30
0.0
  9
$PUCSXDIR
 10
1.0
 20
0.0
 30
0.0
  9
$PUCSYDIR
 10
0.0
 20
1.0
 30
0.0
  9
$PUCSORTHOREF
  2

  9
$PUCSORTHOVIEW
 70
     0
  9
$PUCSORGTOP
 10
0.0
 20
0.0
 30
0.0
  9
$PUCSORGBOTTOM
 10
0.0
 20
0.0
 30
0.0
  9
$PUCSORGLEFT
 10
0.0
 20
0.0
 30
0.0
  9
$PUCSORGRIGHT
 10
0.0
 20
0.0
 30
0.0
  9
$PUCSORGFRONT
 10
0.0
 20
0.0
 30
0.0
  9
$PUCSORGBACK
 10
0.0
 20
0.0
 30
0.0
  9
$USERI1
 70
     0
  9
$USERI2
 70
     0
  9
$USERI3
 70
     0
  9
$USERI4
 70
     0
  9
$USERI5
 70
     0
  9
$USERR1
 40
0.0
  9
$USERR2
 40
0.0
  9
$USERR3
 40
0.0
  9
$USERR4
 40
0.0
  9
$USERR5
 40
0.0
  9
$WORLDVIEW
 70
     1
  9
$SHADEDGE
 70
     3
  9
$SHADEDIF
 70
    70
  9
$TILEMODE
 70
     1
  9
$MAXACTVP
 70
    64
  9
$PINSBASE
 10
0.0
 20
0.0
 30
0.0
  9
$PLIMCHECK
 70
     0
  9
$PEXTMIN
 10
1.000000000000000E+20
 20
1.000000000000000E+20
 30
1.000000000000000E+20
  9
$PEXTMAX
 10
-1.000000000000000E+20
 20
-1.000000000000000E+20
 30
-1.000000000000000E+20
  9
$PLIMMIN
 10
0.0
 20
0.0
  9
$PLIMMAX
 10
0.0
 20
0.0
  9
$UNITMODE
 70
     0
  9
$VISRETAIN
 70
     1
  9
$PLINEGEN
 70
     0
  9
$PSLTSCALE
 70
     1
  9
$TREEDEPTH
 70
  3020
  9
$CMLSTYLE
  2
Standard
  9
$CMLJUST
 70
     0
  9
$CMLSCALE
 40
20.0
  9
$PROXYGRAPHICS
 70
     1
  9
$MEASUREMENT
 70
     1
  9
$CELWEIGHT
370
    -1
  9
$ENDCAPS
280
     0
  9
$JOINSTYLE
280
     0
  9
$LWDISPLAY
290
     1
  9
$INSUNITS
 70
     4
  9
$HYPERLINKBASE
  1

  9
$STYLESHEET
  1

  9
$XEDIT
290
     1
  9
$CEPSNTYPE
380
     0
  9
$PSTYLEMODE
290
     1
  9
$FINGERPRINTGUID
  2
{855D610D-5E49-4BC7-A7D4-946770E4E586}
  9
$VERSIONGUID
  2
{FAEB1C32-E019-11D5-929B-00C0DF256EC4}
  9
$EXTNAMES
290
     1
  9
$PSVPSCALE
 40
0.0
  9
$OLESTARTUP
290
     0
  0
ENDSEC
  0
SECTION
  2
CLASSES
  0
CLASS
  1
ACDBDICTIONARYWDFLT
  2
AcDbDictionaryWithDefault
  3
ObjectDBX Classes
 90
        0
280
     0
281
     0
  0
CLASS
  1
VISUALSTYLE
  2
AcDbVisualStyle
  3
ObjectDBX Classes
 90
     4095
280
     0
281
     0
  0
CLASS
  1
MATERIAL
  2
AcDbMaterial
  3
ObjectDBX Classes
 90
     1153
280
     0
281
     0
  0
CLASS
  1
SCALE
  2
AcDbScale
  3
ObjectDBX Classes
 90
     1153
280
     0
281
     0
  0
CLASS
  1
SUN
  2
AcDbSun
  3
SCENEOE
 90
     1153
280
     0
281
     0
  0
CLASS
  1
ACDBPLACEHOLDER
  2
AcDbPlaceHolder
  3
ObjectDBX Classes
 90
        0
280
     0
281
     0
  0
CLASS
  1
LAYOUT
  2
AcDbLayout
  3
ObjectDBX Classes
 90
        0
280
     0
281
     0
  0
CLASS
  1
TABLESTYLE
  2
AcDbTableStyle
  3
ObjectDBX Classes
 90
     4095
280
     0
281
     0
  0
CLASS
  1
MLEADERSTYLE
  2
AcDbMLeaderStyle
  3
ACDB_MLEADERSTYLE_CLASS
 90
     4095
280
     0
281
     0
  0
CLASS
  1
RASTERVARIABLES
  2
AcDbRasterVariables
  3
ISM
 90
        0
280
     0
281
     0
  0
CLASS
  1
DIMASSOC
  2
AcDbDimAssoc
  3
"AcDbDimAssoc|Product Desc:     AcDim ARX App For Dimension|Company:          Autodesk, Inc.|WEB Address:      www.autodesk.com"
 90
        0
280
     0
281
     0
  0
ENDSEC
  0
SECTION
  2
TABLES
  0
TABLE
  2
VPORT
  5
8
330
0
100
AcDbSymbolTable
 70
     1
  0
VPORT
  5
29
330
8
100
AcDbSymbolTableRecord
100
AcDbViewportTableRecord
  2
*Active
 70
     0
 10
0.0
 20
0.0
 11
1.0
 21
1.0
 12
4.53232973101882
 22
-2.107936271547363
 13
0.0
 23
0.0
 14
10.0
 24
10.0
 15
10.0
 25
10.0
 16
0.0
 26
0.0
 36
1.0
 17
0.0
 27
0.0
 37
0.0
 40
85.26011592527047
 41
1.859099804305284
 42
50.0
 43
0.0
 44
0.0
 50
0.0
 51
0.0
 71
    16
 72
  2000
 73
     1
 74
     3
 75
     0
 76
     0
 77
     0
 78
     0
281
     0
 65
     1
110
0.0
120
0.0
130
0.0
111
1.0
121
0.0
131
0.0
112
0.0
122
1.0
132
0.0
 79
     0
146
0.0
  0
ENDTAB
  0
TABLE
  2
LTYPE
  5
5
330
0
100
AcDbSymbolTable
 70
     6
  0
LTYPE
  5
14
330
5
100
AcDbSymbolTableRecord
100
AcDbLinetypeTableRecord
  2
ByBlock
 70
     0
  3

 72
    65
 73
     0
 40
0.0
  0
LTYPE
  5
15
330
5
100
AcDbSymbolTableRecord
100
AcDbLinetypeTableRecord
  2
ByLayer
 70
     0
  3

 72
    65
 73
     0
 40
0.0
  0
LTYPE
  5
16
330
5
100
AcDbSymbolTableRecord
100
AcDbLinetypeTableRecord
  2
Continuous
 70
     0
  3
Solid line
 72
    65
 73
     0
 40
0.0
  0
LTYPE
  5
6A
330
5
100
AcDbSymbolTableRecord
100
AcDbLinetypeTableRecord
  2
HIDDEN
 70
     0
  3
Hidden __ __ __ __ __ __ __ __ __ __ __ __ __ __
 72
    65
 73
     2
 40
1.905
 49
1.27
 74
     0
 49
-0.635
 74
     0
  0
LTYPE
  5
6B
330
5
100
AcDbSymbolTableRecord
100
AcDbLinetypeTableRecord
  2
PHANTOM
 70
     0
  3
Phantom ______  __  __  ______  __  __  ______
 72
    65
 73
     6
 40
12.7
 49
6.35
 74
     0
 49
-1.27
 74
     0
 49
1.27
 74
     0
 49
-1.27
 74
     0
 49
1.27
 74
     0
 49
-1.27
 74
     0
  0
LTYPE
  5
6C
330
5
100
AcDbSymbolTableRecord
100
AcDbLinetypeTableRecord
  2
CENTER
 70
     0
  3
Center ____ _ ____ _ ____ _ ____ _ ____ _ ____
 72
    65
 73
     4
 40
10.16
 49
6.35
 74
     0
 49
-1.27
 74
     0
 49
1.27
 74
     0
 49
-1.27
 74
     0
  0
LTYPE
  5
6D
330
5
100
AcDbSymbolTableRecord
100
AcDbLinetypeTableRecord
  2
CENTERX2
 70
     0
  3
Center (2x) ________  __  ________  __  _____
 72
    65
 73
     4
 40
20.32
 49
12.7
 74
     0
 49
-2.54
 74
     0
 49
2.54
 74
     0
 49
-2.54
 74
     0
  0
LTYPE
  5
6E
330
5
100
AcDbSymbolTableRecord
100
AcDbLinetypeTableRecord
  2
DOT2
 70
     0
  3
Dot (.5x) ........................................
 72
    65
 73
     2
 40
0.635
 49
0.0
 74
     0
 49
-0.635
 74
     0
  0
ENDTAB
  0
TABLE
  2
LAYER
  5
2
102
{ACAD_XDICTIONARY
360
240
102
}
330
0
100
AcDbSymbolTable
 70
    18
  0
LAYER
  5
10
330
2
100
AcDbSymbolTableRecord
100
AcDbLayerTableRecord
  2
0
 70
     0
 62
     7
  6
Continuous
370
    -3
390
F
  0
LAYER
  5
6F
330
2
100
AcDbSymbolTableRecord
100
AcDbLayerTableRecord
  2
FORMAT
 70
     0
 62
     2
  6
Continuous
370
    -3
390
F
  0
LAYER
  5
70
330
2
100
AcDbSymbolTableRecord
100
AcDbLayerTableRecord
  2
외형선
 70
     0
 62
     4
  6
Continuous
370
    30
390
F
  0
LAYER
  5
71
330
2
100
AcDbSymbolTableRecord
100
AcDbLayerTableRecord
  2
숨은선
 70
     0
 62
     2
  6
HIDDEN
370
    15
390
F
  0
LAYER
  5
72
330
2
100
AcDbSymbolTableRecord
100
AcDbLayerTableRecord
  2
중심선
 70
     0
 62
     1
  6
CENTERX2
370
    -3
390
F
  0
LAYER
  5
73
330
2
100
AcDbSymbolTableRecord
100
AcDbLayerTableRecord
  2
파단선
 70
     0
 62
     4
  6
Continuous
370
    -3
390
F
  0
LAYER
  5
74
330
2
100
AcDbSymbolTableRecord
100
AcDbLayerTableRecord
  2
해칭선
 70
     0
 62
   100
  6
Continuous
370
    -3
390
F
  0
LAYER
  5
75
330
2
100
AcDbSymbolTableRecord
100
AcDbLayerTableRecord
  2
가는실선
 70
     0
 62
     4
  6
Continuous
370
    -3
390
F
  0
LAYER
  5
76
330
2
100
AcDbSymbolTableRecord
100
AcDbLayerTableRecord
  2
치수_보조선
 70
     0
 62
     4
  6
Continuous
370
    -3
390
F
  0
LAYER
  5
77
330
2
100
AcDbSymbolTableRecord
100
AcDbLayerTableRecord
  2
치수문자_일반주서
 70
     0
 62
     7
  6
Continuous
370
    15
390
F
  0
LAYER
  5
78
330
2
100
AcDbSymbolTableRecord
100
AcDbLayerTableRecord
  2
개별주서
 70
     0
 62
   100
  6
Continuous
370
    30
390
F
  0
LAYER
  5
79
330
2
100
AcDbSymbolTableRecord
100
AcDbLayerTableRecord
  2
중간선
 70
     0
 62
     2
  6
Continuous
370
    15
390
F
  0
LAYER
  5
7A
330
2
100
AcDbSymbolTableRecord
100
AcDbLayerTableRecord
  2
윤곽선
 70
     0
 62
     3
  6
Continuous
370
    40
390
F
  0
LAYER
  5
7B
330
2
100
AcDbSymbolTableRecord
100
AcDbLayerTableRecord
  2
중심마크
 70
     0
 62
   100
  6
Continuous
370
    30
390
F
  0
LAYER
  5
7C
330
2
100
AcDbSymbolTableRecord
100
AcDbLayerTableRecord
  2
가상선
 70
     0
 62
     4
  6
PHANTOM
370
    -3
390
F
  0
LAYER
  5
7D
330
2
100
AcDbSymbolTableRecord
100
AcDbLayerTableRecord
  2
특수지정선
 70
     0
 62
     5
  6
CENTERX2
370
    60
390
F
  0
LAYER
  5
7E
330
2
100
AcDbSymbolTableRecord
100
AcDbLayerTableRecord
  2
참조1
 70
     0
 62
    -4
  6
Continuous
370
    -3
390
F
  0
LAYER
  5
168
330
2
100
AcDbSymbolTableRecord
100
AcDbLayerTableRecord
  2
Defpoints
 70
     0
 62
     7
  6
Continuous
290
     0
370
    -3
390
F
  0
ENDTAB
  0
TABLE
  2
STYLE
  5
3
330
0
100
AcDbSymbolTable
 70
     2
  0
STYLE
  5
11
330
3
100
AcDbSymbolTableRecord
100
AcDbTextStyleTableRecord
  2
Standard
 70
     0
 40
0.0
 41
1.0
 50
0.0
 71
     0
 42
3.5
  3
txt
  4

  0
STYLE
  5
94
330
3
100
AcDbSymbolTableRecord
100
AcDbTextStyleTableRecord
  2
SLDTEXTSTYLE0
 70
     0
 40
0.0
 41
0.75
 50
0.0
 71
     0
 42
3.5
  3
TXT
  4

  0
ENDTAB
  0
TABLE
  2
VIEW
  5
6
330
0
100
AcDbSymbolTable
 70
     0
  0
ENDTAB
  0
TABLE
  2
UCS
  5
7
330
0
100
AcDbSymbolTable
 70
     0
  0
ENDTAB
  0
TABLE
  2
APPID
  5
9
330
0
100
AcDbSymbolTable
 70
     2
  0
APPID
  5
12
330
9
100
AcDbSymbolTableRecord
100
AcDbRegAppTableRecord
  2
ACAD
 70
     0
  0
APPID
  5
174
330
9
100
AcDbSymbolTableRecord
100
AcDbRegAppTableRecord
  2
ACAD_DSTYLE_DIMRADIAL_EXTENSION
 70
     0
  0
ENDTAB
  0
TABLE
  2
DIMSTYLE
  5
A
330
0
100
AcDbSymbolTable
 70
     4
100
AcDbDimStyleTable
  0
DIMSTYLE
105
27
330
A
100
AcDbSymbolTableRecord
100
AcDbDimStyleTableRecord
  2
ISO-25
 70
     0
 41
2.5
 42
0.625
 43
3.75
 44
1.25
 73
     0
 74
     0
 77
     1
 78
     8
140
2.5
141
2.5
143
0.03937007874016
147
0.625
171
     3
172
     1
178
     0
271
     2
272
     2
274
     3
278
    44
283
     0
284
     8
340
11
  0
DIMSTYLE
105
E3
102
{ACAD_REACTORS
330
1F1
330
1FE
330
20E
330
21E
330
234
330
395
330
3A2
330
3B2
330
3C2
330
3D8
330
465
330
466
330
467
330
468
330
46C
102
}
330
A
100
AcDbSymbolTableRecord
100
AcDbDimStyleTableRecord
  2
SLDDIMSTYLE0
 70
     0
 41
3.302
 44
0.0
 45
0.000000001
 73
     0
 74
     0
 77
     1
 78
    12
 79
     3
140
3.5
143
0.0393700787401575
147
0.875
148
0.000000001
170
     1
172
     1
173
     1
178
     0
271
     2
272
     2
276
     2
284
    12
289
     0
340
94
  0
DIMSTYLE
105
10C
330
A
100
AcDbSymbolTableRecord
100
AcDbDimStyleTableRecord
  2
SLDDIMSTYLE1
 70
     0
 41
3.302
 44
0.0
 45
0.000000001
 73
     0
 74
     0
 77
     1
 78
     4
 79
     1
140
3.5
143
0.0393700787401575
147
0.875
148
0.000000001
170
     1
172
     1
173
     1
178
     0
271
     2
272
     2
276
     2
284
    12
289
     0
340
94
  0
DIMSTYLE
105
122
330
A
100
AcDbSymbolTableRecord
100
AcDbDimStyleTableRecord
  2
SLDDIMSTYLE2
 70
     0
 41
3.302
 44
0.0
 45
0.000000001
 73
     0
 74
     0
 77
     1
 78
    12
 79
     3
140
3.5
143
0.0393700787401575
147
0.875
148
0.000000001
170
     1
173
     1
178
     0
271
     2
272
     2
276
     2
284
    12
340
94
  0
ENDTAB
  0
TABLE
  2
BLOCK_RECORD
  5
1
330
0
100
AcDbSymbolTable
 70
    29
  0
BLOCK_RECORD
  5
1F
330
1
100
AcDbSymbolTableRecord
100
AcDbBlockTableRecord
  2
*Model_Space
340
22
  0
BLOCK_RECORD
  5
1B
330
1
100
AcDbSymbolTableRecord
100
AcDbBlockTableRecord
  2
*Paper_Space
340
1E
  0
BLOCK_RECORD
  5
23
330
1
100
AcDbSymbolTableRecord
100
AcDbBlockTableRecord
  2
*Paper_Space0
340
26
  0
BLOCK_RECORD
  5
7F
330
1
100
AcDbSymbolTableRecord
100
AcDbBlockTableRecord
  2
블럭10
340
0
102
{BLKREFS
331
0
331
1D4
331
0
331
378
331
45E
102
}
  0
BLOCK_RECORD
  5
E4
330
1
100
AcDbSymbolTableRecord
100
AcDbBlockTableRecord
  2
_D
340
0
  0
BLOCK_RECORD
  5
F8
330
1
100
AcDbSymbolTableRecord
100
AcDbBlockTableRecord
  2
_D_1
340
0
  0
BLOCK_RECORD
  5
10D
330
1
100
AcDbSymbolTableRecord
100
AcDbBlockTableRecord
  2
_D_2
340
0
  0
BLOCK_RECORD
  5
123
330
1
100
AcDbSymbolTableRecord
100
AcDbBlockTableRecord
  2
_D_3
340
0
  0
BLOCK_RECORD
  5
13C
330
1
100
AcDbSymbolTableRecord
100
AcDbBlockTableRecord
  2
SW_DOWELSYMBOL_0
340
0
102
{BLKREFS
331
0
331
22B
331
0
331
3CF
331
469
102
}
  0
BLOCK_RECORD
  5
237
330
1
100
AcDbSymbolTableRecord
100
AcDbBlockTableRecord
  2
*D8
340
0
  0
BLOCK_RECORD
  5
244
330
1
100
AcDbSymbolTableRecord
100
AcDbBlockTableRecord
  2
*D9
340
0
  0
BLOCK_RECORD
  5
250
330
1
100
AcDbSymbolTableRecord
100
AcDbBlockTableRecord
  2
*D10
340
0
  0
BLOCK_RECORD
  5
25F
330
1
100
AcDbSymbolTableRecord
100
AcDbBlockTableRecord
  2
*D11
340
0
  0
BLOCK_RECORD
  5
26E
330
1
100
AcDbSymbolTableRecord
100
AcDbBlockTableRecord
  2
*D12
340
0
  0
BLOCK_RECORD
  5
2CD
330
1
100
AcDbSymbolTableRecord
100
AcDbBlockTableRecord
  2
*D13
340
0
  0
BLOCK_RECORD
  5
2D9
330
1
100
AcDbSymbolTableRecord
100
AcDbBlockTableRecord
  2
*D14
340
0
  0
BLOCK_RECORD
  5
2E8
330
1
100
AcDbSymbolTableRecord
100
AcDbBlockTableRecord
  2
*D15
340
0
  0
BLOCK_RECORD
  5
2F7
330
1
100
AcDbSymbolTableRecord
100
AcDbBlockTableRecord
  2
*D16
340
0
  0
BLOCK_RECORD
  5
303
330
1
100
AcDbSymbolTableRecord
100
AcDbBlockTableRecord
  2
*D17
340
0
  0
BLOCK_RECORD
  5
3DB
330
1
100
AcDbSymbolTableRecord
100
AcDbBlockTableRecord
  2
*D19
340
0
  0
BLOCK_RECORD
  5
3E6
330
1
100
AcDbSymbolTableRecord
100
AcDbBlockTableRecord
  2
*D20
340
0
  0
BLOCK_RECORD
  5
3F2
330
1
100
AcDbSymbolTableRecord
100
AcDbBlockTableRecord
  2
*D21
340
0
  0
BLOCK_RECORD
  5
401
330
1
100
AcDbSymbolTableRecord
100
AcDbBlockTableRecord
  2
*D22
340
0
  0
BLOCK_RECORD
  5
410
330
1
100
AcDbSymbolTableRecord
100
AcDbBlockTableRecord
  2
*D23
340
0
  0
BLOCK_RECORD
  5
46F
330
1
100
AcDbSymbolTableRecord
100
AcDbBlockTableRecord
  2
*D24
340
0
  0
BLOCK_RECORD
  5
47B
330
1
100
AcDbSymbolTableRecord
100
AcDbBlockTableRecord
  2
*D25
340
0
  0
BLOCK_RECORD
  5
48A
330
1
100
AcDbSymbolTableRecord
100
AcDbBlockTableRecord
  2
*D26
340
0
  0
BLOCK_RECORD
  5
499
330
1
100
AcDbSymbolTableRecord
100
AcDbBlockTableRecord
  2
*D27
340
0
  0
BLOCK_RECORD
  5
4A5
330
1
100
AcDbSymbolTableRecord
100
AcDbBlockTableRecord
  2
*D28
340
0
  0
ENDTAB
  0
ENDSEC
  0
SECTION
  2
BLOCKS
  0
BLOCK
  5
20
330
1F
100
AcDbEntity
  8
0
100
AcDbBlockBegin
  2
*Model_Space
 70
     0
 10
0.0
 20
0.0
 30
0.0
  3
*Model_Space
  1
*Model_Space
  0
ENDBLK
  5
21
330
1F
100
AcDbEntity
  8
0
100
AcDbBlockEnd
  0
BLOCK
  5
1C
330
1B
100
AcDbEntity
 67
     1
  8
0
100
AcDbBlockBegin
  2
*Paper_Space
 70
     0
 10
0.0
 20
0.0
 30
0.0
  3
*Paper_Space
  1
*Paper_Space
  0
ENDBLK
  5
1D
330
1B
100
AcDbEntity
 67
     1
  8
0
100
AcDbBlockEnd
  0
BLOCK
  5
24
330
23
100
AcDbEntity
  8
0
100
AcDbBlockBegin
  2
*Paper_Space0
 70
     0
 10
0.0
 20
0.0
 30
0.0
  3
*Paper_Space0
  1
*Paper_Space0
  0
ENDBLK
  5
25
330
23
100
AcDbEntity
  8
0
100
AcDbBlockEnd
  0
BLOCK
  5
80
330
7F
100
AcDbEntity
  8
0
100
AcDbBlockBegin
  2
블럭10
 70
     2
 10
0.0
 20
0.0
 30
0.0
  3
블럭10
  1
블럭10
  0
ELLIPSE
  5
82
330
7F
100
AcDbEntity
  8
중심선
100
AcDbEllipse
 10
20.54032771741204
 20
12.0471743016438
 30
0.0
 11
6.600054785286829
 21
-1.261213355974178E-13
 31
0.0
210
0.0
220
0.0
230
1.0
 40
0.636358354079598
 41
0.9219305317359503
 42
6.513795318482858
  0
ELLIPSE
  5
83
330
7F
100
AcDbEntity
  8
중심선
100
AcDbEllipse
 10
20.54032771746488
 20
12.04717430159265
 30
0.0
 11
3.960054785062283
 21
1.540847449632565E-10
 31
0.0
210
0.0
220
0.0
230
1.0
 40
0.3939339440162632
 41
1.131841032648279
 42
5.62031148352944
  0
LINE
  5
84
330
7F
100
AcDbEntity
  8
중심선
100
AcDbLine
 10
2.268634060543552
 20
16.24717430164393
 30
0.0
 11
5.714909304380834
 21
16.24717430164393
 31
0.0
  0
LINE
  5
85
330
7F
100
AcDbEntity
  8
중심선
100
AcDbLine
 10
5.245725140726316
 20
7.84717430164391
 30
0.0
 11
8.692000384563599
 21
7.84717430164391
 31
0.0
  0
LINE
  5
86
330
7F
100
AcDbEntity
  8
중심선
100
AcDbLine
 10
15.74043728645272
 20
16.24717430164393
 30
0.0
 11
8.692000384563599
 21
7.84717430164391
 31
0.0
  0
LINE
  5
87
330
7F
100
AcDbEntity
  8
중심선
100
AcDbLine
 10
0.1404042013395286
 20
13.71084872107135
 30
0.0
 11
3.58671253028996
 21
13.71088815037384
 31
0.0
  0
LINE
  5
88
330
7F
100
AcDbEntity
  8
중심선
100
AcDbLine
 10
2.750260043222114
 20
10.84717430164391
 30
0.0
 11
6.196535287059397
 21
10.84717430164391
 31
0.0
  0
LINE
  5
89
330
7F
100
AcDbEntity
  8
중심선
100
AcDbLine
 10
12.29416204261559
 20
16.24717430164393
 30
0.0
 11
5.245725140726316
 21
7.84717430164391
 31
0.0
  0
LINE
  5
8A
330
7F
100
AcDbEntity
  8
중심선
100
AcDbLine
 10
10.72767329541681
 20
16.24717430164393
 30
0.0
 11
6.196535287059397
 21
10.84717430164391
 31
0.0
  0
LINE
  5
8B
330
7F
100
AcDbEntity
  8
중심선
100
AcDbLine
 10
7.28139805157953
 20
16.24717430164393
 30
0.0
 11
2.750260043222114
 21
10.84717430164391
 31
0.0
  0
LINE
  5
8C
330
7F
100
AcDbEntity
  8
중심선
100
AcDbLine
 10
5.714909304380834
 20
16.24717430164393
 30
0.0
 11
3.58671253028996
 21
13.71088815037384
 31
0.0
  0
LINE
  5
8D
330
7F
100
AcDbEntity
  8
중심선
100
AcDbLine
 10
2.268634060543552
 20
16.24717430164393
 30
0.0
 11
0.1404042013395286
 21
13.71084872107135
 31
0.0
  0
LINE
  5
8E
330
7F
100
AcDbEntity
  8
중심선
100
AcDbLine
 10
7.28139805157953
 20
16.24717430164393
 30
0.0
 11
10.72767329541681
 21
16.24717430164393
 31
0.0
  0
LINE
  5
8F
330
7F
100
AcDbEntity
  8
중심선
100
AcDbLine
 10
12.29416204261559
 20
16.24717430164393
 30
0.0
 11
15.74043728645272
 21
16.24717430164393
 31
0.0
  0
LINE
  5
90
330
7F
100
AcDbEntity
  8
중심선
100
AcDbLine
 10
19.22036997980202
 20
11.08717430171403
 30
0.0
 11
23.66174974927406
 21
11.08717430171406
 31
0.0
  0
LINE
  5
91
330
7F
100
AcDbEntity
  8
중심선
100
AcDbLine
 10
19.22039502424796
 20
13.00717430171391
 30
0.0
 11
19.22036997980202
 21
11.08717430171403
 31
0.0
  0
LINE
  5
92
330
7F
100
AcDbEntity
  8
중심선
100
AcDbLine
 10
19.22039502424796
 20
13.00717430171391
 30
0.0
 11
26.96566020931264
 21
13.00717430171391
 31
0.0
  0
LINE
  5
93
330
7F
100
AcDbEntity
  8
중심선
100
AcDbLine
 10
22.22332737316547
 20
13.45928029700563
 30
0.0
 11
24.52862924686651
 21
15.39360700705356
 31
0.0
  0
ATTDEF
  5
95
330
7F
100
AcDbEntity
  8
FORMAT
 62
     2
100
AcDbText
 10
3.448148490846466
 20
2.075366912832191
 30
0.0
 40
4.233333333333333
  1
EM637008
 41
0.75
  7
SLDTEXTSTYLE0
 11
3.448148490846466
 21
-0.0412997538344756
 31
0.0
100
AcDbAttributeDefinition
  3

  2
AUTOATTR0
 70
     0
 74
     1
  0
ENDBLK
  5
81
330
7F
100
AcDbEntity
  8
0
100
AcDbBlockEnd
  0
BLOCK
  5
E5
330
E4
100
AcDbEntity
  8
0
100
AcDbBlockBegin
  2
_D
 70
     0
 10
0.0
 20
0.0
 30
0.0
  3
_D
  1
_D
  0
SOLID
  5
E7
330
E4
100
AcDbEntity
  8
치수문자_일반주서
100
AcDbTrace
 10
-47.14
 20
3.176074928723876
 30
0.0
 11
-46.632
 21
6.478074928723876
 31
0.0
 12
-47.648
 22
6.478074928723876
 32
0.0
 13
-47.648
 23
6.478074928723876
 33
0.0
  0
SOLID
  5
E8
330
E4
100
AcDbEntity
  8
치수문자_일반주서
100
AcDbTrace
 10
-47.14
 20
-3.173925071276119
 30
0.0
 11
-47.648
 21
-6.475925071276118
 31
0.0
 12
-46.632
 22
-6.475925071276118
 32
0.0
 13
-46.632
 23
-6.475925071276118
 33
0.0
  0
LINE
  5
E9
330
E4
100
AcDbEntity
  8
치수문자_일반주서
100
AcDbLine
 10
-57.93288171604273
 20
-5.413291502344828
 30
0.0
 11
-57.93288171604272
 21
-6.124228987909328
 31
0.0
  0
LINE
  5
EA
330
E4
100
AcDbEntity
  8
치수문자_일반주서
100
AcDbLine
 10
-57.93288171604272
 20
-6.124228987909328
 30
0.0
 11
-52.37663172498342
 21
-6.124228987909289
 31
0.0
  0
LINE
  5
EB
330
E4
100
AcDbEntity
  8
치수문자_일반주서
100
AcDbLine
 10
-52.37663172498342
 20
-6.124228987909289
 30
0.0
 11
-52.37663172498343
 21
-5.413291502344789
 31
0.0
  0
LINE
  5
EC
330
E4
100
AcDbEntity
  8
치수문자_일반주서
100
AcDbLine
 10
-57.9328817160428
 20
5.41544135979243
 30
0.0
 11
-57.93288171604281
 21
6.12637884535693
 31
0.0
  0
LINE
  5
ED
330
E4
100
AcDbEntity
  8
치수문자_일반주서
100
AcDbLine
 10
-57.93288171604281
 20
6.12637884535693
 30
0.0
 11
-52.3766317249835
 21
6.126378845356969
 31
0.0
  0
LINE
  5
EE
330
E4
100
AcDbEntity
  8
치수문자_일반주서
100
AcDbLine
 10
-52.3766317249835
 20
6.126378845356969
 30
0.0
 11
-52.3766317249835
 21
5.415441359792469
 31
0.0
  0
LINE
  5
EF
330
E4
100
AcDbEntity
  8
치수문자_일반주서
100
AcDbLine
 10
-34.64
 20
3.176074928723876
 30
0.0
 11
-48.14
 21
3.176074928723876
 31
0.0
  0
LINE
  5
F0
330
E4
100
AcDbEntity
  8
치수문자_일반주서
100
AcDbLine
 10
-34.64
 20
-3.173925071276118
 30
0.0
 11
-48.14
 21
-3.173925071276119
 31
0.0
  0
LINE
  5
F1
330
E4
100
AcDbEntity
  8
치수문자_일반주서
100
AcDbLine
 10
-47.14
 20
3.176074928723876
 30
0.0
 11
-47.14
 21
9.526074928723874
 31
0.0
  0
LINE
  5
F2
330
E4
100
AcDbEntity
  8
치수문자_일반주서
100
AcDbLine
 10
-47.14
 20
3.176074928723876
 30
0.0
 11
-47.14
 21
-3.173925071276119
 31
0.0
  0
LINE
  5
F3
330
E4
100
AcDbEntity
  8
치수문자_일반주서
100
AcDbLine
 10
-47.14
 20
-3.173925071276119
 30
0.0
 11
-47.14
 21
-9.52392507127612
 31
0.0
  0
MTEXT
  5
F4
330
E4
100
AcDbEntity
  8
치수문자_일반주서
100
AcDbMText
 10
-56.88836863956232
 20
-4.52461960173345
 30
0.0
 40
3.5
 41
0.0
 71
     1
 72
     1
  1
0.25
  7
SLDTEXTSTYLE0
 11
-7.044195017643634E-15
 21
1.0
 31
0.0
 73
     1
 44
1.0
  0
MTEXT
  5
F5
330
E4
100
AcDbEntity
  8
치수문자_일반주서
100
AcDbMText
 10
-51.65173708920184
 20
-7.163838766581741
 30
0.0
 40
3.5
 41
0.0
 71
     1
 72
     1
  1
%%c
  7
SLDTEXTSTYLE0
 11
-7.044195017643634E-15
 21
1.0
 31
0.0
 73
     1
 44
1.0
  0
MTEXT
  5
F6
330
E4
100
AcDbEntity
  8
치수문자_일반주서
100
AcDbMText
 10
-51.65173708920187
 20
-1.88540136820766
 30
0.0
 40
3.5
 41
0.0
 71
     1
 72
     1
  1
6.35
  7
SLDTEXTSTYLE0
 11
-7.044195017643634E-15
 21
1.0
 31
0.0
 73
     1
 44
1.0
  0
ENDBLK
  5
E6
330
E4
100
AcDbEntity
  8
0
100
AcDbBlockEnd
  0
BLOCK
  5
F9
330
F8
100
AcDbEntity
  8
0
100
AcDbBlockBegin
  2
_D_1
 70
     0
 10
0.0
 20
0.0
 30
0.0
  3
_D_1
  1
_D_1
  0
SOLID
  5
FB
330
F8
100
AcDbEntity
  8
치수문자_일반주서
100
AcDbTrace
 10
49.45641258506883
 20
1.588574928723892
 30
0.0
 11
49.96441258506884
 21
4.890574928723892
 31
0.0
 12
48.94841258506883
 22
4.890574928723892
 32
0.0
 13
48.94841258506883
 23
4.890574928723892
 33
0.0
  0
SOLID
  5
FC
330
F8
100
AcDbEntity
  8
치수문자_일반주서
100
AcDbTrace
 10
49.45641258506883
 20
-1.58642507127611
 30
0.0
 11
48.94841258506883
 21
-4.88842507127611
 31
0.0
 12
49.96441258506884
 22
-4.88842507127611
 32
0.0
 13
49.96441258506884
 23
-4.88842507127611
 33
0.0
  0
LINE
  5
FD
330
F8
100
AcDbEntity
  8
치수문자_일반주서
100
AcDbLine
 10
38.66353086902613
 20
1.184321277829294
 30
0.0
 11
38.66353086902614
 21
0.4733837922647943
 31
0.0
  0
LINE
  5
FE
330
F8
100
AcDbEntity
  8
치수문자_일반주서
100
AcDbLine
 10
38.66353086902614
 20
0.4733837922647943
 30
0.0
 11
44.21978086008544
 21
0.4733837922648335
 31
0.0
  0
LINE
  5
FF
330
F8
100
AcDbEntity
  8
치수문자_일반주서
100
AcDbLine
 10
44.21978086008544
 20
0.4733837922648335
 30
0.0
 11
44.21978086008544
 21
1.184321277829333
 31
0.0
  0
LINE
  5
100
330
F8
100
AcDbEntity
  8
치수문자_일반주서
100
AcDbLine
 10
38.66353086902606
 20
12.01305413996655
 30
0.0
 11
38.66353086902605
 21
12.72399162553105
 31
0.0
  0
LINE
  5
101
330
F8
100
AcDbEntity
  8
치수문자_일반주서
100
AcDbLine
 10
38.66353086902605
 20
12.72399162553105
 30
0.0
 11
44.21978086008536
 21
12.72399162553109
 31
0.0
  0
LINE
  5
102
330
F8
100
AcDbEntity
  8
치수문자_일반주서
100
AcDbLine
 10
44.21978086008536
 20
12.72399162553109
 30
0.0
 11
44.21978086008536
 21
12.01305413996659
 31
0.0
  0
LINE
  5
103
330
F8
100
AcDbEntity
  8
치수문자_일반주서
100
AcDbLine
 10
15.9440896545906
 20
1.588574928723894
 30
0.0
 11
50.45641258506883
 21
1.588574928723892
 31
0.0
  0
LINE
  5
104
330
F8
100
AcDbEntity
  8
치수문자_일반주서
100
AcDbLine
 10
15.9440896545906
 20
-1.586425071276108
 30
0.0
 11
50.45641258506883
 21
-1.58642507127611
 31
0.0
  0
LINE
  5
105
330
F8
100
AcDbEntity
  8
치수문자_일반주서
100
AcDbLine
 10
49.45641258506883
 20
1.588574928723892
 30
0.0
 11
49.45641258506883
 21
13.7636014042036
 31
0.0
  0
LINE
  5
106
330
F8
100
AcDbEntity
  8
치수문자_일반주서
100
AcDbLine
 10
49.45641258506883
 20
1.588574928723892
 30
0.0
 11
49.45641258506883
 21
-1.58642507127611
 31
0.0
  0
LINE
  5
107
330
F8
100
AcDbEntity
  8
치수문자_일반주서
100
AcDbLine
 10
49.45641258506883
 20
-1.58642507127611
 30
0.0
 11
49.45641258506883
 21
-7.93642507127611
 31
0.0
  0
MTEXT
  5
108
330
F8
100
AcDbEntity
  8
치수문자_일반주서
100
AcDbMText
 10
39.70804394550654
 20
2.072993178440673
 30
0.0
 40
3.5
 41
0.0
 71
     1
 72
     1
  1
0.13
  7
SLDTEXTSTYLE0
 11
-7.044195017643634E-15
 21
1.0
 31
0.0
 73
     1
 44
1.0
  0
MTEXT
  5
109
330
F8
100
AcDbEntity
  8
치수문자_일반주서
100
AcDbMText
 10
44.94467549586702
 20
-0.5662259864076179
 30
0.0
 40
3.5
 41
0.0
 71
     1
 72
     1
  1
%%c
  7
SLDTEXTSTYLE0
 11
-7.044195017643634E-15
 21
1.0
 31
0.0
 73
     1
 44
1.0
  0
MTEXT
  5
10A
330
F8
100
AcDbEntity
  8
치수문자_일반주서
100
AcDbMText
 10
44.94467549586699
 20
4.712211411966462
 30
0.0
 40
3.5
 41
0.0
 71
     1
 72
     1
  1
3.18
  7
SLDTEXTSTYLE0
 11
-7.044195017643634E-15
 21
1.0
 31
0.0
 73
     1
 44
1.0
  0
ENDBLK
  5
FA
330
F8
100
AcDbEntity
  8
0
100
AcDbBlockEnd
  0
BLOCK
  5
10E
330
10D
100
AcDbEntity
  8
0
100
AcDbBlockBegin
  2
_D_2
 70
     0
 10
0.0
 20
0.0
 30
0.0
  3
_D_2
  1
_D_2
  0
SOLID
  5
110
330
10D
100
AcDbEntity
  8
치수문자_일반주서
100
AcDbTrace
 10
22.70000000000001
 20
12.08505048907219
 30
0.0
 11
26.00200000000001
 21
11.57705048907219
 31
0.0
 12
26.00200000000001
 22
12.59305048907219
 32
0.0
 13
26.00200000000001
 23
12.59305048907219
 33
0.0
  0
SOLID
  5
111
330
10D
100
AcDbEntity
  8
치수문자_일반주서
100
AcDbTrace
 10
10.00000000000002
 20
12.08505048907219
 30
0.0
 11
6.69800000000002
 21
12.59305048907219
 31
0.0
 12
6.69800000000002
 22
11.57705048907219
 32
0.0
 13
6.69800000000002
 23
11.57705048907219
 33
0.0
  0
LINE
  5
112
330
10D
100
AcDbEntity
  8
치수문자_일반주서
100
AcDbLine
 10
10.96233742504367
 20
22.87793220511493
 30
0.0
 11
10.25139993947917
 21
22.87793220511493
 31
0.0
  0
LINE
  5
113
330
10D
100
AcDbEntity
  8
치수문자_일반주서
100
AcDbLine
 10
10.25139993947917
 20
22.87793220511493
 30
0.0
 11
10.25139993947914
 21
17.32168221405563
 31
0.0
  0
LINE
  5
114
330
10D
100
AcDbEntity
  8
치수문자_일반주서
100
AcDbLine
 10
10.25139993947914
 20
17.32168221405563
 30
0.0
 11
10.96233742504364
 21
17.32168221405562
 31
0.0
  0
LINE
  5
115
330
10D
100
AcDbEntity
  8
치수문자_일반주서
100
AcDbLine
 10
21.79107028718093
 20
22.87793220511485
 30
0.0
 11
22.50200777274543
 21
22.87793220511485
 31
0.0
  0
LINE
  5
116
330
10D
100
AcDbEntity
  8
치수문자_일반주서
100
AcDbLine
 10
22.50200777274543
 20
22.87793220511485
 30
0.0
 11
22.5020077727454
 21
17.32168221405554
 31
0.0
  0
LINE
  5
117
330
10D
100
AcDbEntity
  8
치수문자_일반주서
100
AcDbLine
 10
22.5020077727454
 20
17.32168221405554
 30
0.0
 11
21.7910702871809
 21
17.32168221405555
 31
0.0
  0
LINE
  5
118
330
10D
100
AcDbEntity
  8
치수문자_일반주서
100
AcDbLine
 10
22.70000000000001
 20
2.112324928723894
 30
0.0
 11
22.70000000000001
 21
13.08505048907219
 31
0.0
  0
LINE
  5
119
330
10D
100
AcDbEntity
  8
치수문자_일반주서
100
AcDbLine
 10
10.00000000000002
 20
2.265491372658009
 30
0.0
 11
10.00000000000002
 21
13.08505048907219
 31
0.0
  0
LINE
  5
11A
330
10D
100
AcDbEntity
  8
치수문자_일반주서
100
AcDbLine
 10
22.70000000000001
 20
12.08505048907219
 30
0.0
 11
29.05000000000001
 21
12.08505048907219
 31
0.0
  0
LINE
  5
11B
330
10D
100
AcDbEntity
  8
치수문자_일반주서
100
AcDbLine
 10
22.70000000000001
 20
12.08505048907219
 30
0.0
 11
10.00000000000002
 21
12.08505048907219
 31
0.0
  0
LINE
  5
11C
330
10D
100
AcDbEntity
  8
치수문자_일반주서
100
AcDbLine
 10
10.00000000000002
 20
12.08505048907219
 30
0.0
 11
3.650000000000019
 21
12.08505048907219
 31
0.0
  0
MTEXT
  5
11D
330
10D
100
AcDbEntity
  8
치수문자_일반주서
100
AcDbMText
 10
9.737641213992433
 20
16.65025975493391
 30
0.0
 40
3.5
 41
0.0
 71
     1
 72
     1
  1

  7
SLDTEXTSTYLE0
 73
     1
 44
1.0
  0
MTEXT
  5
11E
330
10D
100
AcDbEntity
  8
치수문자_일반주서
100
AcDbMText
 10
11.85100932565504
 20
21.83341912863451
 30
0.0
 40
3.5
 41
0.0
 71
     1
 72
     1
  1
0.50
  7
SLDTEXTSTYLE0
 73
     1
 44
1.0
  0
MTEXT
  5
11F
330
10D
100
AcDbEntity
  8
치수문자_일반주서
100
AcDbMText
 10
10.55795361247828
 20
16.59678757827405
 30
0.0
 40
3.5
 41
0.0
 71
     1
 72
     1
  1
12.70
  7
SLDTEXTSTYLE0
 73
     1
 44
1.0
  0
MTEXT
  5
120
330
10D
100
AcDbEntity
  8
치수문자_일반주서
100
AcDbMText
 10
24.347711017886
 20
16.6502597549338
 30
0.0
 40
3.5
 41
0.0
 71
     1
 72
     1
  1

  7
SLDTEXTSTYLE0
 73
     1
 44
1.0
  0
ENDBLK
  5
10F
330
10D
100
AcDbEntity
  8
0
100
AcDbBlockEnd
  0
BLOCK
  5
124
330
123
100
AcDbEntity
  8
0
100
AcDbBlockBegin
  2
_D_3
 70
     0
 10
0.0
 20
0.0
 30
0.0
  3
_D_3
  1
_D_3
  0
SOLID
  5
126
330
123
100
AcDbEntity
  8
치수문자_일반주서
100
AcDbTrace
 10
22.70000000000001
 20
24.08505048907216
 30
0.0
 11
19.39800000000001
 21
24.59305048907216
 31
0.0
 12
19.39800000000001
 22
23.57705048907216
 32
0.0
 13
19.39800000000001
 23
23.57705048907216
 33
0.0
  0
SOLID
  5
127
330
123
100
AcDbEntity
  8
치수문자_일반주서
100
AcDbTrace
 10
-34.45
 20
24.08505048907216
 30
0.0
 11
-31.148
 21
23.57705048907216
 31
0.0
 12
-31.148
 22
24.59305048907216
 32
0.0
 13
-31.148
 23
24.59305048907216
 33
0.0
  0
LINE
  5
128
330
123
100
AcDbEntity
  8
치수문자_일반주서
100
AcDbLine
 10
-11.54653280399565
 20
34.87793220511488
 30
0.0
 11
-12.25747028956015
 21
34.87793220511489
 31
0.0
  0
LINE
  5
129
330
123
100
AcDbEntity
  8
치수문자_일반주서
100
AcDbLine
 10
-12.25747028956015
 20
34.87793220511489
 30
0.0
 11
-12.25747028956019
 21
29.32168221405559
 31
0.0
  0
LINE
  5
12A
330
123
100
AcDbEntity
  8
치수문자_일반주서
100
AcDbLine
 10
-12.25747028956019
 20
29.32168221405559
 30
0.0
 11
-11.54653280399569
 21
29.32168221405558
 31
0.0
  0
LINE
  5
12B
330
123
100
AcDbEntity
  8
치수문자_일반주서
100
AcDbLine
 10
-0.717799941858388
 20
34.87793220511481
 30
0.0
 11
-0.0068624562938879
 21
34.8779322051148
 31
0.0
  0
LINE
  5
12C
330
123
100
AcDbEntity
  8
치수문자_일반주서
100
AcDbLine
 10
-0.0068624562938879
 20
34.8779322051148
 30
0.0
 11
-0.0068624562939274
 21
29.3216822140555
 31
0.0
  0
LINE
  5
12D
330
123
100
AcDbEntity
  8
치수문자_일반주서
100
AcDbLine
 10
-0.0068624562939274
 20
29.3216822140555
 30
0.0
 11
-0.7177999418584274
 21
29.3216822140555
 31
0.0
  0
LINE
  5
12E
330
123
100
AcDbEntity
  8
치수문자_일반주서
100
AcDbLine
 10
22.70000000000001
 20
2.112324928723894
 30
0.0
 11
22.70000000000001
 21
25.08505048907216
 31
0.0
  0
LINE
  5
12F
330
123
100
AcDbEntity
  8
치수문자_일반주서
100
AcDbLine
 10
-34.45
 20
3.366074928723888
 30
0.0
 11
-34.45
 21
25.08505048907216
 31
0.0
  0
LINE
  5
130
330
123
100
AcDbEntity
  8
치수문자_일반주서
100
AcDbLine
 10
22.70000000000001
 20
24.08505048907216
 30
0.0
 11
-34.45
 21
24.08505048907216
 31
0.0
  0
MTEXT
  5
131
330
123
100
AcDbEntity
  8
치수문자_일반주서
100
AcDbMText
 10
-12.77122901504689
 20
28.65025975493387
 30
0.0
 40
3.5
 41
0.0
 71
     1
 72
     1
  1

  7
SLDTEXTSTYLE0
 73
     1
 44
1.0
  0
MTEXT
  5
132
330
123
100
AcDbEntity
  8
치수문자_일반주서
100
AcDbMText
 10
-10.65786090338428
 20
33.83341912863447
 30
0.0
 40
3.5
 41
0.0
 71
     1
 72
     1
  1
2.25
  7
SLDTEXTSTYLE0
 73
     1
 44
1.0
  0
MTEXT
  5
133
330
123
100
AcDbEntity
  8
치수문자_일반주서
100
AcDbMText
 10
-11.95091661656105
 20
28.59678757827401
 30
0.0
 40
3.5
 41
0.0
 71
     1
 72
     1
  1
57.15
  7
SLDTEXTSTYLE0
 73
     1
 44
1.0
  0
MTEXT
  5
134
330
123
100
AcDbEntity
  8
치수문자_일반주서
100
AcDbMText
 10
1.83884078884668
 20
28.65025975493377
 30
0.0
 40
3.5
 41
0.0
 71
     1
 72
     1
  1

  7
SLDTEXTSTYLE0
 73
     1
 44
1.0
  0
ENDBLK
  5
125
330
123
100
AcDbEntity
  8
0
100
AcDbBlockEnd
  0
BLOCK
  5
13D
330
13C
100
AcDbEntity
  8
0
100
AcDbBlockBegin
  2
SW_DOWELSYMBOL_0
 70
     0
 10
0.0
 20
0.0
 30
0.0
  3
SW_DOWELSYMBOL_0
  1
SW_DOWELSYMBOL_0
  0
CIRCLE
  5
13F
330
13C
100
AcDbEntity
  8
해칭선
 62
     0
100
AcDbCircle
 10
0.0
 20
0.0
 30
0.0
 40
3.000000000000002
  0
HATCH
  5
140
330
13C
100
AcDbEntity
  8
0
  6
Continuous
 62
     0
370
     0
100
AcDbHatch
 10
0.0
 20
0.0
 30
0.0
210
0.0
220
0.0
230
1.0
  2
SOLID
 70
     1
 71
     0
 91
        1
 92
        0
 93
        3
 72
     2
 10
0.0000000000000069
 20
0.0
 40
3.000000000000002
 50
0.0
 51
90.0
 73
     1
 72
     1
 10
0.0000000000000069
 20
3.000000000000002
 11
0.0000000000000069
 21
0.0
 72
     1
 10
0.0000000000000069
 20
0.0
 11
3.000000000000009
 21
0.0
 97
        0
 75
     0
 76
     1
 98
        1
 10
0.0
 20
0.0
  0
HATCH
  5
141
330
13C
100
AcDbEntity
  8
0
  6
Continuous
 62
     0
370
     0
100
AcDbHatch
 10
0.0
 20
0.0
 30
0.0
210
0.0
220
0.0
230
1.0
  2
SOLID
 70
     1
 71
     0
 91
        1
 92
        0
 93
        3
 72
     2
 10
0.0000000000000069
 20
0.0
 40
3.000000000000002
 50
180.0
 51
270.0000000000008
 73
     1
 72
     1
 10
0.0000000000000069
 20
-3.000000000000002
 11
0.0000000000000069
 21
0.0
 72
     1
 10
0.0000000000000069
 20
0.0
 11
-2.999999999999995
 21
0.0
 97
        0
 75
     0
 76
     1
 98
        1
 10
0.0
 20
0.0
  0
ENDBLK
  5
13E
330
13C
100
AcDbEntity
  8
0
100
AcDbBlockEnd
  0
BLOCK
  5
238
330
237
100
AcDbEntity
  8
0
100
AcDbBlockBegin
  2
*D8
 70
     1
 10
0.0
 20
0.0
 30
0.0
  3
*D8
  1
*D8
  0
LINE
  5
239
330
237
100
AcDbEntity
  8
치수문자_일반주서
 62
     0
370
    -2
100
AcDbLine
 10
76.22960833996387
 20
45.899958944978
 30
0.0
 11
95.92012074401697
 21
22.13231115400317
 31
0.0
  0
MTEXT
  5
23A
330
237
100
AcDbEntity
  8
치수문자_일반주서
 62
     0
100
AcDbMText
 10
89.14956562026484
 20
34.41942065456243
 30
0.0
 40
3.5
 41
0.0
 71
     5
 72
     1
  1
\A1;R.25 [R0.010]
  7
SLDTEXTSTYLE0
 11
0.6379663498210919
 21
-0.7700642417980155
 31
0.0
 73
     1
 44
1.0
  0
LINE
  5
23B
330
237
100
AcDbEntity
  8
치수문자_일반주서
 62
     0
370
    -2
100
AcDbLine
 10
73.96100000000007
 20
48.63830738881175
 30
0.0
 11
74.12304345285463
 21
48.44271107139505
 31
0.0
  0
SOLID
  5
23C
330
237
100
AcDbEntity
  8
치수문자_일반주서
 62
     0
100
AcDbTrace
 10
76.65340036103338
 20
46.25105309282954
 30
0.0
 11
75.80581631889437
 21
45.54886479712646
 31
0.0
 12
74.12304345285463
 22
48.44271107139505
 32
0.0
 13
74.12304345285463
 23
48.44271107139505
 33
0.0
  0
POINT
  5
23D
330
237
100
AcDbEntity
  8
Defpoints
 62
     0
100
AcDbPoint
 10
74.12304345285463
 20
48.44271107139505
 30
0.0
  0
POINT
  5
23E
330
237
100
AcDbEntity
  8
Defpoints
 62
     0
100
AcDbPoint
 10
73.96100000000007
 20
48.63830738881175
 30
0.0
  0
ENDBLK
  5
23F
330
237
100
AcDbEntity
  8
0
100
AcDbBlockEnd
  0
BLOCK
  5
245
330
244
100
AcDbEntity
  8
0
100
AcDbBlockBegin
  2
*D9
 70
     1
 10
0.0
 20
0.0
 30
0.0
  3
*D9
  1
*D9
  0
LINE
  5
247
330
244
100
AcDbEntity
  8
치수문자_일반주서
 62
     0
370
    -2
100
AcDbLine
 10
17.81250000000005
 20
53.14680738881173
 30
0.0
 11
4.375000000000025
 21
53.14680738881168
 31
0.0
  0
LINE
  5
248
330
244
100
AcDbEntity
  8
치수문자_일반주서
 62
     0
370
    -2
100
AcDbLine
 10
17.81250000000005
 20
46.79680738881174
 30
0.0
 11
4.375000000000047
 21
46.79680738881169
 31
0.0
  0
LINE
  5
249
330
244
100
AcDbEntity
  8
치수문자_일반주서
 62
     0
370
    -2
100
AcDbLine
 10
4.375000000000036
 20
49.84480738881168
 30
0.0
 11
4.375000000000036
 21
50.09880738881169
 31
0.0
  0
SOLID
  5
24A
330
244
100
AcDbEntity
  8
치수문자_일반주서
 62
     0
100
AcDbTrace
 10
4.92533333333337
 20
49.84480738881168
 30
0.0
 11
3.824666666666703
 21
49.84480738881168
 31
0.0
 12
4.375000000000025
 22
53.14680738881168
 32
0.0
 13
4.375000000000025
 23
53.14680738881168
 33
0.0
  0
SOLID
  5
24B
330
244
100
AcDbEntity
  8
치수문자_일반주서
 62
     0
100
AcDbTrace
 10
3.824666666666702
 20
50.09880738881169
 30
0.0
 11
4.925333333333369
 21
50.09880738881169
 31
0.0
 12
4.375000000000047
 22
46.79680738881169
 32
0.0
 13
4.375000000000047
 23
46.79680738881169
 33
0.0
  0
MTEXT
  5
24C
330
244
100
AcDbEntity
  8
치수문자_일반주서
 62
     0
100
AcDbMText
 10
0.0000000000000355
 20
49.97180738881172
 30
0.0
 40
3.5
 41
0.0
 71
     2
 72
     1
  1
\A1;%%c6.35 [1/4]
  7
SLDTEXTSTYLE0
 11
-3.496765431890260E-15
 21
1.0
 31
0.0
 73
     1
 44
1.0
  0
POINT
  5
24D
330
244
100
AcDbEntity
  8
Defpoints
 62
     0
100
AcDbPoint
 10
17.87500000000005
 20
53.14680738881173
 30
0.0
  0
POINT
  5
24E
330
244
100
AcDbEntity
  8
Defpoints
 62
     0
100
AcDbPoint
 10
17.87500000000005
 20
46.79680738881174
 30
0.0
  0
POINT
  5
24F
330
244
100
AcDbEntity
  8
Defpoints
 62
     0
100
AcDbPoint
 10
4.37500000000005
 20
46.79680738881169
 30
0.0
  0
ENDBLK
  5
246
330
244
100
AcDbEntity
  8
0
100
AcDbBlockEnd
  0
BLOCK
  5
251
330
250
100
AcDbEntity
  8
0
100
AcDbBlockBegin
  2
*D10
 70
     1
 10
0.0
 20
0.0
 30
0.0
  3
*D10
  1
*D10
  0
LINE
  5
253
330
250
100
AcDbEntity
  8
치수문자_일반주서
 62
     0
370
    -2
100
AcDbLine
 10
74.27750000000006
 20
51.55930738881175
 30
0.0
 11
88.56686652211077
 21
51.55930738881181
 31
0.0
  0
LINE
  5
254
330
250
100
AcDbEntity
  8
치수문자_일반주서
 62
     0
370
    -2
100
AcDbLine
 10
74.27750000000006
 20
48.38430738881175
 30
0.0
 11
88.56686652211079
 21
48.38430738881181
 31
0.0
  0
LINE
  5
255
330
250
100
AcDbEntity
  8
치수문자_일반주서
 62
     0
370
    -2
100
AcDbLine
 10
88.56686652211077
 20
51.55930738881181
 30
0.0
 11
88.56686652211062
 21
86.00654842974495
 31
0.0
  0
LINE
  5
256
330
250
100
AcDbEntity
  8
치수문자_일반주서
 62
     0
370
    -2
100
AcDbLine
 10
88.56686652211077
 20
51.55930738881181
 30
0.0
 11
88.56686652211079
 21
48.38430738881181
 31
0.0
  0
LINE
  5
257
330
250
100
AcDbEntity
  8
치수문자_일반주서
 62
     0
370
    -2
100
AcDbLine
 10
88.56686652211076
 20
54.86130738881181
 30
0.0
 11
88.56686652211074
 21
58.16330738881181
 31
0.0
  0
LINE
  5
258
330
250
100
AcDbEntity
  8
치수문자_일반주서
 62
     0
370
    -2
100
AcDbLine
 10
88.5668665221108
 20
45.08230738881181
 30
0.0
 11
88.56686652211081
 21
41.78030738881181
 31
0.0
  0
SOLID
  5
259
330
250
100
AcDbEntity
  8
치수문자_일반주서
 62
     0
100
AcDbTrace
 10
88.01653318877743
 20
54.86130738881181
 30
0.0
 11
89.11719985544408
 21
54.86130738881181
 31
0.0
 12
88.56686652211077
 22
51.55930738881181
 32
0.0
 13
88.56686652211077
 23
51.55930738881181
 33
0.0
  0
SOLID
  5
25A
330
250
100
AcDbEntity
  8
치수문자_일반주서
 62
     0
100
AcDbTrace
 10
89.11719985544413
 20
45.08230738881181
 30
0.0
 11
88.01653318877747
 21
45.08230738881181
 31
0.0
 12
88.56686652211079
 22
48.38430738881181
 32
0.0
 13
88.56686652211079
 23
48.38430738881181
 33
0.0
  0
MTEXT
  5
25B
330
250
100
AcDbEntity
  8
치수문자_일반주서
 62
     0
100
AcDbMText
 10
84.19186652211067
 20
73.75654842974492
 30
0.0
 40
3.5
 41
0.0
 71
     2
 72
     1
  1
\A1;%%c3.18 [1/8]
  7
SLDTEXTSTYLE0
 11
-4.475859752819522E-15
 21
1.0
 31
0.0
 73
     1
 44
1.0
  0
POINT
  5
25C
330
250
100
AcDbEntity
  8
Defpoints
 62
     0
100
AcDbPoint
 10
74.21500000000006
 20
51.55930738881175
 30
0.0
  0
POINT
  5
25D
330
250
100
AcDbEntity
  8
Defpoints
 62
     0
100
AcDbPoint
 10
74.21500000000006
 20
48.38430738881175
 30
0.0
  0
POINT
  5
25E
330
250
100
AcDbEntity
  8
Defpoints
 62
     0
100
AcDbPoint
 10
88.56686652211079
 20
48.38430738881181
 30
0.0
  0
ENDBLK
  5
252
330
250
100
AcDbEntity
  8
0
100
AcDbBlockEnd
  0
BLOCK
  5
260
330
25F
100
AcDbEntity
  8
0
100
AcDbBlockBegin
  2
*D11
 70
     1
 10
0.0
 20
0.0
 30
0.0
  3
*D11
  1
*D11
  0
LINE
  5
262
330
25F
100
AcDbEntity
  8
치수문자_일반주서
 62
     0
370
    -2
100
AcDbLine
 10
74.21500000000006
 20
51.62180738881175
 30
0.0
 11
74.21500000000006
 21
60.69343428775669
 31
0.0
  0
LINE
  5
263
330
25F
100
AcDbEntity
  8
치수문자_일반주서
 62
     0
370
    -2
100
AcDbLine
 10
61.51500000000006
 20
51.29872383274586
 30
0.0
 11
61.51500000000006
 21
60.69343428775669
 31
0.0
  0
LINE
  5
264
330
25F
100
AcDbEntity
  8
치수문자_일반주서
 62
     0
370
    -2
100
AcDbLine
 10
61.51500000000006
 20
60.69343428775669
 30
0.0
 11
32.71287910182971
 21
60.69343428775669
 31
0.0
  0
LINE
  5
265
330
25F
100
AcDbEntity
  8
치수문자_일반주서
 62
     0
370
    -2
100
AcDbLine
 10
74.21500000000006
 20
60.69343428775669
 30
0.0
 11
61.51500000000006
 21
60.69343428775669
 31
0.0
  0
LINE
  5
266
330
25F
100
AcDbEntity
  8
치수문자_일반주서
 62
     0
370
    -2
100
AcDbLine
 10
77.51700000000005
 20
60.69343428775669
 30
0.0
 11
80.81900000000005
 21
60.69343428775669
 31
0.0
  0
LINE
  5
267
330
25F
100
AcDbEntity
  8
치수문자_일반주서
 62
     0
370
    -2
100
AcDbLine
 10
58.21300000000006
 20
60.69343428775669
 30
0.0
 11
54.91100000000007
 21
60.69343428775669
 31
0.0
  0
SOLID
  5
268
330
25F
100
AcDbEntity
  8
치수문자_일반주서
 62
     0
100
AcDbTrace
 10
77.51700000000005
 20
61.24376762109003
 30
0.0
 11
77.51700000000005
 21
60.14310095442336
 31
0.0
 12
74.21500000000006
 22
60.69343428775669
 32
0.0
 13
74.21500000000006
 23
60.69343428775669
 33
0.0
  0
SOLID
  5
269
330
25F
100
AcDbEntity
  8
치수문자_일반주서
 62
     0
100
AcDbTrace
 10
58.21300000000006
 20
60.14310095442336
 30
0.0
 11
58.21300000000006
 21
61.24376762109003
 31
0.0
 12
61.51500000000006
 22
60.69343428775669
 32
0.0
 13
61.51500000000006
 23
60.69343428775669
 33
0.0
  0
MTEXT
  5
26A
330
25F
100
AcDbEntity
  8
치수문자_일반주서
 62
     0
100
AcDbMText
 10
43.65037910182971
 20
65.0684342877567
 30
0.0
 40
3.5
 41
0.0
 71
     2
 72
     1
  1
\A1;12.7 [1/2]
  7
SLDTEXTSTYLE0
 73
     1
 44
1.0
  0
POINT
  5
26B
330
25F
100
AcDbEntity
  8
Defpoints
 62
     0
100
AcDbPoint
 10
74.21500000000006
 20
51.55930738881175
 30
0.0
  0
POINT
  5
26C
330
25F
100
AcDbEntity
  8
Defpoints
 62
     0
100
AcDbPoint
 10
61.51500000000006
 20
51.23622383274586
 30
0.0
  0
POINT
  5
26D
330
25F
100
AcDbEntity
  8
Defpoints
 62
     0
100
AcDbPoint
 10
61.51500000000006
 20
60.69343428775669
 30
0.0
  0
ENDBLK
  5
261
330
25F
100
AcDbEntity
  8
0
100
AcDbBlockEnd
  0
BLOCK
  5
26F
330
26E
100
AcDbEntity
  8
0
100
AcDbBlockBegin
  2
*D12
 70
     1
 10
0.0
 20
0.0
 30
0.0
  3
*D12
  1
*D12
  0
LINE
  5
271
330
26E
100
AcDbEntity
  8
치수문자_일반주서
 62
     0
370
    -2
100
AcDbLine
 10
74.21500000000006
 20
51.62180738881175
 30
0.0
 11
74.21500000000006
 21
74.05578294916
 31
0.0
  0
LINE
  5
272
330
26E
100
AcDbEntity
  8
치수문자_일반주서
 62
     0
370
    -2
100
AcDbLine
 10
17.06500000000005
 20
52.39930738881174
 30
0.0
 11
17.06500000000005
 21
74.05578294916
 31
0.0
  0
LINE
  5
273
330
26E
100
AcDbEntity
  8
치수문자_일반주서
 62
     0
370
    -2
100
AcDbLine
 10
70.91300000000007
 20
74.05578294916
 30
0.0
 11
20.36700000000005
 21
74.05578294916
 31
0.0
  0
SOLID
  5
274
330
26E
100
AcDbEntity
  8
치수문자_일반주서
 62
     0
100
AcDbTrace
 10
70.91300000000007
 20
73.50544961582668
 30
0.0
 11
70.91300000000007
 21
74.60611628249333
 31
0.0
 12
74.21500000000006
 22
74.05578294916
 32
0.0
 13
74.21500000000006
 23
74.05578294916
 33
0.0
  0
SOLID
  5
275
330
26E
100
AcDbEntity
  8
치수문자_일반주서
 62
     0
100
AcDbTrace
 10
20.36700000000005
 20
74.60611628249333
 30
0.0
 11
20.36700000000005
 21
73.50544961582668
 31
0.0
 12
17.06500000000005
 22
74.05578294916
 32
0.0
 13
17.06500000000005
 23
74.05578294916
 33
0.0
  0
MTEXT
  5
276
330
26E
100
AcDbEntity
  8
치수문자_일반주서
 62
     0
100
AcDbMText
 10
45.38283327782707
 20
78.43078294916
 30
0.0
 40
3.5
 41
0.0
 71
     2
 72
     1
  1
\A1;57.15 [2 1/4]
  7
SLDTEXTSTYLE0
 73
     1
 44
1.0
  0
POINT
  5
277
330
26E
100
AcDbEntity
  8
Defpoints
 62
     0
100
AcDbPoint
 10
74.21500000000006
 20
51.55930738881175
 30
0.0
  0
POINT
  5
278
330
26E
100
AcDbEntity
  8
Defpoints
 62
     0
100
AcDbPoint
 10
17.06500000000005
 20
52.33680738881174
 30
0.0
  0
POINT
  5
279
330
26E
100
AcDbEntity
  8
Defpoints
 62
     0
100
AcDbPoint
 10
17.06500000000005
 20
74.05578294916
 30
0.0
  0
ENDBLK
  5
270
330
26E
100
AcDbEntity
  8
0
100
AcDbBlockEnd
  0
BLOCK
  5
2CE
330
2CD
100
AcDbEntity
  8
0
100
AcDbBlockBegin
  2
*D13
 70
     1
 10
0.0
 20
0.0
 30
0.0
  3
*D13
  1
*D13
  0
LINE
  5
2D0
330
2CD
100
AcDbEntity
  8
치수문자_일반주서
 62
     0
370
    -2
100
AcDbLine
 10
86.62723978630154
 20
-12.37077325355808
 30
0.0
 11
73.1897397863015
 21
-12.37077325355813
 31
0.0
  0
LINE
  5
2D1
330
2CD
100
AcDbEntity
  8
치수문자_일반주서
 62
     0
370
    -2
100
AcDbLine
 10
86.62723978630154
 20
-18.72077325355807
 30
0.0
 11
73.18973978630153
 21
-18.72077325355812
 31
0.0
  0
LINE
  5
2D2
330
2CD
100
AcDbEntity
  8
치수문자_일반주서
 62
     0
370
    -2
100
AcDbLine
 10
73.18973978630152
 20
-15.67277325355813
 30
0.0
 11
73.18973978630152
 21
-15.41877325355812
 31
0.0
  0
SOLID
  5
2D3
330
2CD
100
AcDbEntity
  8
치수문자_일반주서
 62
     0
100
AcDbTrace
 10
73.74007311963484
 20
-15.67277325355813
 30
0.0
 11
72.63940645296819
 21
-15.67277325355813
 31
0.0
 12
73.1897397863015
 22
-12.37077325355813
 32
0.0
 13
73.1897397863015
 23
-12.37077325355813
 33
0.0
  0
SOLID
  5
2D4
330
2CD
100
AcDbEntity
  8
치수문자_일반주서
 62
     0
100
AcDbTrace
 10
72.63940645296819
 20
-15.41877325355812
 30
0.0
 11
73.74007311963484
 21
-15.41877325355812
 31
0.0
 12
73.18973978630153
 22
-18.72077325355812
 32
0.0
 13
73.18973978630153
 23
-18.72077325355812
 33
0.0
  0
MTEXT
  5
2D5
330
2CD
100
AcDbEntity
  8
치수문자_일반주서
 62
     0
100
AcDbMText
 10
68.81473978630152
 20
-15.54577325355809
 30
0.0
 40
3.5
 41
0.0
 71
     2
 72
     1
  1
\A1;%%c6.35 [1/4]
  7
SLDTEXTSTYLE0
 11
-4.475859752819533E-15
 21
1.0
 31
0.0
 73
     1
 44
1.0
  0
POINT
  5
2D6
330
2CD
100
AcDbEntity
  8
Defpoints
 62
     0
100
AcDbPoint
 10
86.68973978630154
 20
-12.37077325355808
 30
0.0
  0
POINT
  5
2D7
330
2CD
100
AcDbEntity
  8
Defpoints
 62
     0
100
AcDbPoint
 10
86.68973978630154
 20
-18.72077325355807
 30
0.0
  0
POINT
  5
2D8
330
2CD
100
AcDbEntity
  8
Defpoints
 62
     0
100
AcDbPoint
 10
73.18973978630153
 20
-18.72077325355812
 30
0.0
  0
ENDBLK
  5
2CF
330
2CD
100
AcDbEntity
  8
0
100
AcDbBlockEnd
  0
BLOCK
  5
2DA
330
2D9
100
AcDbEntity
  8
0
100
AcDbBlockBegin
  2
*D14
 70
     1
 10
0.0
 20
0.0
 30
0.0
  3
*D14
  1
*D14
  0
LINE
  5
2DC
330
2D9
100
AcDbEntity
  8
치수문자_일반주서
 62
     0
370
    -2
100
AcDbLine
 10
143.0922397863015
 20
-13.95827325355805
 30
0.0
 11
157.3816063084122
 21
-13.958273253558
 31
0.0
  0
LINE
  5
2DD
330
2D9
100
AcDbEntity
  8
치수문자_일반주서
 62
     0
370
    -2
100
AcDbLine
 10
143.0922397863015
 20
-17.13327325355806
 30
0.0
 11
157.3816063084122
 21
-17.13327325355801
 31
0.0
  0
LINE
  5
2DE
330
2D9
100
AcDbEntity
  8
치수문자_일반주서
 62
     0
370
    -2
100
AcDbLine
 10
157.3816063084122
 20
-13.958273253558
 30
0.0
 11
157.3816063084122
 21
20.48896778737515
 31
0.0
  0
LINE
  5
2DF
330
2D9
100
AcDbEntity
  8
치수문자_일반주서
 62
     0
370
    -2
100
AcDbLine
 10
157.3816063084122
 20
-13.958273253558
 30
0.0
 11
157.3816063084122
 21
-17.13327325355801
 31
0.0
  0
LINE
  5
2E0
330
2D9
100
AcDbEntity
  8
치수문자_일반주서
 62
     0
370
    -2
100
AcDbLine
 10
157.3816063084122
 20
-10.656273253558
 30
0.0
 11
157.3816063084122
 21
-7.354273253558002
 31
0.0
  0
LINE
  5
2E1
330
2D9
100
AcDbEntity
  8
치수문자_일반주서
 62
     0
370
    -2
100
AcDbLine
 10
157.3816063084122
 20
-20.43527325355801
 30
0.0
 11
157.3816063084122
 21
-23.737273253558
 31
0.0
  0
SOLID
  5
2E2
330
2D9
100
AcDbEntity
  8
치수문자_일반주서
 62
     0
100
AcDbTrace
 10
156.8312729750788
 20
-10.656273253558
 30
0.0
 11
157.9319396417455
 21
-10.656273253558
 31
0.0
 12
157.3816063084122
 22
-13.958273253558
 32
0.0
 13
157.3816063084122
 23
-13.958273253558
 33
0.0
  0
SOLID
  5
2E3
330
2D9
100
AcDbEntity
  8
치수문자_일반주서
 62
     0
100
AcDbTrace
 10
157.9319396417455
 20
-20.43527325355801
 30
0.0
 11
156.8312729750788
 21
-20.43527325355801
 31
0.0
 12
157.3816063084122
 22
-17.13327325355801
 32
0.0
 13
157.3816063084122
 23
-17.13327325355801
 33
0.0
  0
MTEXT
  5
2E4
330
2D9
100
AcDbEntity
  8
치수문자_일반주서
 62
     0
100
AcDbMText
 10
153.0066063084122
 20
8.238967787375145
 30
0.0
 40
3.5
 41
0.0
 71
     2
 72
     1
  1
\A1;%%c3.18 [1/8]
  7
SLDTEXTSTYLE0
 11
0.0
 21
1.0
 31
0.0
 73
     1
 44
1.0
  0
POINT
  5
2E5
330
2D9
100
AcDbEntity
  8
Defpoints
 62
     0
100
AcDbPoint
 10
143.0297397863015
 20
-13.95827325355805
 30
0.0
  0
POINT
  5
2E6
330
2D9
100
AcDbEntity
  8
Defpoints
 62
     0
100
AcDbPoint
 10
143.0297397863015
 20
-17.13327325355806
 30
0.0
  0
POINT
  5
2E7
330
2D9
100
AcDbEntity
  8
Defpoints
 62
     0
100
AcDbPoint
 10
157.3816063084123
 20
-17.13327325355801
 30
0.0
  0
ENDBLK
  5
2DB
330
2D9
100
AcDbEntity
  8
0
100
AcDbBlockEnd
  0
BLOCK
  5
2E9
330
2E8
100
AcDbEntity
  8
0
100
AcDbBlockBegin
  2
*D15
 70
     1
 10
0.0
 20
0.0
 30
0.0
  3
*D15
  1
*D15
  0
LINE
  5
2EB
330
2E8
100
AcDbEntity
  8
치수문자_일반주서
 62
     0
370
    -2
100
AcDbLine
 10
143.0297397863015
 20
-13.89577325355805
 30
0.0
 11
143.0297397863015
 21
-4.824146354613113
 31
0.0
  0
LINE
  5
2EC
330
2E8
100
AcDbEntity
  8
치수문자_일반주서
 62
     0
370
    -2
100
AcDbLine
 10
130.3297397863016
 20
-14.21885680962394
 30
0.0
 11
130.3297397863016
 21
-4.824146354613113
 31
0.0
  0
LINE
  5
2ED
330
2E8
100
AcDbEntity
  8
치수문자_일반주서
 62
     0
370
    -2
100
AcDbLine
 10
130.3297397863016
 20
-4.824146354613113
 30
0.0
 11
101.5276188881312
 21
-4.824146354613113
 31
0.0
  0
LINE
  5
2EE
330
2E8
100
AcDbEntity
  8
치수문자_일반주서
 62
     0
370
    -2
100
AcDbLine
 10
143.0297397863015
 20
-4.824146354613113
 30
0.0
 11
130.3297397863016
 21
-4.824146354613113
 31
0.0
  0
LINE
  5
2EF
330
2E8
100
AcDbEntity
  8
치수문자_일반주서
 62
     0
370
    -2
100
AcDbLine
 10
146.3317397863015
 20
-4.824146354613113
 30
0.0
 11
149.6337397863015
 21
-4.824146354613113
 31
0.0
  0
LINE
  5
2F0
330
2E8
100
AcDbEntity
  8
치수문자_일반주서
 62
     0
370
    -2
100
AcDbLine
 10
127.0277397863016
 20
-4.824146354613113
 30
0.0
 11
123.7257397863016
 21
-4.824146354613113
 31
0.0
  0
SOLID
  5
2F1
330
2E8
100
AcDbEntity
  8
치수문자_일반주서
 62
     0
100
AcDbTrace
 10
146.3317397863015
 20
-4.273813021279779
 30
0.0
 11
146.3317397863015
 21
-5.374479687946446
 31
0.0
 12
143.0297397863015
 22
-4.824146354613113
 32
0.0
 13
143.0297397863015
 23
-4.824146354613113
 33
0.0
  0
SOLID
  5
2F2
330
2E8
100
AcDbEntity
  8
치수문자_일반주서
 62
     0
100
AcDbTrace
 10
127.0277397863016
 20
-5.374479687946446
 30
0.0
 11
127.0277397863016
 21
-4.273813021279779
 31
0.0
 12
130.3297397863016
 22
-4.824146354613113
 32
0.0
 13
130.3297397863016
 23
-4.824146354613113
 33
0.0
  0
MTEXT
  5
2F3
330
2E8
100
AcDbEntity
  8
치수문자_일반주서
 62
     0
100
AcDbMText
 10
112.4651188881312
 20
-0.4491463546131129
 30
0.0
 40
3.5
 41
0.0
 71
     2
 72
     1
  1
\A1;12.7 [1/2]
  7
SLDTEXTSTYLE0
 73
     1
 44
1.0
  0
POINT
  5
2F4
330
2E8
100
AcDbEntity
  8
Defpoints
 62
     0
100
AcDbPoint
 10
143.0297397863015
 20
-13.95827325355805
 30
0.0
  0
POINT
  5
2F5
330
2E8
100
AcDbEntity
  8
Defpoints
 62
     0
100
AcDbPoint
 10
130.3297397863016
 20
-14.28135680962394
 30
0.0
  0
POINT
  5
2F6
330
2E8
100
AcDbEntity
  8
Defpoints
 62
     0
100
AcDbPoint
 10
130.3297397863016
 20
-4.824146354613113
 30
0.0
  0
ENDBLK
  5
2EA
330
2E8
100
AcDbEntity
  8
0
100
AcDbBlockEnd
  0
BLOCK
  5
2F8
330
2F7
100
AcDbEntity
  8
0
100
AcDbBlockBegin
  2
*D16
 70
     1
 10
0.0
 20
0.0
 30
0.0
  3
*D16
  1
*D16
  0
LINE
  5
2FA
330
2F7
100
AcDbEntity
  8
치수문자_일반주서
 62
     0
370
    -2
100
AcDbLine
 10
143.0297397863015
 20
-13.89577325355805
 30
0.0
 11
143.0297397863015
 21
8.538202306790197
 31
0.0
  0
LINE
  5
2FB
330
2F7
100
AcDbEntity
  8
치수문자_일반주서
 62
     0
370
    -2
100
AcDbLine
 10
85.87973978630154
 20
-13.11827325355807
 30
0.0
 11
85.87973978630154
 21
8.538202306790197
 31
0.0
  0
LINE
  5
2FC
330
2F7
100
AcDbEntity
  8
치수문자_일반주서
 62
     0
370
    -2
100
AcDbLine
 10
139.7277397863016
 20
8.538202306790197
 30
0.0
 11
89.18173978630153
 21
8.538202306790197
 31
0.0
  0
SOLID
  5
2FD
330
2F7
100
AcDbEntity
  8
치수문자_일반주서
 62
     0
100
AcDbTrace
 10
139.7277397863016
 20
7.987868973456863
 30
0.0
 11
139.7277397863016
 21
9.08853564012353
 31
0.0
 12
143.0297397863015
 22
8.538202306790197
 32
0.0
 13
143.0297397863015
 23
8.538202306790197
 33
0.0
  0
SOLID
  5
2FE
330
2F7
100
AcDbEntity
  8
치수문자_일반주서
 62
     0
100
AcDbTrace
 10
89.18173978630153
 20
9.08853564012353
 30
0.0
 11
89.18173978630153
 21
7.987868973456863
 31
0.0
 12
85.87973978630154
 22
8.538202306790197
 32
0.0
 13
85.87973978630154
 23
8.538202306790197
 33
0.0
  0
MTEXT
  5
2FF
330
2F7
100
AcDbEntity
  8
치수문자_일반주서
 62
     0
100
AcDbMText
 10
114.1975730641286
 20
12.9132023067902
 30
0.0
 40
3.5
 41
0.0
 71
     2
 72
     1
  1
\A1;57.15 [2 1/4]
  7
SLDTEXTSTYLE0
 73
     1
 44
1.0
  0
POINT
  5
300
330
2F7
100
AcDbEntity
  8
Defpoints
 62
     0
100
AcDbPoint
 10
143.0297397863015
 20
-13.95827325355805
 30
0.0
  0
POINT
  5
301
330
2F7
100
AcDbEntity
  8
Defpoints
 62
     0
100
AcDbPoint
 10
85.87973978630154
 20
-13.18077325355807
 30
0.0
  0
POINT
  5
302
330
2F7
100
AcDbEntity
  8
Defpoints
 62
     0
100
AcDbPoint
 10
85.87973978630154
 20
8.538202306790197
 30
0.0
  0
ENDBLK
  5
2F9
330
2F7
100
AcDbEntity
  8
0
100
AcDbBlockEnd
  0
BLOCK
  5
304
330
303
100
AcDbEntity
  8
0
100
AcDbBlockBegin
  2
*D17
 70
     1
 10
0.0
 20
0.0
 30
0.0
  3
*D17
  1
*D17
  0
LINE
  5
306
330
303
100
AcDbEntity
  8
치수문자_일반주서
 62
     0
370
    -2
100
AcDbLine
 10
145.0443481262654
 20
-19.6176216973918
 30
0.0
 11
164.7348605303185
 21
-43.38526948836665
 31
0.0
  0
MTEXT
  5
307
330
303
100
AcDbEntity
  8
치수문자_일반주서
 62
     0
100
AcDbMText
 10
157.9643054065663
 20
-31.09815998780738
 30
0.0
 40
3.5
 41
0.0
 71
     5
 72
     1
  1
\A1;R.25 [R0.010]
  7
SLDTEXTSTYLE0
 11
0.6379663498210919
 21
-0.7700642417980155
 31
0.0
 73
     1
 44
1.0
  0
LINE
  5
308
330
303
100
AcDbEntity
  8
치수문자_일반주서
 62
     0
370
    -2
100
AcDbLine
 10
142.7757397863016
 20
-16.87927325355805
 30
0.0
 11
142.9377832391561
 21
-17.07486957097476
 31
0.0
  0
SOLID
  5
309
330
303
100
AcDbEntity
  8
치수문자_일반주서
 62
     0
100
AcDbTrace
 10
145.4681401473349
 20
-19.26652754954026
 30
0.0
 11
144.6205561051958
 21
-19.96871584524334
 31
0.0
 12
142.9377832391561
 22
-17.07486957097476
 32
0.0
 13
142.9377832391561
 23
-17.07486957097476
 33
0.0
  0
POINT
  5
30A
330
303
100
AcDbEntity
  8
Defpoints
 62
     0
100
AcDbPoint
 10
142.9377832391561
 20
-17.07486957097476
 30
0.0
  0
POINT
  5
30B
330
303
100
AcDbEntity
  8
Defpoints
 62
     0
100
AcDbPoint
 10
142.7757397863016
 20
-16.87927325355805
 30
0.0
  0
ENDBLK
  5
305
330
303
100
AcDbEntity
  8
0
100
AcDbBlockEnd
  0
BLOCK
  5
3DC
330
3DB
100
AcDbEntity
  8
0
100
AcDbBlockBegin
  2
*D19
 70
     1
 10
0.0
 20
0.0
 30
0.0
  3
*D19
  1
*D19
  0
LINE
  5
3DD
330
3DB
100
AcDbEntity
  8
치수문자_일반주서
 62
     0
370
    -2
100
AcDbLine
 10
76.22960833996387
 20
45.899958944978
 30
0.0
 11
95.92012074401697
 21
22.13231115400317
 31
0.0
  0
MTEXT
  5
3DE
330
3DB
100
AcDbEntity
  8
치수문자_일반주서
 62
     0
100
AcDbMText
 10
89.14956562026484
 20
34.41942065456243
 30
0.0
 40
3.5
 41
0.0
 71
     5
 72
     1
  1
\A1;R.25 [R0.010]
  7
SLDTEXTSTYLE0
 11
0.6379663498210919
 21
-0.7700642417980155
 31
0.0
 73
     1
 44
1.0
  0
LINE
  5
3DF
330
3DB
100
AcDbEntity
  8
치수문자_일반주서
 62
     0
370
    -2
100
AcDbLine
 10
73.96100000000007
 20
48.63830738881175
 30
0.0
 11
74.12304345285463
 21
48.44271107139505
 31
0.0
  0
SOLID
  5
3E0
330
3DB
100
AcDbEntity
  8
치수문자_일반주서
 62
     0
100
AcDbTrace
 10
76.65340036103338
 20
46.25105309282954
 30
0.0
 11
75.80581631889437
 21
45.54886479712646
 31
0.0
 12
74.12304345285463
 22
48.44271107139505
 32
0.0
 13
74.12304345285463
 23
48.44271107139505
 33
0.0
  0
POINT
  5
3E1
330
3DB
100
AcDbEntity
  8
Defpoints
 62
     0
100
AcDbPoint
 10
74.12304345285463
 20
48.44271107139505
 30
0.0
  0
POINT
  5
3E2
330
3DB
100
AcDbEntity
  8
Defpoints
 62
     0
100
AcDbPoint
 10
73.96100000000007
 20
48.63830738881175
 30
0.0
  0
ENDBLK
  5
3E3
330
3DB
100
AcDbEntity
  8
0
100
AcDbBlockEnd
  0
BLOCK
  5
3E7
330
3E6
100
AcDbEntity
  8
0
100
AcDbBlockBegin
  2
*D20
 70
     1
 10
0.0
 20
0.0
 30
0.0
  3
*D20
  1
*D20
  0
LINE
  5
3E9
330
3E6
100
AcDbEntity
  8
치수문자_일반주서
 62
     0
370
    -2
100
AcDbLine
 10
17.81250000000005
 20
53.14680738881173
 30
0.0
 11
4.375000000000025
 21
53.14680738881168
 31
0.0
  0
LINE
  5
3EA
330
3E6
100
AcDbEntity
  8
치수문자_일반주서
 62
     0
370
    -2
100
AcDbLine
 10
17.81250000000005
 20
46.79680738881174
 30
0.0
 11
4.375000000000047
 21
46.79680738881169
 31
0.0
  0
LINE
  5
3EB
330
3E6
100
AcDbEntity
  8
치수문자_일반주서
 62
     0
370
    -2
100
AcDbLine
 10
4.375000000000036
 20
49.84480738881168
 30
0.0
 11
4.375000000000036
 21
50.09880738881169
 31
0.0
  0
SOLID
  5
3EC
330
3E6
100
AcDbEntity
  8
치수문자_일반주서
 62
     0
100
AcDbTrace
 10
4.92533333333337
 20
49.84480738881168
 30
0.0
 11
3.824666666666703
 21
49.84480738881168
 31
0.0
 12
4.375000000000025
 22
53.14680738881168
 32
0.0
 13
4.375000000000025
 23
53.14680738881168
 33
0.0
  0
SOLID
  5
3ED
330
3E6
100
AcDbEntity
  8
치수문자_일반주서
 62
     0
100
AcDbTrace
 10
3.824666666666702
 20
50.09880738881169
 30
0.0
 11
4.925333333333369
 21
50.09880738881169
 31
0.0
 12
4.375000000000047
 22
46.79680738881169
 32
0.0
 13
4.375000000000047
 23
46.79680738881169
 33
0.0
  0
MTEXT
  5
3EE
330
3E6
100
AcDbEntity
  8
치수문자_일반주서
 62
     0
100
AcDbMText
 10
0.0000000000000355
 20
49.97180738881172
 30
0.0
 40
3.5
 41
0.0
 71
     2
 72
     1
  1
\A1;%%c6.35 [1/4]
  7
SLDTEXTSTYLE0
 11
-3.496765431890260E-15
 21
1.0
 31
0.0
 73
     1
 44
1.0
  0
POINT
  5
3EF
330
3E6
100
AcDbEntity
  8
Defpoints
 62
     0
100
AcDbPoint
 10
17.87500000000005
 20
53.14680738881173
 30
0.0
  0
POINT
  5
3F0
330
3E6
100
AcDbEntity
  8
Defpoints
 62
     0
100
AcDbPoint
 10
17.87500000000005
 20
46.79680738881174
 30
0.0
  0
POINT
  5
3F1
330
3E6
100
AcDbEntity
  8
Defpoints
 62
     0
100
AcDbPoint
 10
4.37500000000005
 20
46.79680738881169
 30
0.0
  0
ENDBLK
  5
3E8
330
3E6
100
AcDbEntity
  8
0
100
AcDbBlockEnd
  0
BLOCK
  5
3F3
330
3F2
100
AcDbEntity
  8
0
100
AcDbBlockBegin
  2
*D21
 70
     1
 10
0.0
 20
0.0
 30
0.0
  3
*D21
  1
*D21
  0
LINE
  5
3F5
330
3F2
100
AcDbEntity
  8
치수문자_일반주서
 62
     0
370
    -2
100
AcDbLine
 10
74.27750000000006
 20
51.55930738881175
 30
0.0
 11
88.56686652211077
 21
51.55930738881181
 31
0.0
  0
LINE
  5
3F6
330
3F2
100
AcDbEntity
  8
치수문자_일반주서
 62
     0
370
    -2
100
AcDbLine
 10
74.27750000000006
 20
48.38430738881175
 30
0.0
 11
88.56686652211079
 21
48.38430738881181
 31
0.0
  0
LINE
  5
3F7
330
3F2
100
AcDbEntity
  8
치수문자_일반주서
 62
     0
370
    -2
100
AcDbLine
 10
88.56686652211077
 20
51.55930738881181
 30
0.0
 11
88.56686652211062
 21
86.00654842974495
 31
0.0
  0
LINE
  5
3F8
330
3F2
100
AcDbEntity
  8
치수문자_일반주서
 62
     0
370
    -2
100
AcDbLine
 10
88.56686652211077
 20
51.55930738881181
 30
0.0
 11
88.56686652211079
 21
48.38430738881181
 31
0.0
  0
LINE
  5
3F9
330
3F2
100
AcDbEntity
  8
치수문자_일반주서
 62
     0
370
    -2
100
AcDbLine
 10
88.56686652211076
 20
54.86130738881181
 30
0.0
 11
88.56686652211074
 21
58.16330738881181
 31
0.0
  0
LINE
  5
3FA
330
3F2
100
AcDbEntity
  8
치수문자_일반주서
 62
     0
370
    -2
100
AcDbLine
 10
88.5668665221108
 20
45.08230738881181
 30
0.0
 11
88.56686652211081
 21
41.78030738881181
 31
0.0
  0
SOLID
  5
3FB
330
3F2
100
AcDbEntity
  8
치수문자_일반주서
 62
     0
100
AcDbTrace
 10
88.01653318877743
 20
54.86130738881181
 30
0.0
 11
89.11719985544408
 21
54.86130738881181
 31
0.0
 12
88.56686652211077
 22
51.55930738881181
 32
0.0
 13
88.56686652211077
 23
51.55930738881181
 33
0.0
  0
SOLID
  5
3FC
330
3F2
100
AcDbEntity
  8
치수문자_일반주서
 62
     0
100
AcDbTrace
 10
89.11719985544413
 20
45.08230738881181
 30
0.0
 11
88.01653318877747
 21
45.08230738881181
 31
0.0
 12
88.56686652211079
 22
48.38430738881181
 32
0.0
 13
88.56686652211079
 23
48.38430738881181
 33
0.0
  0
MTEXT
  5
3FD
330
3F2
100
AcDbEntity
  8
치수문자_일반주서
 62
     0
100
AcDbMText
 10
84.19186652211067
 20
73.75654842974492
 30
0.0
 40
3.5
 41
0.0
 71
     2
 72
     1
  1
\A1;%%c3.18 [1/8]
  7
SLDTEXTSTYLE0
 11
-4.475859752819522E-15
 21
1.0
 31
0.0
 73
     1
 44
1.0
  0
POINT
  5
3FE
330
3F2
100
AcDbEntity
  8
Defpoints
 62
     0
100
AcDbPoint
 10
74.21500000000006
 20
51.55930738881175
 30
0.0
  0
POINT
  5
3FF
330
3F2
100
AcDbEntity
  8
Defpoints
 62
     0
100
AcDbPoint
 10
74.21500000000006
 20
48.38430738881175
 30
0.0
  0
POINT
  5
400
330
3F2
100
AcDbEntity
  8
Defpoints
 62
     0
100
AcDbPoint
 10
88.56686652211079
 20
48.38430738881181
 30
0.0
  0
ENDBLK
  5
3F4
330
3F2
100
AcDbEntity
  8
0
100
AcDbBlockEnd
  0
BLOCK
  5
402
330
401
100
AcDbEntity
  8
0
100
AcDbBlockBegin
  2
*D22
 70
     1
 10
0.0
 20
0.0
 30
0.0
  3
*D22
  1
*D22
  0
LINE
  5
404
330
401
100
AcDbEntity
  8
치수문자_일반주서
 62
     0
370
    -2
100
AcDbLine
 10
74.21500000000006
 20
51.62180738881175
 30
0.0
 11
74.21500000000006
 21
60.69343428775669
 31
0.0
  0
LINE
  5
405
330
401
100
AcDbEntity
  8
치수문자_일반주서
 62
     0
370
    -2
100
AcDbLine
 10
61.51500000000006
 20
51.29872383274586
 30
0.0
 11
61.51500000000006
 21
60.69343428775669
 31
0.0
  0
LINE
  5
406
330
401
100
AcDbEntity
  8
치수문자_일반주서
 62
     0
370
    -2
100
AcDbLine
 10
61.51500000000006
 20
60.69343428775669
 30
0.0
 11
32.71287910182971
 21
60.69343428775669
 31
0.0
  0
LINE
  5
407
330
401
100
AcDbEntity
  8
치수문자_일반주서
 62
     0
370
    -2
100
AcDbLine
 10
74.21500000000006
 20
60.69343428775669
 30
0.0
 11
61.51500000000006
 21
60.69343428775669
 31
0.0
  0
LINE
  5
408
330
401
100
AcDbEntity
  8
치수문자_일반주서
 62
     0
370
    -2
100
AcDbLine
 10
77.51700000000005
 20
60.69343428775669
 30
0.0
 11
80.81900000000005
 21
60.69343428775669
 31
0.0
  0
LINE
  5
409
330
401
100
AcDbEntity
  8
치수문자_일반주서
 62
     0
370
    -2
100
AcDbLine
 10
58.21300000000006
 20
60.69343428775669
 30
0.0
 11
54.91100000000007
 21
60.69343428775669
 31
0.0
  0
SOLID
  5
40A
330
401
100
AcDbEntity
  8
치수문자_일반주서
 62
     0
100
AcDbTrace
 10
77.51700000000005
 20
61.24376762109003
 30
0.0
 11
77.51700000000005
 21
60.14310095442336
 31
0.0
 12
74.21500000000006
 22
60.69343428775669
 32
0.0
 13
74.21500000000006
 23
60.69343428775669
 33
0.0
  0
SOLID
  5
40B
330
401
100
AcDbEntity
  8
치수문자_일반주서
 62
     0
100
AcDbTrace
 10
58.21300000000006
 20
60.14310095442336
 30
0.0
 11
58.21300000000006
 21
61.24376762109003
 31
0.0
 12
61.51500000000006
 22
60.69343428775669
 32
0.0
 13
61.51500000000006
 23
60.69343428775669
 33
0.0
  0
MTEXT
  5
40C
330
401
100
AcDbEntity
  8
치수문자_일반주서
 62
     0
100
AcDbMText
 10
43.65037910182971
 20
65.0684342877567
 30
0.0
 40
3.5
 41
0.0
 71
     2
 72
     1
  1
\A1;12.7 [1/2]
  7
SLDTEXTSTYLE0
 73
     1
 44
1.0
  0
POINT
  5
40D
330
401
100
AcDbEntity
  8
Defpoints
 62
     0
100
AcDbPoint
 10
74.21500000000006
 20
51.55930738881175
 30
0.0
  0
POINT
  5
40E
330
401
100
AcDbEntity
  8
Defpoints
 62
     0
100
AcDbPoint
 10
61.51500000000006
 20
51.23622383274586
 30
0.0
  0
POINT
  5
40F
330
401
100
AcDbEntity
  8
Defpoints
 62
     0
100
AcDbPoint
 10
61.51500000000006
 20
60.69343428775669
 30
0.0
  0
ENDBLK
  5
403
330
401
100
AcDbEntity
  8
0
100
AcDbBlockEnd
  0
BLOCK
  5
411
330
410
100
AcDbEntity
  8
0
100
AcDbBlockBegin
  2
*D23
 70
     1
 10
0.0
 20
0.0
 30
0.0
  3
*D23
  1
*D23
  0
LINE
  5
413
330
410
100
AcDbEntity
  8
치수문자_일반주서
 62
     0
370
    -2
100
AcDbLine
 10
74.21500000000006
 20
51.62180738881175
 30
0.0
 11
74.21500000000006
 21
74.05578294916
 31
0.0
  0
LINE
  5
414
330
410
100
AcDbEntity
  8
치수문자_일반주서
 62
     0
370
    -2
100
AcDbLine
 10
17.06500000000005
 20
52.39930738881174
 30
0.0
 11
17.06500000000005
 21
74.05578294916
 31
0.0
  0
LINE
  5
415
330
410
100
AcDbEntity
  8
치수문자_일반주서
 62
     0
370
    -2
100
AcDbLine
 10
70.91300000000007
 20
74.05578294916
 30
0.0
 11
20.36700000000005
 21
74.05578294916
 31
0.0
  0
SOLID
  5
416
330
410
100
AcDbEntity
  8
치수문자_일반주서
 62
     0
100
AcDbTrace
 10
70.91300000000007
 20
73.50544961582668
 30
0.0
 11
70.91300000000007
 21
74.60611628249333
 31
0.0
 12
74.21500000000006
 22
74.05578294916
 32
0.0
 13
74.21500000000006
 23
74.05578294916
 33
0.0
  0
SOLID
  5
417
330
410
100
AcDbEntity
  8
치수문자_일반주서
 62
     0
100
AcDbTrace
 10
20.36700000000005
 20
74.60611628249333
 30
0.0
 11
20.36700000000005
 21
73.50544961582668
 31
0.0
 12
17.06500000000005
 22
74.05578294916
 32
0.0
 13
17.06500000000005
 23
74.05578294916
 33
0.0
  0
MTEXT
  5
418
330
410
100
AcDbEntity
  8
치수문자_일반주서
 62
     0
100
AcDbMText
 10
45.38283327782707
 20
78.43078294916
 30
0.0
 40
3.5
 41
0.0
 71
     2
 72
     1
  1
\A1;57.15 [2 1/4]
  7
SLDTEXTSTYLE0
 73
     1
 44
1.0
  0
POINT
  5
419
330
410
100
AcDbEntity
  8
Defpoints
 62
     0
100
AcDbPoint
 10
74.21500000000006
 20
51.55930738881175
 30
0.0
  0
POINT
  5
41A
330
410
100
AcDbEntity
  8
Defpoints
 62
     0
100
AcDbPoint
 10
17.06500000000005
 20
52.33680738881174
 30
0.0
  0
POINT
  5
41B
330
410
100
AcDbEntity
  8
Defpoints
 62
     0
100
AcDbPoint
 10
17.06500000000005
 20
74.05578294916
 30
0.0
  0
ENDBLK
  5
412
330
410
100
AcDbEntity
  8
0
100
AcDbBlockEnd
  0
BLOCK
  5
470
330
46F
100
AcDbEntity
  8
0
100
AcDbBlockBegin
  2
*D24
 70
     1
 10
0.0
 20
0.0
 30
0.0
  3
*D24
  1
*D24
  0
LINE
  5
472
330
46F
100
AcDbEntity
  8
치수문자_일반주서
 62
     0
370
    -2
100
AcDbLine
 10
-34.77786934298442
 20
3.174999999999983
 30
0.0
 11
-48.21536934298445
 21
3.174999999999932
 31
0.0
  0
LINE
  5
473
330
46F
100
AcDbEntity
  8
치수문자_일반주서
 62
     0
370
    -2
100
AcDbLine
 10
-34.77786934298442
 20
-3.175000000000012
 30
0.0
 11
-48.21536934298443
 21
-3.175000000000062
 31
0.0
  0
LINE
  5
474
330
46F
100
AcDbEntity
  8
치수문자_일반주서
 62
     0
370
    -2
100
AcDbLine
 10
-48.21536934298444
 20
-0.1270000000000673
 30
0.0
 11
-48.21536934298445
 21
0.1269999999999376
 31
0.0
  0
SOLID
  5
475
330
46F
100
AcDbEntity
  8
치수문자_일반주서
 62
     0
100
AcDbTrace
 10
-47.6650360096511
 20
-0.1270000000000654
 30
0.0
 11
-48.76570267631777
 21
-0.1270000000000691
 31
0.0
 12
-48.21536934298445
 22
3.174999999999932
 32
0.0
 13
-48.21536934298445
 23
3.174999999999932
 33
0.0
  0
SOLID
  5
476
330
46F
100
AcDbEntity
  8
치수문자_일반주서
 62
     0
100
AcDbTrace
 10
-48.76570267631778
 20
0.1269999999999357
 30
0.0
 11
-47.66503600965111
 21
0.1269999999999395
 31
0.0
 12
-48.21536934298443
 22
-3.175000000000062
 32
0.0
 13
-48.21536934298443
 23
-3.175000000000062
 33
0.0
  0
MTEXT
  5
477
330
46F
100
AcDbEntity
  8
치수문자_일반주서
 62
     0
100
AcDbMText
 10
-52.59036934298445
 20
-0.000000000000043
 30
0.0
 40
3.5
 41
0.0
 71
     2
 72
     1
  1
\A1;%%c6.35 [1/4]
  7
SLDTEXTSTYLE0
 11
-3.356894814614650E-15
 21
1.0
 31
0.0
 73
     1
 44
1.0
  0
POINT
  5
478
330
46F
100
AcDbEntity
  8
Defpoints
 62
     0
100
AcDbPoint
 10
-34.71536934298442
 20
3.174999999999983
 30
0.0
  0
POINT
  5
479
330
46F
100
AcDbEntity
  8
Defpoints
 62
     0
100
AcDbPoint
 10
-34.71536934298442
 20
-3.175000000000011
 30
0.0
  0
POINT
  5
47A
330
46F
100
AcDbEntity
  8
Defpoints
 62
     0
100
AcDbPoint
 10
-48.21536934298443
 20
-3.175000000000062
 30
0.0
  0
ENDBLK
  5
471
330
46F
100
AcDbEntity
  8
0
100
AcDbBlockEnd
  0
BLOCK
  5
47C
330
47B
100
AcDbEntity
  8
0
100
AcDbBlockBegin
  2
*D25
 70
     1
 10
0.0
 20
0.0
 30
0.0
  3
*D25
  1
*D25
  0
LINE
  5
47E
330
47B
100
AcDbEntity
  8
치수문자_일반주서
 62
     0
370
    -2
100
AcDbLine
 10
21.68713065701559
 20
1.587500000000006
 30
0.0
 11
35.9764971791263
 21
1.587500000000059
 31
0.0
  0
LINE
  5
47F
330
47B
100
AcDbEntity
  8
치수문자_일반주서
 62
     0
370
    -2
100
AcDbLine
 10
21.68713065701559
 20
-1.587500000000005
 30
0.0
 11
35.97649717912631
 21
-1.587499999999952
 31
0.0
  0
LINE
  5
480
330
47B
100
AcDbEntity
  8
치수문자_일반주서
 62
     0
370
    -2
100
AcDbLine
 10
35.9764971791263
 20
1.587500000000059
 30
0.0
 11
35.97649717912614
 21
36.0347410409332
 31
0.0
  0
LINE
  5
481
330
47B
100
AcDbEntity
  8
치수문자_일반주서
 62
     0
370
    -2
100
AcDbLine
 10
35.9764971791263
 20
1.587500000000059
 30
0.0
 11
35.97649717912631
 21
-1.587499999999952
 31
0.0
  0
LINE
  5
482
330
47B
100
AcDbEntity
  8
치수문자_일반주서
 62
     0
370
    -2
100
AcDbLine
 10
35.97649717912628
 20
4.889500000000059
 30
0.0
 11
35.97649717912627
 21
8.191500000000058
 31
0.0
  0
LINE
  5
483
330
47B
100
AcDbEntity
  8
치수문자_일반주서
 62
     0
370
    -2
100
AcDbLine
 10
35.97649717912633
 20
-4.889499999999952
 30
0.0
 11
35.97649717912634
 21
-8.191499999999952
 31
0.0
  0
SOLID
  5
484
330
47B
100
AcDbEntity
  8
치수문자_일반주서
 62
     0
100
AcDbTrace
 10
35.42616384579295
 20
4.889500000000056
 30
0.0
 11
36.52683051245962
 21
4.889500000000061
 31
0.0
 12
35.9764971791263
 22
1.587500000000059
 32
0.0
 13
35.9764971791263
 23
1.587500000000059
 33
0.0
  0
SOLID
  5
485
330
47B
100
AcDbEntity
  8
치수문자_일반주서
 62
     0
100
AcDbTrace
 10
36.52683051245966
 20
-4.889499999999949
 30
0.0
 11
35.42616384579299
 21
-4.889499999999955
 31
0.0
 12
35.97649717912631
 22
-1.587499999999952
 32
0.0
 13
35.97649717912631
 23
-1.587499999999952
 33
0.0
  0
MTEXT
  5
486
330
47B
100
AcDbEntity
  8
치수문자_일반주서
 62
     0
100
AcDbMText
 10
31.6014971791262
 20
23.78474104093318
 30
0.0
 40
3.5
 41
0.0
 71
     2
 72
     1
  1
\A1;%%c3.18 [1/8]
  7
SLDTEXTSTYLE0
 11
-4.475859752819513E-15
 21
1.0
 31
0.0
 73
     1
 44
1.0
  0
POINT
  5
487
330
47B
100
AcDbEntity
  8
Defpoints
 62
     0
100
AcDbPoint
 10
21.62463065701559
 20
1.587500000000006
 30
0.0
  0
POINT
  5
488
330
47B
100
AcDbEntity
  8
Defpoints
 62
     0
100
AcDbPoint
 10
21.62463065701559
 20
-1.587500000000006
 30
0.0
  0
POINT
  5
489
330
47B
100
AcDbEntity
  8
Defpoints
 62
     0
100
AcDbPoint
 10
35.9764971791262
 20
-1.587499999999952
 30
0.0
  0
ENDBLK
  5
47D
330
47B
100
AcDbEntity
  8
0
100
AcDbBlockEnd
  0
BLOCK
  5
48B
330
48A
100
AcDbEntity
  8
0
100
AcDbBlockBegin
  2
*D26
 70
     1
 10
0.0
 20
0.0
 30
0.0
  3
*D26
  1
*D26
  0
LINE
  5
48D
330
48A
100
AcDbEntity
  8
치수문자_일반주서
 62
     0
370
    -2
100
AcDbLine
 10
21.62463065701559
 20
1.650000000000006
 30
0.0
 11
21.62463065701559
 21
10.72162689894495
 31
0.0
  0
LINE
  5
48E
330
48A
100
AcDbEntity
  8
치수문자_일반주서
 62
     0
370
    -2
100
AcDbLine
 10
8.924630657015598
 20
1.32691644393411
 30
0.0
 11
8.924630657015598
 21
10.72162689894495
 31
0.0
  0
LINE
  5
48F
330
48A
100
AcDbEntity
  8
치수문자_일반주서
 62
     0
370
    -2
100
AcDbLine
 10
8.924630657015598
 20
10.72162689894495
 30
0.0
 11
-19.87749024115476
 21
10.72162689894495
 31
0.0
  0
LINE
  5
490
330
48A
100
AcDbEntity
  8
치수문자_일반주서
 62
     0
370
    -2
100
AcDbLine
 10
21.62463065701559
 20
10.72162689894495
 30
0.0
 11
8.924630657015598
 21
10.72162689894495
 31
0.0
  0
LINE
  5
491
330
48A
100
AcDbEntity
  8
치수문자_일반주서
 62
     0
370
    -2
100
AcDbLine
 10
24.92663065701559
 20
10.72162689894495
 30
0.0
 11
28.22863065701559
 21
10.72162689894495
 31
0.0
  0
LINE
  5
492
330
48A
100
AcDbEntity
  8
치수문자_일반주서
 62
     0
370
    -2
100
AcDbLine
 10
5.622630657015598
 20
10.72162689894495
 30
0.0
 11
2.320630657015599
 21
10.72162689894495
 31
0.0
  0
SOLID
  5
493
330
48A
100
AcDbEntity
  8
치수문자_일반주서
 62
     0
100
AcDbTrace
 10
24.92663065701559
 20
11.27196023227828
 30
0.0
 11
24.92663065701559
 21
10.17129356561161
 31
0.0
 12
21.62463065701559
 22
10.72162689894495
 32
0.0
 13
21.62463065701559
 23
10.72162689894495
 33
0.0
  0
SOLID
  5
494
330
48A
100
AcDbEntity
  8
치수문자_일반주서
 62
     0
100
AcDbTrace
 10
5.622630657015598
 20
10.17129356561161
 30
0.0
 11
5.622630657015598
 21
11.27196023227828
 31
0.0
 12
8.924630657015598
 22
10.72162689894495
 32
0.0
 13
8.924630657015598
 23
10.72162689894495
 33
0.0
  0
MTEXT
  5
495
330
48A
100
AcDbEntity
  8
치수문자_일반주서
 62
     0
100
AcDbMText
 10
-8.93999024115476
 20
15.09662689894495
 30
0.0
 40
3.5
 41
0.0
 71
     2
 72
     1
  1
\A1;12.7 [1/2]
  7
SLDTEXTSTYLE0
 73
     1
 44
1.0
  0
POINT
  5
496
330
48A
100
AcDbEntity
  8
Defpoints
 62
     0
100
AcDbPoint
 10
21.62463065701559
 20
1.587500000000006
 30
0.0
  0
POINT
  5
497
330
48A
100
AcDbEntity
  8
Defpoints
 62
     0
100
AcDbPoint
 10
8.924630657015598
 20
1.26441644393411
 30
0.0
  0
POINT
  5
498
330
48A
100
AcDbEntity
  8
Defpoints
 62
     0
100
AcDbPoint
 10
8.924630657015598
 20
10.72162689894495
 30
0.0
  0
ENDBLK
  5
48C
330
48A
100
AcDbEntity
  8
0
100
AcDbBlockEnd
  0
BLOCK
  5
49A
330
499
100
AcDbEntity
  8
0
100
AcDbBlockBegin
  2
*D27
 70
     1
 10
0.0
 20
0.0
 30
0.0
  3
*D27
  1
*D27
  0
LINE
  5
49C
330
499
100
AcDbEntity
  8
치수문자_일반주서
 62
     0
370
    -2
100
AcDbLine
 10
21.62463065701559
 20
1.650000000000006
 30
0.0
 11
21.62463065701559
 21
24.08397556034825
 31
0.0
  0
LINE
  5
49D
330
499
100
AcDbEntity
  8
치수문자_일반주서
 62
     0
370
    -2
100
AcDbLine
 10
-35.52536934298442
 20
2.427499999999981
 30
0.0
 11
-35.52536934298442
 21
24.08397556034825
 31
0.0
  0
LINE
  5
49E
330
499
100
AcDbEntity
  8
치수문자_일반주서
 62
     0
370
    -2
100
AcDbLine
 10
18.32263065701559
 20
24.08397556034825
 30
0.0
 11
-32.22336934298442
 21
24.08397556034825
 31
0.0
  0
SOLID
  5
49F
330
499
100
AcDbEntity
  8
치수문자_일반주서
 62
     0
100
AcDbTrace
 10
18.32263065701559
 20
23.53364222701492
 30
0.0
 11
18.32263065701559
 21
24.63430889368158
 31
0.0
 12
21.62463065701559
 22
24.08397556034825
 32
0.0
 13
21.62463065701559
 23
24.08397556034825
 33
0.0
  0
SOLID
  5
4A0
330
499
100
AcDbEntity
  8
치수문자_일반주서
 62
     0
100
AcDbTrace
 10
-32.22336934298442
 20
24.63430889368158
 30
0.0
 11
-32.22336934298442
 21
23.53364222701492
 31
0.0
 12
-35.52536934298442
 22
24.08397556034825
 32
0.0
 13
-35.52536934298442
 23
24.08397556034825
 33
0.0
  0
MTEXT
  5
4A1
330
499
100
AcDbEntity
  8
치수문자_일반주서
 62
     0
100
AcDbMText
 10
-7.207536065157399
 20
28.45897556034825
 30
0.0
 40
3.5
 41
0.0
 71
     2
 72
     1
  1
\A1;57.15 [2 1/4]
  7
SLDTEXTSTYLE0
 73
     1
 44
1.0
  0
POINT
  5
4A2
330
499
100
AcDbEntity
  8
Defpoints
 62
     0
100
AcDbPoint
 10
21.62463065701559
 20
1.587500000000006
 30
0.0
  0
POINT
  5
4A3
330
499
100
AcDbEntity
  8
Defpoints
 62
     0
100
AcDbPoint
 10
-35.52536934298442
 20
2.364999999999981
 30
0.0
  0
POINT
  5
4A4
330
499
100
AcDbEntity
  8
Defpoints
 62
     0
100
AcDbPoint
 10
-35.52536934298442
 20
24.08397556034825
 30
0.0
  0
ENDBLK
  5
49B
330
499
100
AcDbEntity
  8
0
100
AcDbBlockEnd
  0
BLOCK
  5
4A6
330
4A5
100
AcDbEntity
  8
0
100
AcDbBlockBegin
  2
*D28
 70
     1
 10
0.0
 20
0.0
 30
0.0
  3
*D28
  1
*D28
  0
LINE
  5
4A8
330
4A5
100
AcDbEntity
  8
치수문자_일반주서
 62
     0
370
    -2
100
AcDbLine
 10
23.6392389969794
 20
-4.071848443833748
 30
0.0
 11
43.32975140103249
 21
-27.83949623480859
 31
0.0
  0
MTEXT
  5
4A9
330
4A5
100
AcDbEntity
  8
치수문자_일반주서
 62
     0
100
AcDbMText
 10
36.55919627728036
 20
-15.55238673424933
 30
0.0
 40
3.5
 41
0.0
 71
     5
 72
     1
  1
\A1;R.25 [R0.010]
  7
SLDTEXTSTYLE0
 11
0.6379663498210919
 21
-0.7700642417980155
 31
0.0
 73
     1
 44
1.0
  0
LINE
  5
4AA
330
4A5
100
AcDbEntity
  8
치수문자_일반주서
 62
     0
370
    -2
100
AcDbLine
 10
21.3706306570156
 20
-1.333500000000001
 30
0.0
 11
21.53267410987016
 21
-1.529096317416702
 31
0.0
  0
SOLID
  5
4AB
330
4A5
100
AcDbEntity
  8
치수문자_일반주서
 62
     0
100
AcDbTrace
 10
24.06303101804891
 20
-3.720754295982208
 30
0.0
 11
23.21544697590989
 21
-4.422942591685289
 31
0.0
 12
21.53267410987016
 22
-1.529096317416702
 32
0.0
 13
21.53267410987016
 23
-1.529096317416702
 33
0.0
  0
POINT
  5
4AC
330
4A5
100
AcDbEntity
  8
Defpoints
 62
     0
100
AcDbPoint
 10
21.53267410987016
 20
-1.529096317416702
 30
0.0
  0
POINT
  5
4AD
330
4A5
100
AcDbEntity
  8
Defpoints
 62
     0
100
AcDbPoint
 10
21.3706306570156
 20
-1.333500000000001
 30
0.0
  0
ENDBLK
  5
4A7
330
4A5
100
AcDbEntity
  8
0
100
AcDbBlockEnd
  0
ENDSEC
  0
SECTION
  2
ENTITIES
  0
LINE
  5
D8
330
1F
100
AcDbEntity
  8
참조1
100
AcDbLine
 10
-5.874999999999998
 20
0.0010749287238892
 30
0.0
 11
-5.874999999999993
 21
-39.99892507127611
 31
0.0
  0
LINE
  5
D9
330
1F
100
AcDbEntity
  8
참조1
100
AcDbLine
 10
-5.874999999999993
 20
-39.99892507127611
 30
0.0
 11
-14.66672777521594
 21
-39.9989250712761
 31
0.0
  0
LINE
  5
135
330
1F
100
AcDbEntity
  8
참조1
100
AcDbLine
 10
83.30561285443832
 20
7.441074928723896
 30
0.0
 11
83.30561285443832
 21
-7.438925071276109
 31
0.0
  0
LINE
  5
136
330
1F
100
AcDbEntity
  8
참조1
100
AcDbLine
 10
96.00561285443833
 20
5.441074928723896
 30
0.0
 11
83.30561285443832
 21
5.441074928723896
 31
0.0
  0
SOLID
  5
137
330
1F
100
AcDbEntity
  8
참조1
100
AcDbTrace
 10
83.30561285443832
 20
5.441074928723896
 30
0.0
 11
89.65561285443832
 21
4.425074928723896
 31
0.0
 12
89.65561285443832
 22
6.457074928723896
 32
0.0
 13
89.65561285443832
 23
6.457074928723896
 33
0.0
  0
LINE
  5
138
330
1F
100
AcDbEntity
  8
참조1
100
AcDbLine
 10
96.00561285443833
 20
-5.438925071276109
 30
0.0
 11
83.30561285443832
 21
-5.438925071276109
 31
0.0
  0
SOLID
  5
139
330
1F
100
AcDbEntity
  8
참조1
100
AcDbTrace
 10
83.30561285443832
 20
-5.438925071276109
 30
0.0
 11
89.65561285443832
 21
-6.454925071276109
 31
0.0
 12
89.65561285443832
 22
-4.422925071276109
 32
0.0
 13
89.65561285443832
 23
-4.422925071276109
 33
0.0
  0
MTEXT
  5
13A
330
1F
100
AcDbEntity
  8
참조1
100
AcDbMText
 10
92.7031029469086
 20
10.98929157337383
 30
0.0
 40
3.5
 41
0.0
 71
     1
 72
     1
  1
A
  7
SLDTEXTSTYLE0
 73
     1
 44
1.0
  0
MTEXT
  5
13B
330
1F
100
AcDbEntity
  8
참조1
100
AcDbMText
 10
92.7031029469086
 20
0.1092915733738251
 30
0.0
 40
3.5
 41
0.0
 71
     1
 72
     1
  1
A
  7
SLDTEXTSTYLE0
 73
     1
 44
1.0
  0
LINE
  5
41D
330
1F
100
AcDbEntity
  8
외형선
  6
Continuous
370
    15
100
AcDbLine
 10
2.0
 20
3.174999999999983
 30
0.0
 11
-34.71536934298442
 21
3.174999999999983
 31
0.0
  0
LINE
  5
41E
330
1F
100
AcDbEntity
  8
외형선
  6
Continuous
370
    15
100
AcDbLine
 10
-34.71536934298442
 20
-3.175000000000011
 30
0.0
 11
2.0
 21
-3.175000000000011
 31
0.0
  0
LINE
  5
41F
330
1F
100
AcDbEntity
  8
외형선
  6
Continuous
370
    15
100
AcDbLine
 10
2.0
 20
-3.175000000000011
 30
0.0
 11
7.92463065701557
 21
-1.587500000000006
 31
0.0
  0
LINE
  5
420
330
1F
100
AcDbEntity
  8
외형선
  6
Continuous
370
    15
100
AcDbLine
 10
7.92463065701557
 20
1.587499999999991
 30
0.0
 11
2.0
 21
3.174999999999983
 31
0.0
  0
LINE
  5
421
330
1F
100
AcDbEntity
  8
외형선
  6
Continuous
370
    15
100
AcDbLine
 10
-34.71536934298442
 20
3.174999999999983
 30
0.0
 11
-35.52536934298442
 21
2.364999999999981
 31
0.0
  0
LINE
  5
422
330
1F
100
AcDbEntity
  8
외형선
  6
Continuous
370
    15
100
AcDbLine
 10
-35.52536934298442
 20
-2.365000000000009
 30
0.0
 11
-34.71536934298442
 21
-3.175000000000011
 31
0.0
  0
LINE
  5
423
330
1F
100
AcDbEntity
  8
외형선
  6
Continuous
370
    15
100
AcDbLine
 10
8.034539777172853
 20
1.587499999999991
 30
0.0
 11
7.92463065701557
 21
1.587499999999991
 31
0.0
  0
LINE
  5
424
330
1F
100
AcDbEntity
  8
외형선
  6
Continuous
370
    15
100
AcDbLine
 10
7.92463065701557
 20
-1.587500000000006
 30
0.0
 11
8.034539777172853
 21
-1.587500000000006
 31
0.0
  0
SPLINE
  5
425
330
1F
100
AcDbEntity
  8
외형선
  6
Continuous
370
    15
100
AcDbSpline
210
0.0
220
0.0
230
1.0
 70
     8
 71
     3
 72
     9
 73
     5
 74
     0
 42
0.000000001
 43
0.00000001
 40
0.0
 40
0.0
 40
0.0
 40
0.0
 40
0.4980319532561457
 40
1.0
 40
1.0
 40
1.0
 40
1.0
 10
8.791780800326677
 20
0.4445814142969766
 30
0.0
 10
8.736231086708642
 20
0.4720491538571991
 30
0.0
 10
8.624692633694053
 20
0.5272017186286462
 30
0.0
 10
8.497624498476796
 20
0.5936960519243542
 30
0.0
 10
8.433840354838395
 20
0.6270740825283383
 30
0.0
  0
SPLINE
  5
426
330
1F
100
AcDbEntity
  8
외형선
  6
Continuous
370
    15
100
AcDbSpline
210
0.0
220
0.0
230
1.0
 70
     8
 71
     3
 72
     9
 73
     5
 74
     0
 42
0.000000001
 43
0.00000001
 40
0.0
 40
0.0
 40
0.0
 40
0.0
 40
0.5000610736432285
 40
1.0
 40
1.0
 40
1.0
 40
1.0
 10
8.338891843569144
 20
1.260930175161718
 30
0.0
 10
8.287201004755246
 20
1.258343167952404
 30
0.0
 10
8.183831953376568
 20
1.253169785448449
 30
0.0
 10
8.080667859715135
 20
1.249556770088319
 30
0.0
 10
8.029092113491487
 20
1.247750483068273
 30
0.0
  0
LINE
  5
427
330
1F
100
AcDbEntity
  8
외형선
  6
Continuous
370
    15
100
AcDbLine
 10
8.029092113491487
 20
-1.24744885026837
 30
0.0
 11
8.152094379966172
 21
-1.239969279448786
 31
0.0
  0
SPLINE
  5
428
330
1F
100
AcDbEntity
  8
0
  6
Continuous
 62
     1
370
    15
100
AcDbSpline
210
0.0
220
0.0
230
1.0
 70
     8
 71
     3
 72
     9
 73
     5
 74
     0
 42
0.000000001
 43
0.00000001
 40
0.0
 40
0.0
 40
0.0
 40
0.0
 40
0.4550382045017807
 40
1.0
 40
1.0
 40
1.0
 40
1.0
 10
17.51051828506129
 20
0.4070648084933879
 30
0.0
 10
17.44335914707474
 20
0.439154059321595
 30
0.0
 10
17.29576903854738
 20
0.5096739640477068
 30
0.0
 10
17.15126823507623
 20
0.5855049472742735
 30
0.0
 10
17.07252081776565
 20
0.6268299360478125
 30
0.0
  0
LINE
  5
429
330
1F
100
AcDbEntity
  8
0
  6
Continuous
 62
     1
370
    15
100
AcDbLine
 10
13.8688078509
 20
1.587499999999991
 30
0.0
 11
13.09897069308985
 21
1.587499999999991
 31
0.0
  0
LINE
  5
42A
330
1F
100
AcDbEntity
  8
0
  6
Continuous
 62
     1
370
    15
100
AcDbLine
 10
13.09897069308983
 20
-1.587500000000006
 30
0.0
 11
13.8688078509
 21
-1.587500000000006
 31
0.0
  0
SPLINE
  5
42B
330
1F
100
AcDbEntity
  8
0
  6
Continuous
 62
     1
370
    15
100
AcDbSpline
210
0.0
220
0.0
230
1.0
 70
     8
 71
     3
 72
    14
 73
    10
 74
     0
 42
0.000000001
 43
0.00000001
 40
0.0
 40
0.0
 40
0.0
 40
0.0
 40
0.2412791395815019
 40
0.4097570442161599
 40
0.5206300506240426
 40
0.6423103830568364
 40
0.780739513419935
 40
0.9194633442454405
 40
1.0
 40
1.0
 40
1.0
 40
1.0
 10
16.98771246764471
 20
1.261503059483601
 30
0.0
 10
16.88238386072527
 20
1.256499358377908
 30
0.0
 10
16.70350748244587
 20
1.248001724563551
 30
0.0
 10
16.47686326066741
 20
1.242382856846092
 30
0.0
 10
16.30224092082648
 20
1.23999855303444
 30
0.0
 10
16.14052090909883
 20
1.239460543158216
 30
0.0
 10
15.96662490793008
 20
1.241000045412591
 30
0.0
 10
15.81068275040693
 20
1.243700845217617
 30
0.0
 10
15.71517280584715
 20
1.24727309175276
 30
0.0
 10
15.68009101046246
 20
1.248585215035718
 30
0.0
  0
SPLINE
  5
42C
330
1F
100
AcDbEntity
  8
0
  6
Continuous
 62
     1
370
    15
100
AcDbSpline
210
0.0
220
0.0
230
1.0
 70
     8
 71
     3
 72
    11
 73
     7
 74
     0
 42
0.000000001
 43
0.00000001
 40
0.0
 40
0.0
 40
0.0
 40
0.0
 40
0.4340795689894085
 40
0.6036151591816225
 40
0.7332181986650106
 40
1.0
 40
1.0
 40
1.0
 40
1.0
 10
14.60022580215036
 20
-1.320994411084243
 30
0.0
 10
14.945699848028
 20
-1.291886937392832
 30
0.0
 10
15.4261034101699
 20
-1.251411149954791
 30
0.0
 10
16.00964243994795
 20
-1.239530794792771
 30
0.0
 10
16.4594662913274
 20
-1.23921159175265
 30
0.0
 10
16.77520710698806
 20
-1.252535542817895
 30
0.0
 10
16.98771246764471
 20
-1.26150305948363
 30
0.0
  0
SPLINE
  5
42D
330
1F
100
AcDbEntity
  8
0
  6
Continuous
 62
     1
370
    15
100
AcDbSpline
210
0.0
220
0.0
230
1.0
 70
     8
 71
     3
 72
    13
 73
     9
 74
     0
 42
0.000000001
 43
0.00000001
 40
0.0
 40
0.0
 40
0.0
 40
0.0
 40
0.3129504852689672
 40
0.5271487599645799
 40
0.659767697343907
 40
0.7865643186287751
 40
0.9156902848925105
 40
1.0
 40
1.0
 40
1.0
 40
1.0
 10
9.622668185445576
 20
-1.194024826807066
 30
0.0
 10
9.7460768208704
 20
-1.175561260163491
 30
0.0
 10
9.953952226710356
 20
-1.14446034574145
 30
0.0
 10
10.21340636731892
 20
-1.114094670975021
 30
0.0
 10
10.3996621362065
 20
-1.094949456208667
 30
0.0
 10
10.55242860704664
 20
-1.081440164260101
 30
0.0
 10
10.68632775982726
 20
-1.0711748898525
 30
0.0
 10
10.77034378017524
 20
-1.066221102823789
 30
0.0
 10
10.80353113991984
 20
-1.06426429611551
 30
0.0
  0
SPLINE
  5
42E
330
1F
100
AcDbEntity
  8
0
  6
Continuous
 62
     1
370
    15
100
AcDbSpline
210
0.0
220
0.0
230
1.0
 70
     8
 71
     3
 72
    19
 73
    15
 74
     0
 42
0.000000001
 43
0.00000001
 40
0.0
 40
0.0
 40
0.0
 40
0.0
 40
0.1263183041086837
 40
0.2216122229784324
 40
0.3039881254069099
 40
0.3933308101507207
 40
0.4828043725531436
 40
0.545697848553367
 40
0.6060097825993329
 40
0.6636035606413091
 40
0.7189362338813889
 40
0.7755694354643219
 40
0.8666878154852173
 40
1.0
 40
1.0
 40
1.0
 40
1.0
 10
21.03867949771251
 20
1.086160342402977
 30
0.0
 10
20.9208263738191
 20
1.076975930398632
 30
0.0
 10
20.71406542214814
 20
1.06086284231219
 30
0.0
 10
20.43310208784908
 20
1.049292180188758
 30
0.0
 10
20.18733474035861
 20
1.044253262656881
 30
0.0
 10
19.9454393049615
 20
1.044668412252634
 30
0.0
 10
19.72199872193667
 20
1.05026325970347
 30
0.0
 10
19.52500918455556
 20
1.058961486376148
 30
0.0
 10
19.35760054893856
 20
1.068925761579862
 30
0.0
 10
19.19720808942529
 20
1.080826780298679
 30
0.0
 10
19.04037983173643
 20
1.094712905133505
 30
0.0
 10
18.85251915111138
 20
1.113987353772245
 30
0.0
 10
18.59252395332877
 20
1.144412282042396
 30
0.0
 10
18.38434120483768
 20
1.175557347259314
 30
0.0
 10
18.26068025412425
 20
1.194057575557167
 30
0.0
  0
SPLINE
  5
42F
330
1F
100
AcDbEntity
  8
0
  6
Continuous
 62
     1
370
    15
100
AcDbSpline
210
0.0
220
0.0
230
1.0
 70
     8
 71
     3
 72
    14
 73
    10
 74
     0
 42
0.000000001
 43
0.00000001
 40
0.0
 40
0.0
 40
0.0
 40
0.0
 40
0.2790779957624213
 40
0.4827851168239682
 40
0.6122598046418465
 40
0.7239339182336366
 40
0.8396146881189738
 40
0.959490590714515
 40
0.9999999999999999
 40
0.9999999999999999
 40
0.9999999999999999
 40
0.9999999999999999
 10
18.26068025412425
 20
-1.194057575557167
 30
0.0
 10
18.37098085066984
 20
-1.177463001145654
 30
0.0
 10
18.56179305083467
 20
-1.148755565706239
 30
0.0
 10
18.80317827504965
 20
-1.119589584111822
 30
0.0
 10
18.97852077133581
 20
-1.100879830787179
 30
0.0
 10
19.11910256299902
 20
-1.087529110631209
 30
0.0
 10
19.2560163946408
 20
-1.076365292992762
 30
0.0
 10
19.36491956409444
 20
-1.068473341509673
 30
0.0
 10
19.42819720700564
 20
-1.064976789100285
 30
0.0
 10
19.44417959283166
 20
-1.064093645432209
 30
0.0
  0
SPLINE
  5
430
330
1F
100
AcDbEntity
  8
0
  6
Continuous
 62
     1
370
    15
100
AcDbSpline
210
0.0
220
0.0
230
1.0
 70
     8
 71
     3
 72
    21
 73
    17
 74
     0
 42
0.000000001
 43
0.00000001
 40
0.0
 40
0.0
 40
0.0
 40
0.0
 40
0.1196969312929303
 40
0.2097434524690673
 40
0.2720286269933698
 40
0.3290734789607906
 40
0.3866692493490227
 40
0.4432851906648688
 40
0.4991690881024498
 40
0.5546842781791267
 40
0.6101077011098448
 40
0.6650883213737028
 40
0.7190771284844635
 40
0.7755450229508362
 40
0.8667486308925548
 40
1.0
 40
1.0
 40
1.0
 40
1.0
 10
12.39569552774046
 20
1.085752878658298
 30
0.0
 10
12.28458737503522
 20
1.077083555750633
 30
0.0
 10
12.08989393307195
 20
1.06189240842896
 30
0.0
 10
11.83844555017649
 20
1.050974522064905
 30
0.0
 10
11.64562708784425
 20
1.046020198464134
 30
0.0
 10
11.48251225084439
 20
1.044345310986074
 30
0.0
 10
11.32426801808052
 20
1.045023883422004
 30
0.0
 10
11.16729202950344
 20
1.048049810940483
 30
0.0
 10
11.0120072958988
 20
1.053260844584329
 30
0.0
 10
10.85776240671495
 20
1.060587147006061
 30
0.0
 10
10.70437689039491
 20
1.069988555419457
 30
0.0
 10
10.55242800093291
 20
1.081388699312043
 30
0.0
 10
10.39966230286831
 20
1.094963607414002
 30
0.0
 10
10.21340629082883
 20
1.114088176220392
 30
0.0
 10
9.953952261745002
 20
1.144463320520686
 30
0.0
 10
9.746076833921364
 20
1.175562368316605
 30
0.0
 10
9.622668185445576
 20
1.194024826807052
 30
0.0
  0
LINE
  5
431
330
1F
100
AcDbEntity
  8
외형선
  6
Continuous
370
    15
100
AcDbLine
 10
2.0
 20
3.174999999999983
 30
0.0
 11
2.0
 21
-3.175000000000011
 31
0.0
  0
LINE
  5
432
330
1F
100
AcDbEntity
  8
외형선
  6
Continuous
370
    15
100
AcDbLine
 10
-34.71536934298442
 20
3.174999999999983
 30
0.0
 11
-34.71536934298442
 21
-3.175000000000011
 31
0.0
  0
LINE
  5
433
330
1F
100
AcDbEntity
  8
외형선
  6
Continuous
370
    15
100
AcDbLine
 10
7.92463065701557
 20
1.587499999999991
 30
0.0
 11
7.92463065701557
 21
-1.587500000000006
 31
0.0
  0
LINE
  5
434
330
1F
100
AcDbEntity
  8
외형선
  6
Continuous
370
    15
100
AcDbLine
 10
-35.52536934298442
 20
2.364999999999981
 30
0.0
 11
-35.52536934298442
 21
-2.365000000000009
 31
0.0
  0
SPLINE
  5
435
330
1F
100
AcDbEntity
  8
외형선
  6
Continuous
370
    15
100
AcDbSpline
210
0.0
220
0.0
230
1.0
 70
     8
 71
     3
 72
    12
 73
     8
 74
     0
 42
0.000000001
 43
0.00000001
 40
0.0
 40
0.0
 40
0.0
 40
0.0
 40
0.2500000000000001
 40
0.2500000000000001
 40
0.5000000000000002
 40
0.5000000000000002
 40
1.0
 40
1.0
 40
1.0
 40
1.0
 10
8.330317434839543
 20
-1.260453259042407
 30
0.0
 10
8.268973803743592
 20
-1.256997915332676
 30
0.0
 10
8.225587485791237
 20
-1.252739237651809
 30
0.0
 10
8.154955088471155
 20
-1.240650817712606
 30
0.0
 10
8.127657050985903
 20
-1.23309064143038
 30
0.0
 10
8.061110328227869
 20
-1.208035421913394
 30
0.0
 10
8.034539777172853
 20
-1.186844352158772
 30
0.0
 10
8.034539777172853
 20
-1.171695051288566
 30
0.0
  0
SPLINE
  5
436
330
1F
100
AcDbEntity
  8
외형선
  6
Continuous
370
    15
100
AcDbSpline
210
0.0
220
0.0
230
1.0
 70
     8
 71
     3
 72
    14
 73
    10
 74
     0
 42
0.000000001
 43
0.00000001
 40
0.0
 40
0.0
 40
0.0
 40
0.0
 40
0.25
 40
0.25
 40
0.5
 40
0.5
 40
0.75
 40
0.75
 40
1.0
 40
1.0
 40
1.0
 40
1.0
 10
8.034539777175638
 20
0.4249195227667428
 30
0.0
 10
8.034539777175524
 20
0.4234689345631324
 30
0.0
 10
8.048950369374921
 20
0.4057404164804268
 30
0.0
 10
8.091974955888219
 20
0.3558752887080345
 30
0.0
 10
8.120632572869596
 20
0.3237697858547364
 30
0.0
 10
8.186512867773928
 20
0.2568023773588948
 30
0.0
 10
8.224469789009333
 20
0.2210833116430138
 30
0.0
 10
8.310330589818392
 20
0.1551556394416025
 30
0.0
 10
8.35994810943319
 20
0.1241794979863755
 30
0.0
 10
8.414483395102621
 20
0.1022768871165169
 30
0.0
  0
SPLINE
  5
437
330
1F
100
AcDbEntity
  8
외형선
  6
Continuous
370
    15
100
AcDbSpline
210
0.0
220
0.0
230
1.0
 70
     8
 71
     3
 72
    10
 73
     6
 74
     0
 42
0.000000001
 43
0.00000001
 40
0.0
 40
0.0
 40
0.0
 40
0.0
 40
0.5
 40
0.5
 40
1.0
 40
1.0
 40
1.0
 40
1.0
 10
8.034539777172853
 20
0.4249771815671011
 30
0.0
 10
8.18320260464256
 20
0.3424001969148662
 30
0.0
 10
8.333183599075426
 20
0.2577118062117734
 30
0.0
 10
8.629913775966969
 20
0.087431159018422
 30
0.0
 10
8.775822892474508
 20
0.0020097880603203
 30
0.0
 10
8.924630657025489
 20
-0.0836041339793212
 30
0.0
  0
SPLINE
  5
438
330
1F
100
AcDbEntity
  8
외형선
  6
Continuous
370
    15
100
AcDbSpline
210
0.0
220
0.0
230
1.0
 70
     8
 71
     3
 72
     8
 73
     4
 74
     0
 42
0.000000001
 43
0.00000001
 40
0.0
 40
0.0
 40
0.0
 40
0.0
 40
1.0
 40
1.0
 40
1.0
 40
1.0
 10
8.924630657015626
 20
-0.1040884358926917
 30
0.0
 10
8.753434376712988
 20
-0.0353498373726495
 30
0.0
 10
8.585652702593848
 20
0.0335314007983811
 30
0.0
 10
8.4144833951012
 20
0.1022768871170854
 30
0.0
  0
LINE
  5
439
330
1F
100
AcDbEntity
  8
외형선
  6
Continuous
370
    15
100
AcDbLine
 10
8.034539777172853
 20
0.8309875311806536
 30
0.0
 11
8.034539777172853
 21
1.587499999999991
 31
0.0
  0
SPLINE
  5
43A
330
1F
100
AcDbEntity
  8
외형선
  6
Continuous
370
    15
100
AcDbSpline
210
0.0
220
0.0
230
1.0
 70
     8
 71
     3
 72
    10
 73
     6
 74
     0
 42
0.000000001
 43
0.00000001
 40
0.0
 40
0.0
 40
0.0
 40
0.0
 40
0.5
 40
0.5
 40
1.0
 40
1.0
 40
1.0
 40
1.0
 10
8.924630657024721
 20
0.357476145688139
 30
0.0
 10
8.775807004004633
 20
0.4410160604576561
 30
0.0
 10
8.629882437540374
 20
0.5224581421384613
 30
0.0
 10
8.33311989016741
 20
0.6809890196254855
 30
0.0
 10
8.183122677362604
 20
0.7578947306296016
 30
0.0
 10
8.034444539388602
 20
0.8309295603734483
 30
0.0
  0
LINE
  5
43B
330
1F
100
AcDbEntity
  8
외형선
  6
Continuous
370
    15
100
AcDbLine
 10
8.92463065701557
 20
0.3574761456932691
 30
0.0
 11
8.92463065701557
 21
-0.0836041339736795
 31
0.0
  0
LINE
  5
43C
330
1F
100
AcDbEntity
  8
외형선
  6
Continuous
370
    15
100
AcDbLine
 10
8.034539777172853
 20
-1.587500000000006
 30
0.0
 11
8.034539777172853
 21
0.4254997147976383
 31
0.0
  0
LINE
  5
43D
330
1F
100
AcDbEntity
  8
외형선
  6
Continuous
370
    15
100
AcDbLine
 10
8.924630657015626
 20
0.3825429610750746
 30
0.0
 11
8.77630922574059
 21
0.4478177205537008
 31
0.0
  0
LINE
  5
43E
330
1F
100
AcDbEntity
  8
외형선
  6
Continuous
370
    15
100
AcDbLine
 10
8.924630657015598
 20
1.26441644393411
 30
0.0
 11
8.335740179791856
 21
1.2460032878395
 31
0.0
  0
SPLINE
  5
43F
330
1F
100
AcDbEntity
  8
외형선
  6
Continuous
370
    15
100
AcDbSpline
210
0.0
220
0.0
230
1.0
 70
    24
 71
     3
 72
    13
 73
     9
 74
     0
 42
0.000000001
 43
0.00000001
 40
0.0
 40
0.0
 40
0.0
 40
0.0
 40
0.1345280325237934
 40
0.2708351083768174
 40
0.4673665584108469
 40
0.6695974338098493
 40
0.8460721455025979
 40
1.0
 40
1.0
 40
1.0
 40
1.0
 10
8.92463065701557
 20
1.26441644393411
 30
0.0
 10
8.92463065701557
 20
1.248503662805831
 30
0.0
 10
8.92463065701557
 20
1.216467664652868
 30
0.0
 10
8.92463065701557
 20
1.129400929557846
 30
0.0
 10
8.92463065701557
 20
0.9982639871254975
 30
0.0
 10
8.92463065701557
 20
0.8165006577600025
 30
0.0
 10
8.92463065701557
 20
0.6204406081486695
 30
0.0
 10
8.92463065701557
 20
0.4807337093253068
 30
0.0
 10
8.92463065701557
 20
0.4156470986420544
 30
0.0
  0
SPLINE
  5
440
330
1F
100
AcDbEntity
  8
외형선
  6
Continuous
370
    15
100
AcDbSpline
210
0.0
220
0.0
230
1.0
 70
     8
 71
     3
 72
     8
 73
     4
 74
     0
 42
0.000000001
 43
0.00000001
 40
0.0
 40
0.0
 40
0.0
 40
0.0
 40
1.0
 40
1.0
 40
1.0
 40
1.0
 10
8.924630657015626
 20
-1.264416443934124
 30
0.0
 10
8.725409803793724
 20
-1.27301721496444
 30
0.0
 10
8.529960518794354
 20
-1.271698688470167
 30
0.0
 10
8.330317434839543
 20
-1.260453259042407
 30
0.0
  0
SPLINE
  5
441
330
1F
100
AcDbEntity
  8
외형선
  6
Continuous
370
    15
100
AcDbSpline
210
0.0
220
0.0
230
1.0
 70
    24
 71
     3
 72
    10
 73
     6
 74
     0
 42
0.000000001
 43
0.00000001
 40
0.0
 40
0.0
 40
0.0
 40
0.0
 40
0.5
 40
0.5
 40
1.0
 40
1.0
 40
1.0
 40
1.0
 10
8.924630657015513
 20
-0.104088435892649
 30
0.0
 10
8.924630657015513
 20
-0.3720797519980579
 30
0.0
 10
8.924630657015513
 20
-0.6358683564110095
 30
0.0
 10
8.924630657015513
 20
-1.048315837558022
 30
0.0
 10
8.924630657015513
 20
-1.19377903563344
 30
0.0
 10
8.924630657015513
 20
-1.264416443934124
 30
0.0
  0
SPLINE
  5
442
330
1F
100
AcDbEntity
  8
0
  6
Continuous
 62
     1
370
    15
100
AcDbSpline
210
0.0
220
0.0
230
1.0
 70
     8
 71
     3
 72
    14
 73
    10
 74
     0
 42
0.000000001
 43
0.00000001
 40
0.0
 40
0.0
 40
0.0
 40
0.0
 40
0.0556671564701356
 40
0.2166260047907895
 40
0.3775823879277994
 40
0.5385364070240203
 40
0.6994881635411332
 40
0.8604377592463075
 40
1.0
 40
1.0
 40
1.0
 40
1.0
 10
17.67110870055885
 20
-0.1455237682018549
 30
0.0
 10
17.57318644779227
 20
-0.1068770021529986
 30
0.0
 10
17.19212681151802
 20
0.0435149894289282
 30
0.0
 10
16.52793557002158
 20
0.3156019273390456
 30
0.0
 10
15.67853907368368
 20
0.6292625157426812
 30
0.0
 10
14.82915642509229
 20
0.8852096523676494
 30
0.0
 10
13.97978694703724
 20
1.054373620470869
 30
0.0
 10
13.16804782589085
 20
1.130318352525805
 30
0.0
 10
12.63943232282455
 20
1.09566822166893
 30
0.0
 10
12.39393529024699
 20
1.079576176970193
 30
0.0
  0
SPLINE
  5
443
330
1F
100
AcDbEntity
  8
0
  6
Continuous
 62
     1
370
    15
100
AcDbSpline
210
0.0
220
0.0
230
1.0
 70
     8
 71
     3
 72
    32
 73
    28
 74
     0
 42
0.000000001
 43
0.00000001
 40
0.0
 40
0.0
 40
0.0
 40
0.0
 40
0.0040587791201747
 40
0.0473609761343704
 40
0.0909635515080477
 40
0.134254724852904
 40
0.17784594702124
 40
0.221117604008186
 40
0.2646890087903566
 40
0.3079316631277311
 40
0.3514737658995637
 40
0.394676923093294
 40
0.4381791884021539
 40
0.4813312422484219
 40
0.5247819639439534
 40
0.5678702353137604
 40
0.6112565640988553
 40
0.6542802944119739
 40
0.6976014934598905
 40
0.7406253837430218
 40
0.7839472258611246
 40
0.8269708449739667
 40
0.8702918247955442
 40
0.908213844748182
 40
0.9463385918600612
 40
0.9731336354091864
 40
0.9999999999999999
 40
0.9999999999999999
 40
0.9999999999999999
 40
0.9999999999999999
 10
10.80353113991984
 20
1.064264296115496
 30
0.0
 10
10.81782808526313
 20
1.070773715079795
 30
0.0
 10
10.98465590888921
 20
1.146730653629163
 30
0.0
 10
11.30482292694856
 20
1.265489325509265
 30
0.0
 10
11.76389745214797
 20
1.410663097317695
 30
0.0
 10
12.22288447224548
 20
1.514644013218373
 30
0.0
 10
12.68209910884227
 20
1.576464965449958
 30
0.0
 10
13.1406803556508
 20
1.594669939459919
 30
0.0
 10
13.59983004152028
 20
1.568748608080398
 30
0.0
 10
14.05802735143013
 20
1.498549974695678
 30
0.0
 10
14.51688255785413
 20
1.388169462238352
 30
0.0
 10
14.97470783228411
 20
1.237456875275527
 30
0.0
 10
15.43303137606102
 20
1.054928239007069
 30
0.0
 10
15.89047993374206
 20
0.8406872417191522
 30
0.0
 10
16.34802922955819
 20
0.6061100991464912
 30
0.0
 10
16.80507751530365
 20
0.3523624933323788
 30
0.0
 10
17.2616529174505
 20
0.0914028393362258
 30
0.0
 10
17.71834810363089
 20
-0.1736893019102865
 30
0.0
 10
18.17408092342785
 20
-0.4327580031580851
 30
0.0
 10
18.63094709719755
 20
-0.6804021647713796
 30
0.0
 10
19.08629928991522
 20
-0.9094868194052594
 30
0.0
 10
19.54351788149421
 20
-1.112992131439853
 30
0.0
 10
19.98065095075074
 20
-1.279918544310249
 30
0.0
 10
20.40161355090606
 20
-1.408586160458299
 30
0.0
 10
20.76355246025659
 20
-1.492642529188004
 30
0.0
 10
21.0867120680995
 20
-1.546765846611535
 30
0.0
 10
21.26005097091709
 20
-1.581069834315613
 30
0.0
 10
21.3706306570156
 20
-1.587500000000006
 30
0.0
  0
SPLINE
  5
444
330
1F
100
AcDbEntity
  8
0
  6
Continuous
 62
     1
370
    15
100
AcDbSpline
210
0.0
220
0.0
230
1.0
 70
     8
 71
     3
 72
    14
 73
    10
 74
     0
 42
0.000000001
 43
0.00000001
 40
0.0
 40
0.0
 40
0.0
 40
0.0
 40
0.1096417046824683
 40
0.2592372065469635
 40
0.4088308712162342
 40
0.5584227899859621
 40
0.708013054385914
 40
0.8576017561678819
 40
0.9999999999999999
 40
0.9999999999999999
 40
0.9999999999999999
 40
0.9999999999999999
 10
14.60225888594914
 20
-1.308251577196273
 30
0.0
 10
14.39475347837063
 20
-1.327551793534667
 30
0.0
 10
13.90412701137231
 20
-1.373185288415172
 30
0.0
 10
13.13038473004471
 20
-1.294917033826039
 30
0.0
 10
12.28103572267531
 20
-1.102449489517525
 30
0.0
 10
11.4316957783424
 20
-0.8011668444425482
 30
0.0
 10
10.58237547026854
 20
-0.4258772203429118
 30
0.0
 10
9.74663827727619
 20
-0.0141372108959956
 30
0.0
 10
9.194097582651267
 20
0.2525050103711806
 30
0.0
 10
8.924630657015626
 20
0.3825429610750746
 30
0.0
  0
SPLINE
  5
445
330
1F
100
AcDbEntity
  8
0
  6
Continuous
 62
     1
370
    15
100
AcDbSpline
210
0.0
220
0.0
230
1.0
 70
     8
 71
     3
 72
    17
 73
    13
 74
     0
 42
0.000000001
 43
0.00000001
 40
0.0
 40
0.0
 40
0.0
 40
0.0
 40
0.0251693608236776
 40
0.1259566575971955
 40
0.2265306296145305
 40
0.3269944251565924
 40
0.4275024811033962
 40
0.5282083050079044
 40
0.6289448184719335
 40
0.752634158533214
 40
0.8763190390473055
 40
0.9999999999999999
 40
0.9999999999999999
 40
0.9999999999999999
 40
0.9999999999999999
 10
15.68015390436702
 20
-1.248561329976127
 30
0.0
 10
15.62348455753701
 20
-1.270654260942166
 30
0.0
 10
15.33989048596209
 20
-1.381215341952554
 30
0.0
 10
14.82949688626363
 20
-1.502935570624516
 30
0.0
 10
14.15005935881251
 20
-1.596328853547874
 30
0.0
 10
13.47132539982482
 20
-1.586718507949087
 30
0.0
 10
12.7922890115066
 20
-1.482238016095323
 30
0.0
 10
12.11222581779023
 20
-1.287394553906523
 30
0.0
 10
11.38001297525096
 20
-0.9935611545851231
 30
0.0
 10
10.59597672118574
 20
-0.5994609306069236
 30
0.0
 10
9.76029409902958
 20
-0.1222231898076984
 30
0.0
 10
9.203182195173355
 20
0.1975780562961944
 30
0.0
 10
8.924630657020174
 20
0.3574761456906828
 30
0.0
  0
SPLINE
  5
446
330
1F
100
AcDbEntity
  8
0
  6
Continuous
 62
     1
370
    15
100
AcDbSpline
210
0.0
220
0.0
230
1.0
 70
     8
 71
     3
 72
    12
 73
     8
 74
     0
 42
0.000000001
 43
0.00000001
 40
0.0
 40
0.0
 40
0.0
 40
0.0
 40
0.2058047672527509
 40
0.4116058942888648
 40
0.6174035030621524
 40
0.8231977159931161
 40
1.0
 40
1.0
 40
1.0
 40
1.0
 10
21.62463065701559
 20
-1.252493469684552
 30
0.0
 10
21.34146531723036
 20
-1.189219801726409
 30
0.0
 10
20.77513964620849
 20
-1.06267358497692
 30
0.0
 10
19.92566130851495
 20
-0.7402449103305457
 30
0.0
 10
19.07619952713648
 20
-0.3572089901201281
 30
0.0
 10
18.26663865739943
 20
0.0456480466102818
 30
0.0
 10
17.74023257739796
 20
0.2959903511506639
 30
0.0
 10
17.49697421511743
 20
0.4116764370937744
 30
0.0
  0
SPLINE
  5
447
330
1F
100
AcDbEntity
  8
0
  6
Continuous
 62
     1
370
    15
100
AcDbSpline
210
0.0
220
0.0
230
1.0
 70
     8
 71
     3
 72
    10
 73
     6
 74
     0
 42
0.000000001
 43
0.00000001
 40
0.0
 40
0.0
 40
0.0
 40
0.0
 40
0.5
 40
0.5
 40
1.0
 40
1.0
 40
1.0
 40
1.0
 10
21.3706306570156
 20
-1.453685101208322
 30
0.0
 10
21.42870935399313
 20
-1.467132313237855
 30
0.0
 10
21.49112430545887
 20
-1.45752063105499
 30
0.0
 10
21.58901642668218
 20
-1.382802677581992
 30
0.0
 10
21.62009591003303
 20
-1.319098004531114
 30
0.0
 10
21.62413407784996
 20
-1.252402024191923
 30
0.0
  0
SPLINE
  5
448
330
1F
100
AcDbEntity
  8
0
  6
Continuous
 62
     1
370
    15
100
AcDbSpline
210
0.0
220
0.0
230
1.0
 70
     8
 71
     3
 72
    18
 73
    14
 74
     0
 42
0.000000001
 43
0.00000001
 40
0.0
 40
0.0
 40
0.0
 40
0.0
 40
0.1046979554299161
 40
0.2094304293125192
 40
0.3142077837117926
 40
0.4190085142526208
 40
0.5096328352409327
 40
0.6001144997085117
 40
0.6905922331549775
 40
0.7812048436437573
 40
0.8719615609344232
 40
0.9625261840306045
 40
0.9999999999999999
 40
0.9999999999999999
 40
0.9999999999999999
 40
0.9999999999999999
 10
21.37063065701523
 20
-1.453685101208237
 30
0.0
 10
21.1088066302373
 20
-1.381436513044875
 30
0.0
 10
20.5850722544582
 20
-1.236915516678266
 30
0.0
 10
19.79925141913486
 20
-0.8882390473736734
 30
0.0
 10
19.01311864297338
 20
-0.4759974250984556
 30
0.0
 10
18.26215833295524
 20
-0.0432162637773104
 30
0.0
 10
17.54723246521297
 20
0.3698225099787464
 30
0.0
 10
16.86838421407859
 20
0.740523199048809
 30
0.0
 10
16.18955943435509
 20
1.065713493364569
 30
0.0
 10
15.50984352222079
 20
1.327720295639836
 30
0.0
 10
14.82951473068792
 20
1.502989858527002
 30
0.0
 10
14.2825271384161
 20
1.588330979083892
 30
0.0
 10
13.96247850048476
 20
1.578612196922876
 30
0.0
 10
13.8688078509
 20
1.575767739767628
 30
0.0
  0
SPLINE
  5
449
330
1F
100
AcDbEntity
  8
0
  6
Continuous
 62
     1
370
    15
100
AcDbSpline
210
0.0
220
0.0
230
1.0
 70
     8
 71
     3
 72
    16
 73
    12
 74
     0
 42
0.000000001
 43
0.00000001
 40
0.0
 40
0.0
 40
0.0
 40
0.0
 40
0.1195923667775201
 40
0.2401763065038391
 40
0.3498740907978935
 40
0.4603346702508717
 40
0.5699537718125957
 40
0.6803332783460155
 40
0.7899244735932283
 40
0.9002752395948698
 40
1.0
 40
1.0
 40
1.0
 40
1.0
 10
8.92463065701557
 20
-0.0836041339736227
 30
0.0
 10
9.091188851683228
 20
-0.1790329593294473
 30
0.0
 10
9.425686220462978
 20
-0.370681836473949
 30
0.0
 10
9.912127404670656
 20
-0.6386787919966963
 30
0.0
 10
10.38640894087209
 20
-0.8794073147143706
 30
0.0
 10
10.8453005204118
 20
-1.08821798278754
 30
0.0
 10
11.30484012964999
 20
-1.267288378659487
 30
0.0
 10
11.76388814688195
 20
-1.410346520437457
 30
0.0
 10
12.2229044732417
 20
-1.514125296100843
 30
0.0
 10
12.66834839395383
 20
-1.576942520809268
 30
0.0
 10
12.96035330816625
 20
-1.582884641396362
 30
0.0
 10
13.09897069308983
 20
-1.585705420008622
 30
0.0
  0
SPLINE
  5
44A
330
1F
100
AcDbEntity
  8
0
  6
Continuous
 62
     1
370
    15
100
AcDbSpline
210
0.0
220
0.0
230
1.0
 70
     8
 71
     3
 72
    13
 73
     9
 74
     0
 42
0.000000001
 43
0.00000001
 40
0.0
 40
0.0
 40
0.0
 40
0.0
 40
0.0508113477919596
 40
0.2884579018827322
 40
0.496487300179424
 40
0.7056288019191299
 40
0.8526187775011254
 40
1.0
 40
1.0
 40
1.0
 40
1.0
 10
19.44437537264508
 20
1.064180617240538
 30
0.0
 10
19.477017106272
 20
1.078839724677266
 30
0.0
 10
19.6623254361038
 20
1.162060020111809
 30
0.0
 10
19.98063495152221
 20
1.278623122640937
 30
0.0
 10
20.40161766392202
 20
1.408919182140323
 30
0.0
 10
20.76355171878569
 20
1.492582493951147
 30
0.0
 10
21.08671222619702
 20
1.546778647411273
 30
0.0
 10
21.204808741156
 20
1.572620595582336
 30
0.0
 10
21.3706306570156
 20
1.587500000000006
 30
0.0
  0
LINE
  5
44B
330
1F
100
AcDbEntity
  8
0
  6
Continuous
 62
     1
370
    15
100
AcDbLine
 10
21.62463065701559
 20
1.111249999999984
 30
0.0
 11
21.03580119991958
 21
1.074790598381909
 31
0.0
  0
LINE
  5
44C
330
1F
100
AcDbEntity
  8
0
  6
Continuous
 62
     1
370
    15
100
AcDbLine
 10
9.039587416690182
 20
-0.1490487362113413
 30
0.0
 11
8.924630657015598
 21
-0.1040884358926775
 31
0.0
  0
SPLINE
  5
44D
330
1F
100
AcDbEntity
  8
0
  6
Continuous
 62
     1
370
    15
100
AcDbSpline
210
0.0
220
0.0
230
1.0
 70
    24
 71
     3
 72
     8
 73
     4
 74
     0
 42
0.000000001
 43
0.00000001
 40
0.0
 40
0.0
 40
0.0
 40
0.0
 40
1.0
 40
1.0
 40
1.0
 40
1.0
 10
21.62463065701559
 20
1.111249999999984
 30
0.0
 10
21.62463065701559
 20
1.176485540654511
 30
0.0
 10
21.62463065701559
 20
1.251938314952383
 30
0.0
 10
21.62463065701559
 20
1.331243529915113
 30
0.0
  0
SPLINE
  5
44E
330
1F
100
AcDbEntity
  8
0
  6
Continuous
 62
     1
370
    15
100
AcDbSpline
210
0.0
220
0.0
230
1.0
 70
     8
 71
     3
 72
     8
 73
     4
 74
     0
 42
0.000000001
 43
0.00000001
 40
0.0
 40
0.0
 40
0.0
 40
0.0
 40
1.0
 40
1.0
 40
1.0
 40
1.0
 10
20.6418360806924
 20
0.4445952940610027
 30
0.0
 10
20.57081138594387
 20
0.5287363700798267
 30
0.0
 10
20.50920048241343
 20
0.609141258743648
 30
0.0
 10
20.46056508670679
 20
0.6839396099711479
 30
0.0
  0
LINE
  5
44F
330
1F
100
AcDbEntity
  8
0
  6
Continuous
 62
     1
370
    15
100
AcDbLine
 10
20.46056508670679
 20
0.6839396099711479
 30
0.0
 11
21.62463065701559
 21
0.0
 31
0.0
  0
LINE
  5
450
330
1F
100
AcDbEntity
  8
0
  6
Continuous
 62
     1
370
    15
100
AcDbLine
 10
21.62463065701559
 20
0.0
 30
0.0
 11
21.62463065701559
 21
-0.4242481768220614
 31
0.0
  0
SPLINE
  5
451
330
1F
100
AcDbEntity
  8
0
  6
Continuous
 62
     1
370
    15
100
AcDbSpline
210
0.0
220
0.0
230
1.0
 70
     8
 71
     3
 72
    10
 73
     6
 74
     0
 42
0.000000001
 43
0.00000001
 40
0.0
 40
0.0
 40
0.0
 40
0.0
 40
0.5
 40
0.5
 40
1.0
 40
1.0
 40
1.0
 40
1.0
 10
21.62463065701559
 20
-0.4242481768220614
 30
0.0
 10
21.45449758385044
 20
-0.2904929793873805
 30
0.0
 10
21.28720938773424
 20
-0.1512488725093704
 30
0.0
 10
20.95845881070412
 20
0.1384796766033674
 30
0.0
 10
20.79546699851207
 20
0.2904950568622411
 30
0.0
 10
20.64183608069223
 20
0.4445952940610738
 30
0.0
  0
SPLINE
  5
452
330
1F
100
AcDbEntity
  8
0
  6
Continuous
 62
     1
370
    15
100
AcDbSpline
210
0.0
220
0.0
230
1.0
 70
     8
 71
     3
 72
     8
 73
     4
 74
     0
 42
0.000000001
 43
0.00000001
 40
0.0
 40
0.0
 40
0.0
 40
0.0
 40
0.0000800239075781
 40
0.0000800239075781
 40
0.0000800239075781
 40
0.0000800239075781
 10
21.62413407785047
 20
-1.252402024192023
 30
0.0
 10
21.62447680870505
 20
-1.237604977560437
 30
0.0
 10
21.62463065701559
 20
-1.222311761127344
 30
0.0
 10
21.62463065701559
 20
-1.206541126523859
 30
0.0
  0
SPLINE
  5
453
330
1F
100
AcDbEntity
  8
0
  6
Continuous
 62
     1
370
    15
100
AcDbSpline
210
0.0
220
0.0
230
1.0
 70
     8
 71
     3
 72
    12
 73
     8
 74
     0
 42
0.000000001
 43
0.00000001
 40
0.0
 40
0.0
 40
0.0
 40
0.0
 40
0.1958406670319282
 40
0.4281247662410865
 40
0.6604049771818401
 40
0.8926814405694392
 40
1.0
 40
1.0
 40
1.0
 40
1.0
 10
20.64183608035501
 20
0.4445952942073745
 30
0.0
 10
20.40311326238097
 20
0.5447211800159408
 30
0.0
 10
19.88124437687063
 20
0.7636050926686835
 30
0.0
 10
19.07620944760012
 20
1.032518889437199
 30
0.0
 10
18.22676929764765
 20
1.214486901896095
 30
0.0
 10
17.52965994459331
 20
1.289159629562022
 30
0.0
 10
17.11569887342316
 20
1.256733561163742
 30
0.0
 10
16.98487921225839
 20
1.246486299823971
 30
0.0
  0
LINE
  5
454
330
1F
100
AcDbEntity
  8
0
  6
Continuous
 62
     1
370
    15
100
AcDbLine
 10
9.625510364476412
 20
-1.187474925915822
 30
0.0
 11
8.924630657015598
 21
-1.264416443934124
 31
0.0
  0
SPLINE
  5
455
330
1F
100
AcDbEntity
  8
0
  6
Continuous
 62
     1
370
    15
100
AcDbSpline
210
0.0
220
0.0
230
1.0
 70
    24
 71
     3
 72
    10
 73
     6
 74
     0
 42
0.000000001
 43
0.00000001
 40
0.0
 40
0.0
 40
0.0
 40
0.0
 40
0.4999999999999998
 40
0.4999999999999998
 40
1.0
 40
1.0
 40
1.0
 40
1.0
 10
21.62463065701559
 20
-1.206541126523845
 30
0.0
 10
21.62463065701559
 20
-1.110950284146028
 30
0.0
 10
21.62463065701559
 20
-0.9941906966739396
 30
0.0
 10
21.62463065701559
 20
-0.728476269962286
 30
0.0
 10
21.62463065701559
 20
-0.5797022157431542
 30
0.0
 10
21.62463065701559
 20
-0.4242481768221182
 30
0.0
  0
SPLINE
  5
456
330
1F
100
AcDbEntity
  8
0
  6
Continuous
 62
     1
370
    15
100
AcDbSpline
210
0.0
220
0.0
230
1.0
 70
     8
 71
     3
 72
    19
 73
    15
 74
     0
 42
0.000000001
 43
0.00000001
 40
0.0
 40
0.0
 40
0.0
 40
0.0
 40
0.003761996832016
 40
0.0947322254480517
 40
0.185701041655169
 40
0.2766685009487906
 40
0.36763465900598
 40
0.4585995716781958
 40
0.5495632949839971
 40
0.6405258851017007
 40
0.7314873983619938
 40
0.8224478912405025
 40
0.9134074203503187
 40
1.0
 40
1.0
 40
1.0
 40
1.0
 10
18.2618919818072
 20
-1.191725314860278
 30
0.0
 10
18.25018285482304
 20
-1.194286121204655
 30
0.0
 10
17.95533102299186
 20
-1.258770727326535
 30
0.0
 10
17.37734256962764
 20
-1.282066350190973
 30
0.0
 10
16.52793090307043
 20
-1.241272173279953
 30
0.0
 10
15.67853379684439
 20
-1.070565664323169
 30
0.0
 10
14.82915038012592
 20
-0.8018446006445146
 30
0.0
 10
13.9797801871743
 20
-0.4563441721065971
 30
0.0
 10
13.1304224111397
 20
-0.06784487757146
 30
0.0
 10
12.28107719362117
 20
0.3269772841792502
 30
0.0
 10
11.43174121317085
 20
0.6914318333802356
 30
0.0
 10
10.58242404193774
 20
0.9881972795761413
 30
0.0
 10
9.746676473169458
 20
1.196415829795768
 30
0.0
 10
9.194115795027244
 20
1.242124310666298
 30
0.0
 10
8.924630657015598
 20
1.26441644393411
 30
0.0
  0
SPLINE
  5
457
330
1F
100
AcDbEntity
  8
외형선
  6
Continuous
370
    15
100
AcDbSpline
210
0.0
220
0.0
230
1.0
 70
    24
 71
     3
 72
    13
 73
     9
 74
     0
 42
0.000000001
 43
0.00000001
 40
0.0
 40
0.0
 40
0.0
 40
0.0
 40
0.1345280325237933
 40
0.2708351083768171
 40
0.467366558410846
 40
0.6695974338098486
 40
0.8460721455025976
 40
1.0
 40
1.0
 40
1.0
 40
1.0
 10
8.92463065701557
 20
1.26441644393411
 30
0.0
 10
8.92463065701557
 20
1.248503662805831
 30
0.0
 10
8.92463065701557
 20
1.216467664652868
 30
0.0
 10
8.92463065701557
 20
1.129400929557846
 30
0.0
 10
8.92463065701557
 20
0.9982639871254975
 30
0.0
 10
8.92463065701557
 20
0.8165006577600025
 30
0.0
 10
8.92463065701557
 20
0.6204406081486695
 30
0.0
 10
8.92463065701557
 20
0.4807337093253068
 30
0.0
 10
8.92463065701557
 20
0.4156470986420544
 30
0.0
  0
SPLINE
  5
458
330
1F
100
AcDbEntity
  8
0
  6
Continuous
 62
     1
370
    15
100
AcDbSpline
210
0.0
220
0.0
230
1.0
 70
     8
 71
     3
 72
    10
 73
     6
 74
     0
 42
0.000000001
 43
0.00000001
 40
0.0
 40
0.0
 40
0.0
 40
0.0
 40
0.5
 40
0.5
 40
1.0
 40
1.0
 40
1.0
 40
1.0
 10
21.62463065701559
 20
1.111249999999984
 30
0.0
 10
21.42707721804922
 20
1.057590039907581
 30
0.0
 10
21.23098265258398
 20
0.9962193710298379
 30
0.0
 10
20.84221339432975
 20
0.8554026879690753
 30
0.0
 10
20.64940488802998
 20
0.776502774854066
 30
0.0
 10
20.46056508670571
 20
0.6839396099719579
 30
0.0
  0
SPLINE
  5
459
330
1F
100
AcDbEntity
  8
외형선
  6
Continuous
370
    15
100
AcDbSpline
210
0.0
220
0.0
230
1.0
 70
    24
 71
     3
 72
    10
 73
     6
 74
     0
 42
0.000000001
 43
0.00000001
 40
0.0
 40
0.0
 40
0.0
 40
0.0
 40
0.5
 40
0.5
 40
1.0
 40
1.0
 40
1.0
 40
1.0
 10
8.924630657015513
 20
-0.104088435892649
 30
0.0
 10
8.924630657015513
 20
-0.3720797519980579
 30
0.0
 10
8.924630657015513
 20
-0.6358683564110095
 30
0.0
 10
8.924630657015513
 20
-1.048315837558022
 30
0.0
 10
8.924630657015513
 20
-1.19377903563344
 30
0.0
 10
8.924630657015513
 20
-1.264416443934124
 30
0.0
  0
LINE
  5
45A
330
1F
100
AcDbEntity
  8
0
  6
Continuous
 62
     1
370
    15
100
AcDbLine
 10
21.62463065701559
 20
0.0
 30
0.0
 11
21.62463065701559
 21
1.111249999999984
 31
0.0
  0
LINE
  5
45B
330
1F
100
AcDbEntity
  8
0
  6
Continuous
 62
     1
370
    15
100
AcDbLine
 10
21.62463065701559
 20
-1.206541126523845
 30
0.0
 11
21.62463065701559
 21
-1.331243529915056
 31
0.0
  0
LINE
  5
45C
330
1F
100
AcDbEntity
  8
중심선
 48
0.8
100
AcDbLine
 10
-38.52536934298443
 20
-0.0000000000000142
 30
0.0
 11
24.62463065701556
 21
0.0
 31
0.0
  0
CIRCLE
  5
45D
330
1F
100
AcDbEntity
  8
해칭선
100
AcDbCircle
 10
0.0
 20
0.0
 30
0.0
 40
3.000000000000001
  0
INSERT
  5
45E
330
1F
100
AcDbEntity
  8
0
  6
Continuous
 62
     7
100
AcDbBlockReference
 66
     1
  2
블럭10
 10
-20.89064227510963
 20
-52.04717430164394
 30
0.0
  0
ATTRIB
  5
45F
330
45E
100
AcDbEntity
  8
FORMAT
 62
     2
100
AcDbText
 10
-31.03227828724627
 20
-49.97180738881175
 30
0.0
 40
4.233333333333333
  1
EM637008 [ 2 FLUTE ]
 41
0.75
  7
SLDTEXTSTYLE0
 11
-31.03227828724627
 21
-52.08847405547842
 31
0.0
100
AcDbAttribute
  2
AUTOATTR0
 70
     0
 74
     1
  0
SEQEND
  5
460
330
45E
100
AcDbEntity
  8
0
  6
Continuous
 62
     7
  0
HATCH
  5
461
330
1F
100
AcDbEntity
  8
중심선
100
AcDbHatch
 10
0.0
 20
0.0
 30
0.0
210
0.0
220
0.0
230
1.0
  2
SOLID
 70
     1
 71
     0
 91
        1
 92
        0
 93
        4
 72
     1
 10
-15.17573297072879
 20
-35.8
 11
-18.62200821456607
 21
-35.8
 72
     1
 10
-18.62200821456608
 20
-35.8
 11
-20.7502380737701
 21
-38.33632558057261
 72
     1
 10
-20.75023807377009
 20
-38.33632558057261
 11
-17.30392974481967
 21
-38.33628615127012
 72
     1
 10
-17.30392974481967
 20
-38.33628615127012
 11
-15.1757329707288
 21
-35.8
 97
        0
 75
     0
 76
     1
 98
        1
 10
-1.07536934298443
 20
-0.0010749287239094
  0
HATCH
  5
462
330
1F
100
AcDbEntity
  8
중심선
100
AcDbHatch
 10
0.0
 20
0.0
 30
0.0
210
0.0
220
0.0
230
1.0
  2
SOLID
 70
     1
 71
     0
 91
        1
 92
        0
 93
        4
 72
     1
 10
-10.16296897969281
 20
-35.8
 11
-13.60924422353006
 21
-35.8
 72
     1
 10
-13.60924422353007
 20
-35.8
 11
-18.14038223188751
 21
-41.20000000000002
 72
     1
 10
-18.14038223188751
 20
-41.20000000000002
 11
-14.69410698805023
 21
-41.20000000000002
 72
     1
 10
-14.69410698805022
 20
-41.20000000000002
 11
-10.16296897969281
 21
-35.8
 97
        0
 75
     0
 76
     1
 98
        1
 10
-1.07536934298443
 20
-0.0010749287239094
  0
HATCH
  5
463
330
1F
100
AcDbEntity
  8
중심선
100
AcDbHatch
 10
0.0
 20
0.0
 30
0.0
210
0.0
220
0.0
230
1.0
  2
SOLID
 70
     1
 71
     0
 91
        1
 92
        0
 93
        4
 72
     1
 10
-5.150204988656952
 20
-35.80000000000003
 11
-8.596480232494038
 21
-35.8
 72
     1
 10
-8.59648023249403
 20
-35.8
 11
-15.64491713438331
 21
-44.20000000000002
 72
     1
 10
-15.64491713438331
 20
-44.20000000000002
 11
-12.19864189054602
 21
-44.20000000000002
 72
     1
 10
-12.19864189054604
 20
-44.20000000000002
 11
-5.150204988656959
 21
-35.80000000000003
 97
        0
 75
     0
 76
     1
 98
        1
 10
-1.07536934298443
 20
-0.0010749287239094
  0
HATCH
  5
464
330
1F
100
AcDbEntity
  8
중심선
100
AcDbHatch
 10
0.0
 20
0.0
 30
0.0
210
0.0
220
0.0
230
1.0
  2
SOLID
 70
     1
 71
     0
 91
        1
 92
        0
 93
        6
 72
     3
 10
-0.3503145576447366
 20
-40.00000000005128
 11
3.960054785062283
 21
1.540882976769353E-10
 40
0.3939339440162628
 50
17.09539180608459
 51
320.0019657685085
 73
     0
 72
     1
 10
1.332685098055862
 20
-38.58789400463834
 11
3.637986971756902
 21
-36.65356729459039
 72
     3
 10
-0.350314557697601
 20
-40.00000000000016
 11
6.600054785286829
 21
-1.278976924368180E-13
 40
0.636358354079598
 50
39.99873849337402
 51
368.4976242363724
 73
     1
 72
     1
 10
6.075017934203032
 20
-39.03999999993003
 11
-1.670247250861657
 21
-39.03999999993003
 72
     1
 10
-1.670247250861678
 20
-39.03999999993003
 11
-1.670272295307612
 21
-40.95999999992992
 72
     1
 10
-1.670272295307598
 20
-40.95999999992992
 11
2.771107474164438
 21
-40.95999999992989
 97
        0
 75
     0
 76
     1
 98
        1
 10
-1.07536934298443
 20
-0.0010749287239094
  0
DIMENSION
  5
465
330
1F
100
AcDbEntity
  8
치수문자_일반주서
100
AcDbDimension
  2
*D24
 10
-48.21536934298443
 20
-3.175000000000062
 30
0.0
 11
-48.21536934298445
 21
-0.0000000000000284
 31
0.0
 70
   160
  1
%%c<>
 71
     2
 42
6.349999999999994
 52
-270.0
  3
SLDDIMSTYLE0
100
AcDbAlignedDimension
 13
-34.71536934298442
 23
3.174999999999983
 33
0.0
 14
-34.71536934298442
 24
-3.175000000000011
 34
0.0
 50
90.0000000000002
100
AcDbRotatedDimension
1001
ACAD
1000
DSTYLE
1002
{
1070
   171
1070
     6
1070
   273
1070
     7
1002
}
  0
DIMENSION
  5
466
330
1F
100
AcDbEntity
  8
치수문자_일반주서
100
AcDbDimension
  2
*D25
 10
35.97649717912631
 20
-1.587499999999952
 30
0.0
 11
35.9764971791262
 21
23.7847410409332
 31
0.0
 70
   160
  1
%%c<>
 71
     2
 42
3.175000000000011
 52
-270.0
  3
SLDDIMSTYLE0
100
AcDbAlignedDimension
 13
21.62463065701559
 23
1.587500000000006
 33
0.0
 14
21.62463065701559
 24
-1.587500000000006
 34
0.0
 50
90.0000000000002
100
AcDbRotatedDimension
1001
ACAD
1000
DSTYLE
1002
{
1070
   171
1070
     6
1070
   273
1070
     7
1002
}
  0
DIMENSION
  5
467
330
1F
100
AcDbEntity
  8
치수문자_일반주서
100
AcDbDimension
  2
*D26
 10
8.924630657015598
 20
10.72162689894495
 30
0.0
 11
-8.93999024115476
 21
10.72162689894495
 31
0.0
 70
   160
  1
<>
 71
     2
 42
12.69999999999999
  3
SLDDIMSTYLE0
100
AcDbAlignedDimension
 13
21.62463065701559
 23
1.587500000000006
 33
0.0
 14
8.924630657015598
 24
1.26441644393411
 34
0.0
 50
0.000000000000008
100
AcDbRotatedDimension
1001
ACAD
1000
DSTYLE
1002
{
1070
   171
1070
     6
1070
   273
1070
     7
1002
}
  0
DIMENSION
  5
468
330
1F
100
AcDbEntity
  8
치수문자_일반주서
100
AcDbDimension
  2
*D27
 10
-35.52536934298442
 20
24.08397556034825
 30
0.0
 11
-7.207536065157399
 21
24.08397556034825
 31
0.0
 70
   160
  1
<>
 71
     2
 42
57.15000000000001
  3
SLDDIMSTYLE0
100
AcDbAlignedDimension
 13
21.62463065701559
 23
1.587500000000006
 33
0.0
 14
-35.52536934298442
 24
2.364999999999981
 34
0.0
 50
-0.0000000000000036
100
AcDbRotatedDimension
1001
ACAD
1000
DSTYLE
1002
{
1070
   171
1070
     6
1070
   273
1070
     7
1002
}
  0
INSERT
  5
469
330
1F
100
AcDbEntity
  8
해칭선
100
AcDbBlockReference
  2
SW_DOWELSYMBOL_0
 10
0.0
 20
0.0
 30
0.0
  0
ARC
  5
46A
330
1F
100
AcDbEntity
  8
0
  6
Continuous
 62
     1
370
    15
100
AcDbCircle
 10
21.3706306570156
 20
1.333499999999987
 30
0.0
 40
0.2540000000000001
100
AcDbArc
 50
0.0
 51
90.0
  0
ARC
  5
46B
102
{ACAD_REACTORS
102
}
330
1F
100
AcDbEntity
  8
0
  6
Continuous
 62
     1
370
    15
100
AcDbCircle
 10
21.3706306570156
 20
-1.333500000000001
 30
0.0
 40
0.2540000000000001
100
AcDbArc
 50
270.0
 51
0.0
  0
DIMENSION
  5
46C
102
{ACAD_REACTORS
102
}
102
{ACAD_XDICTIONARY
360
46D
102
}
330
1F
100
AcDbEntity
  8
치수문자_일반주서
100
AcDbDimension
  2
*D28
 10
21.3706306570156
 20
-1.333500000000001
 30
0.0
 11
34.53777764256057
 21
-17.22704840252969
 31
0.0
 70
   164
  1
<>
 71
     5
 42
0.2540000000000067
  3
SLDDIMSTYLE0
100
AcDbRadialDimension
 15
21.53267410987016
 25
-1.529096317416702
 35
0.0
 40
0.0
1001
ACAD_DSTYLE_DIMRADIAL_EXTENSION
1070
   387
1070
     1
1070
   388
1040
4.71238898038469
1070
   390
1040
0.0
1001
ACAD
1000
DSTYLE
1002
{
1070
   171
1070
     3
1002
}
  0
ENDSEC
  0
SECTION
  2
OBJECTS
  0
DICTIONARY
  5
C
330
0
100
AcDbDictionary
281
     1
  3
ACAD_GROUP
350
D
  3
ACAD_IMAGE_VARS
350
166
  3
ACAD_LAYOUT
350
1A
  3
ACAD_MLINESTYLE
350
17
  3
ACAD_PLOTSETTINGS
350
19
  3
ACAD_PLOTSTYLENAME
350
E
  3
ACAD_SCALELIST
350
47
  3
APPDATA
350
164
  3
DWGPROPS
350
4AE
  0
DICTIONARY
  5
240
330
2
100
AcDbDictionary
280
     1
281
     1
  3
ACAD_LAYERSTATES
360
241
  0
DICTIONARY
  5
46D
330
46C
100
AcDbDictionary
280
     1
281
     1
  0
DICTIONARY
  5
D
102
{ACAD_REACTORS
330
C
102
}
330
C
100
AcDbDictionary
281
     1
  0
RASTERVARIABLES
  5
166
102
{ACAD_REACTORS
330
C
102
}
330
C
100
AcDbRasterVariables
 90
        0
 70
     1
 71
     1
 72
     1
  0
DICTIONARY
  5
1A
102
{ACAD_REACTORS
330
C
102
}
330
C
100
AcDbDictionary
281
     1
  3
Layout1
350
1E
  3
Layout2
350
26
  3
Model
350
22
  0
DICTIONARY
  5
17
102
{ACAD_REACTORS
330
C
102
}
330
C
100
AcDbDictionary
281
     1
  3
Standard
350
18
  0
DICTIONARY
  5
19
102
{ACAD_REACTORS
330
C
102
}
330
C
100
AcDbDictionary
281
     1
  0
ACDBDICTIONARYWDFLT
  5
E
102
{ACAD_REACTORS
330
C
102
}
330
C
100
AcDbDictionary
281
     1
  3
Normal
350
F
100
AcDbDictionaryWithDefault
340
F
  0
DICTIONARY
  5
47
102
{ACAD_REACTORS
330
C
102
}
330
C
100
AcDbDictionary
281
     1
  3
A0
350
48
  3
A1
350
49
  3
A2
350
4A
  3
A3
350
4B
  3
A4
350
4C
  3
A5
350
4D
  3
A6
350
4E
  3
A7
350
4F
  3
A8
350
50
  3
A9
350
51
  3
B0
350
52
  3
B1
350
53
  3
B2
350
54
  3
B3
350
55
  3
B4
350
56
  3
B5
350
57
  3
B6
350
58
  3
B7
350
59
  3
B8
350
5A
  3
B9
350
5B
  3
C0
350
5C
  3
C1
350
5D
  3
C2
350
5E
  3
C3
350
5F
  3
C4
350
60
  3
C5
350
61
  3
C6
350
62
  3
C7
350
63
  3
C8
350
64
  3
C9
350
65
  3
D0
350
66
  3
D1
350
67
  3
D2
350
68
  0
DICTIONARY
  5
164
102
{ACAD_REACTORS
330
C
102
}
330
C
100
AcDbDictionary
281
     1
  0
XRECORD
  5
4AE
102
{ACAD_REACTORS
330
C
102
}
330
C
100
AcDbXrecord
280
     1
  1
DWGPROPS COOKIE
  2

  3

  4

  6

  7

  8
12017012
  9

300
=
301
=
302
=
303
=
304
=
305
=
306
=
307
=
308
=
309
=
 40
0.0
 41
2458288.279274965
 42
2458295.28316632
  1

 90
        0
  0
DICTIONARY
  5
241
102
{ACAD_REACTORS
330
240
102
}
330
240
100
AcDbDictionary
281
     1
  0
LAYOUT
  5
1E
102
{ACAD_REACTORS
330
1A
102
}
330
1A
100
AcDbPlotSettings
  1

  2
none_device
  4

  6

 40
0.0
 41
0.0
 42
0.0
 43
0.0
 44
0.0
 45
0.0
 46
0.0
 47
0.0
 48
0.0
 49
0.0
140
0.0
141
0.0
142
1.0
143
1.0
 70
   688
 72
     1
 73
     0
 74
     5
  7

 75
    16
147
1.0
148
0.0
149
0.0
100
AcDbLayout
  1
Layout1
 70
     1
 71
     1
 10
0.0
 20
0.0
 11
420.0
 21
297.0
 12
0.0
 22
0.0
 32
0.0
 14
1.000000000000000E+20
 24
1.000000000000000E+20
 34
1.000000000000000E+20
 15
-1.000000000000000E+20
 25
-1.000000000000000E+20
 35
-1.000000000000000E+20
146
0.0
 13
0.0
 23
0.0
 33
0.0
 16
1.0
 26
0.0
 36
0.0
 17
0.0
 27
1.0
 37
0.0
 76
     0
330
1B
  0
LAYOUT
  5
26
102
{ACAD_REACTORS
330
1A
102
}
330
1A
100
AcDbPlotSettings
  1

  2
none_device
  4

  6

 40
0.0
 41
0.0
 42
0.0
 43
0.0
 44
0.0
 45
0.0
 46
0.0
 47
0.0
 48
0.0
 49
0.0
140
0.0
141
0.0
142
1.0
143
1.0
 70
   688
 72
     1
 73
     0
 74
     5
  7

 75
    16
147
1.0
148
0.0
149
0.0
100
AcDbLayout
  1
Layout2
 70
     1
 71
     2
 10
0.0
 20
0.0
 11
0.0
 21
0.0
 12
0.0
 22
0.0
 32
0.0
 14
0.0
 24
0.0
 34
0.0
 15
0.0
 25
0.0
 35
0.0
146
0.0
 13
0.0
 23
0.0
 33
0.0
 16
1.0
 26
0.0
 36
0.0
 17
0.0
 27
1.0
 37
0.0
 76
     0
330
23
  0
LAYOUT
  5
22
102
{ACAD_REACTORS
330
1A
102
}
330
1A
100
AcDbPlotSettings
  1

  2
none_device
  4
ANSI_A_(11.00_x_8.50_Inches)
  6

 40
6.35
 41
19.05
 42
6.35000508
 43
19.05000254
 44
279.4
 45
215.9
 46
99.14430414511142
 47
103.1282283435221
 48
0.0
 49
0.0
140
0.0
141
0.0
142
0.0707425392874294
143
1.0
 70
  1696
 72
     0
 73
     0
 74
     0
  7

 75
     0
147
0.0235690232323232
148
0.0
149
0.0
100
AcDbLayout
  1
Model
 70
     1
 71
     0
 10
0.0
 20
0.0
 11
420.0
 21
297.0
 12
0.0
 22
0.0
 32
0.0
 14
1.000000000000000E+20
 24
1.000000000000000E+20
 34
1.000000000000000E+20
 15
-1.000000000000000E+20
 25
-1.000000000000000E+20
 35
-1.000000000000000E+20
146
0.0
 13
0.0
 23
0.0
 33
0.0
 16
1.0
 26
0.0
 36
0.0
 17
0.0
 27
1.0
 37
0.0
 76
     0
330
1F
331
29
  0
MLINESTYLE
  5
18
102
{ACAD_REACTORS
330
17
102
}
330
17
100
AcDbMlineStyle
  2
Standard
 70
     0
  3

 62
   256
 51
90.0
 52
90.0
 71
     2
 49
0.5
 62
   256
  6
BYLAYER
 49
-0.5
 62
   256
  6
BYLAYER
  0
ACDBPLACEHOLDER
  5
F
102
{ACAD_REACTORS
330
E
102
}
330
E
  0
SCALE
  5
48
102
{ACAD_REACTORS
330
47
102
}
330
47
100
AcDbScale
 70
     0
300
1:1
140
1.0
141
1.0
290
     1
  0
SCALE
  5
49
102
{ACAD_REACTORS
330
47
102
}
330
47
100
AcDbScale
 70
     0
300
1:2
140
1.0
141
2.0
290
     0
  0
SCALE
  5
4A
102
{ACAD_REACTORS
330
47
102
}
330
47
100
AcDbScale
 70
     0
300
1:4
140
1.0
141
4.0
290
     0
  0
SCALE
  5
4B
102
{ACAD_REACTORS
330
47
102
}
330
47
100
AcDbScale
 70
     0
300
1:5
140
1.0
141
5.0
290
     0
  0
SCALE
  5
4C
102
{ACAD_REACTORS
330
47
102
}
330
47
100
AcDbScale
 70
     0
300
1:8
140
1.0
141
8.0
290
     0
  0
SCALE
  5
4D
102
{ACAD_REACTORS
330
47
102
}
330
47
100
AcDbScale
 70
     0
300
1:10
140
1.0
141
10.0
290
     0
  0
SCALE
  5
4E
102
{ACAD_REACTORS
330
47
102
}
330
47
100
AcDbScale
 70
     0
300
1:16
140
1.0
141
16.0
290
     0
  0
SCALE
  5
4F
102
{ACAD_REACTORS
330
47
102
}
330
47
100
AcDbScale
 70
     0
300
1:20
140
1.0
141
20.0
290
     0
  0
SCALE
  5
50
102
{ACAD_REACTORS
330
47
102
}
330
47
100
AcDbScale
 70
     0
300
1:30
140
1.0
141
30.0
290
     0
  0
SCALE
  5
51
102
{ACAD_REACTORS
330
47
102
}
330
47
100
AcDbScale
 70
     0
300
1:40
140
1.0
141
40.0
290
     0
  0
SCALE
  5
52
102
{ACAD_REACTORS
330
47
102
}
330
47
100
AcDbScale
 70
     0
300
1:50
140
1.0
141
50.0
290
     0
  0
SCALE
  5
53
102
{ACAD_REACTORS
330
47
102
}
330
47
100
AcDbScale
 70
     0
300
1:100
140
1.0
141
100.0
290
     0
  0
SCALE
  5
54
102
{ACAD_REACTORS
330
47
102
}
330
47
100
AcDbScale
 70
     0
300
2:1
140
2.0
141
1.0
290
     0
  0
SCALE
  5
55
102
{ACAD_REACTORS
330
47
102
}
330
47
100
AcDbScale
 70
     0
300
4:1
140
4.0
141
1.0
290
     0
  0
SCALE
  5
56
102
{ACAD_REACTORS
330
47
102
}
330
47
100
AcDbScale
 70
     0
300
8:1
140
8.0
141
1.0
290
     0
  0
SCALE
  5
57
102
{ACAD_REACTORS
330
47
102
}
330
47
100
AcDbScale
 70
     0
300
10:1
140
10.0
141
1.0
290
     0
  0
SCALE
  5
58
102
{ACAD_REACTORS
330
47
102
}
330
47
100
AcDbScale
 70
     0
300
100:1
140
100.0
141
1.0
290
     0
  0
SCALE
  5
59
102
{ACAD_REACTORS
330
47
102
}
330
47
100
AcDbScale
 70
     0
300
1/128" = 1'-0"
140
0.0078125
141
12.0
290
     0
  0
SCALE
  5
5A
102
{ACAD_REACTORS
330
47
102
}
330
47
100
AcDbScale
 70
     0
300
1/64" = 1'-0"
140
0.015625
141
12.0
290
     0
  0
SCALE
  5
5B
102
{ACAD_REACTORS
330
47
102
}
330
47
100
AcDbScale
 70
     0
300
1/32" = 1'-0"
140
0.03125
141
12.0
290
     0
  0
SCALE
  5
5C
102
{ACAD_REACTORS
330
47
102
}
330
47
100
AcDbScale
 70
     0
300
1/16" = 1'-0"
140
0.0625
141
12.0
290
     0
  0
SCALE
  5
5D
102
{ACAD_REACTORS
330
47
102
}
330
47
100
AcDbScale
 70
     0
300
3/32" = 1'-0"
140
0.09375
141
12.0
290
     0
  0
SCALE
  5
5E
102
{ACAD_REACTORS
330
47
102
}
330
47
100
AcDbScale
 70
     0
300
1/8" = 1'-0"
140
0.125
141
12.0
290
     0
  0
SCALE
  5
5F
102
{ACAD_REACTORS
330
47
102
}
330
47
100
AcDbScale
 70
     0
300
3/16" = 1'-0"
140
0.1875
141
12.0
290
     0
  0
SCALE
  5
60
102
{ACAD_REACTORS
330
47
102
}
330
47
100
AcDbScale
 70
     0
300
1/4" = 1'-0"
140
0.25
141
12.0
290
     0
  0
SCALE
  5
61
102
{ACAD_REACTORS
330
47
102
}
330
47
100
AcDbScale
 70
     0
300
3/8" = 1'-0"
140
0.375
141
12.0
290
     0
  0
SCALE
  5
62
102
{ACAD_REACTORS
330
47
102
}
330
47
100
AcDbScale
 70
     0
300
1/2" = 1'-0"
140
0.5
141
12.0
290
     0
  0
SCALE
  5
63
102
{ACAD_REACTORS
330
47
102
}
330
47
100
AcDbScale
 70
     0
300
3/4" = 1'-0"
140
0.75
141
12.0
290
     0
  0
SCALE
  5
64
102
{ACAD_REACTORS
330
47
102
}
330
47
100
AcDbScale
 70
     0
300
1" = 1'-0"
140
1.0
141
12.0
290
     0
  0
SCALE
  5
65
102
{ACAD_REACTORS
330
47
102
}
330
47
100
AcDbScale
 70
     0
300
1-1/2" = 1'-0"
140
1.5
141
12.0
290
     0
  0
SCALE
  5
66
102
{ACAD_REACTORS
330
47
102
}
330
47
100
AcDbScale
 70
     0
300
3" = 1'-0"
140
3.0
141
12.0
290
     0
  0
SCALE
  5
67
102
{ACAD_REACTORS
330
47
102
}
330
47
100
AcDbScale
 70
     0
300
6" = 1'-0"
140
6.0
141
12.0
290
     0
  0
SCALE
  5
68
102
{ACAD_REACTORS
330
47
102
}
330
47
100
AcDbScale
 70
     0
300
1'-0" = 1'-0"
140
12.0
141
12.0
290
     0
  0
ENDSEC
  0
EOF
