  0
SECTION
  2
HEADER
  9
$ACADVER
  1
AC1015
  9
$ACADMAINTVER
 70
     6
  9
$DWGCODEPAGE
  3
ANSI_949
  9
$INSBASE
 10
0.0
 20
0.0
 30
0.0
  9
$EXTMIN
 10
1.000000000000000E+20
 20
1.000000000000000E+20
 30
1.000000000000000E+20
  9
$EXTMAX
 10
-1.000000000000000E+20
 20
-1.000000000000000E+20
 30
-1.000000000000000E+20
  9
$LIMMIN
 10
0.0
 20
0.0
  9
$LIMMAX
 10
420.0
 20
297.0
  9
$ORTHOMODE
 70
     1
  9
$REGENMODE
 70
     1
  9
$FILLMODE
 70
     1
  9
$QTEXTMODE
 70
     0
  9
$MIRRTEXT
 70
     1
  9
$LTSCALE
 40
1.0
  9
$ATTMODE
 70
     1
  9
$TEXTSIZE
 40
3.5
  9
$TRACEWID
 40
1.0
  9
$TEXTSTYLE
  7
Standard
  9
$CLAYER
  8
0
  9
$CELTYPE
  6
ByLayer
  9
$CECOLOR
 62
   256
  9
$CELTSCALE
 40
1.0
  9
$DISPSILH
 70
     0
  9
$DIMSCALE
 40
1.0
  9
$DIMASZ
 40
3.302
  9
$DIMEXO
 40
1.0
  9
$DIMDLI
 40
3.75
  9
$DIMRND
 40
0.0
  9
$DIMDLE
 40
0.0
  9
$DIMEXE
 40
1.0
  9
$DIMTP
 40
0.0
  9
$DIMTM
 40
0.0
  9
$DIMTXT
 40
3.5
  9
$DIMCEN
 40
2.5
  9
$DIMTSZ
 40
0.0
  9
$DIMTOL
 70
     0
  9
$DIMLIM
 70
     0
  9
$DIMTIH
 70
     1
  9
$DIMTOH
 70
     1
  9
$DIMSE1
 70
     0
  9
$DIMSE2
 70
     0
  9
$DIMTAD
 70
     1
  9
$DIMZIN
 70
     0
  9
$DIMBLK
  1

  9
$DIMASO
 70
     1
  9
$DIMSHO
 70
     1
  9
$DIMPOST
  1

  9
$DIMAPOST
  1

  9
$DIMALT
 70
     0
  9
$DIMALTD
 70
     3
  9
$DIMALTF
 40
0.0393700787401575
  9
$DIMLFAC
 40
1.0
  9
$DIMTOFL
 70
     1
  9
$DIMTVP
 40
0.0
  9
$DIMTIX
 70
     0
  9
$DIMSOXD
 70
     0
  9
$DIMSAH
 70
     0
  9
$DIMBLK1
  1

  9
$DIMBLK2
  1

  9
$DIMSTYLE
  2
ISO-25
  9
$DIMCLRD
 70
     0
  9
$DIMCLRE
 70
     0
  9
$DIMCLRT
 70
     0
  9
$DIMTFAC
 40
1.0
  9
$DIMGAP
 40
1.524
  9
$DIMJUST
 70
     0
  9
$DIMSD1
 70
     0
  9
$DIMSD2
 70
     0
  9
$DIMTOLJ
 70
     0
  9
$DIMTZIN
 70
     0
  9
$DIMALTZ
 70
     0
  9
$DIMALTTZ
 70
     0
  9
$DIMUPT
 70
     0
  9
$DIMDEC
 70
     2
  9
$DIMTDEC
 70
     2
  9
$DIMALTU
 70
     2
  9
$DIMALTTD
 70
     3
  9
$DIMTXSTY
  7
Standard
  9
$DIMAUNIT
 70
     0
  9
$DIMADEC
 70
     2
  9
$DIMALTRND
 40
0.0
  9
$DIMAZIN
 70
     0
  9
$DIMDSEP
 70
    44
  9
$DIMATFIT
 70
     3
  9
$DIMFRAC
 70
     0
  9
$DIMLDRBLK
  1

  9
$DIMLUNIT
 70
     2
  9
$DIMLWD
 70
    -2
  9
$DIMLWE
 70
    -2
  9
$DIMTMOVE
 70
     0
  9
$LUNITS
 70
     2
  9
$LUPREC
 70
     2
  9
$SKETCHINC
 40
1.0
  9
$FILLETRAD
 40
10.0
  9
$AUNITS
 70
     0
  9
$AUPREC
 70
     2
  9
$MENU
  1
.
  9
$ELEVATION
 40
0.0
  9
$PELEVATION
 40
0.0
  9
$THICKNESS
 40
0.0
  9
$LIMCHECK
 70
     0
  9
$CHAMFERA
 40
0.0
  9
$CHAMFERB
 40
0.0
  9
$CHAMFERC
 40
0.0
  9
$CHAMFERD
 40
0.0
  9
$SKPOLY
 70
     0
  9
$TDCREATE
 40
2458288.653896516
  9
$TDUCREATE
 40
2458288.278896516
  9
$TDUPDATE
 40
2458295.802554016
  9
$TDUUPDATE
 40
2458295.427554016
  9
$TDINDWG
 40
0.0011253356
  9
$TDUSRTIMER
 40
2458295.42642919
  9
$USRTIMER
 70
     1
  9
$ANGBASE
 50
0.0
  9
$ANGDIR
 70
     0
  9
$PDMODE
 70
     0
  9
$PDSIZE
 40
-1.0
  9
$PLINEWID
 40
0.0
  9
$SPLFRAME
 70
     0
  9
$SPLINETYPE
 70
     6
  9
$SPLINESEGS
 70
     8
  9
$HANDSEED
  5
288
  9
$SURFTAB1
 70
     6
  9
$SURFTAB2
 70
     6
  9
$SURFTYPE
 70
     6
  9
$SURFU
 70
     6
  9
$SURFV
 70
     6
  9
$UCSBASE
  2

  9
$UCSNAME
  2

  9
$UCSORG
 10
0.0
 20
0.0
 30
0.0
  9
$UCSXDIR
 10
1.0
 20
0.0
 30
0.0
  9
$UCSYDIR
 10
0.0
 20
1.0
 30
0.0
  9
$UCSORTHOREF
  2

  9
$UCSORTHOVIEW
 70
     0
  9
$UCSORGTOP
 10
0.0
 20
0.0
 30
0.0
  9
$UCSORGBOTTOM
 10
0.0
 20
0.0
 30
0.0
  9
$UCSORGLEFT
 10
0.0
 20
0.0
 30
0.0
  9
$UCSORGRIGHT
 10
0.0
 20
0.0
 30
0.0
  9
$UCSORGFRONT
 10
0.0
 20
0.0
 30
0.0
  9
$UCSORGBACK
 10
0.0
 20
0.0
 30
0.0
  9
$PUCSBASE
  2

  9
$PUCSNAME
  2

  9
$PUCSORG
 10
0.0
 20
0.0
 30
0.0
  9
$PUCSXDIR
 10
1.0
 20
0.0
 30
0.0
  9
$PUCSYDIR
 10
0.0
 20
1.0
 30
0.0
  9
$PUCSORTHOREF
  2

  9
$PUCSORTHOVIEW
 70
     0
  9
$PUCSORGTOP
 10
0.0
 20
0.0
 30
0.0
  9
$PUCSORGBOTTOM
 10
0.0
 20
0.0
 30
0.0
  9
$PUCSORGLEFT
 10
0.0
 20
0.0
 30
0.0
  9
$PUCSORGRIGHT
 10
0.0
 20
0.0
 30
0.0
  9
$PUCSORGFRONT
 10
0.0
 20
0.0
 30
0.0
  9
$PUCSORGBACK
 10
0.0
 20
0.0
 30
0.0
  9
$USERI1
 70
     0
  9
$USERI2
 70
     0
  9
$USERI3
 70
     0
  9
$USERI4
 70
     0
  9
$USERI5
 70
     0
  9
$USERR1
 40
0.0
  9
$USERR2
 40
0.0
  9
$USERR3
 40
0.0
  9
$USERR4
 40
0.0
  9
$USERR5
 40
0.0
  9
$WORLDVIEW
 70
     1
  9
$SHADEDGE
 70
     3
  9
$SHADEDIF
 70
    70
  9
$TILEMODE
 70
     1
  9
$MAXACTVP
 70
    64
  9
$PINSBASE
 10
0.0
 20
0.0
 30
0.0
  9
$PLIMCHECK
 70
     0
  9
$PEXTMIN
 10
1.000000000000000E+20
 20
1.000000000000000E+20
 30
1.000000000000000E+20
  9
$PEXTMAX
 10
-1.000000000000000E+20
 20
-1.000000000000000E+20
 30
-1.000000000000000E+20
  9
$PLIMMIN
 10
0.0
 20
0.0
  9
$PLIMMAX
 10
0.0
 20
0.0
  9
$UNITMODE
 70
     0
  9
$VISRETAIN
 70
     1
  9
$PLINEGEN
 70
     0
  9
$PSLTSCALE
 70
     1
  9
$TREEDEPTH
 70
  3020
  9
$CMLSTYLE
  2
Standard
  9
$CMLJUST
 70
     0
  9
$CMLSCALE
 40
20.0
  9
$PROXYGRAPHICS
 70
     1
  9
$MEASUREMENT
 70
     1
  9
$CELWEIGHT
370
    -1
  9
$ENDCAPS
280
     0
  9
$JOINSTYLE
280
     0
  9
$LWDISPLAY
290
     1
  9
$INSUNITS
 70
     4
  9
$HYPERLINKBASE
  1

  9
$STYLESHEET
  1

  9
$XEDIT
290
     1
  9
$CEPSNTYPE
380
     0
  9
$PSTYLEMODE
290
     1
  9
$FINGERPRINTGUID
  2
{3D476525-DD2B-4D62-B3C8-51B00E557CEA}
  9
$VERSIONGUID
  2
{FAEB1C32-E019-11D5-929B-00C0DF256EC4}
  9
$EXTNAMES
290
     1
  9
$PSVPSCALE
 40
0.0
  9
$OLESTARTUP
290
     0
  0
ENDSEC
  0
SECTION
  2
CLASSES
  0
CLASS
  1
ACDBDICTIONARYWDFLT
  2
AcDbDictionaryWithDefault
  3
ObjectDBX Classes
 90
        0
280
     0
281
     0
  0
CLASS
  1
VISUALSTYLE
  2
AcDbVisualStyle
  3
ObjectDBX Classes
 90
     4095
280
     0
281
     0
  0
CLASS
  1
MATERIAL
  2
AcDbMaterial
  3
ObjectDBX Classes
 90
     1153
280
     0
281
     0
  0
CLASS
  1
SCALE
  2
AcDbScale
  3
ObjectDBX Classes
 90
     1153
280
     0
281
     0
  0
CLASS
  1
SUN
  2
AcDbSun
  3
SCENEOE
 90
     1153
280
     0
281
     0
  0
CLASS
  1
ACDBPLACEHOLDER
  2
AcDbPlaceHolder
  3
ObjectDBX Classes
 90
        0
280
     0
281
     0
  0
CLASS
  1
LAYOUT
  2
AcDbLayout
  3
ObjectDBX Classes
 90
        0
280
     0
281
     0
  0
CLASS
  1
TABLESTYLE
  2
AcDbTableStyle
  3
ObjectDBX Classes
 90
     4095
280
     0
281
     0
  0
CLASS
  1
MLEADERSTYLE
  2
AcDbMLeaderStyle
  3
ACDB_MLEADERSTYLE_CLASS
 90
     4095
280
     0
281
     0
  0
CLASS
  1
RASTERVARIABLES
  2
AcDbRasterVariables
  3
ISM
 90
        0
280
     0
281
     0
  0
CLASS
  1
DIMASSOC
  2
AcDbDimAssoc
  3
"AcDbDimAssoc|Product Desc:     AcDim ARX App For Dimension|Company:          Autodesk, Inc.|WEB Address:      www.autodesk.com"
 90
        0
280
     0
281
     0
  0
ENDSEC
  0
SECTION
  2
TABLES
  0
TABLE
  2
VPORT
  5
8
330
0
100
AcDbSymbolTable
 70
     1
  0
VPORT
  5
29
330
8
100
AcDbSymbolTableRecord
100
AcDbViewportTableRecord
  2
*Active
 70
     0
 10
0.0
 20
0.0
 11
1.0
 21
1.0
 12
50.31219480590283
 22
24.06817187690919
 13
0.0
 23
0.0
 14
10.0
 24
10.0
 15
10.0
 25
10.0
 16
0.0
 26
0.0
 36
1.0
 17
0.0
 27
0.0
 37
0.0
 40
216.0342122892283
 41
1.798434442270059
 42
50.0
 43
0.0
 44
0.0
 50
0.0
 51
0.0
 71
    16
 72
  2000
 73
     1
 74
     3
 75
     0
 76
     0
 77
     0
 78
     0
281
     0
 65
     1
110
0.0
120
0.0
130
0.0
111
1.0
121
0.0
131
0.0
112
0.0
122
1.0
132
0.0
 79
     0
146
0.0
  0
ENDTAB
  0
TABLE
  2
LTYPE
  5
5
330
0
100
AcDbSymbolTable
 70
     6
  0
LTYPE
  5
14
330
5
100
AcDbSymbolTableRecord
100
AcDbLinetypeTableRecord
  2
ByBlock
 70
     0
  3

 72
    65
 73
     0
 40
0.0
  0
LTYPE
  5
15
330
5
100
AcDbSymbolTableRecord
100
AcDbLinetypeTableRecord
  2
ByLayer
 70
     0
  3

 72
    65
 73
     0
 40
0.0
  0
LTYPE
  5
16
330
5
100
AcDbSymbolTableRecord
100
AcDbLinetypeTableRecord
  2
Continuous
 70
     0
  3
Solid line
 72
    65
 73
     0
 40
0.0
  0
LTYPE
  5
6A
330
5
100
AcDbSymbolTableRecord
100
AcDbLinetypeTableRecord
  2
HIDDEN
 70
     0
  3
Hidden __ __ __ __ __ __ __ __ __ __ __ __ __ __
 72
    65
 73
     2
 40
1.905
 49
1.27
 74
     0
 49
-0.635
 74
     0
  0
LTYPE
  5
6B
330
5
100
AcDbSymbolTableRecord
100
AcDbLinetypeTableRecord
  2
PHANTOM
 70
     0
  3
Phantom ______  __  __  ______  __  __  ______
 72
    65
 73
     6
 40
12.7
 49
6.35
 74
     0
 49
-1.27
 74
     0
 49
1.27
 74
     0
 49
-1.27
 74
     0
 49
1.27
 74
     0
 49
-1.27
 74
     0
  0
LTYPE
  5
6C
330
5
100
AcDbSymbolTableRecord
100
AcDbLinetypeTableRecord
  2
CENTER
 70
     0
  3
Center ____ _ ____ _ ____ _ ____ _ ____ _ ____
 72
    65
 73
     4
 40
10.16
 49
6.35
 74
     0
 49
-1.27
 74
     0
 49
1.27
 74
     0
 49
-1.27
 74
     0
  0
LTYPE
  5
6D
330
5
100
AcDbSymbolTableRecord
100
AcDbLinetypeTableRecord
  2
CENTERX2
 70
     0
  3
Center (2x) ________  __  ________  __  _____
 72
    65
 73
     4
 40
20.32
 49
12.7
 74
     0
 49
-2.54
 74
     0
 49
2.54
 74
     0
 49
-2.54
 74
     0
  0
LTYPE
  5
6E
330
5
100
AcDbSymbolTableRecord
100
AcDbLinetypeTableRecord
  2
DOT2
 70
     0
  3
Dot (.5x) ........................................
 72
    65
 73
     2
 40
0.635
 49
0.0
 74
     0
 49
-0.635
 74
     0
  0
ENDTAB
  0
TABLE
  2
LAYER
  5
2
102
{ACAD_XDICTIONARY
360
1F9
102
}
330
0
100
AcDbSymbolTable
 70
    18
  0
LAYER
  5
10
330
2
100
AcDbSymbolTableRecord
100
AcDbLayerTableRecord
  2
0
 70
     0
 62
     7
  6
Continuous
370
    -3
390
F
  0
LAYER
  5
6F
330
2
100
AcDbSymbolTableRecord
100
AcDbLayerTableRecord
  2
FORMAT
 70
     0
 62
     2
  6
Continuous
370
    -3
390
F
  0
LAYER
  5
70
330
2
100
AcDbSymbolTableRecord
100
AcDbLayerTableRecord
  2
외형선
 70
     0
 62
     4
  6
Continuous
370
    30
390
F
  0
LAYER
  5
71
330
2
100
AcDbSymbolTableRecord
100
AcDbLayerTableRecord
  2
숨은선
 70
     0
 62
     2
  6
HIDDEN
370
    15
390
F
  0
LAYER
  5
72
330
2
100
AcDbSymbolTableRecord
100
AcDbLayerTableRecord
  2
중심선
 70
     0
 62
     1
  6
CENTERX2
370
    -3
390
F
  0
LAYER
  5
73
330
2
100
AcDbSymbolTableRecord
100
AcDbLayerTableRecord
  2
파단선
 70
     0
 62
     4
  6
Continuous
370
    -3
390
F
  0
LAYER
  5
74
330
2
100
AcDbSymbolTableRecord
100
AcDbLayerTableRecord
  2
해칭선
 70
     0
 62
   100
  6
Continuous
370
    -3
390
F
  0
LAYER
  5
75
330
2
100
AcDbSymbolTableRecord
100
AcDbLayerTableRecord
  2
가는실선
 70
     0
 62
     4
  6
Continuous
370
    -3
390
F
  0
LAYER
  5
76
330
2
100
AcDbSymbolTableRecord
100
AcDbLayerTableRecord
  2
치수_보조선
 70
     0
 62
     4
  6
Continuous
370
    -3
390
F
  0
LAYER
  5
77
330
2
100
AcDbSymbolTableRecord
100
AcDbLayerTableRecord
  2
치수문자_일반주서
 70
     0
 62
     7
  6
Continuous
370
    15
390
F
  0
LAYER
  5
78
330
2
100
AcDbSymbolTableRecord
100
AcDbLayerTableRecord
  2
개별주서
 70
     0
 62
   100
  6
Continuous
370
    30
390
F
  0
LAYER
  5
79
330
2
100
AcDbSymbolTableRecord
100
AcDbLayerTableRecord
  2
중간선
 70
     0
 62
     2
  6
Continuous
370
    15
390
F
  0
LAYER
  5
7A
330
2
100
AcDbSymbolTableRecord
100
AcDbLayerTableRecord
  2
윤곽선
 70
     0
 62
     3
  6
Continuous
370
    40
390
F
  0
LAYER
  5
7B
330
2
100
AcDbSymbolTableRecord
100
AcDbLayerTableRecord
  2
중심마크
 70
     0
 62
   100
  6
Continuous
370
    30
390
F
  0
LAYER
  5
7C
330
2
100
AcDbSymbolTableRecord
100
AcDbLayerTableRecord
  2
가상선
 70
     0
 62
     4
  6
PHANTOM
370
    -3
390
F
  0
LAYER
  5
7D
330
2
100
AcDbSymbolTableRecord
100
AcDbLayerTableRecord
  2
특수지정선
 70
     0
 62
     5
  6
CENTERX2
370
    60
390
F
  0
LAYER
  5
7E
330
2
100
AcDbSymbolTableRecord
100
AcDbLayerTableRecord
  2
참조1
 70
     0
 62
    -4
  6
Continuous
370
    -3
390
F
  0
LAYER
  5
152
330
2
100
AcDbSymbolTableRecord
100
AcDbLayerTableRecord
  2
Defpoints
 70
     0
 62
     7
  6
Continuous
290
     0
370
    -3
390
F
  0
ENDTAB
  0
TABLE
  2
STYLE
  5
3
330
0
100
AcDbSymbolTable
 70
     2
  0
STYLE
  5
11
330
3
100
AcDbSymbolTableRecord
100
AcDbTextStyleTableRecord
  2
Standard
 70
     0
 40
0.0
 41
1.0
 50
0.0
 71
     0
 42
3.5
  3
txt
  4

  0
STYLE
  5
94
330
3
100
AcDbSymbolTableRecord
100
AcDbTextStyleTableRecord
  2
SLDTEXTSTYLE0
 70
     0
 40
0.0
 41
0.75
 50
0.0
 71
     0
 42
3.5
  3
TXT
  4

  0
ENDTAB
  0
TABLE
  2
VIEW
  5
6
330
0
100
AcDbSymbolTable
 70
     0
  0
ENDTAB
  0
TABLE
  2
UCS
  5
7
330
0
100
AcDbSymbolTable
 70
     0
  0
ENDTAB
  0
TABLE
  2
APPID
  5
9
330
0
100
AcDbSymbolTable
 70
     2
  0
APPID
  5
12
330
9
100
AcDbSymbolTableRecord
100
AcDbRegAppTableRecord
  2
ACAD
 70
     0
  0
APPID
  5
15D
330
9
100
AcDbSymbolTableRecord
100
AcDbRegAppTableRecord
  2
ACAD_DSTYLE_DIMRADIAL_EXTENSION
 70
     0
  0
ENDTAB
  0
TABLE
  2
DIMSTYLE
  5
A
330
0
100
AcDbSymbolTable
 70
     4
100
AcDbDimStyleTable
  0
DIMSTYLE
105
27
330
A
100
AcDbSymbolTableRecord
100
AcDbDimStyleTableRecord
  2
ISO-25
 70
     0
 41
2.5
 42
0.625
 43
3.75
 44
1.25
 73
     0
 74
     0
 77
     1
 78
     8
140
2.5
141
2.5
143
0.03937007874016
147
0.625
171
     3
172
     1
178
     0
271
     2
272
     2
274
     3
278
    44
283
     0
284
     8
340
11
  0
DIMSTYLE
105
CE
102
{ACAD_REACTORS
330
1A3
330
1B0
330
1C0
330
1D0
330
1EC
330
225
330
226
330
227
330
228
330
27A
102
}
330
A
100
AcDbSymbolTableRecord
100
AcDbDimStyleTableRecord
  2
SLDDIMSTYLE0
 70
     0
 41
3.302
 44
0.0
 45
0.000000001
 73
     0
 74
     0
 77
     1
 78
     4
 79
     1
140
3.5
143
0.0393700787401575
147
0.875
148
0.000000001
170
     1
172
     1
173
     1
178
     0
271
     2
272
     2
276
     2
284
    12
289
     0
340
94
  0
DIMSTYLE
105
E3
330
A
100
AcDbSymbolTableRecord
100
AcDbDimStyleTableRecord
  2
SLDDIMSTYLE1
 70
     0
 41
3.302
 44
0.0
 45
0.000000001
 73
     0
 74
     0
 77
     1
 78
     4
 79
     1
140
3.5
143
0.0393700787401575
147
0.875
148
0.000000001
170
     1
173
     1
178
     0
271
     2
272
     2
276
     2
284
    12
340
94
  0
DIMSTYLE
105
F7
330
A
100
AcDbSymbolTableRecord
100
AcDbDimStyleTableRecord
  2
SLDDIMSTYLE2
 70
     0
 41
3.302
 44
0.0
 45
0.000000001
 73
     0
 74
     0
 77
     1
 78
    12
 79
     3
140
3.5
143
0.0393700787401575
147
0.875
148
0.000000001
170
     1
172
     1
173
     1
178
     0
271
     2
272
     2
276
     2
284
    12
289
     0
340
94
  0
ENDTAB
  0
TABLE
  2
BLOCK_RECORD
  5
1
330
0
100
AcDbSymbolTable
 70
    19
  0
BLOCK_RECORD
  5
1F
330
1
100
AcDbSymbolTableRecord
100
AcDbBlockTableRecord
  2
*Model_Space
340
22
  0
BLOCK_RECORD
  5
1B
330
1
100
AcDbSymbolTableRecord
100
AcDbBlockTableRecord
  2
*Paper_Space
340
1E
  0
BLOCK_RECORD
  5
23
330
1
100
AcDbSymbolTableRecord
100
AcDbBlockTableRecord
  2
*Paper_Space0
340
26
  0
BLOCK_RECORD
  5
7F
330
1
100
AcDbSymbolTableRecord
100
AcDbBlockTableRecord
  2
블럭10
340
0
102
{BLKREFS
331
C6
102
}
  0
BLOCK_RECORD
  5
CF
330
1
100
AcDbSymbolTableRecord
100
AcDbBlockTableRecord
  2
_D
340
0
  0
BLOCK_RECORD
  5
E4
330
1
100
AcDbSymbolTableRecord
100
AcDbBlockTableRecord
  2
_D_1
340
0
  0
BLOCK_RECORD
  5
F8
330
1
100
AcDbSymbolTableRecord
100
AcDbBlockTableRecord
  2
_D_2
340
0
  0
BLOCK_RECORD
  5
10D
330
1
100
AcDbSymbolTableRecord
100
AcDbBlockTableRecord
  2
_D_3
340
0
  0
BLOCK_RECORD
  5
126
330
1
100
AcDbSymbolTableRecord
100
AcDbBlockTableRecord
  2
SW_DOWELSYMBOL_0
340
0
102
{BLKREFS
331
0
331
1DD
331
229
102
}
  0
BLOCK_RECORD
  5
1A4
330
1
100
AcDbSymbolTableRecord
100
AcDbBlockTableRecord
  2
*D8
340
0
  0
BLOCK_RECORD
  5
1B1
330
1
100
AcDbSymbolTableRecord
100
AcDbBlockTableRecord
  2
*D9
340
0
  0
BLOCK_RECORD
  5
1C1
330
1
100
AcDbSymbolTableRecord
100
AcDbBlockTableRecord
  2
*D10
340
0
  0
BLOCK_RECORD
  5
1D1
330
1
100
AcDbSymbolTableRecord
100
AcDbBlockTableRecord
  2
*D11
340
0
  0
BLOCK_RECORD
  5
1EF
330
1
100
AcDbSymbolTableRecord
100
AcDbBlockTableRecord
  2
*D12
340
0
  0
BLOCK_RECORD
  5
236
330
1
100
AcDbSymbolTableRecord
100
AcDbBlockTableRecord
  2
*D13
340
0
  0
BLOCK_RECORD
  5
242
330
1
100
AcDbSymbolTableRecord
100
AcDbBlockTableRecord
  2
*D14
340
0
  0
BLOCK_RECORD
  5
251
330
1
100
AcDbSymbolTableRecord
100
AcDbBlockTableRecord
  2
*D15
340
0
  0
BLOCK_RECORD
  5
260
330
1
100
AcDbSymbolTableRecord
100
AcDbBlockTableRecord
  2
*D16
340
0
  0
BLOCK_RECORD
  5
26C
330
1
100
AcDbSymbolTableRecord
100
AcDbBlockTableRecord
  2
*D17
340
0
  0
BLOCK_RECORD
  5
27D
330
1
100
AcDbSymbolTableRecord
100
AcDbBlockTableRecord
  2
*D18
340
0
  0
ENDTAB
  0
ENDSEC
  0
SECTION
  2
BLOCKS
  0
BLOCK
  5
20
330
1F
100
AcDbEntity
  8
0
100
AcDbBlockBegin
  2
*Model_Space
 70
     0
 10
0.0
 20
0.0
 30
0.0
  3
*Model_Space
  1
*Model_Space
  0
ENDBLK
  5
21
330
1F
100
AcDbEntity
  8
0
100
AcDbBlockEnd
  0
BLOCK
  5
1C
330
1B
100
AcDbEntity
 67
     1
  8
0
100
AcDbBlockBegin
  2
*Paper_Space
 70
     0
 10
0.0
 20
0.0
 30
0.0
  3
*Paper_Space
  1
*Paper_Space
  0
ENDBLK
  5
1D
330
1B
100
AcDbEntity
 67
     1
  8
0
100
AcDbBlockEnd
  0
BLOCK
  5
24
330
23
100
AcDbEntity
  8
0
100
AcDbBlockBegin
  2
*Paper_Space0
 70
     0
 10
0.0
 20
0.0
 30
0.0
  3
*Paper_Space0
  1
*Paper_Space0
  0
ENDBLK
  5
25
330
23
100
AcDbEntity
  8
0
100
AcDbBlockEnd
  0
BLOCK
  5
80
330
7F
100
AcDbEntity
  8
0
100
AcDbBlockBegin
  2
블럭10
 70
     2
 10
0.0
 20
0.0
 30
0.0
  3
블럭10
  1
블럭10
  0
ELLIPSE
  5
82
330
7F
100
AcDbEntity
  8
중심선
100
AcDbEllipse
 10
20.54032771741204
 20
12.0471743016438
 30
0.0
 11
6.600054785286829
 21
-1.261213355974178E-13
 31
0.0
210
0.0
220
0.0
230
1.0
 40
0.636358354079598
 41
0.9219305317359503
 42
6.513795318482858
  0
ELLIPSE
  5
83
330
7F
100
AcDbEntity
  8
중심선
100
AcDbEllipse
 10
20.54032771746488
 20
12.04717430159265
 30
0.0
 11
3.960054785062283
 21
1.540847449632565E-10
 31
0.0
210
0.0
220
0.0
230
1.0
 40
0.3939339440162632
 41
1.131841032648279
 42
5.62031148352944
  0
LINE
  5
84
330
7F
100
AcDbEntity
  8
중심선
100
AcDbLine
 10
2.268634060543552
 20
16.24717430164393
 30
0.0
 11
5.714909304380834
 21
16.24717430164393
 31
0.0
  0
LINE
  5
85
330
7F
100
AcDbEntity
  8
중심선
100
AcDbLine
 10
5.245725140726316
 20
7.84717430164391
 30
0.0
 11
8.692000384563599
 21
7.84717430164391
 31
0.0
  0
LINE
  5
86
330
7F
100
AcDbEntity
  8
중심선
100
AcDbLine
 10
15.74043728645272
 20
16.24717430164393
 30
0.0
 11
8.692000384563599
 21
7.84717430164391
 31
0.0
  0
LINE
  5
87
330
7F
100
AcDbEntity
  8
중심선
100
AcDbLine
 10
0.1404042013395286
 20
13.71084872107135
 30
0.0
 11
3.58671253028996
 21
13.71088815037384
 31
0.0
  0
LINE
  5
88
330
7F
100
AcDbEntity
  8
중심선
100
AcDbLine
 10
2.750260043222114
 20
10.84717430164391
 30
0.0
 11
6.196535287059397
 21
10.84717430164391
 31
0.0
  0
LINE
  5
89
330
7F
100
AcDbEntity
  8
중심선
100
AcDbLine
 10
12.29416204261559
 20
16.24717430164393
 30
0.0
 11
5.245725140726316
 21
7.84717430164391
 31
0.0
  0
LINE
  5
8A
330
7F
100
AcDbEntity
  8
중심선
100
AcDbLine
 10
10.72767329541681
 20
16.24717430164393
 30
0.0
 11
6.196535287059397
 21
10.84717430164391
 31
0.0
  0
LINE
  5
8B
330
7F
100
AcDbEntity
  8
중심선
100
AcDbLine
 10
7.28139805157953
 20
16.24717430164393
 30
0.0
 11
2.750260043222114
 21
10.84717430164391
 31
0.0
  0
LINE
  5
8C
330
7F
100
AcDbEntity
  8
중심선
100
AcDbLine
 10
5.714909304380834
 20
16.24717430164393
 30
0.0
 11
3.58671253028996
 21
13.71088815037384
 31
0.0
  0
LINE
  5
8D
330
7F
100
AcDbEntity
  8
중심선
100
AcDbLine
 10
2.268634060543552
 20
16.24717430164393
 30
0.0
 11
0.1404042013395286
 21
13.71084872107135
 31
0.0
  0
LINE
  5
8E
330
7F
100
AcDbEntity
  8
중심선
100
AcDbLine
 10
7.28139805157953
 20
16.24717430164393
 30
0.0
 11
10.72767329541681
 21
16.24717430164393
 31
0.0
  0
LINE
  5
8F
330
7F
100
AcDbEntity
  8
중심선
100
AcDbLine
 10
12.29416204261559
 20
16.24717430164393
 30
0.0
 11
15.74043728645272
 21
16.24717430164393
 31
0.0
  0
LINE
  5
90
330
7F
100
AcDbEntity
  8
중심선
100
AcDbLine
 10
19.22036997980202
 20
11.08717430171403
 30
0.0
 11
23.66174974927406
 21
11.08717430171406
 31
0.0
  0
LINE
  5
91
330
7F
100
AcDbEntity
  8
중심선
100
AcDbLine
 10
19.22039502424796
 20
13.00717430171391
 30
0.0
 11
19.22036997980202
 21
11.08717430171403
 31
0.0
  0
LINE
  5
92
330
7F
100
AcDbEntity
  8
중심선
100
AcDbLine
 10
19.22039502424796
 20
13.00717430171391
 30
0.0
 11
26.96566020931264
 21
13.00717430171391
 31
0.0
  0
LINE
  5
93
330
7F
100
AcDbEntity
  8
중심선
100
AcDbLine
 10
22.22332737316547
 20
13.45928029700563
 30
0.0
 11
24.52862924686651
 21
15.39360700705356
 31
0.0
  0
ATTDEF
  5
95
330
7F
100
AcDbEntity
  8
FORMAT
 62
     2
100
AcDbText
 10
3.448148490846466
 20
2.075366912832191
 30
0.0
 40
4.233333333333333
  1
EM636915
 41
0.75
  7
SLDTEXTSTYLE0
 11
3.448148490846466
 21
-0.0412997538344756
 31
0.0
100
AcDbAttributeDefinition
  3

  2
AUTOATTR0
 70
     0
 74
     1
  0
ENDBLK
  5
81
330
7F
100
AcDbEntity
  8
0
100
AcDbBlockEnd
  0
BLOCK
  5
D0
330
CF
100
AcDbEntity
  8
0
100
AcDbBlockBegin
  2
_D
 70
     0
 10
0.0
 20
0.0
 30
0.0
  3
_D
  1
_D
  0
SOLID
  5
D2
330
CF
100
AcDbEntity
  8
치수문자_일반주서
100
AcDbTrace
 10
-88.22500000000002
 20
6.351074928723887
 30
0.0
 11
-87.71700000000003
 21
9.653074928723886
 31
0.0
 12
-88.73300000000002
 22
9.653074928723886
 32
0.0
 13
-88.73300000000002
 23
9.653074928723886
 33
0.0
  0
SOLID
  5
D3
330
CF
100
AcDbEntity
  8
치수문자_일반주서
100
AcDbTrace
 10
-88.22500000000002
 20
-6.348925071276102
 30
0.0
 11
-88.73300000000002
 21
-9.650925071276102
 31
0.0
 12
-87.71700000000003
 22
-9.650925071276102
 32
0.0
 13
-87.71700000000003
 23
-9.650925071276102
 33
0.0
  0
LINE
  5
D4
330
CF
100
AcDbEntity
  8
치수문자_일반주서
100
AcDbLine
 10
-99.01788171604274
 20
-5.413291502344828
 30
0.0
 11
-99.01788171604274
 21
-6.124228987909328
 31
0.0
  0
LINE
  5
D5
330
CF
100
AcDbEntity
  8
치수문자_일반주서
100
AcDbLine
 10
-99.01788171604274
 20
-6.124228987909328
 30
0.0
 11
-93.46163172498343
 21
-6.124228987909289
 31
0.0
  0
LINE
  5
D6
330
CF
100
AcDbEntity
  8
치수문자_일반주서
100
AcDbLine
 10
-93.46163172498343
 20
-6.124228987909289
 30
0.0
 11
-93.46163172498343
 21
-5.413291502344789
 31
0.0
  0
LINE
  5
D7
330
CF
100
AcDbEntity
  8
치수문자_일반주서
100
AcDbLine
 10
-99.01788171604282
 20
5.41544135979243
 30
0.0
 11
-99.01788171604282
 21
6.12637884535693
 31
0.0
  0
LINE
  5
D8
330
CF
100
AcDbEntity
  8
치수문자_일반주서
100
AcDbLine
 10
-99.01788171604282
 20
6.12637884535693
 30
0.0
 11
-93.46163172498352
 21
6.126378845356969
 31
0.0
  0
LINE
  5
D9
330
CF
100
AcDbEntity
  8
치수문자_일반주서
100
AcDbLine
 10
-93.46163172498352
 20
6.126378845356969
 30
0.0
 11
-93.46163172498352
 21
5.415441359792469
 31
0.0
  0
LINE
  5
DA
330
CF
100
AcDbEntity
  8
치수문자_일반주서
100
AcDbLine
 10
-75.72499999999998
 20
6.351074928723888
 30
0.0
 11
-89.22500000000002
 21
6.351074928723887
 31
0.0
  0
LINE
  5
DB
330
CF
100
AcDbEntity
  8
치수문자_일반주서
100
AcDbLine
 10
-75.72499999999998
 20
-6.348925071276101
 30
0.0
 11
-89.22500000000002
 21
-6.348925071276102
 31
0.0
  0
LINE
  5
DC
330
CF
100
AcDbEntity
  8
치수문자_일반주서
100
AcDbLine
 10
-88.22500000000002
 20
6.351074928723887
 30
0.0
 11
-88.22500000000002
 21
12.70107492872389
 31
0.0
  0
LINE
  5
DD
330
CF
100
AcDbEntity
  8
치수문자_일반주서
100
AcDbLine
 10
-88.22500000000002
 20
6.351074928723887
 30
0.0
 11
-88.22500000000002
 21
-6.348925071276102
 31
0.0
  0
LINE
  5
DE
330
CF
100
AcDbEntity
  8
치수문자_일반주서
100
AcDbLine
 10
-88.22500000000002
 20
-6.348925071276102
 30
0.0
 11
-88.22500000000002
 21
-12.6989250712761
 31
0.0
  0
MTEXT
  5
DF
330
CF
100
AcDbEntity
  8
치수문자_일반주서
100
AcDbMText
 10
-97.97336863956235
 20
-4.52461960173345
 30
0.0
 40
3.5
 41
0.0
 71
     1
 72
     1
  1
0.50
  7
SLDTEXTSTYLE0
 11
-7.044195017643634E-15
 21
1.0
 31
0.0
 73
     1
 44
1.0
  0
MTEXT
  5
E0
330
CF
100
AcDbEntity
  8
치수문자_일반주서
100
AcDbMText
 10
-92.73673708920185
 20
-8.45689401409718
 30
0.0
 40
3.5
 41
0.0
 71
     1
 72
     1
  1
%%c
  7
SLDTEXTSTYLE0
 11
-7.044195017643634E-15
 21
1.0
 31
0.0
 73
     1
 44
1.0
  0
MTEXT
  5
E1
330
CF
100
AcDbEntity
  8
치수문자_일반주서
100
AcDbMText
 10
-92.7367370892019
 20
-3.178456615723101
 30
0.0
 40
3.5
 41
0.0
 71
     1
 72
     1
  1
12.70
  7
SLDTEXTSTYLE0
 11
-7.044195017643634E-15
 21
1.0
 31
0.0
 73
     1
 44
1.0
  0
ENDBLK
  5
D1
330
CF
100
AcDbEntity
  8
0
100
AcDbBlockEnd
  0
BLOCK
  5
E5
330
E4
100
AcDbEntity
  8
0
100
AcDbBlockBegin
  2
_D_1
 70
     0
 10
0.0
 20
0.0
 30
0.0
  3
_D_1
  1
_D_1
  0
SOLID
  5
E7
330
E4
100
AcDbEntity
  8
치수문자_일반주서
100
AcDbTrace
 10
64.28939220805994
 20
6.351074928723897
 30
0.0
 11
63.78139220805993
 21
3.049074928723897
 31
0.0
 12
64.79739220805993
 22
3.049074928723897
 32
0.0
 13
64.79739220805993
 23
3.049074928723897
 33
0.0
  0
SOLID
  5
E8
330
E4
100
AcDbEntity
  8
치수문자_일반주서
100
AcDbTrace
 10
64.28939220805994
 20
-6.348925071276113
 30
0.0
 11
64.79739220805993
 21
-3.046925071276114
 31
0.0
 12
63.78139220805993
 22
-3.046925071276114
 32
0.0
 13
63.78139220805993
 23
-3.046925071276114
 33
0.0
  0
LINE
  5
E9
330
E4
100
AcDbEntity
  8
치수문자_일반주서
100
AcDbLine
 10
53.49651049201722
 20
20.97715961835173
 30
0.0
 11
53.49651049201722
 21
20.26622213278723
 31
0.0
  0
LINE
  5
EA
330
E4
100
AcDbEntity
  8
치수문자_일반주서
100
AcDbLine
 10
53.49651049201722
 20
20.26622213278723
 30
0.0
 11
59.05276048307653
 21
20.26622213278727
 31
0.0
  0
LINE
  5
EB
330
E4
100
AcDbEntity
  8
치수문자_일반주서
100
AcDbLine
 10
59.05276048307653
 20
20.26622213278727
 30
0.0
 11
59.05276048307652
 21
20.97715961835177
 31
0.0
  0
LINE
  5
EC
330
E4
100
AcDbEntity
  8
치수문자_일반주서
100
AcDbLine
 10
53.49651049201714
 20
31.80589248048899
 30
0.0
 11
53.49651049201714
 21
32.51682996605349
 31
0.0
  0
LINE
  5
ED
330
E4
100
AcDbEntity
  8
치수문자_일반주서
100
AcDbLine
 10
53.49651049201714
 20
32.51682996605349
 30
0.0
 11
59.05276048307644
 21
32.51682996605354
 31
0.0
  0
LINE
  5
EE
330
E4
100
AcDbEntity
  8
치수문자_일반주서
100
AcDbLine
 10
59.05276048307644
 20
32.51682996605354
 30
0.0
 11
59.05276048307645
 21
31.80589248048903
 31
0.0
  0
LINE
  5
EF
330
E4
100
AcDbEntity
  8
치수문자_일반주서
100
AcDbLine
 10
30.77706927758172
 20
6.351074928723898
 30
0.0
 11
65.28939220805994
 21
6.351074928723897
 31
0.0
  0
LINE
  5
F0
330
E4
100
AcDbEntity
  8
치수문자_일반주서
100
AcDbLine
 10
30.77706927758172
 20
-6.348925071276112
 30
0.0
 11
65.28939220805994
 21
-6.348925071276113
 31
0.0
  0
LINE
  5
F1
330
E4
100
AcDbEntity
  8
치수문자_일반주서
100
AcDbLine
 10
64.28939220805994
 20
6.351074928723897
 30
0.0
 11
64.28939220805994
 21
34.84949499224145
 31
0.0
  0
LINE
  5
F2
330
E4
100
AcDbEntity
  8
치수문자_일반주서
100
AcDbLine
 10
64.28939220805994
 20
6.351074928723897
 30
0.0
 11
64.28939220805994
 21
-6.348925071276113
 31
0.0
  0
MTEXT
  5
F3
330
E4
100
AcDbEntity
  8
치수문자_일반주서
100
AcDbMText
 10
54.54102356849762
 20
21.86583151896311
 30
0.0
 40
3.5
 41
0.0
 71
     1
 72
     1
  1
0.50
  7
SLDTEXTSTYLE0
 11
-7.044195017643634E-15
 21
1.0
 31
0.0
 73
     1
 44
1.0
  0
MTEXT
  5
F4
330
E4
100
AcDbEntity
  8
치수문자_일반주서
100
AcDbMText
 10
59.77765511885812
 20
17.93355710659938
 30
0.0
 40
3.5
 41
0.0
 71
     1
 72
     1
  1
%%c
  7
SLDTEXTSTYLE0
 11
-7.044195017643634E-15
 21
1.0
 31
0.0
 73
     1
 44
1.0
  0
MTEXT
  5
F5
330
E4
100
AcDbEntity
  8
치수문자_일반주서
100
AcDbMText
 10
59.77765511885809
 20
23.21199450497346
 30
0.0
 40
3.5
 41
0.0
 71
     1
 72
     1
  1
12.70
  7
SLDTEXTSTYLE0
 11
-7.044195017643634E-15
 21
1.0
 31
0.0
 73
     1
 44
1.0
  0
ENDBLK
  5
E6
330
E4
100
AcDbEntity
  8
0
100
AcDbBlockEnd
  0
BLOCK
  5
F9
330
F8
100
AcDbEntity
  8
0
100
AcDbBlockBegin
  2
_D_2
 70
     0
 10
0.0
 20
0.0
 30
0.0
  3
_D_2
  1
_D_2
  0
SOLID
  5
FB
330
F8
100
AcDbEntity
  8
치수문자_일반주서
100
AcDbTrace
 10
25.87500000000002
 20
15.41880048907218
 30
0.0
 11
29.17700000000002
 21
14.91080048907218
 31
0.0
 12
29.17700000000002
 22
15.92680048907218
 32
0.0
 13
29.17700000000002
 23
15.92680048907218
 33
0.0
  0
SOLID
  5
FC
330
F8
100
AcDbEntity
  8
치수문자_일반주서
100
AcDbTrace
 10
10.00000000000002
 20
15.41880048907218
 30
0.0
 11
6.698000000000018
 21
15.92680048907218
 31
0.0
 12
6.698000000000018
 22
14.91080048907218
 32
0.0
 13
6.698000000000018
 23
14.91080048907218
 33
0.0
  0
LINE
  5
FD
330
F8
100
AcDbEntity
  8
치수문자_일반주서
100
AcDbLine
 10
12.55651330176026
 20
26.21168220511492
 30
0.0
 11
11.84557581619576
 21
26.21168220511493
 31
0.0
  0
LINE
  5
FE
330
F8
100
AcDbEntity
  8
치수문자_일반주서
100
AcDbLine
 10
11.84557581619576
 20
26.21168220511493
 30
0.0
 11
11.84557581619572
 21
20.65543221405562
 31
0.0
  0
LINE
  5
FF
330
F8
100
AcDbEntity
  8
치수문자_일반주서
100
AcDbLine
 10
11.84557581619572
 20
20.65543221405562
 30
0.0
 11
12.55651330176022
 21
20.65543221405562
 31
0.0
  0
LINE
  5
100
330
F8
100
AcDbEntity
  8
치수문자_일반주서
100
AcDbLine
 10
23.38524616389752
 20
26.21168220511484
 30
0.0
 11
24.09618364946202
 21
26.21168220511484
 31
0.0
  0
LINE
  5
101
330
F8
100
AcDbEntity
  8
치수문자_일반주서
100
AcDbLine
 10
24.09618364946202
 20
26.21168220511484
 30
0.0
 11
24.09618364946198
 21
20.65543221405553
 31
0.0
  0
LINE
  5
102
330
F8
100
AcDbEntity
  8
치수문자_일반주서
100
AcDbLine
 10
24.09618364946198
 20
20.65543221405553
 30
0.0
 11
23.38524616389748
 21
20.65543221405554
 31
0.0
  0
LINE
  5
103
330
F8
100
AcDbEntity
  8
치수문자_일반주서
100
AcDbLine
 10
25.87500000000002
 20
5.446074928723893
 30
0.0
 11
25.87500000000002
 21
16.41880048907218
 31
0.0
  0
LINE
  5
104
330
F8
100
AcDbEntity
  8
치수문자_일반주서
100
AcDbLine
 10
10.00000000000002
 20
6.039853687543339
 30
0.0
 11
10.00000000000002
 21
16.41880048907218
 31
0.0
  0
LINE
  5
105
330
F8
100
AcDbEntity
  8
치수문자_일반주서
100
AcDbLine
 10
25.87500000000002
 20
15.41880048907218
 30
0.0
 11
32.22500000000002
 21
15.41880048907218
 31
0.0
  0
LINE
  5
106
330
F8
100
AcDbEntity
  8
치수문자_일반주서
100
AcDbLine
 10
25.87500000000002
 20
15.41880048907218
 30
0.0
 11
10.00000000000002
 21
15.41880048907218
 31
0.0
  0
LINE
  5
107
330
F8
100
AcDbEntity
  8
치수문자_일반주서
100
AcDbLine
 10
10.00000000000002
 20
15.41880048907218
 30
0.0
 11
3.650000000000018
 21
15.41880048907218
 31
0.0
  0
MTEXT
  5
108
330
F8
100
AcDbEntity
  8
치수문자_일반주서
100
AcDbMText
 10
11.33181709070902
 20
19.9840097549339
 30
0.0
 40
3.5
 41
0.0
 71
     1
 72
     1
  1

  7
SLDTEXTSTYLE0
 73
     1
 44
1.0
  0
MTEXT
  5
109
330
F8
100
AcDbEntity
  8
치수문자_일반주서
100
AcDbMText
 10
13.44518520237162
 20
25.16716912863451
 30
0.0
 40
3.5
 41
0.0
 71
     1
 72
     1
  1
0.63
  7
SLDTEXTSTYLE0
 73
     1
 44
1.0
  0
MTEXT
  5
10A
330
F8
100
AcDbEntity
  8
치수문자_일반주서
100
AcDbMText
 10
12.15212948919486
 20
19.93053757827404
 30
0.0
 40
3.5
 41
0.0
 71
     1
 72
     1
  1
15.88
  7
SLDTEXTSTYLE0
 73
     1
 44
1.0
  0
MTEXT
  5
10B
330
F8
100
AcDbEntity
  8
치수문자_일반주서
100
AcDbMText
 10
25.94188689460259
 20
19.9840097549338
 30
0.0
 40
3.5
 41
0.0
 71
     1
 72
     1
  1

  7
SLDTEXTSTYLE0
 73
     1
 44
1.0
  0
ENDBLK
  5
FA
330
F8
100
AcDbEntity
  8
0
100
AcDbBlockEnd
  0
BLOCK
  5
10E
330
10D
100
AcDbEntity
  8
0
100
AcDbBlockBegin
  2
_D_3
 70
     0
 10
0.0
 20
0.0
 30
0.0
  3
_D_3
  1
_D_3
  0
SOLID
  5
110
330
10D
100
AcDbEntity
  8
치수문자_일반주서
100
AcDbTrace
 10
25.87500000000002
 20
27.41880048907214
 30
0.0
 11
22.57300000000002
 21
27.92680048907214
 31
0.0
 12
22.57300000000002
 22
26.91080048907214
 32
0.0
 13
22.57300000000002
 23
26.91080048907214
 33
0.0
  0
SOLID
  5
111
330
10D
100
AcDbEntity
  8
치수문자_일반주서
100
AcDbTrace
 10
-75.72499999999998
 20
27.41880048907213
 30
0.0
 11
-72.42299999999997
 21
26.91080048907213
 31
0.0
 12
-72.42299999999997
 22
27.92680048907213
 32
0.0
 13
-72.42299999999997
 23
27.92680048907213
 33
0.0
  0
LINE
  5
112
330
10D
100
AcDbEntity
  8
치수문자_일반주서
100
AcDbLine
 10
-30.79655136568573
 20
38.21168220511487
 30
0.0
 11
-31.50748885125023
 21
38.21168220511488
 31
0.0
  0
LINE
  5
113
330
10D
100
AcDbEntity
  8
치수문자_일반주서
100
AcDbLine
 10
-31.50748885125023
 20
38.21168220511488
 30
0.0
 11
-31.50748885125027
 21
32.65543221405557
 31
0.0
  0
LINE
  5
114
330
10D
100
AcDbEntity
  8
치수문자_일반주서
100
AcDbLine
 10
-31.50748885125027
 20
32.65543221405557
 30
0.0
 11
-30.79655136568577
 21
32.65543221405557
 31
0.0
  0
LINE
  5
115
330
10D
100
AcDbEntity
  8
치수문자_일반주서
100
AcDbLine
 10
-19.96781850354847
 20
38.21168220511479
 30
0.0
 11
-19.25688101798397
 21
38.21168220511478
 31
0.0
  0
LINE
  5
116
330
10D
100
AcDbEntity
  8
치수문자_일반주서
100
AcDbLine
 10
-19.25688101798397
 20
38.21168220511478
 30
0.0
 11
-19.25688101798401
 21
32.65543221405548
 31
0.0
  0
LINE
  5
117
330
10D
100
AcDbEntity
  8
치수문자_일반주서
100
AcDbLine
 10
-19.25688101798401
 20
32.65543221405548
 30
0.0
 11
-19.96781850354851
 21
32.65543221405549
 31
0.0
  0
LINE
  5
118
330
10D
100
AcDbEntity
  8
치수문자_일반주서
100
AcDbLine
 10
25.87500000000002
 20
5.446074928723893
 30
0.0
 11
25.87500000000002
 21
28.41880048907214
 31
0.0
  0
LINE
  5
119
330
10D
100
AcDbEntity
  8
치수문자_일반주서
100
AcDbLine
 10
-75.72499999999998
 20
6.351074928723882
 30
0.0
 11
-75.72499999999998
 21
28.41880048907213
 31
0.0
  0
LINE
  5
11A
330
10D
100
AcDbEntity
  8
치수문자_일반주서
100
AcDbLine
 10
25.87500000000002
 20
27.41880048907214
 30
0.0
 11
-75.72499999999998
 21
27.41880048907213
 31
0.0
  0
MTEXT
  5
11B
330
10D
100
AcDbEntity
  8
치수문자_일반주서
100
AcDbMText
 10
-32.47454648818927
 20
31.98400975493386
 30
0.0
 40
3.5
 41
0.0
 71
     1
 72
     1
  1

  7
SLDTEXTSTYLE0
 73
     1
 44
1.0
  0
MTEXT
  5
11C
330
10D
100
AcDbEntity
  8
치수문자_일반주서
100
AcDbMText
 10
-29.90787946507437
 20
37.16716912863446
 30
0.0
 40
3.5
 41
0.0
 71
     1
 72
     1
  1
4.00
  7
SLDTEXTSTYLE0
 73
     1
 44
1.0
  0
MTEXT
  5
11D
330
10D
100
AcDbEntity
  8
치수문자_일반주서
100
AcDbMText
 10
-32.49399089142786
 20
31.930537578274
 30
0.0
 40
3.5
 41
0.0
 71
     1
 72
     1
  1
101.60
  7
SLDTEXTSTYLE0
 73
     1
 44
1.0
  0
MTEXT
  5
11E
330
10D
100
AcDbEntity
  8
치수문자_일반주서
100
AcDbMText
 10
-16.95787886139112
 20
31.98400975493375
 30
0.0
 40
3.5
 41
0.0
 71
     1
 72
     1
  1

  7
SLDTEXTSTYLE0
 73
     1
 44
1.0
  0
ENDBLK
  5
10F
330
10D
100
AcDbEntity
  8
0
100
AcDbBlockEnd
  0
BLOCK
  5
127
330
126
100
AcDbEntity
  8
0
100
AcDbBlockBegin
  2
SW_DOWELSYMBOL_0
 70
     0
 10
0.0
 20
0.0
 30
0.0
  3
SW_DOWELSYMBOL_0
  1
SW_DOWELSYMBOL_0
  0
CIRCLE
  5
129
330
126
100
AcDbEntity
  8
해칭선
 62
     0
100
AcDbCircle
 10
0.0
 20
0.0
 30
0.0
 40
3.000000000000002
  0
HATCH
  5
12A
330
126
100
AcDbEntity
  8
0
  6
Continuous
 62
     0
370
     0
100
AcDbHatch
 10
0.0
 20
0.0
 30
0.0
210
0.0
220
0.0
230
1.0
  2
SOLID
 70
     1
 71
     0
 91
        1
 92
        0
 93
        3
 72
     2
 10
0.0000000000000069
 20
0.0
 40
3.000000000000002
 50
0.0
 51
90.0
 73
     1
 72
     1
 10
0.0000000000000069
 20
3.000000000000002
 11
0.0000000000000069
 21
0.0
 72
     1
 10
0.0000000000000069
 20
0.0
 11
3.000000000000009
 21
0.0
 97
        0
 75
     0
 76
     1
 98
        1
 10
0.0
 20
0.0
  0
HATCH
  5
12B
330
126
100
AcDbEntity
  8
0
  6
Continuous
 62
     0
370
     0
100
AcDbHatch
 10
0.0
 20
0.0
 30
0.0
210
0.0
220
0.0
230
1.0
  2
SOLID
 70
     1
 71
     0
 91
        1
 92
        0
 93
        3
 72
     2
 10
0.0000000000000069
 20
0.0
 40
3.000000000000002
 50
180.0
 51
270.0000000000008
 73
     1
 72
     1
 10
0.0000000000000069
 20
-3.000000000000002
 11
0.0000000000000069
 21
0.0
 72
     1
 10
0.0000000000000069
 20
0.0
 11
-2.999999999999995
 21
0.0
 97
        0
 75
     0
 76
     1
 98
        1
 10
0.0
 20
0.0
  0
ENDBLK
  5
128
330
126
100
AcDbEntity
  8
0
100
AcDbBlockEnd
  0
BLOCK
  5
1A5
330
1A4
100
AcDbEntity
  8
0
100
AcDbBlockBegin
  2
*D8
 70
     1
 10
0.0
 20
0.0
 30
0.0
  3
*D8
  1
*D8
  0
LINE
  5
1A6
330
1A4
100
AcDbEntity
  8
치수문자_일반주서
 62
     0
370
    -2
100
AcDbLine
 10
17.81250000000006
 20
41.22809455951969
 30
0.0
 11
4.37500000000002
 21
41.22809455951964
 31
0.0
  0
LINE
  5
1A7
330
1A4
100
AcDbEntity
  8
치수문자_일반주서
 62
     0
370
    -2
100
AcDbLine
 10
17.81250000000006
 20
28.5280945595197
 30
0.0
 11
4.375000000000065
 21
28.52809455951965
 31
0.0
  0
LINE
  5
1A8
330
1A4
100
AcDbEntity
  8
치수문자_일반주서
 62
     0
370
    -2
100
AcDbLine
 10
4.375000000000032
 20
37.92609455951964
 30
0.0
 11
4.375000000000053
 21
31.83009455951965
 31
0.0
  0
SOLID
  5
1A9
330
1A4
100
AcDbEntity
  8
치수문자_일반주서
 62
     0
100
AcDbTrace
 10
4.925333333333366
 20
37.92609455951964
 30
0.0
 11
3.824666666666699
 21
37.92609455951964
 31
0.0
 12
4.37500000000002
 22
41.22809455951964
 32
0.0
 13
4.37500000000002
 23
41.22809455951964
 33
0.0
  0
SOLID
  5
1AA
330
1A4
100
AcDbEntity
  8
치수문자_일반주서
 62
     0
100
AcDbTrace
 10
3.82466666666672
 20
31.83009455951965
 30
0.0
 11
4.925333333333387
 21
31.83009455951965
 31
0.0
 12
4.375000000000065
 22
28.52809455951965
 32
0.0
 13
4.375000000000065
 23
28.52809455951965
 33
0.0
  0
MTEXT
  5
1AB
330
1A4
100
AcDbEntity
  8
치수문자_일반주서
 62
     0
100
AcDbMText
 10
0.0000000000000426
 20
34.87809455951968
 30
0.0
 40
3.5
 41
0.0
 71
     2
 72
     1
  1
\A1;%%c12.70 [1/2]
  7
SLDTEXTSTYLE0
 11
-3.496765431890260E-15
 21
1.0
 31
0.0
 73
     1
 44
1.0
  0
POINT
  5
1AC
330
1A4
100
AcDbEntity
  8
Defpoints
 62
     0
100
AcDbPoint
 10
17.87500000000006
 20
41.22809455951969
 30
0.0
  0
POINT
  5
1AD
330
1A4
100
AcDbEntity
  8
Defpoints
 62
     0
100
AcDbPoint
 10
17.87500000000006
 20
28.5280945595197
 30
0.0
  0
POINT
  5
1AE
330
1A4
100
AcDbEntity
  8
Defpoints
 62
     0
100
AcDbPoint
 10
4.375000000000071
 20
28.52809455951965
 30
0.0
  0
ENDBLK
  5
1AF
330
1A4
100
AcDbEntity
  8
0
100
AcDbBlockEnd
  0
BLOCK
  5
1B2
330
1B1
100
AcDbEntity
  8
0
100
AcDbBlockBegin
  2
*D9
 70
     1
 10
0.0
 20
0.0
 30
0.0
  3
*D9
  1
*D9
  0
LINE
  5
1B3
330
1B1
100
AcDbEntity
  8
치수문자_일반주서
 62
     0
370
    -2
100
AcDbLine
 10
118.5375
 20
41.2280945595197
 30
0.0
 11
134.1658868219421
 21
41.22809455951976
 31
0.0
  0
LINE
  5
1B4
330
1B1
100
AcDbEntity
  8
치수문자_일반주서
 62
     0
370
    -2
100
AcDbLine
 10
118.5375
 20
28.5280945595197
 30
0.0
 11
134.1658868219422
 21
28.52809455951976
 31
0.0
  0
LINE
  5
1B5
330
1B1
100
AcDbEntity
  8
치수문자_일반주서
 62
     0
370
    -2
100
AcDbLine
 10
134.1658868219421
 20
41.22809455951976
 30
0.0
 11
134.165886821942
 21
74.95709455951976
 31
0.0
  0
LINE
  5
1B6
330
1B1
100
AcDbEntity
  8
치수문자_일반주서
 62
     0
370
    -2
100
AcDbLine
 10
134.1658868219421
 20
41.22809455951976
 30
0.0
 11
134.1658868219422
 21
28.52809455951976
 31
0.0
  0
LINE
  5
1B7
330
1B1
100
AcDbEntity
  8
치수문자_일반주서
 62
     0
370
    -2
100
AcDbLine
 10
134.1658868219421
 20
44.53009455951976
 30
0.0
 11
134.1658868219421
 21
47.83209455951976
 31
0.0
  0
LINE
  5
1B8
330
1B1
100
AcDbEntity
  8
치수문자_일반주서
 62
     0
370
    -2
100
AcDbLine
 10
134.1658868219422
 20
25.22609455951976
 30
0.0
 11
134.1658868219422
 21
21.92409455951976
 31
0.0
  0
SOLID
  5
1B9
330
1B1
100
AcDbEntity
  8
치수문자_일반주서
 62
     0
100
AcDbTrace
 10
133.6155534886088
 20
44.53009455951976
 30
0.0
 11
134.7162201552754
 21
44.53009455951976
 31
0.0
 12
134.1658868219421
 22
41.22809455951976
 32
0.0
 13
134.1658868219421
 23
41.22809455951976
 33
0.0
  0
SOLID
  5
1BA
330
1B1
100
AcDbEntity
  8
치수문자_일반주서
 62
     0
100
AcDbTrace
 10
134.7162201552755
 20
25.22609455951976
 30
0.0
 11
133.6155534886089
 21
25.22609455951975
 31
0.0
 12
134.1658868219422
 22
28.52809455951976
 32
0.0
 13
134.1658868219422
 23
28.52809455951976
 33
0.0
  0
MTEXT
  5
1BB
330
1B1
100
AcDbEntity
  8
치수문자_일반주서
 62
     0
100
AcDbMText
 10
129.790886821942
 20
61.61334455951973
 30
0.0
 40
3.5
 41
0.0
 71
     2
 72
     1
  1
\A1;%%c12.70 [1/2]
  7
SLDTEXTSTYLE0
 11
-4.475859752819529E-15
 21
1.0
 31
0.0
 73
     1
 44
1.0
  0
POINT
  5
1BC
330
1B1
100
AcDbEntity
  8
Defpoints
 62
     0
100
AcDbPoint
 10
118.475
 20
41.2280945595197
 30
0.0
  0
POINT
  5
1BD
330
1B1
100
AcDbEntity
  8
Defpoints
 62
     0
100
AcDbPoint
 10
118.475
 20
28.5280945595197
 30
0.0
  0
POINT
  5
1BE
330
1B1
100
AcDbEntity
  8
Defpoints
 62
     0
100
AcDbPoint
 10
134.1658868219421
 20
28.52809455951976
 30
0.0
  0
ENDBLK
  5
1BF
330
1B1
100
AcDbEntity
  8
0
100
AcDbBlockEnd
  0
BLOCK
  5
1C2
330
1C1
100
AcDbEntity
  8
0
100
AcDbBlockBegin
  2
*D10
 70
     1
 10
0.0
 20
0.0
 30
0.0
  3
*D10
  1
*D10
  0
LINE
  5
1C3
330
1C1
100
AcDbEntity
  8
치수문자_일반주서
 62
     0
370
    -2
100
AcDbLine
 10
118.475
 20
41.2905945595197
 30
0.0
 11
118.475
 21
50.29582011986799
 31
0.0
  0
LINE
  5
1C4
330
1C1
100
AcDbEntity
  8
치수문자_일반주서
 62
     0
370
    -2
100
AcDbLine
 10
102.6
 20
39.97937331833914
 30
0.0
 11
102.6
 21
50.29582011986799
 31
0.0
  0
LINE
  5
1C5
330
1C1
100
AcDbEntity
  8
치수문자_일반주서
 62
     0
370
    -2
100
AcDbLine
 10
102.6
 20
50.29582011986799
 30
0.0
 11
66.5848967375727
 21
50.29582011986799
 31
0.0
  0
LINE
  5
1C6
330
1C1
100
AcDbEntity
  8
치수문자_일반주서
 62
     0
370
    -2
100
AcDbLine
 10
118.475
 20
50.29582011986799
 30
0.0
 11
102.6
 21
50.29582011986799
 31
0.0
  0
LINE
  5
1C7
330
1C1
100
AcDbEntity
  8
치수문자_일반주서
 62
     0
370
    -2
100
AcDbLine
 10
121.777
 20
50.29582011986799
 30
0.0
 11
125.079
 21
50.29582011986799
 31
0.0
  0
LINE
  5
1C8
330
1C1
100
AcDbEntity
  8
치수문자_일반주서
 62
     0
370
    -2
100
AcDbLine
 10
99.29800000000003
 20
50.29582011986799
 30
0.0
 11
95.99600000000004
 21
50.29582011986799
 31
0.0
  0
SOLID
  5
1C9
330
1C1
100
AcDbEntity
  8
치수문자_일반주서
 62
     0
100
AcDbTrace
 10
121.777
 20
50.84615345320132
 30
0.0
 11
121.777
 21
49.74548678653466
 31
0.0
 12
118.475
 22
50.29582011986799
 32
0.0
 13
118.475
 23
50.29582011986799
 33
0.0
  0
SOLID
  5
1CA
330
1C1
100
AcDbEntity
  8
치수문자_일반주서
 62
     0
100
AcDbTrace
 10
99.29800000000003
 20
49.74548678653466
 30
0.0
 11
99.29800000000003
 21
50.84615345320132
 31
0.0
 12
102.6
 22
50.29582011986799
 32
0.0
 13
102.6
 23
50.29582011986799
 33
0.0
  0
MTEXT
  5
1CB
330
1C1
100
AcDbEntity
  8
치수문자_일반주서
 62
     0
100
AcDbMText
 10
79.2723967375727
 20
54.67082011986799
 30
0.0
 40
3.5
 41
0.0
 71
     2
 72
     1
  1
\A1;15.88 [5/8]
  7
SLDTEXTSTYLE0
 73
     1
 44
1.0
  0
POINT
  5
1CC
330
1C1
100
AcDbEntity
  8
Defpoints
 62
     0
100
AcDbPoint
 10
118.475
 20
41.2280945595197
 30
0.0
  0
POINT
  5
1CD
330
1C1
100
AcDbEntity
  8
Defpoints
 62
     0
100
AcDbPoint
 10
102.6
 20
39.91687331833914
 30
0.0
  0
POINT
  5
1CE
330
1C1
100
AcDbEntity
  8
Defpoints
 62
     0
100
AcDbPoint
 10
102.6
 20
50.29582011986799
 30
0.0
  0
ENDBLK
  5
1CF
330
1C1
100
AcDbEntity
  8
0
100
AcDbBlockEnd
  0
BLOCK
  5
1D2
330
1D1
100
AcDbEntity
  8
0
100
AcDbBlockBegin
  2
*D11
 70
     1
 10
0.0
 20
0.0
 30
0.0
  3
*D11
  1
*D11
  0
LINE
  5
1D3
330
1D1
100
AcDbEntity
  8
치수문자_일반주서
 62
     0
370
    -2
100
AcDbLine
 10
118.475
 20
41.2905945595197
 30
0.0
 11
118.475
 21
62.29582011986794
 31
0.0
  0
LINE
  5
1D4
330
1D1
100
AcDbEntity
  8
치수문자_일반주서
 62
     0
370
    -2
100
AcDbLine
 10
16.87500000000006
 20
40.29059455951968
 30
0.0
 11
16.87500000000006
 21
62.29582011986794
 31
0.0
  0
LINE
  5
1D5
330
1D1
100
AcDbEntity
  8
치수문자_일반주서
 62
     0
370
    -2
100
AcDbLine
 10
115.173
 20
62.29582011986794
 30
0.0
 11
20.17700000000006
 21
62.29582011986794
 31
0.0
  0
SOLID
  5
1D6
330
1D1
100
AcDbEntity
  8
치수문자_일반주서
 62
     0
100
AcDbTrace
 10
115.173
 20
61.74548678653461
 30
0.0
 11
115.173
 21
62.84615345320127
 31
0.0
 12
118.475
 22
62.29582011986794
 32
0.0
 13
118.475
 23
62.29582011986794
 33
0.0
  0
SOLID
  5
1D7
330
1D1
100
AcDbEntity
  8
치수문자_일반주서
 62
     0
100
AcDbTrace
 10
20.17700000000006
 20
62.84615345320127
 30
0.0
 11
20.17700000000006
 21
61.74548678653461
 31
0.0
 12
16.87500000000006
 22
62.29582011986794
 32
0.0
 13
16.87500000000006
 23
62.29582011986794
 33
0.0
  0
MTEXT
  5
1D8
330
1D1
100
AcDbEntity
  8
치수문자_일반주서
 62
     0
100
AcDbMText
 10
67.21781471613696
 20
66.67082011986794
 30
0.0
 40
3.5
 41
0.0
 71
     2
 72
     1
  1
\A1;101.60 [4]
  7
SLDTEXTSTYLE0
 73
     1
 44
1.0
  0
POINT
  5
1D9
330
1D1
100
AcDbEntity
  8
Defpoints
 62
     0
100
AcDbPoint
 10
118.475
 20
41.2280945595197
 30
0.0
  0
POINT
  5
1DA
330
1D1
100
AcDbEntity
  8
Defpoints
 62
     0
100
AcDbPoint
 10
16.87500000000006
 20
40.22809455951968
 30
0.0
  0
POINT
  5
1DB
330
1D1
100
AcDbEntity
  8
Defpoints
 62
     0
100
AcDbPoint
 10
16.87500000000006
 20
62.29582011986794
 30
0.0
  0
ENDBLK
  5
1DC
330
1D1
100
AcDbEntity
  8
0
100
AcDbBlockEnd
  0
BLOCK
  5
1F0
330
1EF
100
AcDbEntity
  8
0
100
AcDbBlockBegin
  2
*D12
 70
     1
 10
0.0
 20
0.0
 30
0.0
  3
*D12
  1
*D12
  0
LINE
  5
1F1
330
1EF
100
AcDbEntity
  8
치수문자_일반주서
 62
     0
370
    -2
100
AcDbLine
 10
119.944763582755
 20
26.26690558001422
 30
0.0
 11
140.7196590458041
 21
-0.0000000000000018
 31
0.0
  0
MTEXT
  5
1F2
330
1EF
100
AcDbEntity
  8
치수문자_일반주서
 62
     0
100
AcDbMText
 10
133.4152665870376
 20
13.46691370993426
 30
0.0
 40
3.5
 41
0.0
 71
     5
 72
     1
  1
\A1;R1.52 [R0.060]
  7
SLDTEXTSTYLE0
 11
0.620340568328852
 21
-0.7843325693131944
 31
0.0
 73
     1
 44
1.0
  0
LINE
  5
1F3
330
1EF
100
AcDbEntity
  8
치수문자_일반주서
 62
     0
370
    -2
100
AcDbLine
 10
116.951
 20
30.0520945595197
 30
0.0
 11
117.8963990261332
 21
28.85677172388639
 31
0.0
  0
SOLID
  5
1F4
330
1EF
100
AcDbEntity
  8
치수문자_일반주서
 62
     0
100
AcDbTrace
 10
120.3764079400671
 20
26.60829967278453
 30
0.0
 11
119.513119225443
 21
25.92551148724391
 31
0.0
 12
117.8963990261332
 22
28.85677172388639
 32
0.0
 13
117.8963990261332
 23
28.85677172388639
 33
0.0
  0
POINT
  5
1F5
330
1EF
100
AcDbEntity
  8
Defpoints
 62
     0
100
AcDbPoint
 10
117.8963990261332
 20
28.85677172388639
 30
0.0
  0
POINT
  5
1F6
330
1EF
100
AcDbEntity
  8
Defpoints
 62
     0
100
AcDbPoint
 10
116.951
 20
30.0520945595197
 30
0.0
  0
ENDBLK
  5
1F7
330
1EF
100
AcDbEntity
  8
0
100
AcDbBlockEnd
  0
BLOCK
  5
237
330
236
100
AcDbEntity
  8
0
100
AcDbBlockBegin
  2
*D13
 70
     1
 10
0.0
 20
0.0
 30
0.0
  3
*D13
  1
*D13
  0
LINE
  5
239
330
236
100
AcDbEntity
  8
치수문자_일반주서
 62
     0
370
    -2
100
AcDbLine
 10
-74.78749999999998
 20
6.351074928723889
 30
0.0
 11
-88.22500000000001
 21
6.351074928723839
 31
0.0
  0
LINE
  5
23A
330
236
100
AcDbEntity
  8
치수문자_일반주서
 62
     0
370
    -2
100
AcDbLine
 10
-74.78749999999998
 20
-6.348925071276099
 30
0.0
 11
-88.22499999999997
 21
-6.34892507127615
 31
0.0
  0
LINE
  5
23B
330
236
100
AcDbEntity
  8
치수문자_일반주서
 62
     0
370
    -2
100
AcDbLine
 10
-88.225
 20
3.049074928723839
 30
0.0
 11
-88.22499999999998
 21
-3.04692507127615
 31
0.0
  0
SOLID
  5
23C
330
236
100
AcDbEntity
  8
치수문자_일반주서
 62
     0
100
AcDbTrace
 10
-87.67466666666667
 20
3.049074928723841
 30
0.0
 11
-88.77533333333332
 21
3.049074928723837
 31
0.0
 12
-88.22500000000001
 22
6.351074928723839
 32
0.0
 13
-88.22500000000001
 23
6.351074928723839
 33
0.0
  0
SOLID
  5
23D
330
236
100
AcDbEntity
  8
치수문자_일반주서
 62
     0
100
AcDbTrace
 10
-88.77533333333331
 20
-3.046925071276152
 30
0.0
 11
-87.67466666666665
 21
-3.046925071276148
 31
0.0
 12
-88.22499999999997
 22
-6.34892507127615
 32
0.0
 13
-88.22499999999997
 23
-6.34892507127615
 33
0.0
  0
MTEXT
  5
23E
330
236
100
AcDbEntity
  8
치수문자_일반주서
 62
     0
100
AcDbMText
 10
-92.6
 20
0.0010749287238806
 30
0.0
 40
3.5
 41
0.0
 71
     2
 72
     1
  1
\A1;%%c12.70 [1/2]
  7
SLDTEXTSTYLE0
 11
-3.356894814614650E-15
 21
1.0
 31
0.0
 73
     1
 44
1.0
  0
POINT
  5
23F
330
236
100
AcDbEntity
  8
Defpoints
 62
     0
100
AcDbPoint
 10
-74.72499999999998
 20
6.351074928723889
 30
0.0
  0
POINT
  5
240
330
236
100
AcDbEntity
  8
Defpoints
 62
     0
100
AcDbPoint
 10
-74.72499999999998
 20
-6.348925071276099
 30
0.0
  0
POINT
  5
241
330
236
100
AcDbEntity
  8
Defpoints
 62
     0
100
AcDbPoint
 10
-88.22499999999997
 20
-6.34892507127615
 30
0.0
  0
ENDBLK
  5
238
330
236
100
AcDbEntity
  8
0
100
AcDbBlockEnd
  0
BLOCK
  5
243
330
242
100
AcDbEntity
  8
0
100
AcDbBlockBegin
  2
*D14
 70
     1
 10
0.0
 20
0.0
 30
0.0
  3
*D14
  1
*D14
  0
LINE
  5
245
330
242
100
AcDbEntity
  8
치수문자_일반주서
 62
     0
370
    -2
100
AcDbLine
 10
25.9375
 20
6.351074928723904
 30
0.0
 11
41.56588682194207
 21
6.351074928723961
 31
0.0
  0
LINE
  5
246
330
242
100
AcDbEntity
  8
치수문자_일반주서
 62
     0
370
    -2
100
AcDbLine
 10
25.9375
 20
-6.348925071276099
 30
0.0
 11
41.56588682194212
 21
-6.348925071276042
 31
0.0
  0
LINE
  5
247
330
242
100
AcDbEntity
  8
치수문자_일반주서
 62
     0
370
    -2
100
AcDbLine
 10
41.56588682194207
 20
6.351074928723961
 30
0.0
 11
41.56588682194196
 21
40.08007492872395
 31
0.0
  0
LINE
  5
248
330
242
100
AcDbEntity
  8
치수문자_일반주서
 62
     0
370
    -2
100
AcDbLine
 10
41.56588682194207
 20
6.351074928723961
 30
0.0
 11
41.56588682194212
 21
-6.348925071276042
 31
0.0
  0
LINE
  5
249
330
242
100
AcDbEntity
  8
치수문자_일반주서
 62
     0
370
    -2
100
AcDbLine
 10
41.56588682194206
 20
9.65307492872396
 30
0.0
 11
41.56588682194204
 21
12.95507492872396
 31
0.0
  0
LINE
  5
24A
330
242
100
AcDbEntity
  8
치수문자_일반주서
 62
     0
370
    -2
100
AcDbLine
 10
41.56588682194213
 20
-9.650925071276042
 30
0.0
 11
41.56588682194214
 21
-12.95292507127604
 31
0.0
  0
SOLID
  5
24B
330
242
100
AcDbEntity
  8
치수문자_일반주서
 62
     0
100
AcDbTrace
 10
41.01555348860872
 20
9.653074928723958
 30
0.0
 11
42.11622015527539
 21
9.653074928723962
 31
0.0
 12
41.56588682194207
 22
6.351074928723961
 32
0.0
 13
41.56588682194207
 23
6.351074928723961
 33
0.0
  0
SOLID
  5
24C
330
242
100
AcDbEntity
  8
치수문자_일반주서
 62
     0
100
AcDbTrace
 10
42.11622015527546
 20
-9.65092507127604
 30
0.0
 11
41.01555348860879
 21
-9.650925071276044
 31
0.0
 12
41.56588682194212
 22
-6.348925071276042
 32
0.0
 13
41.56588682194212
 23
-6.348925071276042
 33
0.0
  0
MTEXT
  5
24D
330
242
100
AcDbEntity
  8
치수문자_일반주서
 62
     0
100
AcDbMText
 10
37.190886821942
 20
26.73632492872394
 30
0.0
 40
3.5
 41
0.0
 71
     2
 72
     1
  1
\A1;%%c12.70 [1/2]
  7
SLDTEXTSTYLE0
 11
-3.356894814614646E-15
 21
1.0
 31
0.0
 73
     1
 44
1.0
  0
POINT
  5
24E
330
242
100
AcDbEntity
  8
Defpoints
 62
     0
100
AcDbPoint
 10
25.875
 20
6.351074928723904
 30
0.0
  0
POINT
  5
24F
330
242
100
AcDbEntity
  8
Defpoints
 62
     0
100
AcDbPoint
 10
25.875
 20
-6.348925071276099
 30
0.0
  0
POINT
  5
250
330
242
100
AcDbEntity
  8
Defpoints
 62
     0
100
AcDbPoint
 10
41.56588682194214
 20
-6.348925071276041
 30
0.0
  0
ENDBLK
  5
244
330
242
100
AcDbEntity
  8
0
100
AcDbBlockEnd
  0
BLOCK
  5
252
330
251
100
AcDbEntity
  8
0
100
AcDbBlockBegin
  2
*D15
 70
     1
 10
0.0
 20
0.0
 30
0.0
  3
*D15
  1
*D15
  0
LINE
  5
254
330
251
100
AcDbEntity
  8
치수문자_일반주서
 62
     0
370
    -2
100
AcDbLine
 10
25.875
 20
6.413574928723904
 30
0.0
 11
25.875
 21
15.41880048907219
 31
0.0
  0
LINE
  5
255
330
251
100
AcDbEntity
  8
치수문자_일반주서
 62
     0
370
    -2
100
AcDbLine
 10
10.0
 20
5.102353687543342
 30
0.0
 11
10.0
 21
15.41880048907219
 31
0.0
  0
LINE
  5
256
330
251
100
AcDbEntity
  8
치수문자_일반주서
 62
     0
370
    -2
100
AcDbLine
 10
10.0
 20
15.41880048907219
 30
0.0
 11
-26.01510326242732
 21
15.41880048907219
 31
0.0
  0
LINE
  5
257
330
251
100
AcDbEntity
  8
치수문자_일반주서
 62
     0
370
    -2
100
AcDbLine
 10
25.875
 20
15.41880048907219
 30
0.0
 11
10.0
 21
15.41880048907219
 31
0.0
  0
LINE
  5
258
330
251
100
AcDbEntity
  8
치수문자_일반주서
 62
     0
370
    -2
100
AcDbLine
 10
29.177
 20
15.41880048907219
 30
0.0
 11
32.479
 21
15.41880048907219
 31
0.0
  0
LINE
  5
259
330
251
100
AcDbEntity
  8
치수문자_일반주서
 62
     0
370
    -2
100
AcDbLine
 10
6.698
 20
15.41880048907219
 30
0.0
 11
3.396000000000001
 21
15.41880048907219
 31
0.0
  0
SOLID
  5
25A
330
251
100
AcDbEntity
  8
치수문자_일반주서
 62
     0
100
AcDbTrace
 10
29.177
 20
15.96913382240552
 30
0.0
 11
29.177
 21
14.86846715573886
 31
0.0
 12
25.875
 22
15.41880048907219
 32
0.0
 13
25.875
 23
15.41880048907219
 33
0.0
  0
SOLID
  5
25B
330
251
100
AcDbEntity
  8
치수문자_일반주서
 62
     0
100
AcDbTrace
 10
6.698
 20
14.86846715573886
 30
0.0
 11
6.698
 21
15.96913382240552
 31
0.0
 12
10.0
 22
15.41880048907219
 32
0.0
 13
10.0
 23
15.41880048907219
 33
0.0
  0
MTEXT
  5
25C
330
251
100
AcDbEntity
  8
치수문자_일반주서
 62
     0
100
AcDbMText
 10
-13.32760326242732
 20
19.79380048907219
 30
0.0
 40
3.5
 41
0.0
 71
     2
 72
     1
  1
\A1;15.88 [5/8]
  7
SLDTEXTSTYLE0
 73
     1
 44
1.0
  0
POINT
  5
25D
330
251
100
AcDbEntity
  8
Defpoints
 62
     0
100
AcDbPoint
 10
25.875
 20
6.351074928723904
 30
0.0
  0
POINT
  5
25E
330
251
100
AcDbEntity
  8
Defpoints
 62
     0
100
AcDbPoint
 10
10.0
 20
5.039853687543342
 30
0.0
  0
POINT
  5
25F
330
251
100
AcDbEntity
  8
Defpoints
 62
     0
100
AcDbPoint
 10
10.0
 20
15.41880048907219
 30
0.0
  0
ENDBLK
  5
253
330
251
100
AcDbEntity
  8
0
100
AcDbBlockEnd
  0
BLOCK
  5
261
330
260
100
AcDbEntity
  8
0
100
AcDbBlockBegin
  2
*D16
 70
     1
 10
0.0
 20
0.0
 30
0.0
  3
*D16
  1
*D16
  0
LINE
  5
263
330
260
100
AcDbEntity
  8
치수문자_일반주서
 62
     0
370
    -2
100
AcDbLine
 10
25.875
 20
6.413574928723904
 30
0.0
 11
25.875
 21
27.41880048907214
 31
0.0
  0
LINE
  5
264
330
260
100
AcDbEntity
  8
치수문자_일반주서
 62
     0
370
    -2
100
AcDbLine
 10
-75.72499999999998
 20
5.413574928723882
 30
0.0
 11
-75.72499999999998
 21
27.41880048907214
 31
0.0
  0
LINE
  5
265
330
260
100
AcDbEntity
  8
치수문자_일반주서
 62
     0
370
    -2
100
AcDbLine
 10
22.573
 20
27.41880048907214
 30
0.0
 11
-72.42299999999997
 21
27.41880048907214
 31
0.0
  0
SOLID
  5
266
330
260
100
AcDbEntity
  8
치수문자_일반주서
 62
     0
100
AcDbTrace
 10
22.573
 20
26.86846715573881
 30
0.0
 11
22.573
 21
27.96913382240547
 31
0.0
 12
25.875
 22
27.41880048907214
 32
0.0
 13
25.875
 23
27.41880048907214
 33
0.0
  0
SOLID
  5
267
330
260
100
AcDbEntity
  8
치수문자_일반주서
 62
     0
100
AcDbTrace
 10
-72.42299999999997
 20
27.96913382240547
 30
0.0
 11
-72.42299999999997
 21
26.86846715573881
 31
0.0
 12
-75.72499999999998
 22
27.41880048907214
 32
0.0
 13
-75.72499999999998
 23
27.41880048907214
 33
0.0
  0
MTEXT
  5
268
330
260
100
AcDbEntity
  8
치수문자_일반주서
 62
     0
100
AcDbMText
 10
-25.38218528386307
 20
31.79380048907214
 30
0.0
 40
3.5
 41
0.0
 71
     2
 72
     1
  1
\A1;101.60 [4]
  7
SLDTEXTSTYLE0
 73
     1
 44
1.0
  0
POINT
  5
269
330
260
100
AcDbEntity
  8
Defpoints
 62
     0
100
AcDbPoint
 10
25.875
 20
6.351074928723904
 30
0.0
  0
POINT
  5
26A
330
260
100
AcDbEntity
  8
Defpoints
 62
     0
100
AcDbPoint
 10
-75.72499999999998
 20
5.351074928723882
 30
0.0
  0
POINT
  5
26B
330
260
100
AcDbEntity
  8
Defpoints
 62
     0
100
AcDbPoint
 10
-75.72499999999998
 20
27.41880048907214
 30
0.0
  0
ENDBLK
  5
262
330
260
100
AcDbEntity
  8
0
100
AcDbBlockEnd
  0
BLOCK
  5
26D
330
26C
100
AcDbEntity
  8
0
100
AcDbBlockBegin
  2
*D17
 70
     1
 10
0.0
 20
0.0
 30
0.0
  3
*D17
  1
*D17
  0
LINE
  5
26F
330
26C
100
AcDbEntity
  8
치수문자_일반주서
 62
     0
370
    -2
100
AcDbLine
 10
212.7597581119843
 20
-35.62058649431787
 30
0.0
 11
233.5346535750337
 21
-61.88749207433179
 31
0.0
  0
MTEXT
  5
270
330
26C
100
AcDbEntity
  8
치수문자_일반주서
 62
     0
100
AcDbMText
 10
226.2302611162671
 20
-48.42057836439763
 30
0.0
 40
3.5
 41
0.0
 71
     5
 72
     1
  1
\A1;R1.52 [R0.060]
  7
SLDTEXTSTYLE0
 11
0.6203405683288635
 21
-0.7843325693131854
 31
0.0
 73
     1
 44
1.0
  0
LINE
  5
271
330
26C
100
AcDbEntity
  8
치수문자_일반주서
 62
     0
370
    -2
100
AcDbLine
 10
209.7659945292291
 20
-31.83539751481242
 30
0.0
 11
210.7113935553623
 21
-33.03072035044573
 31
0.0
  0
SOLID
  5
272
330
26C
100
AcDbEntity
  8
치수문자_일반주서
 62
     0
100
AcDbTrace
 10
213.1914024692963
 20
-35.27919240154755
 30
0.0
 11
212.3281137546722
 21
-35.96198058708818
 31
0.0
 12
210.7113935553623
 22
-33.03072035044573
 32
0.0
 13
210.7113935553623
 23
-33.03072035044573
 33
0.0
  0
POINT
  5
273
330
26C
100
AcDbEntity
  8
Defpoints
 62
     0
100
AcDbPoint
 10
210.7113935553623
 20
-33.03072035044573
 30
0.0
  0
POINT
  5
274
330
26C
100
AcDbEntity
  8
Defpoints
 62
     0
100
AcDbPoint
 10
209.7659945292291
 20
-31.83539751481242
 30
0.0
  0
ENDBLK
  5
26E
330
26C
100
AcDbEntity
  8
0
100
AcDbBlockEnd
  0
BLOCK
  5
27E
330
27D
100
AcDbEntity
  8
0
100
AcDbBlockBegin
  2
*D18
 70
     1
 10
0.0
 20
0.0
 30
0.0
  3
*D18
  1
*D18
  0
LINE
  5
280
330
27D
100
AcDbEntity
  8
치수문자_일반주서
 62
     0
370
    -2
100
AcDbLine
 10
26.89832315764017
 20
-8.565604744349297
 30
0.0
 11
47.24965380379719
 21
-36.25571491351963
 31
0.0
  0
MTEXT
  5
281
330
27D
100
AcDbEntity
  8
치수문자_일반주서
 62
     0
100
AcDbMText
 10
40.16690664018201
 20
-22.18642053964284
 30
0.0
 40
3.5
 41
0.0
 71
     5
 72
     1
  1
\A1;R2.29 [R0.090]
  7
SLDTEXTSTYLE0
 11
0.5922196058769086
 21
-0.8057766057754463
 31
0.0
 73
     1
 44
1.0
  0
LINE
  5
282
330
27D
100
AcDbEntity
  8
치수문자_일반주서
 62
     0
370
    -2
100
AcDbLine
 10
23.589
 20
-4.062925071276101
 30
0.0
 11
24.94281401903461
 21
-5.904930392078775
 31
0.0
  0
SOLID
  5
283
330
27D
100
AcDbEntity
  8
치수문자_일반주서
 62
     0
100
AcDbTrace
 10
27.34176888301859
 20
-8.239686554581706
 30
0.0
 11
26.45487743226175
 21
-8.891522934116889
 31
0.0
 12
24.94281401903461
 22
-5.904930392078775
 32
0.0
 13
24.94281401903461
 23
-5.904930392078775
 33
0.0
  0
POINT
  5
284
330
27D
100
AcDbEntity
  8
Defpoints
 62
     0
100
AcDbPoint
 10
24.94281401903461
 20
-5.904930392078775
 30
0.0
  0
POINT
  5
285
330
27D
100
AcDbEntity
  8
Defpoints
 62
     0
100
AcDbPoint
 10
23.589
 20
-4.062925071276101
 30
0.0
  0
ENDBLK
  5
27F
330
27D
100
AcDbEntity
  8
0
100
AcDbBlockEnd
  0
ENDSEC
  0
SECTION
  2
ENTITIES
  0
LINE
  5
C3
330
1F
100
AcDbEntity
  8
참조1
100
AcDbLine
 10
-24.92499999999999
 20
0.0010749287238892
 30
0.0
 11
-24.92499999999998
 21
-39.99892507127611
 31
0.0
  0
LINE
  5
C4
330
1F
100
AcDbEntity
  8
참조1
100
AcDbLine
 10
-24.92499999999998
 20
-39.99892507127611
 30
0.0
 11
-14.66672777521594
 21
-39.9989250712761
 31
0.0
  0
INSERT
  5
C6
330
1F
100
AcDbEntity
  8
0
  6
Continuous
 62
     7
100
AcDbBlockReference
 66
     1
  2
블럭10
 10
-38.86527293212519
 20
-52.04609937292004
 30
0.0
  0
ATTRIB
  5
C7
330
C6
100
AcDbEntity
  8
FORMAT
 62
     2
100
AcDbText
 10
-49.00690894426182
 20
-49.97073246008785
 30
0.0
 40
4.233333333333333
  1
EM636915 [ 2 FLUTE ]
 41
0.75
  7
SLDTEXTSTYLE0
 11
-49.00690894426182
 21
-52.08739912675452
 31
0.0
100
AcDbAttribute
  2
AUTOATTR0
 70
     0
 74
     1
  0
SEQEND
  5
C8
330
C6
100
AcDbEntity
  8
0
  6
Continuous
 62
     7
  0
HATCH
  5
C9
330
1F
100
AcDbEntity
  8
중심선
100
AcDbHatch
 10
0.0
 20
0.0
 30
0.0
210
0.0
220
0.0
230
1.0
  2
SOLID
 70
     1
 71
     0
 91
        1
 92
        0
 93
        4
 72
     1
 10
-33.15036362774435
 20
-35.7989250712761
 11
-36.59663887158163
 21
-35.7989250712761
 72
     1
 10
-36.59663887158163
 20
-35.7989250712761
 11
-38.72486873078565
 21
-38.3352506518487
 72
     1
 10
-38.72486873078565
 20
-38.3352506518487
 11
-35.27856040183522
 21
-38.33521122254621
 72
     1
 10
-35.27856040183522
 20
-38.33521122254621
 11
-33.15036362774435
 21
-35.7989250712761
 97
        0
 75
     0
 76
     1
 98
        1
 10
0.0
 20
0.0
  0
HATCH
  5
CA
330
1F
100
AcDbEntity
  8
중심선
100
AcDbHatch
 10
0.0
 20
0.0
 30
0.0
210
0.0
220
0.0
230
1.0
  2
SOLID
 70
     1
 71
     0
 91
        1
 92
        0
 93
        4
 72
     1
 10
-28.13759963670839
 20
-35.7989250712761
 11
-31.58387488054562
 21
-35.79892507127608
 72
     1
 10
-31.58387488054562
 20
-35.79892507127608
 11
-36.11501288890307
 21
-41.19892507127612
 72
     1
 10
-36.11501288890307
 20
-41.19892507127612
 11
-32.66873764506578
 21
-41.19892507127612
 72
     1
 10
-32.66873764506578
 20
-41.19892507127612
 11
-28.13759963670839
 21
-35.7989250712761
 97
        0
 75
     0
 76
     1
 98
        1
 10
0.0
 20
0.0
  0
HATCH
  5
CB
330
1F
100
AcDbEntity
  8
중심선
100
AcDbHatch
 10
0.0
 20
0.0
 30
0.0
210
0.0
220
0.0
230
1.0
  2
SOLID
 70
     1
 71
     0
 91
        1
 92
        0
 93
        4
 72
     1
 10
-23.12483564567247
 20
-35.7989250712761
 11
-26.57111088950959
 21
-35.7989250712761
 72
     1
 10
-26.57111088950959
 20
-35.7989250712761
 11
-33.61954779139887
 21
-44.19892507127612
 72
     1
 10
-33.61954779139887
 20
-44.19892507127612
 11
-30.17327254756158
 21
-44.19892507127612
 72
     1
 10
-30.17327254756158
 20
-44.19892507127612
 11
-23.12483564567247
 21
-35.7989250712761
 97
        0
 75
     0
 76
     1
 98
        1
 10
0.0
 20
0.0
  0
HATCH
  5
CC
330
1F
100
AcDbEntity
  8
중심선
100
AcDbHatch
 10
0.0
 20
0.0
 30
0.0
210
0.0
220
0.0
230
1.0
  2
SOLID
 70
     1
 71
     0
 91
        1
 92
        0
 93
        6
 72
     3
 10
-18.3249452146603
 20
-39.99892507132738
 11
3.960054785062284
 21
1.540850780301639E-10
 40
0.3939339440162633
 50
17.09539180608433
 51
320.0019657685079
 73
     0
 72
     1
 10
-16.6419455589597
 20
-38.58681907591441
 11
-14.33664368525866
 21
-36.65249236586646
 72
     3
 10
-18.32494521471315
 20
-39.99892507127625
 11
6.600054785286829
 21
-1.249000902703301E-13
 40
0.6363583540795982
 50
39.9987384933743
 51
368.4976242363725
 73
     1
 72
     1
 10
-11.89961272281254
 20
-39.03892507120613
 11
-19.64487790787722
 21
-39.0389250712061
 72
     1
 10
-19.64487790787722
 20
-39.0389250712061
 11
-19.64490295232316
 21
-40.95892507120602
 72
     1
 10
-19.64490295232316
 20
-40.95892507120602
 11
-15.20352318285112
 21
-40.95892507120599
 97
        0
 75
     0
 76
     1
 98
        1
 10
0.0
 20
0.0
  0
LINE
  5
11F
330
1F
100
AcDbEntity
  8
참조1
100
AcDbLine
 10
83.30561285443832
 20
7.441074928723896
 30
0.0
 11
83.30561285443832
 21
-7.438925071276109
 31
0.0
  0
LINE
  5
120
330
1F
100
AcDbEntity
  8
참조1
100
AcDbLine
 10
96.00561285443833
 20
5.441074928723896
 30
0.0
 11
83.30561285443832
 21
5.441074928723896
 31
0.0
  0
SOLID
  5
121
330
1F
100
AcDbEntity
  8
참조1
100
AcDbTrace
 10
83.30561285443832
 20
5.441074928723896
 30
0.0
 11
89.65561285443832
 21
4.425074928723896
 31
0.0
 12
89.65561285443832
 22
6.457074928723896
 32
0.0
 13
89.65561285443832
 23
6.457074928723896
 33
0.0
  0
LINE
  5
122
330
1F
100
AcDbEntity
  8
참조1
100
AcDbLine
 10
96.00561285443833
 20
-5.438925071276109
 30
0.0
 11
83.30561285443832
 21
-5.438925071276109
 31
0.0
  0
SOLID
  5
123
330
1F
100
AcDbEntity
  8
참조1
100
AcDbTrace
 10
83.30561285443832
 20
-5.438925071276109
 30
0.0
 11
89.65561285443832
 21
-6.454925071276109
 31
0.0
 12
89.65561285443832
 22
-4.422925071276109
 32
0.0
 13
89.65561285443832
 23
-4.422925071276109
 33
0.0
  0
MTEXT
  5
124
330
1F
100
AcDbEntity
  8
참조1
100
AcDbMText
 10
92.7031029469086
 20
10.98929157337383
 30
0.0
 40
3.5
 41
0.0
 71
     1
 72
     1
  1
A
  7
SLDTEXTSTYLE0
 73
     1
 44
1.0
  0
MTEXT
  5
125
330
1F
100
AcDbEntity
  8
참조1
100
AcDbMText
 10
92.7031029469086
 20
0.1092915733738251
 30
0.0
 40
3.5
 41
0.0
 71
     1
 72
     1
  1
A
  7
SLDTEXTSTYLE0
 73
     1
 44
1.0
  0
LINE
  5
1FE
330
1F
100
AcDbEntity
  8
외형선
  6
Continuous
370
    15
100
AcDbLine
 10
7.9698866545844
 20
6.351074928723889
 30
0.0
 11
-74.72499999999998
 21
6.351074928723889
 31
0.0
  0
LINE
  5
1FF
330
1F
100
AcDbEntity
  8
외형선
  6
Continuous
370
    15
100
AcDbLine
 10
-74.72499999999998
 20
-6.348925071276113
 30
0.0
 11
7.9698866545844
 21
-6.348925071276106
 31
0.0
  0
LINE
  5
200
330
1F
100
AcDbEntity
  8
외형선
  6
Continuous
370
    15
100
AcDbLine
 10
-74.72499999999998
 20
6.351074928723882
 30
0.0
 11
-75.72499999999998
 21
5.351074928723882
 31
0.0
  0
LINE
  5
201
330
1F
100
AcDbEntity
  8
외형선
  6
Continuous
370
    15
100
AcDbLine
 10
-75.72499999999998
 20
-5.348925071276106
 30
0.0
 11
-74.72499999999998
 21
-6.348925071276106
 31
0.0
  0
LINE
  5
202
330
1F
100
AcDbEntity
  8
외형선
  6
Continuous
370
    15
100
AcDbLine
 10
9.444360230515883
 20
1.618855447507094
 30
0.0
 11
7.969767960462832
 21
2.347232240713915
 31
0.0
  0
SPLINE
  5
203
330
1F
100
AcDbEntity
  8
0
  6
Continuous
 62
     1
370
    15
100
AcDbSpline
210
0.0
220
0.0
230
1.0
 70
     8
 71
     3
 72
    29
 73
    25
 74
     0
 42
0.000000001
 43
0.00000001
 40
0.0
 40
0.0
 40
0.0
 40
0.0
 40
0.0503078425116136
 40
0.0947687118848794
 40
0.1339938816844375
 40
0.1692985494193588
 40
0.2245110462443395
 40
0.2747230545452227
 40
0.3205907058753076
 40
0.3611160150671693
 40
0.3952420113897694
 40
0.4243351139040198
 40
0.4626586304923606
 40
0.5193685453513266
 40
0.5797474854974113
 40
0.6339353085384305
 40
0.6829383335678141
 40
0.7068506328585454
 40
0.7306357581114744
 40
0.7543705565211408
 40
0.7815201130037251
 40
0.8343803447158202
 40
0.9072433581173608
 40
1.0
 40
1.0
 40
1.0
 40
1.0
 10
23.51556633400332
 20
4.344170678663424
 30
0.0
 10
23.36686215269742
 20
4.330643083476133
 30
0.0
 10
23.08673676844938
 20
4.305160122832305
 30
0.0
 10
22.64503560267121
 20
4.264339759299695
 30
0.0
 10
22.21853423686548
 20
4.233025507151368
 30
0.0
 10
21.71643803180314
 20
4.209901455502099
 30
0.0
 10
21.1783360970179
 20
4.201676416322996
 30
0.0
 10
20.59145142196081
 20
4.187246393604404
 30
0.0
 10
20.06491918894847
 20
4.180044956700414
 30
0.0
 10
19.61459753652571
 20
4.179189213865271
 30
0.0
 10
19.22623731023651
 20
4.182208735837747
 30
0.0
 10
18.85079777528409
 20
4.188271742777559
 30
0.0
 10
18.38749668915972
 20
4.199679949877222
 30
0.0
 10
17.80552160208373
 20
4.221124865144624
 30
0.0
 10
17.16488849864976
 20
4.254275473724434
 30
0.0
 10
16.55707470646155
 20
4.294746744332414
 30
0.0
 10
16.08917325585617
 20
4.331493444054686
 30
0.0
 10
15.72319783508556
 20
4.363771150652553
 30
0.0
 10
15.4503533887513
 20
4.389522903350169
 30
0.0
 10
15.16316972256209
 20
4.418170529113596
 30
0.0
 10
14.76413987368232
 20
4.459847104579971
 30
0.0
 10
14.18913937359684
 20
4.526612654986614
 30
0.0
 10
13.37681176954902
 20
4.631883015424201
 30
0.0
 10
12.76456173654702
 20
4.724987246504256
 30
0.0
 10
12.42166610042
 20
4.777131032247759
 30
0.0
  0
SPLINE
  5
204
330
1F
100
AcDbEntity
  8
0
  6
Continuous
 62
     1
370
    15
100
AcDbSpline
210
0.0
220
0.0
230
1.0
 70
     8
 71
     3
 72
    17
 73
    13
 74
     0
 42
0.000000001
 43
0.00000001
 40
0.0
 40
0.0
 40
0.0
 40
0.0
 40
0.1009867399762058
 40
0.1922022296070448
 40
0.2747840367132089
 40
0.3509283756316399
 40
0.4730166013745002
 40
0.5887686201741174
 40
0.6959197460266306
 40
0.7996899345752158
 40
0.9709059254399426
 40
0.9999999999999999
 40
0.9999999999999999
 40
0.9999999999999999
 40
0.9999999999999999
 10
12.42166610042
 20
-4.774981174799976
 30
0.0
 10
12.54951518132538
 20
-4.754139995470908
 30
0.0
 10
12.79284295296156
 20
-4.714474182556962
 30
0.0
 10
13.18095695046276
 20
-4.648828389715483
 30
0.0
 10
13.56361034849004
 20
-4.589931528759237
 30
0.0
 10
14.02622212617808
 20
-4.528767686731172
 30
0.0
 10
14.55114598781933
 20
-4.477961299062329
 30
0.0
 10
15.12128356886996
 20
-4.419676209882695
 30
0.0
 10
15.6714545593814
 20
-4.365663203043667
 30
0.0
 10
16.29007994230977
 20
-4.313004365145289
 30
0.0
 10
16.78496607346494
 20
-4.274384265247448
 30
0.0
 10
17.11066027598912
 20
-4.257732817813306
 30
0.0
 10
17.15796579402149
 20
-4.255314275079797
 30
0.0
  0
SPLINE
  5
205
330
1F
100
AcDbEntity
  8
외형선
  6
Continuous
370
    15
100
AcDbSpline
210
0.0
220
0.0
230
1.0
 70
     8
 71
     3
 72
    10
 73
     6
 74
     0
 42
0.000000001
 43
0.00000001
 40
0.0
 40
0.0
 40
0.0
 40
0.0
 40
0.5
 40
0.5
 40
1.0
 40
1.0
 40
1.0
 40
1.0
 10
10.0
 20
-0.564034606618435
 30
0.0
 10
9.662462197274635
 20
-0.4285195053204447
 30
0.0
 10
9.325885056856464
 20
-0.2923326176048491
 30
0.0
 10
8.648029171464486
 20
-0.0188808522668964
 30
0.0
 10
8.30827359806699
 20
0.1181789023669921
 30
0.0
 10
7.969858055685563
 20
0.2546980791953857
 30
0.0
  0
SPLINE
  5
206
330
1F
100
AcDbEntity
  8
외형선
  6
Continuous
370
    15
100
AcDbSpline
210
0.0
220
0.0
230
1.0
 70
     8
 71
     3
 72
    10
 73
     6
 74
     0
 42
0.000000001
 43
0.00000001
 40
0.0
 40
0.0
 40
0.0
 40
0.0
 40
0.5
 40
0.5
 40
1.0
 40
1.0
 40
1.0
 40
1.0
 10
7.9698866545844
 20
0.6236652130939007
 30
0.0
 10
8.308297505881512
 20
0.4292634885920776
 30
0.0
 10
8.648048289580402
 20
0.2337201172408214
 30
0.0
 10
9.325894580937302
 20
-0.157155950083002
 30
0.0
 10
9.66246695139455
 20
-0.3521941080969597
 30
0.0
 10
10.0
 20
-0.5466407207265078
 30
0.0
  0
SPLINE
  5
207
330
1F
100
AcDbEntity
  8
외형선
  6
Continuous
370
    15
100
AcDbSpline
210
0.0
220
0.0
230
1.0
 70
     8
 71
     3
 72
    10
 73
     6
 74
     0
 42
0.000000001
 43
0.00000001
 40
0.0
 40
0.0
 40
0.0
 40
0.0
 40
0.5
 40
0.5
 40
1.0
 40
1.0
 40
1.0
 40
1.0
 10
10.00000000000296
 20
1.221874243970134
 30
0.0
 10
9.662447220347644
 20
1.413418588515391
 30
0.0
 10
9.325855053087764
 20
1.603054620739044
 30
0.0
 10
8.647968943557316
 20
1.978116657492542
 30
0.0
 10
8.308198281156422
 20
2.163251066895207
 30
0.0
 10
7.969767960462832
 20
2.344811890850607
 30
0.0
  0
LINE
  5
208
330
1F
100
AcDbEntity
  8
외형선
  6
Continuous
370
    15
100
AcDbLine
 10
10.0
 20
1.221874243971797
 30
0.0
 11
10.0
 21
-0.5466407207265078
 31
0.0
  0
LINE
  5
209
330
1F
100
AcDbEntity
  8
외형선
  6
Continuous
370
    15
100
AcDbLine
 10
7.9698866545844
 20
2.345064816540066
 30
0.0
 11
7.9698866545844
 21
6.351074928723889
 31
0.0
  0
LINE
  5
20A
330
1F
100
AcDbEntity
  8
외형선
  6
Continuous
370
    15
100
AcDbLine
 10
-74.72499999999998
 20
6.351074928723882
 30
0.0
 11
-74.72499999999998
 21
-6.348925071276113
 31
0.0
  0
LINE
  5
20B
330
1F
100
AcDbEntity
  8
외형선
  6
Continuous
370
    15
100
AcDbLine
 10
7.9698866545844
 20
-6.348925071276106
 30
0.0
 11
7.9698866545844
 21
0.6236630036179278
 31
0.0
  0
LINE
  5
20C
330
1F
100
AcDbEntity
  8
외형선
  6
Continuous
370
    15
100
AcDbLine
 10
-75.72499999999998
 20
5.351074928723882
 30
0.0
 11
-75.72499999999998
 21
-5.348925071276106
 31
0.0
  0
LINE
  5
20D
330
1F
100
AcDbEntity
  8
외형선
  6
Continuous
370
    15
100
AcDbLine
 10
10.00000000000006
 20
1.356117040183435
 30
0.0
 11
9.397593058262373
 21
1.633803952137747
 31
0.0
  0
SPLINE
  5
20E
330
1F
100
AcDbEntity
  8
외형선
  6
Continuous
370
    15
100
AcDbSpline
210
0.0
220
0.0
230
1.0
 70
    24
 71
     3
 72
     8
 73
     4
 74
     0
 42
0.000000001
 43
0.00000001
 40
0.0
 40
0.0
 40
0.0
 40
0.0
 40
1.0
 40
1.0
 40
1.0
 40
1.0
 10
10.00000000000006
 20
1.356117040183449
 30
0.0
 10
10.00000000000006
 20
1.338397936485251
 30
0.0
 10
10.00000000000006
 20
1.293482677647653
 30
0.0
 10
10.00000000000006
 20
1.221874243973758
 30
0.0
  0
SPLINE
  5
20F
330
1F
100
AcDbEntity
  8
외형선
  6
Continuous
370
    15
100
AcDbSpline
210
0.0
220
0.0
230
1.0
 70
     8
 71
     3
 72
    12
 73
     8
 74
     0
 42
0.000000001
 43
0.00000001
 40
0.0
 40
0.0
 40
0.0
 40
0.0
 40
0.2500000000000001
 40
0.2500000000000001
 40
0.5
 40
0.5
 40
1.0
 40
1.0
 40
1.0
 40
1.0
 10
8.265550267151639
 20
5.078754369169509
 30
0.0
 10
8.199528735927458
 20
5.07783402719236
 30
0.0
 10
8.153820665180376
 20
5.07998515798301
 30
0.0
 10
8.0809187495326
 20
5.08442588499345
 30
0.0
 10
8.054120788541752
 20
5.087064465091402
 30
0.0
 10
7.990675553521896
 20
5.095392247006778
 30
0.0
 10
7.9698866545844
 20
5.101521959351928
 30
0.0
 10
7.9698866545844
 20
5.109923188553012
 30
0.0
  0
SPLINE
  5
210
330
1F
100
AcDbEntity
  8
외형선
  6
Continuous
370
    15
100
AcDbSpline
210
0.0
220
0.0
230
1.0
 70
     8
 71
     3
 72
    10
 73
     6
 74
     0
 42
0.000000001
 43
0.00000001
 40
0.0
 40
0.0
 40
0.0
 40
0.0
 40
0.5
 40
0.5
 40
1.0
 40
1.0
 40
1.0
 40
1.0
 10
10.0
 20
5.039853687543335
 30
0.0
 10
9.711568735460048
 20
5.056816538593537
 30
0.0
 10
9.42419848275722
 20
5.068554321110277
 30
0.0
 10
8.845449997735273
 20
5.081555708724828
 30
0.0
 10
8.555240990887455
 20
5.082792665896385
 30
0.0
 10
8.265550267151639
 20
5.078754369169509
 30
0.0
  0
SPLINE
  5
211
330
1F
100
AcDbEntity
  8
외형선
  6
Continuous
370
    15
100
AcDbSpline
210
0.0
220
0.0
230
1.0
 70
    24
 71
     3
 72
    14
 73
    10
 74
     0
 42
0.000000001
 43
0.00000001
 40
0.0
 40
0.0
 40
0.0
 40
0.0
 40
0.2499999999999998
 40
0.2499999999999998
 40
0.4999999999999998
 40
0.4999999999999998
 40
0.7499999999999999
 40
0.7499999999999999
 40
1.0
 40
1.0
 40
1.0
 40
1.0
 10
10.0
 20
5.039853687543335
 30
0.0
 10
10.0
 20
4.921869558033613
 30
0.0
 10
10.0
 20
4.750541550724861
 30
0.0
 10
10.0
 20
4.302032259721599
 30
0.0
 10
10.0
 20
4.024857742076243
 30
0.0
 10
10.0
 20
3.381033493699405
 30
0.0
 10
10.0
 20
3.014569679866874
 30
0.0
 10
10.0
 20
2.221475884301313
 30
0.0
 10
10.0
 20
1.795124008853747
 30
0.0
 10
10.0
 20
1.356117040183463
 30
0.0
  0
SPLINE
  5
212
330
1F
100
AcDbEntity
  8
외형선
  6
Continuous
370
    15
100
AcDbSpline
210
0.0
220
0.0
230
1.0
 70
     8
 71
     3
 72
    10
 73
     6
 74
     0
 42
0.000000001
 43
0.00000001
 40
0.0
 40
0.0
 40
0.0
 40
0.0
 40
0.5
 40
0.5
 40
1.0
 40
1.0
 40
1.0
 40
1.0
 10
10.0
 20
-5.037703830095552
 30
0.0
 10
9.66245974582722
 20
-5.057554816305782
 30
0.0
 10
9.325880145792837
 20
-5.070256987566573
 30
0.0
 10
8.648019313266104
 20
-5.081279585350778
 30
0.0
 10
8.308261270075718
 20
-5.079565766880791
 30
0.0
 10
7.969843308753184
 20
-5.07064865608212
 30
0.0
  0
SPLINE
  5
213
330
1F
100
AcDbEntity
  8
외형선
  6
Continuous
370
    15
100
AcDbSpline
210
0.0
220
0.0
230
1.0
 70
    24
 71
     3
 72
    14
 73
    10
 74
     0
 42
0.000000001
 43
0.00000001
 40
0.0
 40
0.0
 40
0.0
 40
0.0
 40
0.2499999999999998
 40
0.2499999999999998
 40
0.4999999999999999
 40
0.4999999999999999
 40
0.75
 40
0.75
 40
1.0
 40
1.0
 40
1.0
 40
1.0
 10
10.0
 20
-0.5640346066184208
 30
0.0
 10
10.0
 20
-1.0939660696544
 30
0.0
 10
10.0
 20
-1.61778964901147
 30
0.0
 10
10.0
 20
-2.598334396409555
 30
0.0
 10
10.0
 20
-3.054448399369335
 30
0.0
 10
10.0
 20
-3.84954840123109
 30
0.0
 10
10.0
 20
-4.188110737610359
 30
0.0
 10
10.0
 20
-4.720745653633543
 30
0.0
 10
10.0
 20
-4.914840181722511
 30
0.0
 10
10.0
 20
-5.037703830095552
 30
0.0
  0
SPLINE
  5
214
330
1F
100
AcDbEntity
  8
외형선
  6
Continuous
370
    15
100
AcDbSpline
210
0.0
220
0.0
230
1.0
 70
    24
 71
     3
 72
     8
 73
     4
 74
     0
 42
0.000000001
 43
0.00000001
 40
0.0
 40
0.0
 40
0.0
 40
0.0
 40
1.0
 40
1.0
 40
1.0
 40
1.0
 10
10.00000000000006
 20
1.356117040183442
 30
0.0
 10
10.00000000000006
 20
1.338397936485244
 30
0.0
 10
10.00000000000006
 20
1.293482677647646
 30
0.0
 10
10.00000000000006
 20
1.221874243973758
 30
0.0
  0
LINE
  5
216
330
1F
100
AcDbEntity
  8
외형선
  6
Continuous
370
    15
100
AcDbLine
 10
10.09954299148728
 20
-0.6031115083892473
 30
0.0
 11
10.0
 21
-0.564034606618435
 31
0.0
  0
SPLINE
  5
217
330
1F
100
AcDbEntity
  8
0
  6
Continuous
 62
     1
370
    15
100
AcDbSpline
210
0.0
220
0.0
230
1.0
 70
     8
 71
     3
 72
    34
 73
    30
 74
     0
 42
0.000000001
 43
0.00000001
 40
0.0
 40
0.0
 40
0.0
 40
0.0
 40
0.0625000000000001
 40
0.0625000000000001
 40
0.1250000000000002
 40
0.1250000000000002
 40
0.1875000000000003
 40
0.1875000000000003
 40
0.2500000000000004
 40
0.2500000000000004
 40
0.3750000000000003
 40
0.3750000000000003
 40
0.4375000000000002
 40
0.4375000000000002
 40
0.5000000000000001
 40
0.5000000000000001
 40
0.5625000000000001
 40
0.5625000000000001
 40
0.6250000000000001
 40
0.6250000000000001
 40
0.6875000000000001
 40
0.6875000000000001
 40
0.75
 40
0.75
 40
0.8125
 40
0.8125
 40
0.875
 40
0.875
 40
1.0
 40
1.0
 40
1.0
 40
1.0
 10
24.72127083110445
 20
0.5329812086251806
 30
0.0
 10
24.41375524849684
 20
0.6739778075615845
 30
0.0
 10
24.10624500464752
 20
0.8143504839905518
 30
0.0
 10
23.49445166412005
 20
1.092386261967697
 30
0.0
 10
23.18940911865167
 20
1.23016840725677
 30
0.0
 10
22.57519105738834
 20
1.503162646962757
 30
0.0
 10
22.26727169212865
 20
1.638182648146383
 30
0.0
 10
21.65304300165872
 20
1.903851711556122
 30
0.0
 10
21.34798309662273
 20
2.03432662672693
 30
0.0
 10
20.43032495270819
 20
2.418558158580133
 30
0.0
 10
19.81207351478969
 20
2.665472042461936
 30
0.0
 10
18.89431075769494
 20
3.014258883210971
 30
0.0
 10
18.58930719648356
 20
3.127038001310147
 30
0.0
 10
17.97511379387964
 20
3.345552649892227
 30
0.0
 10
17.66719456170159
 20
3.451124254819696
 30
0.0
 10
17.05294174026324
 20
3.653787597021179
 30
0.0
 10
16.74784113650537
 20
3.750756373769043
 30
0.0
 10
16.13611805880646
 20
3.935913565301377
 30
0.0
 10
15.82862566838531
 20
4.024175714037142
 30
0.0
 10
15.21359503317956
 20
4.191092426902721
 30
0.0
 10
14.90606055303556
 20
4.269745966278556
 30
0.0
 10
14.29417058023637
 20
4.416669574913783
 30
0.0
 10
13.98920480903354
 20
4.485005944763962
 30
0.0
 10
13.37503643257486
 20
4.61137208269075
 30
0.0
 10
13.06711751886553
 20
4.669295359234198
 30
0.0
 10
12.45284093406326
 20
4.774012690049297
 30
0.0
 10
12.14769843752805
 20
4.820754574486322
 30
0.0
 10
11.23018789219134
 20
4.944121066858578
 30
0.0
 10
10.61193774463982
 20
5.0038651866751
 30
0.0
 10
10.0
 20
5.039853687543335
 30
0.0
  0
SPLINE
  5
218
330
1F
100
AcDbEntity
  8
0
  6
Continuous
 62
     1
370
    15
100
AcDbSpline
210
0.0
220
0.0
230
1.0
 70
    24
 71
     3
 72
     8
 73
     4
 74
     0
 42
0.000000001
 43
0.00000001
 40
0.0
 40
0.0
 40
0.0
 40
0.0
 40
1.0
 40
1.0
 40
1.0
 40
1.0
 10
24.7212708311045
 20
0.5329812086251806
 30
0.0
 10
24.46726809442521
 20
0.3198476059595876
 30
0.0
 10
24.21357374671345
 20
0.1069727723628091
 30
0.0
 10
23.96018188485778
 20
-0.1056482454636196
 30
0.0
  0
SPLINE
  5
219
330
1F
100
AcDbEntity
  8
0
  6
Continuous
 62
     1
370
    15
100
AcDbSpline
210
0.0
220
0.0
230
1.0
 70
     8
 71
     3
 72
     8
 73
     4
 74
     0
 42
0.000000001
 43
0.00000001
 40
0.0
 40
0.0
 40
0.0
 40
0.0
 40
1.0
 40
1.0
 40
1.0
 40
1.0
 10
25.875
 20
-1.69591777856435
 30
0.0
 10
25.22995232656342
 20
-1.188802411791912
 30
0.0
 10
24.5915608137837
 20
-0.6591154542675923
 30
0.0
 10
23.96018188486471
 20
-0.105648245457715
 30
0.0
  0
SPLINE
  5
21A
330
1F
100
AcDbEntity
  8
외형선
  6
Continuous
370
    15
100
AcDbSpline
210
0.0
220
0.0
230
1.0
 70
    24
 71
     3
 72
    14
 73
    10
 74
     0
 42
0.000000001
 43
0.00000001
 40
0.0
 40
0.0
 40
0.0
 40
0.0
 40
0.2499999999999998
 40
0.2499999999999998
 40
0.4999999999999999
 40
0.4999999999999999
 40
0.75
 40
0.75
 40
1.0
 40
1.0
 40
1.0
 40
1.0
 10
9.999999999999943
 20
5.039853687543342
 30
0.0
 10
9.999999999999943
 20
4.921869558033713
 30
0.0
 10
9.999999999999943
 20
4.750541550724726
 30
0.0
 10
9.999999999999943
 20
4.302032259721464
 30
0.0
 10
9.999999999999943
 20
4.024857742076108
 30
0.0
 10
9.999999999999943
 20
3.381033493699306
 30
0.0
 10
9.999999999999943
 20
3.014569679866788
 30
0.0
 10
9.999999999999943
 20
2.221475884301292
 30
0.0
 10
9.999999999999943
 20
1.795124008853755
 30
0.0
 10
9.999999999999943
 20
1.356117040183499
 30
0.0
  0
LINE
  5
21B
330
1F
100
AcDbEntity
  8
0
  6
Continuous
 62
     1
370
    15
100
AcDbLine
 10
24.8235810710064
 20
0.618829693192545
 30
0.0
 11
25.875
 21
0.0010749287238951
 31
0.0
  0
LINE
  5
21C
330
1F
100
AcDbEntity
  8
0
  6
Continuous
 62
     1
370
    15
100
AcDbLine
 10
25.875
 20
0.0010749287238951
 30
0.0
 11
25.875
 21
-1.69591777856435
 31
0.0
  0
SPLINE
  5
21D
330
1F
100
AcDbEntity
  8
0
  6
Continuous
 62
     1
370
    15
100
AcDbSpline
210
0.0
220
0.0
230
1.0
 70
     8
 71
     3
 72
     9
 73
     5
 74
     0
 42
0.000000001
 43
0.00000001
 40
0.0135401580283685
 40
0.0135401580283685
 40
0.0135401580283685
 40
0.0135401580283685
 40
0.9483519856844301
 40
1.0
 40
1.0
 40
1.0
 40
1.0
 10
25.84304219611764
 20
4.445981450252408
 30
0.0
 10
25.10758714016197
 20
4.443818789487516
 30
0.0
 10
24.33149849656814
 20
4.440289618249409
 30
0.0
 10
23.55541261500946
 20
4.344593344316152
 30
0.0
 10
23.51477913656925
 20
4.339582980674614
 30
0.0
  0
SPLINE
  5
21E
330
1F
100
AcDbEntity
  8
0
  6
Continuous
 62
     1
370
    15
100
AcDbSpline
210
0.0
220
0.0
230
1.0
 70
    24
 71
     3
 72
    14
 73
    10
 74
     0
 42
0.000000001
 43
0.00000001
 40
0.0
 40
0.0
 40
0.0
 40
0.0
 40
0.25
 40
0.25
 40
0.5
 40
0.5
 40
0.75
 40
0.75
 40
0.7566000617535023
 40
0.7566000617535023
 40
0.7566000617535023
 40
0.7566000617535023
 10
25.875
 20
1.501074928723895
 30
0.0
 10
25.875
 20
1.872047473115018
 30
0.0
 10
25.875
 20
2.223826580286072
 30
0.0
 10
25.875
 20
2.866942738250764
 30
0.0
 10
25.875
 20
3.158151639872486
 30
0.0
 10
25.875
 20
3.664018533633765
 30
0.0
 10
25.875
 20
3.878622644865409
 30
0.0
 10
25.875
 20
4.056035343917763
 30
0.0
 10
25.875
 20
4.060569533262786
 30
0.0
 10
25.87499999999997
 20
4.065074666666103
 30
0.0
  0
SPLINE
  5
21F
330
1F
100
AcDbEntity
  8
0
  6
Continuous
 62
     1
370
    15
100
AcDbSpline
210
0.0
220
0.0
230
1.0
 70
    24
 71
     3
 72
     8
 73
     4
 74
     0
 42
0.000000001
 43
0.00000001
 40
0.0
 40
0.0
 40
0.0
 40
0.0
 40
1.0
 40
1.0
 40
1.0
 40
1.0
 10
25.875
 20
1.501074928723895
 30
0.0
 10
25.49652726809086
 20
1.183498598968249
 30
0.0
 10
25.11181278668892
 20
0.8606848195153631
 30
0.0
 10
24.72127083110445
 20
0.5329812086251806
 30
0.0
  0
SPLINE
  5
220
330
1F
100
AcDbEntity
  8
0
  6
Continuous
 62
     1
370
    15
100
AcDbSpline
210
0.0
220
0.0
230
1.0
 70
     8
 71
     3
 72
     9
 73
     5
 74
     0
 42
0.000000001
 43
0.00000001
 40
0.0
 40
0.0
 40
0.0
 40
0.0
 40
0.0476266658171161
 40
1.0
 40
1.0
 40
1.0
 40
1.0
 10
12.42273429002057
 20
-4.769969294266431
 30
0.0
 10
12.38427203757834
 20
-4.777640320090711
 30
0.0
 10
11.5766939343801
 20
-4.938706094750316
 30
0.0
 10
10.76911584120768
 20
-4.989412449734758
 30
0.0
 10
10.0
 20
-5.037703830095552
 30
0.0
  0
SPLINE
  5
221
330
1F
100
AcDbEntity
  8
외형선
  6
Continuous
370
    15
100
AcDbSpline
210
0.0
220
0.0
230
1.0
 70
    24
 71
     3
 72
    14
 73
    10
 74
     0
 42
0.000000001
 43
0.00000001
 40
0.0
 40
0.0
 40
0.0
 40
0.0
 40
0.2499999999999998
 40
0.2499999999999998
 40
0.4999999999999999
 40
0.4999999999999999
 40
0.75
 40
0.75
 40
1.0
 40
1.0
 40
1.0
 40
1.0
 10
10.0
 20
-0.5640346066184208
 30
0.0
 10
10.0
 20
-1.0939660696544
 30
0.0
 10
10.0
 20
-1.61778964901147
 30
0.0
 10
10.0
 20
-2.598334396409555
 30
0.0
 10
10.0
 20
-3.054448399369335
 30
0.0
 10
10.0
 20
-3.84954840123109
 30
0.0
 10
10.0
 20
-4.188110737610359
 30
0.0
 10
10.0
 20
-4.720745653633543
 30
0.0
 10
10.0
 20
-4.914840181722511
 30
0.0
 10
10.0
 20
-5.037703830095552
 30
0.0
  0
LINE
  5
222
330
1F
100
AcDbEntity
  8
0
  6
Continuous
 62
     1
370
    15
100
AcDbLine
 10
25.875
 20
0.0010749287238951
 30
0.0
 11
25.875
 21
1.501074928723895
 31
0.0
  0
LINE
  5
223
330
1F
100
AcDbEntity
  8
중심선
 48
0.8
100
AcDbLine
 10
-78.725
 20
0.001074928723888
 30
0.0
 11
28.875
 21
0.0010749287239022
 31
0.0
  0
CIRCLE
  5
224
330
1F
100
AcDbEntity
  8
해칭선
100
AcDbCircle
 10
0.0
 20
0.0
 30
0.0
 40
3.000000000000001
  0
DIMENSION
  5
225
330
1F
100
AcDbEntity
  8
치수문자_일반주서
100
AcDbDimension
  2
*D13
 10
-88.22499999999997
 20
-6.34892507127615
 30
0.0
 11
-88.225
 21
0.0010749287238951
 31
0.0
 70
   160
  1
%%c<>
 71
     2
 42
12.69999999999999
 52
-270.0
  3
SLDDIMSTYLE0
100
AcDbAlignedDimension
 13
-74.72499999999998
 23
6.351074928723889
 33
0.0
 14
-74.72499999999998
 24
-6.348925071276099
 34
0.0
 50
90.0000000000002
100
AcDbRotatedDimension
1001
ACAD
1000
DSTYLE
1002
{
1070
   171
1070
     6
1070
   273
1070
     7
1002
}
  0
DIMENSION
  5
226
330
1F
100
AcDbEntity
  8
치수문자_일반주서
100
AcDbDimension
  2
*D14
 10
41.56588682194212
 20
-6.348925071276042
 30
0.0
 11
41.565886821942
 21
26.73632492872395
 31
0.0
 70
   160
  1
%%c<>
 71
     2
 42
12.7
 52
-270.0
  3
SLDDIMSTYLE0
100
AcDbAlignedDimension
 13
25.875
 23
6.351074928723904
 33
0.0
 14
25.875
 24
-6.348925071276099
 34
0.0
 50
90.0000000000002
100
AcDbRotatedDimension
1001
ACAD
1000
DSTYLE
1002
{
1070
   171
1070
     6
1070
   273
1070
     7
1002
}
  0
DIMENSION
  5
227
330
1F
100
AcDbEntity
  8
치수문자_일반주서
100
AcDbDimension
  2
*D15
 10
10.0
 20
15.41880048907219
 30
0.0
 11
-13.32760326242732
 21
15.41880048907219
 31
0.0
 70
   160
  1
<>
 71
     2
 42
15.875
  3
SLDDIMSTYLE0
100
AcDbAlignedDimension
 13
25.875
 23
6.351074928723904
 33
0.0
 14
10.0
 24
5.039853687543342
 34
0.0
 50
0.0000000000000192
100
AcDbRotatedDimension
1001
ACAD
1000
DSTYLE
1002
{
1070
   171
1070
     6
1070
   273
1070
     7
1002
}
  0
DIMENSION
  5
228
330
1F
100
AcDbEntity
  8
치수문자_일반주서
100
AcDbDimension
  2
*D16
 10
-75.72499999999998
 20
27.41880048907214
 30
0.0
 11
-25.38218528386307
 21
27.41880048907214
 31
0.0
 70
   160
  1
<>
 71
     2
 42
101.6
  3
SLDDIMSTYLE0
100
AcDbAlignedDimension
 13
25.875
 23
6.351074928723904
 33
0.0
 14
-75.72499999999998
 24
5.351074928723882
 34
0.0
 50
0.000000000000004
100
AcDbRotatedDimension
1001
ACAD
1000
DSTYLE
1002
{
1070
   171
1070
     6
1070
   273
1070
     7
1002
}
  0
INSERT
  5
229
330
1F
100
AcDbEntity
  8
해칭선
100
AcDbBlockReference
  2
SW_DOWELSYMBOL_0
 10
0.0
 20
0.0
 30
0.0
  0
SPLINE
  5
22A
330
1F
100
AcDbEntity
  8
0
  6
Continuous
 62
     1
370
    15
100
AcDbSpline
210
0.0
220
0.0
230
1.0
 70
  1064
 71
     3
 72
    10
 73
     6
 74
     4
 42
0.000000001
 43
0.0000000001
 44
0.0
 40
0.0
 40
0.0
 40
0.0
 40
0.0
 40
2.687725991723266
 40
4.505131338345707
 40
6.805247778639258
 40
6.805247778639258
 40
6.805247778639258
 40
6.805247778639258
 10
17.15619268824776
 20
4.256479646429973
 30
0.0
 10
17.96568534866628
 20
4.639397120670722
 30
0.0
 10
19.32254641405863
 20
5.281238408999417
 30
0.0
 10
21.46015784236635
 20
6.073153826210287
 30
0.0
 10
22.82601139387967
 20
6.251466494224466
 30
0.0
 10
23.589
 20
6.351074928723904
 30
0.0
 11
17.15619268824776
 21
4.256479646429973
 31
0.0
 11
19.60540516659449
 21
5.363380383847492
 31
0.0
 11
21.32265477551215
 21
5.958372799432766
 31
0.0
 11
23.589
 21
6.351074928723904
 31
0.0
  0
SPLINE
  5
22E
330
1F
100
AcDbEntity
  8
0
  6
Continuous
 62
     1
370
    15
100
AcDbSpline
210
0.0
220
0.0
230
1.0
 70
    24
 71
     3
 72
    10
 73
     6
 74
     0
 42
0.000000001
 43
0.00000001
 40
0.3494674090987677
 40
0.3494674090987677
 40
0.3494674090987677
 40
0.3494674090987677
 40
0.4999999999999999
 40
0.4999999999999999
 40
1.0
 40
1.0
 40
1.0
 40
1.0
 10
25.87499999999997
 20
-4.062924809279036
 30
0.0
 10
25.875
 20
-3.907995803814742
 30
0.0
 10
25.875
 20
-3.745310676627447
 30
0.0
 10
25.875
 20
-3.011381321882922
 30
0.0
 10
25.875
 20
-2.369427334651917
 30
0.0
 10
25.875
 20
-1.695917778564549
 30
0.0
  0
SPLINE
  5
230
330
1F
100
AcDbEntity
  8
0
  6
Continuous
 62
     1
370
    15
100
AcDbSpline
210
0.0
220
0.0
230
1.0
 70
     8
 71
     3
 72
    30
 73
    26
 74
     0
 42
0.000000001
 43
0.00000001
 40
0.0119681184117589
 40
0.0119681184117589
 40
0.0119681184117589
 40
0.0119681184117589
 40
0.125
 40
0.125
 40
0.1874999999999999
 40
0.1874999999999999
 40
0.2499999999999999
 40
0.2499999999999999
 40
0.3125
 40
0.3125
 40
0.375
 40
0.375
 40
0.5000000000000001
 40
0.5000000000000001
 40
0.5625000000000002
 40
0.5625000000000002
 40
0.6250000000000002
 40
0.6250000000000002
 40
0.6875000000000002
 40
0.6875000000000002
 40
0.7500000000000001
 40
0.7500000000000001
 40
0.875
 40
0.875
 40
1.0
 40
1.0
 40
1.0
 40
1.0
 10
25.68581485515631
 20
-4.973509204234418
 30
0.0
 10
25.08951193332661
 20
-4.859704113826837
 30
0.0
 10
24.48681250660439
 20
-4.723387086013538
 30
0.0
 10
23.55946101651466
 20
-4.480743611027194
 30
0.0
 10
23.23085009081882
 20
-4.388309476903672
 30
0.0
 10
22.56855913501823
 20
-4.191313857141509
 30
0.0
 10
22.23643595488204
 20
-4.086883255271687
 30
0.0
 10
21.57428502258318
 20
-3.86743255736517
 30
0.0
 10
21.24580803704691
 20
-3.752607695931076
 30
0.0
 10
20.58519176451279
 20
-3.512690375935293
 30
0.0
 10
20.25325687047922
 20
-3.387601068233053
 30
0.0
 10
19.25863673865501
 20
-2.999176304465493
 30
0.0
 10
18.60148963328044
 20
-2.723313064902598
 30
0.0
 10
17.60673411627431
 20
-2.288381029039932
 30
0.0
 10
17.27489475489199
 20
-2.140053284612236
 30
0.0
 10
16.614747007169
 20
-1.838531964006279
 30
0.0
 10
16.28597336099131
 20
-1.685277609201592
 30
0.0
 10
15.62355203894117
 20
-1.373855909394514
 30
0.0
 10
15.29143373505832
 20
-1.21592119313091
 30
0.0
 10
14.62943247669773
 20
-0.8975325245359542
 30
0.0
 10
14.30106064450365
 20
-0.7373278821869746
 30
0.0
 10
13.30980637940775
 20
-0.2533761399511931
 30
0.0
 10
12.64397830001559
 20
0.073205676672103
 30
0.0
 10
11.32713515032822
 20
0.7196630265244153
 30
0.0
 10
10.6598991498401
 20
1.042163124567523
 30
0.0
 10
10.00000000000335
 20
1.356117040181864
 30
0.0
  0
SPLINE
  5
231
330
1F
100
AcDbEntity
  8
0
  6
Continuous
 62
     1
370
    15
100
AcDbSpline
210
0.0
220
0.0
230
1.0
 70
  1064
 71
     3
 72
    10
 73
     6
 74
     4
 42
0.000000001
 43
0.0000000001
 44
0.0
 40
0.0
 40
0.0
 40
0.0
 40
0.0
 40
3.648175562437061
 40
6.038364244093211
 40
6.795071849706285
 40
6.795071849706285
 40
6.795071849706285
 40
6.795071849706285
 10
17.15796579402149
 20
-4.255314275079797
 30
0.0
 10
18.25933454917264
 20
-4.779708342438911
 30
0.0
 10
20.08229114675029
 20
-5.647671611191416
 30
0.0
 10
22.3006479551934
 20
-6.168269917375023
 30
0.0
 10
23.3392549393421
 20
-6.313905347784328
 30
0.0
 10
23.589
 20
-6.348925071276099
 30
0.0
 11
17.15796579402149
 21
-4.255314275079797
 31
0.0
 11
20.51622640833926
 21
-5.680540776617356
 31
0.0
 11
22.84041553171926
 21
-6.238346166228553
 31
0.0
 11
23.589
 21
-6.348925071276099
 31
0.0
  0
SPLINE
  5
235
330
1F
100
AcDbEntity
  8
0
  6
Continuous
 62
     1
370
    15
100
AcDbSpline
210
0.0
220
0.0
230
1.0
 70
     8
 71
     3
 72
    16
 73
    12
 74
     0
 42
0.000000001
 43
0.00000001
 40
0.0
 40
0.0
 40
0.0
 40
0.0
 40
0.1249999999999999
 40
0.1249999999999999
 40
0.2499999999999998
 40
0.2499999999999998
 40
0.3124999999999997
 40
0.3124999999999997
 40
0.3749999999999997
 40
0.3749999999999997
 40
0.4827244227538666
 40
0.4827244227538666
 40
0.4827244227538666
 40
0.4827244227538666
 10
10.0
 20
-0.5466407207265078
 30
0.0
 10
10.6387306141126
 20
-0.914601739092312
 30
0.0
 10
11.28433668355387
 20
-1.281065881267011
 30
0.0
 10
12.55999676341565
 20
-1.994382316220147
 30
0.0
 10
13.20303240058303
 20
-2.343650216816428
 30
0.0
 10
14.16355145091649
 20
-2.846326857789194
 30
0.0
 10
14.48127199952893
 20
-3.010061648236167
 30
0.0
 10
15.12124365939809
 20
-3.330250675487491
 30
0.0
 10
15.44257976726459
 20
-3.48653404046005
 30
0.0
 10
16.31644800300518
 20
-3.899342593757247
 30
0.0
 10
16.86522477204215
 20
-4.14617795395003
 30
0.0
 10
17.41719100998375
 20
-4.376934047664122
 30
0.0
  0
ARC
  5
277
330
1F
100
AcDbEntity
  8
0
  6
Continuous
 62
     1
370
    15
100
AcDbCircle
 10
23.589
 20
4.065074928723906
 30
0.0
 40
2.285999999999999
100
AcDbArc
 50
359.9999934318436
 51
90.0
  0
ARC
  5
278
102
{ACAD_REACTORS
102
}
330
1F
100
AcDbEntity
  8
0
  6
Continuous
 62
     1
370
    15
100
AcDbCircle
 10
23.589
 20
-4.062925071276101
 30
0.0
 40
2.285999999999999
100
AcDbArc
 50
270.0
 51
0.0000065681564716
  0
SPLINE
  5
279
330
1F
100
AcDbEntity
  8
0
  6
Continuous
 62
     1
370
    15
100
AcDbSpline
210
0.0
220
0.0
230
1.0
 70
     8
 71
     3
 72
    28
 73
    24
 74
     0
 42
0.000000001
 43
0.00000001
 40
0.0228926211878333
 40
0.0228926211878333
 40
0.0228926211878333
 40
0.0228926211878333
 40
0.1250000000000002
 40
0.1250000000000002
 40
0.2500000000000005
 40
0.2500000000000005
 40
0.3125000000000004
 40
0.3125000000000004
 40
0.3750000000000004
 40
0.3750000000000004
 40
0.4375000000000004
 40
0.4375000000000004
 40
0.5000000000000003
 40
0.5000000000000003
 40
0.6250000000000002
 40
0.6250000000000002
 40
0.6875000000000002
 40
0.6875000000000002
 40
0.7500000000000001
 40
0.7500000000000001
 40
0.8750000000000001
 40
0.8750000000000001
 40
1.0
 40
1.0
 40
1.0
 40
1.0
 10
25.01496218414252
 20
-5.849661719301068
 30
0.0
 10
24.49129418189352
 20
-5.732234381702327
 30
0.0
 10
23.96674223458771
 20
-5.59487201813986
 30
0.0
 10
22.80798313475981
 20
-5.248982283672511
 30
0.0
 10
22.16238009351173
 20
-5.030043806050827
 30
0.0
 10
21.20422012750373
 20
-4.666188120411825
 30
0.0
 10
20.88590073255671
 20
-4.53897246345695
 30
0.0
 10
20.24474130415842
 20
-4.27272360605442
 30
0.0
 10
19.92330448700898
 20
-4.133865368110605
 30
0.0
 10
19.28239019806978
 20
-3.846272311941682
 30
0.0
 10
18.96437250093624
 20
-3.69777714619164
 30
0.0
 10
18.32516011134931
 20
-3.391299350161702
 30
0.0
 10
18.0039677325309
 20
-3.233298408931375
 30
0.0
 10
17.04112847025425
 20
-2.747663286311294
 30
0.0
 10
16.40513432641961
 20
-2.409280181535038
 30
0.0
 10
15.44257976726396
 20
-1.884439067830002
 30
0.0
 10
15.12124365939741
 20
-1.706777557760155
 30
0.0
 10
14.48127199952825
 20
-1.348067700396889
 30
0.0
 10
14.1635514509158
 20
-1.167199084494293
 30
0.0
 10
13.20303240058223
 20
-0.6194474307475701
 30
0.0
 10
12.5599967634148
 20
-0.2487452508728651
 30
0.0
 10
11.28433668355297
 20
0.4894525725943879
 30
0.0
 10
10.63873061411169
 20
0.8594265196605804
 30
0.0
 10
9.999999999999034
 20
1.221874243972358
 30
0.0
  0
DIMENSION
  5
27A
102
{ACAD_REACTORS
102
}
102
{ACAD_XDICTIONARY
360
27B
102
}
330
1F
100
AcDbEntity
  8
치수문자_일반주서
100
AcDbDimension
  2
*D18
 10
23.589
 20
-4.062925071276101
 30
0.0
 11
38.05174305002146
 21
-23.74099700506972
 31
0.0
 70
   164
  1
<>
 71
     5
 42
2.286000000000004
  3
SLDDIMSTYLE0
100
AcDbRadialDimension
 15
24.94281401903461
 25
-5.904930392078775
 35
0.0
 40
0.0
1001
ACAD
1000
DSTYLE
1002
{
1070
   171
1070
     3
1002
}
1001
ACAD_DSTYLE_DIMRADIAL_EXTENSION
1070
   387
1070
     1
1070
   388
1040
4.71238898038469
1070
   390
1040
0.0000001146359562
  0
ENDSEC
  0
SECTION
  2
OBJECTS
  0
DICTIONARY
  5
C
330
0
100
AcDbDictionary
281
     1
  3
ACAD_GROUP
350
D
  3
ACAD_IMAGE_VARS
350
150
  3
ACAD_LAYOUT
350
1A
  3
ACAD_MLINESTYLE
350
17
  3
ACAD_PLOTSETTINGS
350
19
  3
ACAD_PLOTSTYLENAME
350
E
  3
ACAD_SCALELIST
350
47
  3
APPDATA
350
14E
  3
DWGPROPS
350
287
  0
DICTIONARY
  5
1F9
330
2
100
AcDbDictionary
280
     1
281
     1
  3
ACAD_LAYERSTATES
360
1FA
  0
DICTIONARY
  5
27B
330
27A
100
AcDbDictionary
280
     1
281
     1
  0
DICTIONARY
  5
D
102
{ACAD_REACTORS
330
C
102
}
330
C
100
AcDbDictionary
281
     1
  0
RASTERVARIABLES
  5
150
102
{ACAD_REACTORS
330
C
102
}
330
C
100
AcDbRasterVariables
 90
        0
 70
     1
 71
     1
 72
     1
  0
DICTIONARY
  5
1A
102
{ACAD_REACTORS
330
C
102
}
330
C
100
AcDbDictionary
281
     1
  3
Layout1
350
1E
  3
Layout2
350
26
  3
Model
350
22
  0
DICTIONARY
  5
17
102
{ACAD_REACTORS
330
C
102
}
330
C
100
AcDbDictionary
281
     1
  3
Standard
350
18
  0
DICTIONARY
  5
19
102
{ACAD_REACTORS
330
C
102
}
330
C
100
AcDbDictionary
281
     1
  0
ACDBDICTIONARYWDFLT
  5
E
102
{ACAD_REACTORS
330
C
102
}
330
C
100
AcDbDictionary
281
     1
  3
Normal
350
F
100
AcDbDictionaryWithDefault
340
F
  0
DICTIONARY
  5
47
102
{ACAD_REACTORS
330
C
102
}
330
C
100
AcDbDictionary
281
     1
  3
A0
350
48
  3
A1
350
49
  3
A2
350
4A
  3
A3
350
4B
  3
A4
350
4C
  3
A5
350
4D
  3
A6
350
4E
  3
A7
350
4F
  3
A8
350
50
  3
A9
350
51
  3
B0
350
52
  3
B1
350
53
  3
B2
350
54
  3
B3
350
55
  3
B4
350
56
  3
B5
350
57
  3
B6
350
58
  3
B7
350
59
  3
B8
350
5A
  3
B9
350
5B
  3
C0
350
5C
  3
C1
350
5D
  3
C2
350
5E
  3
C3
350
5F
  3
C4
350
60
  3
C5
350
61
  3
C6
350
62
  3
C7
350
63
  3
C8
350
64
  3
C9
350
65
  3
D0
350
66
  3
D1
350
67
  3
D2
350
68
  0
DICTIONARY
  5
14E
102
{ACAD_REACTORS
330
C
102
}
330
C
100
AcDbDictionary
281
     1
  0
XRECORD
  5
287
102
{ACAD_REACTORS
330
C
102
}
330
C
100
AcDbXrecord
280
     1
  1
DWGPROPS COOKIE
  2

  3

  4

  6

  7

  8
12017012
  9

300
=
301
=
302
=
303
=
304
=
305
=
306
=
307
=
308
=
309
=
 40
0.0
 41
2458288.278896516
 42
2458295.427554016
  1

 90
        0
  0
DICTIONARY
  5
1FA
102
{ACAD_REACTORS
330
1F9
102
}
330
1F9
100
AcDbDictionary
281
     1
  0
LAYOUT
  5
1E
102
{ACAD_REACTORS
330
1A
102
}
330
1A
100
AcDbPlotSettings
  1

  2
none_device
  4

  6

 40
0.0
 41
0.0
 42
0.0
 43
0.0
 44
0.0
 45
0.0
 46
0.0
 47
0.0
 48
0.0
 49
0.0
140
0.0
141
0.0
142
1.0
143
1.0
 70
   688
 72
     1
 73
     0
 74
     5
  7

 75
    16
147
1.0
148
0.0
149
0.0
100
AcDbLayout
  1
Layout1
 70
     1
 71
     1
 10
0.0
 20
0.0
 11
420.0
 21
297.0
 12
0.0
 22
0.0
 32
0.0
 14
1.000000000000000E+20
 24
1.000000000000000E+20
 34
1.000000000000000E+20
 15
-1.000000000000000E+20
 25
-1.000000000000000E+20
 35
-1.000000000000000E+20
146
0.0
 13
0.0
 23
0.0
 33
0.0
 16
1.0
 26
0.0
 36
0.0
 17
0.0
 27
1.0
 37
0.0
 76
     0
330
1B
  0
LAYOUT
  5
26
102
{ACAD_REACTORS
330
1A
102
}
330
1A
100
AcDbPlotSettings
  1

  2
none_device
  4

  6

 40
0.0
 41
0.0
 42
0.0
 43
0.0
 44
0.0
 45
0.0
 46
0.0
 47
0.0
 48
0.0
 49
0.0
140
0.0
141
0.0
142
1.0
143
1.0
 70
   688
 72
     1
 73
     0
 74
     5
  7

 75
    16
147
1.0
148
0.0
149
0.0
100
AcDbLayout
  1
Layout2
 70
     1
 71
     2
 10
0.0
 20
0.0
 11
0.0
 21
0.0
 12
0.0
 22
0.0
 32
0.0
 14
0.0
 24
0.0
 34
0.0
 15
0.0
 25
0.0
 35
0.0
146
0.0
 13
0.0
 23
0.0
 33
0.0
 16
1.0
 26
0.0
 36
0.0
 17
0.0
 27
1.0
 37
0.0
 76
     0
330
23
  0
LAYOUT
  5
22
102
{ACAD_REACTORS
330
1A
102
}
330
1A
100
AcDbPlotSettings
  1

  2
none_device
  4
ANSI_A_(11.00_x_8.50_Inches)
  6

 40
6.35
 41
19.05
 42
6.35000508
 43
19.05000254
 44
279.4
 45
215.9
 46
135.4861801865172
 47
97.76664643656026
 48
0.0
 49
0.0
140
0.0
141
0.0
142
0.0558394260342021
143
1.0
 70
  1696
 72
     0
 73
     0
 74
     0
  7

 75
     0
147
0.0235690232323232
148
0.0
149
0.0
100
AcDbLayout
  1
Model
 70
     1
 71
     0
 10
0.0
 20
0.0
 11
420.0
 21
297.0
 12
0.0
 22
0.0
 32
0.0
 14
1.000000000000000E+20
 24
1.000000000000000E+20
 34
1.000000000000000E+20
 15
-1.000000000000000E+20
 25
-1.000000000000000E+20
 35
-1.000000000000000E+20
146
0.0
 13
0.0
 23
0.0
 33
0.0
 16
1.0
 26
0.0
 36
0.0
 17
0.0
 27
1.0
 37
0.0
 76
     0
330
1F
331
29
  0
MLINESTYLE
  5
18
102
{ACAD_REACTORS
330
17
102
}
330
17
100
AcDbMlineStyle
  2
Standard
 70
     0
  3

 62
   256
 51
90.0
 52
90.0
 71
     2
 49
0.5
 62
   256
  6
BYLAYER
 49
-0.5
 62
   256
  6
BYLAYER
  0
ACDBPLACEHOLDER
  5
F
102
{ACAD_REACTORS
330
E
102
}
330
E
  0
SCALE
  5
48
102
{ACAD_REACTORS
330
47
102
}
330
47
100
AcDbScale
 70
     0
300
1:1
140
1.0
141
1.0
290
     1
  0
SCALE
  5
49
102
{ACAD_REACTORS
330
47
102
}
330
47
100
AcDbScale
 70
     0
300
1:2
140
1.0
141
2.0
290
     0
  0
SCALE
  5
4A
102
{ACAD_REACTORS
330
47
102
}
330
47
100
AcDbScale
 70
     0
300
1:4
140
1.0
141
4.0
290
     0
  0
SCALE
  5
4B
102
{ACAD_REACTORS
330
47
102
}
330
47
100
AcDbScale
 70
     0
300
1:5
140
1.0
141
5.0
290
     0
  0
SCALE
  5
4C
102
{ACAD_REACTORS
330
47
102
}
330
47
100
AcDbScale
 70
     0
300
1:8
140
1.0
141
8.0
290
     0
  0
SCALE
  5
4D
102
{ACAD_REACTORS
330
47
102
}
330
47
100
AcDbScale
 70
     0
300
1:10
140
1.0
141
10.0
290
     0
  0
SCALE
  5
4E
102
{ACAD_REACTORS
330
47
102
}
330
47
100
AcDbScale
 70
     0
300
1:16
140
1.0
141
16.0
290
     0
  0
SCALE
  5
4F
102
{ACAD_REACTORS
330
47
102
}
330
47
100
AcDbScale
 70
     0
300
1:20
140
1.0
141
20.0
290
     0
  0
SCALE
  5
50
102
{ACAD_REACTORS
330
47
102
}
330
47
100
AcDbScale
 70
     0
300
1:30
140
1.0
141
30.0
290
     0
  0
SCALE
  5
51
102
{ACAD_REACTORS
330
47
102
}
330
47
100
AcDbScale
 70
     0
300
1:40
140
1.0
141
40.0
290
     0
  0
SCALE
  5
52
102
{ACAD_REACTORS
330
47
102
}
330
47
100
AcDbScale
 70
     0
300
1:50
140
1.0
141
50.0
290
     0
  0
SCALE
  5
53
102
{ACAD_REACTORS
330
47
102
}
330
47
100
AcDbScale
 70
     0
300
1:100
140
1.0
141
100.0
290
     0
  0
SCALE
  5
54
102
{ACAD_REACTORS
330
47
102
}
330
47
100
AcDbScale
 70
     0
300
2:1
140
2.0
141
1.0
290
     0
  0
SCALE
  5
55
102
{ACAD_REACTORS
330
47
102
}
330
47
100
AcDbScale
 70
     0
300
4:1
140
4.0
141
1.0
290
     0
  0
SCALE
  5
56
102
{ACAD_REACTORS
330
47
102
}
330
47
100
AcDbScale
 70
     0
300
8:1
140
8.0
141
1.0
290
     0
  0
SCALE
  5
57
102
{ACAD_REACTORS
330
47
102
}
330
47
100
AcDbScale
 70
     0
300
10:1
140
10.0
141
1.0
290
     0
  0
SCALE
  5
58
102
{ACAD_REACTORS
330
47
102
}
330
47
100
AcDbScale
 70
     0
300
100:1
140
100.0
141
1.0
290
     0
  0
SCALE
  5
59
102
{ACAD_REACTORS
330
47
102
}
330
47
100
AcDbScale
 70
     0
300
1/128" = 1'-0"
140
0.0078125
141
12.0
290
     0
  0
SCALE
  5
5A
102
{ACAD_REACTORS
330
47
102
}
330
47
100
AcDbScale
 70
     0
300
1/64" = 1'-0"
140
0.015625
141
12.0
290
     0
  0
SCALE
  5
5B
102
{ACAD_REACTORS
330
47
102
}
330
47
100
AcDbScale
 70
     0
300
1/32" = 1'-0"
140
0.03125
141
12.0
290
     0
  0
SCALE
  5
5C
102
{ACAD_REACTORS
330
47
102
}
330
47
100
AcDbScale
 70
     0
300
1/16" = 1'-0"
140
0.0625
141
12.0
290
     0
  0
SCALE
  5
5D
102
{ACAD_REACTORS
330
47
102
}
330
47
100
AcDbScale
 70
     0
300
3/32" = 1'-0"
140
0.09375
141
12.0
290
     0
  0
SCALE
  5
5E
102
{ACAD_REACTORS
330
47
102
}
330
47
100
AcDbScale
 70
     0
300
1/8" = 1'-0"
140
0.125
141
12.0
290
     0
  0
SCALE
  5
5F
102
{ACAD_REACTORS
330
47
102
}
330
47
100
AcDbScale
 70
     0
300
3/16" = 1'-0"
140
0.1875
141
12.0
290
     0
  0
SCALE
  5
60
102
{ACAD_REACTORS
330
47
102
}
330
47
100
AcDbScale
 70
     0
300
1/4" = 1'-0"
140
0.25
141
12.0
290
     0
  0
SCALE
  5
61
102
{ACAD_REACTORS
330
47
102
}
330
47
100
AcDbScale
 70
     0
300
3/8" = 1'-0"
140
0.375
141
12.0
290
     0
  0
SCALE
  5
62
102
{ACAD_REACTORS
330
47
102
}
330
47
100
AcDbScale
 70
     0
300
1/2" = 1'-0"
140
0.5
141
12.0
290
     0
  0
SCALE
  5
63
102
{ACAD_REACTORS
330
47
102
}
330
47
100
AcDbScale
 70
     0
300
3/4" = 1'-0"
140
0.75
141
12.0
290
     0
  0
SCALE
  5
64
102
{ACAD_REACTORS
330
47
102
}
330
47
100
AcDbScale
 70
     0
300
1" = 1'-0"
140
1.0
141
12.0
290
     0
  0
SCALE
  5
65
102
{ACAD_REACTORS
330
47
102
}
330
47
100
AcDbScale
 70
     0
300
1-1/2" = 1'-0"
140
1.5
141
12.0
290
     0
  0
SCALE
  5
66
102
{ACAD_REACTORS
330
47
102
}
330
47
100
AcDbScale
 70
     0
300
3" = 1'-0"
140
3.0
141
12.0
290
     0
  0
SCALE
  5
67
102
{ACAD_REACTORS
330
47
102
}
330
47
100
AcDbScale
 70
     0
300
6" = 1'-0"
140
6.0
141
12.0
290
     0
  0
SCALE
  5
68
102
{ACAD_REACTORS
330
47
102
}
330
47
100
AcDbScale
 70
     0
300
1'-0" = 1'-0"
140
12.0
141
12.0
290
     0
  0
ENDSEC
  0
EOF
