  0
SECTION
  2
HEADER
  9
$ACADVER
  1
AC1015
  9
$ACADMAINTVER
 70
     6
  9
$DWGCODEPAGE
  3
ANSI_949
  9
$INSBASE
 10
0.0
 20
0.0
 30
0.0
  9
$EXTMIN
 10
-67.20000000000006
 20
-49.97073246008785
 30
0.0
  9
$EXTMAX
 10
96.00561285443833
 20
39.51652604942043
 30
0.0
  9
$LIMMIN
 10
0.0
 20
0.0
  9
$LIMMAX
 10
420.0
 20
297.0
  9
$ORTHOMODE
 70
     1
  9
$REGENMODE
 70
     1
  9
$FILLMODE
 70
     1
  9
$QTEXTMODE
 70
     0
  9
$MIRRTEXT
 70
     1
  9
$LTSCALE
 40
1.0
  9
$ATTMODE
 70
     1
  9
$TEXTSIZE
 40
3.5
  9
$TRACEWID
 40
1.0
  9
$TEXTSTYLE
  7
Standard
  9
$CLAYER
  8
0
  9
$CELTYPE
  6
ByLayer
  9
$CECOLOR
 62
   256
  9
$CELTSCALE
 40
1.0
  9
$DISPSILH
 70
     0
  9
$DIMSCALE
 40
1.0
  9
$DIMASZ
 40
3.302
  9
$DIMEXO
 40
1.0
  9
$DIMDLI
 40
3.75
  9
$DIMRND
 40
0.0
  9
$DIMDLE
 40
0.0
  9
$DIMEXE
 40
1.0
  9
$DIMTP
 40
0.0
  9
$DIMTM
 40
0.0
  9
$DIMTXT
 40
3.5
  9
$DIMCEN
 40
2.5
  9
$DIMTSZ
 40
0.0
  9
$DIMTOL
 70
     0
  9
$DIMLIM
 70
     0
  9
$DIMTIH
 70
     1
  9
$DIMTOH
 70
     1
  9
$DIMSE1
 70
     0
  9
$DIMSE2
 70
     0
  9
$DIMTAD
 70
     1
  9
$DIMZIN
 70
     0
  9
$DIMBLK
  1

  9
$DIMASO
 70
     1
  9
$DIMSHO
 70
     1
  9
$DIMPOST
  1

  9
$DIMAPOST
  1

  9
$DIMALT
 70
     0
  9
$DIMALTD
 70
     3
  9
$DIMALTF
 40
0.0393700787401575
  9
$DIMLFAC
 40
1.0
  9
$DIMTOFL
 70
     1
  9
$DIMTVP
 40
0.0
  9
$DIMTIX
 70
     0
  9
$DIMSOXD
 70
     0
  9
$DIMSAH
 70
     0
  9
$DIMBLK1
  1

  9
$DIMBLK2
  1

  9
$DIMSTYLE
  2
ISO-25
  9
$DIMCLRD
 70
     0
  9
$DIMCLRE
 70
     0
  9
$DIMCLRT
 70
     0
  9
$DIMTFAC
 40
1.0
  9
$DIMGAP
 40
1.524
  9
$DIMJUST
 70
     0
  9
$DIMSD1
 70
     0
  9
$DIMSD2
 70
     0
  9
$DIMTOLJ
 70
     0
  9
$DIMTZIN
 70
     0
  9
$DIMALTZ
 70
     0
  9
$DIMALTTZ
 70
     0
  9
$DIMUPT
 70
     0
  9
$DIMDEC
 70
     2
  9
$DIMTDEC
 70
     2
  9
$DIMALTU
 70
     2
  9
$DIMALTTD
 70
     3
  9
$DIMTXSTY
  7
Standard
  9
$DIMAUNIT
 70
     0
  9
$DIMADEC
 70
     2
  9
$DIMALTRND
 40
0.0
  9
$DIMAZIN
 70
     0
  9
$DIMDSEP
 70
    44
  9
$DIMATFIT
 70
     3
  9
$DIMFRAC
 70
     0
  9
$DIMLDRBLK
  1

  9
$DIMLUNIT
 70
     2
  9
$DIMLWD
 70
    -2
  9
$DIMLWE
 70
    -2
  9
$DIMTMOVE
 70
     0
  9
$LUNITS
 70
     2
  9
$LUPREC
 70
     2
  9
$SKETCHINC
 40
1.0
  9
$FILLETRAD
 40
10.0
  9
$AUNITS
 70
     0
  9
$AUPREC
 70
     2
  9
$MENU
  1
.
  9
$ELEVATION
 40
0.0
  9
$PELEVATION
 40
0.0
  9
$THICKNESS
 40
0.0
  9
$LIMCHECK
 70
     0
  9
$CHAMFERA
 40
0.0
  9
$CHAMFERB
 40
0.0
  9
$CHAMFERC
 40
0.0
  9
$CHAMFERD
 40
0.0
  9
$SKPOLY
 70
     0
  9
$TDCREATE
 40
2458288.652951481
  9
$TDUCREATE
 40
2458288.277951481
  9
$TDUPDATE
 40
2458295.797273275
  9
$TDUUPDATE
 40
2458295.422273275
  9
$TDINDWG
 40
0.000476169
  9
$TDUSRTIMER
 40
2458295.422221459
  9
$USRTIMER
 70
     1
  9
$ANGBASE
 50
0.0
  9
$ANGDIR
 70
     0
  9
$PDMODE
 70
     0
  9
$PDSIZE
 40
-1.0
  9
$PLINEWID
 40
0.0
  9
$SPLFRAME
 70
     0
  9
$SPLINETYPE
 70
     6
  9
$SPLINESEGS
 70
     8
  9
$HANDSEED
  5
2F1
  9
$SURFTAB1
 70
     6
  9
$SURFTAB2
 70
     6
  9
$SURFTYPE
 70
     6
  9
$SURFU
 70
     6
  9
$SURFV
 70
     6
  9
$UCSBASE
  2

  9
$UCSNAME
  2

  9
$UCSORG
 10
0.0
 20
0.0
 30
0.0
  9
$UCSXDIR
 10
1.0
 20
0.0
 30
0.0
  9
$UCSYDIR
 10
0.0
 20
1.0
 30
0.0
  9
$UCSORTHOREF
  2

  9
$UCSORTHOVIEW
 70
     0
  9
$UCSORGTOP
 10
0.0
 20
0.0
 30
0.0
  9
$UCSORGBOTTOM
 10
0.0
 20
0.0
 30
0.0
  9
$UCSORGLEFT
 10
0.0
 20
0.0
 30
0.0
  9
$UCSORGRIGHT
 10
0.0
 20
0.0
 30
0.0
  9
$UCSORGFRONT
 10
0.0
 20
0.0
 30
0.0
  9
$UCSORGBACK
 10
0.0
 20
0.0
 30
0.0
  9
$PUCSBASE
  2

  9
$PUCSNAME
  2

  9
$PUCSORG
 10
0.0
 20
0.0
 30
0.0
  9
$PUCSXDIR
 10
1.0
 20
0.0
 30
0.0
  9
$PUCSYDIR
 10
0.0
 20
1.0
 30
0.0
  9
$PUCSORTHOREF
  2

  9
$PUCSORTHOVIEW
 70
     0
  9
$PUCSORGTOP
 10
0.0
 20
0.0
 30
0.0
  9
$PUCSORGBOTTOM
 10
0.0
 20
0.0
 30
0.0
  9
$PUCSORGLEFT
 10
0.0
 20
0.0
 30
0.0
  9
$PUCSORGRIGHT
 10
0.0
 20
0.0
 30
0.0
  9
$PUCSORGFRONT
 10
0.0
 20
0.0
 30
0.0
  9
$PUCSORGBACK
 10
0.0
 20
0.0
 30
0.0
  9
$USERI1
 70
     0
  9
$USERI2
 70
     0
  9
$USERI3
 70
     0
  9
$USERI4
 70
     0
  9
$USERI5
 70
     0
  9
$USERR1
 40
0.0
  9
$USERR2
 40
0.0
  9
$USERR3
 40
0.0
  9
$USERR4
 40
0.0
  9
$USERR5
 40
0.0
  9
$WORLDVIEW
 70
     1
  9
$SHADEDGE
 70
     3
  9
$SHADEDIF
 70
    70
  9
$TILEMODE
 70
     1
  9
$MAXACTVP
 70
    64
  9
$PINSBASE
 10
0.0
 20
0.0
 30
0.0
  9
$PLIMCHECK
 70
     0
  9
$PEXTMIN
 10
1.000000000000000E+20
 20
1.000000000000000E+20
 30
1.000000000000000E+20
  9
$PEXTMAX
 10
-1.000000000000000E+20
 20
-1.000000000000000E+20
 30
-1.000000000000000E+20
  9
$PLIMMIN
 10
0.0
 20
0.0
  9
$PLIMMAX
 10
0.0
 20
0.0
  9
$UNITMODE
 70
     0
  9
$VISRETAIN
 70
     1
  9
$PLINEGEN
 70
     0
  9
$PSLTSCALE
 70
     1
  9
$TREEDEPTH
 70
  3020
  9
$CMLSTYLE
  2
Standard
  9
$CMLJUST
 70
     0
  9
$CMLSCALE
 40
20.0
  9
$PROXYGRAPHICS
 70
     1
  9
$MEASUREMENT
 70
     1
  9
$CELWEIGHT
370
    -1
  9
$ENDCAPS
280
     0
  9
$JOINSTYLE
280
     0
  9
$LWDISPLAY
290
     1
  9
$INSUNITS
 70
     4
  9
$HYPERLINKBASE
  1

  9
$STYLESHEET
  1

  9
$XEDIT
290
     1
  9
$CEPSNTYPE
380
     0
  9
$PSTYLEMODE
290
     1
  9
$FINGERPRINTGUID
  2
{34BB2280-9F4D-40C1-92B2-13F3A091794C}
  9
$VERSIONGUID
  2
{FAEB1C32-E019-11D5-929B-00C0DF256EC4}
  9
$EXTNAMES
290
     1
  9
$PSVPSCALE
 40
0.0
  9
$OLESTARTUP
290
     0
  0
ENDSEC
  0
SECTION
  2
CLASSES
  0
CLASS
  1
ACDBDICTIONARYWDFLT
  2
AcDbDictionaryWithDefault
  3
ObjectDBX Classes
 90
        0
280
     0
281
     0
  0
CLASS
  1
VISUALSTYLE
  2
AcDbVisualStyle
  3
ObjectDBX Classes
 90
     4095
280
     0
281
     0
  0
CLASS
  1
MATERIAL
  2
AcDbMaterial
  3
ObjectDBX Classes
 90
     1153
280
     0
281
     0
  0
CLASS
  1
SCALE
  2
AcDbScale
  3
ObjectDBX Classes
 90
     1153
280
     0
281
     0
  0
CLASS
  1
SUN
  2
AcDbSun
  3
SCENEOE
 90
     1153
280
     0
281
     0
  0
CLASS
  1
ACDBPLACEHOLDER
  2
AcDbPlaceHolder
  3
ObjectDBX Classes
 90
        0
280
     0
281
     0
  0
CLASS
  1
LAYOUT
  2
AcDbLayout
  3
ObjectDBX Classes
 90
        0
280
     0
281
     0
  0
CLASS
  1
TABLESTYLE
  2
AcDbTableStyle
  3
ObjectDBX Classes
 90
     4095
280
     0
281
     0
  0
CLASS
  1
MLEADERSTYLE
  2
AcDbMLeaderStyle
  3
ACDB_MLEADERSTYLE_CLASS
 90
     4095
280
     0
281
     0
  0
CLASS
  1
RASTERVARIABLES
  2
AcDbRasterVariables
  3
ISM
 90
        0
280
     0
281
     0
  0
CLASS
  1
DIMASSOC
  2
AcDbDimAssoc
  3
"AcDbDimAssoc|Product Desc:     AcDim ARX App For Dimension|Company:          Autodesk, Inc.|WEB Address:      www.autodesk.com"
 90
        0
280
     0
281
     0
  0
ENDSEC
  0
SECTION
  2
TABLES
  0
TABLE
  2
VPORT
  5
8
330
0
100
AcDbSymbolTable
 70
     1
  0
VPORT
  5
29
330
8
100
AcDbSymbolTableRecord
100
AcDbViewportTableRecord
  2
*Active
 70
     0
 10
0.0
 20
0.0
 11
1.0
 21
1.0
 12
-21.7546151463612
 22
-18.41126749734286
 13
0.0
 23
0.0
 14
10.0
 24
10.0
 15
10.0
 25
10.0
 16
0.0
 26
0.0
 36
1.0
 17
0.0
 27
0.0
 37
0.0
 40
187.897761323505
 41
1.798434442270059
 42
50.0
 43
0.0
 44
0.0
 50
0.0
 51
0.0
 71
    16
 72
  2000
 73
     1
 74
     3
 75
     0
 76
     0
 77
     0
 78
     0
281
     0
 65
     1
110
0.0
120
0.0
130
0.0
111
1.0
121
0.0
131
0.0
112
0.0
122
1.0
132
0.0
 79
     0
146
0.0
  0
ENDTAB
  0
TABLE
  2
LTYPE
  5
5
330
0
100
AcDbSymbolTable
 70
     6
  0
LTYPE
  5
14
330
5
100
AcDbSymbolTableRecord
100
AcDbLinetypeTableRecord
  2
ByBlock
 70
     0
  3

 72
    65
 73
     0
 40
0.0
  0
LTYPE
  5
15
330
5
100
AcDbSymbolTableRecord
100
AcDbLinetypeTableRecord
  2
ByLayer
 70
     0
  3

 72
    65
 73
     0
 40
0.0
  0
LTYPE
  5
16
330
5
100
AcDbSymbolTableRecord
100
AcDbLinetypeTableRecord
  2
Continuous
 70
     0
  3
Solid line
 72
    65
 73
     0
 40
0.0
  0
LTYPE
  5
6A
330
5
100
AcDbSymbolTableRecord
100
AcDbLinetypeTableRecord
  2
HIDDEN
 70
     0
  3
Hidden __ __ __ __ __ __ __ __ __ __ __ __ __ __
 72
    65
 73
     2
 40
1.905
 49
1.27
 74
     0
 49
-0.635
 74
     0
  0
LTYPE
  5
6B
330
5
100
AcDbSymbolTableRecord
100
AcDbLinetypeTableRecord
  2
PHANTOM
 70
     0
  3
Phantom ______  __  __  ______  __  __  ______
 72
    65
 73
     6
 40
12.7
 49
6.35
 74
     0
 49
-1.27
 74
     0
 49
1.27
 74
     0
 49
-1.27
 74
     0
 49
1.27
 74
     0
 49
-1.27
 74
     0
  0
LTYPE
  5
6C
330
5
100
AcDbSymbolTableRecord
100
AcDbLinetypeTableRecord
  2
CENTER
 70
     0
  3
Center ____ _ ____ _ ____ _ ____ _ ____ _ ____
 72
    65
 73
     4
 40
10.16
 49
6.35
 74
     0
 49
-1.27
 74
     0
 49
1.27
 74
     0
 49
-1.27
 74
     0
  0
LTYPE
  5
6D
330
5
100
AcDbSymbolTableRecord
100
AcDbLinetypeTableRecord
  2
CENTERX2
 70
     0
  3
Center (2x) ________  __  ________  __  _____
 72
    65
 73
     4
 40
20.32
 49
12.7
 74
     0
 49
-2.54
 74
     0
 49
2.54
 74
     0
 49
-2.54
 74
     0
  0
LTYPE
  5
6E
330
5
100
AcDbSymbolTableRecord
100
AcDbLinetypeTableRecord
  2
DOT2
 70
     0
  3
Dot (.5x) ........................................
 72
    65
 73
     2
 40
0.635
 49
0.0
 74
     0
 49
-0.635
 74
     0
  0
ENDTAB
  0
TABLE
  2
LAYER
  5
2
102
{ACAD_XDICTIONARY
360
204
102
}
330
0
100
AcDbSymbolTable
 70
    18
  0
LAYER
  5
10
330
2
100
AcDbSymbolTableRecord
100
AcDbLayerTableRecord
  2
0
 70
     0
 62
     7
  6
Continuous
370
    -3
390
F
  0
LAYER
  5
6F
330
2
100
AcDbSymbolTableRecord
100
AcDbLayerTableRecord
  2
FORMAT
 70
     0
 62
     2
  6
Continuous
370
    -3
390
F
  0
LAYER
  5
70
330
2
100
AcDbSymbolTableRecord
100
AcDbLayerTableRecord
  2
외형선
 70
     0
 62
     4
  6
Continuous
370
    30
390
F
  0
LAYER
  5
71
330
2
100
AcDbSymbolTableRecord
100
AcDbLayerTableRecord
  2
숨은선
 70
     0
 62
     2
  6
HIDDEN
370
    15
390
F
  0
LAYER
  5
72
330
2
100
AcDbSymbolTableRecord
100
AcDbLayerTableRecord
  2
중심선
 70
     0
 62
     1
  6
CENTERX2
370
    -3
390
F
  0
LAYER
  5
73
330
2
100
AcDbSymbolTableRecord
100
AcDbLayerTableRecord
  2
파단선
 70
     0
 62
     4
  6
Continuous
370
    -3
390
F
  0
LAYER
  5
74
330
2
100
AcDbSymbolTableRecord
100
AcDbLayerTableRecord
  2
해칭선
 70
     0
 62
   100
  6
Continuous
370
    -3
390
F
  0
LAYER
  5
75
330
2
100
AcDbSymbolTableRecord
100
AcDbLayerTableRecord
  2
가는실선
 70
     0
 62
     4
  6
Continuous
370
    -3
390
F
  0
LAYER
  5
76
330
2
100
AcDbSymbolTableRecord
100
AcDbLayerTableRecord
  2
치수_보조선
 70
     0
 62
     4
  6
Continuous
370
    -3
390
F
  0
LAYER
  5
77
330
2
100
AcDbSymbolTableRecord
100
AcDbLayerTableRecord
  2
치수문자_일반주서
 70
     0
 62
     7
  6
Continuous
370
    15
390
F
  0
LAYER
  5
78
330
2
100
AcDbSymbolTableRecord
100
AcDbLayerTableRecord
  2
개별주서
 70
     0
 62
   100
  6
Continuous
370
    30
390
F
  0
LAYER
  5
79
330
2
100
AcDbSymbolTableRecord
100
AcDbLayerTableRecord
  2
중간선
 70
     0
 62
     2
  6
Continuous
370
    15
390
F
  0
LAYER
  5
7A
330
2
100
AcDbSymbolTableRecord
100
AcDbLayerTableRecord
  2
윤곽선
 70
     0
 62
     3
  6
Continuous
370
    40
390
F
  0
LAYER
  5
7B
330
2
100
AcDbSymbolTableRecord
100
AcDbLayerTableRecord
  2
중심마크
 70
     0
 62
   100
  6
Continuous
370
    30
390
F
  0
LAYER
  5
7C
330
2
100
AcDbSymbolTableRecord
100
AcDbLayerTableRecord
  2
가상선
 70
     0
 62
     4
  6
PHANTOM
370
    -3
390
F
  0
LAYER
  5
7D
330
2
100
AcDbSymbolTableRecord
100
AcDbLayerTableRecord
  2
특수지정선
 70
     0
 62
     5
  6
CENTERX2
370
    60
390
F
  0
LAYER
  5
7E
330
2
100
AcDbSymbolTableRecord
100
AcDbLayerTableRecord
  2
참조1
 70
     0
 62
    -4
  6
Continuous
370
    -3
390
F
  0
LAYER
  5
158
330
2
100
AcDbSymbolTableRecord
100
AcDbLayerTableRecord
  2
Defpoints
 70
     0
 62
     7
  6
Continuous
290
     0
370
    -3
390
F
  0
ENDTAB
  0
TABLE
  2
STYLE
  5
3
330
0
100
AcDbSymbolTable
 70
     2
  0
STYLE
  5
11
330
3
100
AcDbSymbolTableRecord
100
AcDbTextStyleTableRecord
  2
Standard
 70
     0
 40
0.0
 41
1.0
 50
0.0
 71
     0
 42
3.5
  3
txt
  4

  0
STYLE
  5
94
330
3
100
AcDbSymbolTableRecord
100
AcDbTextStyleTableRecord
  2
SLDTEXTSTYLE0
 70
     0
 40
0.0
 41
0.75
 50
0.0
 71
     0
 42
3.5
  3
TXT
  4

  0
ENDTAB
  0
TABLE
  2
VIEW
  5
6
330
0
100
AcDbSymbolTable
 70
     0
  0
ENDTAB
  0
TABLE
  2
UCS
  5
7
330
0
100
AcDbSymbolTable
 70
     0
  0
ENDTAB
  0
TABLE
  2
APPID
  5
9
330
0
100
AcDbSymbolTable
 70
     2
  0
APPID
  5
12
330
9
100
AcDbSymbolTableRecord
100
AcDbRegAppTableRecord
  2
ACAD
 70
     0
  0
APPID
  5
163
330
9
100
AcDbSymbolTableRecord
100
AcDbRegAppTableRecord
  2
ACAD_DSTYLE_DIMRADIAL_EXTENSION
 70
     0
  0
ENDTAB
  0
TABLE
  2
DIMSTYLE
  5
A
330
0
100
AcDbSymbolTable
 70
     3
100
AcDbDimStyleTable
  0
DIMSTYLE
105
27
330
A
100
AcDbSymbolTableRecord
100
AcDbDimStyleTableRecord
  2
ISO-25
 70
     0
 41
2.5
 42
0.625
 43
3.75
 44
1.25
 73
     0
 74
     0
 77
     1
 78
     8
140
2.5
141
2.5
143
0.03937007874016
147
0.625
171
     3
172
     1
178
     0
271
     2
272
     2
274
     3
278
    44
283
     0
284
     8
340
11
  0
DIMSTYLE
105
D5
102
{ACAD_REACTORS
330
272
330
273
330
274
330
275
330
2C0
102
}
330
A
100
AcDbSymbolTableRecord
100
AcDbDimStyleTableRecord
  2
SLDDIMSTYLE0
 70
     0
 41
3.302
 44
0.0
 45
0.000000001
 73
     0
 74
     0
 77
     1
 78
    12
 79
     3
140
3.5
143
0.0393700787401575
147
0.875
148
0.000000001
170
     1
172
     1
173
     1
178
     0
271
     2
272
     2
276
     2
284
    12
289
     0
340
94
  0
DIMSTYLE
105
EA
330
A
100
AcDbSymbolTableRecord
100
AcDbDimStyleTableRecord
  2
SLDDIMSTYLE1
 70
     0
 41
3.302
 44
0.0
 45
0.000000001
 73
     0
 74
     0
 77
     1
 78
     4
 79
     1
140
3.5
143
0.0393700787401575
147
0.875
148
0.000000001
170
     1
173
     1
178
     0
271
     2
272
     2
276
     2
284
    12
340
94
  0
ENDTAB
  0
TABLE
  2
BLOCK_RECORD
  5
1
330
0
100
AcDbSymbolTable
 70
    18
  0
BLOCK_RECORD
  5
1F
330
1
100
AcDbSymbolTableRecord
100
AcDbBlockTableRecord
  2
*Model_Space
340
22
  0
BLOCK_RECORD
  5
1B
330
1
100
AcDbSymbolTableRecord
100
AcDbBlockTableRecord
  2
*Paper_Space
340
1E
  0
BLOCK_RECORD
  5
23
330
1
100
AcDbSymbolTableRecord
100
AcDbBlockTableRecord
  2
*Paper_Space0
340
26
  0
BLOCK_RECORD
  5
7F
330
1
100
AcDbSymbolTableRecord
100
AcDbBlockTableRecord
  2
블럭10
340
0
102
{BLKREFS
331
CD
102
}
  0
BLOCK_RECORD
  5
D6
330
1
100
AcDbSymbolTableRecord
100
AcDbBlockTableRecord
  2
_D
340
0
  0
BLOCK_RECORD
  5
EB
330
1
100
AcDbSymbolTableRecord
100
AcDbBlockTableRecord
  2
_D_1
340
0
  0
BLOCK_RECORD
  5
FE
330
1
100
AcDbSymbolTableRecord
100
AcDbBlockTableRecord
  2
_D_2
340
0
  0
BLOCK_RECORD
  5
113
330
1
100
AcDbSymbolTableRecord
100
AcDbBlockTableRecord
  2
_D_3
340
0
  0
BLOCK_RECORD
  5
12C
330
1
100
AcDbSymbolTableRecord
100
AcDbBlockTableRecord
  2
SW_DOWELSYMBOL_0
340
0
102
{BLKREFS
331
276
102
}
  0
BLOCK_RECORD
  5
1FB
330
1
100
AcDbSymbolTableRecord
100
AcDbBlockTableRecord
  2
*D7
340
0
  0
BLOCK_RECORD
  5
208
330
1
100
AcDbSymbolTableRecord
100
AcDbBlockTableRecord
  2
*D8
340
0
  0
BLOCK_RECORD
  5
214
330
1
100
AcDbSymbolTableRecord
100
AcDbBlockTableRecord
  2
*D9
340
0
  0
BLOCK_RECORD
  5
223
330
1
100
AcDbSymbolTableRecord
100
AcDbBlockTableRecord
  2
*D10
340
0
  0
BLOCK_RECORD
  5
232
330
1
100
AcDbSymbolTableRecord
100
AcDbBlockTableRecord
  2
*D11
340
0
  0
BLOCK_RECORD
  5
27C
330
1
100
AcDbSymbolTableRecord
100
AcDbBlockTableRecord
  2
*D12
340
0
  0
BLOCK_RECORD
  5
288
330
1
100
AcDbSymbolTableRecord
100
AcDbBlockTableRecord
  2
*D13
340
0
  0
BLOCK_RECORD
  5
297
330
1
100
AcDbSymbolTableRecord
100
AcDbBlockTableRecord
  2
*D14
340
0
  0
BLOCK_RECORD
  5
2A6
330
1
100
AcDbSymbolTableRecord
100
AcDbBlockTableRecord
  2
*D15
340
0
  0
BLOCK_RECORD
  5
2B2
330
1
100
AcDbSymbolTableRecord
100
AcDbBlockTableRecord
  2
*D16
340
0
  0
BLOCK_RECORD
  5
2C3
330
1
100
AcDbSymbolTableRecord
100
AcDbBlockTableRecord
  2
*D17
340
0
  0
ENDTAB
  0
ENDSEC
  0
SECTION
  2
BLOCKS
  0
BLOCK
  5
20
330
1F
100
AcDbEntity
  8
0
100
AcDbBlockBegin
  2
*Model_Space
 70
     0
 10
0.0
 20
0.0
 30
0.0
  3
*Model_Space
  1
*Model_Space
  0
ENDBLK
  5
21
330
1F
100
AcDbEntity
  8
0
100
AcDbBlockEnd
  0
BLOCK
  5
1C
330
1B
100
AcDbEntity
 67
     1
  8
0
100
AcDbBlockBegin
  2
*Paper_Space
 70
     0
 10
0.0
 20
0.0
 30
0.0
  3
*Paper_Space
  1
*Paper_Space
  0
ENDBLK
  5
1D
330
1B
100
AcDbEntity
 67
     1
  8
0
100
AcDbBlockEnd
  0
BLOCK
  5
24
330
23
100
AcDbEntity
  8
0
100
AcDbBlockBegin
  2
*Paper_Space0
 70
     0
 10
0.0
 20
0.0
 30
0.0
  3
*Paper_Space0
  1
*Paper_Space0
  0
ENDBLK
  5
25
330
23
100
AcDbEntity
  8
0
100
AcDbBlockEnd
  0
BLOCK
  5
80
330
7F
100
AcDbEntity
  8
0
100
AcDbBlockBegin
  2
블럭10
 70
     2
 10
0.0
 20
0.0
 30
0.0
  3
블럭10
  1
블럭10
  0
ELLIPSE
  5
82
330
7F
100
AcDbEntity
  8
중심선
100
AcDbEllipse
 10
20.54032771741204
 20
12.0471743016438
 30
0.0
 11
6.600054785286829
 21
-1.261213355974178E-13
 31
0.0
210
0.0
220
0.0
230
1.0
 40
0.636358354079598
 41
0.9219305317359503
 42
6.513795318482858
  0
ELLIPSE
  5
83
330
7F
100
AcDbEntity
  8
중심선
100
AcDbEllipse
 10
20.54032771746488
 20
12.04717430159265
 30
0.0
 11
3.960054785062283
 21
1.540847449632565E-10
 31
0.0
210
0.0
220
0.0
230
1.0
 40
0.3939339440162632
 41
1.131841032648279
 42
5.62031148352944
  0
LINE
  5
84
330
7F
100
AcDbEntity
  8
중심선
100
AcDbLine
 10
2.268634060543552
 20
16.24717430164393
 30
0.0
 11
5.714909304380834
 21
16.24717430164393
 31
0.0
  0
LINE
  5
85
330
7F
100
AcDbEntity
  8
중심선
100
AcDbLine
 10
5.245725140726316
 20
7.84717430164391
 30
0.0
 11
8.692000384563599
 21
7.84717430164391
 31
0.0
  0
LINE
  5
86
330
7F
100
AcDbEntity
  8
중심선
100
AcDbLine
 10
15.74043728645272
 20
16.24717430164393
 30
0.0
 11
8.692000384563599
 21
7.84717430164391
 31
0.0
  0
LINE
  5
87
330
7F
100
AcDbEntity
  8
중심선
100
AcDbLine
 10
0.1404042013395286
 20
13.71084872107135
 30
0.0
 11
3.58671253028996
 21
13.71088815037384
 31
0.0
  0
LINE
  5
88
330
7F
100
AcDbEntity
  8
중심선
100
AcDbLine
 10
2.750260043222114
 20
10.84717430164391
 30
0.0
 11
6.196535287059397
 21
10.84717430164391
 31
0.0
  0
LINE
  5
89
330
7F
100
AcDbEntity
  8
중심선
100
AcDbLine
 10
12.29416204261559
 20
16.24717430164393
 30
0.0
 11
5.245725140726316
 21
7.84717430164391
 31
0.0
  0
LINE
  5
8A
330
7F
100
AcDbEntity
  8
중심선
100
AcDbLine
 10
10.72767329541681
 20
16.24717430164393
 30
0.0
 11
6.196535287059397
 21
10.84717430164391
 31
0.0
  0
LINE
  5
8B
330
7F
100
AcDbEntity
  8
중심선
100
AcDbLine
 10
7.28139805157953
 20
16.24717430164393
 30
0.0
 11
2.750260043222114
 21
10.84717430164391
 31
0.0
  0
LINE
  5
8C
330
7F
100
AcDbEntity
  8
중심선
100
AcDbLine
 10
5.714909304380834
 20
16.24717430164393
 30
0.0
 11
3.58671253028996
 21
13.71088815037384
 31
0.0
  0
LINE
  5
8D
330
7F
100
AcDbEntity
  8
중심선
100
AcDbLine
 10
2.268634060543552
 20
16.24717430164393
 30
0.0
 11
0.1404042013395286
 21
13.71084872107135
 31
0.0
  0
LINE
  5
8E
330
7F
100
AcDbEntity
  8
중심선
100
AcDbLine
 10
7.28139805157953
 20
16.24717430164393
 30
0.0
 11
10.72767329541681
 21
16.24717430164393
 31
0.0
  0
LINE
  5
8F
330
7F
100
AcDbEntity
  8
중심선
100
AcDbLine
 10
12.29416204261559
 20
16.24717430164393
 30
0.0
 11
15.74043728645272
 21
16.24717430164393
 31
0.0
  0
LINE
  5
90
330
7F
100
AcDbEntity
  8
중심선
100
AcDbLine
 10
19.22036997980202
 20
11.08717430171403
 30
0.0
 11
23.66174974927406
 21
11.08717430171406
 31
0.0
  0
LINE
  5
91
330
7F
100
AcDbEntity
  8
중심선
100
AcDbLine
 10
19.22039502424796
 20
13.00717430171391
 30
0.0
 11
19.22036997980202
 21
11.08717430171403
 31
0.0
  0
LINE
  5
92
330
7F
100
AcDbEntity
  8
중심선
100
AcDbLine
 10
19.22039502424796
 20
13.00717430171391
 30
0.0
 11
26.96566020931264
 21
13.00717430171391
 31
0.0
  0
LINE
  5
93
330
7F
100
AcDbEntity
  8
중심선
100
AcDbLine
 10
22.22332737316547
 20
13.45928029700563
 30
0.0
 11
24.52862924686651
 21
15.39360700705356
 31
0.0
  0
ATTDEF
  5
95
330
7F
100
AcDbEntity
  8
FORMAT
 62
     2
100
AcDbText
 10
3.448148490846466
 20
2.075366912832191
 30
0.0
 40
4.233333333333333
  1
EM636910
 41
0.75
  7
SLDTEXTSTYLE0
 11
3.448148490846466
 21
-0.0412997538344756
 31
0.0
100
AcDbAttributeDefinition
  3

  2
AUTOATTR0
 70
     0
 74
     1
  0
ENDBLK
  5
81
330
7F
100
AcDbEntity
  8
0
100
AcDbBlockEnd
  0
BLOCK
  5
D7
330
D6
100
AcDbEntity
  8
0
100
AcDbBlockBegin
  2
_D
 70
     0
 10
0.0
 20
0.0
 30
0.0
  3
_D
  1
_D
  0
SOLID
  5
D9
330
D6
100
AcDbEntity
  8
치수문자_일반주서
100
AcDbTrace
 10
-62.82500000000002
 20
4.763574928723895
 30
0.0
 11
-62.31700000000001
 21
8.065574928723894
 31
0.0
 12
-63.33300000000002
 22
8.065574928723894
 32
0.0
 13
-63.33300000000002
 23
8.065574928723894
 33
0.0
  0
SOLID
  5
DA
330
D6
100
AcDbEntity
  8
치수문자_일반주서
100
AcDbTrace
 10
-62.82500000000002
 20
-4.76142507127611
 30
0.0
 11
-63.33300000000002
 21
-8.06342507127611
 31
0.0
 12
-62.31700000000001
 22
-8.06342507127611
 32
0.0
 13
-62.31700000000001
 23
-8.06342507127611
 33
0.0
  0
LINE
  5
DB
330
D6
100
AcDbEntity
  8
치수문자_일반주서
100
AcDbLine
 10
-73.61788171604273
 20
-5.413291502344814
 30
0.0
 11
-73.61788171604273
 21
-6.124228987909314
 31
0.0
  0
LINE
  5
DC
330
D6
100
AcDbEntity
  8
치수문자_일반주서
100
AcDbLine
 10
-73.61788171604273
 20
-6.124228987909314
 30
0.0
 11
-68.06163172498343
 21
-6.124228987909275
 31
0.0
  0
LINE
  5
DD
330
D6
100
AcDbEntity
  8
치수문자_일반주서
100
AcDbLine
 10
-68.06163172498343
 20
-6.124228987909275
 30
0.0
 11
-68.06163172498343
 21
-5.413291502344775
 31
0.0
  0
LINE
  5
DE
330
D6
100
AcDbEntity
  8
치수문자_일반주서
100
AcDbLine
 10
-73.61788171604282
 20
5.415441359792444
 30
0.0
 11
-73.61788171604282
 21
6.126378845356944
 31
0.0
  0
LINE
  5
DF
330
D6
100
AcDbEntity
  8
치수문자_일반주서
100
AcDbLine
 10
-73.61788171604282
 20
6.126378845356944
 30
0.0
 11
-68.06163172498351
 21
6.126378845356983
 31
0.0
  0
LINE
  5
E0
330
D6
100
AcDbEntity
  8
치수문자_일반주서
100
AcDbLine
 10
-68.06163172498351
 20
6.126378845356983
 30
0.0
 11
-68.06163172498351
 21
5.415441359792483
 31
0.0
  0
LINE
  5
E1
330
D6
100
AcDbEntity
  8
치수문자_일반주서
100
AcDbLine
 10
-50.325
 20
4.763574928723896
 30
0.0
 11
-63.82500000000002
 21
4.763574928723895
 31
0.0
  0
LINE
  5
E2
330
D6
100
AcDbEntity
  8
치수문자_일반주서
100
AcDbLine
 10
-50.325
 20
-4.761425071276109
 30
0.0
 11
-63.82500000000002
 21
-4.76142507127611
 31
0.0
  0
LINE
  5
E3
330
D6
100
AcDbEntity
  8
치수문자_일반주서
100
AcDbLine
 10
-62.82500000000002
 20
4.763574928723895
 30
0.0
 11
-62.82500000000002
 21
11.11357492872389
 31
0.0
  0
LINE
  5
E4
330
D6
100
AcDbEntity
  8
치수문자_일반주서
100
AcDbLine
 10
-62.82500000000002
 20
4.763574928723895
 30
0.0
 11
-62.82500000000002
 21
-4.76142507127611
 31
0.0
  0
LINE
  5
E5
330
D6
100
AcDbEntity
  8
치수문자_일반주서
100
AcDbLine
 10
-62.82500000000002
 20
-4.76142507127611
 30
0.0
 11
-62.82500000000002
 21
-11.11142507127611
 31
0.0
  0
MTEXT
  5
E6
330
D6
100
AcDbEntity
  8
치수문자_일반주서
100
AcDbMText
 10
-72.57336863956235
 20
-4.524619601733436
 30
0.0
 40
3.5
 41
0.0
 71
     1
 72
     1
  1
0.38
  7
SLDTEXTSTYLE0
 11
-7.044195017643634E-15
 21
1.0
 31
0.0
 73
     1
 44
1.0
  0
MTEXT
  5
E7
330
D6
100
AcDbEntity
  8
치수문자_일반주서
100
AcDbMText
 10
-67.33673708920185
 20
-7.163838766581727
 30
0.0
 40
3.5
 41
0.0
 71
     1
 72
     1
  1
%%c
  7
SLDTEXTSTYLE0
 11
-7.044195017643634E-15
 21
1.0
 31
0.0
 73
     1
 44
1.0
  0
MTEXT
  5
E8
330
D6
100
AcDbEntity
  8
치수문자_일반주서
100
AcDbMText
 10
-67.33673708920189
 20
-1.885401368207646
 30
0.0
 40
3.5
 41
0.0
 71
     1
 72
     1
  1
9.53
  7
SLDTEXTSTYLE0
 11
-7.044195017643634E-15
 21
1.0
 31
0.0
 73
     1
 44
1.0
  0
ENDBLK
  5
D8
330
D6
100
AcDbEntity
  8
0
100
AcDbBlockEnd
  0
BLOCK
  5
EC
330
EB
100
AcDbEntity
  8
0
100
AcDbBlockBegin
  2
_D_1
 70
     0
 10
0.0
 20
0.0
 30
0.0
  3
_D_1
  1
_D_1
  0
SOLID
  5
EE
330
EB
100
AcDbEntity
  8
치수문자_일반주서
100
AcDbTrace
 10
64.28939220805994
 20
6.351074928723897
 30
0.0
 11
63.78139220805993
 21
3.049074928723897
 31
0.0
 12
64.79739220805993
 22
3.049074928723897
 32
0.0
 13
64.79739220805993
 23
3.049074928723897
 33
0.0
  0
SOLID
  5
EF
330
EB
100
AcDbEntity
  8
치수문자_일반주서
100
AcDbTrace
 10
64.28939220805994
 20
-6.348925071276113
 30
0.0
 11
64.79739220805993
 21
-3.046925071276114
 31
0.0
 12
63.78139220805993
 22
-3.046925071276114
 32
0.0
 13
63.78139220805993
 23
-3.046925071276114
 33
0.0
  0
LINE
  5
F0
330
EB
100
AcDbEntity
  8
치수문자_일반주서
100
AcDbLine
 10
53.49651049201722
 20
20.97715961835173
 30
0.0
 11
53.49651049201722
 21
20.26622213278723
 31
0.0
  0
LINE
  5
F1
330
EB
100
AcDbEntity
  8
치수문자_일반주서
100
AcDbLine
 10
53.49651049201722
 20
20.26622213278723
 30
0.0
 11
59.05276048307653
 21
20.26622213278727
 31
0.0
  0
LINE
  5
F2
330
EB
100
AcDbEntity
  8
치수문자_일반주서
100
AcDbLine
 10
59.05276048307653
 20
20.26622213278727
 30
0.0
 11
59.05276048307652
 21
20.97715961835177
 31
0.0
  0
LINE
  5
F3
330
EB
100
AcDbEntity
  8
치수문자_일반주서
100
AcDbLine
 10
53.49651049201714
 20
31.80589248048899
 30
0.0
 11
53.49651049201714
 21
32.51682996605349
 31
0.0
  0
LINE
  5
F4
330
EB
100
AcDbEntity
  8
치수문자_일반주서
100
AcDbLine
 10
53.49651049201714
 20
32.51682996605349
 30
0.0
 11
59.05276048307644
 21
32.51682996605354
 31
0.0
  0
LINE
  5
F5
330
EB
100
AcDbEntity
  8
치수문자_일반주서
100
AcDbLine
 10
59.05276048307644
 20
32.51682996605354
 30
0.0
 11
59.05276048307645
 21
31.80589248048903
 31
0.0
  0
LINE
  5
F6
330
EB
100
AcDbEntity
  8
치수문자_일반주서
100
AcDbLine
 10
30.77706927758172
 20
6.351074928723898
 30
0.0
 11
65.28939220805994
 21
6.351074928723897
 31
0.0
  0
LINE
  5
F7
330
EB
100
AcDbEntity
  8
치수문자_일반주서
100
AcDbLine
 10
30.77706927758172
 20
-6.348925071276112
 30
0.0
 11
65.28939220805994
 21
-6.348925071276113
 31
0.0
  0
LINE
  5
F8
330
EB
100
AcDbEntity
  8
치수문자_일반주서
100
AcDbLine
 10
64.28939220805994
 20
6.351074928723897
 30
0.0
 11
64.28939220805994
 21
34.84949499224145
 31
0.0
  0
LINE
  5
F9
330
EB
100
AcDbEntity
  8
치수문자_일반주서
100
AcDbLine
 10
64.28939220805994
 20
6.351074928723897
 30
0.0
 11
64.28939220805994
 21
-6.348925071276113
 31
0.0
  0
MTEXT
  5
FA
330
EB
100
AcDbEntity
  8
치수문자_일반주서
100
AcDbMText
 10
54.54102356849762
 20
21.86583151896311
 30
0.0
 40
3.5
 41
0.0
 71
     1
 72
     1
  1
0.50
  7
SLDTEXTSTYLE0
 11
-7.044195017643634E-15
 21
1.0
 31
0.0
 73
     1
 44
1.0
  0
MTEXT
  5
FB
330
EB
100
AcDbEntity
  8
치수문자_일반주서
100
AcDbMText
 10
59.77765511885812
 20
17.93355710659938
 30
0.0
 40
3.5
 41
0.0
 71
     1
 72
     1
  1
%%c
  7
SLDTEXTSTYLE0
 11
-7.044195017643634E-15
 21
1.0
 31
0.0
 73
     1
 44
1.0
  0
MTEXT
  5
FC
330
EB
100
AcDbEntity
  8
치수문자_일반주서
100
AcDbMText
 10
59.77765511885809
 20
23.21199450497346
 30
0.0
 40
3.5
 41
0.0
 71
     1
 72
     1
  1
12.70
  7
SLDTEXTSTYLE0
 11
-7.044195017643634E-15
 21
1.0
 31
0.0
 73
     1
 44
1.0
  0
ENDBLK
  5
ED
330
EB
100
AcDbEntity
  8
0
100
AcDbBlockEnd
  0
BLOCK
  5
FF
330
FE
100
AcDbEntity
  8
0
100
AcDbBlockBegin
  2
_D_2
 70
     0
 10
0.0
 20
0.0
 30
0.0
  3
_D_2
  1
_D_2
  0
SOLID
  5
101
330
FE
100
AcDbEntity
  8
치수문자_일반주서
100
AcDbTrace
 10
25.87500000000001
 20
14.30755048907219
 30
0.0
 11
29.17700000000001
 21
13.79955048907219
 31
0.0
 12
29.17700000000001
 22
14.81555048907219
 32
0.0
 13
29.17700000000001
 23
14.81555048907219
 33
0.0
  0
SOLID
  5
102
330
FE
100
AcDbEntity
  8
치수문자_일반주서
100
AcDbTrace
 10
10.00000000000001
 20
14.30755048907218
 30
0.0
 11
6.698000000000008
 21
14.81555048907218
 31
0.0
 12
6.698000000000008
 22
13.79955048907218
 32
0.0
 13
6.698000000000008
 23
13.79955048907218
 33
0.0
  0
LINE
  5
103
330
FE
100
AcDbEntity
  8
치수문자_일반주서
100
AcDbLine
 10
12.55651330176026
 20
25.10043220511497
 30
0.0
 11
11.84557581619576
 21
25.10043220511496
 31
0.0
  0
LINE
  5
104
330
FE
100
AcDbEntity
  8
치수문자_일반주서
100
AcDbLine
 10
11.84557581619576
 20
25.10043220511496
 30
0.0
 11
11.8455758161958
 21
19.54418221405566
 31
0.0
  0
LINE
  5
105
330
FE
100
AcDbEntity
  8
치수문자_일반주서
100
AcDbLine
 10
11.8455758161958
 20
19.54418221405566
 30
0.0
 11
12.5565133017603
 21
19.54418221405566
 31
0.0
  0
LINE
  5
106
330
FE
100
AcDbEntity
  8
치수문자_일반주서
100
AcDbLine
 10
23.38524616389752
 20
25.10043220511504
 30
0.0
 11
24.09618364946202
 21
25.10043220511505
 31
0.0
  0
LINE
  5
107
330
FE
100
AcDbEntity
  8
치수문자_일반주서
100
AcDbLine
 10
24.09618364946202
 20
25.10043220511505
 30
0.0
 11
24.09618364946206
 21
19.54418221405575
 31
0.0
  0
LINE
  5
108
330
FE
100
AcDbEntity
  8
치수문자_일반주서
100
AcDbLine
 10
24.09618364946206
 20
19.54418221405575
 30
0.0
 11
23.38524616389756
 21
19.54418221405574
 31
0.0
  0
LINE
  5
109
330
FE
100
AcDbEntity
  8
치수문자_일반주서
100
AcDbLine
 10
25.87500000000002
 20
4.334824928723892
 30
0.0
 11
25.87500000000001
 21
15.30755048907219
 31
0.0
  0
LINE
  5
10A
330
FE
100
AcDbEntity
  8
치수문자_일반주서
100
AcDbLine
 10
10.00000000000001
 20
4.722735383864918
 30
0.0
 11
10.00000000000001
 21
15.30755048907218
 31
0.0
  0
LINE
  5
10B
330
FE
100
AcDbEntity
  8
치수문자_일반주서
100
AcDbLine
 10
25.87500000000001
 20
14.30755048907219
 30
0.0
 11
32.22500000000001
 21
14.3075504890722
 31
0.0
  0
LINE
  5
10C
330
FE
100
AcDbEntity
  8
치수문자_일반주서
100
AcDbLine
 10
25.87500000000001
 20
14.30755048907219
 30
0.0
 11
10.00000000000001
 21
14.30755048907218
 31
0.0
  0
LINE
  5
10D
330
FE
100
AcDbEntity
  8
치수문자_일반주서
100
AcDbLine
 10
10.00000000000001
 20
14.30755048907218
 30
0.0
 11
3.650000000000007
 21
14.30755048907218
 31
0.0
  0
MTEXT
  5
10E
330
FE
100
AcDbEntity
  8
치수문자_일반주서
100
AcDbMText
 10
11.33181709070911
 20
18.87275975493393
 30
0.0
 40
3.5
 41
0.0
 71
     1
 72
     1
  1

  7
SLDTEXTSTYLE0
 73
     1
 44
1.0
  0
MTEXT
  5
10F
330
FE
100
AcDbEntity
  8
치수문자_일반주서
100
AcDbMText
 10
13.44518520237164
 20
24.05591912863456
 30
0.0
 40
3.5
 41
0.0
 71
     1
 72
     1
  1
0.63
  7
SLDTEXTSTYLE0
 73
     1
 44
1.0
  0
MTEXT
  5
110
330
FE
100
AcDbEntity
  8
치수문자_일반주서
100
AcDbMText
 10
12.15212948919495
 20
18.81928757827408
 30
0.0
 40
3.5
 41
0.0
 71
     1
 72
     1
  1
15.88
  7
SLDTEXTSTYLE0
 73
     1
 44
1.0
  0
MTEXT
  5
111
330
FE
100
AcDbEntity
  8
치수문자_일반주서
100
AcDbMText
 10
25.94188689460268
 20
18.87275975493404
 30
0.0
 40
3.5
 41
0.0
 71
     1
 72
     1
  1

  7
SLDTEXTSTYLE0
 73
     1
 44
1.0
  0
ENDBLK
  5
100
330
FE
100
AcDbEntity
  8
0
100
AcDbBlockEnd
  0
BLOCK
  5
114
330
113
100
AcDbEntity
  8
0
100
AcDbBlockBegin
  2
_D_3
 70
     0
 10
0.0
 20
0.0
 30
0.0
  3
_D_3
  1
_D_3
  0
SOLID
  5
116
330
113
100
AcDbEntity
  8
치수문자_일반주서
100
AcDbTrace
 10
25.87500000000002
 20
26.30755048907215
 30
0.0
 11
22.57300000000002
 21
26.81555048907214
 31
0.0
 12
22.57300000000002
 22
25.79955048907215
 32
0.0
 13
22.57300000000002
 23
25.79955048907215
 33
0.0
  0
SOLID
  5
117
330
113
100
AcDbEntity
  8
치수문자_일반주서
100
AcDbTrace
 10
-50.32499999999999
 20
26.30755048907214
 30
0.0
 11
-47.02299999999999
 21
25.79955048907214
 31
0.0
 12
-47.02299999999999
 22
26.81555048907214
 32
0.0
 13
-47.02299999999999
 23
26.81555048907214
 33
0.0
  0
LINE
  5
118
330
113
100
AcDbEntity
  8
치수문자_일반주서
100
AcDbLine
 10
-17.98225504471996
 20
37.10043220511487
 30
0.0
 11
-18.69319253028446
 21
37.10043220511488
 31
0.0
  0
LINE
  5
119
330
113
100
AcDbEntity
  8
치수문자_일반주서
100
AcDbLine
 10
-18.69319253028446
 20
37.10043220511488
 30
0.0
 11
-18.6931925302845
 21
31.54418221405557
 31
0.0
  0
LINE
  5
11A
330
113
100
AcDbEntity
  8
치수문자_일반주서
100
AcDbLine
 10
-18.6931925302845
 20
31.54418221405557
 30
0.0
 11
-17.98225504472
 21
31.54418221405557
 31
0.0
  0
LINE
  5
11B
330
113
100
AcDbEntity
  8
치수문자_일반주서
100
AcDbLine
 10
-7.153522182582705
 20
37.10043220511479
 30
0.0
 11
-6.442584697018205
 21
37.10043220511479
 31
0.0
  0
LINE
  5
11C
330
113
100
AcDbEntity
  8
치수문자_일반주서
100
AcDbLine
 10
-6.442584697018205
 20
37.10043220511479
 30
0.0
 11
-6.442584697018245
 21
31.54418221405549
 31
0.0
  0
LINE
  5
11D
330
113
100
AcDbEntity
  8
치수문자_일반주서
100
AcDbLine
 10
-6.442584697018245
 20
31.54418221405549
 30
0.0
 11
-7.153522182582745
 21
31.54418221405549
 31
0.0
  0
LINE
  5
11E
330
113
100
AcDbEntity
  8
치수문자_일반주서
100
AcDbLine
 10
25.87500000000002
 20
4.334824928723892
 30
0.0
 11
25.87500000000002
 21
27.30755048907215
 31
0.0
  0
LINE
  5
11F
330
113
100
AcDbEntity
  8
치수문자_일반주서
100
AcDbLine
 10
-50.32499999999999
 20
4.763574928723886
 30
0.0
 11
-50.32499999999999
 21
27.30755048907214
 31
0.0
  0
LINE
  5
120
330
113
100
AcDbEntity
  8
치수문자_일반주서
100
AcDbLine
 10
25.87500000000002
 20
26.30755048907215
 30
0.0
 11
-50.32499999999999
 21
26.30755048907214
 31
0.0
  0
MTEXT
  5
121
330
113
100
AcDbEntity
  8
치수문자_일반주서
100
AcDbMText
 10
-19.2069512557712
 20
30.87275975493386
 30
0.0
 40
3.5
 41
0.0
 71
     1
 72
     1
  1

  7
SLDTEXTSTYLE0
 73
     1
 44
1.0
  0
MTEXT
  5
122
330
113
100
AcDbEntity
  8
치수문자_일반주서
100
AcDbMText
 10
-17.0935831441086
 20
36.05591912863446
 30
0.0
 40
3.5
 41
0.0
 71
     1
 72
     1
  1
3.00
  7
SLDTEXTSTYLE0
 73
     1
 44
1.0
  0
MTEXT
  5
123
330
113
100
AcDbEntity
  8
치수문자_일반주서
100
AcDbMText
 10
-18.38663885728537
 20
30.819287578274
 30
0.0
 40
3.5
 41
0.0
 71
     1
 72
     1
  1
76.20
  7
SLDTEXTSTYLE0
 73
     1
 44
1.0
  0
MTEXT
  5
124
330
113
100
AcDbEntity
  8
치수문자_일반주서
100
AcDbMText
 10
-4.596881451877636
 20
30.87275975493376
 30
0.0
 40
3.5
 41
0.0
 71
     1
 72
     1
  1

  7
SLDTEXTSTYLE0
 73
     1
 44
1.0
  0
ENDBLK
  5
115
330
113
100
AcDbEntity
  8
0
100
AcDbBlockEnd
  0
BLOCK
  5
12D
330
12C
100
AcDbEntity
  8
0
100
AcDbBlockBegin
  2
SW_DOWELSYMBOL_0
 70
     0
 10
0.0
 20
0.0
 30
0.0
  3
SW_DOWELSYMBOL_0
  1
SW_DOWELSYMBOL_0
  0
CIRCLE
  5
12F
330
12C
100
AcDbEntity
  8
해칭선
 62
     0
100
AcDbCircle
 10
0.0
 20
0.0
 30
0.0
 40
3.000000000000002
  0
HATCH
  5
130
330
12C
100
AcDbEntity
  8
0
  6
Continuous
 62
     0
370
     0
100
AcDbHatch
 10
0.0
 20
0.0
 30
0.0
210
0.0
220
0.0
230
1.0
  2
SOLID
 70
     1
 71
     0
 91
        1
 92
        0
 93
        3
 72
     2
 10
0.0000000000000069
 20
0.0
 40
3.000000000000002
 50
0.0
 51
90.0
 73
     1
 72
     1
 10
0.0000000000000069
 20
3.000000000000002
 11
0.0000000000000069
 21
0.0
 72
     1
 10
0.0000000000000069
 20
0.0
 11
3.000000000000009
 21
0.0
 97
        0
 75
     0
 76
     1
 98
        1
 10
0.0
 20
0.0
  0
HATCH
  5
131
330
12C
100
AcDbEntity
  8
0
  6
Continuous
 62
     0
370
     0
100
AcDbHatch
 10
0.0
 20
0.0
 30
0.0
210
0.0
220
0.0
230
1.0
  2
SOLID
 70
     1
 71
     0
 91
        1
 92
        0
 93
        3
 72
     2
 10
0.0000000000000069
 20
0.0
 40
3.000000000000002
 50
180.0
 51
270.0000000000007
 73
     1
 72
     1
 10
0.0000000000000069
 20
-3.000000000000002
 11
0.0000000000000069
 21
0.0
 72
     1
 10
0.0000000000000069
 20
0.0
 11
-2.999999999999995
 21
0.0
 97
        0
 75
     0
 76
     1
 98
        1
 10
0.0
 20
0.0
  0
ENDBLK
  5
12E
330
12C
100
AcDbEntity
  8
0
100
AcDbBlockEnd
  0
BLOCK
  5
1FC
330
1FB
100
AcDbEntity
  8
0
100
AcDbBlockBegin
  2
*D7
 70
     1
 10
0.0
 20
0.0
 30
0.0
  3
*D7
  1
*D8
  0
LINE
  5
1FD
330
1FB
100
AcDbEntity
  8
치수문자_일반주서
 62
     0
370
    -2
100
AcDbLine
 10
94.69176926335126
 20
35.469830979184
 30
0.0
 11
118.522605876387
 21
0.0000000000003961
 31
0.0
  0
MTEXT
  5
1FE
330
1FB
100
AcDbEntity
  8
치수문자_일반주서
 62
     0
100
AcDbMText
 10
113.0159409318491
 20
12.9031049655154
 30
0.0
 40
3.5
 41
0.0
 71
     5
 72
     1
  1
\A1;R.51 [R0.020]
  7
SLDTEXTSTYLE0
 11
0.5576822213520219
 21
-0.8300545403694111
 31
0.0
 73
     1
 44
1.0
  0
LINE
  5
1FF
330
1FB
100
AcDbEntity
  8
치수문자_일반주서
 62
     0
370
    -2
100
AcDbLine
 10
92.56700000000006
 20
38.63233877799145
 30
0.0
 11
92.85030256844689
 21
38.21067107148379
 31
0.0
  0
SOLID
  5
200
330
1FB
100
AcDbEntity
  8
치수문자_일반주서
 62
     0
100
AcDbTrace
 10
95.14857594540123
 20
35.7767420950014
 30
0.0
 11
94.23496258130129
 21
35.1629198633666
 31
0.0
 12
92.85030256844689
 22
38.21067107148379
 32
0.0
 13
92.85030256844689
 23
38.21067107148379
 33
0.0
  0
POINT
  5
201
330
1FB
100
AcDbEntity
  8
Defpoints
 62
     0
100
AcDbPoint
 10
92.85030256844689
 20
38.21067107148379
 30
0.0
  0
POINT
  5
202
330
1FB
100
AcDbEntity
  8
Defpoints
 62
     0
100
AcDbPoint
 10
92.56700000000006
 20
38.63233877799145
 30
0.0
  0
ENDBLK
  5
203
330
1FB
100
AcDbEntity
  8
0
100
AcDbBlockEnd
  0
BLOCK
  5
209
330
208
100
AcDbEntity
  8
0
100
AcDbBlockBegin
  2
*D8
 70
     1
 10
0.0
 20
0.0
 30
0.0
  3
*D8
  1
*D9
  0
LINE
  5
20B
330
208
100
AcDbEntity
  8
치수문자_일반주서
 62
     0
370
    -2
100
AcDbLine
 10
17.81250000000005
 20
47.64933877799145
 30
0.0
 11
4.37500000000002
 21
47.6493387779914
 31
0.0
  0
LINE
  5
20C
330
208
100
AcDbEntity
  8
치수문자_일반주서
 62
     0
370
    -2
100
AcDbLine
 10
17.81250000000005
 20
38.12433877799145
 30
0.0
 11
4.375000000000052
 21
38.1243387779914
 31
0.0
  0
LINE
  5
20D
330
208
100
AcDbEntity
  8
치수문자_일반주서
 62
     0
370
    -2
100
AcDbLine
 10
4.375000000000031
 20
44.3473387779914
 30
0.0
 11
4.375000000000041
 21
41.4263387779914
 31
0.0
  0
SOLID
  5
20E
330
208
100
AcDbEntity
  8
치수문자_일반주서
 62
     0
100
AcDbTrace
 10
4.925333333333365
 20
44.3473387779914
 30
0.0
 11
3.824666666666698
 21
44.3473387779914
 31
0.0
 12
4.37500000000002
 22
47.6493387779914
 32
0.0
 13
4.37500000000002
 23
47.6493387779914
 33
0.0
  0
SOLID
  5
20F
330
208
100
AcDbEntity
  8
치수문자_일반주서
 62
     0
100
AcDbTrace
 10
3.824666666666708
 20
41.4263387779914
 30
0.0
 11
4.925333333333374
 21
41.4263387779914
 31
0.0
 12
4.375000000000052
 22
38.1243387779914
 32
0.0
 13
4.375000000000052
 23
38.1243387779914
 33
0.0
  0
MTEXT
  5
210
330
208
100
AcDbEntity
  8
치수문자_일반주서
 62
     0
100
AcDbMText
 10
0.0000000000000355
 20
42.88683877799144
 30
0.0
 40
3.5
 41
0.0
 71
     2
 72
     1
  1
\A1;%%c9.53 [3/8]
  7
SLDTEXTSTYLE0
 11
-3.450141892798385E-15
 21
1.0
 31
0.0
 73
     1
 44
1.0
  0
POINT
  5
211
330
208
100
AcDbEntity
  8
Defpoints
 62
     0
100
AcDbPoint
 10
17.87500000000005
 20
47.64933877799145
 30
0.0
  0
POINT
  5
212
330
208
100
AcDbEntity
  8
Defpoints
 62
     0
100
AcDbPoint
 10
17.87500000000005
 20
38.12433877799145
 30
0.0
  0
POINT
  5
213
330
208
100
AcDbEntity
  8
Defpoints
 62
     0
100
AcDbPoint
 10
4.375000000000057
 20
38.1243387779914
 30
0.0
  0
ENDBLK
  5
20A
330
208
100
AcDbEntity
  8
0
100
AcDbBlockEnd
  0
BLOCK
  5
215
330
214
100
AcDbEntity
  8
0
100
AcDbBlockBegin
  2
*D9
 70
     1
 10
0.0
 20
0.0
 30
0.0
  3
*D9
  1
*D10
  0
LINE
  5
217
330
214
100
AcDbEntity
  8
치수문자_일반주서
 62
     0
370
    -2
100
AcDbLine
 10
93.13750000000009
 20
47.64933877799145
 30
0.0
 11
108.9543930902355
 21
47.64933877799151
 31
0.0
  0
LINE
  5
218
330
214
100
AcDbEntity
  8
치수문자_일반주서
 62
     0
370
    -2
100
AcDbLine
 10
93.13750000000009
 20
38.12433877799145
 30
0.0
 11
108.9543930902355
 21
38.12433877799151
 31
0.0
  0
LINE
  5
219
330
214
100
AcDbEntity
  8
치수문자_일반주서
 62
     0
370
    -2
100
AcDbLine
 10
108.9543930902355
 20
47.64933877799151
 30
0.0
 11
108.9543930902353
 21
82.40228989868798
 31
0.0
  0
LINE
  5
21A
330
214
100
AcDbEntity
  8
치수문자_일반주서
 62
     0
370
    -2
100
AcDbLine
 10
108.9543930902355
 20
47.64933877799151
 30
0.0
 11
108.9543930902355
 21
38.12433877799151
 31
0.0
  0
LINE
  5
21B
330
214
100
AcDbEntity
  8
치수문자_일반주서
 62
     0
370
    -2
100
AcDbLine
 10
108.9543930902354
 20
50.95133877799151
 30
0.0
 11
108.9543930902354
 21
54.25333877799151
 31
0.0
  0
LINE
  5
21C
330
214
100
AcDbEntity
  8
치수문자_일반주서
 62
     0
370
    -2
100
AcDbLine
 10
108.9543930902355
 20
34.82233877799151
 30
0.0
 11
108.9543930902355
 21
31.52033877799151
 31
0.0
  0
SOLID
  5
21D
330
214
100
AcDbEntity
  8
치수문자_일반주서
 62
     0
100
AcDbTrace
 10
108.4040597569021
 20
50.95133877799151
 30
0.0
 11
109.5047264235688
 21
50.95133877799151
 31
0.0
 12
108.9543930902355
 22
47.64933877799151
 32
0.0
 13
108.9543930902355
 23
47.64933877799151
 33
0.0
  0
SOLID
  5
21E
330
214
100
AcDbEntity
  8
치수문자_일반주서
 62
     0
100
AcDbTrace
 10
109.5047264235688
 20
34.82233877799151
 30
0.0
 11
108.4040597569022
 21
34.82233877799151
 31
0.0
 12
108.9543930902355
 22
38.12433877799151
 32
0.0
 13
108.9543930902355
 23
38.12433877799151
 33
0.0
  0
MTEXT
  5
21F
330
214
100
AcDbEntity
  8
치수문자_일반주서
 62
     0
100
AcDbMText
 10
104.5793930902354
 20
69.27728989868797
 30
0.0
 40
3.5
 41
0.0
 71
     2
 72
     1
  1
\A1;%%c9.53 [3/8]
  7
SLDTEXTSTYLE0
 11
-2.983906501879686E-15
 21
1.0
 31
0.0
 73
     1
 44
1.0
  0
POINT
  5
220
330
214
100
AcDbEntity
  8
Defpoints
 62
     0
100
AcDbPoint
 10
93.07500000000009
 20
47.64933877799145
 30
0.0
  0
POINT
  5
221
330
214
100
AcDbEntity
  8
Defpoints
 62
     0
100
AcDbPoint
 10
93.07500000000009
 20
38.12433877799145
 30
0.0
  0
POINT
  5
222
330
214
100
AcDbEntity
  8
Defpoints
 62
     0
100
AcDbPoint
 10
108.9543930902355
 20
38.12433877799151
 30
0.0
  0
ENDBLK
  5
216
330
214
100
AcDbEntity
  8
0
100
AcDbBlockEnd
  0
BLOCK
  5
224
330
223
100
AcDbEntity
  8
0
100
AcDbBlockBegin
  2
*D10
 70
     1
 10
0.0
 20
0.0
 30
0.0
  3
*D10
  1
*D11
  0
LINE
  5
226
330
223
100
AcDbEntity
  8
치수문자_일반주서
 62
     0
370
    -2
100
AcDbLine
 10
93.07500000000009
 20
47.71183877799145
 30
0.0
 11
93.07500000000009
 21
57.19331433833975
 31
0.0
  0
LINE
  5
227
330
223
100
AcDbEntity
  8
치수문자_일반주서
 62
     0
370
    -2
100
AcDbLine
 10
77.20000000000006
 20
46.67099923313247
 30
0.0
 11
77.20000000000006
 21
57.19331433833975
 31
0.0
  0
LINE
  5
228
330
223
100
AcDbEntity
  8
치수문자_일반주서
 62
     0
370
    -2
100
AcDbLine
 10
77.20000000000006
 20
57.19331433833975
 30
0.0
 11
43.78789407635945
 21
57.19331433833975
 31
0.0
  0
LINE
  5
229
330
223
100
AcDbEntity
  8
치수문자_일반주서
 62
     0
370
    -2
100
AcDbLine
 10
93.07500000000009
 20
57.19331433833975
 30
0.0
 11
77.20000000000006
 21
57.19331433833975
 31
0.0
  0
LINE
  5
22A
330
223
100
AcDbEntity
  8
치수문자_일반주서
 62
     0
370
    -2
100
AcDbLine
 10
96.3770000000001
 20
57.19331433833975
 30
0.0
 11
99.67900000000009
 21
57.19331433833975
 31
0.0
  0
LINE
  5
22B
330
223
100
AcDbEntity
  8
치수문자_일반주서
 62
     0
370
    -2
100
AcDbLine
 10
73.89800000000005
 20
57.19331433833975
 30
0.0
 11
70.59600000000006
 21
57.19331433833975
 31
0.0
  0
SOLID
  5
22C
330
223
100
AcDbEntity
  8
치수문자_일반주서
 62
     0
100
AcDbTrace
 10
96.3770000000001
 20
57.74364767167308
 30
0.0
 11
96.3770000000001
 21
56.64298100500641
 31
0.0
 12
93.07500000000009
 22
57.19331433833975
 32
0.0
 13
93.07500000000009
 23
57.19331433833975
 33
0.0
  0
SOLID
  5
22D
330
223
100
AcDbEntity
  8
치수문자_일반주서
 62
     0
100
AcDbTrace
 10
73.89800000000005
 20
56.64298100500641
 30
0.0
 11
73.89800000000005
 21
57.74364767167308
 31
0.0
 12
77.20000000000006
 22
57.19331433833975
 32
0.0
 13
77.20000000000006
 23
57.19331433833975
 33
0.0
  0
MTEXT
  5
22E
330
223
100
AcDbEntity
  8
치수문자_일반주서
 62
     0
100
AcDbMText
 10
56.47539407635946
 20
61.56831433833975
 30
0.0
 40
3.5
 41
0.0
 71
     2
 72
     1
  1
\A1;15.88 [5/8]
  7
SLDTEXTSTYLE0
 73
     1
 44
1.0
  0
POINT
  5
22F
330
223
100
AcDbEntity
  8
Defpoints
 62
     0
100
AcDbPoint
 10
93.07500000000009
 20
47.64933877799145
 30
0.0
  0
POINT
  5
230
330
223
100
AcDbEntity
  8
Defpoints
 62
     0
100
AcDbPoint
 10
77.20000000000006
 20
46.60849923313247
 30
0.0
  0
POINT
  5
231
330
223
100
AcDbEntity
  8
Defpoints
 62
     0
100
AcDbPoint
 10
77.20000000000006
 20
57.19331433833975
 30
0.0
  0
ENDBLK
  5
225
330
223
100
AcDbEntity
  8
0
100
AcDbBlockEnd
  0
BLOCK
  5
233
330
232
100
AcDbEntity
  8
0
100
AcDbBlockBegin
  2
*D11
 70
     1
 10
0.0
 20
0.0
 30
0.0
  3
*D11
  1
*D12
  0
LINE
  5
235
330
232
100
AcDbEntity
  8
치수문자_일반주서
 62
     0
370
    -2
100
AcDbLine
 10
93.07500000000009
 20
47.71183877799145
 30
0.0
 11
93.07500000000007
 21
69.19331433833972
 31
0.0
  0
LINE
  5
236
330
232
100
AcDbEntity
  8
치수문자_일반주서
 62
     0
370
    -2
100
AcDbLine
 10
16.87500000000006
 20
46.71183877799144
 30
0.0
 11
16.87500000000005
 21
69.19331433833972
 31
0.0
  0
LINE
  5
237
330
232
100
AcDbEntity
  8
치수문자_일반주서
 62
     0
370
    -2
100
AcDbLine
 10
89.77300000000008
 20
69.19331433833972
 30
0.0
 11
20.17700000000005
 21
69.19331433833972
 31
0.0
  0
SOLID
  5
238
330
232
100
AcDbEntity
  8
치수문자_일반주서
 62
     0
100
AcDbTrace
 10
89.77300000000008
 20
68.64298100500639
 30
0.0
 11
89.77300000000008
 21
69.74364767167305
 31
0.0
 12
93.07500000000007
 22
69.19331433833972
 32
0.0
 13
93.07500000000007
 23
69.19331433833972
 33
0.0
  0
SOLID
  5
239
330
232
100
AcDbEntity
  8
치수문자_일반주서
 62
     0
100
AcDbTrace
 10
20.17700000000005
 20
69.74364767167305
 30
0.0
 11
20.17700000000005
 21
68.64298100500639
 31
0.0
 12
16.87500000000005
 22
69.19331433833972
 32
0.0
 13
16.87500000000005
 23
69.19331433833972
 33
0.0
  0
MTEXT
  5
23A
330
232
100
AcDbEntity
  8
치수문자_일반주서
 62
     0
100
AcDbMText
 10
54.63211103710277
 20
73.56831433833972
 30
0.0
 40
3.5
 41
0.0
 71
     2
 72
     1
  1
\A1;76.2 [3]
  7
SLDTEXTSTYLE0
 73
     1
 44
1.0
  0
POINT
  5
23B
330
232
100
AcDbEntity
  8
Defpoints
 62
     0
100
AcDbPoint
 10
93.07500000000009
 20
47.64933877799145
 30
0.0
  0
POINT
  5
23C
330
232
100
AcDbEntity
  8
Defpoints
 62
     0
100
AcDbPoint
 10
16.87500000000006
 20
46.64933877799144
 30
0.0
  0
POINT
  5
23D
330
232
100
AcDbEntity
  8
Defpoints
 62
     0
100
AcDbPoint
 10
16.87500000000006
 20
69.19331433833972
 30
0.0
  0
ENDBLK
  5
234
330
232
100
AcDbEntity
  8
0
100
AcDbBlockEnd
  0
BLOCK
  5
27D
330
27C
100
AcDbEntity
  8
0
100
AcDbBlockBegin
  2
*D12
 70
     1
 10
0.0
 20
0.0
 30
0.0
  3
*D12
  1
*D13
  0
LINE
  5
27F
330
27C
100
AcDbEntity
  8
치수문자_일반주서
 62
     0
370
    -2
100
AcDbLine
 10
-49.38749999999999
 20
4.763574928723898
 30
0.0
 11
-62.82500000000003
 21
4.763574928723847
 31
0.0
  0
LINE
  5
280
330
27C
100
AcDbEntity
  8
치수문자_일반주서
 62
     0
370
    -2
100
AcDbLine
 10
-49.38749999999999
 20
-4.761425071276108
 30
0.0
 11
-62.825
 21
-4.761425071276158
 31
0.0
  0
LINE
  5
281
330
27C
100
AcDbEntity
  8
치수문자_일반주서
 62
     0
370
    -2
100
AcDbLine
 10
-62.82500000000002
 20
1.461574928723848
 30
0.0
 11
-62.82500000000001
 21
-1.459425071276159
 31
0.0
  0
SOLID
  5
282
330
27C
100
AcDbEntity
  8
치수문자_일반주서
 62
     0
100
AcDbTrace
 10
-62.27466666666668
 20
1.46157492872385
 30
0.0
 11
-63.37533333333335
 21
1.461574928723846
 31
0.0
 12
-62.82500000000003
 22
4.763574928723847
 32
0.0
 13
-62.82500000000003
 23
4.763574928723847
 33
0.0
  0
SOLID
  5
283
330
27C
100
AcDbEntity
  8
치수문자_일반주서
 62
     0
100
AcDbTrace
 10
-63.37533333333334
 20
-1.459425071276161
 30
0.0
 11
-62.27466666666668
 21
-1.459425071276157
 31
0.0
 12
-62.825
 22
-4.761425071276158
 32
0.0
 13
-62.825
 23
-4.761425071276158
 33
0.0
  0
MTEXT
  5
284
330
27C
100
AcDbEntity
  8
치수문자_일반주서
 62
     0
100
AcDbMText
 10
-67.20000000000002
 20
0.001074928723886
 30
0.0
 40
3.5
 41
0.0
 71
     2
 72
     1
  1
\A1;%%c9.53 [3/8]
  7
SLDTEXTSTYLE0
 11
-3.729883127349605E-15
 21
1.0
 31
0.0
 73
     1
 44
1.0
  0
POINT
  5
285
330
27C
100
AcDbEntity
  8
Defpoints
 62
     0
100
AcDbPoint
 10
-49.32499999999999
 20
4.763574928723898
 30
0.0
  0
POINT
  5
286
330
27C
100
AcDbEntity
  8
Defpoints
 62
     0
100
AcDbPoint
 10
-49.32499999999999
 20
-4.761425071276108
 30
0.0
  0
POINT
  5
287
330
27C
100
AcDbEntity
  8
Defpoints
 62
     0
100
AcDbPoint
 10
-62.825
 20
-4.761425071276158
 30
0.0
  0
ENDBLK
  5
27E
330
27C
100
AcDbEntity
  8
0
100
AcDbBlockEnd
  0
BLOCK
  5
289
330
288
100
AcDbEntity
  8
0
100
AcDbBlockBegin
  2
*D13
 70
     1
 10
0.0
 20
0.0
 30
0.0
  3
*D13
  1
*D14
  0
LINE
  5
28B
330
288
100
AcDbEntity
  8
치수문자_일반주서
 62
     0
370
    -2
100
AcDbLine
 10
25.93750000000006
 20
4.763574928723898
 30
0.0
 11
41.75439309023542
 21
4.763574928723955
 31
0.0
  0
LINE
  5
28C
330
288
100
AcDbEntity
  8
치수문자_일반주서
 62
     0
370
    -2
100
AcDbLine
 10
25.93750000000006
 20
-4.761425071276101
 30
0.0
 11
41.75439309023545
 21
-4.761425071276044
 31
0.0
  0
LINE
  5
28D
330
288
100
AcDbEntity
  8
치수문자_일반주서
 62
     0
370
    -2
100
AcDbLine
 10
41.75439309023542
 20
4.763574928723955
 30
0.0
 11
41.75439309023529
 21
39.51652604942043
 31
0.0
  0
LINE
  5
28E
330
288
100
AcDbEntity
  8
치수문자_일반주서
 62
     0
370
    -2
100
AcDbLine
 10
41.75439309023542
 20
4.763574928723955
 30
0.0
 11
41.75439309023545
 21
-4.761425071276044
 31
0.0
  0
LINE
  5
28F
330
288
100
AcDbEntity
  8
치수문자_일반주서
 62
     0
370
    -2
100
AcDbLine
 10
41.7543930902354
 20
8.065574928723954
 30
0.0
 11
41.75439309023539
 21
11.36757492872395
 31
0.0
  0
LINE
  5
290
330
288
100
AcDbEntity
  8
치수문자_일반주서
 62
     0
370
    -2
100
AcDbLine
 10
41.75439309023547
 20
-8.063425071276043
 30
0.0
 11
41.75439309023548
 21
-11.36542507127604
 31
0.0
  0
SOLID
  5
291
330
288
100
AcDbEntity
  8
치수문자_일반주서
 62
     0
100
AcDbTrace
 10
41.20405975690207
 20
8.065574928723953
 30
0.0
 11
42.30472642356874
 21
8.065574928723956
 31
0.0
 12
41.75439309023542
 22
4.763574928723955
 32
0.0
 13
41.75439309023542
 23
4.763574928723955
 33
0.0
  0
SOLID
  5
292
330
288
100
AcDbEntity
  8
치수문자_일반주서
 62
     0
100
AcDbTrace
 10
42.3047264235688
 20
-8.063425071276042
 30
0.0
 11
41.20405975690213
 21
-8.063425071276045
 31
0.0
 12
41.75439309023545
 22
-4.761425071276044
 32
0.0
 13
41.75439309023545
 23
-4.761425071276044
 33
0.0
  0
MTEXT
  5
293
330
288
100
AcDbEntity
  8
치수문자_일반주서
 62
     0
100
AcDbMText
 10
37.37939309023534
 20
26.39152604942041
 30
0.0
 40
3.5
 41
0.0
 71
     2
 72
     1
  1
\A1;%%c9.53 [3/8]
  7
SLDTEXTSTYLE0
 11
-3.729883127349609E-15
 21
1.0
 31
0.0
 73
     1
 44
1.0
  0
POINT
  5
294
330
288
100
AcDbEntity
  8
Defpoints
 62
     0
100
AcDbPoint
 10
25.87500000000006
 20
4.763574928723898
 30
0.0
  0
POINT
  5
295
330
288
100
AcDbEntity
  8
Defpoints
 62
     0
100
AcDbPoint
 10
25.87500000000006
 20
-4.761425071276101
 30
0.0
  0
POINT
  5
296
330
288
100
AcDbEntity
  8
Defpoints
 62
     0
100
AcDbPoint
 10
41.75439309023545
 20
-4.761425071276041
 30
0.0
  0
ENDBLK
  5
28A
330
288
100
AcDbEntity
  8
0
100
AcDbBlockEnd
  0
BLOCK
  5
298
330
297
100
AcDbEntity
  8
0
100
AcDbBlockBegin
  2
*D14
 70
     1
 10
0.0
 20
0.0
 30
0.0
  3
*D14
  1
*D15
  0
LINE
  5
29A
330
297
100
AcDbEntity
  8
치수문자_일반주서
 62
     0
370
    -2
100
AcDbLine
 10
25.87500000000006
 20
4.826074928723898
 30
0.0
 11
25.87500000000006
 21
14.30755048907219
 31
0.0
  0
LINE
  5
29B
330
297
100
AcDbEntity
  8
치수문자_일반주서
 62
     0
370
    -2
100
AcDbLine
 10
10.0
 20
3.785235383864915
 30
0.0
 11
10.0
 21
14.30755048907219
 31
0.0
  0
LINE
  5
29C
330
297
100
AcDbEntity
  8
치수문자_일반주서
 62
     0
370
    -2
100
AcDbLine
 10
10.0
 20
14.30755048907219
 30
0.0
 11
-23.41210592364058
 21
14.30755048907219
 31
0.0
  0
LINE
  5
29D
330
297
100
AcDbEntity
  8
치수문자_일반주서
 62
     0
370
    -2
100
AcDbLine
 10
25.87500000000006
 20
14.30755048907219
 30
0.0
 11
10.0
 21
14.30755048907219
 31
0.0
  0
LINE
  5
29E
330
297
100
AcDbEntity
  8
치수문자_일반주서
 62
     0
370
    -2
100
AcDbLine
 10
29.17700000000006
 20
14.30755048907219
 30
0.0
 11
32.47900000000006
 21
14.30755048907219
 31
0.0
  0
LINE
  5
29F
330
297
100
AcDbEntity
  8
치수문자_일반주서
 62
     0
370
    -2
100
AcDbLine
 10
6.698
 20
14.30755048907219
 30
0.0
 11
3.396000000000001
 21
14.30755048907219
 31
0.0
  0
SOLID
  5
2A0
330
297
100
AcDbEntity
  8
치수문자_일반주서
 62
     0
100
AcDbTrace
 10
29.17700000000006
 20
14.85788382240552
 30
0.0
 11
29.17700000000006
 21
13.75721715573886
 31
0.0
 12
25.87500000000006
 22
14.30755048907219
 32
0.0
 13
25.87500000000006
 23
14.30755048907219
 33
0.0
  0
SOLID
  5
2A1
330
297
100
AcDbEntity
  8
치수문자_일반주서
 62
     0
100
AcDbTrace
 10
6.698
 20
13.75721715573886
 30
0.0
 11
6.698
 21
14.85788382240552
 31
0.0
 12
10.0
 22
14.30755048907219
 32
0.0
 13
10.0
 23
14.30755048907219
 33
0.0
  0
MTEXT
  5
2A2
330
297
100
AcDbEntity
  8
치수문자_일반주서
 62
     0
100
AcDbMText
 10
-10.72460592364058
 20
18.68255048907219
 30
0.0
 40
3.5
 41
0.0
 71
     2
 72
     1
  1
\A1;15.88 [5/8]
  7
SLDTEXTSTYLE0
 73
     1
 44
1.0
  0
POINT
  5
2A3
330
297
100
AcDbEntity
  8
Defpoints
 62
     0
100
AcDbPoint
 10
25.87500000000006
 20
4.763574928723898
 30
0.0
  0
POINT
  5
2A4
330
297
100
AcDbEntity
  8
Defpoints
 62
     0
100
AcDbPoint
 10
10.0
 20
3.722735383864915
 30
0.0
  0
POINT
  5
2A5
330
297
100
AcDbEntity
  8
Defpoints
 62
     0
100
AcDbPoint
 10
10.0
 20
14.30755048907219
 30
0.0
  0
ENDBLK
  5
299
330
297
100
AcDbEntity
  8
0
100
AcDbBlockEnd
  0
BLOCK
  5
2A7
330
2A6
100
AcDbEntity
  8
0
100
AcDbBlockBegin
  2
*D15
 70
     1
 10
0.0
 20
0.0
 30
0.0
  3
*D15
  1
*D16
  0
LINE
  5
2A9
330
2A6
100
AcDbEntity
  8
치수문자_일반주서
 62
     0
370
    -2
100
AcDbLine
 10
25.87500000000006
 20
4.826074928723898
 30
0.0
 11
25.87500000000006
 21
26.30755048907216
 31
0.0
  0
LINE
  5
2AA
330
2A6
100
AcDbEntity
  8
치수문자_일반주서
 62
     0
370
    -2
100
AcDbLine
 10
-50.32499999999999
 20
3.826074928723884
 30
0.0
 11
-50.32499999999999
 21
26.30755048907216
 31
0.0
  0
LINE
  5
2AB
330
2A6
100
AcDbEntity
  8
치수문자_일반주서
 62
     0
370
    -2
100
AcDbLine
 10
22.57300000000006
 20
26.30755048907216
 30
0.0
 11
-47.02299999999999
 21
26.30755048907216
 31
0.0
  0
SOLID
  5
2AC
330
2A6
100
AcDbEntity
  8
치수문자_일반주서
 62
     0
100
AcDbTrace
 10
22.57300000000006
 20
25.75721715573883
 30
0.0
 11
22.57300000000006
 21
26.8578838224055
 31
0.0
 12
25.87500000000006
 22
26.30755048907216
 32
0.0
 13
25.87500000000006
 23
26.30755048907216
 33
0.0
  0
SOLID
  5
2AD
330
2A6
100
AcDbEntity
  8
치수문자_일반주서
 62
     0
100
AcDbTrace
 10
-47.02299999999999
 20
26.8578838224055
 30
0.0
 11
-47.02299999999999
 21
25.75721715573883
 31
0.0
 12
-50.32499999999999
 22
26.30755048907216
 32
0.0
 13
-50.32499999999999
 23
26.30755048907216
 33
0.0
  0
MTEXT
  5
2AE
330
2A6
100
AcDbEntity
  8
치수문자_일반주서
 62
     0
100
AcDbMText
 10
-12.56788896289729
 20
30.68255048907216
 30
0.0
 40
3.5
 41
0.0
 71
     2
 72
     1
  1
\A1;76.2 [3]
  7
SLDTEXTSTYLE0
 73
     1
 44
1.0
  0
POINT
  5
2AF
330
2A6
100
AcDbEntity
  8
Defpoints
 62
     0
100
AcDbPoint
 10
25.87500000000006
 20
4.763574928723898
 30
0.0
  0
POINT
  5
2B0
330
2A6
100
AcDbEntity
  8
Defpoints
 62
     0
100
AcDbPoint
 10
-50.32499999999999
 20
3.763574928723884
 30
0.0
  0
POINT
  5
2B1
330
2A6
100
AcDbEntity
  8
Defpoints
 62
     0
100
AcDbPoint
 10
-50.32499999999999
 20
26.30755048907216
 30
0.0
  0
ENDBLK
  5
2A8
330
2A6
100
AcDbEntity
  8
0
100
AcDbBlockEnd
  0
BLOCK
  5
2B3
330
2B2
100
AcDbEntity
  8
0
100
AcDbBlockBegin
  2
*D16
 70
     1
 10
0.0
 20
0.0
 30
0.0
  3
*D16
  1
*D17
  0
LINE
  5
2B5
330
2B2
100
AcDbEntity
  8
치수문자_일반주서
 62
     0
370
    -2
100
AcDbLine
 10
179.265042366245
 20
-28.27384413765249
 30
0.0
 11
203.0958789792807
 21
-63.74367511683609
 31
0.0
  0
MTEXT
  5
2B6
330
2B2
100
AcDbEntity
  8
치수문자_일반주서
 62
     0
100
AcDbMText
 10
197.5892140347429
 20
-50.84057015132108
 30
0.0
 40
3.5
 41
0.0
 71
     5
 72
     1
  1
\A1;R.51 [R0.020]
  7
SLDTEXTSTYLE0
 11
0.5576822213520219
 21
-0.8300545403694111
 31
0.0
 73
     1
 44
1.0
  0
LINE
  5
2B7
330
2B2
100
AcDbEntity
  8
치수문자_일반주서
 62
     0
370
    -2
100
AcDbLine
 10
177.1402731028938
 20
-25.11133633884503
 30
0.0
 11
177.4235756713407
 21
-25.53300404535269
 31
0.0
  0
SOLID
  5
2B8
330
2B2
100
AcDbEntity
  8
치수문자_일반주서
 62
     0
100
AcDbTrace
 10
179.721849048295
 20
-27.96693302183509
 30
0.0
 11
178.8082356841951
 21
-28.58075525346988
 31
0.0
 12
177.4235756713407
 22
-25.53300404535269
 32
0.0
 13
177.4235756713407
 23
-25.53300404535269
 33
0.0
  0
POINT
  5
2B9
330
2B2
100
AcDbEntity
  8
Defpoints
 62
     0
100
AcDbPoint
 10
177.4235756713407
 20
-25.53300404535269
 30
0.0
  0
POINT
  5
2BA
330
2B2
100
AcDbEntity
  8
Defpoints
 62
     0
100
AcDbPoint
 10
177.1402731028938
 20
-25.11133633884503
 30
0.0
  0
ENDBLK
  5
2B4
330
2B2
100
AcDbEntity
  8
0
100
AcDbBlockEnd
  0
BLOCK
  5
2C4
330
2C3
100
AcDbEntity
  8
0
100
AcDbBlockBegin
  2
*D17
 70
     1
 10
0.0
 20
0.0
 30
0.0
  3
*D17
  1
*D18
  0
LINE
  5
2C6
330
2C3
100
AcDbEntity
  8
치수문자_일반주서
 62
     0
370
    -2
100
AcDbLine
 10
27.32484053631126
 20
-7.408802938560738
 30
0.0
 11
44.59913007918784
 21
-34.03575884866929
 31
0.0
  0
MTEXT
  5
2C7
330
2C3
100
AcDbEntity
  8
치수문자_일반주서
 62
     0
100
AcDbMText
 10
39.06271503882044
 20
-20.67867888846491
 30
0.0
 40
3.5
 41
0.0
 71
     5
 72
     1
  1
\A1;R.76 [R0.030]
  7
SLDTEXTSTYLE0
 11
0.5442521004702841
 21
-0.838921719312168
 31
0.0
 73
     1
 44
1.0
  0
LINE
  5
2C8
330
2C3
100
AcDbEntity
  8
치수문자_일반주서
 62
     0
370
    -2
100
AcDbLine
 10
25.11300000000003
 20
-3.999425071276089
 30
0.0
 11
25.52772010055838
 21
-4.63868342139196
 31
0.0
  0
SOLID
  5
2C9
330
2C3
100
AcDbEntity
  8
치수문자_일반주서
 62
     0
100
AcDbTrace
 10
27.78652712250606
 20
-7.109282865935259
 30
0.0
 11
26.86315395011646
 21
-7.708323011186217
 31
0.0
 12
25.52772010055838
 22
-4.63868342139196
 32
0.0
 13
25.52772010055838
 23
-4.63868342139196
 33
0.0
  0
POINT
  5
2CA
330
2C3
100
AcDbEntity
  8
Defpoints
 62
     0
100
AcDbPoint
 10
25.52772010055838
 20
-4.63868342139196
 30
0.0
  0
POINT
  5
2CB
330
2C3
100
AcDbEntity
  8
Defpoints
 62
     0
100
AcDbPoint
 10
25.11300000000003
 20
-3.999425071276089
 30
0.0
  0
ENDBLK
  5
2C5
330
2C3
100
AcDbEntity
  8
0
100
AcDbBlockEnd
  0
ENDSEC
  0
SECTION
  2
ENTITIES
  0
LINE
  5
CA
330
1F
100
AcDbEntity
  8
참조1
100
AcDbLine
 10
-12.22499999999999
 20
0.0010749287238892
 30
0.0
 11
-12.22499999999999
 21
-39.99892507127611
 31
0.0
  0
LINE
  5
CB
330
1F
100
AcDbEntity
  8
참조1
100
AcDbLine
 10
-12.22499999999999
 20
-39.99892507127611
 30
0.0
 11
-14.66672777521594
 21
-39.9989250712761
 31
0.0
  0
INSERT
  5
CD
330
1F
100
AcDbEntity
  8
0
  6
Continuous
 62
     7
100
AcDbBlockReference
 66
     1
  2
블럭10
 10
-26.1652729321252
 20
-52.04609937292004
 30
0.0
  0
ATTRIB
  5
CE
330
CD
100
AcDbEntity
  8
FORMAT
 62
     2
100
AcDbText
 10
-36.30690894426183
 20
-49.97073246008785
 30
0.0
 40
4.233333333333333
  1
EM636910 [ 2 FLUTE ]
 41
0.75
  7
SLDTEXTSTYLE0
 11
-36.30690894426183
 21
-52.08739912675452
 31
0.0
100
AcDbAttribute
  2
AUTOATTR0
 70
     0
 74
     1
  0
SEQEND
  5
CF
330
CD
100
AcDbEntity
  8
0
  6
Continuous
 62
     7
  0
HATCH
  5
D0
330
1F
100
AcDbEntity
  8
중심선
100
AcDbHatch
 10
0.0
 20
0.0
 30
0.0
210
0.0
220
0.0
230
1.0
  2
SOLID
 70
     1
 71
     0
 91
        1
 92
        0
 93
        4
 72
     1
 10
-20.45036362774436
 20
-35.7989250712761
 11
-23.89663887158164
 21
-35.7989250712761
 72
     1
 10
-23.89663887158164
 20
-35.7989250712761
 11
-26.02486873078566
 21
-38.33525065184867
 72
     1
 10
-26.02486873078566
 20
-38.33525065184867
 11
-22.57856040183523
 21
-38.33521122254619
 72
     1
 10
-22.57856040183523
 20
-38.33521122254619
 11
-20.45036362774436
 21
-35.7989250712761
 97
        0
 75
     0
 76
     1
 98
        1
 10
0.0
 20
0.0
  0
HATCH
  5
D1
330
1F
100
AcDbEntity
  8
중심선
100
AcDbHatch
 10
0.0
 20
0.0
 30
0.0
210
0.0
220
0.0
230
1.0
  2
SOLID
 70
     1
 71
     0
 91
        1
 92
        0
 93
        4
 72
     1
 10
-15.4375996367084
 20
-35.79892507127613
 11
-18.88387488054563
 21
-35.79892507127608
 72
     1
 10
-18.88387488054563
 20
-35.79892507127608
 11
-23.41501288890307
 21
-41.19892507127612
 72
     1
 10
-23.41501288890307
 20
-41.19892507127612
 11
-19.96873764506579
 21
-41.19892507127612
 72
     1
 10
-19.96873764506579
 20
-41.19892507127612
 11
-15.4375996367084
 21
-35.79892507127613
 97
        0
 75
     0
 76
     1
 98
        1
 10
0.0
 20
0.0
  0
HATCH
  5
D2
330
1F
100
AcDbEntity
  8
중심선
100
AcDbHatch
 10
0.0
 20
0.0
 30
0.0
210
0.0
220
0.0
230
1.0
  2
SOLID
 70
     1
 71
     0
 91
        1
 92
        0
 93
        4
 72
     1
 10
-10.42483564567254
 20
-35.7989250712761
 11
-13.8711108895096
 21
-35.7989250712761
 72
     1
 10
-13.8711108895096
 20
-35.7989250712761
 11
-20.91954779139887
 21
-44.19892507127612
 72
     1
 10
-20.91954779139887
 20
-44.19892507127612
 11
-17.47327254756159
 21
-44.19892507127612
 72
     1
 10
-17.47327254756159
 20
-44.19892507127612
 11
-10.42483564567254
 21
-35.7989250712761
 97
        0
 75
     0
 76
     1
 98
        1
 10
0.0
 20
0.0
  0
HATCH
  5
D3
330
1F
100
AcDbEntity
  8
중심선
100
AcDbHatch
 10
0.0
 20
0.0
 30
0.0
210
0.0
220
0.0
230
1.0
  2
SOLID
 70
     1
 71
     0
 91
        1
 92
        0
 93
        6
 72
     3
 10
-5.624945214660309
 20
-39.99892507132738
 11
3.960054785062284
 21
1.540850780301639E-10
 40
0.3939339440162633
 50
17.09539180608434
 51
320.0019657685086
 73
     0
 72
     1
 10
-3.941945558959714
 20
-38.58681907591443
 11
-1.636643685258649
 21
-36.65249236586649
 72
     3
 10
-5.624945214713156
 20
-39.99892507127625
 11
6.600054785286829
 21
-1.249000902703301E-13
 40
0.6363583540795982
 50
39.99873849337386
 51
368.4976242363724
 73
     1
 72
     1
 10
0.8003872771874532
 20
-39.03892507120613
 11
-6.944877907877234
 21
-39.03892507120613
 72
     1
 10
-6.944877907877234
 20
-39.03892507120613
 11
-6.944902952323168
 21
-40.95892507120602
 72
     1
 10
-6.944902952323168
 20
-40.95892507120602
 11
-2.50352318285113
 21
-40.95892507120599
 97
        0
 75
     0
 76
     1
 98
        1
 10
0.0
 20
0.0
  0
LINE
  5
125
330
1F
100
AcDbEntity
  8
참조1
100
AcDbLine
 10
83.30561285443832
 20
7.441074928723896
 30
0.0
 11
83.30561285443832
 21
-7.438925071276109
 31
0.0
  0
LINE
  5
126
330
1F
100
AcDbEntity
  8
참조1
100
AcDbLine
 10
96.00561285443833
 20
5.441074928723896
 30
0.0
 11
83.30561285443832
 21
5.441074928723896
 31
0.0
  0
SOLID
  5
127
330
1F
100
AcDbEntity
  8
참조1
100
AcDbTrace
 10
83.30561285443832
 20
5.441074928723896
 30
0.0
 11
89.65561285443832
 21
4.425074928723896
 31
0.0
 12
89.65561285443832
 22
6.457074928723896
 32
0.0
 13
89.65561285443832
 23
6.457074928723896
 33
0.0
  0
LINE
  5
128
330
1F
100
AcDbEntity
  8
참조1
100
AcDbLine
 10
96.00561285443833
 20
-5.438925071276109
 30
0.0
 11
83.30561285443832
 21
-5.438925071276109
 31
0.0
  0
SOLID
  5
129
330
1F
100
AcDbEntity
  8
참조1
100
AcDbTrace
 10
83.30561285443832
 20
-5.438925071276109
 30
0.0
 11
89.65561285443832
 21
-6.454925071276109
 31
0.0
 12
89.65561285443832
 22
-4.422925071276109
 32
0.0
 13
89.65561285443832
 23
-4.422925071276109
 33
0.0
  0
MTEXT
  5
12A
330
1F
100
AcDbEntity
  8
참조1
100
AcDbMText
 10
92.7031029469086
 20
10.98929157337383
 30
0.0
 40
3.5
 41
0.0
 71
     1
 72
     1
  1
A
  7
SLDTEXTSTYLE0
 73
     1
 44
1.0
  0
MTEXT
  5
12B
330
1F
100
AcDbEntity
  8
참조1
100
AcDbMText
 10
92.7031029469086
 20
0.1092915733738251
 30
0.0
 40
3.5
 41
0.0
 71
     1
 72
     1
  1
A
  7
SLDTEXTSTYLE0
 73
     1
 44
1.0
  0
LINE
  5
23F
330
1F
100
AcDbEntity
  8
외형선
  6
Continuous
370
    15
100
AcDbLine
 10
8.480053506027446
 20
4.763574928723891
 30
0.0
 11
-49.32499999999999
 21
4.763574928723891
 31
0.0
  0
LINE
  5
240
330
1F
100
AcDbEntity
  8
외형선
  6
Continuous
370
    15
100
AcDbLine
 10
-49.32499999999999
 20
-4.761425071276108
 30
0.0
 11
8.480053506027446
 21
-4.761425071276108
 31
0.0
  0
LINE
  5
241
330
1F
100
AcDbEntity
  8
외형선
  6
Continuous
370
    15
100
AcDbLine
 10
-49.32499999999999
 20
4.763574928723884
 30
0.0
 11
-50.32499999999999
 21
3.763574928723884
 31
0.0
  0
LINE
  5
242
330
1F
100
AcDbEntity
  8
외형선
  6
Continuous
370
    15
100
AcDbLine
 10
-50.32499999999999
 20
-3.761425071276108
 30
0.0
 11
-49.32499999999999
 21
-4.761425071276101
 31
0.0
  0
SPLINE
  5
243
330
1F
100
AcDbEntity
  8
외형선
  6
Continuous
370
    15
100
AcDbSpline
210
0.0
220
0.0
230
1.0
 70
     8
 71
     3
 72
     9
 73
     5
 74
     0
 42
0.000000001
 43
0.00000001
 40
0.0
 40
0.0
 40
0.0
 40
0.0
 40
0.4403867083438061
 40
1.0
 40
1.0
 40
1.0
 40
1.0
 10
10.00000000000003
 20
3.722734462280805
 30
0.0
 10
9.77862910030214
 20
3.721234543703467
 30
0.0
 10
9.275955210505572
 20
3.71782863124308
 30
0.0
 10
8.765635307016566
 20
3.727427628932247
 30
0.0
 10
8.480053506027417
 20
3.732799355625673
 30
0.0
  0
LINE
  5
244
330
1F
100
AcDbEntity
  8
외형선
  6
Continuous
370
    15
100
AcDbLine
 10
8.480073981375483
 20
-3.730649353324601
 30
0.0
 11
10.00000000000003
 21
-3.720467630207189
 31
0.0
  0
LINE
  5
245
330
1F
100
AcDbEntity
  8
0
  6
Continuous
 62
     1
370
    15
100
AcDbLine
 10
12.24783260345237
 20
1.865629886038136
 30
0.0
 11
12.21216779657419
 21
1.884217873128797
 31
0.0
  0
SPLINE
  5
246
330
1F
100
AcDbEntity
  8
0
  6
Continuous
 62
     1
370
    15
100
AcDbSpline
210
0.0
220
0.0
230
1.0
 70
     8
 71
     3
 72
    11
 73
     7
 74
     0
 42
0.000000001
 43
0.00000001
 40
0.0
 40
0.0
 40
0.0
 40
0.0
 40
0.3202599948394172
 40
0.5117298363729597
 40
0.7046048892319525
 40
1.0
 40
1.0
 40
1.0
 40
1.0
 10
13.53588079765959
 20
1.221445308138549
 30
0.0
 10
13.39832694124445
 20
1.286548649274842
 30
0.0
 10
13.17853547940081
 20
1.390574511523759
 30
0.0
 10
12.87662130002732
 20
1.540905618259551
 30
0.0
 10
12.58482972431466
 20
1.688762710209588
 30
0.0
 10
12.374860436761
 20
1.798961500054808
 30
0.0
 10
12.24783260345237
 20
1.865629886038136
 30
0.0
  0
SPLINE
  5
247
330
1F
100
AcDbEntity
  8
0
  6
Continuous
 62
     1
370
    15
100
AcDbSpline
210
0.0
220
0.0
230
1.0
 70
     8
 71
     3
 72
    11
 73
     7
 74
     0
 42
0.000000001
 43
0.00000001
 40
0.0
 40
0.0
 40
0.0
 40
0.0
 40
0.2143302667267558
 40
0.4480312335040096
 40
0.7077530064254886
 40
1.0
 40
1.0
 40
1.0
 40
1.0
 10
11.96207467085867
 20
3.785541474840088
 30
0.0
 10
11.8326130857327
 20
3.778572652741914
 30
0.0
 10
11.56198946098203
 20
3.764005181668416
 30
0.0
 10
11.09472731765317
 20
3.74427733093389
 30
0.0
 10
10.56752062178919
 20
3.730201188965715
 30
0.0
 10
10.19646185649933
 20
3.72524278087154
 30
0.0
 10
10.0
 20
3.722617487654972
 30
0.0
  0
SPLINE
  5
248
330
1F
100
AcDbEntity
  8
0
  6
Continuous
 62
     1
370
    15
100
AcDbSpline
210
0.0
220
0.0
230
1.0
 70
     8
 71
     3
 72
    23
 73
    19
 74
     0
 42
0.000000001
 43
0.00000001
 40
0.0
 40
0.0
 40
0.0
 40
0.0
 40
0.0896452470376908
 40
0.1640131637021882
 40
0.2224957106825777
 40
0.2662588170200471
 40
0.3042866833992525
 40
0.3390645747262214
 40
0.3762846186519975
 40
0.4204925127995967
 40
0.4786732555579362
 40
0.5446059527915781
 40
0.6129852813254201
 40
0.6693704017200438
 40
0.7236444412298151
 40
0.7967704749927399
 40
0.8889521402221976
 40
1.0
 40
1.0
 40
1.0
 40
1.0
 10
24.10488974188286
 20
3.25838860513003
 30
0.0
 10
23.86052807484313
 20
3.238746510521146
 30
0.0
 10
23.41344882164105
 20
3.202809724299946
 30
0.0
 10
22.7998791709631
 20
3.169414016884296
 30
0.0
 10
22.30613424318736
 20
3.150523833918051
 30
0.0
 10
21.90452037630328
 20
3.140846871444914
 30
0.0
 10
21.57261206197205
 20
3.135769493855086
 30
0.0
 10
21.26246653309209
 20
3.134150597869741
 30
0.0
 10
20.94756329542878
 20
3.136022913129864
 30
0.0
 10
20.5723914631098
 20
3.141739995983578
 30
0.0
 10
20.11416703500518
 20
3.154306254732326
 30
0.0
 10
19.58803197653049
 20
3.176698250075063
 30
0.0
 10
19.06107363262745
 20
3.207947386855992
 30
0.0
 10
18.55931611860098
 20
3.246137053816682
 30
0.0
 10
18.04023614972365
 20
3.292948234003411
 30
0.0
 10
17.42768697499332
 20
3.356981795988276
 30
0.0
 10
16.6589562408696
 20
3.451231275737989
 30
0.0
 10
16.09428278356313
 20
3.536519214588438
 30
0.0
 10
15.7857361838258
 20
3.583121907154215
 30
0.0
  0
SPLINE
  5
249
330
1F
100
AcDbEntity
  8
0
  6
Continuous
 62
     1
370
    15
100
AcDbSpline
210
0.0
220
0.0
230
1.0
 70
     8
 71
     3
 72
    13
 73
     9
 74
     0
 42
0.000000001
 43
0.00000001
 40
0.0
 40
0.0
 40
0.0
 40
0.0
 40
0.2656692644828739
 40
0.4890342327152081
 40
0.6711671535007974
 40
0.8334886787028071
 40
0.989625976386796
 40
1.0
 40
1.0
 40
1.0
 40
1.0
 10
15.7857361838258
 20
-3.580972049706432
 30
0.0
 10
16.09491214885088
 20
-3.534123323565652
 30
0.0
 10
16.66403191934563
 20
-3.447885907707494
 30
0.0
 10
17.4580069929284
 20
-3.350679807721335
 30
0.0
 10
18.14696275766255
 20
-3.280134449574085
 30
0.0
 10
18.75151702436412
 20
-3.228328765644974
 30
0.0
 10
19.1461281995648
 20
-3.199492083508602
 30
0.0
 10
19.33873416045782
 20
-3.189789055292884
 30
0.0
 10
19.350733937835
 20
-3.189184535173496
 30
0.0
  0
SPLINE
  5
24A
330
1F
100
AcDbEntity
  8
0
  6
Continuous
 62
     1
370
    15
100
AcDbSpline
210
0.0
220
0.0
230
1.0
 70
     8
 71
     3
 72
    11
 73
     7
 74
     0
 42
0.000000001
 43
0.00000001
 40
0.0
 40
0.0
 40
0.0
 40
0.0
 40
0.2922469935745115
 40
0.5519687664959905
 40
0.7856697332732442
 40
1.0
 40
1.0
 40
1.0
 40
1.0
 10
10.0
 20
-3.720467630207189
 30
0.0
 10
10.19646185649933
 20
-3.723092923423756
 30
0.0
 10
10.56752062178919
 20
-3.728051331517925
 30
0.0
 10
11.09472731765317
 20
-3.7421274734861
 30
0.0
 10
11.56198946098203
 20
-3.761855324220633
 30
0.0
 10
11.8326130857327
 20
-3.776422795294124
 30
0.0
 10
11.96207467085867
 20
-3.783391617392304
 30
0.0
  0
SPLINE
  5
24B
330
1F
100
AcDbEntity
  8
외형선
  6
Continuous
370
    15
100
AcDbSpline
210
0.0
220
0.0
230
1.0
 70
     8
 71
     3
 72
     8
 73
     4
 74
     0
 42
0.000000001
 43
0.00000001
 40
0.0
 40
0.0
 40
0.0
 40
0.0
 40
1.0
 40
1.0
 40
1.0
 40
1.0
 10
10.0
 20
2.975677941714842
 30
0.0
 10
9.491546850984008
 20
3.204483963957166
 30
0.0
 10
8.988472235632486
 20
3.415626935204742
 30
0.0
 10
8.480109589595145
 20
3.607003779219937
 30
0.0
  0
LINE
  5
24C
330
1F
100
AcDbEntity
  8
외형선
  6
Continuous
370
    15
100
AcDbLine
 10
10.0
 20
2.975677941714842
 30
0.0
 11
10.0
 21
1.832785534367389
 31
0.0
  0
SPLINE
  5
24D
330
1F
100
AcDbEntity
  8
외형선
  6
Continuous
370
    15
100
AcDbSpline
210
0.0
220
0.0
230
1.0
 70
     8
 71
     3
 72
     8
 73
     4
 74
     0
 42
0.000000001
 43
0.00000001
 40
0.0
 40
0.0
 40
0.0
 40
0.0
 40
1.0
 40
1.0
 40
1.0
 40
1.0
 10
10.0
 20
1.832785534367389
 30
0.0
 10
9.491528153135476
 20
2.103241582594798
 30
0.0
 10
8.98843496558078
 20
2.362362879542864
 30
0.0
 10
8.480053506027446
 20
2.607566299230598
 30
0.0
  0
LINE
  5
24E
330
1F
100
AcDbEntity
  8
외형선
  6
Continuous
370
    15
100
AcDbLine
 10
8.480053506027446
 20
3.607137107112599
 30
0.0
 11
8.480053506027446
 21
4.763574928723891
 31
0.0
  0
LINE
  5
24F
330
1F
100
AcDbEntity
  8
외형선
  6
Continuous
370
    15
100
AcDbLine
 10
-49.32499999999999
 20
4.763574928723884
 30
0.0
 11
-49.32499999999999
 21
-4.761425071276108
 31
0.0
  0
LINE
  5
250
330
1F
100
AcDbEntity
  8
외형선
  6
Continuous
370
    15
100
AcDbLine
 10
8.480053506027446
 20
-4.761425071276108
 30
0.0
 11
8.480053506027446
 21
2.607563348175979
 31
0.0
  0
LINE
  5
251
330
1F
100
AcDbEntity
  8
외형선
  6
Continuous
370
    15
100
AcDbLine
 10
-50.32499999999999
 20
3.763574928723884
 30
0.0
 11
-50.32499999999999
 21
-3.761425071276108
 31
0.0
  0
SPLINE
  5
252
330
1F
100
AcDbEntity
  8
외형선
  6
Continuous
370
    15
100
AcDbSpline
210
0.0
220
0.0
230
1.0
 70
    24
 71
     3
 72
    10
 73
     6
 74
     0
 42
0.000000001
 43
0.00000001
 40
0.0
 40
0.0
 40
0.0
 40
0.0
 40
0.5
 40
0.5
 40
1.0
 40
1.0
 40
1.0
 40
1.0
 10
10.0
 20
1.832785534367389
 30
0.0
 10
10.0
 20
1.807430238488415
 30
0.0
 10
10.0
 20
1.732140406393171
 30
0.0
 10
10.0
 20
1.495515664031103
 30
0.0
 10
10.0
 20
1.335136482785323
 30
0.0
 10
10.0
 20
1.155694405135804
 30
0.0
  0
SPLINE
  5
253
330
1F
100
AcDbEntity
  8
외형선
  6
Continuous
370
    15
100
AcDbSpline
210
0.0
220
0.0
230
1.0
 70
     8
 71
     3
 72
     8
 73
     4
 74
     0
 42
0.000000001
 43
0.00000001
 40
0.0
 40
0.0
 40
0.0
 40
0.0
 40
1.0
 40
1.0
 40
1.0
 40
1.0
 10
10.00000000000003
 20
1.155694405135804
 30
0.0
 10
9.491532656749314
 20
1.348094402228391
 30
0.0
 10
8.98844394254877
 20
1.533272273108835
 30
0.0
 10
8.480067014466783
 20
1.7093819195387
 30
0.0
  0
SPLINE
  5
254
330
1F
100
AcDbEntity
  8
외형선
  6
Continuous
370
    15
100
AcDbSpline
210
0.0
220
0.0
230
1.0
 70
     8
 71
     3
 72
     8
 73
     4
 74
     0
 42
0.000000001
 43
0.00000001
 40
0.0
 40
0.0
 40
0.0
 40
0.0
 40
1.0
 40
1.0
 40
1.0
 40
1.0
 10
10.00000000000003
 20
-3.573116994620683
 30
0.0
 10
9.491534979465257
 20
-3.491937193856799
 30
0.0
 10
8.9884485723735
 20
-3.390790217240514
 30
0.0
 10
8.480073981375483
 20
-3.27068865406077
 30
0.0
  0
SPLINE
  5
255
330
1F
100
AcDbEntity
  8
외형선
  6
Continuous
370
    15
100
AcDbSpline
210
0.0
220
0.0
230
1.0
 70
    24
 71
     3
 72
    14
 73
    10
 74
     0
 42
0.000000001
 43
0.00000001
 40
0.0
 40
0.0
 40
0.0
 40
0.0
 40
0.25
 40
0.25
 40
0.5
 40
0.5
 40
0.75
 40
0.75
 40
1.0
 40
1.0
 40
1.0
 40
1.0
 10
10.0
 20
1.155694405135804
 30
0.0
 10
10.0
 20
0.7378872871813371
 30
0.0
 10
10.0
 20
0.2994918363241794
 30
0.0
 10
10.0
 20
-0.5803459015624597
 30
0.0
 10
10.0
 20
-1.021366390146341
 30
0.0
 10
10.0
 20
-1.861812512765113
 30
0.0
 10
10.0
 20
-2.260790321968308
 30
0.0
 10
10.0
 20
-2.98043186715315
 30
0.0
 10
10.0
 20
-3.30089880888562
 30
0.0
 10
10.0
 20
-3.573116994620683
 30
0.0
  0
SPLINE
  5
256
330
1F
100
AcDbEntity
  8
외형선
  6
Continuous
370
    15
100
AcDbSpline
210
0.0
220
0.0
230
1.0
 70
    24
 71
     3
 72
    14
 73
    10
 74
     0
 42
0.000000001
 43
0.00000001
 40
0.0
 40
0.0
 40
0.0
 40
0.0
 40
0.1393783710695799
 40
0.3000551622046237
 40
0.464226254147185
 40
0.6296047780573866
 40
0.7736125052796474
 40
0.9184327549499384
 40
1.0
 40
1.0
 40
1.0
 40
1.0
 10
10.00000000000003
 20
3.720749062071945
 30
0.0
 10
10.00000000000003
 20
3.718878817457387
 30
0.0
 10
10.00000000000003
 20
3.714852535998673
 30
0.0
 10
10.00000000000003
 20
3.664173902306551
 30
0.0
 10
10.00000000000003
 20
3.577068952225076
 30
0.0
 10
10.00000000000003
 20
3.456679848314764
 30
0.0
 10
10.00000000000003
 20
3.308834078273925
 30
0.0
 10
10.00000000000003
 20
3.168977184065149
 30
0.0
 10
10.00000000000003
 20
3.065723086274566
 30
0.0
 10
10.00000000000003
 20
3.028520712056363
 30
0.0
  0
SPLINE
  5
257
330
1F
100
AcDbEntity
  8
외형선
  6
Continuous
370
    15
100
AcDbSpline
210
0.0
220
0.0
230
1.0
 70
    24
 71
     3
 72
    10
 73
     6
 74
     0
 42
0.000000001
 43
0.00000001
 40
0.0
 40
0.0
 40
0.0
 40
0.0
 40
0.4939108671351576
 40
0.9878217342703152
 40
1.0
 40
1.0
 40
1.0
 40
1.0
 10
10.00000000000003
 20
-3.573116994620683
 30
0.0
 10
10.00000000000003
 20
-3.611314404757721
 30
0.0
 10
10.00000000000003
 20
-3.687709225031803
 30
0.0
 10
10.00000000000003
 20
-3.734733482305977
 30
0.0
 10
10.00000000000003
 20
-3.719604409860061
 30
0.0
 10
10.00000000000003
 20
-3.719240351727755
 30
0.0
  0
SPLINE
  5
258
330
1F
100
AcDbEntity
  8
0
  6
Continuous
 62
     1
370
    15
100
AcDbSpline
210
0.0
220
0.0
230
1.0
 70
     8
 71
     3
 72
    16
 73
    12
 74
     0
 42
0.000000001
 43
0.00000001
 40
0.0
 40
0.0
 40
0.0
 40
0.0
 40
0.117440638154161
 40
0.2347499210932908
 40
0.3520283652122362
 40
0.4693768335965834
 40
0.5868605456837248
 40
0.7042382375228732
 40
0.8215235425659743
 40
0.9388172467312169
 40
1.0
 40
1.0
 40
1.0
 40
1.0
 10
25.87500000000003
 20
-3.756405480329732
 30
0.0
 10
25.39139893003016
 20
-3.656976803708204
 30
0.0
 10
24.42473768908022
 20
-3.458230659629216
 30
0.0
 10
22.97550012248576
 20
-3.022288883823876
 30
0.0
 10
21.52665970842008
 20
-2.501591849552646
 30
0.0
 10
20.07701382731443
 20
-1.901376923520466
 30
0.0
 10
18.62651869066718
 20
-1.243921922195845
 30
0.0
 10
17.17664664444428
 20
-0.5468984615205059
 30
0.0
 10
15.72771055562629
 20
0.1650109970238915
 30
0.0
 10
14.51015187693443
 20
0.7650233676008114
 30
0.0
 10
13.77526274175548
 20
1.106179860743403
 30
0.0
 10
13.52333853122377
 20
1.223130263312342
 30
0.0
  0
LINE
  5
259
330
1F
100
AcDbEntity
  8
0
  6
Continuous
 62
     1
370
    15
100
AcDbLine
 10
25.87500000000003
 20
-3.973572247295046
 30
0.0
 11
25.87500000000003
 21
-3.756405480329732
 31
0.0
  0
SPLINE
  5
25A
330
1F
100
AcDbEntity
  8
0
  6
Continuous
 62
     1
370
    15
100
AcDbSpline
210
0.0
220
0.0
230
1.0
 70
     8
 71
     3
 72
    14
 73
    10
 74
     0
 42
0.000000001
 43
0.00000001
 40
0.0
 40
0.0
 40
0.0
 40
0.0
 40
0.25
 40
0.25
 40
0.5
 40
0.5
 40
0.75
 40
0.75
 40
1.0
 40
1.0
 40
1.0
 40
1.0
 10
25.36700000000002
 20
-4.417075946245419
 30
0.0
 10
25.42757194843495
 20
-4.430121282100473
 30
0.0
 10
25.48947260783615
 20
-4.431394221522154
 30
0.0
 10
25.61047126984772
 20
-4.405354170952933
 30
0.0
 10
25.66879563325236
 20
-4.37765222842755
 30
0.0
 10
25.76789222001457
 20
-4.294473753691712
 30
0.0
 10
25.80852164003846
 20
-4.238701671859324
 30
0.0
 10
25.86186973126053
 20
-4.113159975444212
 30
0.0
 10
25.87500000000003
 20
-4.043627750483267
 30
0.0
 10
25.87500000000003
 20
-3.973572247295046
 30
0.0
  0
SPLINE
  5
25B
330
1F
100
AcDbEntity
  8
0
  6
Continuous
 62
     1
370
    15
100
AcDbSpline
210
0.0
220
0.0
230
1.0
 70
     8
 71
     3
 72
    34
 73
    30
 74
     0
 42
0.000000001
 43
0.00000001
 40
0.0
 40
0.0
 40
0.0
 40
0.0
 40
0.0625000000000001
 40
0.0625000000000001
 40
0.125
 40
0.125
 40
0.1874999999999998
 40
0.1874999999999998
 40
0.2499999999999997
 40
0.2499999999999997
 40
0.3124999999999996
 40
0.3124999999999996
 40
0.3749999999999994
 40
0.3749999999999994
 40
0.4374999999999993
 40
0.4374999999999993
 40
0.4999999999999992
 40
0.4999999999999992
 40
0.5624999999999993
 40
0.5624999999999993
 40
0.6249999999999994
 40
0.6249999999999994
 40
0.7499999999999997
 40
0.7499999999999997
 40
0.8749999999999999
 40
0.8749999999999999
 40
0.9375
 40
0.9375
 40
1.0
 40
1.0
 40
1.0
 40
1.0
 10
25.36700000000002
 20
-4.417075946245419
 30
0.0
 10
25.04648999710002
 20
-4.348047943336979
 30
0.0
 10
24.72456374353385
 20
-4.268896324955939
 30
0.0
 10
24.08440911144791
 20
-4.091977762155118
 30
0.0
 10
23.76690121229092
 20
-3.99433649103905
 30
0.0
 10
23.12550477919342
 20
-3.780805816062795
 30
0.0
 10
22.80362760198625
 20
-3.665085905976127
 30
0.0
 10
22.16404240994564
 20
-3.418131517853958
 30
0.0
 10
21.84622094629344
 20
-3.28692829639887
 30
0.0
 10
21.20451659244432
 20
-3.009430097306861
 30
0.0
 10
20.88272316493968
 20
-2.863397736815244
 30
0.0
 10
20.2437752748188
 20
-2.559784649611665
 30
0.0
 10
19.92547660819776
 20
-2.402052770829059
 30
0.0
 10
19.28353294996214
 20
-2.075558021826424
 30
0.0
 10
18.96185791533264
 20
-1.907107409059606
 30
0.0
 10
18.32361496270255
 20
-1.563266143462769
 30
0.0
 10
18.00467562412564
 20
-1.387464800710717
 30
0.0
 10
17.36256136326062
 20
-1.029598508909025
 30
0.0
 10
17.04103932204424
 20
-0.8478342723117436
 30
0.0
 10
16.40356869247705
 20
-0.4823570668991692
 30
0.0
 10
16.08382544040177
 20
-0.2979233771958008
 30
0.0
 10
15.12050128914672
 20
0.2569457805716979
 30
0.0
 10
14.48405809180338
 20
0.6267739441271729
 30
0.0
 10
13.19955980822914
 20
1.350734962502187
 30
0.0
 10
12.56311403039371
 20
1.702668042954976
 30
0.0
 10
11.59979397251823
 20
2.204414709554626
 30
0.0
 10
11.28008570852259
 20
2.366806028295443
 30
0.0
 10
10.64258316911466
 20
2.679901637537952
 30
0.0
 10
10.32105440199697
 20
2.83120213153164
 30
0.0
 10
9.999999999996959
 20
2.975677941716228
 30
0.0
  0
SPLINE
  5
25C
330
1F
100
AcDbEntity
  8
0
  6
Continuous
 62
     1
370
    15
100
AcDbSpline
210
0.0
220
0.0
230
1.0
 70
     8
 71
     3
 72
    10
 73
     6
 74
     0
 42
0.000000001
 43
0.00000001
 40
0.0
 40
0.0
 40
0.0
 40
0.0
 40
0.3005366942658513
 40
0.6505228876435025
 40
1.0
 40
1.0
 40
1.0
 40
1.0
 10
14.04434067772752
 20
-0.4519137733614684
 30
0.0
 10
13.63918815933289
 20
-0.2891317979269559
 30
0.0
 10
12.76222041718765
 20
0.063215861232095
 30
0.0
 10
11.41391486193422
 20
0.6096578031801911
 30
0.0
 10
10.47107621609831
 20
0.9737705402515076
 30
0.0
 10
10.00000000000003
 20
1.155694405135804
 30
0.0
  0
SPLINE
  5
25D
330
1F
100
AcDbEntity
  8
외형선
  6
Continuous
370
    15
100
AcDbSpline
210
0.0
220
0.0
230
1.0
 70
    24
 71
     3
 72
    10
 73
     6
 74
     0
 42
0.000000001
 43
0.00000001
 40
0.0
 40
0.0
 40
0.0
 40
0.0
 40
0.5
 40
0.5
 40
1.0
 40
1.0
 40
1.0
 40
1.0
 10
10.00000000000003
 20
1.832785534367382
 30
0.0
 10
10.00000000000003
 20
1.807430238488415
 30
0.0
 10
10.00000000000003
 20
1.732140406393171
 30
0.0
 10
10.00000000000003
 20
1.495515664031096
 30
0.0
 10
10.00000000000003
 20
1.335136482785323
 30
0.0
 10
10.00000000000003
 20
1.155694405135804
 30
0.0
  0
SPLINE
  5
25E
330
1F
100
AcDbEntity
  8
0
  6
Continuous
 62
     1
370
    15
100
AcDbSpline
210
0.0
220
0.0
230
1.0
 70
     8
 71
     3
 72
    34
 73
    30
 74
     0
 42
0.000000001
 43
0.00000001
 40
0.0081082474896344
 40
0.0081082474896344
 40
0.0081082474896344
 40
0.0081082474896344
 40
0.0624999999999998
 40
0.0624999999999998
 40
0.1249999999999998
 40
0.1249999999999998
 40
0.1874999999999999
 40
0.1874999999999999
 40
0.2499999999999999
 40
0.2499999999999999
 40
0.3124999999999999
 40
0.3124999999999999
 40
0.3749999999999999
 40
0.3749999999999999
 40
0.4374999999999999
 40
0.4374999999999999
 40
0.4999999999999999
 40
0.4999999999999999
 40
0.5624999999999999
 40
0.5624999999999999
 40
0.6249999999999999
 40
0.6249999999999999
 40
0.7499999999999999
 40
0.7499999999999999
 40
0.875
 40
0.875
 40
0.9375
 40
0.9375
 40
1.0
 40
1.0
 40
1.0
 40
1.0
 10
25.11300000000003
 20
-4.76142507127609
 30
0.0
 10
24.85835333614671
 20
-4.726611016242998
 30
0.0
 10
24.47633599786553
 20
-4.682357206385753
 30
0.0
 10
24.08440911144817
 20
-4.607164897853174
 30
0.0
 10
23.76690121229123
 20
-4.556598364903877
 30
0.0
 10
23.12550477919388
 20
-4.434778545776581
 30
0.0
 10
22.80362760198676
 20
-4.363589738740323
 30
0.0
 10
22.16404240994626
 20
-4.202154264468128
 30
0.0
 10
21.84622094629415
 20
-4.111953515059987
 30
0.0
 10
21.20451659244515
 20
-3.912806079912748
 30
0.0
 10
20.88272316494056
 20
-3.804025153871642
 30
0.0
 10
20.2437752748198
 20
-3.570329497280262
 30
0.0
 10
19.92547660819884
 20
-3.445316246442111
 30
0.0
 10
19.28353294996336
 20
-3.179576070175635
 30
0.0
 10
18.96185791533395
 20
-3.039086694683419
 30
0.0
 10
18.32361496270391
 20
-2.745798068056736
 30
0.0
 10
18.00467562412712
 20
-2.592660805535743
 30
0.0
 10
17.36256136326222
 20
-2.274667423287021
 30
0.0
 10
17.04103932204589
 20
-2.110066672866985
 30
0.0
 10
16.40356869247881
 20
-1.773063640427885
 30
0.0
 10
16.08382544040364
 20
-1.600004299439725
 30
0.0
 10
15.12050128914876
 20
-1.070386994296193
 30
0.0
 10
14.48405809180557
 20
-0.7054706325063194
 30
0.0
 10
13.19955980823156
 20
0.0327197405582353
 30
0.0
 10
12.56311403039626
 20
0.4037507740959398
 30
0.0
 10
11.59979397252098
 20
0.9515168805468122
 30
0.0
 10
11.28008570852538
 20
1.132098727115768
 30
0.0
 10
10.64258316911759
 20
1.487006277807247
 30
0.0
 10
10.32105440199999
 20
1.66201677820839
 30
0.0
 10
10.00000000000003
 20
1.832785534367382
 30
0.0
  0
SPLINE
  5
25F
330
1F
100
AcDbEntity
  8
0
  6
Continuous
 62
     1
370
    15
100
AcDbSpline
210
0.0
220
0.0
230
1.0
 70
     8
 71
     3
 72
    16
 73
    12
 74
     0
 42
0.000000001
 43
0.00000001
 40
0.0
 40
0.0
 40
0.0
 40
0.0
 40
0.1251428617001937
 40
0.2502882086563065
 40
0.3638843196001328
 40
0.4776131804547855
 40
0.5912379845128409
 40
0.7047721017110191
 40
0.8183144580433833
 40
0.9319638863905894
 40
1.0
 40
1.0
 40
1.0
 40
1.0
 10
24.72052765837765
 20
0.5323576126642067
 30
0.0
 10
24.18826919366478
 20
0.7739497626578995
 30
0.0
 10
23.12374169393172
 20
1.257138860508412
 30
0.0
 10
21.57601873352348
 20
1.908947020368153
 30
0.0
 10
20.07699707556412
 20
2.47705609060791
 30
0.0
 10
18.6265134797159
 20
2.949423405302419
 30
0.0
 10
17.17663577688521
 20
3.331138605207762
 30
0.0
 10
15.72769548402027
 20
3.611501868330045
 30
0.0
 10
14.27865386041549
 20
3.775725182564486
 30
0.0
 10
13.02289708444232
 20
3.833132047232134
 30
0.0
 10
12.25004149255625
 20
3.788853794089924
 30
0.0
 10
11.96062886078073
 20
3.77227283652573
 30
0.0
  0
SPLINE
  5
260
330
1F
100
AcDbEntity
  8
0
  6
Continuous
 62
     1
370
    15
100
AcDbSpline
210
0.0
220
0.0
230
1.0
 70
    24
 71
     3
 72
     8
 73
     4
 74
     0
 42
0.000000001
 43
0.00000001
 40
0.0
 40
0.0
 40
0.0
 40
0.0
 40
1.0
 40
1.0
 40
1.0
 40
1.0
 10
24.72052765837765
 20
0.5323576126642067
 30
0.0
 10
24.55401577711478
 20
0.392637554509875
 30
0.0
 10
24.3875968732529
 20
0.2529955136584618
 30
0.0
 10
24.22126864106835
 20
0.1134295553780333
 30
0.0
  0
SPLINE
  5
261
330
1F
100
AcDbEntity
  8
0
  6
Continuous
 62
     1
370
    15
100
AcDbSpline
210
0.0
220
0.0
230
1.0
 70
     8
 71
     3
 72
     8
 73
     4
 74
     0
 42
0.000000001
 43
0.00000001
 40
0.0
 40
0.0
 40
0.0
 40
0.0
 40
1.0
 40
1.0
 40
1.0
 40
1.0
 10
25.87500000000003
 20
-1.271669601742289
 30
0.0
 10
25.31551019568366
 20
-0.831816200551053
 30
0.0
 10
24.76407819674813
 20
-0.3706151164723934
 30
0.0
 10
24.2212686410771
 20
0.1134295553853661
 30
0.0
  0
SPLINE
  5
262
330
1F
100
AcDbEntity
  8
0
  6
Continuous
 62
     1
370
    15
100
AcDbSpline
210
0.0
220
0.0
230
1.0
 70
    24
 71
     3
 72
    10
 73
     6
 74
     0
 42
0.000000001
 43
0.00000001
 40
0.0
 40
0.0
 40
0.0
 40
0.0
 40
0.5
 40
0.5
 40
1.0
 40
1.0
 40
1.0
 40
1.0
 10
25.87500000000003
 20
-3.756405480329732
 30
0.0
 10
25.87500000000003
 20
-3.468365311406728
 30
0.0
 10
25.87500000000003
 20
-3.104415513380665
 30
0.0
 10
25.875
 20
-2.258267259231218
 30
0.0
 10
25.87500000000003
 20
-1.776801768807971
 30
0.0
 10
25.87500000000003
 20
-1.271669601742438
 30
0.0
  0
SPLINE
  5
263
330
1F
100
AcDbEntity
  8
외형선
  6
Continuous
370
    15
100
AcDbSpline
210
0.0
220
0.0
230
1.0
 70
    24
 71
     3
 72
    14
 73
    10
 74
     0
 42
0.000000001
 43
0.00000001
 40
0.0
 40
0.0
 40
0.0
 40
0.0
 40
0.1504756334143827
 40
0.3090819573279908
 40
0.4711375547913977
 40
0.6343850253586325
 40
0.776537081474065
 40
0.9194911899435996
 40
1.0
 40
1.0
 40
1.0
 40
1.0
 10
10.00000000000003
 20
3.721855795815635
 30
0.0
 10
10.00000000000003
 20
3.71991143484486
 30
0.0
 10
10.00000000000003
 20
3.715917652722389
 30
0.0
 10
10.00000000000003
 20
3.664275117732394
 30
0.0
 10
10.00000000000003
 20
3.577041227629202
 30
0.0
 10
10.00000000000003
 20
3.45668626247371
 30
0.0
 10
10.00000000000003
 20
3.308832364334506
 30
0.0
 10
10.00000000000003
 20
3.168980426172794
 30
0.0
 10
10.00000000000003
 20
3.065729695688859
 30
0.0
 10
10.00000000000003
 20
3.028530712056366
 30
0.0
  0
LINE
  5
264
330
1F
100
AcDbEntity
  8
0
  6
Continuous
 62
     1
370
    15
100
AcDbLine
 10
24.8235810710064
 20
0.618829693192545
 30
0.0
 11
25.87500000000003
 21
0.0010749287238951
 31
0.0
  0
LINE
  5
265
330
1F
100
AcDbEntity
  8
0
  6
Continuous
 62
     1
370
    15
100
AcDbLine
 10
25.87500000000003
 20
0.0010749287238951
 30
0.0
 11
25.87500000000003
 21
-1.271669601742289
 31
0.0
  0
SPLINE
  5
266
330
1F
100
AcDbEntity
  8
0
  6
Continuous
 62
     1
370
    15
100
AcDbSpline
210
0.0
220
0.0
230
1.0
 70
     8
 71
     3
 72
     9
 73
     5
 74
     0
 42
0.000000001
 43
0.00000001
 40
0.0
 40
0.0
 40
0.0
 40
0.0
 40
0.8184383289850202
 40
1.0
 40
1.0
 40
1.0
 40
1.0
 10
25.87500000000003
 20
3.33482492872389
 30
0.0
 10
25.39139382065505
 20
3.331512337746148
 30
0.0
 10
24.80050485294908
 20
3.327464884370094
 30
0.0
 10
24.20972240073672
 20
3.261560244618096
 30
0.0
 10
24.10245895150672
 20
3.249594488097081
 30
0.0
  0
SPLINE
  5
267
330
1F
100
AcDbEntity
  8
0
  6
Continuous
 62
     1
370
    15
100
AcDbSpline
210
0.0
220
0.0
230
1.0
 70
    24
 71
     3
 72
    10
 73
     6
 74
     0
 42
0.000000001
 43
0.00000001
 40
0.0
 40
0.0
 40
0.0
 40
0.0
 40
0.5000000000000001
 40
0.5000000000000001
 40
1.0
 40
1.0
 40
1.0
 40
1.0
 10
25.87500000000003
 20
1.501074928723952
 30
0.0
 10
25.87500000000003
 20
1.966775327254041
 30
0.0
 10
25.87500000000003
 20
2.373179306812602
 30
0.0
 10
25.87500000000003
 20
2.9972864598125
 30
0.0
 10
25.87500000000003
 20
3.21456181841036
 30
0.0
 10
25.87500000000003
 20
3.33482492872389
 30
0.0
  0
SPLINE
  5
268
330
1F
100
AcDbEntity
  8
0
  6
Continuous
 62
     1
370
    15
100
AcDbSpline
210
0.0
220
0.0
230
1.0
 70
    24
 71
     3
 72
     8
 73
     4
 74
     0
 42
0.000000001
 43
0.00000001
 40
0.0
 40
0.0
 40
0.0
 40
0.0
 40
1.0
 40
1.0
 40
1.0
 40
1.0
 10
25.87500000000003
 20
1.501074928723895
 30
0.0
 10
25.50024444710684
 20
1.186617682509585
 30
0.0
 10
25.11495761033169
 20
0.8633236398740891
 30
0.0
 10
24.72052765837765
 20
0.5323576126641996
 30
0.0
  0
SPLINE
  5
269
330
1F
100
AcDbEntity
  8
0
  6
Continuous
 62
     1
370
    15
100
AcDbSpline
210
0.0
220
0.0
230
1.0
 70
     8
 71
     3
 72
    12
 73
     8
 74
     0
 42
0.000000001
 43
0.00000001
 40
0.0
 40
0.0
 40
0.0
 40
0.0
 40
0.0101707909867481
 40
0.2605400412788032
 40
0.5111453932420688
 40
0.755745962229157
 40
1.0
 40
1.0
 40
1.0
 40
1.0
 10
15.78657975903621
 20
-3.578707995501269
 30
0.0
 10
15.76696352890735
 20
-3.582495693025166
 30
0.0
 10
15.26446442002128
 20
-3.679523236951155
 30
0.0
 10
14.27865279978451
 20
-3.769243133181575
 30
0.0
 10
12.84047881132483
 20
-3.828645556747588
 30
0.0
 10
11.41388731046675
 20
-3.76849035461526
 30
0.0
 10
10.4710729945852
 20
-3.638210664443939
 30
0.0
 10
10.00000000000003
 20
-3.573116994620683
 30
0.0
  0
SPLINE
  5
26A
330
1F
100
AcDbEntity
  8
외형선
  6
Continuous
370
    15
100
AcDbSpline
210
0.0
220
0.0
230
1.0
 70
    24
 71
     3
 72
    14
 73
    10
 74
     0
 42
0.000000001
 43
0.00000001
 40
0.0
 40
0.0
 40
0.0
 40
0.0
 40
0.2499999999999999
 40
0.2499999999999999
 40
0.4999999999999999
 40
0.4999999999999999
 40
0.7499999999999999
 40
0.7499999999999999
 40
1.0
 40
1.0
 40
1.0
 40
1.0
 10
10.00000000000003
 20
1.155694405135804
 30
0.0
 10
10.00000000000003
 20
0.7378872871813371
 30
0.0
 10
10.00000000000003
 20
0.2994918363241794
 30
0.0
 10
10.00000000000003
 20
-0.5803459015624597
 30
0.0
 10
10.00000000000003
 20
-1.021366390146348
 30
0.0
 10
10.00000000000003
 20
-1.861812512765113
 30
0.0
 10
10.00000000000003
 20
-2.260790321968308
 30
0.0
 10
10.00000000000003
 20
-2.98043186715315
 30
0.0
 10
10.00000000000003
 20
-3.300898808885627
 30
0.0
 10
10.00000000000003
 20
-3.573116994620683
 30
0.0
  0
LINE
  5
26B
330
1F
100
AcDbEntity
  8
0
  6
Continuous
 62
     1
370
    15
100
AcDbLine
 10
25.87500000000003
 20
-3.973572247295046
 30
0.0
 11
25.87500000000003
 21
-3.999425071276089
 31
0.0
  0
SPLINE
  5
26C
330
1F
100
AcDbEntity
  8
외형선
  6
Continuous
370
    15
100
AcDbSpline
210
0.0
220
0.0
230
1.0
 70
    24
 71
     3
 72
    10
 73
     6
 74
     0
 42
0.000000001
 43
0.00000001
 40
0.0
 40
0.0
 40
0.0
 40
0.0
 40
0.4920232444955037
 40
0.9840464889910074
 40
1.0
 40
1.0
 40
1.0
 40
1.0
 10
10.00000000000003
 20
-3.573116994620683
 30
0.0
 10
10.00000000000003
 20
-3.611340852548452
 30
0.0
 10
10.00000000000003
 20
-3.687788568403988
 30
0.0
 10
10.00000000000003
 20
-3.734724466232784
 30
0.0
 10
10.00000000000003
 20
-3.719385137917158
 30
0.0
 10
10.00000000000003
 20
-3.718903391182685
 30
0.0
  0
LINE
  5
26D
330
1F
100
AcDbEntity
  8
0
  6
Continuous
 62
     1
370
    15
100
AcDbLine
 10
25.87500000000003
 20
0.0010749287238951
 30
0.0
 11
25.87500000000003
 21
1.501074928723895
 31
0.0
  0
SPLINE
  5
26E
330
1F
100
AcDbEntity
  8
0
  6
Continuous
 62
     1
370
    15
100
AcDbSpline
210
0.0
220
0.0
230
1.0
 70
     8
 71
     3
 72
    11
 73
     7
 74
     0
 42
0.000000001
 43
0.00000001
 40
0.0
 40
0.0
 40
0.0
 40
0.0
 40
0.156705435824572
 40
0.4378576854151383
 40
0.7189516798419942
 40
1.0
 40
1.0
 40
1.0
 40
1.0
 10
19.35302735750975
 20
3.192300491074427
 30
0.0
 10
19.66718234540429
 20
3.328873130082521
 30
0.0
 10
20.54497688480438
 20
3.710476865093113
 30
0.0
 10
21.98628163967626
 20
4.174167942444619
 30
0.0
 10
23.6767755437273
 20
4.58168825160152
 30
0.0
 10
24.28453527203897
 20
4.716321933994415
 30
0.0
 10
25.11300000000003
 20
4.763574928723894
 30
0.0
  0
SPLINE
  5
26F
330
1F
100
AcDbEntity
  8
0
  6
Continuous
 62
     1
370
    15
100
AcDbSpline
210
0.0
220
0.0
230
1.0
 70
    24
 71
     3
 72
     8
 73
     4
 74
     0
 42
0.000000001
 43
0.00000001
 40
0.0
 40
0.0
 40
0.0
 40
0.0
 40
0.7470050396798332
 40
0.7470050396798332
 40
0.7470050396798332
 40
0.7470050396798332
 10
25.87500000000003
 20
3.33482492872389
 30
0.0
 10
25.87500000000003
 20
3.532298220830949
 30
0.0
 10
25.875
 20
3.761771350548656
 30
0.0
 10
25.875
 20
4.00157492872389
 30
0.0
  0
LINE
  5
270
330
1F
100
AcDbEntity
  8
중심선
 48
0.8
100
AcDbLine
 10
-53.32499999999999
 20
0.001074928723888
 30
0.0
 11
28.875
 21
0.0010749287239022
 31
0.0
  0
CIRCLE
  5
271
330
1F
100
AcDbEntity
  8
해칭선
100
AcDbCircle
 10
0.0
 20
0.0
 30
0.0
 40
3.000000000000001
  0
DIMENSION
  5
272
330
1F
100
AcDbEntity
  8
치수문자_일반주서
100
AcDbDimension
  2
*D12
 10
-62.825
 20
-4.761425071276158
 30
0.0
 11
-62.82500000000002
 21
0.0010749287239022
 31
0.0
 70
   160
  1
%%c<>
 71
     2
 42
9.525000000000006
 52
-270.0
  3
SLDDIMSTYLE0
100
AcDbAlignedDimension
 13
-49.32499999999999
 23
4.763574928723898
 33
0.0
 14
-49.32499999999999
 24
-4.761425071276108
 34
0.0
 50
90.0000000000002
100
AcDbRotatedDimension
1001
ACAD
1000
DSTYLE
1002
{
1070
   171
1070
     5
1070
   273
1070
     7
1002
}
  0
DIMENSION
  5
273
330
1F
100
AcDbEntity
  8
치수문자_일반주서
100
AcDbDimension
  2
*D13
 10
41.75439309023545
 20
-4.761425071276044
 30
0.0
 11
41.75439309023534
 21
26.39152604942043
 31
0.0
 70
   160
  1
%%c<>
 71
     2
 42
9.524999999999999
 52
-270.0
  3
SLDDIMSTYLE0
100
AcDbAlignedDimension
 13
25.87500000000006
 23
4.763574928723898
 33
0.0
 14
25.87500000000006
 24
-4.761425071276101
 34
0.0
 50
90.0000000000002
100
AcDbRotatedDimension
1001
ACAD
1000
DSTYLE
1002
{
1070
   171
1070
     5
1070
   273
1070
     7
1002
}
  0
DIMENSION
  5
274
330
1F
100
AcDbEntity
  8
치수문자_일반주서
100
AcDbDimension
  2
*D14
 10
10.0
 20
14.30755048907219
 30
0.0
 11
-10.72460592364058
 21
14.30755048907219
 31
0.0
 70
   160
  1
<>
 71
     2
 42
15.87500000000006
  3
SLDDIMSTYLE0
100
AcDbAlignedDimension
 13
25.87500000000006
 23
4.763574928723898
 33
0.0
 14
10.0
 24
3.722735383864915
 34
0.0
 50
-0.0000000000000256
100
AcDbRotatedDimension
1001
ACAD
1000
DSTYLE
1002
{
1070
   171
1070
     5
1070
   273
1070
     7
1002
}
  0
DIMENSION
  5
275
330
1F
100
AcDbEntity
  8
치수문자_일반주서
100
AcDbDimension
  2
*D15
 10
-50.32499999999999
 20
26.30755048907216
 30
0.0
 11
-12.56788896289729
 21
26.30755048907216
 31
0.0
 70
   160
  1
<>
 71
     2
 42
76.20000000000005
  3
SLDDIMSTYLE0
100
AcDbAlignedDimension
 13
25.87500000000006
 23
4.763574928723898
 33
0.0
 14
-50.32499999999999
 24
3.763574928723884
 34
0.0
 50
-0.0000000000000214
100
AcDbRotatedDimension
1001
ACAD
1000
DSTYLE
1002
{
1070
   171
1070
     5
1070
   273
1070
     7
1002
}
  0
INSERT
  5
276
330
1F
100
AcDbEntity
  8
해칭선
100
AcDbBlockReference
  2
SW_DOWELSYMBOL_0
 10
0.0
 20
0.0
 30
0.0
  0
ARC
  5
2BE
330
1F
100
AcDbEntity
  8
0
  6
Continuous
 62
     1
370
    15
100
AcDbCircle
 10
25.11300000000003
 20
4.001574928723894
 30
0.0
 40
0.762
100
AcDbArc
 50
359.9999999999998
 51
90.0
  0
ARC
  5
2BF
330
1F
100
AcDbEntity
  8
0
  6
Continuous
 62
     1
370
    15
100
AcDbCircle
 10
25.11300000000003
 20
-3.999425071276089
 30
0.0
 40
0.762
100
AcDbArc
 50
270.0
 51
0.0000000000002671
  0
DIMENSION
  5
2C0
330
1F
100
AcDbEntity
  8
치수문자_일반주서
100
AcDbDimension
  2
*D17
 10
25.11300000000003
 20
-3.999425071276089
 30
0.0
 11
36.86054552562599
 21
-22.1073406521994
 31
0.0
 70
   164
  1
<>
 71
     5
 42
0.7619999999999981
  3
SLDDIMSTYLE0
100
AcDbRadialDimension
 15
25.52772010055838
 25
-4.63868342139196
 35
0.0
 40
0.0
1001
ACAD
1000
DSTYLE
1002
{
1070
   171
1070
     3
1002
}
1001
ACAD_DSTYLE_DIMRADIAL_EXTENSION
1070
   387
1070
     1
1070
   388
1040
4.71238898038469
1070
   390
1040
0.0000000000000047
  0
ENDSEC
  0
SECTION
  2
OBJECTS
  0
DICTIONARY
  5
C
330
0
100
AcDbDictionary
281
     1
  3
ACAD_GROUP
350
D
  3
ACAD_IMAGE_VARS
350
156
  3
ACAD_LAYOUT
350
1A
  3
ACAD_MLINESTYLE
350
17
  3
ACAD_PLOTSETTINGS
350
19
  3
ACAD_PLOTSTYLENAME
350
E
  3
ACAD_SCALELIST
350
47
  3
APPDATA
350
154
  3
DWGPROPS
350
2F0
  0
DICTIONARY
  5
204
330
2
100
AcDbDictionary
280
     1
281
     1
  3
ACAD_LAYERSTATES
360
205
  0
DICTIONARY
  5
D
102
{ACAD_REACTORS
330
C
102
}
330
C
100
AcDbDictionary
281
     1
  0
RASTERVARIABLES
  5
156
102
{ACAD_REACTORS
330
C
102
}
330
C
100
AcDbRasterVariables
 90
        0
 70
     1
 71
     1
 72
     1
  0
DICTIONARY
  5
1A
102
{ACAD_REACTORS
330
C
102
}
330
C
100
AcDbDictionary
281
     1
  3
Layout1
350
1E
  3
Layout2
350
26
  3
Model
350
22
  0
DICTIONARY
  5
17
102
{ACAD_REACTORS
330
C
102
}
330
C
100
AcDbDictionary
281
     1
  3
Standard
350
18
  0
DICTIONARY
  5
19
102
{ACAD_REACTORS
330
C
102
}
330
C
100
AcDbDictionary
281
     1
  0
ACDBDICTIONARYWDFLT
  5
E
102
{ACAD_REACTORS
330
C
102
}
330
C
100
AcDbDictionary
281
     1
  3
Normal
350
F
100
AcDbDictionaryWithDefault
340
F
  0
DICTIONARY
  5
47
102
{ACAD_REACTORS
330
C
102
}
330
C
100
AcDbDictionary
281
     1
  3
A0
350
48
  3
A1
350
49
  3
A2
350
4A
  3
A3
350
4B
  3
A4
350
4C
  3
A5
350
4D
  3
A6
350
4E
  3
A7
350
4F
  3
A8
350
50
  3
A9
350
51
  3
B0
350
52
  3
B1
350
53
  3
B2
350
54
  3
B3
350
55
  3
B4
350
56
  3
B5
350
57
  3
B6
350
58
  3
B7
350
59
  3
B8
350
5A
  3
B9
350
5B
  3
C0
350
5C
  3
C1
350
5D
  3
C2
350
5E
  3
C3
350
5F
  3
C4
350
60
  3
C5
350
61
  3
C6
350
62
  3
C7
350
63
  3
C8
350
64
  3
C9
350
65
  3
D0
350
66
  3
D1
350
67
  3
D2
350
68
  0
DICTIONARY
  5
154
102
{ACAD_REACTORS
330
C
102
}
330
C
100
AcDbDictionary
281
     1
  0
XRECORD
  5
2F0
102
{ACAD_REACTORS
330
C
102
}
330
C
100
AcDbXrecord
280
     1
  1
DWGPROPS COOKIE
  2

  3

  4

  6

  7

  8
12017012
  9

300
=
301
=
302
=
303
=
304
=
305
=
306
=
307
=
308
=
309
=
 40
0.0
 41
2458288.277951481
 42
2458295.422273275
  1

 90
        0
  0
DICTIONARY
  5
205
102
{ACAD_REACTORS
330
204
102
}
330
204
100
AcDbDictionary
281
     1
  0
LAYOUT
  5
1E
102
{ACAD_REACTORS
330
1A
102
}
330
1A
100
AcDbPlotSettings
  1

  2
none_device
  4

  6

 40
0.0
 41
0.0
 42
0.0
 43
0.0
 44
0.0
 45
0.0
 46
0.0
 47
0.0
 48
0.0
 49
0.0
140
0.0
141
0.0
142
1.0
143
1.0
 70
   688
 72
     1
 73
     0
 74
     5
  7

 75
    16
147
1.0
148
0.0
149
0.0
100
AcDbLayout
  1
Layout1
 70
     1
 71
     1
 10
0.0
 20
0.0
 11
420.0
 21
297.0
 12
0.0
 22
0.0
 32
0.0
 14
1.000000000000000E+20
 24
1.000000000000000E+20
 34
1.000000000000000E+20
 15
-1.000000000000000E+20
 25
-1.000000000000000E+20
 35
-1.000000000000000E+20
146
0.0
 13
0.0
 23
0.0
 33
0.0
 16
1.0
 26
0.0
 36
0.0
 17
0.0
 27
1.0
 37
0.0
 76
     0
330
1B
  0
LAYOUT
  5
26
102
{ACAD_REACTORS
330
1A
102
}
330
1A
100
AcDbPlotSettings
  1

  2
none_device
  4

  6

 40
0.0
 41
0.0
 42
0.0
 43
0.0
 44
0.0
 45
0.0
 46
0.0
 47
0.0
 48
0.0
 49
0.0
140
0.0
141
0.0
142
1.0
143
1.0
 70
   688
 72
     1
 73
     0
 74
     5
  7

 75
    16
147
1.0
148
0.0
149
0.0
100
AcDbLayout
  1
Layout2
 70
     1
 71
     2
 10
0.0
 20
0.0
 11
0.0
 21
0.0
 12
0.0
 22
0.0
 32
0.0
 14
0.0
 24
0.0
 34
0.0
 15
0.0
 25
0.0
 35
0.0
146
0.0
 13
0.0
 23
0.0
 33
0.0
 16
1.0
 26
0.0
 36
0.0
 17
0.0
 27
1.0
 37
0.0
 76
     0
330
23
  0
LAYOUT
  5
22
102
{ACAD_REACTORS
330
1A
102
}
330
1A
100
AcDbPlotSettings
  1

  2
none_device
  4
ANSI_A_(11.00_x_8.50_Inches)
  6

 40
6.35
 41
19.05
 42
6.35000508
 43
19.05000254
 44
279.4
 45
215.9
 46
115.0960970349798
 47
100.0004293299978
 48
0.0
 49
0.0
140
0.0
141
0.0
142
0.0642010119386795
143
1.0
 70
  1696
 72
     0
 73
     0
 74
     0
  7

 75
     0
147
0.0235690232323232
148
0.0
149
0.0
100
AcDbLayout
  1
Model
 70
     1
 71
     0
 10
0.0
 20
0.0
 11
420.0
 21
297.0
 12
0.0
 22
0.0
 32
0.0
 14
-67.20000000000006
 24
-49.97073246008785
 34
0.0
 15
96.00561285443833
 25
39.51652604942043
 35
0.0
146
0.0
 13
0.0
 23
0.0
 33
0.0
 16
1.0
 26
0.0
 36
0.0
 17
0.0
 27
1.0
 37
0.0
 76
     0
330
1F
331
29
  0
MLINESTYLE
  5
18
102
{ACAD_REACTORS
330
17
102
}
330
17
100
AcDbMlineStyle
  2
Standard
 70
     0
  3

 62
   256
 51
90.0
 52
90.0
 71
     2
 49
0.5
 62
   256
  6
BYLAYER
 49
-0.5
 62
   256
  6
BYLAYER
  0
ACDBPLACEHOLDER
  5
F
102
{ACAD_REACTORS
330
E
102
}
330
E
  0
SCALE
  5
48
102
{ACAD_REACTORS
330
47
102
}
330
47
100
AcDbScale
 70
     0
300
1:1
140
1.0
141
1.0
290
     1
  0
SCALE
  5
49
102
{ACAD_REACTORS
330
47
102
}
330
47
100
AcDbScale
 70
     0
300
1:2
140
1.0
141
2.0
290
     0
  0
SCALE
  5
4A
102
{ACAD_REACTORS
330
47
102
}
330
47
100
AcDbScale
 70
     0
300
1:4
140
1.0
141
4.0
290
     0
  0
SCALE
  5
4B
102
{ACAD_REACTORS
330
47
102
}
330
47
100
AcDbScale
 70
     0
300
1:5
140
1.0
141
5.0
290
     0
  0
SCALE
  5
4C
102
{ACAD_REACTORS
330
47
102
}
330
47
100
AcDbScale
 70
     0
300
1:8
140
1.0
141
8.0
290
     0
  0
SCALE
  5
4D
102
{ACAD_REACTORS
330
47
102
}
330
47
100
AcDbScale
 70
     0
300
1:10
140
1.0
141
10.0
290
     0
  0
SCALE
  5
4E
102
{ACAD_REACTORS
330
47
102
}
330
47
100
AcDbScale
 70
     0
300
1:16
140
1.0
141
16.0
290
     0
  0
SCALE
  5
4F
102
{ACAD_REACTORS
330
47
102
}
330
47
100
AcDbScale
 70
     0
300
1:20
140
1.0
141
20.0
290
     0
  0
SCALE
  5
50
102
{ACAD_REACTORS
330
47
102
}
330
47
100
AcDbScale
 70
     0
300
1:30
140
1.0
141
30.0
290
     0
  0
SCALE
  5
51
102
{ACAD_REACTORS
330
47
102
}
330
47
100
AcDbScale
 70
     0
300
1:40
140
1.0
141
40.0
290
     0
  0
SCALE
  5
52
102
{ACAD_REACTORS
330
47
102
}
330
47
100
AcDbScale
 70
     0
300
1:50
140
1.0
141
50.0
290
     0
  0
SCALE
  5
53
102
{ACAD_REACTORS
330
47
102
}
330
47
100
AcDbScale
 70
     0
300
1:100
140
1.0
141
100.0
290
     0
  0
SCALE
  5
54
102
{ACAD_REACTORS
330
47
102
}
330
47
100
AcDbScale
 70
     0
300
2:1
140
2.0
141
1.0
290
     0
  0
SCALE
  5
55
102
{ACAD_REACTORS
330
47
102
}
330
47
100
AcDbScale
 70
     0
300
4:1
140
4.0
141
1.0
290
     0
  0
SCALE
  5
56
102
{ACAD_REACTORS
330
47
102
}
330
47
100
AcDbScale
 70
     0
300
8:1
140
8.0
141
1.0
290
     0
  0
SCALE
  5
57
102
{ACAD_REACTORS
330
47
102
}
330
47
100
AcDbScale
 70
     0
300
10:1
140
10.0
141
1.0
290
     0
  0
SCALE
  5
58
102
{ACAD_REACTORS
330
47
102
}
330
47
100
AcDbScale
 70
     0
300
100:1
140
100.0
141
1.0
290
     0
  0
SCALE
  5
59
102
{ACAD_REACTORS
330
47
102
}
330
47
100
AcDbScale
 70
     0
300
1/128" = 1'-0"
140
0.0078125
141
12.0
290
     0
  0
SCALE
  5
5A
102
{ACAD_REACTORS
330
47
102
}
330
47
100
AcDbScale
 70
     0
300
1/64" = 1'-0"
140
0.015625
141
12.0
290
     0
  0
SCALE
  5
5B
102
{ACAD_REACTORS
330
47
102
}
330
47
100
AcDbScale
 70
     0
300
1/32" = 1'-0"
140
0.03125
141
12.0
290
     0
  0
SCALE
  5
5C
102
{ACAD_REACTORS
330
47
102
}
330
47
100
AcDbScale
 70
     0
300
1/16" = 1'-0"
140
0.0625
141
12.0
290
     0
  0
SCALE
  5
5D
102
{ACAD_REACTORS
330
47
102
}
330
47
100
AcDbScale
 70
     0
300
3/32" = 1'-0"
140
0.09375
141
12.0
290
     0
  0
SCALE
  5
5E
102
{ACAD_REACTORS
330
47
102
}
330
47
100
AcDbScale
 70
     0
300
1/8" = 1'-0"
140
0.125
141
12.0
290
     0
  0
SCALE
  5
5F
102
{ACAD_REACTORS
330
47
102
}
330
47
100
AcDbScale
 70
     0
300
3/16" = 1'-0"
140
0.1875
141
12.0
290
     0
  0
SCALE
  5
60
102
{ACAD_REACTORS
330
47
102
}
330
47
100
AcDbScale
 70
     0
300
1/4" = 1'-0"
140
0.25
141
12.0
290
     0
  0
SCALE
  5
61
102
{ACAD_REACTORS
330
47
102
}
330
47
100
AcDbScale
 70
     0
300
3/8" = 1'-0"
140
0.375
141
12.0
290
     0
  0
SCALE
  5
62
102
{ACAD_REACTORS
330
47
102
}
330
47
100
AcDbScale
 70
     0
300
1/2" = 1'-0"
140
0.5
141
12.0
290
     0
  0
SCALE
  5
63
102
{ACAD_REACTORS
330
47
102
}
330
47
100
AcDbScale
 70
     0
300
3/4" = 1'-0"
140
0.75
141
12.0
290
     0
  0
SCALE
  5
64
102
{ACAD_REACTORS
330
47
102
}
330
47
100
AcDbScale
 70
     0
300
1" = 1'-0"
140
1.0
141
12.0
290
     0
  0
SCALE
  5
65
102
{ACAD_REACTORS
330
47
102
}
330
47
100
AcDbScale
 70
     0
300
1-1/2" = 1'-0"
140
1.5
141
12.0
290
     0
  0
SCALE
  5
66
102
{ACAD_REACTORS
330
47
102
}
330
47
100
AcDbScale
 70
     0
300
3" = 1'-0"
140
3.0
141
12.0
290
     0
  0
SCALE
  5
67
102
{ACAD_REACTORS
330
47
102
}
330
47
100
AcDbScale
 70
     0
300
6" = 1'-0"
140
6.0
141
12.0
290
     0
  0
SCALE
  5
68
102
{ACAD_REACTORS
330
47
102
}
330
47
100
AcDbScale
 70
     0
300
1'-0" = 1'-0"
140
12.0
141
12.0
290
     0
  0
ENDSEC
  0
EOF
