  0
SECTION
  2
HEADER
  9
$ACADVER
  1
AC1015
  9
$ACADMAINTVER
 70
     6
  9
$DWGCODEPAGE
  3
ANSI_949
  9
$INSBASE
 10
0.0
 20
0.0
 30
0.0
  9
$EXTMIN
 10
1.000000000000000E+20
 20
1.000000000000000E+20
 30
1.000000000000000E+20
  9
$EXTMAX
 10
-1.000000000000000E+20
 20
-1.000000000000000E+20
 30
-1.000000000000000E+20
  9
$LIMMIN
 10
0.0
 20
0.0
  9
$LIMMAX
 10
420.0
 20
297.0
  9
$ORTHOMODE
 70
     0
  9
$REGENMODE
 70
     1
  9
$FILLMODE
 70
     1
  9
$QTEXTMODE
 70
     0
  9
$MIRRTEXT
 70
     1
  9
$LTSCALE
 40
1.0
  9
$ATTMODE
 70
     1
  9
$TEXTSIZE
 40
3.5
  9
$TRACEWID
 40
1.0
  9
$TEXTSTYLE
  7
Standard
  9
$CLAYER
  8
0
  9
$CELTYPE
  6
ByLayer
  9
$CECOLOR
 62
   256
  9
$CELTSCALE
 40
1.0
  9
$DISPSILH
 70
     0
  9
$DIMSCALE
 40
1.0
  9
$DIMASZ
 40
3.302
  9
$DIMEXO
 40
1.0
  9
$DIMDLI
 40
3.75
  9
$DIMRND
 40
0.0
  9
$DIMDLE
 40
0.0
  9
$DIMEXE
 40
1.0
  9
$DIMTP
 40
0.0
  9
$DIMTM
 40
0.0
  9
$DIMTXT
 40
3.5
  9
$DIMCEN
 40
2.5
  9
$DIMTSZ
 40
0.0
  9
$DIMTOL
 70
     0
  9
$DIMLIM
 70
     0
  9
$DIMTIH
 70
     1
  9
$DIMTOH
 70
     1
  9
$DIMSE1
 70
     0
  9
$DIMSE2
 70
     0
  9
$DIMTAD
 70
     1
  9
$DIMZIN
 70
     0
  9
$DIMBLK
  1

  9
$DIMASO
 70
     1
  9
$DIMSHO
 70
     1
  9
$DIMPOST
  1

  9
$DIMAPOST
  1

  9
$DIMALT
 70
     0
  9
$DIMALTD
 70
     3
  9
$DIMALTF
 40
0.0393700787401575
  9
$DIMLFAC
 40
1.0
  9
$DIMTOFL
 70
     1
  9
$DIMTVP
 40
0.0
  9
$DIMTIX
 70
     0
  9
$DIMSOXD
 70
     0
  9
$DIMSAH
 70
     0
  9
$DIMBLK1
  1

  9
$DIMBLK2
  1

  9
$DIMSTYLE
  2
ISO-25
  9
$DIMCLRD
 70
     0
  9
$DIMCLRE
 70
     0
  9
$DIMCLRT
 70
     0
  9
$DIMTFAC
 40
1.0
  9
$DIMGAP
 40
1.524
  9
$DIMJUST
 70
     0
  9
$DIMSD1
 70
     0
  9
$DIMSD2
 70
     0
  9
$DIMTOLJ
 70
     0
  9
$DIMTZIN
 70
     0
  9
$DIMALTZ
 70
     0
  9
$DIMALTTZ
 70
     0
  9
$DIMUPT
 70
     0
  9
$DIMDEC
 70
     2
  9
$DIMTDEC
 70
     2
  9
$DIMALTU
 70
     2
  9
$DIMALTTD
 70
     3
  9
$DIMTXSTY
  7
Standard
  9
$DIMAUNIT
 70
     0
  9
$DIMADEC
 70
     2
  9
$DIMALTRND
 40
0.0
  9
$DIMAZIN
 70
     0
  9
$DIMDSEP
 70
    44
  9
$DIMATFIT
 70
     3
  9
$DIMFRAC
 70
     0
  9
$DIMLDRBLK
  1

  9
$DIMLUNIT
 70
     2
  9
$DIMLWD
 70
    -2
  9
$DIMLWE
 70
    -2
  9
$DIMTMOVE
 70
     0
  9
$LUNITS
 70
     2
  9
$LUPREC
 70
     2
  9
$SKETCHINC
 40
1.0
  9
$FILLETRAD
 40
10.0
  9
$AUNITS
 70
     0
  9
$AUPREC
 70
     2
  9
$MENU
  1
.
  9
$ELEVATION
 40
0.0
  9
$PELEVATION
 40
0.0
  9
$THICKNESS
 40
0.0
  9
$LIMCHECK
 70
     0
  9
$CHAMFERA
 40
0.0
  9
$CHAMFERB
 40
0.0
  9
$CHAMFERC
 40
0.0
  9
$CHAMFERD
 40
0.0
  9
$SKPOLY
 70
     0
  9
$TDCREATE
 40
2458288.652195139
  9
$TDUCREATE
 40
2458288.277195139
  9
$TDUPDATE
 40
2458295.78461235
  9
$TDUUPDATE
 40
2458295.40961235
  9
$TDINDWG
 40
0.0013743287
  9
$TDUSRTIMER
 40
2458295.408238426
  9
$USRTIMER
 70
     1
  9
$ANGBASE
 50
0.0
  9
$ANGDIR
 70
     0
  9
$PDMODE
 70
     0
  9
$PDSIZE
 40
-1.0
  9
$PLINEWID
 40
0.0
  9
$SPLFRAME
 70
     0
  9
$SPLINETYPE
 70
     6
  9
$SPLINESEGS
 70
     8
  9
$HANDSEED
  5
29A
  9
$SURFTAB1
 70
     6
  9
$SURFTAB2
 70
     6
  9
$SURFTYPE
 70
     6
  9
$SURFU
 70
     6
  9
$SURFV
 70
     6
  9
$UCSBASE
  2

  9
$UCSNAME
  2

  9
$UCSORG
 10
0.0
 20
0.0
 30
0.0
  9
$UCSXDIR
 10
1.0
 20
0.0
 30
0.0
  9
$UCSYDIR
 10
0.0
 20
1.0
 30
0.0
  9
$UCSORTHOREF
  2

  9
$UCSORTHOVIEW
 70
     0
  9
$UCSORGTOP
 10
0.0
 20
0.0
 30
0.0
  9
$UCSORGBOTTOM
 10
0.0
 20
0.0
 30
0.0
  9
$UCSORGLEFT
 10
0.0
 20
0.0
 30
0.0
  9
$UCSORGRIGHT
 10
0.0
 20
0.0
 30
0.0
  9
$UCSORGFRONT
 10
0.0
 20
0.0
 30
0.0
  9
$UCSORGBACK
 10
0.0
 20
0.0
 30
0.0
  9
$PUCSBASE
  2

  9
$PUCSNAME
  2

  9
$PUCSORG
 10
0.0
 20
0.0
 30
0.0
  9
$PUCSXDIR
 10
1.0
 20
0.0
 30
0.0
  9
$PUCSYDIR
 10
0.0
 20
1.0
 30
0.0
  9
$PUCSORTHOREF
  2

  9
$PUCSORTHOVIEW
 70
     0
  9
$PUCSORGTOP
 10
0.0
 20
0.0
 30
0.0
  9
$PUCSORGBOTTOM
 10
0.0
 20
0.0
 30
0.0
  9
$PUCSORGLEFT
 10
0.0
 20
0.0
 30
0.0
  9
$PUCSORGRIGHT
 10
0.0
 20
0.0
 30
0.0
  9
$PUCSORGFRONT
 10
0.0
 20
0.0
 30
0.0
  9
$PUCSORGBACK
 10
0.0
 20
0.0
 30
0.0
  9
$USERI1
 70
     0
  9
$USERI2
 70
     0
  9
$USERI3
 70
     0
  9
$USERI4
 70
     0
  9
$USERI5
 70
     0
  9
$USERR1
 40
0.0
  9
$USERR2
 40
0.0
  9
$USERR3
 40
0.0
  9
$USERR4
 40
0.0
  9
$USERR5
 40
0.0
  9
$WORLDVIEW
 70
     1
  9
$SHADEDGE
 70
     3
  9
$SHADEDIF
 70
    70
  9
$TILEMODE
 70
     1
  9
$MAXACTVP
 70
    64
  9
$PINSBASE
 10
0.0
 20
0.0
 30
0.0
  9
$PLIMCHECK
 70
     0
  9
$PEXTMIN
 10
1.000000000000000E+20
 20
1.000000000000000E+20
 30
1.000000000000000E+20
  9
$PEXTMAX
 10
-1.000000000000000E+20
 20
-1.000000000000000E+20
 30
-1.000000000000000E+20
  9
$PLIMMIN
 10
0.0
 20
0.0
  9
$PLIMMAX
 10
0.0
 20
0.0
  9
$UNITMODE
 70
     0
  9
$VISRETAIN
 70
     1
  9
$PLINEGEN
 70
     0
  9
$PSLTSCALE
 70
     1
  9
$TREEDEPTH
 70
  3020
  9
$CMLSTYLE
  2
Standard
  9
$CMLJUST
 70
     0
  9
$CMLSCALE
 40
20.0
  9
$PROXYGRAPHICS
 70
     1
  9
$MEASUREMENT
 70
     1
  9
$CELWEIGHT
370
    -1
  9
$ENDCAPS
280
     0
  9
$JOINSTYLE
280
     0
  9
$LWDISPLAY
290
     1
  9
$INSUNITS
 70
     4
  9
$HYPERLINKBASE
  1

  9
$STYLESHEET
  1

  9
$XEDIT
290
     1
  9
$CEPSNTYPE
380
     0
  9
$PSTYLEMODE
290
     1
  9
$FINGERPRINTGUID
  2
{B3A26851-D5E6-429A-B7FF-F649F4B45299}
  9
$VERSIONGUID
  2
{FAEB1C32-E019-11D5-929B-00C0DF256EC4}
  9
$EXTNAMES
290
     1
  9
$PSVPSCALE
 40
0.0
  9
$OLESTARTUP
290
     0
  0
ENDSEC
  0
SECTION
  2
CLASSES
  0
CLASS
  1
ACDBDICTIONARYWDFLT
  2
AcDbDictionaryWithDefault
  3
ObjectDBX Classes
 90
        0
280
     0
281
     0
  0
CLASS
  1
VISUALSTYLE
  2
AcDbVisualStyle
  3
ObjectDBX Classes
 90
     4095
280
     0
281
     0
  0
CLASS
  1
MATERIAL
  2
AcDbMaterial
  3
ObjectDBX Classes
 90
     1153
280
     0
281
     0
  0
CLASS
  1
SCALE
  2
AcDbScale
  3
ObjectDBX Classes
 90
     1153
280
     0
281
     0
  0
CLASS
  1
SUN
  2
AcDbSun
  3
SCENEOE
 90
     1153
280
     0
281
     0
  0
CLASS
  1
ACDBPLACEHOLDER
  2
AcDbPlaceHolder
  3
ObjectDBX Classes
 90
        0
280
     0
281
     0
  0
CLASS
  1
LAYOUT
  2
AcDbLayout
  3
ObjectDBX Classes
 90
        0
280
     0
281
     0
  0
CLASS
  1
TABLESTYLE
  2
AcDbTableStyle
  3
ObjectDBX Classes
 90
     4095
280
     0
281
     0
  0
CLASS
  1
MLEADERSTYLE
  2
AcDbMLeaderStyle
  3
ACDB_MLEADERSTYLE_CLASS
 90
     4095
280
     0
281
     0
  0
CLASS
  1
RASTERVARIABLES
  2
AcDbRasterVariables
  3
ISM
 90
        0
280
     0
281
     0
  0
CLASS
  1
DIMASSOC
  2
AcDbDimAssoc
  3
"AcDbDimAssoc|Product Desc:     AcDim ARX App For Dimension|Company:          Autodesk, Inc.|WEB Address:      www.autodesk.com"
 90
        0
280
     0
281
     0
  0
ENDSEC
  0
SECTION
  2
TABLES
  0
TABLE
  2
VPORT
  5
8
330
0
100
AcDbSymbolTable
 70
     1
  0
VPORT
  5
29
330
8
100
AcDbSymbolTableRecord
100
AcDbViewportTableRecord
  2
*Active
 70
     0
 10
0.0
 20
0.0
 11
1.0
 21
1.0
 12
0.0926512988233696
 22
1.331329077598951
 13
0.0
 23
0.0
 14
10.0
 24
10.0
 15
10.0
 25
10.0
 16
0.0
 26
0.0
 36
1.0
 17
0.0
 27
0.0
 37
0.0
 40
374.2681390806997
 41
1.798434442270059
 42
50.0
 43
0.0
 44
0.0
 50
0.0
 51
0.0
 71
    16
 72
  2000
 73
     1
 74
     3
 75
     0
 76
     0
 77
     0
 78
     0
281
     0
 65
     1
110
0.0
120
0.0
130
0.0
111
1.0
121
0.0
131
0.0
112
0.0
122
1.0
132
0.0
 79
     0
146
0.0
  0
ENDTAB
  0
TABLE
  2
LTYPE
  5
5
330
0
100
AcDbSymbolTable
 70
     6
  0
LTYPE
  5
14
330
5
100
AcDbSymbolTableRecord
100
AcDbLinetypeTableRecord
  2
ByBlock
 70
     0
  3

 72
    65
 73
     0
 40
0.0
  0
LTYPE
  5
15
330
5
100
AcDbSymbolTableRecord
100
AcDbLinetypeTableRecord
  2
ByLayer
 70
     0
  3

 72
    65
 73
     0
 40
0.0
  0
LTYPE
  5
16
330
5
100
AcDbSymbolTableRecord
100
AcDbLinetypeTableRecord
  2
Continuous
 70
     0
  3
Solid line
 72
    65
 73
     0
 40
0.0
  0
LTYPE
  5
6A
330
5
100
AcDbSymbolTableRecord
100
AcDbLinetypeTableRecord
  2
HIDDEN
 70
     0
  3
Hidden __ __ __ __ __ __ __ __ __ __ __ __ __ __
 72
    65
 73
     2
 40
1.905
 49
1.27
 74
     0
 49
-0.635
 74
     0
  0
LTYPE
  5
6B
330
5
100
AcDbSymbolTableRecord
100
AcDbLinetypeTableRecord
  2
PHANTOM
 70
     0
  3
Phantom ______  __  __  ______  __  __  ______
 72
    65
 73
     6
 40
12.7
 49
6.35
 74
     0
 49
-1.27
 74
     0
 49
1.27
 74
     0
 49
-1.27
 74
     0
 49
1.27
 74
     0
 49
-1.27
 74
     0
  0
LTYPE
  5
6C
330
5
100
AcDbSymbolTableRecord
100
AcDbLinetypeTableRecord
  2
CENTER
 70
     0
  3
Center ____ _ ____ _ ____ _ ____ _ ____ _ ____
 72
    65
 73
     4
 40
10.16
 49
6.35
 74
     0
 49
-1.27
 74
     0
 49
1.27
 74
     0
 49
-1.27
 74
     0
  0
LTYPE
  5
6D
330
5
100
AcDbSymbolTableRecord
100
AcDbLinetypeTableRecord
  2
CENTERX2
 70
     0
  3
Center (2x) ________  __  ________  __  _____
 72
    65
 73
     4
 40
20.32
 49
12.7
 74
     0
 49
-2.54
 74
     0
 49
2.54
 74
     0
 49
-2.54
 74
     0
  0
LTYPE
  5
6E
330
5
100
AcDbSymbolTableRecord
100
AcDbLinetypeTableRecord
  2
DOT2
 70
     0
  3
Dot (.5x) ........................................
 72
    65
 73
     2
 40
0.635
 49
0.0
 74
     0
 49
-0.635
 74
     0
  0
ENDTAB
  0
TABLE
  2
LAYER
  5
2
102
{ACAD_XDICTIONARY
360
204
102
}
330
0
100
AcDbSymbolTable
 70
    18
  0
LAYER
  5
10
330
2
100
AcDbSymbolTableRecord
100
AcDbLayerTableRecord
  2
0
 70
     0
 62
     7
  6
Continuous
370
    -3
390
F
  0
LAYER
  5
6F
330
2
100
AcDbSymbolTableRecord
100
AcDbLayerTableRecord
  2
FORMAT
 70
     0
 62
     2
  6
Continuous
370
    -3
390
F
  0
LAYER
  5
70
330
2
100
AcDbSymbolTableRecord
100
AcDbLayerTableRecord
  2
외형선
 70
     0
 62
     4
  6
Continuous
370
    30
390
F
  0
LAYER
  5
71
330
2
100
AcDbSymbolTableRecord
100
AcDbLayerTableRecord
  2
숨은선
 70
     0
 62
     2
  6
HIDDEN
370
    15
390
F
  0
LAYER
  5
72
330
2
100
AcDbSymbolTableRecord
100
AcDbLayerTableRecord
  2
중심선
 70
     0
 62
     1
  6
CENTERX2
370
    -3
390
F
  0
LAYER
  5
73
330
2
100
AcDbSymbolTableRecord
100
AcDbLayerTableRecord
  2
파단선
 70
     0
 62
     4
  6
Continuous
370
    -3
390
F
  0
LAYER
  5
74
330
2
100
AcDbSymbolTableRecord
100
AcDbLayerTableRecord
  2
해칭선
 70
     0
 62
   100
  6
Continuous
370
    -3
390
F
  0
LAYER
  5
75
330
2
100
AcDbSymbolTableRecord
100
AcDbLayerTableRecord
  2
가는실선
 70
     0
 62
     4
  6
Continuous
370
    -3
390
F
  0
LAYER
  5
76
330
2
100
AcDbSymbolTableRecord
100
AcDbLayerTableRecord
  2
치수_보조선
 70
     0
 62
     4
  6
Continuous
370
    -3
390
F
  0
LAYER
  5
77
330
2
100
AcDbSymbolTableRecord
100
AcDbLayerTableRecord
  2
치수문자_일반주서
 70
     0
 62
     7
  6
Continuous
370
    15
390
F
  0
LAYER
  5
78
330
2
100
AcDbSymbolTableRecord
100
AcDbLayerTableRecord
  2
개별주서
 70
     0
 62
   100
  6
Continuous
370
    30
390
F
  0
LAYER
  5
79
330
2
100
AcDbSymbolTableRecord
100
AcDbLayerTableRecord
  2
중간선
 70
     0
 62
     2
  6
Continuous
370
    15
390
F
  0
LAYER
  5
7A
330
2
100
AcDbSymbolTableRecord
100
AcDbLayerTableRecord
  2
윤곽선
 70
     0
 62
     3
  6
Continuous
370
    40
390
F
  0
LAYER
  5
7B
330
2
100
AcDbSymbolTableRecord
100
AcDbLayerTableRecord
  2
중심마크
 70
     0
 62
   100
  6
Continuous
370
    30
390
F
  0
LAYER
  5
7C
330
2
100
AcDbSymbolTableRecord
100
AcDbLayerTableRecord
  2
가상선
 70
     0
 62
     4
  6
PHANTOM
370
    -3
390
F
  0
LAYER
  5
7D
330
2
100
AcDbSymbolTableRecord
100
AcDbLayerTableRecord
  2
특수지정선
 70
     0
 62
     5
  6
CENTERX2
370
    60
390
F
  0
LAYER
  5
7E
330
2
100
AcDbSymbolTableRecord
100
AcDbLayerTableRecord
  2
참조1
 70
     0
 62
    -4
  6
Continuous
370
    -3
390
F
  0
LAYER
  5
15A
330
2
100
AcDbSymbolTableRecord
100
AcDbLayerTableRecord
  2
Defpoints
 70
     0
 62
     7
  6
Continuous
290
     0
370
    -3
390
F
  0
ENDTAB
  0
TABLE
  2
STYLE
  5
3
330
0
100
AcDbSymbolTable
 70
     2
  0
STYLE
  5
11
330
3
100
AcDbSymbolTableRecord
100
AcDbTextStyleTableRecord
  2
Standard
 70
     0
 40
0.0
 41
1.0
 50
0.0
 71
     0
 42
3.5
  3
txt
  4

  0
STYLE
  5
94
330
3
100
AcDbSymbolTableRecord
100
AcDbTextStyleTableRecord
  2
SLDTEXTSTYLE0
 70
     0
 40
0.0
 41
0.75
 50
0.0
 71
     0
 42
3.5
  3
TXT
  4

  0
ENDTAB
  0
TABLE
  2
VIEW
  5
6
330
0
100
AcDbSymbolTable
 70
     0
  0
ENDTAB
  0
TABLE
  2
UCS
  5
7
330
0
100
AcDbSymbolTable
 70
     0
  0
ENDTAB
  0
TABLE
  2
APPID
  5
9
330
0
100
AcDbSymbolTable
 70
     4
  0
APPID
  5
12
330
9
100
AcDbSymbolTableRecord
100
AcDbRegAppTableRecord
  2
ACAD
 70
     0
  0
APPID
  5
165
330
9
100
AcDbSymbolTableRecord
100
AcDbRegAppTableRecord
  2
ACAD_DSTYLE_DIMRADIAL_EXTENSION
 70
     0
  0
APPID
  5
298
330
9
100
AcDbSymbolTableRecord
100
AcDbRegAppTableRecord
  2
ACAD_DSTYLE_DIMFLIPARROW_SYMBOL
 70
     0
  0
APPID
  5
299
330
9
100
AcDbSymbolTableRecord
100
AcDbRegAppTableRecord
  2
ACAD_DSTYLE_DIMFLIPARROW_WHICH_SYMBOL
 70
     0
  0
ENDTAB
  0
TABLE
  2
DIMSTYLE
  5
A
330
0
100
AcDbSymbolTable
 70
     4
100
AcDbDimStyleTable
  0
DIMSTYLE
105
27
330
A
100
AcDbSymbolTableRecord
100
AcDbDimStyleTableRecord
  2
ISO-25
 70
     0
 41
2.5
 42
0.625
 43
3.75
 44
1.25
 73
     0
 74
     0
 77
     1
 78
     8
140
2.5
141
2.5
143
0.03937007874016
147
0.625
171
     3
172
     1
178
     0
271
     2
272
     2
274
     3
278
    44
283
     0
284
     8
340
11
  0
DIMSTYLE
105
D6
102
{ACAD_REACTORS
330
1B4
330
1C1
330
1D1
330
1DF
330
1F7
330
239
330
23A
330
23B
330
23C
330
28A
102
}
330
A
100
AcDbSymbolTableRecord
100
AcDbDimStyleTableRecord
  2
SLDDIMSTYLE0
 70
     0
 41
3.302
 44
0.0
 45
0.000000001
 73
     0
 74
     0
 77
     1
 78
    12
 79
     3
140
3.5
143
0.0393700787401575
147
0.875
148
0.000000001
170
     1
172
     1
173
     1
178
     0
271
     2
272
     2
276
     2
284
    12
289
     0
340
94
  0
DIMSTYLE
105
EB
330
A
100
AcDbSymbolTableRecord
100
AcDbDimStyleTableRecord
  2
SLDDIMSTYLE1
 70
     0
 41
3.302
 44
0.0
 45
0.000000001
 73
     0
 74
     0
 77
     1
 78
     4
 79
     1
140
3.5
143
0.0393700787401575
147
0.875
148
0.000000001
170
     1
173
     1
178
     0
271
     2
272
     2
276
     2
284
    12
340
94
  0
DIMSTYLE
105
FF
330
A
100
AcDbSymbolTableRecord
100
AcDbDimStyleTableRecord
  2
SLDDIMSTYLE2
 70
     0
 41
3.302
 44
0.0
 45
0.000000001
 73
     0
 74
     0
 77
     1
 78
     4
 79
     1
140
3.5
143
0.0393700787401575
147
0.875
148
0.000000001
170
     1
172
     1
173
     1
178
     0
271
     2
272
     2
276
     2
284
    12
289
     0
340
94
  0
ENDTAB
  0
TABLE
  2
BLOCK_RECORD
  5
1
330
0
100
AcDbSymbolTable
 70
    19
  0
BLOCK_RECORD
  5
1F
330
1
100
AcDbSymbolTableRecord
100
AcDbBlockTableRecord
  2
*Model_Space
340
22
  0
BLOCK_RECORD
  5
1B
330
1
100
AcDbSymbolTableRecord
100
AcDbBlockTableRecord
  2
*Paper_Space
340
1E
  0
BLOCK_RECORD
  5
23
330
1
100
AcDbSymbolTableRecord
100
AcDbBlockTableRecord
  2
*Paper_Space0
340
26
  0
BLOCK_RECORD
  5
7F
330
1
100
AcDbSymbolTableRecord
100
AcDbBlockTableRecord
  2
블럭10
340
0
102
{BLKREFS
331
CE
102
}
  0
BLOCK_RECORD
  5
D7
330
1
100
AcDbSymbolTableRecord
100
AcDbBlockTableRecord
  2
_D
340
0
  0
BLOCK_RECORD
  5
EC
330
1
100
AcDbSymbolTableRecord
100
AcDbBlockTableRecord
  2
_D_1
340
0
  0
BLOCK_RECORD
  5
100
330
1
100
AcDbSymbolTableRecord
100
AcDbBlockTableRecord
  2
_D_2
340
0
  0
BLOCK_RECORD
  5
115
330
1
100
AcDbSymbolTableRecord
100
AcDbBlockTableRecord
  2
_D_3
340
0
  0
BLOCK_RECORD
  5
12E
330
1
100
AcDbSymbolTableRecord
100
AcDbBlockTableRecord
  2
SW_DOWELSYMBOL_0
340
0
102
{BLKREFS
331
0
331
1EC
331
23D
102
}
  0
BLOCK_RECORD
  5
1B5
330
1
100
AcDbSymbolTableRecord
100
AcDbBlockTableRecord
  2
*D8
340
0
  0
BLOCK_RECORD
  5
1C2
330
1
100
AcDbSymbolTableRecord
100
AcDbBlockTableRecord
  2
*D9
340
0
  0
BLOCK_RECORD
  5
1D2
330
1
100
AcDbSymbolTableRecord
100
AcDbBlockTableRecord
  2
*D10
340
0
  0
BLOCK_RECORD
  5
1E0
330
1
100
AcDbSymbolTableRecord
100
AcDbBlockTableRecord
  2
*D11
340
0
  0
BLOCK_RECORD
  5
1FA
330
1
100
AcDbSymbolTableRecord
100
AcDbBlockTableRecord
  2
*D12
340
0
  0
BLOCK_RECORD
  5
246
330
1
100
AcDbSymbolTableRecord
100
AcDbBlockTableRecord
  2
*D13
340
0
  0
BLOCK_RECORD
  5
252
330
1
100
AcDbSymbolTableRecord
100
AcDbBlockTableRecord
  2
*D14
340
0
  0
BLOCK_RECORD
  5
261
330
1
100
AcDbSymbolTableRecord
100
AcDbBlockTableRecord
  2
*D15
340
0
  0
BLOCK_RECORD
  5
26E
330
1
100
AcDbSymbolTableRecord
100
AcDbBlockTableRecord
  2
*D16
340
0
  0
BLOCK_RECORD
  5
27A
330
1
100
AcDbSymbolTableRecord
100
AcDbBlockTableRecord
  2
*D17
340
0
  0
BLOCK_RECORD
  5
28D
330
1
100
AcDbSymbolTableRecord
100
AcDbBlockTableRecord
  2
*D18
340
0
  0
ENDTAB
  0
ENDSEC
  0
SECTION
  2
BLOCKS
  0
BLOCK
  5
20
330
1F
100
AcDbEntity
  8
0
100
AcDbBlockBegin
  2
*Model_Space
 70
     0
 10
0.0
 20
0.0
 30
0.0
  3
*Model_Space
  1
*Model_Space
  0
ENDBLK
  5
21
330
1F
100
AcDbEntity
  8
0
100
AcDbBlockEnd
  0
BLOCK
  5
1C
330
1B
100
AcDbEntity
 67
     1
  8
0
100
AcDbBlockBegin
  2
*Paper_Space
 70
     0
 10
0.0
 20
0.0
 30
0.0
  3
*Paper_Space
  1
*Paper_Space
  0
ENDBLK
  5
1D
330
1B
100
AcDbEntity
 67
     1
  8
0
100
AcDbBlockEnd
  0
BLOCK
  5
24
330
23
100
AcDbEntity
  8
0
100
AcDbBlockBegin
  2
*Paper_Space0
 70
     0
 10
0.0
 20
0.0
 30
0.0
  3
*Paper_Space0
  1
*Paper_Space0
  0
ENDBLK
  5
25
330
23
100
AcDbEntity
  8
0
100
AcDbBlockEnd
  0
BLOCK
  5
80
330
7F
100
AcDbEntity
  8
0
100
AcDbBlockBegin
  2
블럭10
 70
     2
 10
0.0
 20
0.0
 30
0.0
  3
블럭10
  1
블럭10
  0
ELLIPSE
  5
82
330
7F
100
AcDbEntity
  8
중심선
100
AcDbEllipse
 10
20.54032771741204
 20
12.0471743016438
 30
0.0
 11
6.600054785286829
 21
-1.261213355974178E-13
 31
0.0
210
0.0
220
0.0
230
1.0
 40
0.636358354079598
 41
0.9219305317359503
 42
6.513795318482858
  0
ELLIPSE
  5
83
330
7F
100
AcDbEntity
  8
중심선
100
AcDbEllipse
 10
20.54032771746488
 20
12.04717430159265
 30
0.0
 11
3.960054785062283
 21
1.540847449632565E-10
 31
0.0
210
0.0
220
0.0
230
1.0
 40
0.3939339440162632
 41
1.131841032648279
 42
5.62031148352944
  0
LINE
  5
84
330
7F
100
AcDbEntity
  8
중심선
100
AcDbLine
 10
2.268634060543552
 20
16.24717430164393
 30
0.0
 11
5.714909304380834
 21
16.24717430164393
 31
0.0
  0
LINE
  5
85
330
7F
100
AcDbEntity
  8
중심선
100
AcDbLine
 10
5.245725140726316
 20
7.84717430164391
 30
0.0
 11
8.692000384563599
 21
7.84717430164391
 31
0.0
  0
LINE
  5
86
330
7F
100
AcDbEntity
  8
중심선
100
AcDbLine
 10
15.74043728645272
 20
16.24717430164393
 30
0.0
 11
8.692000384563599
 21
7.84717430164391
 31
0.0
  0
LINE
  5
87
330
7F
100
AcDbEntity
  8
중심선
100
AcDbLine
 10
0.1404042013395286
 20
13.71084872107135
 30
0.0
 11
3.58671253028996
 21
13.71088815037384
 31
0.0
  0
LINE
  5
88
330
7F
100
AcDbEntity
  8
중심선
100
AcDbLine
 10
2.750260043222114
 20
10.84717430164391
 30
0.0
 11
6.196535287059397
 21
10.84717430164391
 31
0.0
  0
LINE
  5
89
330
7F
100
AcDbEntity
  8
중심선
100
AcDbLine
 10
12.29416204261559
 20
16.24717430164393
 30
0.0
 11
5.245725140726316
 21
7.84717430164391
 31
0.0
  0
LINE
  5
8A
330
7F
100
AcDbEntity
  8
중심선
100
AcDbLine
 10
10.72767329541681
 20
16.24717430164393
 30
0.0
 11
6.196535287059397
 21
10.84717430164391
 31
0.0
  0
LINE
  5
8B
330
7F
100
AcDbEntity
  8
중심선
100
AcDbLine
 10
7.28139805157953
 20
16.24717430164393
 30
0.0
 11
2.750260043222114
 21
10.84717430164391
 31
0.0
  0
LINE
  5
8C
330
7F
100
AcDbEntity
  8
중심선
100
AcDbLine
 10
5.714909304380834
 20
16.24717430164393
 30
0.0
 11
3.58671253028996
 21
13.71088815037384
 31
0.0
  0
LINE
  5
8D
330
7F
100
AcDbEntity
  8
중심선
100
AcDbLine
 10
2.268634060543552
 20
16.24717430164393
 30
0.0
 11
0.1404042013395286
 21
13.71084872107135
 31
0.0
  0
LINE
  5
8E
330
7F
100
AcDbEntity
  8
중심선
100
AcDbLine
 10
7.28139805157953
 20
16.24717430164393
 30
0.0
 11
10.72767329541681
 21
16.24717430164393
 31
0.0
  0
LINE
  5
8F
330
7F
100
AcDbEntity
  8
중심선
100
AcDbLine
 10
12.29416204261559
 20
16.24717430164393
 30
0.0
 11
15.74043728645272
 21
16.24717430164393
 31
0.0
  0
LINE
  5
90
330
7F
100
AcDbEntity
  8
중심선
100
AcDbLine
 10
19.22036997980202
 20
11.08717430171403
 30
0.0
 11
23.66174974927406
 21
11.08717430171406
 31
0.0
  0
LINE
  5
91
330
7F
100
AcDbEntity
  8
중심선
100
AcDbLine
 10
19.22039502424796
 20
13.00717430171391
 30
0.0
 11
19.22036997980202
 21
11.08717430171403
 31
0.0
  0
LINE
  5
92
330
7F
100
AcDbEntity
  8
중심선
100
AcDbLine
 10
19.22039502424796
 20
13.00717430171391
 30
0.0
 11
26.96566020931264
 21
13.00717430171391
 31
0.0
  0
LINE
  5
93
330
7F
100
AcDbEntity
  8
중심선
100
AcDbLine
 10
22.22332737316547
 20
13.45928029700563
 30
0.0
 11
24.52862924686651
 21
15.39360700705356
 31
0.0
  0
ATTDEF
  5
95
330
7F
100
AcDbEntity
  8
FORMAT
 62
     2
100
AcDbText
 10
3.448148490846466
 20
2.075366912832191
 30
0.0
 40
4.233333333333333
  1
EM636906
 41
0.75
  7
SLDTEXTSTYLE0
 11
3.448148490846466
 21
-0.0412997538344756
 31
0.0
100
AcDbAttributeDefinition
  3

  2
AUTOATTR0
 70
     0
 74
     1
  0
ENDBLK
  5
81
330
7F
100
AcDbEntity
  8
0
100
AcDbBlockEnd
  0
BLOCK
  5
D8
330
D7
100
AcDbEntity
  8
0
100
AcDbBlockBegin
  2
_D
 70
     0
 10
0.0
 20
0.0
 30
0.0
  3
_D
  1
_D
  0
SOLID
  5
DA
330
D7
100
AcDbEntity
  8
치수문자_일반주서
100
AcDbTrace
 10
-66.18999999999998
 20
3.176074928723876
 30
0.0
 11
-65.68199999999999
 21
6.478074928723876
 31
0.0
 12
-66.69799999999998
 22
6.478074928723876
 32
0.0
 13
-66.69799999999998
 23
6.478074928723876
 33
0.0
  0
SOLID
  5
DB
330
D7
100
AcDbEntity
  8
치수문자_일반주서
100
AcDbTrace
 10
-66.18999999999998
 20
-3.173925071276119
 30
0.0
 11
-66.69799999999998
 21
-6.475925071276118
 31
0.0
 12
-65.68199999999999
 22
-6.475925071276118
 32
0.0
 13
-65.68199999999999
 23
-6.475925071276118
 33
0.0
  0
LINE
  5
DC
330
D7
100
AcDbEntity
  8
치수문자_일반주서
100
AcDbLine
 10
-76.9828817160427
 20
-5.413291502344828
 30
0.0
 11
-76.9828817160427
 21
-6.124228987909328
 31
0.0
  0
LINE
  5
DD
330
D7
100
AcDbEntity
  8
치수문자_일반주서
100
AcDbLine
 10
-76.9828817160427
 20
-6.124228987909328
 30
0.0
 11
-71.4266317249834
 21
-6.124228987909289
 31
0.0
  0
LINE
  5
DE
330
D7
100
AcDbEntity
  8
치수문자_일반주서
100
AcDbLine
 10
-71.4266317249834
 20
-6.124228987909289
 30
0.0
 11
-71.4266317249834
 21
-5.413291502344789
 31
0.0
  0
LINE
  5
DF
330
D7
100
AcDbEntity
  8
치수문자_일반주서
100
AcDbLine
 10
-76.98288171604278
 20
5.41544135979243
 30
0.0
 11
-76.98288171604278
 21
6.12637884535693
 31
0.0
  0
LINE
  5
E0
330
D7
100
AcDbEntity
  8
치수문자_일반주서
100
AcDbLine
 10
-76.98288171604278
 20
6.12637884535693
 30
0.0
 11
-71.42663172498348
 21
6.126378845356969
 31
0.0
  0
LINE
  5
E1
330
D7
100
AcDbEntity
  8
치수문자_일반주서
100
AcDbLine
 10
-71.42663172498348
 20
6.126378845356969
 30
0.0
 11
-71.42663172498348
 21
5.415441359792469
 31
0.0
  0
LINE
  5
E2
330
D7
100
AcDbEntity
  8
치수문자_일반주서
100
AcDbLine
 10
-53.68999999999998
 20
3.176074928723876
 30
0.0
 11
-67.18999999999998
 21
3.176074928723876
 31
0.0
  0
LINE
  5
E3
330
D7
100
AcDbEntity
  8
치수문자_일반주서
100
AcDbLine
 10
-53.68999999999998
 20
-3.173925071276118
 30
0.0
 11
-67.18999999999998
 21
-3.173925071276119
 31
0.0
  0
LINE
  5
E4
330
D7
100
AcDbEntity
  8
치수문자_일반주서
100
AcDbLine
 10
-66.18999999999998
 20
3.176074928723876
 30
0.0
 11
-66.18999999999998
 21
9.526074928723874
 31
0.0
  0
LINE
  5
E5
330
D7
100
AcDbEntity
  8
치수문자_일반주서
100
AcDbLine
 10
-66.18999999999998
 20
3.176074928723876
 30
0.0
 11
-66.18999999999998
 21
-3.173925071276119
 31
0.0
  0
LINE
  5
E6
330
D7
100
AcDbEntity
  8
치수문자_일반주서
100
AcDbLine
 10
-66.18999999999998
 20
-3.173925071276119
 30
0.0
 11
-66.18999999999998
 21
-9.52392507127612
 31
0.0
  0
MTEXT
  5
E7
330
D7
100
AcDbEntity
  8
치수문자_일반주서
100
AcDbMText
 10
-75.93836863956231
 20
-4.52461960173345
 30
0.0
 40
3.5
 41
0.0
 71
     1
 72
     1
  1
0.25
  7
SLDTEXTSTYLE0
 11
-7.044195017643634E-15
 21
1.0
 31
0.0
 73
     1
 44
1.0
  0
MTEXT
  5
E8
330
D7
100
AcDbEntity
  8
치수문자_일반주서
100
AcDbMText
 10
-70.70173708920181
 20
-7.163838766581741
 30
0.0
 40
3.5
 41
0.0
 71
     1
 72
     1
  1
%%c
  7
SLDTEXTSTYLE0
 11
-7.044195017643634E-15
 21
1.0
 31
0.0
 73
     1
 44
1.0
  0
MTEXT
  5
E9
330
D7
100
AcDbEntity
  8
치수문자_일반주서
100
AcDbMText
 10
-70.70173708920186
 20
-1.88540136820766
 30
0.0
 40
3.5
 41
0.0
 71
     1
 72
     1
  1
6.35
  7
SLDTEXTSTYLE0
 11
-7.044195017643634E-15
 21
1.0
 31
0.0
 73
     1
 44
1.0
  0
ENDBLK
  5
D9
330
D7
100
AcDbEntity
  8
0
100
AcDbBlockEnd
  0
BLOCK
  5
ED
330
EC
100
AcDbEntity
  8
0
100
AcDbBlockBegin
  2
_D_1
 70
     0
 10
0.0
 20
0.0
 30
0.0
  3
_D_1
  1
_D_1
  0
SOLID
  5
EF
330
EC
100
AcDbEntity
  8
치수문자_일반주서
100
AcDbTrace
 10
64.28939220805994
 20
6.351074928723897
 30
0.0
 11
63.78139220805993
 21
3.049074928723897
 31
0.0
 12
64.79739220805993
 22
3.049074928723897
 32
0.0
 13
64.79739220805993
 23
3.049074928723897
 33
0.0
  0
SOLID
  5
F0
330
EC
100
AcDbEntity
  8
치수문자_일반주서
100
AcDbTrace
 10
64.28939220805994
 20
-6.348925071276113
 30
0.0
 11
64.79739220805993
 21
-3.046925071276114
 31
0.0
 12
63.78139220805993
 22
-3.046925071276114
 32
0.0
 13
63.78139220805993
 23
-3.046925071276114
 33
0.0
  0
LINE
  5
F1
330
EC
100
AcDbEntity
  8
치수문자_일반주서
100
AcDbLine
 10
53.49651049201722
 20
20.97715961835173
 30
0.0
 11
53.49651049201722
 21
20.26622213278723
 31
0.0
  0
LINE
  5
F2
330
EC
100
AcDbEntity
  8
치수문자_일반주서
100
AcDbLine
 10
53.49651049201722
 20
20.26622213278723
 30
0.0
 11
59.05276048307653
 21
20.26622213278727
 31
0.0
  0
LINE
  5
F3
330
EC
100
AcDbEntity
  8
치수문자_일반주서
100
AcDbLine
 10
59.05276048307653
 20
20.26622213278727
 30
0.0
 11
59.05276048307652
 21
20.97715961835177
 31
0.0
  0
LINE
  5
F4
330
EC
100
AcDbEntity
  8
치수문자_일반주서
100
AcDbLine
 10
53.49651049201714
 20
31.80589248048899
 30
0.0
 11
53.49651049201714
 21
32.51682996605349
 31
0.0
  0
LINE
  5
F5
330
EC
100
AcDbEntity
  8
치수문자_일반주서
100
AcDbLine
 10
53.49651049201714
 20
32.51682996605349
 30
0.0
 11
59.05276048307644
 21
32.51682996605354
 31
0.0
  0
LINE
  5
F6
330
EC
100
AcDbEntity
  8
치수문자_일반주서
100
AcDbLine
 10
59.05276048307644
 20
32.51682996605354
 30
0.0
 11
59.05276048307645
 21
31.80589248048903
 31
0.0
  0
LINE
  5
F7
330
EC
100
AcDbEntity
  8
치수문자_일반주서
100
AcDbLine
 10
30.77706927758172
 20
6.351074928723898
 30
0.0
 11
65.28939220805994
 21
6.351074928723897
 31
0.0
  0
LINE
  5
F8
330
EC
100
AcDbEntity
  8
치수문자_일반주서
100
AcDbLine
 10
30.77706927758172
 20
-6.348925071276112
 30
0.0
 11
65.28939220805994
 21
-6.348925071276113
 31
0.0
  0
LINE
  5
F9
330
EC
100
AcDbEntity
  8
치수문자_일반주서
100
AcDbLine
 10
64.28939220805994
 20
6.351074928723897
 30
0.0
 11
64.28939220805994
 21
34.84949499224145
 31
0.0
  0
LINE
  5
FA
330
EC
100
AcDbEntity
  8
치수문자_일반주서
100
AcDbLine
 10
64.28939220805994
 20
6.351074928723897
 30
0.0
 11
64.28939220805994
 21
-6.348925071276113
 31
0.0
  0
MTEXT
  5
FB
330
EC
100
AcDbEntity
  8
치수문자_일반주서
100
AcDbMText
 10
54.54102356849762
 20
21.86583151896311
 30
0.0
 40
3.5
 41
0.0
 71
     1
 72
     1
  1
0.50
  7
SLDTEXTSTYLE0
 11
-7.044195017643634E-15
 21
1.0
 31
0.0
 73
     1
 44
1.0
  0
MTEXT
  5
FC
330
EC
100
AcDbEntity
  8
치수문자_일반주서
100
AcDbMText
 10
59.77765511885812
 20
17.93355710659938
 30
0.0
 40
3.5
 41
0.0
 71
     1
 72
     1
  1
%%c
  7
SLDTEXTSTYLE0
 11
-7.044195017643634E-15
 21
1.0
 31
0.0
 73
     1
 44
1.0
  0
MTEXT
  5
FD
330
EC
100
AcDbEntity
  8
치수문자_일반주서
100
AcDbMText
 10
59.77765511885809
 20
23.21199450497346
 30
0.0
 40
3.5
 41
0.0
 71
     1
 72
     1
  1
12.70
  7
SLDTEXTSTYLE0
 11
-7.044195017643634E-15
 21
1.0
 31
0.0
 73
     1
 44
1.0
  0
ENDBLK
  5
EE
330
EC
100
AcDbEntity
  8
0
100
AcDbBlockEnd
  0
BLOCK
  5
101
330
100
100
AcDbEntity
  8
0
100
AcDbBlockBegin
  2
_D_2
 70
     0
 10
0.0
 20
0.0
 30
0.0
  3
_D_2
  1
_D_2
  0
SOLID
  5
103
330
100
100
AcDbEntity
  8
치수문자_일반주서
100
AcDbTrace
 10
22.70000000000001
 20
13.19630048907219
 30
0.0
 11
26.00200000000001
 21
12.68830048907219
 31
0.0
 12
26.00200000000001
 22
13.70430048907219
 32
0.0
 13
26.00200000000001
 23
13.70430048907219
 33
0.0
  0
SOLID
  5
104
330
100
100
AcDbEntity
  8
치수문자_일반주서
100
AcDbTrace
 10
10.00000000000002
 20
13.19630048907219
 30
0.0
 11
6.698000000000016
 21
13.70430048907219
 31
0.0
 12
6.698000000000016
 22
12.68830048907219
 32
0.0
 13
6.698000000000016
 23
12.68830048907219
 33
0.0
  0
LINE
  5
105
330
100
100
AcDbEntity
  8
치수문자_일반주서
100
AcDbLine
 10
10.96233742504367
 20
23.98918220511494
 30
0.0
 11
10.25139993947917
 21
23.98918220511494
 31
0.0
  0
LINE
  5
106
330
100
100
AcDbEntity
  8
치수문자_일반주서
100
AcDbLine
 10
10.25139993947917
 20
23.98918220511494
 30
0.0
 11
10.25139993947914
 21
18.43293221405564
 31
0.0
  0
LINE
  5
107
330
100
100
AcDbEntity
  8
치수문자_일반주서
100
AcDbLine
 10
10.25139993947914
 20
18.43293221405564
 30
0.0
 11
10.96233742504364
 21
18.43293221405563
 31
0.0
  0
LINE
  5
108
330
100
100
AcDbEntity
  8
치수문자_일반주서
100
AcDbLine
 10
21.79107028718093
 20
23.98918220511486
 30
0.0
 11
22.50200777274543
 21
23.98918220511485
 31
0.0
  0
LINE
  5
109
330
100
100
AcDbEntity
  8
치수문자_일반주서
100
AcDbLine
 10
22.50200777274543
 20
23.98918220511485
 30
0.0
 11
22.5020077727454
 21
18.43293221405555
 31
0.0
  0
LINE
  5
10A
330
100
100
AcDbEntity
  8
치수문자_일반주서
100
AcDbLine
 10
22.5020077727454
 20
18.43293221405555
 30
0.0
 11
21.7910702871809
 21
18.43293221405555
 31
0.0
  0
LINE
  5
10B
330
100
100
AcDbEntity
  8
치수문자_일반주서
100
AcDbLine
 10
22.70000000000001
 20
3.223574928723893
 30
0.0
 11
22.70000000000001
 21
14.1963004890722
 31
0.0
  0
LINE
  5
10C
330
100
100
AcDbEntity
  8
치수문자_일반주서
100
AcDbLine
 10
10.00000000000002
 20
3.7698693560662
 30
0.0
 11
10.00000000000002
 21
14.1963004890722
 31
0.0
  0
LINE
  5
10D
330
100
100
AcDbEntity
  8
치수문자_일반주서
100
AcDbLine
 10
22.70000000000001
 20
13.19630048907219
 30
0.0
 11
29.05000000000001
 21
13.19630048907219
 31
0.0
  0
LINE
  5
10E
330
100
100
AcDbEntity
  8
치수문자_일반주서
100
AcDbLine
 10
22.70000000000001
 20
13.19630048907219
 30
0.0
 11
10.00000000000002
 21
13.19630048907219
 31
0.0
  0
LINE
  5
10F
330
100
100
AcDbEntity
  8
치수문자_일반주서
100
AcDbLine
 10
10.00000000000002
 20
13.19630048907219
 30
0.0
 11
3.650000000000016
 21
13.19630048907219
 31
0.0
  0
MTEXT
  5
110
330
100
100
AcDbEntity
  8
치수문자_일반주서
100
AcDbMText
 10
9.737641213992433
 20
17.76150975493391
 30
0.0
 40
3.5
 41
0.0
 71
     1
 72
     1
  1

  7
SLDTEXTSTYLE0
 73
     1
 44
1.0
  0
MTEXT
  5
111
330
100
100
AcDbEntity
  8
치수문자_일반주서
100
AcDbMText
 10
11.85100932565504
 20
22.94466912863452
 30
0.0
 40
3.5
 41
0.0
 71
     1
 72
     1
  1
0.50
  7
SLDTEXTSTYLE0
 73
     1
 44
1.0
  0
MTEXT
  5
112
330
100
100
AcDbEntity
  8
치수문자_일반주서
100
AcDbMText
 10
10.55795361247828
 20
17.70803757827406
 30
0.0
 40
3.5
 41
0.0
 71
     1
 72
     1
  1
12.70
  7
SLDTEXTSTYLE0
 73
     1
 44
1.0
  0
MTEXT
  5
113
330
100
100
AcDbEntity
  8
치수문자_일반주서
100
AcDbMText
 10
24.347711017886
 20
17.76150975493381
 30
0.0
 40
3.5
 41
0.0
 71
     1
 72
     1
  1

  7
SLDTEXTSTYLE0
 73
     1
 44
1.0
  0
ENDBLK
  5
102
330
100
100
AcDbEntity
  8
0
100
AcDbBlockEnd
  0
BLOCK
  5
116
330
115
100
AcDbEntity
  8
0
100
AcDbBlockBegin
  2
_D_3
 70
     0
 10
0.0
 20
0.0
 30
0.0
  3
_D_3
  1
_D_3
  0
SOLID
  5
118
330
115
100
AcDbEntity
  8
치수문자_일반주서
100
AcDbTrace
 10
22.70000000000001
 20
25.19630048907215
 30
0.0
 11
19.39800000000001
 21
25.70430048907215
 31
0.0
 12
19.39800000000001
 22
24.68830048907215
 32
0.0
 13
19.39800000000001
 23
24.68830048907215
 33
0.0
  0
SOLID
  5
119
330
115
100
AcDbEntity
  8
치수문자_일반주서
100
AcDbTrace
 10
-53.49999999999999
 20
25.19630048907214
 30
0.0
 11
-50.19799999999999
 21
24.68830048907214
 31
0.0
 12
-50.19799999999999
 22
25.70430048907214
 32
0.0
 13
-50.19799999999999
 23
25.70430048907214
 33
0.0
  0
LINE
  5
11A
330
115
100
AcDbEntity
  8
치수문자_일반주서
100
AcDbLine
 10
-21.15725504471996
 20
35.98918220511488
 30
0.0
 11
-21.86819253028446
 21
35.98918220511489
 31
0.0
  0
LINE
  5
11B
330
115
100
AcDbEntity
  8
치수문자_일반주서
100
AcDbLine
 10
-21.86819253028446
 20
35.98918220511489
 30
0.0
 11
-21.8681925302845
 21
30.43293221405558
 31
0.0
  0
LINE
  5
11C
330
115
100
AcDbEntity
  8
치수문자_일반주서
100
AcDbLine
 10
-21.8681925302845
 20
30.43293221405558
 30
0.0
 11
-21.15725504472
 21
30.43293221405558
 31
0.0
  0
LINE
  5
11D
330
115
100
AcDbEntity
  8
치수문자_일반주서
100
AcDbLine
 10
-10.3285221825827
 20
35.9891822051148
 30
0.0
 11
-9.617584697018202
 21
35.98918220511479
 31
0.0
  0
LINE
  5
11E
330
115
100
AcDbEntity
  8
치수문자_일반주서
100
AcDbLine
 10
-9.617584697018202
 20
35.98918220511479
 30
0.0
 11
-9.617584697018241
 21
30.43293221405549
 31
0.0
  0
LINE
  5
11F
330
115
100
AcDbEntity
  8
치수문자_일반주서
100
AcDbLine
 10
-9.617584697018241
 20
30.43293221405549
 30
0.0
 11
-10.32852218258274
 21
30.43293221405549
 31
0.0
  0
LINE
  5
120
330
115
100
AcDbEntity
  8
치수문자_일반주서
100
AcDbLine
 10
22.70000000000001
 20
3.223574928723893
 30
0.0
 11
22.70000000000001
 21
26.19630048907215
 31
0.0
  0
LINE
  5
121
330
115
100
AcDbEntity
  8
치수문자_일반주서
100
AcDbLine
 10
-53.49999999999999
 20
3.366074928723885
 30
0.0
 11
-53.49999999999999
 21
26.19630048907215
 31
0.0
  0
LINE
  5
122
330
115
100
AcDbEntity
  8
치수문자_일반주서
100
AcDbLine
 10
22.70000000000001
 20
25.19630048907215
 30
0.0
 11
-53.49999999999999
 21
25.19630048907214
 31
0.0
  0
MTEXT
  5
123
330
115
100
AcDbEntity
  8
치수문자_일반주서
100
AcDbMText
 10
-22.3819512557712
 20
29.76150975493387
 30
0.0
 40
3.5
 41
0.0
 71
     1
 72
     1
  1

  7
SLDTEXTSTYLE0
 73
     1
 44
1.0
  0
MTEXT
  5
124
330
115
100
AcDbEntity
  8
치수문자_일반주서
100
AcDbMText
 10
-20.2685831441086
 20
34.94466912863447
 30
0.0
 40
3.5
 41
0.0
 71
     1
 72
     1
  1
3.00
  7
SLDTEXTSTYLE0
 73
     1
 44
1.0
  0
MTEXT
  5
125
330
115
100
AcDbEntity
  8
치수문자_일반주서
100
AcDbMText
 10
-21.56163885728536
 20
29.70803757827401
 30
0.0
 40
3.5
 41
0.0
 71
     1
 72
     1
  1
76.20
  7
SLDTEXTSTYLE0
 73
     1
 44
1.0
  0
MTEXT
  5
126
330
115
100
AcDbEntity
  8
치수문자_일반주서
100
AcDbMText
 10
-7.771881451877635
 20
29.76150975493376
 30
0.0
 40
3.5
 41
0.0
 71
     1
 72
     1
  1

  7
SLDTEXTSTYLE0
 73
     1
 44
1.0
  0
ENDBLK
  5
117
330
115
100
AcDbEntity
  8
0
100
AcDbBlockEnd
  0
BLOCK
  5
12F
330
12E
100
AcDbEntity
  8
0
100
AcDbBlockBegin
  2
SW_DOWELSYMBOL_0
 70
     0
 10
0.0
 20
0.0
 30
0.0
  3
SW_DOWELSYMBOL_0
  1
SW_DOWELSYMBOL_0
  0
CIRCLE
  5
131
330
12E
100
AcDbEntity
  8
해칭선
 62
     0
100
AcDbCircle
 10
0.0
 20
0.0
 30
0.0
 40
3.000000000000002
  0
HATCH
  5
132
330
12E
100
AcDbEntity
  8
0
  6
Continuous
 62
     0
370
     0
100
AcDbHatch
 10
0.0
 20
0.0
 30
0.0
210
0.0
220
0.0
230
1.0
  2
SOLID
 70
     1
 71
     0
 91
        1
 92
        0
 93
        3
 72
     2
 10
0.0000000000000069
 20
0.0
 40
3.000000000000002
 50
0.0
 51
90.0
 73
     1
 72
     1
 10
0.0000000000000069
 20
3.000000000000002
 11
0.0000000000000069
 21
0.0
 72
     1
 10
0.0000000000000069
 20
0.0
 11
3.000000000000009
 21
0.0
 97
        0
 75
     0
 76
     1
 98
        1
 10
0.0
 20
0.0
  0
HATCH
  5
133
330
12E
100
AcDbEntity
  8
0
  6
Continuous
 62
     0
370
     0
100
AcDbHatch
 10
0.0
 20
0.0
 30
0.0
210
0.0
220
0.0
230
1.0
  2
SOLID
 70
     1
 71
     0
 91
        1
 92
        0
 93
        3
 72
     2
 10
0.0000000000000069
 20
0.0
 40
3.000000000000002
 50
180.0
 51
270.0000000000008
 73
     1
 72
     1
 10
0.0000000000000069
 20
-3.000000000000002
 11
0.0000000000000069
 21
0.0
 72
     1
 10
0.0000000000000069
 20
0.0
 11
-2.999999999999995
 21
0.0
 97
        0
 75
     0
 76
     1
 98
        1
 10
0.0
 20
0.0
  0
ENDBLK
  5
130
330
12E
100
AcDbEntity
  8
0
100
AcDbBlockEnd
  0
BLOCK
  5
1B6
330
1B5
100
AcDbEntity
  8
0
100
AcDbBlockBegin
  2
*D8
 70
     1
 10
0.0
 20
0.0
 30
0.0
  3
*D8
  1
*D8
  0
LINE
  5
1B7
330
1B5
100
AcDbEntity
  8
치수문자_일반주서
 62
     0
370
    -2
100
AcDbLine
 10
17.81250000000007
 20
35.29965253710613
 30
0.0
 11
4.375000000000046
 21
35.29965253710608
 31
0.0
  0
LINE
  5
1B8
330
1B5
100
AcDbEntity
  8
치수문자_일반주서
 62
     0
370
    -2
100
AcDbLine
 10
17.81250000000007
 20
28.94965253710614
 30
0.0
 11
4.375000000000068
 21
28.94965253710609
 31
0.0
  0
LINE
  5
1B9
330
1B5
100
AcDbEntity
  8
치수문자_일반주서
 62
     0
370
    -2
100
AcDbLine
 10
4.375000000000058
 20
31.99765253710608
 30
0.0
 11
4.375000000000057
 21
32.25165253710609
 31
0.0
  0
SOLID
  5
1BA
330
1B5
100
AcDbEntity
  8
치수문자_일반주서
 62
     0
100
AcDbTrace
 10
4.925333333333391
 20
31.99765253710609
 30
0.0
 11
3.824666666666725
 21
31.99765253710608
 31
0.0
 12
4.375000000000046
 22
35.29965253710608
 32
0.0
 13
4.375000000000046
 23
35.29965253710608
 33
0.0
  0
SOLID
  5
1BB
330
1B5
100
AcDbEntity
  8
치수문자_일반주서
 62
     0
100
AcDbTrace
 10
3.824666666666724
 20
32.25165253710609
 30
0.0
 11
4.92533333333339
 21
32.25165253710609
 31
0.0
 12
4.375000000000068
 22
28.94965253710609
 32
0.0
 13
4.375000000000068
 23
28.94965253710609
 33
0.0
  0
MTEXT
  5
1BC
330
1B5
100
AcDbEntity
  8
치수문자_일반주서
 62
     0
100
AcDbMText
 10
0.0000000000000568
 20
32.12465253710612
 30
0.0
 40
3.5
 41
0.0
 71
     2
 72
     1
  1
\A1;%%c6.35 [1/4]
  7
SLDTEXTSTYLE0
 11
-3.496765431890260E-15
 21
1.0
 31
0.0
 73
     1
 44
1.0
  0
POINT
  5
1BD
330
1B5
100
AcDbEntity
  8
Defpoints
 62
     0
100
AcDbPoint
 10
17.87500000000007
 20
35.29965253710613
 30
0.0
  0
POINT
  5
1BE
330
1B5
100
AcDbEntity
  8
Defpoints
 62
     0
100
AcDbPoint
 10
17.87500000000007
 20
28.94965253710614
 30
0.0
  0
POINT
  5
1BF
330
1B5
100
AcDbEntity
  8
Defpoints
 62
     0
100
AcDbPoint
 10
4.375000000000071
 20
28.94965253710609
 30
0.0
  0
ENDBLK
  5
1C0
330
1B5
100
AcDbEntity
  8
0
100
AcDbBlockEnd
  0
BLOCK
  5
1C3
330
1C2
100
AcDbEntity
  8
0
100
AcDbBlockBegin
  2
*D9
 70
     1
 10
0.0
 20
0.0
 30
0.0
  3
*D9
  1
*D9
  0
LINE
  5
1C4
330
1C2
100
AcDbEntity
  8
치수문자_일반주서
 62
     0
370
    -2
100
AcDbLine
 10
93.32750000000006
 20
35.29965253710616
 30
0.0
 11
104.3343770378973
 21
35.2996525371062
 31
0.0
  0
LINE
  5
1C5
330
1C2
100
AcDbEntity
  8
치수문자_일반주서
 62
     0
370
    -2
100
AcDbLine
 10
93.32750000000006
 20
28.94965253710615
 30
0.0
 11
104.3343770378974
 21
28.9496525371062
 31
0.0
  0
LINE
  5
1C6
330
1C2
100
AcDbEntity
  8
치수문자_일반주서
 62
     0
370
    -2
100
AcDbLine
 10
104.3343770378973
 20
35.2996525371062
 30
0.0
 11
104.3343770378972
 21
71.20260365780258
 31
0.0
  0
LINE
  5
1C7
330
1C2
100
AcDbEntity
  8
치수문자_일반주서
 62
     0
370
    -2
100
AcDbLine
 10
104.3343770378973
 20
35.2996525371062
 30
0.0
 11
104.3343770378974
 21
28.9496525371062
 31
0.0
  0
LINE
  5
1C8
330
1C2
100
AcDbEntity
  8
치수문자_일반주서
 62
     0
370
    -2
100
AcDbLine
 10
104.3343770378973
 20
38.6016525371062
 30
0.0
 11
104.3343770378973
 21
41.9036525371062
 31
0.0
  0
LINE
  5
1C9
330
1C2
100
AcDbEntity
  8
치수문자_일반주서
 62
     0
370
    -2
100
AcDbLine
 10
104.3343770378974
 20
25.6476525371062
 30
0.0
 11
104.3343770378974
 21
22.3456525371062
 31
0.0
  0
SOLID
  5
1CA
330
1C2
100
AcDbEntity
  8
치수문자_일반주서
 62
     0
100
AcDbTrace
 10
103.784043704564
 20
38.6016525371062
 30
0.0
 11
104.8847103712306
 21
38.6016525371062
 31
0.0
 12
104.3343770378973
 22
35.2996525371062
 32
0.0
 13
104.3343770378973
 23
35.2996525371062
 33
0.0
  0
SOLID
  5
1CB
330
1C2
100
AcDbEntity
  8
치수문자_일반주서
 62
     0
100
AcDbTrace
 10
104.8847103712307
 20
25.6476525371062
 30
0.0
 11
103.784043704564
 21
25.64765253710619
 31
0.0
 12
104.3343770378974
 22
28.9496525371062
 32
0.0
 13
104.3343770378974
 23
28.9496525371062
 33
0.0
  0
MTEXT
  5
1CC
330
1C2
100
AcDbEntity
  8
치수문자_일반주서
 62
     0
100
AcDbMText
 10
99.95937703789723
 20
58.51510365780256
 30
0.0
 40
3.5
 41
0.0
 71
     2
 72
     1
  1
\A1;%%c6.35 [1/4]
  7
SLDTEXTSTYLE0
 11
-4.475859752819528E-15
 21
1.0
 31
0.0
 73
     1
 44
1.0
  0
POINT
  5
1CD
330
1C2
100
AcDbEntity
  8
Defpoints
 62
     0
100
AcDbPoint
 10
93.26500000000006
 20
35.29965253710616
 30
0.0
  0
POINT
  5
1CE
330
1C2
100
AcDbEntity
  8
Defpoints
 62
     0
100
AcDbPoint
 10
93.26500000000006
 20
28.94965253710615
 30
0.0
  0
POINT
  5
1CF
330
1C2
100
AcDbEntity
  8
Defpoints
 62
     0
100
AcDbPoint
 10
104.3343770378973
 20
28.9496525371062
 30
0.0
  0
ENDBLK
  5
1D0
330
1C2
100
AcDbEntity
  8
0
100
AcDbBlockEnd
  0
BLOCK
  5
1D3
330
1D2
100
AcDbEntity
  8
0
100
AcDbBlockBegin
  2
*D10
 70
     1
 10
0.0
 20
0.0
 30
0.0
  3
*D10
  1
*D10
  0
LINE
  5
1D4
330
1D2
100
AcDbEntity
  8
치수문자_일반주서
 62
     0
370
    -2
100
AcDbLine
 10
93.26500000000006
 20
35.36215253710616
 30
0.0
 11
93.26500000000006
 21
45.31987809745444
 31
0.0
  0
LINE
  5
1D5
330
1D2
100
AcDbEntity
  8
치수문자_일반주서
 62
     0
370
    -2
100
AcDbLine
 10
80.56500000000004
 20
34.95594696443362
 30
0.0
 11
80.56500000000004
 21
45.31987809745444
 31
0.0
  0
LINE
  5
1D6
330
1D2
100
AcDbEntity
  8
치수문자_일반주서
 62
     0
370
    -2
100
AcDbLine
 10
80.56500000000004
 20
45.31987809745444
 30
0.0
 11
48.85281027493906
 21
45.31987809745444
 31
0.0
  0
LINE
  5
1D7
330
1D2
100
AcDbEntity
  8
치수문자_일반주서
 62
     0
370
    -2
100
AcDbLine
 10
89.96300000000005
 20
45.31987809745444
 30
0.0
 11
83.86700000000005
 21
45.31987809745444
 31
0.0
  0
SOLID
  5
1D8
330
1D2
100
AcDbEntity
  8
치수문자_일반주서
 62
     0
100
AcDbTrace
 10
89.96300000000005
 20
44.76954476412111
 30
0.0
 11
89.96300000000005
 21
45.87021143078778
 31
0.0
 12
93.26500000000006
 22
45.31987809745444
 32
0.0
 13
93.26500000000006
 23
45.31987809745444
 33
0.0
  0
SOLID
  5
1D9
330
1D2
100
AcDbEntity
  8
치수문자_일반주서
 62
     0
100
AcDbTrace
 10
83.86700000000005
 20
45.87021143078778
 30
0.0
 11
83.86700000000005
 21
44.76954476412111
 31
0.0
 12
80.56500000000004
 22
45.31987809745444
 32
0.0
 13
80.56500000000004
 23
45.31987809745444
 33
0.0
  0
MTEXT
  5
1DA
330
1D2
100
AcDbEntity
  8
치수문자_일반주서
 62
     0
100
AcDbMText
 10
59.79031027493906
 20
49.69487809745444
 30
0.0
 40
3.5
 41
0.0
 71
     2
 72
     1
  1
\A1;12.7 [1/2]
  7
SLDTEXTSTYLE0
 73
     1
 44
1.0
  0
POINT
  5
1DB
330
1D2
100
AcDbEntity
  8
Defpoints
 62
     0
100
AcDbPoint
 10
93.26500000000006
 20
35.29965253710616
 30
0.0
  0
POINT
  5
1DC
330
1D2
100
AcDbEntity
  8
Defpoints
 62
     0
100
AcDbPoint
 10
80.56500000000004
 20
34.89344696443362
 30
0.0
  0
POINT
  5
1DD
330
1D2
100
AcDbEntity
  8
Defpoints
 62
     0
100
AcDbPoint
 10
80.56500000000004
 20
45.31987809745444
 30
0.0
  0
ENDBLK
  5
1DE
330
1D2
100
AcDbEntity
  8
0
100
AcDbBlockEnd
  0
BLOCK
  5
1E1
330
1E0
100
AcDbEntity
  8
0
100
AcDbBlockBegin
  2
*D11
 70
     1
 10
0.0
 20
0.0
 30
0.0
  3
*D11
  1
*D11
  0
LINE
  5
1E2
330
1E0
100
AcDbEntity
  8
치수문자_일반주서
 62
     0
370
    -2
100
AcDbLine
 10
93.26500000000006
 20
35.36215253710616
 30
0.0
 11
93.26500000000006
 21
57.3198780974544
 31
0.0
  0
LINE
  5
1E3
330
1E0
100
AcDbEntity
  8
치수문자_일반주서
 62
     0
370
    -2
100
AcDbLine
 10
17.06500000000007
 20
34.55215253710614
 30
0.0
 11
17.06500000000007
 21
57.3198780974544
 31
0.0
  0
LINE
  5
1E4
330
1E0
100
AcDbEntity
  8
치수문자_일반주서
 62
     0
370
    -2
100
AcDbLine
 10
89.96300000000005
 20
57.3198780974544
 30
0.0
 11
20.36700000000007
 21
57.3198780974544
 31
0.0
  0
SOLID
  5
1E5
330
1E0
100
AcDbEntity
  8
치수문자_일반주서
 62
     0
100
AcDbTrace
 10
89.96300000000005
 20
56.76954476412106
 30
0.0
 11
89.96300000000005
 21
57.87021143078773
 31
0.0
 12
93.26500000000006
 22
57.3198780974544
 32
0.0
 13
93.26500000000006
 23
57.3198780974544
 33
0.0
  0
SOLID
  5
1E6
330
1E0
100
AcDbEntity
  8
치수문자_일반주서
 62
     0
100
AcDbTrace
 10
20.36700000000007
 20
57.87021143078773
 30
0.0
 11
20.36700000000007
 21
56.76954476412106
 31
0.0
 12
17.06500000000007
 22
57.3198780974544
 32
0.0
 13
17.06500000000007
 23
57.3198780974544
 33
0.0
  0
MTEXT
  5
1E7
330
1E0
100
AcDbEntity
  8
치수문자_일반주서
 62
     0
100
AcDbMText
 10
54.82211103710276
 20
61.6948780974544
 30
0.0
 40
3.5
 41
0.0
 71
     2
 72
     1
  1
\A1;76.2 [3]
  7
SLDTEXTSTYLE0
 73
     1
 44
1.0
  0
POINT
  5
1E8
330
1E0
100
AcDbEntity
  8
Defpoints
 62
     0
100
AcDbPoint
 10
93.26500000000006
 20
35.29965253710616
 30
0.0
  0
POINT
  5
1E9
330
1E0
100
AcDbEntity
  8
Defpoints
 62
     0
100
AcDbPoint
 10
17.06500000000007
 20
34.48965253710614
 30
0.0
  0
POINT
  5
1EA
330
1E0
100
AcDbEntity
  8
Defpoints
 62
     0
100
AcDbPoint
 10
17.06500000000007
 20
57.3198780974544
 30
0.0
  0
ENDBLK
  5
1EB
330
1E0
100
AcDbEntity
  8
0
100
AcDbBlockEnd
  0
BLOCK
  5
1FB
330
1FA
100
AcDbEntity
  8
0
100
AcDbBlockBegin
  2
*D12
 70
     1
 10
0.0
 20
0.0
 30
0.0
  3
*D12
  1
*D12
  0
LINE
  5
1FC
330
1FA
100
AcDbEntity
  8
치수문자_일반주서
 62
     0
370
    -2
100
AcDbLine
 10
94.76681806716923
 20
26.22087461193421
 30
0.0
 11
111.0481907008025
 21
0.0
 31
0.0
  0
MTEXT
  5
1FD
330
1FA
100
AcDbEntity
  8
치수문자_일반주서
 62
     0
100
AcDbMText
 10
106.0084890775482
 20
13.09255071065482
 30
0.0
 40
3.5
 41
0.0
 71
     5
 72
     1
  1
\A1;R.51 [R0.020]
  7
SLDTEXTSTYLE0
 11
0.5275113037189428
 21
-0.8495480118561524
 31
0.0
 73
     1
 44
1.0
  0
LINE
  5
1FE
330
1FA
100
AcDbEntity
  8
치수문자_일반주서
 62
     0
370
    -2
100
AcDbLine
 10
92.75700000000005
 20
29.45765253710616
 30
0.0
 11
93.02497574228927
 21
29.02608214708323
 31
0.0
  0
SOLID
  5
1FF
330
1FA
100
AcDbEntity
  8
치수문자_일반주서
 62
     0
100
AcDbTrace
 10
95.23435265636073
 20
26.51118166608087
 30
0.0
 11
94.29928347797772
 21
25.93056755778755
 31
0.0
 12
93.02497574228927
 22
29.02608214708323
 32
0.0
 13
93.02497574228927
 23
29.02608214708323
 33
0.0
  0
POINT
  5
200
330
1FA
100
AcDbEntity
  8
Defpoints
 62
     0
100
AcDbPoint
 10
93.02497574228927
 20
29.02608214708323
 30
0.0
  0
POINT
  5
201
330
1FA
100
AcDbEntity
  8
Defpoints
 62
     0
100
AcDbPoint
 10
92.75700000000005
 20
29.45765253710616
 30
0.0
  0
ENDBLK
  5
202
330
1FA
100
AcDbEntity
  8
0
100
AcDbBlockEnd
  0
BLOCK
  5
247
330
246
100
AcDbEntity
  8
0
100
AcDbBlockBegin
  2
*D13
 70
     1
 10
0.0
 20
0.0
 30
0.0
  3
*D13
  1
*D13
  0
LINE
  5
249
330
246
100
AcDbEntity
  8
치수문자_일반주서
 62
     0
370
    -2
100
AcDbLine
 10
-52.75249999999998
 20
3.176074928723878
 30
0.0
 11
-66.19000000000001
 21
3.176074928723827
 31
0.0
  0
LINE
  5
24A
330
246
100
AcDbEntity
  8
치수문자_일반주서
 62
     0
370
    -2
100
AcDbLine
 10
-52.75249999999998
 20
-3.173925071276117
 30
0.0
 11
-66.18999999999998
 21
-3.173925071276167
 31
0.0
  0
LINE
  5
24B
330
246
100
AcDbEntity
  8
치수문자_일반주서
 62
     0
370
    -2
100
AcDbLine
 10
-66.19
 20
-0.1259250712761721
 30
0.0
 11
-66.19
 21
0.1280749287238327
 31
0.0
  0
SOLID
  5
24C
330
246
100
AcDbEntity
  8
치수문자_일반주서
 62
     0
100
AcDbTrace
 10
-65.63966666666667
 20
-0.1259250712761697
 30
0.0
 11
-66.74033333333333
 21
-0.1259250712761746
 31
0.0
 12
-66.19000000000001
 22
3.176074928723827
 32
0.0
 13
-66.19000000000001
 23
3.176074928723827
 33
0.0
  0
SOLID
  5
24D
330
246
100
AcDbEntity
  8
치수문자_일반주서
 62
     0
100
AcDbTrace
 10
-66.74033333333333
 20
0.1280749287238303
 30
0.0
 11
-65.63966666666667
 21
0.1280749287238352
 31
0.0
 12
-66.18999999999998
 22
-3.173925071276167
 32
0.0
 13
-66.18999999999998
 23
-3.173925071276167
 33
0.0
  0
MTEXT
  5
24E
330
246
100
AcDbEntity
  8
치수문자_일반주서
 62
     0
100
AcDbMText
 10
-70.565
 20
0.0010749287238615
 30
0.0
 40
3.5
 41
0.0
 71
     2
 72
     1
  1
\A1;%%c6.35 [1/4]
  7
SLDTEXTSTYLE0
 11
-4.475859752819533E-15
 21
1.0
 31
0.0
 73
     1
 44
1.0
  0
POINT
  5
24F
330
246
100
AcDbEntity
  8
Defpoints
 62
     0
100
AcDbPoint
 10
-52.68999999999998
 20
3.176074928723878
 30
0.0
  0
POINT
  5
250
330
246
100
AcDbEntity
  8
Defpoints
 62
     0
100
AcDbPoint
 10
-52.68999999999998
 20
-3.173925071276116
 30
0.0
  0
POINT
  5
251
330
246
100
AcDbEntity
  8
Defpoints
 62
     0
100
AcDbPoint
 10
-66.18999999999998
 20
-3.173925071276167
 30
0.0
  0
ENDBLK
  5
248
330
246
100
AcDbEntity
  8
0
100
AcDbBlockEnd
  0
BLOCK
  5
253
330
252
100
AcDbEntity
  8
0
100
AcDbBlockBegin
  2
*D14
 70
     1
 10
0.0
 20
0.0
 30
0.0
  3
*D14
  1
*D14
  0
LINE
  5
255
330
252
100
AcDbEntity
  8
치수문자_일반주서
 62
     0
370
    -2
100
AcDbLine
 10
22.76249999999999
 20
3.1760749287239
 30
0.0
 11
33.76937703789726
 21
3.176074928723942
 31
0.0
  0
LINE
  5
256
330
252
100
AcDbEntity
  8
치수문자_일반주서
 62
     0
370
    -2
100
AcDbLine
 10
22.76249999999999
 20
-3.173925071276102
 30
0.0
 11
33.76937703789729
 21
-3.173925071276059
 31
0.0
  0
LINE
  5
257
330
252
100
AcDbEntity
  8
치수문자_일반주서
 62
     0
370
    -2
100
AcDbLine
 10
33.76937703789726
 20
3.176074928723942
 30
0.0
 11
33.76937703789714
 21
39.07902604942033
 31
0.0
  0
LINE
  5
258
330
252
100
AcDbEntity
  8
치수문자_일반주서
 62
     0
370
    -2
100
AcDbLine
 10
33.76937703789726
 20
3.176074928723942
 30
0.0
 11
33.76937703789729
 21
-3.173925071276059
 31
0.0
  0
LINE
  5
259
330
252
100
AcDbEntity
  8
치수문자_일반주서
 62
     0
370
    -2
100
AcDbLine
 10
33.76937703789725
 20
6.478074928723942
 30
0.0
 11
33.76937703789724
 21
9.780074928723941
 31
0.0
  0
LINE
  5
25A
330
252
100
AcDbEntity
  8
치수문자_일반주서
 62
     0
370
    -2
100
AcDbLine
 10
33.7693770378973
 20
-6.475925071276059
 30
0.0
 11
33.76937703789731
 21
-9.777925071276059
 31
0.0
  0
SOLID
  5
25B
330
252
100
AcDbEntity
  8
치수문자_일반주서
 62
     0
100
AcDbTrace
 10
33.21904370456392
 20
6.47807492872394
 30
0.0
 11
34.31971037123058
 21
6.478074928723943
 31
0.0
 12
33.76937703789726
 22
3.176074928723942
 32
0.0
 13
33.76937703789726
 23
3.176074928723942
 33
0.0
  0
SOLID
  5
25C
330
252
100
AcDbEntity
  8
치수문자_일반주서
 62
     0
100
AcDbTrace
 10
34.31971037123063
 20
-6.475925071276057
 30
0.0
 11
33.21904370456397
 21
-6.475925071276061
 31
0.0
 12
33.76937703789729
 22
-3.173925071276059
 32
0.0
 13
33.76937703789729
 23
-3.173925071276059
 33
0.0
  0
MTEXT
  5
25D
330
252
100
AcDbEntity
  8
치수문자_일반주서
 62
     0
100
AcDbMText
 10
29.39437703789719
 20
26.39152604942031
 30
0.0
 40
3.5
 41
0.0
 71
     2
 72
     1
  1
\A1;%%c6.35 [1/4]
  7
SLDTEXTSTYLE0
 11
-3.356894814614645E-15
 21
1.0
 31
0.0
 73
     1
 44
1.0
  0
POINT
  5
25E
330
252
100
AcDbEntity
  8
Defpoints
 62
     0
100
AcDbPoint
 10
22.69999999999999
 20
3.176074928723899
 30
0.0
  0
POINT
  5
25F
330
252
100
AcDbEntity
  8
Defpoints
 62
     0
100
AcDbPoint
 10
22.69999999999999
 20
-3.173925071276102
 30
0.0
  0
POINT
  5
260
330
252
100
AcDbEntity
  8
Defpoints
 62
     0
100
AcDbPoint
 10
33.76937703789733
 20
-3.173925071276061
 30
0.0
  0
ENDBLK
  5
254
330
252
100
AcDbEntity
  8
0
100
AcDbBlockEnd
  0
BLOCK
  5
262
330
261
100
AcDbEntity
  8
0
100
AcDbBlockBegin
  2
*D15
 70
     1
 10
0.0
 20
0.0
 30
0.0
  3
*D15
  1
*D15
  0
LINE
  5
264
330
261
100
AcDbEntity
  8
치수문자_일반주서
 62
     0
370
    -2
100
AcDbLine
 10
22.69999999999999
 20
3.238574928723899
 30
0.0
 11
22.69999999999999
 21
13.19630048907219
 31
0.0
  0
LINE
  5
265
330
261
100
AcDbEntity
  8
치수문자_일반주서
 62
     0
370
    -2
100
AcDbLine
 10
10.0
 20
2.832369356051366
 30
0.0
 11
10.0
 21
13.19630048907219
 31
0.0
  0
LINE
  5
266
330
261
100
AcDbEntity
  8
치수문자_일반주서
 62
     0
370
    -2
100
AcDbLine
 10
10.0
 20
13.19630048907219
 30
0.0
 11
-21.71218972506099
 21
13.19630048907219
 31
0.0
  0
LINE
  5
267
330
261
100
AcDbEntity
  8
치수문자_일반주서
 62
     0
370
    -2
100
AcDbLine
 10
19.39799999999999
 20
13.19630048907219
 30
0.0
 11
13.302
 21
13.19630048907219
 31
0.0
  0
SOLID
  5
268
330
261
100
AcDbEntity
  8
치수문자_일반주서
 62
     0
100
AcDbTrace
 10
19.39799999999999
 20
12.64596715573885
 30
0.0
 11
19.39799999999999
 21
13.74663382240552
 31
0.0
 12
22.69999999999999
 22
13.19630048907219
 32
0.0
 13
22.69999999999999
 23
13.19630048907219
 33
0.0
  0
SOLID
  5
269
330
261
100
AcDbEntity
  8
치수문자_일반주서
 62
     0
100
AcDbTrace
 10
13.302
 20
13.74663382240552
 30
0.0
 11
13.302
 21
12.64596715573885
 31
0.0
 12
10.0
 22
13.19630048907219
 32
0.0
 13
10.0
 23
13.19630048907219
 33
0.0
  0
MTEXT
  5
26A
330
261
100
AcDbEntity
  8
치수문자_일반주서
 62
     0
100
AcDbMText
 10
-10.77468972506099
 20
17.57130048907219
 30
0.0
 40
3.5
 41
0.0
 71
     2
 72
     1
  1
\A1;12.7 [1/2]
  7
SLDTEXTSTYLE0
 73
     1
 44
1.0
  0
POINT
  5
26B
330
261
100
AcDbEntity
  8
Defpoints
 62
     0
100
AcDbPoint
 10
22.69999999999999
 20
3.176074928723899
 30
0.0
  0
POINT
  5
26C
330
261
100
AcDbEntity
  8
Defpoints
 62
     0
100
AcDbPoint
 10
10.0
 20
2.769869356051366
 30
0.0
  0
POINT
  5
26D
330
261
100
AcDbEntity
  8
Defpoints
 62
     0
100
AcDbPoint
 10
10.0
 20
13.19630048907219
 30
0.0
  0
ENDBLK
  5
263
330
261
100
AcDbEntity
  8
0
100
AcDbBlockEnd
  0
BLOCK
  5
26F
330
26E
100
AcDbEntity
  8
0
100
AcDbBlockBegin
  2
*D16
 70
     1
 10
0.0
 20
0.0
 30
0.0
  3
*D16
  1
*D16
  0
LINE
  5
271
330
26E
100
AcDbEntity
  8
치수문자_일반주서
 62
     0
370
    -2
100
AcDbLine
 10
22.69999999999999
 20
3.238574928723899
 30
0.0
 11
22.69999999999999
 21
25.19630048907214
 31
0.0
  0
LINE
  5
272
330
26E
100
AcDbEntity
  8
치수문자_일반주서
 62
     0
370
    -2
100
AcDbLine
 10
-53.49999999999999
 20
2.428574928723883
 30
0.0
 11
-53.49999999999999
 21
25.19630048907214
 31
0.0
  0
LINE
  5
273
330
26E
100
AcDbEntity
  8
치수문자_일반주서
 62
     0
370
    -2
100
AcDbLine
 10
19.39799999999999
 20
25.19630048907214
 30
0.0
 11
-50.19799999999999
 21
25.19630048907214
 31
0.0
  0
SOLID
  5
274
330
26E
100
AcDbEntity
  8
치수문자_일반주서
 62
     0
100
AcDbTrace
 10
19.39799999999999
 20
24.64596715573881
 30
0.0
 11
19.39799999999999
 21
25.74663382240548
 31
0.0
 12
22.69999999999999
 22
25.19630048907214
 32
0.0
 13
22.69999999999999
 23
25.19630048907214
 33
0.0
  0
SOLID
  5
275
330
26E
100
AcDbEntity
  8
치수문자_일반주서
 62
     0
100
AcDbTrace
 10
-50.19799999999999
 20
25.74663382240548
 30
0.0
 11
-50.19799999999999
 21
24.64596715573881
 31
0.0
 12
-53.49999999999999
 22
25.19630048907214
 32
0.0
 13
-53.49999999999999
 23
25.19630048907214
 33
0.0
  0
MTEXT
  5
276
330
26E
100
AcDbEntity
  8
치수문자_일반주서
 62
     0
100
AcDbMText
 10
-15.7428889628973
 20
29.57130048907214
 30
0.0
 40
3.5
 41
0.0
 71
     2
 72
     1
  1
\A1;76.2 [3]
  7
SLDTEXTSTYLE0
 73
     1
 44
1.0
  0
POINT
  5
277
330
26E
100
AcDbEntity
  8
Defpoints
 62
     0
100
AcDbPoint
 10
22.69999999999999
 20
3.176074928723899
 30
0.0
  0
POINT
  5
278
330
26E
100
AcDbEntity
  8
Defpoints
 62
     0
100
AcDbPoint
 10
-53.49999999999999
 20
2.366074928723883
 30
0.0
  0
POINT
  5
279
330
26E
100
AcDbEntity
  8
Defpoints
 62
     0
100
AcDbPoint
 10
-53.49999999999999
 20
25.19630048907214
 30
0.0
  0
ENDBLK
  5
270
330
26E
100
AcDbEntity
  8
0
100
AcDbBlockEnd
  0
BLOCK
  5
27B
330
27A
100
AcDbEntity
  8
0
100
AcDbBlockBegin
  2
*D17
 70
     1
 10
0.0
 20
0.0
 30
0.0
  3
*D17
  1
*D17
  0
LINE
  5
27D
330
27A
100
AcDbEntity
  8
치수문자_일반주서
 62
     0
370
    -2
100
AcDbLine
 10
190.5995630154529
 20
-43.56682638311923
 30
0.0
 11
206.880935649085
 21
-69.78770099505422
 31
0.0
  0
MTEXT
  5
27E
330
27A
100
AcDbEntity
  8
치수문자_일반주서
 62
     0
100
AcDbMText
 10
201.8412340258313
 20
-56.69515028439916
 30
0.0
 40
3.5
 41
0.0
 71
     5
 72
     1
  1
\A1;R.51 [R0.020]
  7
SLDTEXTSTYLE0
 11
0.5275113037189025
 21
-0.8495480118561776
 31
0.0
 73
     1
 44
1.0
  0
LINE
  5
27F
330
27A
100
AcDbEntity
  8
치수문자_일반주서
 62
     0
370
    -2
100
AcDbLine
 10
188.5897449482839
 20
-40.3300484579472
 30
0.0
 11
188.8577206905731
 21
-40.76161884797013
 31
0.0
  0
SOLID
  5
280
330
27A
100
AcDbEntity
  8
치수문자_일반주서
 62
     0
100
AcDbTrace
 10
191.0670976046445
 20
-43.27651932897259
 30
0.0
 11
190.1320284262614
 21
-43.85713343726587
 31
0.0
 12
188.8577206905731
 22
-40.76161884797013
 32
0.0
 13
188.8577206905731
 23
-40.76161884797013
 33
0.0
  0
POINT
  5
281
330
27A
100
AcDbEntity
  8
Defpoints
 62
     0
100
AcDbPoint
 10
188.8577206905731
 20
-40.76161884797013
 30
0.0
  0
POINT
  5
282
330
27A
100
AcDbEntity
  8
Defpoints
 62
     0
100
AcDbPoint
 10
188.5897449482839
 20
-40.3300484579472
 30
0.0
  0
ENDBLK
  5
27C
330
27A
100
AcDbEntity
  8
0
100
AcDbBlockEnd
  0
BLOCK
  5
28E
330
28D
100
AcDbEntity
  8
0
100
AcDbBlockBegin
  2
*D18
 70
     1
 10
0.0
 20
0.0
 30
0.0
  3
*D18
  1
*D18
  0
LINE
  5
290
330
28D
100
AcDbEntity
  8
치수문자_일반주서
 62
     0
370
    -2
100
AcDbLine
 10
23.93177226892555
 20
-5.953248007646559
 30
0.0
 11
39.50296688742036
 21
-33.61068386860371
 31
0.0
  0
MTEXT
  5
291
330
28D
100
AcDbEntity
  8
치수문자_일반주서
 62
     0
100
AcDbMText
 10
34.81473442166915
 20
-19.93282025948783
 30
0.0
 40
3.5
 41
0.0
 71
     5
 72
     1
  1
\A1;R.76 [R0.030]
  7
SLDTEXTSTYLE0
 11
0.4905935701096364
 21
-0.8713885178076891
 31
0.0
 73
     1
 44
1.0
  0
LINE
  5
292
330
28D
100
AcDbEntity
  8
치수문자_일반주서
 62
     0
370
    -2
100
AcDbLine
 10
21.93799999999999
 20
-2.411925071276109
 30
0.0
 11
22.31183230042353
 21
-3.07592312184557
 31
0.0
  0
SOLID
  5
293
330
28D
100
AcDbEntity
  8
치수문자_일반주서
 62
     0
100
AcDbTrace
 10
24.41132641655905
 20
-5.683258012896223
 30
0.0
 11
23.45221812129206
 21
-6.223238002396895
 31
0.0
 12
22.31183230042353
 22
-3.07592312184557
 32
0.0
 13
22.31183230042353
 23
-3.07592312184557
 33
0.0
  0
POINT
  5
294
330
28D
100
AcDbEntity
  8
Defpoints
 62
     0
100
AcDbPoint
 10
22.31183230042353
 20
-3.07592312184557
 30
0.0
  0
POINT
  5
295
330
28D
100
AcDbEntity
  8
Defpoints
 62
     0
100
AcDbPoint
 10
21.93799999999999
 20
-2.411925071276109
 30
0.0
  0
ENDBLK
  5
28F
330
28D
100
AcDbEntity
  8
0
100
AcDbBlockEnd
  0
ENDSEC
  0
SECTION
  2
ENTITIES
  0
LINE
  5
CB
330
1F
100
AcDbEntity
  8
참조1
100
AcDbLine
 10
-15.4
 20
0.0010749287238892
 30
0.0
 11
-15.39999999999999
 21
-39.99892507127611
 31
0.0
  0
LINE
  5
CC
330
1F
100
AcDbEntity
  8
참조1
100
AcDbLine
 10
-15.39999999999999
 20
-39.99892507127611
 30
0.0
 11
-14.66672777521594
 21
-39.9989250712761
 31
0.0
  0
INSERT
  5
CE
330
1F
100
AcDbEntity
  8
0
  6
Continuous
 62
     7
100
AcDbBlockReference
 66
     1
  2
블럭10
 10
-29.3402729321252
 20
-52.04609937292004
 30
0.0
  0
ATTRIB
  5
CF
330
CE
100
AcDbEntity
  8
FORMAT
 62
     2
100
AcDbText
 10
-39.48190894426183
 20
-49.97073246008785
 30
0.0
 40
4.233333333333333
  1
EM636906 [ 2 FLUTE ]
 41
0.75
  7
SLDTEXTSTYLE0
 11
-39.48190894426183
 21
-52.08739912675452
 31
0.0
100
AcDbAttribute
  2
AUTOATTR0
 70
     0
 74
     1
  0
SEQEND
  5
D0
330
CE
100
AcDbEntity
  8
0
  6
Continuous
 62
     7
  0
HATCH
  5
D1
330
1F
100
AcDbEntity
  8
중심선
100
AcDbHatch
 10
0.0
 20
0.0
 30
0.0
210
0.0
220
0.0
230
1.0
  2
SOLID
 70
     1
 71
     0
 91
        1
 92
        0
 93
        4
 72
     1
 10
-23.62536362774437
 20
-35.7989250712761
 11
-27.07163887158165
 21
-35.7989250712761
 72
     1
 10
-27.07163887158165
 20
-35.7989250712761
 11
-29.1998687307857
 21
-38.3352506518487
 72
     1
 10
-29.1998687307857
 20
-38.3352506518487
 11
-25.75356040183524
 21
-38.33521122254621
 72
     1
 10
-25.75356040183524
 20
-38.33521122254621
 11
-23.62536362774437
 21
-35.7989250712761
 97
        0
 75
     0
 76
     1
 98
        1
 10
0.0
 20
0.0
  0
HATCH
  5
D2
330
1F
100
AcDbEntity
  8
중심선
100
AcDbHatch
 10
0.0
 20
0.0
 30
0.0
210
0.0
220
0.0
230
1.0
  2
SOLID
 70
     1
 71
     0
 91
        1
 92
        0
 93
        4
 72
     1
 10
-18.61259963670836
 20
-35.7989250712761
 11
-22.05887488054564
 21
-35.7989250712761
 72
     1
 10
-22.05887488054564
 20
-35.7989250712761
 11
-26.59001288890309
 21
-41.19892507127612
 72
     1
 10
-26.59001288890309
 20
-41.19892507127612
 11
-23.1437376450658
 21
-41.19892507127612
 72
     1
 10
-23.1437376450658
 20
-41.19892507127612
 11
-18.61259963670836
 21
-35.7989250712761
 97
        0
 75
     0
 76
     1
 98
        1
 10
0.0
 20
0.0
  0
HATCH
  5
D3
330
1F
100
AcDbEntity
  8
중심선
100
AcDbHatch
 10
0.0
 20
0.0
 30
0.0
210
0.0
220
0.0
230
1.0
  2
SOLID
 70
     1
 71
     0
 91
        1
 92
        0
 93
        4
 72
     1
 10
-13.59983564567255
 20
-35.7989250712761
 11
-17.04611088950963
 21
-35.7989250712761
 72
     1
 10
-17.04611088950963
 20
-35.7989250712761
 11
-24.09454779139888
 21
-44.19892507127612
 72
     1
 10
-24.09454779139888
 20
-44.19892507127612
 11
-20.6482725475616
 21
-44.19892507127612
 72
     1
 10
-20.6482725475616
 20
-44.19892507127612
 11
-13.59983564567255
 21
-35.7989250712761
 97
        0
 75
     0
 76
     1
 98
        1
 10
0.0
 20
0.0
  0
HATCH
  5
D4
330
1F
100
AcDbEntity
  8
중심선
100
AcDbHatch
 10
0.0
 20
0.0
 30
0.0
210
0.0
220
0.0
230
1.0
  2
SOLID
 70
     1
 71
     0
 91
        1
 92
        0
 93
        6
 72
     3
 10
-8.79994521466032
 20
-39.99892507132738
 11
3.960054785062284
 21
1.540850780301639E-10
 40
0.3939339440162633
 50
17.09539180608433
 51
320.0019657685074
 73
     0
 72
     1
 10
-7.116945558959725
 20
-38.58681907591438
 11
-4.811643685258687
 21
-36.65249236586649
 72
     3
 10
-8.799945214713167
 20
-39.99892507127625
 11
6.600054785286829
 21
-1.249000902703301E-13
 40
0.6363583540795982
 50
39.99873849337408
 51
368.4976242363725
 73
     1
 72
     1
 10
-2.374612722812558
 20
-39.03892507120613
 11
-10.11987790787724
 21
-39.03892507120613
 72
     1
 10
-10.11987790787724
 20
-39.03892507120613
 11
-10.11990295232318
 21
-40.95892507120602
 72
     1
 10
-10.11990295232318
 20
-40.95892507120602
 11
-5.678523182851142
 21
-40.95892507120599
 97
        0
 75
     0
 76
     1
 98
        1
 10
0.0
 20
0.0
  0
LINE
  5
127
330
1F
100
AcDbEntity
  8
참조1
100
AcDbLine
 10
83.30561285443832
 20
7.441074928723896
 30
0.0
 11
83.30561285443832
 21
-7.438925071276109
 31
0.0
  0
LINE
  5
128
330
1F
100
AcDbEntity
  8
참조1
100
AcDbLine
 10
96.00561285443833
 20
5.441074928723896
 30
0.0
 11
83.30561285443832
 21
5.441074928723896
 31
0.0
  0
SOLID
  5
129
330
1F
100
AcDbEntity
  8
참조1
100
AcDbTrace
 10
83.30561285443832
 20
5.441074928723896
 30
0.0
 11
89.65561285443832
 21
4.425074928723896
 31
0.0
 12
89.65561285443832
 22
6.457074928723896
 32
0.0
 13
89.65561285443832
 23
6.457074928723896
 33
0.0
  0
LINE
  5
12A
330
1F
100
AcDbEntity
  8
참조1
100
AcDbLine
 10
96.00561285443833
 20
-5.438925071276109
 30
0.0
 11
83.30561285443832
 21
-5.438925071276109
 31
0.0
  0
SOLID
  5
12B
330
1F
100
AcDbEntity
  8
참조1
100
AcDbTrace
 10
83.30561285443832
 20
-5.438925071276109
 30
0.0
 11
89.65561285443832
 21
-6.454925071276109
 31
0.0
 12
89.65561285443832
 22
-4.422925071276109
 32
0.0
 13
89.65561285443832
 23
-4.422925071276109
 33
0.0
  0
MTEXT
  5
12C
330
1F
100
AcDbEntity
  8
참조1
100
AcDbMText
 10
92.7031029469086
 20
10.98929157337383
 30
0.0
 40
3.5
 41
0.0
 71
     1
 72
     1
  1
A
  7
SLDTEXTSTYLE0
 73
     1
 44
1.0
  0
MTEXT
  5
12D
330
1F
100
AcDbEntity
  8
참조1
100
AcDbMText
 10
92.7031029469086
 20
0.1092915733738251
 30
0.0
 40
3.5
 41
0.0
 71
     1
 72
     1
  1
A
  7
SLDTEXTSTYLE0
 73
     1
 44
1.0
  0
LINE
  5
209
330
1F
100
AcDbEntity
  8
외형선
  6
Continuous
370
    15
100
AcDbLine
 10
8.479905643885388
 20
3.176074928723892
 30
0.0
 11
-52.68999999999998
 21
3.176074928723892
 31
0.0
  0
LINE
  5
20A
330
1F
100
AcDbEntity
  8
외형선
  6
Continuous
370
    15
100
AcDbLine
 10
-52.68999999999998
 20
-3.173925071276109
 30
0.0
 11
8.479905643885388
 21
-3.173925071276109
 31
0.0
  0
LINE
  5
20B
330
1F
100
AcDbEntity
  8
외형선
  6
Continuous
370
    15
100
AcDbLine
 10
-52.68999999999998
 20
3.176074928723885
 30
0.0
 11
-53.49999999999999
 21
2.366074928723883
 31
0.0
  0
LINE
  5
20C
330
1F
100
AcDbEntity
  8
외형선
  6
Continuous
370
    15
100
AcDbLine
 10
-53.49999999999999
 20
-2.363925071276107
 30
0.0
 11
-52.68999999999998
 21
-3.173925071276109
 31
0.0
  0
SPLINE
  5
20D
330
1F
100
AcDbEntity
  8
외형선
  6
Continuous
370
    15
100
AcDbSpline
210
0.0
220
0.0
230
1.0
 70
     8
 71
     3
 72
     9
 73
     5
 74
     0
 42
0.000000001
 43
0.00000001
 40
0.0
 40
0.0
 40
0.0
 40
0.0
 40
0.5248284408705133
 40
1.0
 40
1.0
 40
1.0
 40
1.0
 10
8.743079612787199
 20
-2.631141920365593
 30
0.0
 10
8.963109766843274
 20
-2.610939382524712
 30
0.0
 10
9.382351821811142
 20
-2.572445779153362
 30
0.0
 10
9.801047650351506
 20
-2.545460407695082
 30
0.0
 10
10.0
 20
-2.53263772666557
 30
0.0
  0
LINE
  5
20E
330
1F
100
AcDbEntity
  8
0
  6
Continuous
 62
     1
370
    15
100
AcDbLine
 10
14.47356676894651
 20
0.8146632224124701
 30
0.0
 11
13.59427468241569
 21
1.255184251755104
 31
0.0
  0
SPLINE
  5
20F
330
1F
100
AcDbEntity
  8
0
  6
Continuous
 62
     1
370
    15
100
AcDbSpline
210
0.0
220
0.0
230
1.0
 70
     8
 71
     3
 72
    17
 73
    13
 74
     0
 42
0.000000001
 43
0.00000001
 40
0.0
 40
0.0
 40
0.0
 40
0.0
 40
0.156867487358289
 40
0.267137193457849
 40
0.3735577455076348
 40
0.5048362616329578
 40
0.6344856356472417
 40
0.72167815028628
 40
0.8015619037712922
 40
0.8762156107136962
 40
0.9479190357332149
 40
1.0
 40
1.0
 40
1.0
 40
1.0
 10
13.42497926504478
 20
2.524051931255315
 30
0.0
 10
13.28883301427265
 20
2.517270321315074
 30
0.0
 10
13.05698301180519
 20
2.505721591383391
 30
0.0
 10
12.72654346561671
 20
2.49425503279776
 30
0.0
 10
12.41778893336425
 20
2.486228373567236
 30
0.0
 10
12.09561262025642
 20
2.481291905224211
 30
0.0
 10
11.78488723542131
 20
2.480139805471168
 30
0.0
 10
11.51945071878811
 20
2.480933449434133
 30
0.0
 10
11.30474890724832
 20
2.483830439532298
 30
0.0
 10
11.11850819235508
 20
2.48836225820645
 30
0.0
 10
10.95018579478011
 20
2.492671605028569
 30
0.0
 10
10.84128742784338
 20
2.49631563962329
 30
0.0
 10
10.79546959903763
 20
2.497848828392961
 30
0.0
  0
SPLINE
  5
210
330
1F
100
AcDbEntity
  8
0
  6
Continuous
 62
     1
370
    15
100
AcDbSpline
210
0.0
220
0.0
230
1.0
 70
     8
 71
     3
 72
    25
 73
    21
 74
     0
 42
0.000000001
 43
0.00000001
 40
0.0
 40
0.0
 40
0.0
 40
0.0
 40
0.0751780827641084
 40
0.1288112256399864
 40
0.1640618511671264
 40
0.2055163247459008
 40
0.2575251638600916
 40
0.3075343152208527
 40
0.3712883137922419
 40
0.4254900990986341
 40
0.4793694326301049
 40
0.5521738861851213
 40
0.6357831514798596
 40
0.7103855945691504
 40
0.7403293915641446
 40
0.7679041459134577
 40
0.7957450773634234
 40
0.8417333618929115
 40
0.9097915821276387
 40
1.0
 40
1.0
 40
1.0
 40
1.0
 10
21.51942889839154
 20
2.172624483470507
 30
0.0
 10
21.38102033780865
 20
2.161379006482626
 30
0.0
 10
21.14386908744115
 20
2.142110841873262
 30
0.0
 10
20.84160920209825
 20
2.123933063596027
 30
0.0
 10
20.59854597932696
 20
2.111839466295727
 30
0.0
 10
20.35951285433418
 20
2.102315474316804
 30
0.0
 10
20.09409035527244
 20
2.094864795344009
 30
0.0
 10
19.78795365794917
 20
2.090246641010324
 30
0.0
 10
19.47763823940102
 20
2.090147825576764
 30
0.0
 10
19.15985608493662
 20
2.094850798297252
 30
0.0
 10
18.82518836597825
 20
2.10440899349021
 30
0.0
 10
18.43673450936893
 20
2.121797792398439
 30
0.0
 10
18.00611194257556
 20
2.149692805688154
 30
0.0
 10
17.65678576146479
 20
2.179007555982132
 30
0.0
 10
17.41636903744478
 20
2.202220441671038
 30
0.0
 10
17.26047573665358
 20
2.218299359744215
 30
0.0
 10
17.07500258708217
 20
2.23861949616596
 30
0.0
 10
16.8130993450273
 20
2.269798703471693
 30
0.0
 10
16.43496804152085
 20
2.319007367128513
 30
0.0
 10
16.14079113443557
 20
2.363652558998673
 30
0.0
 10
15.97311692539097
 20
2.389099312479907
 30
0.0
  0
SPLINE
  5
211
330
1F
100
AcDbEntity
  8
0
  6
Continuous
 62
     1
370
    15
100
AcDbSpline
210
0.0
220
0.0
230
1.0
 70
     8
 71
     3
 72
    16
 73
    12
 74
     0
 42
0.000000001
 43
0.00000001
 40
0.0
 40
0.0
 40
0.0
 40
0.0
 40
0.1707352164626354
 40
0.2959329690524363
 40
0.3824274012017662
 40
0.4818430654908519
 40
0.6045296942927881
 40
0.7211397479037188
 40
0.8643981200178639
 40
0.9876552989960211
 40
1.0
 40
1.0
 40
1.0
 40
1.0
 10
15.97311692539097
 20
-2.386949455032116
 30
0.0
 10
16.10671673967056
 20
-2.366527340214233
 30
0.0
 10
16.33828343413319
 20
-2.33112997347525
 30
0.0
 10
16.63811809065584
 20
-2.290399796650583
 30
0.0
 10
16.88538182622733
 20
-2.258995747078792
 30
0.0
 10
17.12931351315484
 20
-2.230131777456755
 30
0.0
 10
17.39602285181257
 20
-2.201728495193741
 30
0.0
 10
17.69691606723967
 20
-2.173231277271846
 30
0.0
 10
17.99867746280268
 20
-2.149125242278828
 30
0.0
 10
18.21700225889748
 20
-2.13347835232733
 30
0.0
 10
18.32342298781521
 20
-2.127762604131512
 30
0.0
 10
18.33311114316592
 20
-2.127242263244646
 30
0.0
  0
SPLINE
  5
212
330
1F
100
AcDbEntity
  8
0
  6
Continuous
 62
     1
370
    15
100
AcDbSpline
210
0.0
220
0.0
230
1.0
 70
     8
 71
     3
 72
    19
 73
    15
 74
     0
 42
0.000000001
 43
0.00000001
 40
0.0
 40
0.0
 40
0.0
 40
0.0
 40
0.1279210845279271
 40
0.21564496779589
 40
0.2717233517495746
 40
0.3268123710358041
 40
0.3841680622098179
 40
0.4455419454684526
 40
0.5125310763120245
 40
0.6121393846121674
 40
0.7129993463884267
 40
0.7947611847207787
 40
0.8794802893430727
 40
1.0
 40
1.0
 40
1.0
 40
1.0
 10
10.0
 20
-2.53263772666557
 30
0.0
 10
10.14647264848804
 20
-2.524513674486236
 30
0.0
 10
10.39339120521191
 20
-2.510818426536694
 30
0.0
 10
10.70421816112986
 20
-2.49847648959485
 30
0.0
 10
10.93226046142701
 20
-2.491072799921682
 30
0.0
 10
11.11856050374746
 20
-2.4861854980579
 30
0.0
 10
11.3047335947989
 20
-2.481688456970382
 30
0.0
 10
11.51945531188676
 20
-2.478781229847726
 30
0.0
 10
11.7848852556038
 20
-2.477990966203834
 30
0.0
 10
12.09561324881327
 20
-2.479141724522243
 30
0.0
 10
12.41778879968973
 20
-2.484078584865578
 30
0.0
 10
12.72654349901592
 20
-2.492105158173437
 30
0.0
 10
13.05698299905737
 20
-2.503571740491573
 30
0.0
 10
13.28883300955636
 20
-2.515120466292778
 30
0.0
 10
13.42497926504478
 20
-2.521902073807532
 30
0.0
  0
SPLINE
  5
213
330
1F
100
AcDbEntity
  8
외형선
  6
Continuous
370
    15
100
AcDbSpline
210
0.0
220
0.0
230
1.0
 70
     8
 71
     3
 72
    10
 73
     6
 74
     0
 42
0.000000001
 43
0.00000001
 40
0.0
 40
0.0
 40
0.0
 40
0.0
 40
0.5
 40
0.5
 40
1.0
 40
1.0
 40
1.0
 40
1.0
 10
10.0
 20
2.769869356066202
 30
0.0
 10
9.746862510356209
 20
2.841442268894362
 30
0.0
 10
9.496019817025513
 20
2.904017434330747
 30
0.0
 10
8.987660523655563
 20
3.010829957428065
 30
0.0
 10
8.732435855308097
 20
3.054828676175916
 30
0.0
 10
8.479806960766496
 20
3.088850370054402
 30
0.0
  0
LINE
  5
214
330
1F
100
AcDbEntity
  8
외형선
  6
Continuous
370
    15
100
AcDbLine
 10
10.0
 20
2.769869356066202
 30
0.0
 11
10.0
 21
2.233039768985797
 31
0.0
  0
SPLINE
  5
215
330
1F
100
AcDbEntity
  8
외형선
  6
Continuous
370
    15
100
AcDbSpline
210
0.0
220
0.0
230
1.0
 70
     8
 71
     3
 72
    10
 73
     6
 74
     0
 42
0.000000001
 43
0.00000001
 40
0.0
 40
0.0
 40
0.0
 40
0.0
 40
0.4999999999999999
 40
0.4999999999999999
 40
1.0
 40
1.0
 40
1.0
 40
1.0
 10
8.479905643885388
 20
2.764600392705233
 30
0.0
 10
8.732518764775989
 20
2.692649526624315
 30
0.0
 10
8.987726852645778
 20
2.611628982746289
 30
0.0
 10
9.496052776757494
 20
2.433659167029319
 30
0.0
 10
9.746878990632354
 20
2.337045268336041
 30
0.0
 10
10.0
 20
2.233039768985797
 30
0.0
  0
SPLINE
  5
216
330
1F
100
AcDbEntity
  8
외형선
  6
Continuous
370
    15
100
AcDbSpline
210
0.0
220
0.0
230
1.0
 70
     8
 71
     3
 72
    10
 73
     6
 74
     0
 42
0.000000001
 43
0.00000001
 40
0.0
 40
0.0
 40
0.0
 40
0.0
 40
0.5
 40
0.5
 40
1.0
 40
1.0
 40
1.0
 40
1.0
 10
10.0
 20
-2.767719498618412
 30
0.0
 10
9.746862510356209
 20
-2.839292411446579
 30
0.0
 10
9.496019817025513
 20
-2.901867576882957
 30
0.0
 10
8.987660523655563
 20
-3.008680099980282
 30
0.0
 10
8.732435855308097
 20
-3.052678818728133
 30
0.0
 10
8.479806960766496
 20
-3.086700512606612
 30
0.0
  0
LINE
  5
217
330
1F
100
AcDbEntity
  8
외형선
  6
Continuous
370
    15
100
AcDbLine
 10
8.479905643885388
 20
3.088882042936874
 30
0.0
 11
8.479905643885388
 21
3.176074928723892
 31
0.0
  0
LINE
  5
218
330
1F
100
AcDbEntity
  8
외형선
  6
Continuous
370
    15
100
AcDbLine
 10
-52.68999999999998
 20
3.176074928723885
 30
0.0
 11
-52.68999999999998
 21
-3.173925071276109
 31
0.0
  0
LINE
  5
219
330
1F
100
AcDbEntity
  8
외형선
  6
Continuous
370
    15
100
AcDbLine
 10
8.479905643885388
 20
-3.173925071276109
 30
0.0
 11
8.479905643885388
 21
2.764598013189271
 31
0.0
  0
LINE
  5
21A
330
1F
100
AcDbEntity
  8
외형선
  6
Continuous
370
    15
100
AcDbLine
 10
-53.49999999999999
 20
2.366074928723883
 30
0.0
 11
-53.49999999999999
 21
-2.363925071276107
 31
0.0
  0
SPLINE
  5
21B
330
1F
100
AcDbEntity
  8
외형선
  6
Continuous
370
    15
100
AcDbSpline
210
0.0
220
0.0
230
1.0
 70
    24
 71
     3
 72
    14
 73
    10
 74
     0
 42
0.000000001
 43
0.00000001
 40
0.0
 40
0.0
 40
0.0
 40
0.0
 40
0.25
 40
0.25
 40
0.5
 40
0.5
 40
0.75
 40
0.75
 40
1.0
 40
1.0
 40
1.0
 40
1.0
 10
9.999999999999943
 20
1.497156090875841
 30
0.0
 10
9.999999999999943
 20
1.25362736572432
 30
0.0
 10
9.999999999999943
 20
0.9850311038153592
 30
0.0
 10
9.999999999999943
 20
0.4172825579026878
 30
0.0
 10
9.999999999999943
 20
0.118346860585433
 30
0.0
 10
9.999999999999943
 20
-0.4813850077726158
 30
0.0
 10
9.999999999999943
 20
-0.7818616166002315
 30
0.0
 10
9.999999999999943
 20
-1.355481533245843
 30
0.0
 10
9.999999999999943
 20
-1.62840000772038
 30
0.0
 10
9.999999999999943
 20
-1.877264731070454
 30
0.0
  0
SPLINE
  5
21C
330
1F
100
AcDbEntity
  8
외형선
  6
Continuous
370
    15
100
AcDbSpline
210
0.0
220
0.0
230
1.0
 70
     8
 71
     3
 72
    10
 73
     6
 74
     0
 42
0.000000001
 43
0.00000001
 40
0.0
 40
0.0
 40
0.0
 40
0.0
 40
0.5
 40
0.5
 40
1.0
 40
1.0
 40
1.0
 40
1.0
 10
10.0
 20
-1.877264731070476
 30
0.0
 10
9.746872969691992
 20
-1.798510658758019
 30
0.0
 10
9.496040735181055
 20
-1.714035976069695
 30
0.0
 10
8.98770261986806
 20
-1.533960442847238
 30
0.0
 10
8.73248847444222
 20
-1.438590882891432
 30
0.0
 10
8.479869590747057
 20
-1.339279837137767
 30
0.0
  0
SPLINE
  5
21D
330
1F
100
AcDbEntity
  8
외형선
  6
Continuous
370
    15
100
AcDbSpline
210
0.0
220
0.0
230
1.0
 70
     8
 71
     3
 72
    10
 73
     6
 74
     0
 42
0.000000001
 43
0.00000001
 40
0.0
 40
0.0
 40
0.0
 40
0.0
 40
0.5
 40
0.5
 40
1.0
 40
1.0
 40
1.0
 40
1.0
 10
10.0
 20
1.497156090875826
 30
0.0
 10
9.74687501782654
 20
1.572857608471907
 30
0.0
 10
9.49604483134732
 20
1.643586397872383
 30
0.0
 10
8.98771086309722
 20
1.774754498342304
 30
0.0
 10
8.732498778260435
 20
1.834950516247872
 30
0.0
 10
8.479881854887026
 20
1.888934052969205
 30
0.0
  0
SPLINE
  5
21E
330
1F
100
AcDbEntity
  8
외형선
  6
Continuous
370
    15
100
AcDbSpline
210
0.0
220
0.0
230
1.0
 70
    24
 71
     3
 72
    10
 73
     6
 74
     0
 42
0.000000001
 43
0.00000001
 40
0.0
 40
0.0
 40
0.0
 40
0.0
 40
0.5000000000000002
 40
0.5000000000000002
 40
1.0
 40
1.0
 40
1.0
 40
1.0
 10
10.0
 20
2.233039768985797
 30
0.0
 10
10.0
 20
2.156090328251885
 30
0.0
 10
10.0
 20
2.048075205137081
 30
0.0
 10
10.0
 20
1.792293536952876
 30
0.0
 10
10.0
 20
1.645364906924662
 30
0.0
 10
10.0
 20
1.497156090875826
 30
0.0
  0
LINE
  5
21F
330
1F
100
AcDbEntity
  8
외형선
  6
Continuous
370
    15
100
AcDbLine
 10
8.744845494257333
 20
-2.625305579017279
 30
0.0
 11
8.479806960766496
 21
-2.656627550095131
 31
0.0
  0
SPLINE
  5
220
330
1F
100
AcDbEntity
  8
외형선
  6
Continuous
370
    15
100
AcDbSpline
210
0.0
220
0.0
230
1.0
 70
    24
 71
     3
 72
    12
 73
     8
 74
     0
 42
0.000000001
 43
0.00000001
 40
0.0
 40
0.0
 40
0.0
 40
0.0
 40
0.181796567786348
 40
0.3659786071741054
 40
0.6325778596034107
 40
0.9069085084138825
 40
0.9999999999999999
 40
0.9999999999999999
 40
0.9999999999999999
 40
0.9999999999999999
 10
10.0
 20
-1.877264731070476
 30
0.0
 10
10.0
 20
-1.950630291933017
 30
0.0
 10
10.0
 20
-2.098324091139247
 30
0.0
 10
10.0
 20
-2.297548936616586
 30
0.0
 10
10.0
 20
-2.456104525813913
 30
0.0
 10
10.0
 20
-2.535098896562864
 30
0.0
 10
10.0
 20
-2.525726554010994
 30
0.0
 10
10.0
 20
-2.523351941128738
 30
0.0
  0
SPLINE
  5
221
330
1F
100
AcDbEntity
  8
외형선
  6
Continuous
370
    15
100
AcDbSpline
210
0.0
220
0.0
230
1.0
 70
    24
 71
     3
 72
    10
 73
     6
 74
     0
 42
0.000000001
 43
0.00000001
 40
0.0
 40
0.0
 40
0.0
 40
0.0
 40
0.0227444173387381
 40
0.7533286593156584
 40
1.0
 40
1.0
 40
1.0
 40
1.0
 10
10.0
 20
-2.575789454802354
 30
0.0
 10
10.0
 20
-2.577376860425808
 30
0.0
 10
10.0
 20
-2.629954076728758
 30
0.0
 10
10.0
 20
-2.692999639361965
 30
0.0
 10
10.0
 20
-2.752660390495642
 30
0.0
 10
10.0
 20
-2.767719498603583
 30
0.0
  0
SPLINE
  5
222
330
1F
100
AcDbEntity
  8
0
  6
Continuous
 62
     1
370
    15
100
AcDbSpline
210
0.0
220
0.0
230
1.0
 70
     8
 71
     3
 72
    14
 73
    10
 74
     0
 42
0.000000001
 43
0.00000001
 40
0.0006577041970765
 40
0.0006577041970765
 40
0.0006577041970765
 40
0.0006577041970765
 40
0.1435603764052038
 40
0.2869628788213576
 40
0.4302936662292898
 40
0.5736396317276282
 40
0.7170875128548951
 40
0.8606934515089868
 40
1.0
 40
1.0
 40
1.0
 40
1.0
 10
22.69456584701251
 20
-2.502766246592216
 30
0.0
 10
22.30099733739149
 20
-2.419783973985346
 30
0.0
 10
21.51248414897933
 20
-2.253323330037318
 30
0.0
 10
20.32949534555178
 20
-1.868440015422792
 30
0.0
 10
19.14535517820565
 20
-1.404951146672545
 30
0.0
 10
17.96106923991294
 20
-0.8739999206821594
 30
0.0
 10
16.77592773440324
 20
-0.3037760072091871
 30
0.0
 10
15.60157371296123
 20
0.2774309559298089
 30
0.0
 10
14.8225169443657
 20
0.6479603186527712
 30
0.0
 10
14.43890818037386
 20
0.8304095528890727
 30
0.0
  0
SPLINE
  5
223
330
1F
100
AcDbEntity
  8
0
  6
Continuous
 62
     1
370
    15
100
AcDbSpline
210
0.0
220
0.0
230
1.0
 70
     8
 71
     3
 72
    38
 73
    34
 74
     0
 42
0.000000001
 43
0.00000001
 40
0.0
 40
0.0
 40
0.0
 40
0.0
 40
0.0624999999999999
 40
0.0624999999999999
 40
0.1249999999999998
 40
0.1249999999999998
 40
0.1874999999999997
 40
0.1874999999999997
 40
0.2499999999999996
 40
0.2499999999999996
 40
0.3124999999999994
 40
0.3124999999999994
 40
0.3749999999999993
 40
0.3749999999999993
 40
0.4374999999999992
 40
0.4374999999999992
 40
0.4999999999999991
 40
0.4999999999999991
 40
0.5624999999999992
 40
0.5624999999999992
 40
0.6249999999999993
 40
0.6249999999999993
 40
0.6874999999999994
 40
0.6874999999999994
 40
0.7499999999999996
 40
0.7499999999999996
 40
0.8124999999999997
 40
0.8124999999999997
 40
0.8749999999999998
 40
0.8749999999999998
 40
0.9374999999999999
 40
0.9374999999999999
 40
1.0
 40
1.0
 40
1.0
 40
1.0
 10
22.44600000000003
 20
-2.962194587974992
 30
0.0
 10
22.18703724129256
 20
-2.908471421517675
 30
0.0
 10
21.92574175628181
 20
-2.844667474186423
 30
0.0
 10
21.40629541473709
 20
-2.698749578038175
 30
0.0
 10
21.15009410888086
 20
-2.616904939062827
 30
0.0
 10
20.63095454941993
 20
-2.435640163452405
 30
0.0
 10
20.36963182780732
 20
-2.336331432200559
 30
0.0
 10
19.85129326540562
 20
-2.123354890127821
 30
0.0
 10
19.59482096352491
 20
-2.009826584358073
 30
0.0
 10
19.07481087111199
 20
-1.769095796833561
 30
0.0
 10
18.8136365499642
 20
-1.642206937572766
 30
0.0
 10
18.29674750514732
 20
-1.379242001299815
 30
0.0
 10
18.03921927876138
 20
-1.24289111372547
 30
0.0
 10
17.5186840906473
 20
-0.9618332789327511
 30
0.0
 10
17.25783347316815
 20
-0.8174971242791926
 30
0.0
 10
16.74273248863062
 20
-0.5255799635041711
 30
0.0
 10
16.48336573772792
 20
-0.3770404344359761
 30
0.0
 10
15.96265205611485
 20
-0.0780421894498886
 30
0.0
 10
15.7032208191099
 20
0.0720418798015245
 30
0.0
 10
15.18817629019037
 20
0.3700101230475568
 30
0.0
 10
14.92733758222641
 20
0.5188978816336274
 30
0.0
 10
14.40679240564066
 20
0.8120060804018934
 30
0.0
 10
14.14922217298431
 20
0.9558328822912543
 30
0.0
 10
13.63237989160825
 20
1.236514889925431
 30
0.0
 10
13.37121244177206
 20
1.373689761793507
 30
0.0
 10
12.85118239458973
 20
1.637555209338196
 30
0.0
 10
12.59469065884826
 20
1.76388410833038
 30
0.0
 10
12.07638906479332
 20
2.004855588704309
 30
0.0
 10
11.81506816083566
 20
2.119367603866628
 30
0.0
 10
11.29589872455193
 20
2.332997619345505
 30
0.0
 10
11.03970060012193
 20
2.431956341985355
 30
0.0
 10
10.52028135018986
 20
2.613931356150907
 30
0.0
 10
10.25898262508673
 20
2.696643770731534
 30
0.0
 10
9.99999999999585
 20
2.769869356067382
 30
0.0
  0
SPLINE
  5
224
330
1F
100
AcDbEntity
  8
0
  6
Continuous
 62
     1
370
    15
100
AcDbSpline
210
0.0
220
0.0
230
1.0
 70
     8
 71
     3
 72
    12
 73
     8
 74
     0
 42
0.000000001
 43
0.00000001
 40
0.0
 40
0.0
 40
0.0
 40
0.0
 40
0.0834307298539278
 40
0.3298866152343344
 40
0.5762683841167561
 40
0.7878950309839292
 40
0.9999999999999999
 40
0.9999999999999999
 40
0.9999999999999999
 40
0.9999999999999999
 10
14.80528083832354
 20
-0.2969344258333209
 30
0.0
 10
14.67163370250972
 20
-0.2439678191294306
 30
0.0
 10
14.143190509617
 20
-0.0345368979738012
 30
0.0
 10
13.22021441590948
 20
0.3432672602311939
 30
0.0
 10
12.09185666316654
 20
0.7849088371917219
 30
0.0
 10
11.01867614450811
 20
1.178482818034134
 30
0.0
 10
10.33981415539739
 20
1.390851756920206
 30
0.0
 10
10.0
 20
1.497156090875826
 30
0.0
  0
SPLINE
  5
225
330
1F
100
AcDbEntity
  8
외형선
  6
Continuous
370
    15
100
AcDbSpline
210
0.0
220
0.0
230
1.0
 70
    24
 71
     3
 72
    10
 73
     6
 74
     0
 42
0.000000001
 43
0.00000001
 40
0.0
 40
0.0
 40
0.0
 40
0.0
 40
0.5000000000000002
 40
0.5000000000000002
 40
1.0
 40
1.0
 40
1.0
 40
1.0
 10
10.0
 20
2.233039768985797
 30
0.0
 10
10.0
 20
2.156090328251885
 30
0.0
 10
10.0
 20
2.048075205137081
 30
0.0
 10
10.0
 20
1.792293536952876
 30
0.0
 10
10.0
 20
1.645364906924662
 30
0.0
 10
10.0
 20
1.497156090875826
 30
0.0
  0
SPLINE
  5
226
330
1F
100
AcDbEntity
  8
0
  6
Continuous
 62
     1
370
    15
100
AcDbSpline
210
0.0
220
0.0
230
1.0
 70
     8
 71
     3
 72
    28
 73
    24
 74
     0
 42
0.000000001
 43
0.00000001
 40
0.0
 40
0.0
 40
0.0
 40
0.0
 40
0.0625000000000001
 40
0.0625000000000001
 40
0.1250000000000002
 40
0.1250000000000002
 40
0.1875000000000002
 40
0.1875000000000002
 40
0.2500000000000003
 40
0.2500000000000003
 40
0.3125000000000003
 40
0.3125000000000003
 40
0.3750000000000002
 40
0.3750000000000002
 40
0.4375000000000002
 40
0.4375000000000002
 40
0.5000000000000002
 40
0.5000000000000002
 40
0.5625000000000002
 40
0.5625000000000002
 40
0.6250000000000002
 40
0.6250000000000002
 40
0.6768537279021252
 40
0.6768537279021252
 40
0.6768537279021252
 40
0.6768537279021252
 10
9.99999999999784
 20
2.233039768986124
 30
0.0
 10
10.25898262508889
 20
2.126625776276093
 30
0.0
 10
10.52028135019208
 20
2.01242386831612
 30
0.0
 10
11.03970060012438
 20
1.771819978426137
 30
0.0
 10
11.29589872455443
 20
1.645775280887037
 30
0.0
 10
11.81506816083839
 20
1.382488918672927
 30
0.0
 10
12.07638906479616
 20
1.24548145246559
 30
0.0
 10
12.59469065885128
 20
0.9648488002278768
 30
0.0
 10
12.85118239459291
 20
0.8213443184851954
 30
0.0
 10
13.37121244177547
 20
0.5285257668393228
 30
0.0
 10
13.63237989161178
 20
0.3796417125196072
 30
0.0
 10
14.149222172988
 20
0.0813913148482612
 30
0.0
 10
14.40679240564452
 20
-0.0683345669606084
 30
0.0
 10
14.92733758223051
 20
-0.3673652023780889
 30
0.0
 10
15.18817629019452
 20
-0.5162493240574975
 30
0.0
 10
15.70322081911422
 20
-0.8083429632510928
 30
0.0
 10
15.96265205611934
 20
-0.9525435523308587
 30
0.0
 10
16.48336573773264
 20
-1.233950990219981
 30
0.0
 10
16.74273248863534
 20
-1.370805628400014
 30
0.0
 10
17.25783347317315
 20
-1.633892729364639
 30
0.0
 10
17.51868409065247
 20
-1.760981222126638
 30
0.0
 10
17.99488520477331
 20
-1.981780836104775
 30
0.0
 10
18.20893312183787
 20
-2.077284572424048
 30
0.0
 10
18.42318312650843
 20
-2.167853684003873
 30
0.0
  0
SPLINE
  5
227
330
1F
100
AcDbEntity
  8
0
  6
Continuous
 62
     1
370
    15
100
AcDbSpline
210
0.0
220
0.0
230
1.0
 70
     8
 71
     3
 72
     8
 73
     4
 74
     0
 42
0.000000001
 43
0.00000001
 40
0.0
 40
0.0
 40
0.0
 40
0.0
 40
1.0
 40
1.0
 40
1.0
 40
1.0
 10
22.69999999999999
 20
-0.8474214249202277
 30
0.0
 10
22.22492325518363
 20
-0.4739289524691515
 30
0.0
 10
21.76157491095478
 20
-0.0802683770071937
 30
0.0
 10
21.31123646476664
 20
0.3357639585164875
 30
0.0
  0
LINE
  5
228
330
1F
100
AcDbEntity
  8
0
  6
Continuous
 62
     1
370
    15
100
AcDbLine
 10
21.64858107100639
 20
0.618829693192545
 30
0.0
 11
22.69999999999999
 21
0.0010749287238951
 31
0.0
  0
LINE
  5
229
330
1F
100
AcDbEntity
  8
0
  6
Continuous
 62
     1
370
    15
100
AcDbLine
 10
22.69999999999999
 20
0.0010749287238951
 30
0.0
 11
22.69999999999999
 21
-0.8474214249202277
 31
0.0
  0
SPLINE
  5
22A
330
1F
100
AcDbEntity
  8
0
  6
Continuous
 62
     1
370
    15
100
AcDbSpline
210
0.0
220
0.0
230
1.0
 70
     8
 71
     3
 72
    14
 73
    10
 74
     0
 42
0.000000001
 43
0.00000001
 40
0.0
 40
0.0
 40
0.0
 40
0.0
 40
0.1477112942591561
 40
0.2953616594318289
 40
0.4411861853694583
 40
0.5871158528216797
 40
0.7332085543147789
 40
0.8791873756453692
 40
0.9999999999999999
 40
0.9999999999999999
 40
0.9999999999999999
 40
0.9999999999999999
 10
21.54373067762788
 20
0.5308497667798591
 30
0.0
 10
21.14391155901484
 20
0.7090432992536293
 30
0.0
 10
20.34443824224235
 20
1.065356861567508
 30
0.0
 10
19.15035086565177
 20
1.540912086430659
 30
0.0
 10
17.96108616791469
 20
1.944021193368783
 30
0.0
 10
16.77593993811172
 20
2.256057151785186
 30
0.0
 10
15.59008431582367
 20
2.460433625634742
 30
0.0
 10
14.47243170159743
 20
2.557669539262271
 30
0.0
 10
13.7503408695195
 20
2.528745927474851
 30
0.0
 10
13.42335254265731
 20
2.515648290716385
 30
0.0
  0
SPLINE
  5
22B
330
1F
100
AcDbEntity
  8
0
  6
Continuous
 62
     1
370
    15
100
AcDbSpline
210
0.0
220
0.0
230
1.0
 70
    24
 71
     3
 72
     8
 73
     4
 74
     0
 42
0.000000001
 43
0.00000001
 40
0.0
 40
0.0
 40
0.0
 40
0.0
 40
1.0
 40
1.0
 40
1.0
 40
1.0
 10
21.54373067762668
 20
0.530849766779987
 30
0.0
 10
21.46623158405413
 20
0.4658203059466857
 30
0.0
 10
21.38873352345684
 20
0.4007917118813893
 30
0.0
 10
21.3112364647572
 20
0.3357639585091832
 30
0.0
  0
SPLINE
  5
22C
330
1F
100
AcDbEntity
  8
0
  6
Continuous
 62
     1
370
    15
100
AcDbSpline
210
0.0
220
0.0
230
1.0
 70
    24
 71
     3
 72
    10
 73
     6
 74
     0
 42
0.000000001
 43
0.00000001
 40
0.0767676108874009
 40
0.0767676108874009
 40
0.0767676108874009
 40
0.0767676108874009
 40
0.5000000000000001
 40
0.5000000000000001
 40
1.0
 40
1.0
 40
1.0
 40
1.0
 10
22.69999999999996
 20
-2.411925043716785
 30
0.0
 10
22.69999999999999
 20
-2.236450586348838
 30
0.0
 10
22.69999999999999
 20
-2.025947512727406
 30
0.0
 10
22.69999999999999
 20
-1.505153196579514
 30
0.0
 10
22.69999999999999
 20
-1.184176202964018
 30
0.0
 10
22.69999999999999
 20
-0.8474214249203342
 30
0.0
  0
LINE
  5
22D
330
1F
100
AcDbEntity
  8
0
  6
Continuous
 62
     1
370
    15
100
AcDbLine
 10
22.69999999999999
 20
2.223574928723892
 30
0.0
 11
21.51936963831412
 21
2.172385024797919
 31
0.0
  0
SPLINE
  5
22E
330
1F
100
AcDbEntity
  8
0
  6
Continuous
 62
     1
370
    15
100
AcDbSpline
210
0.0
220
0.0
230
1.0
 70
    24
 71
     3
 72
    10
 73
     6
 74
     0
 42
0.000000001
 43
0.00000001
 40
0.0
 40
0.0
 40
0.0
 40
0.0
 40
0.5
 40
0.5
 40
1.0
 40
1.0
 40
1.0
 40
1.0
 10
22.69999999999999
 20
1.501074928721593
 30
0.0
 10
22.69999999999999
 20
1.68223618627308
 30
0.0
 10
22.69999999999999
 20
1.835943526241358
 30
0.0
 10
22.69999999999999
 20
2.07824451143977
 30
0.0
 10
22.69999999999999
 20
2.166857205650103
 30
0.0
 10
22.69999999999999
 20
2.223574928723892
 30
0.0
  0
SPLINE
  5
22F
330
1F
100
AcDbEntity
  8
0
  6
Continuous
 62
     1
370
    15
100
AcDbSpline
210
0.0
220
0.0
230
1.0
 70
    24
 71
     3
 72
     8
 73
     4
 74
     0
 42
0.000000001
 43
0.00000001
 40
0.0
 40
0.0
 40
0.0
 40
0.0
 40
1.0
 40
1.0
 40
1.0
 40
1.0
 10
22.69999999999999
 20
1.501074928723895
 30
0.0
 10
22.34112387580973
 20
1.199942105277493
 30
0.0
 10
21.95086612946886
 20
0.8724769742591363
 30
0.0
 10
21.54373067762776
 20
0.5308497667800722
 30
0.0
  0
SPLINE
  5
230
330
1F
100
AcDbEntity
  8
0
  6
Continuous
 62
     1
370
    15
100
AcDbSpline
210
0.0
220
0.0
230
1.0
 70
     8
 71
     3
 72
    13
 73
     9
 74
     0
 42
0.000000001
 43
0.00000001
 40
0.0
 40
0.0
 40
0.0
 40
0.0
 40
0.065128807520806
 40
0.2633791435960094
 40
0.4614502579738677
 40
0.6594633571063024
 40
0.8295444670901484
 40
1.0
 40
1.0
 40
1.0
 40
1.0
 10
15.9793012169734
 20
-2.373957939834405
 30
0.0
 10
15.84947002363464
 20
-2.397782901300765
 30
0.0
 10
15.32443617432477
 20
-2.494130403828201
 30
0.0
 10
14.40466695261216
 20
-2.548782106408446
 30
0.0
 10
13.22019755318968
 20
-2.530311921674276
 30
0.0
 10
12.09184163906298
 20
-2.39236777873969
 30
0.0
 10
11.01870742050426
 20
-2.174893282578125
 30
0.0
 10
10.33981795507577
 20
-1.976546942733783
 30
0.0
 10
10.0
 20
-1.877264731070476
 30
0.0
  0
SPLINE
  5
231
330
1F
100
AcDbEntity
  8
외형선
  6
Continuous
370
    15
100
AcDbSpline
210
0.0
220
0.0
230
1.0
 70
    24
 71
     3
 72
    14
 73
    10
 74
     0
 42
0.000000001
 43
0.00000001
 40
0.0
 40
0.0
 40
0.0
 40
0.0
 40
0.25
 40
0.25
 40
0.5
 40
0.5
 40
0.75
 40
0.75
 40
1.0
 40
1.0
 40
1.0
 40
1.0
 10
9.999999999999943
 20
1.497156090875841
 30
0.0
 10
9.999999999999943
 20
1.25362736572432
 30
0.0
 10
9.999999999999943
 20
0.9850311038153592
 30
0.0
 10
9.999999999999943
 20
0.4172825579026878
 30
0.0
 10
9.999999999999943
 20
0.118346860585433
 30
0.0
 10
9.999999999999943
 20
-0.4813850077726158
 30
0.0
 10
9.999999999999943
 20
-0.7818616166002315
 30
0.0
 10
9.999999999999943
 20
-1.355481533245843
 30
0.0
 10
9.999999999999943
 20
-1.62840000772038
 30
0.0
 10
9.999999999999943
 20
-1.877264731070454
 30
0.0
  0
SPLINE
  5
232
330
1F
100
AcDbEntity
  8
외형선
  6
Continuous
370
    15
100
AcDbSpline
210
0.0
220
0.0
230
1.0
 70
    24
 71
     3
 72
    12
 73
     8
 74
     0
 42
0.000000001
 43
0.00000001
 40
0.0
 40
0.0
 40
0.0
 40
0.0
 40
0.1820624866085964
 40
0.3665139341132925
 40
0.6335031485758833
 40
0.9082350683450233
 40
1.0
 40
1.0
 40
1.0
 40
1.0
 10
10.0
 20
-1.877264731070476
 30
0.0
 10
10.0
 20
-1.950629860507767
 30
0.0
 10
10.0
 20
-2.098322791202506
 30
0.0
 10
10.0
 20
-2.297555201692738
 30
0.0
 10
10.0
 20
-2.456068592160584
 30
0.0
 10
10.0
 20
-2.535014997691142
 30
0.0
 10
10.0
 20
-2.525732384060184
 30
0.0
 10
10.0
 20
-2.523408166533848
 30
0.0
  0
LINE
  5
233
330
1F
100
AcDbEntity
  8
0
  6
Continuous
 62
     1
370
    15
100
AcDbLine
 10
22.69999999999999
 20
0.0010749287238951
 30
0.0
 11
22.69999999999999
 21
1.501074928723895
 31
0.0
  0
SPLINE
  5
234
330
1F
100
AcDbEntity
  8
0
  6
Continuous
 62
     1
370
    15
100
AcDbSpline
210
0.0
220
0.0
230
1.0
 70
     8
 71
     3
 72
    13
 73
     9
 74
     0
 42
0.000000001
 43
0.00000001
 40
0.0
 40
0.0
 40
0.0
 40
0.0
 40
0.0196839831311369
 40
0.2429902862644237
 40
0.4447531271286627
 40
0.6476663046881275
 40
0.8234523689882357
 40
1.0
 40
1.0
 40
1.0
 40
1.0
 10
18.33455866551589
 20
2.130047437755906
 30
0.0
 10
18.36153633377364
 20
2.142323586044697
 30
0.0
 10
18.69456401872043
 20
2.29386734459424
 30
0.0
 10
19.30457059661643
 20
2.518802800677925
 30
0.0
 10
20.16417497844174
 20
2.796273760214127
 30
0.0
 10
20.96073434528085
 20
2.984062592533903
 30
0.0
 10
21.48661663233486
 20
3.121214115900848
 30
0.0
 10
21.84546398848664
 20
3.164448737123955
 30
0.0
 10
21.93799999999999
 20
3.176074928723899
 30
0.0
  0
LINE
  5
235
330
1F
100
AcDbEntity
  8
0
  6
Continuous
 62
     1
370
    15
100
AcDbLine
 10
10.79546959903763
 20
-2.495698970945178
 30
0.0
 11
9.99999999999585
 21
-2.767719498619591
 31
0.0
  0
SPLINE
  5
236
330
1F
100
AcDbEntity
  8
외형선
  6
Continuous
370
    15
100
AcDbSpline
210
0.0
220
0.0
230
1.0
 70
    24
 71
     3
 72
    11
 73
     7
 74
     0
 42
0.000000001
 43
0.00000001
 40
0.0
 40
0.0
 40
0.0
 40
0.0
 40
0.0231371142119569
 40
0.3880816991883798
 40
0.753454816606077
 40
1.0
 40
1.0
 40
1.0
 40
1.0
 10
10.0
 20
-2.575789454802354
 30
0.0
 10
10.0
 20
-2.577376882017482
 30
0.0
 10
10.0
 20
-2.604002996464622
 30
0.0
 10
10.0
 20
-2.653130896696339
 30
0.0
 10
10.0
 20
-2.715483566207396
 30
0.0
 10
10.0
 20
-2.752717675265352
 30
0.0
 10
10.0
 20
-2.767719498603583
 30
0.0
  0
LINE
  5
237
330
1F
100
AcDbEntity
  8
중심선
 48
0.8
100
AcDbLine
 10
-56.5
 20
0.001074928723888
 30
0.0
 11
25.69999999999999
 21
0.0010749287239022
 31
0.0
  0
CIRCLE
  5
238
330
1F
100
AcDbEntity
  8
해칭선
100
AcDbCircle
 10
0.0
 20
0.0
 30
0.0
 40
3.000000000000001
  0
DIMENSION
  5
239
330
1F
100
AcDbEntity
  8
치수문자_일반주서
100
AcDbDimension
  2
*D13
 10
-66.18999999999998
 20
-3.173925071276167
 30
0.0
 11
-66.19
 21
0.0010749287238809
 31
0.0
 70
   160
  1
%%c<>
 71
     2
 42
6.349999999999994
 52
-270.0
  3
SLDDIMSTYLE0
100
AcDbAlignedDimension
 13
-52.68999999999998
 23
3.176074928723878
 33
0.0
 14
-52.68999999999998
 24
-3.173925071276116
 34
0.0
 50
90.0000000000002
100
AcDbRotatedDimension
1001
ACAD
1000
DSTYLE
1002
{
1070
   273
1070
     7
1070
   171
1070
     6
1002
}
  0
DIMENSION
  5
23A
330
1F
100
AcDbEntity
  8
치수문자_일반주서
100
AcDbDimension
  2
*D14
 10
33.76937703789729
 20
-3.173925071276059
 30
0.0
 11
33.76937703789719
 21
26.39152604942033
 31
0.0
 70
   160
  1
%%c<>
 71
     2
 42
6.350000000000001
 52
-270.0
  3
SLDDIMSTYLE0
100
AcDbAlignedDimension
 13
22.69999999999999
 23
3.176074928723899
 33
0.0
 14
22.69999999999999
 24
-3.173925071276102
 34
0.0
 50
90.0000000000002
100
AcDbRotatedDimension
1001
ACAD
1000
DSTYLE
1002
{
1070
   273
1070
     7
1070
   171
1070
     6
1002
}
  0
DIMENSION
  5
23B
330
1F
100
AcDbEntity
  8
치수문자_일반주서
100
AcDbDimension
  2
*D15
 10
10.0
 20
13.19630048907219
 30
0.0
 11
-10.77468972506099
 21
13.19630048907219
 31
0.0
 70
   160
  1
<>
 71
     2
 42
12.69999999999999
  3
SLDDIMSTYLE0
100
AcDbAlignedDimension
 13
22.69999999999999
 23
3.176074928723899
 33
0.0
 14
10.0
 24
2.769869356051366
 34
0.0
 50
0.000000000000016
100
AcDbRotatedDimension
1001
ACAD
1000
DSTYLE
1002
{
1070
   273
1070
     7
1070
   171
1070
     6
1002
}
1001
ACAD_DSTYLE_DIMFLIPARROW_SYMBOL
1070
   385
1070
     0
1001
ACAD_DSTYLE_DIMFLIPARROW_WHICH_SYMBOL
1070
   386
1070
     3
  0
DIMENSION
  5
23C
330
1F
100
AcDbEntity
  8
치수문자_일반주서
100
AcDbDimension
  2
*D16
 10
-53.49999999999999
 20
25.19630048907214
 30
0.0
 11
-15.7428889628973
 21
25.19630048907214
 31
0.0
 70
   160
  1
<>
 71
     2
 42
76.19999999999997
  3
SLDDIMSTYLE0
100
AcDbAlignedDimension
 13
22.69999999999999
 23
3.176074928723899
 33
0.0
 14
-53.49999999999999
 24
2.366074928723883
 34
0.0
 50
0.0000000000000027
100
AcDbRotatedDimension
1001
ACAD
1000
DSTYLE
1002
{
1070
   273
1070
     7
1070
   171
1070
     6
1002
}
  0
INSERT
  5
23D
330
1F
100
AcDbEntity
  8
해칭선
100
AcDbBlockReference
  2
SW_DOWELSYMBOL_0
 10
0.0
 20
0.0
 30
0.0
  0
SPLINE
  5
23E
330
1F
100
AcDbEntity
  8
0
  6
Continuous
 62
     1
370
    15
100
AcDbSpline
210
0.0
220
0.0
230
1.0
 70
    24
 71
     3
 72
     8
 73
     4
 74
     0
 42
0.000000001
 43
0.00000001
 40
0.0
 40
0.0
 40
0.0
 40
0.0
 40
0.2996604537517864
 40
0.2996604537517864
 40
0.2996604537517864
 40
0.2996604537517864
 10
22.69999999999999
 20
2.223574928723892
 30
0.0
 10
22.69999999999999
 20
2.283238944471549
 30
0.0
 10
22.69999999999999
 20
2.347110566061893
 30
0.0
 10
22.69999999999999
 20
2.414074901160809
 30
0.0
  0
SPLINE
  5
245
330
1F
100
AcDbEntity
  8
0
  6
Continuous
 62
     1
370
    15
100
AcDbSpline
210
0.0
220
0.0
230
1.0
 70
     8
 71
     3
 72
     8
 73
     4
 74
     0
 42
0.000000001
 43
0.00000001
 40
0.0
 40
0.0
 40
0.0
 40
0.0
 40
0.0443213098675296
 40
0.0443213098675296
 40
0.0443213098675296
 40
0.0443213098675296
 10
22.44600000000003
 20
-2.962194587974992
 30
0.0
 10
22.45137268574879
 20
-2.96330917947936
 30
0.0
 10
22.45678434287282
 20
-2.964228900597057
 30
0.0
 10
22.46222038758577
 20
-2.964950373807035
 30
0.0
  0
ARC
  5
286
330
1F
100
AcDbEntity
  8
0
  6
Continuous
 62
     1
370
    15
100
AcDbCircle
 10
21.93799999999999
 20
2.414074928723899
 30
0.0
 40
0.762
100
AcDbArc
 50
359.9999979274951
 51
90.00000000000213
  0
ARC
  5
287
102
{ACAD_REACTORS
102
}
330
1F
100
AcDbEntity
  8
0
  6
Continuous
 62
     1
370
    15
100
AcDbCircle
 10
21.93799999999999
 20
-2.411925071276109
 30
0.0
 40
0.762
100
AcDbArc
 50
269.9999999999979
 51
0.0000020725048606
  0
SPLINE
  5
288
330
1F
100
AcDbEntity
  8
0
  6
Continuous
 62
     1
370
    15
100
AcDbSpline
210
0.0
220
0.0
230
1.0
 70
     8
 71
     3
 72
    10
 73
     6
 74
     4
 42
0.000000001
 43
0.0000000001
 44
0.0
 40
0.0
 40
0.0
 40
0.0
 40
0.0
 40
1.418470237634287
 40
2.46909533686987
 40
3.769896339607748
 40
3.769896339607748
 40
3.769896339607748
 40
3.769896339607748
 10
18.33311114316592
 20
-2.127242263244646
 30
0.0
 10
18.76489068489265
 20
-2.322000714533742
 30
0.0
 10
19.51647843396754
 20
-2.661011834496262
 30
0.0
 10
20.73515497364113
 20
-2.984432241359794
 30
0.0
 10
21.50958687793331
 20
-3.106434070278715
 30
0.0
 10
21.93799999999996
 20
-3.173925071276109
 30
0.0
 11
18.33311114316592
 21
-2.127242263244646
 31
0.0
 11
19.6438246197265
 21
-2.66954107148301
 31
0.0
 11
20.6571360546431
 21
-2.94705329645884
 31
0.0
 11
21.93799999999996
 21
-3.173925071276109
 31
0.0
  0
DIMENSION
  5
28A
102
{ACAD_REACTORS
102
}
102
{ACAD_XDICTIONARY
360
28B
102
}
330
1F
100
AcDbEntity
  8
치수문자_일반주서
100
AcDbDimension
  2
*D18
 10
21.93799999999999
 20
-2.411925071276109
 30
0.0
 11
32.52733956242397
 21
-21.22062838102563
 31
0.0
 70
   164
  1
<>
 71
     5
 42
0.7620000000000021
  3
SLDDIMSTYLE0
100
AcDbRadialDimension
 15
22.31183230042353
 25
-3.07592312184557
 35
0.0
 40
0.0
1001
ACAD
1000
DSTYLE
1002
{
1070
   171
1070
     3
1002
}
1001
ACAD_DSTYLE_DIMRADIAL_EXTENSION
1070
   387
1070
     1
1070
   388
1040
4.712388980384652
1070
   390
1040
0.0000000361720336
  0
ENDSEC
  0
SECTION
  2
OBJECTS
  0
DICTIONARY
  5
C
330
0
100
AcDbDictionary
281
     1
  3
ACAD_GROUP
350
D
  3
ACAD_IMAGE_VARS
350
158
  3
ACAD_LAYOUT
350
1A
  3
ACAD_MLINESTYLE
350
17
  3
ACAD_PLOTSETTINGS
350
19
  3
ACAD_PLOTSTYLENAME
350
E
  3
ACAD_SCALELIST
350
47
  3
APPDATA
350
156
  3
DWGPROPS
350
297
  0
DICTIONARY
  5
204
330
2
100
AcDbDictionary
280
     1
281
     1
  3
ACAD_LAYERSTATES
360
205
  0
DICTIONARY
  5
28B
330
28A
100
AcDbDictionary
280
     1
281
     1
  0
DICTIONARY
  5
D
102
{ACAD_REACTORS
330
C
102
}
330
C
100
AcDbDictionary
281
     1
  0
RASTERVARIABLES
  5
158
102
{ACAD_REACTORS
330
C
102
}
330
C
100
AcDbRasterVariables
 90
        0
 70
     1
 71
     1
 72
     1
  0
DICTIONARY
  5
1A
102
{ACAD_REACTORS
330
C
102
}
330
C
100
AcDbDictionary
281
     1
  3
Layout1
350
1E
  3
Layout2
350
26
  3
Model
350
22
  0
DICTIONARY
  5
17
102
{ACAD_REACTORS
330
C
102
}
330
C
100
AcDbDictionary
281
     1
  3
Standard
350
18
  0
DICTIONARY
  5
19
102
{ACAD_REACTORS
330
C
102
}
330
C
100
AcDbDictionary
281
     1
  0
ACDBDICTIONARYWDFLT
  5
E
102
{ACAD_REACTORS
330
C
102
}
330
C
100
AcDbDictionary
281
     1
  3
Normal
350
F
100
AcDbDictionaryWithDefault
340
F
  0
DICTIONARY
  5
47
102
{ACAD_REACTORS
330
C
102
}
330
C
100
AcDbDictionary
281
     1
  3
A0
350
48
  3
A1
350
49
  3
A2
350
4A
  3
A3
350
4B
  3
A4
350
4C
  3
A5
350
4D
  3
A6
350
4E
  3
A7
350
4F
  3
A8
350
50
  3
A9
350
51
  3
B0
350
52
  3
B1
350
53
  3
B2
350
54
  3
B3
350
55
  3
B4
350
56
  3
B5
350
57
  3
B6
350
58
  3
B7
350
59
  3
B8
350
5A
  3
B9
350
5B
  3
C0
350
5C
  3
C1
350
5D
  3
C2
350
5E
  3
C3
350
5F
  3
C4
350
60
  3
C5
350
61
  3
C6
350
62
  3
C7
350
63
  3
C8
350
64
  3
C9
350
65
  3
D0
350
66
  3
D1
350
67
  3
D2
350
68
  0
DICTIONARY
  5
156
102
{ACAD_REACTORS
330
C
102
}
330
C
100
AcDbDictionary
281
     1
  0
XRECORD
  5
297
102
{ACAD_REACTORS
330
C
102
}
330
C
100
AcDbXrecord
280
     1
  1
DWGPROPS COOKIE
  2

  3

  4

  6

  7

  8
12017012
  9

300
=
301
=
302
=
303
=
304
=
305
=
306
=
307
=
308
=
309
=
 40
0.0
 41
2458288.277195139
 42
2458295.40961235
  1

 90
        0
  0
DICTIONARY
  5
205
102
{ACAD_REACTORS
330
204
102
}
330
204
100
AcDbDictionary
281
     1
  0
LAYOUT
  5
1E
102
{ACAD_REACTORS
330
1A
102
}
330
1A
100
AcDbPlotSettings
  1

  2
none_device
  4

  6

 40
0.0
 41
0.0
 42
0.0
 43
0.0
 44
0.0
 45
0.0
 46
0.0
 47
0.0
 48
0.0
 49
0.0
140
0.0
141
0.0
142
1.0
143
1.0
 70
   688
 72
     1
 73
     0
 74
     5
  7

 75
    16
147
1.0
148
0.0
149
0.0
100
AcDbLayout
  1
Layout1
 70
     1
 71
     1
 10
0.0
 20
0.0
 11
420.0
 21
297.0
 12
0.0
 22
0.0
 32
0.0
 14
1.000000000000000E+20
 24
1.000000000000000E+20
 34
1.000000000000000E+20
 15
-1.000000000000000E+20
 25
-1.000000000000000E+20
 35
-1.000000000000000E+20
146
0.0
 13
0.0
 23
0.0
 33
0.0
 16
1.0
 26
0.0
 36
0.0
 17
0.0
 27
1.0
 37
0.0
 76
     0
330
1B
  0
LAYOUT
  5
26
102
{ACAD_REACTORS
330
1A
102
}
330
1A
100
AcDbPlotSettings
  1

  2
none_device
  4

  6

 40
0.0
 41
0.0
 42
0.0
 43
0.0
 44
0.0
 45
0.0
 46
0.0
 47
0.0
 48
0.0
 49
0.0
140
0.0
141
0.0
142
1.0
143
1.0
 70
   688
 72
     1
 73
     0
 74
     5
  7

 75
    16
147
1.0
148
0.0
149
0.0
100
AcDbLayout
  1
Layout2
 70
     1
 71
     2
 10
0.0
 20
0.0
 11
0.0
 21
0.0
 12
0.0
 22
0.0
 32
0.0
 14
0.0
 24
0.0
 34
0.0
 15
0.0
 25
0.0
 35
0.0
146
0.0
 13
0.0
 23
0.0
 33
0.0
 16
1.0
 26
0.0
 36
0.0
 17
0.0
 27
1.0
 37
0.0
 76
     0
330
23
  0
LAYOUT
  5
22
102
{ACAD_REACTORS
330
1A
102
}
330
1A
100
AcDbPlotSettings
  1

  2
none_device
  4
ANSI_A_(11.00_x_8.50_Inches)
  6

 40
6.35
 41
19.05
 42
6.35000508
 43
19.05000254
 44
279.4
 45
215.9
 46
118.1414670246906
 47
100.6729379848067
 48
0.0
 49
0.0
140
0.0
141
0.0
142
0.0629521635357261
143
1.0
 70
  1696
 72
     0
 73
     0
 74
     0
  7

 75
     0
147
0.0235690232323232
148
0.0
149
0.0
100
AcDbLayout
  1
Model
 70
     1
 71
     0
 10
0.0
 20
0.0
 11
420.0
 21
297.0
 12
0.0
 22
0.0
 32
0.0
 14
1.000000000000000E+20
 24
1.000000000000000E+20
 34
1.000000000000000E+20
 15
-1.000000000000000E+20
 25
-1.000000000000000E+20
 35
-1.000000000000000E+20
146
0.0
 13
0.0
 23
0.0
 33
0.0
 16
1.0
 26
0.0
 36
0.0
 17
0.0
 27
1.0
 37
0.0
 76
     0
330
1F
331
29
  0
MLINESTYLE
  5
18
102
{ACAD_REACTORS
330
17
102
}
330
17
100
AcDbMlineStyle
  2
Standard
 70
     0
  3

 62
   256
 51
90.0
 52
90.0
 71
     2
 49
0.5
 62
   256
  6
BYLAYER
 49
-0.5
 62
   256
  6
BYLAYER
  0
ACDBPLACEHOLDER
  5
F
102
{ACAD_REACTORS
330
E
102
}
330
E
  0
SCALE
  5
48
102
{ACAD_REACTORS
330
47
102
}
330
47
100
AcDbScale
 70
     0
300
1:1
140
1.0
141
1.0
290
     1
  0
SCALE
  5
49
102
{ACAD_REACTORS
330
47
102
}
330
47
100
AcDbScale
 70
     0
300
1:2
140
1.0
141
2.0
290
     0
  0
SCALE
  5
4A
102
{ACAD_REACTORS
330
47
102
}
330
47
100
AcDbScale
 70
     0
300
1:4
140
1.0
141
4.0
290
     0
  0
SCALE
  5
4B
102
{ACAD_REACTORS
330
47
102
}
330
47
100
AcDbScale
 70
     0
300
1:5
140
1.0
141
5.0
290
     0
  0
SCALE
  5
4C
102
{ACAD_REACTORS
330
47
102
}
330
47
100
AcDbScale
 70
     0
300
1:8
140
1.0
141
8.0
290
     0
  0
SCALE
  5
4D
102
{ACAD_REACTORS
330
47
102
}
330
47
100
AcDbScale
 70
     0
300
1:10
140
1.0
141
10.0
290
     0
  0
SCALE
  5
4E
102
{ACAD_REACTORS
330
47
102
}
330
47
100
AcDbScale
 70
     0
300
1:16
140
1.0
141
16.0
290
     0
  0
SCALE
  5
4F
102
{ACAD_REACTORS
330
47
102
}
330
47
100
AcDbScale
 70
     0
300
1:20
140
1.0
141
20.0
290
     0
  0
SCALE
  5
50
102
{ACAD_REACTORS
330
47
102
}
330
47
100
AcDbScale
 70
     0
300
1:30
140
1.0
141
30.0
290
     0
  0
SCALE
  5
51
102
{ACAD_REACTORS
330
47
102
}
330
47
100
AcDbScale
 70
     0
300
1:40
140
1.0
141
40.0
290
     0
  0
SCALE
  5
52
102
{ACAD_REACTORS
330
47
102
}
330
47
100
AcDbScale
 70
     0
300
1:50
140
1.0
141
50.0
290
     0
  0
SCALE
  5
53
102
{ACAD_REACTORS
330
47
102
}
330
47
100
AcDbScale
 70
     0
300
1:100
140
1.0
141
100.0
290
     0
  0
SCALE
  5
54
102
{ACAD_REACTORS
330
47
102
}
330
47
100
AcDbScale
 70
     0
300
2:1
140
2.0
141
1.0
290
     0
  0
SCALE
  5
55
102
{ACAD_REACTORS
330
47
102
}
330
47
100
AcDbScale
 70
     0
300
4:1
140
4.0
141
1.0
290
     0
  0
SCALE
  5
56
102
{ACAD_REACTORS
330
47
102
}
330
47
100
AcDbScale
 70
     0
300
8:1
140
8.0
141
1.0
290
     0
  0
SCALE
  5
57
102
{ACAD_REACTORS
330
47
102
}
330
47
100
AcDbScale
 70
     0
300
10:1
140
10.0
141
1.0
290
     0
  0
SCALE
  5
58
102
{ACAD_REACTORS
330
47
102
}
330
47
100
AcDbScale
 70
     0
300
100:1
140
100.0
141
1.0
290
     0
  0
SCALE
  5
59
102
{ACAD_REACTORS
330
47
102
}
330
47
100
AcDbScale
 70
     0
300
1/128" = 1'-0"
140
0.0078125
141
12.0
290
     0
  0
SCALE
  5
5A
102
{ACAD_REACTORS
330
47
102
}
330
47
100
AcDbScale
 70
     0
300
1/64" = 1'-0"
140
0.015625
141
12.0
290
     0
  0
SCALE
  5
5B
102
{ACAD_REACTORS
330
47
102
}
330
47
100
AcDbScale
 70
     0
300
1/32" = 1'-0"
140
0.03125
141
12.0
290
     0
  0
SCALE
  5
5C
102
{ACAD_REACTORS
330
47
102
}
330
47
100
AcDbScale
 70
     0
300
1/16" = 1'-0"
140
0.0625
141
12.0
290
     0
  0
SCALE
  5
5D
102
{ACAD_REACTORS
330
47
102
}
330
47
100
AcDbScale
 70
     0
300
3/32" = 1'-0"
140
0.09375
141
12.0
290
     0
  0
SCALE
  5
5E
102
{ACAD_REACTORS
330
47
102
}
330
47
100
AcDbScale
 70
     0
300
1/8" = 1'-0"
140
0.125
141
12.0
290
     0
  0
SCALE
  5
5F
102
{ACAD_REACTORS
330
47
102
}
330
47
100
AcDbScale
 70
     0
300
3/16" = 1'-0"
140
0.1875
141
12.0
290
     0
  0
SCALE
  5
60
102
{ACAD_REACTORS
330
47
102
}
330
47
100
AcDbScale
 70
     0
300
1/4" = 1'-0"
140
0.25
141
12.0
290
     0
  0
SCALE
  5
61
102
{ACAD_REACTORS
330
47
102
}
330
47
100
AcDbScale
 70
     0
300
3/8" = 1'-0"
140
0.375
141
12.0
290
     0
  0
SCALE
  5
62
102
{ACAD_REACTORS
330
47
102
}
330
47
100
AcDbScale
 70
     0
300
1/2" = 1'-0"
140
0.5
141
12.0
290
     0
  0
SCALE
  5
63
102
{ACAD_REACTORS
330
47
102
}
330
47
100
AcDbScale
 70
     0
300
3/4" = 1'-0"
140
0.75
141
12.0
290
     0
  0
SCALE
  5
64
102
{ACAD_REACTORS
330
47
102
}
330
47
100
AcDbScale
 70
     0
300
1" = 1'-0"
140
1.0
141
12.0
290
     0
  0
SCALE
  5
65
102
{ACAD_REACTORS
330
47
102
}
330
47
100
AcDbScale
 70
     0
300
1-1/2" = 1'-0"
140
1.5
141
12.0
290
     0
  0
SCALE
  5
66
102
{ACAD_REACTORS
330
47
102
}
330
47
100
AcDbScale
 70
     0
300
3" = 1'-0"
140
3.0
141
12.0
290
     0
  0
SCALE
  5
67
102
{ACAD_REACTORS
330
47
102
}
330
47
100
AcDbScale
 70
     0
300
6" = 1'-0"
140
6.0
141
12.0
290
     0
  0
SCALE
  5
68
102
{ACAD_REACTORS
330
47
102
}
330
47
100
AcDbScale
 70
     0
300
1'-0" = 1'-0"
140
12.0
141
12.0
290
     0
  0
ENDSEC
  0
EOF
