  0
SECTION
  2
HEADER
  9
$ACADVER
  1
AC1015
  9
$ACADMAINTVER
 70
     6
  9
$DWGCODEPAGE
  3
ANSI_949
  9
$INSBASE
 10
0.0
 20
0.0
 30
0.0
  9
$EXTMIN
 10
1.000000000000000E+20
 20
1.000000000000000E+20
 30
1.000000000000000E+20
  9
$EXTMAX
 10
-1.000000000000000E+20
 20
-1.000000000000000E+20
 30
-1.000000000000000E+20
  9
$LIMMIN
 10
0.0
 20
0.0
  9
$LIMMAX
 10
420.0
 20
297.0
  9
$ORTHOMODE
 70
     0
  9
$REGENMODE
 70
     1
  9
$FILLMODE
 70
     1
  9
$QTEXTMODE
 70
     0
  9
$MIRRTEXT
 70
     1
  9
$LTSCALE
 40
1.0
  9
$ATTMODE
 70
     1
  9
$TEXTSIZE
 40
3.5
  9
$TRACEWID
 40
1.0
  9
$TEXTSTYLE
  7
Standard
  9
$CLAYER
  8
0
  9
$CELTYPE
  6
ByLayer
  9
$CECOLOR
 62
   256
  9
$CELTSCALE
 40
1.0
  9
$DISPSILH
 70
     0
  9
$DIMSCALE
 40
1.0
  9
$DIMASZ
 40
3.302
  9
$DIMEXO
 40
1.0
  9
$DIMDLI
 40
3.75
  9
$DIMRND
 40
0.0
  9
$DIMDLE
 40
0.0
  9
$DIMEXE
 40
1.0
  9
$DIMTP
 40
0.0
  9
$DIMTM
 40
0.0
  9
$DIMTXT
 40
3.5
  9
$DIMCEN
 40
2.5
  9
$DIMTSZ
 40
0.0
  9
$DIMTOL
 70
     0
  9
$DIMLIM
 70
     0
  9
$DIMTIH
 70
     1
  9
$DIMTOH
 70
     1
  9
$DIMSE1
 70
     0
  9
$DIMSE2
 70
     0
  9
$DIMTAD
 70
     1
  9
$DIMZIN
 70
     0
  9
$DIMBLK
  1

  9
$DIMASO
 70
     1
  9
$DIMSHO
 70
     1
  9
$DIMPOST
  1

  9
$DIMAPOST
  1

  9
$DIMALT
 70
     0
  9
$DIMALTD
 70
     3
  9
$DIMALTF
 40
0.0393700787401575
  9
$DIMLFAC
 40
1.0
  9
$DIMTOFL
 70
     1
  9
$DIMTVP
 40
0.0
  9
$DIMTIX
 70
     0
  9
$DIMSOXD
 70
     0
  9
$DIMSAH
 70
     0
  9
$DIMBLK1
  1

  9
$DIMBLK2
  1

  9
$DIMSTYLE
  2
ISO-25
  9
$DIMCLRD
 70
     0
  9
$DIMCLRE
 70
     0
  9
$DIMCLRT
 70
     0
  9
$DIMTFAC
 40
1.0
  9
$DIMGAP
 40
1.524
  9
$DIMJUST
 70
     0
  9
$DIMSD1
 70
     0
  9
$DIMSD2
 70
     0
  9
$DIMTOLJ
 70
     0
  9
$DIMTZIN
 70
     0
  9
$DIMALTZ
 70
     0
  9
$DIMALTTZ
 70
     0
  9
$DIMUPT
 70
     0
  9
$DIMDEC
 70
     2
  9
$DIMTDEC
 70
     2
  9
$DIMALTU
 70
     2
  9
$DIMALTTD
 70
     3
  9
$DIMTXSTY
  7
Standard
  9
$DIMAUNIT
 70
     0
  9
$DIMADEC
 70
     2
  9
$DIMALTRND
 40
0.0
  9
$DIMAZIN
 70
     0
  9
$DIMDSEP
 70
    44
  9
$DIMATFIT
 70
     3
  9
$DIMFRAC
 70
     0
  9
$DIMLDRBLK
  1

  9
$DIMLUNIT
 70
     2
  9
$DIMLWD
 70
    -2
  9
$DIMLWE
 70
    -2
  9
$DIMTMOVE
 70
     0
  9
$LUNITS
 70
     2
  9
$LUPREC
 70
     2
  9
$SKETCHINC
 40
1.0
  9
$FILLETRAD
 40
10.0
  9
$AUNITS
 70
     0
  9
$AUPREC
 70
     2
  9
$MENU
  1
.
  9
$ELEVATION
 40
0.0
  9
$PELEVATION
 40
0.0
  9
$THICKNESS
 40
0.0
  9
$LIMCHECK
 70
     0
  9
$CHAMFERA
 40
0.0
  9
$CHAMFERB
 40
0.0
  9
$CHAMFERC
 40
0.0
  9
$CHAMFERD
 40
0.0
  9
$SKPOLY
 70
     0
  9
$TDCREATE
 40
2458288.651249931
  9
$TDUCREATE
 40
2458288.276249931
  9
$TDUPDATE
 40
2458295.774004479
  9
$TDUUPDATE
 40
2458295.399004479
  9
$TDINDWG
 40
0.000986956
  9
$TDUSRTIMER
 40
2458295.397045393
  9
$USRTIMER
 70
     1
  9
$ANGBASE
 50
0.0
  9
$ANGDIR
 70
     0
  9
$PDMODE
 70
     0
  9
$PDSIZE
 40
-1.0
  9
$PLINEWID
 40
0.0
  9
$SPLFRAME
 70
     0
  9
$SPLINETYPE
 70
     6
  9
$SPLINESEGS
 70
     8
  9
$HANDSEED
  5
2E5
  9
$SURFTAB1
 70
     6
  9
$SURFTAB2
 70
     6
  9
$SURFTYPE
 70
     6
  9
$SURFU
 70
     6
  9
$SURFV
 70
     6
  9
$UCSBASE
  2

  9
$UCSNAME
  2

  9
$UCSORG
 10
0.0
 20
0.0
 30
0.0
  9
$UCSXDIR
 10
1.0
 20
0.0
 30
0.0
  9
$UCSYDIR
 10
0.0
 20
1.0
 30
0.0
  9
$UCSORTHOREF
  2

  9
$UCSORTHOVIEW
 70
     0
  9
$UCSORGTOP
 10
0.0
 20
0.0
 30
0.0
  9
$UCSORGBOTTOM
 10
0.0
 20
0.0
 30
0.0
  9
$UCSORGLEFT
 10
0.0
 20
0.0
 30
0.0
  9
$UCSORGRIGHT
 10
0.0
 20
0.0
 30
0.0
  9
$UCSORGFRONT
 10
0.0
 20
0.0
 30
0.0
  9
$UCSORGBACK
 10
0.0
 20
0.0
 30
0.0
  9
$PUCSBASE
  2

  9
$PUCSNAME
  2

  9
$PUCSORG
 10
0.0
 20
0.0
 30
0.0
  9
$PUCSXDIR
 10
1.0
 20
0.0
 30
0.0
  9
$PUCSYDIR
 10
0.0
 20
1.0
 30
0.0
  9
$PUCSORTHOREF
  2

  9
$PUCSORTHOVIEW
 70
     0
  9
$PUCSORGTOP
 10
0.0
 20
0.0
 30
0.0
  9
$PUCSORGBOTTOM
 10
0.0
 20
0.0
 30
0.0
  9
$PUCSORGLEFT
 10
0.0
 20
0.0
 30
0.0
  9
$PUCSORGRIGHT
 10
0.0
 20
0.0
 30
0.0
  9
$PUCSORGFRONT
 10
0.0
 20
0.0
 30
0.0
  9
$PUCSORGBACK
 10
0.0
 20
0.0
 30
0.0
  9
$USERI1
 70
     0
  9
$USERI2
 70
     0
  9
$USERI3
 70
     0
  9
$USERI4
 70
     0
  9
$USERI5
 70
     0
  9
$USERR1
 40
0.0
  9
$USERR2
 40
0.0
  9
$USERR3
 40
0.0
  9
$USERR4
 40
0.0
  9
$USERR5
 40
0.0
  9
$WORLDVIEW
 70
     1
  9
$SHADEDGE
 70
     3
  9
$SHADEDIF
 70
    70
  9
$TILEMODE
 70
     1
  9
$MAXACTVP
 70
    64
  9
$PINSBASE
 10
0.0
 20
0.0
 30
0.0
  9
$PLIMCHECK
 70
     0
  9
$PEXTMIN
 10
1.000000000000000E+20
 20
1.000000000000000E+20
 30
1.000000000000000E+20
  9
$PEXTMAX
 10
-1.000000000000000E+20
 20
-1.000000000000000E+20
 30
-1.000000000000000E+20
  9
$PLIMMIN
 10
0.0
 20
0.0
  9
$PLIMMAX
 10
0.0
 20
0.0
  9
$UNITMODE
 70
     0
  9
$VISRETAIN
 70
     1
  9
$PLINEGEN
 70
     0
  9
$PSLTSCALE
 70
     1
  9
$TREEDEPTH
 70
  3020
  9
$CMLSTYLE
  2
Standard
  9
$CMLJUST
 70
     0
  9
$CMLSCALE
 40
20.0
  9
$PROXYGRAPHICS
 70
     1
  9
$MEASUREMENT
 70
     1
  9
$CELWEIGHT
370
    -1
  9
$ENDCAPS
280
     0
  9
$JOINSTYLE
280
     0
  9
$LWDISPLAY
290
     1
  9
$INSUNITS
 70
     4
  9
$HYPERLINKBASE
  1

  9
$STYLESHEET
  1

  9
$XEDIT
290
     1
  9
$CEPSNTYPE
380
     0
  9
$PSTYLEMODE
290
     1
  9
$FINGERPRINTGUID
  2
{C699AC6B-817A-41CF-8EBF-FA409D4E6FE0}
  9
$VERSIONGUID
  2
{FAEB1C32-E019-11D5-929B-00C0DF256EC4}
  9
$EXTNAMES
290
     1
  9
$PSVPSCALE
 40
0.0
  9
$OLESTARTUP
290
     0
  0
ENDSEC
  0
SECTION
  2
CLASSES
  0
CLASS
  1
ACDBDICTIONARYWDFLT
  2
AcDbDictionaryWithDefault
  3
ObjectDBX Classes
 90
        0
280
     0
281
     0
  0
CLASS
  1
VISUALSTYLE
  2
AcDbVisualStyle
  3
ObjectDBX Classes
 90
     4095
280
     0
281
     0
  0
CLASS
  1
MATERIAL
  2
AcDbMaterial
  3
ObjectDBX Classes
 90
     1153
280
     0
281
     0
  0
CLASS
  1
SCALE
  2
AcDbScale
  3
ObjectDBX Classes
 90
     1153
280
     0
281
     0
  0
CLASS
  1
SUN
  2
AcDbSun
  3
SCENEOE
 90
     1153
280
     0
281
     0
  0
CLASS
  1
ACDBPLACEHOLDER
  2
AcDbPlaceHolder
  3
ObjectDBX Classes
 90
        0
280
     0
281
     0
  0
CLASS
  1
LAYOUT
  2
AcDbLayout
  3
ObjectDBX Classes
 90
        0
280
     0
281
     0
  0
CLASS
  1
TABLESTYLE
  2
AcDbTableStyle
  3
ObjectDBX Classes
 90
     4095
280
     0
281
     0
  0
CLASS
  1
MLEADERSTYLE
  2
AcDbMLeaderStyle
  3
ACDB_MLEADERSTYLE_CLASS
 90
     4095
280
     0
281
     0
  0
CLASS
  1
RASTERVARIABLES
  2
AcDbRasterVariables
  3
ISM
 90
        0
280
     0
281
     0
  0
CLASS
  1
DIMASSOC
  2
AcDbDimAssoc
  3
"AcDbDimAssoc|Product Desc:     AcDim ARX App For Dimension|Company:          Autodesk, Inc.|WEB Address:      www.autodesk.com"
 90
        0
280
     0
281
     0
  0
ENDSEC
  0
SECTION
  2
TABLES
  0
TABLE
  2
VPORT
  5
8
330
0
100
AcDbSymbolTable
 70
     1
  0
VPORT
  5
29
330
8
100
AcDbSymbolTableRecord
100
AcDbViewportTableRecord
  2
*Active
 70
     0
 10
0.0
 20
0.0
 11
1.0
 21
1.0
 12
-23.8422840298673
 22
-1.000324112906789
 13
0.0
 23
0.0
 14
10.0
 24
10.0
 15
10.0
 25
10.0
 16
0.0
 26
0.0
 36
1.0
 17
0.0
 27
0.0
 37
0.0
 40
128.7693729038627
 41
1.587084148727984
 42
50.0
 43
0.0
 44
0.0
 50
0.0
 51
0.0
 71
    16
 72
  2000
 73
     1
 74
     3
 75
     0
 76
     0
 77
     0
 78
     0
281
     0
 65
     1
110
0.0
120
0.0
130
0.0
111
1.0
121
0.0
131
0.0
112
0.0
122
1.0
132
0.0
 79
     0
146
0.0
  0
ENDTAB
  0
TABLE
  2
LTYPE
  5
5
330
0
100
AcDbSymbolTable
 70
     6
  0
LTYPE
  5
14
330
5
100
AcDbSymbolTableRecord
100
AcDbLinetypeTableRecord
  2
ByBlock
 70
     0
  3

 72
    65
 73
     0
 40
0.0
  0
LTYPE
  5
15
330
5
100
AcDbSymbolTableRecord
100
AcDbLinetypeTableRecord
  2
ByLayer
 70
     0
  3

 72
    65
 73
     0
 40
0.0
  0
LTYPE
  5
16
330
5
100
AcDbSymbolTableRecord
100
AcDbLinetypeTableRecord
  2
Continuous
 70
     0
  3
Solid line
 72
    65
 73
     0
 40
0.0
  0
LTYPE
  5
6A
330
5
100
AcDbSymbolTableRecord
100
AcDbLinetypeTableRecord
  2
HIDDEN
 70
     0
  3
Hidden __ __ __ __ __ __ __ __ __ __ __ __ __ __
 72
    65
 73
     2
 40
1.905
 49
1.27
 74
     0
 49
-0.635
 74
     0
  0
LTYPE
  5
6B
330
5
100
AcDbSymbolTableRecord
100
AcDbLinetypeTableRecord
  2
PHANTOM
 70
     0
  3
Phantom ______  __  __  ______  __  __  ______
 72
    65
 73
     6
 40
12.7
 49
6.35
 74
     0
 49
-1.27
 74
     0
 49
1.27
 74
     0
 49
-1.27
 74
     0
 49
1.27
 74
     0
 49
-1.27
 74
     0
  0
LTYPE
  5
6C
330
5
100
AcDbSymbolTableRecord
100
AcDbLinetypeTableRecord
  2
CENTER
 70
     0
  3
Center ____ _ ____ _ ____ _ ____ _ ____ _ ____
 72
    65
 73
     4
 40
10.16
 49
6.35
 74
     0
 49
-1.27
 74
     0
 49
1.27
 74
     0
 49
-1.27
 74
     0
  0
LTYPE
  5
6D
330
5
100
AcDbSymbolTableRecord
100
AcDbLinetypeTableRecord
  2
CENTERX2
 70
     0
  3
Center (2x) ________  __  ________  __  _____
 72
    65
 73
     4
 40
20.32
 49
12.7
 74
     0
 49
-2.54
 74
     0
 49
2.54
 74
     0
 49
-2.54
 74
     0
  0
LTYPE
  5
6E
330
5
100
AcDbSymbolTableRecord
100
AcDbLinetypeTableRecord
  2
DOT2
 70
     0
  3
Dot (.5x) ........................................
 72
    65
 73
     2
 40
0.635
 49
0.0
 74
     0
 49
-0.635
 74
     0
  0
ENDTAB
  0
TABLE
  2
LAYER
  5
2
102
{ACAD_XDICTIONARY
360
212
102
}
330
0
100
AcDbSymbolTable
 70
    18
  0
LAYER
  5
10
330
2
100
AcDbSymbolTableRecord
100
AcDbLayerTableRecord
  2
0
 70
     0
 62
     7
  6
Continuous
370
    -3
390
F
  0
LAYER
  5
6F
330
2
100
AcDbSymbolTableRecord
100
AcDbLayerTableRecord
  2
FORMAT
 70
     0
 62
     2
  6
Continuous
370
    -3
390
F
  0
LAYER
  5
70
330
2
100
AcDbSymbolTableRecord
100
AcDbLayerTableRecord
  2
외형선
 70
     0
 62
     4
  6
Continuous
370
    30
390
F
  0
LAYER
  5
71
330
2
100
AcDbSymbolTableRecord
100
AcDbLayerTableRecord
  2
숨은선
 70
     0
 62
     2
  6
HIDDEN
370
    15
390
F
  0
LAYER
  5
72
330
2
100
AcDbSymbolTableRecord
100
AcDbLayerTableRecord
  2
중심선
 70
     0
 62
     1
  6
CENTERX2
370
    -3
390
F
  0
LAYER
  5
73
330
2
100
AcDbSymbolTableRecord
100
AcDbLayerTableRecord
  2
파단선
 70
     0
 62
     4
  6
Continuous
370
    -3
390
F
  0
LAYER
  5
74
330
2
100
AcDbSymbolTableRecord
100
AcDbLayerTableRecord
  2
해칭선
 70
     0
 62
   100
  6
Continuous
370
    -3
390
F
  0
LAYER
  5
75
330
2
100
AcDbSymbolTableRecord
100
AcDbLayerTableRecord
  2
가는실선
 70
     0
 62
     4
  6
Continuous
370
    -3
390
F
  0
LAYER
  5
76
330
2
100
AcDbSymbolTableRecord
100
AcDbLayerTableRecord
  2
치수_보조선
 70
     0
 62
     4
  6
Continuous
370
    -3
390
F
  0
LAYER
  5
77
330
2
100
AcDbSymbolTableRecord
100
AcDbLayerTableRecord
  2
치수문자_일반주서
 70
     0
 62
     7
  6
Continuous
370
    15
390
F
  0
LAYER
  5
78
330
2
100
AcDbSymbolTableRecord
100
AcDbLayerTableRecord
  2
개별주서
 70
     0
 62
   100
  6
Continuous
370
    30
390
F
  0
LAYER
  5
79
330
2
100
AcDbSymbolTableRecord
100
AcDbLayerTableRecord
  2
중간선
 70
     0
 62
     2
  6
Continuous
370
    15
390
F
  0
LAYER
  5
7A
330
2
100
AcDbSymbolTableRecord
100
AcDbLayerTableRecord
  2
윤곽선
 70
     0
 62
     3
  6
Continuous
370
    40
390
F
  0
LAYER
  5
7B
330
2
100
AcDbSymbolTableRecord
100
AcDbLayerTableRecord
  2
중심마크
 70
     0
 62
   100
  6
Continuous
370
    30
390
F
  0
LAYER
  5
7C
330
2
100
AcDbSymbolTableRecord
100
AcDbLayerTableRecord
  2
가상선
 70
     0
 62
     4
  6
PHANTOM
370
    -3
390
F
  0
LAYER
  5
7D
330
2
100
AcDbSymbolTableRecord
100
AcDbLayerTableRecord
  2
특수지정선
 70
     0
 62
     5
  6
CENTERX2
370
    60
390
F
  0
LAYER
  5
7E
330
2
100
AcDbSymbolTableRecord
100
AcDbLayerTableRecord
  2
참조1
 70
     0
 62
    -4
  6
Continuous
370
    -3
390
F
  0
LAYER
  5
160
330
2
100
AcDbSymbolTableRecord
100
AcDbLayerTableRecord
  2
Defpoints
 70
     0
 62
     7
  6
Continuous
290
     0
370
    -3
390
F
  0
ENDTAB
  0
TABLE
  2
STYLE
  5
3
330
0
100
AcDbSymbolTable
 70
     2
  0
STYLE
  5
11
330
3
100
AcDbSymbolTableRecord
100
AcDbTextStyleTableRecord
  2
Standard
 70
     0
 40
0.0
 41
1.0
 50
0.0
 71
     0
 42
3.5
  3
txt
  4

  0
STYLE
  5
94
330
3
100
AcDbSymbolTableRecord
100
AcDbTextStyleTableRecord
  2
SLDTEXTSTYLE0
 70
     0
 40
0.0
 41
0.75
 50
0.0
 71
     0
 42
3.5
  3
TXT
  4

  0
ENDTAB
  0
TABLE
  2
VIEW
  5
6
330
0
100
AcDbSymbolTable
 70
     0
  0
ENDTAB
  0
TABLE
  2
UCS
  5
7
330
0
100
AcDbSymbolTable
 70
     0
  0
ENDTAB
  0
TABLE
  2
APPID
  5
9
330
0
100
AcDbSymbolTable
 70
     2
  0
APPID
  5
12
330
9
100
AcDbSymbolTableRecord
100
AcDbRegAppTableRecord
  2
ACAD
 70
     0
  0
APPID
  5
16B
330
9
100
AcDbSymbolTableRecord
100
AcDbRegAppTableRecord
  2
ACAD_DSTYLE_DIMRADIAL_EXTENSION
 70
     0
  0
ENDTAB
  0
TABLE
  2
DIMSTYLE
  5
A
330
0
100
AcDbSymbolTable
 70
     4
100
AcDbDimStyleTable
  0
DIMSTYLE
105
27
330
A
100
AcDbSymbolTableRecord
100
AcDbDimStyleTableRecord
  2
ISO-25
 70
     0
 41
2.5
 42
0.625
 43
3.75
 44
1.25
 73
     0
 74
     0
 77
     1
 78
     8
140
2.5
141
2.5
143
0.03937007874016
147
0.625
171
     3
172
     1
178
     0
271
     2
272
     2
274
     3
278
    44
283
     0
284
     8
340
11
  0
DIMSTYLE
105
DC
102
{ACAD_REACTORS
330
1C3
330
1D0
330
1E0
330
1F0
330
206
330
286
330
287
330
288
330
289
330
2D7
102
}
330
A
100
AcDbSymbolTableRecord
100
AcDbDimStyleTableRecord
  2
SLDDIMSTYLE0
 70
     0
 41
3.302
 44
0.0
 45
0.000000001
 73
     0
 74
     0
 77
     1
 78
    12
 79
     3
140
3.5
143
0.0393700787401575
147
0.875
148
0.000000001
170
     1
172
     1
173
     1
178
     0
271
     2
272
     2
276
     2
284
    12
289
     0
340
94
  0
DIMSTYLE
105
F1
330
A
100
AcDbSymbolTableRecord
100
AcDbDimStyleTableRecord
  2
SLDDIMSTYLE1
 70
     0
 41
3.302
 44
0.0
 45
0.000000001
 73
     0
 74
     0
 77
     1
 78
     4
 79
     1
140
3.5
143
0.0393700787401575
147
0.875
148
0.000000001
170
     1
173
     1
178
     0
271
     2
272
     2
276
     2
284
    12
340
94
  0
DIMSTYLE
105
11A
330
A
100
AcDbSymbolTableRecord
100
AcDbDimStyleTableRecord
  2
SLDDIMSTYLE2
 70
     0
 41
3.302
 44
0.0
 45
0.000000001
 73
     0
 74
     0
 77
     1
 78
    12
 79
     3
140
3.5
143
0.0393700787401575
147
0.875
148
0.000000001
170
     1
173
     1
178
     0
271
     2
272
     2
276
     2
284
    12
340
94
  0
ENDTAB
  0
TABLE
  2
BLOCK_RECORD
  5
1
330
0
100
AcDbSymbolTable
 70
    19
  0
BLOCK_RECORD
  5
1F
330
1
100
AcDbSymbolTableRecord
100
AcDbBlockTableRecord
  2
*Model_Space
340
22
  0
BLOCK_RECORD
  5
1B
330
1
100
AcDbSymbolTableRecord
100
AcDbBlockTableRecord
  2
*Paper_Space
340
1E
  0
BLOCK_RECORD
  5
23
330
1
100
AcDbSymbolTableRecord
100
AcDbBlockTableRecord
  2
*Paper_Space0
340
26
  0
BLOCK_RECORD
  5
7F
330
1
100
AcDbSymbolTableRecord
100
AcDbBlockTableRecord
  2
블럭10
340
0
102
{BLKREFS
331
D4
102
}
  0
BLOCK_RECORD
  5
DD
330
1
100
AcDbSymbolTableRecord
100
AcDbBlockTableRecord
  2
_D
340
0
  0
BLOCK_RECORD
  5
F2
330
1
100
AcDbSymbolTableRecord
100
AcDbBlockTableRecord
  2
_D_1
340
0
  0
BLOCK_RECORD
  5
105
330
1
100
AcDbSymbolTableRecord
100
AcDbBlockTableRecord
  2
_D_2
340
0
  0
BLOCK_RECORD
  5
11B
330
1
100
AcDbSymbolTableRecord
100
AcDbBlockTableRecord
  2
_D_3
340
0
  0
BLOCK_RECORD
  5
134
330
1
100
AcDbSymbolTableRecord
100
AcDbBlockTableRecord
  2
SW_DOWELSYMBOL_0
340
0
102
{BLKREFS
331
0
331
1FD
331
28A
102
}
  0
BLOCK_RECORD
  5
209
330
1
100
AcDbSymbolTableRecord
100
AcDbBlockTableRecord
  2
*D8
340
0
  0
BLOCK_RECORD
  5
216
330
1
100
AcDbSymbolTableRecord
100
AcDbBlockTableRecord
  2
*D9
340
0
  0
BLOCK_RECORD
  5
222
330
1
100
AcDbSymbolTableRecord
100
AcDbBlockTableRecord
  2
*D10
340
0
  0
BLOCK_RECORD
  5
231
330
1
100
AcDbSymbolTableRecord
100
AcDbBlockTableRecord
  2
*D11
340
0
  0
BLOCK_RECORD
  5
240
330
1
100
AcDbSymbolTableRecord
100
AcDbBlockTableRecord
  2
*D12
340
0
  0
BLOCK_RECORD
  5
290
330
1
100
AcDbSymbolTableRecord
100
AcDbBlockTableRecord
  2
*D13
340
0
  0
BLOCK_RECORD
  5
29C
330
1
100
AcDbSymbolTableRecord
100
AcDbBlockTableRecord
  2
*D14
340
0
  0
BLOCK_RECORD
  5
2AB
330
1
100
AcDbSymbolTableRecord
100
AcDbBlockTableRecord
  2
*D15
340
0
  0
BLOCK_RECORD
  5
2BA
330
1
100
AcDbSymbolTableRecord
100
AcDbBlockTableRecord
  2
*D16
340
0
  0
BLOCK_RECORD
  5
2C6
330
1
100
AcDbSymbolTableRecord
100
AcDbBlockTableRecord
  2
*D17
340
0
  0
BLOCK_RECORD
  5
2DA
330
1
100
AcDbSymbolTableRecord
100
AcDbBlockTableRecord
  2
*D18
340
0
  0
ENDTAB
  0
ENDSEC
  0
SECTION
  2
BLOCKS
  0
BLOCK
  5
20
330
1F
100
AcDbEntity
  8
0
100
AcDbBlockBegin
  2
*Model_Space
 70
     0
 10
0.0
 20
0.0
 30
0.0
  3
*Model_Space
  1
*Model_Space
  0
ENDBLK
  5
21
330
1F
100
AcDbEntity
  8
0
100
AcDbBlockEnd
  0
BLOCK
  5
1C
330
1B
100
AcDbEntity
 67
     1
  8
0
100
AcDbBlockBegin
  2
*Paper_Space
 70
     0
 10
0.0
 20
0.0
 30
0.0
  3
*Paper_Space
  1
*Paper_Space
  0
ENDBLK
  5
1D
330
1B
100
AcDbEntity
 67
     1
  8
0
100
AcDbBlockEnd
  0
BLOCK
  5
24
330
23
100
AcDbEntity
  8
0
100
AcDbBlockBegin
  2
*Paper_Space0
 70
     0
 10
0.0
 20
0.0
 30
0.0
  3
*Paper_Space0
  1
*Paper_Space0
  0
ENDBLK
  5
25
330
23
100
AcDbEntity
  8
0
100
AcDbBlockEnd
  0
BLOCK
  5
80
330
7F
100
AcDbEntity
  8
0
100
AcDbBlockBegin
  2
블럭10
 70
     2
 10
0.0
 20
0.0
 30
0.0
  3
블럭10
  1
블럭10
  0
ELLIPSE
  5
82
330
7F
100
AcDbEntity
  8
중심선
100
AcDbEllipse
 10
20.54032771741204
 20
12.0471743016438
 30
0.0
 11
6.600054785286829
 21
-1.261213355974178E-13
 31
0.0
210
0.0
220
0.0
230
1.0
 40
0.636358354079598
 41
0.9219305317359503
 42
6.513795318482858
  0
ELLIPSE
  5
83
330
7F
100
AcDbEntity
  8
중심선
100
AcDbEllipse
 10
20.54032771746488
 20
12.04717430159265
 30
0.0
 11
3.960054785062283
 21
1.540847449632565E-10
 31
0.0
210
0.0
220
0.0
230
1.0
 40
0.3939339440162632
 41
1.131841032648279
 42
5.62031148352944
  0
LINE
  5
84
330
7F
100
AcDbEntity
  8
중심선
100
AcDbLine
 10
2.268634060543552
 20
16.24717430164393
 30
0.0
 11
5.714909304380834
 21
16.24717430164393
 31
0.0
  0
LINE
  5
85
330
7F
100
AcDbEntity
  8
중심선
100
AcDbLine
 10
5.245725140726316
 20
7.84717430164391
 30
0.0
 11
8.692000384563599
 21
7.84717430164391
 31
0.0
  0
LINE
  5
86
330
7F
100
AcDbEntity
  8
중심선
100
AcDbLine
 10
15.74043728645272
 20
16.24717430164393
 30
0.0
 11
8.692000384563599
 21
7.84717430164391
 31
0.0
  0
LINE
  5
87
330
7F
100
AcDbEntity
  8
중심선
100
AcDbLine
 10
0.1404042013395286
 20
13.71084872107135
 30
0.0
 11
3.58671253028996
 21
13.71088815037384
 31
0.0
  0
LINE
  5
88
330
7F
100
AcDbEntity
  8
중심선
100
AcDbLine
 10
2.750260043222114
 20
10.84717430164391
 30
0.0
 11
6.196535287059397
 21
10.84717430164391
 31
0.0
  0
LINE
  5
89
330
7F
100
AcDbEntity
  8
중심선
100
AcDbLine
 10
12.29416204261559
 20
16.24717430164393
 30
0.0
 11
5.245725140726316
 21
7.84717430164391
 31
0.0
  0
LINE
  5
8A
330
7F
100
AcDbEntity
  8
중심선
100
AcDbLine
 10
10.72767329541681
 20
16.24717430164393
 30
0.0
 11
6.196535287059397
 21
10.84717430164391
 31
0.0
  0
LINE
  5
8B
330
7F
100
AcDbEntity
  8
중심선
100
AcDbLine
 10
7.28139805157953
 20
16.24717430164393
 30
0.0
 11
2.750260043222114
 21
10.84717430164391
 31
0.0
  0
LINE
  5
8C
330
7F
100
AcDbEntity
  8
중심선
100
AcDbLine
 10
5.714909304380834
 20
16.24717430164393
 30
0.0
 11
3.58671253028996
 21
13.71088815037384
 31
0.0
  0
LINE
  5
8D
330
7F
100
AcDbEntity
  8
중심선
100
AcDbLine
 10
2.268634060543552
 20
16.24717430164393
 30
0.0
 11
0.1404042013395286
 21
13.71084872107135
 31
0.0
  0
LINE
  5
8E
330
7F
100
AcDbEntity
  8
중심선
100
AcDbLine
 10
7.28139805157953
 20
16.24717430164393
 30
0.0
 11
10.72767329541681
 21
16.24717430164393
 31
0.0
  0
LINE
  5
8F
330
7F
100
AcDbEntity
  8
중심선
100
AcDbLine
 10
12.29416204261559
 20
16.24717430164393
 30
0.0
 11
15.74043728645272
 21
16.24717430164393
 31
0.0
  0
LINE
  5
90
330
7F
100
AcDbEntity
  8
중심선
100
AcDbLine
 10
19.22036997980202
 20
11.08717430171403
 30
0.0
 11
23.66174974927406
 21
11.08717430171406
 31
0.0
  0
LINE
  5
91
330
7F
100
AcDbEntity
  8
중심선
100
AcDbLine
 10
19.22039502424796
 20
13.00717430171391
 30
0.0
 11
19.22036997980202
 21
11.08717430171403
 31
0.0
  0
LINE
  5
92
330
7F
100
AcDbEntity
  8
중심선
100
AcDbLine
 10
19.22039502424796
 20
13.00717430171391
 30
0.0
 11
26.96566020931264
 21
13.00717430171391
 31
0.0
  0
LINE
  5
93
330
7F
100
AcDbEntity
  8
중심선
100
AcDbLine
 10
22.22332737316547
 20
13.45928029700563
 30
0.0
 11
24.52862924686651
 21
15.39360700705356
 31
0.0
  0
ATTDEF
  5
95
330
7F
100
AcDbEntity
  8
FORMAT
 62
     2
100
AcDbText
 10
3.448148490846466
 20
2.075366912832191
 30
0.0
 40
4.233333333333333
  1
EM636901
 41
0.75
  7
SLDTEXTSTYLE0
 11
3.448148490846466
 21
-0.0412997538344756
 31
0.0
100
AcDbAttributeDefinition
  3

  2
AUTOATTR0
 70
     0
 74
     1
  0
ENDBLK
  5
81
330
7F
100
AcDbEntity
  8
0
100
AcDbBlockEnd
  0
BLOCK
  5
DE
330
DD
100
AcDbEntity
  8
0
100
AcDbBlockBegin
  2
_D
 70
     0
 10
0.0
 20
0.0
 30
0.0
  3
_D
  1
_D
  0
SOLID
  5
E0
330
DD
100
AcDbEntity
  8
치수문자_일반주서
100
AcDbTrace
 10
-53.48999999999998
 20
3.176074928723876
 30
0.0
 11
-52.98199999999998
 21
6.478074928723876
 31
0.0
 12
-53.99799999999998
 22
6.478074928723876
 32
0.0
 13
-53.99799999999998
 23
6.478074928723876
 33
0.0
  0
SOLID
  5
E1
330
DD
100
AcDbEntity
  8
치수문자_일반주서
100
AcDbTrace
 10
-53.48999999999998
 20
-3.173925071276119
 30
0.0
 11
-53.99799999999998
 21
-6.475925071276118
 31
0.0
 12
-52.98199999999998
 22
-6.475925071276118
 32
0.0
 13
-52.98199999999998
 23
-6.475925071276118
 33
0.0
  0
LINE
  5
E2
330
DD
100
AcDbEntity
  8
치수문자_일반주서
100
AcDbLine
 10
-64.28288171604271
 20
-5.413291502344828
 30
0.0
 11
-64.28288171604271
 21
-6.124228987909328
 31
0.0
  0
LINE
  5
E3
330
DD
100
AcDbEntity
  8
치수문자_일반주서
100
AcDbLine
 10
-64.28288171604271
 20
-6.124228987909328
 30
0.0
 11
-58.72663172498341
 21
-6.124228987909289
 31
0.0
  0
LINE
  5
E4
330
DD
100
AcDbEntity
  8
치수문자_일반주서
100
AcDbLine
 10
-58.72663172498341
 20
-6.124228987909289
 30
0.0
 11
-58.72663172498341
 21
-5.413291502344789
 31
0.0
  0
LINE
  5
E5
330
DD
100
AcDbEntity
  8
치수문자_일반주서
100
AcDbLine
 10
-64.2828817160428
 20
5.41544135979243
 30
0.0
 11
-64.2828817160428
 21
6.12637884535693
 31
0.0
  0
LINE
  5
E6
330
DD
100
AcDbEntity
  8
치수문자_일반주서
100
AcDbLine
 10
-64.2828817160428
 20
6.12637884535693
 30
0.0
 11
-58.72663172498349
 21
6.126378845356969
 31
0.0
  0
LINE
  5
E7
330
DD
100
AcDbEntity
  8
치수문자_일반주서
100
AcDbLine
 10
-58.72663172498349
 20
6.126378845356969
 30
0.0
 11
-58.72663172498348
 21
5.415441359792469
 31
0.0
  0
LINE
  5
E8
330
DD
100
AcDbEntity
  8
치수문자_일반주서
100
AcDbLine
 10
-40.98999999999999
 20
3.176074928723876
 30
0.0
 11
-54.48999999999998
 21
3.176074928723876
 31
0.0
  0
LINE
  5
E9
330
DD
100
AcDbEntity
  8
치수문자_일반주서
100
AcDbLine
 10
-40.98999999999999
 20
-3.173925071276118
 30
0.0
 11
-54.48999999999998
 21
-3.173925071276119
 31
0.0
  0
LINE
  5
EA
330
DD
100
AcDbEntity
  8
치수문자_일반주서
100
AcDbLine
 10
-53.48999999999998
 20
3.176074928723876
 30
0.0
 11
-53.48999999999998
 21
9.526074928723874
 31
0.0
  0
LINE
  5
EB
330
DD
100
AcDbEntity
  8
치수문자_일반주서
100
AcDbLine
 10
-53.48999999999998
 20
3.176074928723876
 30
0.0
 11
-53.48999999999998
 21
-3.173925071276119
 31
0.0
  0
LINE
  5
EC
330
DD
100
AcDbEntity
  8
치수문자_일반주서
100
AcDbLine
 10
-53.48999999999998
 20
-3.173925071276119
 30
0.0
 11
-53.48999999999998
 21
-9.52392507127612
 31
0.0
  0
MTEXT
  5
ED
330
DD
100
AcDbEntity
  8
치수문자_일반주서
100
AcDbMText
 10
-63.23836863956232
 20
-4.52461960173345
 30
0.0
 40
3.5
 41
0.0
 71
     1
 72
     1
  1
0.25
  7
SLDTEXTSTYLE0
 11
-7.044195017643634E-15
 21
1.0
 31
0.0
 73
     1
 44
1.0
  0
MTEXT
  5
EE
330
DD
100
AcDbEntity
  8
치수문자_일반주서
100
AcDbMText
 10
-58.00173708920182
 20
-7.163838766581741
 30
0.0
 40
3.5
 41
0.0
 71
     1
 72
     1
  1
%%c
  7
SLDTEXTSTYLE0
 11
-7.044195017643634E-15
 21
1.0
 31
0.0
 73
     1
 44
1.0
  0
MTEXT
  5
EF
330
DD
100
AcDbEntity
  8
치수문자_일반주서
100
AcDbMText
 10
-58.00173708920186
 20
-1.88540136820766
 30
0.0
 40
3.5
 41
0.0
 71
     1
 72
     1
  1
6.35
  7
SLDTEXTSTYLE0
 11
-7.044195017643634E-15
 21
1.0
 31
0.0
 73
     1
 44
1.0
  0
ENDBLK
  5
DF
330
DD
100
AcDbEntity
  8
0
100
AcDbBlockEnd
  0
BLOCK
  5
F3
330
F2
100
AcDbEntity
  8
0
100
AcDbBlockBegin
  2
_D_1
 70
     0
 10
0.0
 20
0.0
 30
0.0
  3
_D_1
  1
_D_1
  0
SOLID
  5
F5
330
F2
100
AcDbEntity
  8
치수문자_일반주서
100
AcDbTrace
 10
64.28939220805994
 20
6.351074928723897
 30
0.0
 11
63.78139220805993
 21
3.049074928723897
 31
0.0
 12
64.79739220805993
 22
3.049074928723897
 32
0.0
 13
64.79739220805993
 23
3.049074928723897
 33
0.0
  0
SOLID
  5
F6
330
F2
100
AcDbEntity
  8
치수문자_일반주서
100
AcDbTrace
 10
64.28939220805994
 20
-6.348925071276113
 30
0.0
 11
64.79739220805993
 21
-3.046925071276114
 31
0.0
 12
63.78139220805993
 22
-3.046925071276114
 32
0.0
 13
63.78139220805993
 23
-3.046925071276114
 33
0.0
  0
LINE
  5
F7
330
F2
100
AcDbEntity
  8
치수문자_일반주서
100
AcDbLine
 10
53.49651049201722
 20
20.97715961835173
 30
0.0
 11
53.49651049201722
 21
20.26622213278723
 31
0.0
  0
LINE
  5
F8
330
F2
100
AcDbEntity
  8
치수문자_일반주서
100
AcDbLine
 10
53.49651049201722
 20
20.26622213278723
 30
0.0
 11
59.05276048307653
 21
20.26622213278727
 31
0.0
  0
LINE
  5
F9
330
F2
100
AcDbEntity
  8
치수문자_일반주서
100
AcDbLine
 10
59.05276048307653
 20
20.26622213278727
 30
0.0
 11
59.05276048307652
 21
20.97715961835177
 31
0.0
  0
LINE
  5
FA
330
F2
100
AcDbEntity
  8
치수문자_일반주서
100
AcDbLine
 10
53.49651049201714
 20
31.80589248048899
 30
0.0
 11
53.49651049201714
 21
32.51682996605349
 31
0.0
  0
LINE
  5
FB
330
F2
100
AcDbEntity
  8
치수문자_일반주서
100
AcDbLine
 10
53.49651049201714
 20
32.51682996605349
 30
0.0
 11
59.05276048307644
 21
32.51682996605354
 31
0.0
  0
LINE
  5
FC
330
F2
100
AcDbEntity
  8
치수문자_일반주서
100
AcDbLine
 10
59.05276048307644
 20
32.51682996605354
 30
0.0
 11
59.05276048307645
 21
31.80589248048903
 31
0.0
  0
LINE
  5
FD
330
F2
100
AcDbEntity
  8
치수문자_일반주서
100
AcDbLine
 10
30.77706927758172
 20
6.351074928723898
 30
0.0
 11
65.28939220805994
 21
6.351074928723897
 31
0.0
  0
LINE
  5
FE
330
F2
100
AcDbEntity
  8
치수문자_일반주서
100
AcDbLine
 10
30.77706927758172
 20
-6.348925071276112
 30
0.0
 11
65.28939220805994
 21
-6.348925071276113
 31
0.0
  0
LINE
  5
FF
330
F2
100
AcDbEntity
  8
치수문자_일반주서
100
AcDbLine
 10
64.28939220805994
 20
6.351074928723897
 30
0.0
 11
64.28939220805994
 21
34.84949499224145
 31
0.0
  0
LINE
  5
100
330
F2
100
AcDbEntity
  8
치수문자_일반주서
100
AcDbLine
 10
64.28939220805994
 20
6.351074928723897
 30
0.0
 11
64.28939220805994
 21
-6.348925071276113
 31
0.0
  0
MTEXT
  5
101
330
F2
100
AcDbEntity
  8
치수문자_일반주서
100
AcDbMText
 10
54.54102356849762
 20
21.86583151896311
 30
0.0
 40
3.5
 41
0.0
 71
     1
 72
     1
  1
0.50
  7
SLDTEXTSTYLE0
 11
-7.044195017643634E-15
 21
1.0
 31
0.0
 73
     1
 44
1.0
  0
MTEXT
  5
102
330
F2
100
AcDbEntity
  8
치수문자_일반주서
100
AcDbMText
 10
59.77765511885812
 20
17.93355710659938
 30
0.0
 40
3.5
 41
0.0
 71
     1
 72
     1
  1
%%c
  7
SLDTEXTSTYLE0
 11
-7.044195017643634E-15
 21
1.0
 31
0.0
 73
     1
 44
1.0
  0
MTEXT
  5
103
330
F2
100
AcDbEntity
  8
치수문자_일반주서
100
AcDbMText
 10
59.77765511885809
 20
23.21199450497346
 30
0.0
 40
3.5
 41
0.0
 71
     1
 72
     1
  1
12.70
  7
SLDTEXTSTYLE0
 11
-7.044195017643634E-15
 21
1.0
 31
0.0
 73
     1
 44
1.0
  0
ENDBLK
  5
F4
330
F2
100
AcDbEntity
  8
0
100
AcDbBlockEnd
  0
BLOCK
  5
106
330
105
100
AcDbEntity
  8
0
100
AcDbBlockBegin
  2
_D_2
 70
     0
 10
0.0
 20
0.0
 30
0.0
  3
_D_2
  1
_D_2
  0
SOLID
  5
108
330
105
100
AcDbEntity
  8
치수문자_일반주서
100
AcDbTrace
 10
16.35
 20
12.05330048907218
 30
0.0
 11
19.652
 21
11.54530048907218
 31
0.0
 12
19.652
 22
12.56130048907218
 32
0.0
 13
19.652
 23
12.56130048907218
 33
0.0
  0
SOLID
  5
109
330
105
100
AcDbEntity
  8
치수문자_일반주서
100
AcDbTrace
 10
10.00000000000001
 20
12.05330048907217
 30
0.0
 11
6.698000000000008
 21
12.56130048907217
 31
0.0
 12
6.698000000000008
 22
11.54530048907217
 32
0.0
 13
6.698000000000008
 23
11.54530048907217
 33
0.0
  0
LINE
  5
10A
330
105
100
AcDbEntity
  8
치수문자_일반주서
100
AcDbLine
 10
7.773985671610509
 20
22.84618220511495
 30
0.0
 11
7.063048186046009
 21
22.84618220511495
 31
0.0
  0
LINE
  5
10B
330
105
100
AcDbEntity
  8
치수문자_일반주서
100
AcDbLine
 10
7.063048186046009
 20
22.84618220511495
 30
0.0
 11
7.063048186046051
 21
17.28993221405564
 31
0.0
  0
LINE
  5
10C
330
105
100
AcDbEntity
  8
치수문자_일반주서
100
AcDbLine
 10
7.063048186046051
 20
17.28993221405564
 30
0.0
 11
7.773985671610551
 21
17.28993221405565
 31
0.0
  0
LINE
  5
10D
330
105
100
AcDbEntity
  8
치수문자_일반주서
100
AcDbLine
 10
18.60271853374777
 20
22.84618220511503
 30
0.0
 11
19.31365601931227
 21
22.84618220511504
 31
0.0
  0
LINE
  5
10E
330
105
100
AcDbEntity
  8
치수문자_일반주서
100
AcDbLine
 10
19.31365601931227
 20
22.84618220511504
 30
0.0
 11
19.31365601931231
 21
17.28993221405574
 31
0.0
  0
LINE
  5
10F
330
105
100
AcDbEntity
  8
치수문자_일반주서
100
AcDbLine
 10
19.31365601931231
 20
17.28993221405574
 30
0.0
 11
18.60271853374781
 21
17.28993221405573
 31
0.0
  0
LINE
  5
110
330
105
100
AcDbEntity
  8
치수문자_일반주서
100
AcDbLine
 10
16.35000000000001
 20
2.080574928723894
 30
0.0
 11
16.35
 21
13.05330048907217
 31
0.0
  0
LINE
  5
111
330
105
100
AcDbEntity
  8
치수문자_일반주서
100
AcDbLine
 10
10.00000000000001
 20
2.385718097723555
 30
0.0
 11
10.00000000000001
 21
13.05330048907217
 31
0.0
  0
LINE
  5
112
330
105
100
AcDbEntity
  8
치수문자_일반주서
100
AcDbLine
 10
16.35
 20
12.05330048907218
 30
0.0
 11
22.70000000000001
 21
12.05330048907218
 31
0.0
  0
LINE
  5
113
330
105
100
AcDbEntity
  8
치수문자_일반주서
100
AcDbLine
 10
16.35
 20
12.05330048907218
 30
0.0
 11
10.00000000000001
 21
12.05330048907217
 31
0.0
  0
LINE
  5
114
330
105
100
AcDbEntity
  8
치수문자_일반주서
100
AcDbLine
 10
10.00000000000001
 20
12.05330048907217
 30
0.0
 11
3.650000000000007
 21
12.05330048907217
 31
0.0
  0
MTEXT
  5
115
330
105
100
AcDbEntity
  8
치수문자_일반주서
100
AcDbMText
 10
6.549289460559359
 20
16.61850975493391
 30
0.0
 40
3.5
 41
0.0
 71
     1
 72
     1
  1

  7
SLDTEXTSTYLE0
 73
     1
 44
1.0
  0
MTEXT
  5
116
330
105
100
AcDbEntity
  8
치수문자_일반주서
100
AcDbMText
 10
8.662657572221887
 20
21.80166912863455
 30
0.0
 40
3.5
 41
0.0
 71
     1
 72
     1
  1
0.25
  7
SLDTEXTSTYLE0
 73
     1
 44
1.0
  0
MTEXT
  5
117
330
105
100
AcDbEntity
  8
치수문자_일반주서
100
AcDbMText
 10
8.662657572221924
 20
16.56503757827408
 30
0.0
 40
3.5
 41
0.0
 71
     1
 72
     1
  1
6.35
  7
SLDTEXTSTYLE0
 73
     1
 44
1.0
  0
MTEXT
  5
118
330
105
100
AcDbEntity
  8
치수문자_일반주서
100
AcDbMText
 10
21.15935926445293
 20
16.61850975493402
 30
0.0
 40
3.5
 41
0.0
 71
     1
 72
     1
  1

  7
SLDTEXTSTYLE0
 73
     1
 44
1.0
  0
ENDBLK
  5
107
330
105
100
AcDbEntity
  8
0
100
AcDbBlockEnd
  0
BLOCK
  5
11C
330
11B
100
AcDbEntity
  8
0
100
AcDbBlockBegin
  2
_D_3
 70
     0
 10
0.0
 20
0.0
 30
0.0
  3
_D_3
  1
_D_3
  0
SOLID
  5
11E
330
11B
100
AcDbEntity
  8
치수문자_일반주서
100
AcDbTrace
 10
16.35000000000001
 20
24.05330048907215
 30
0.0
 11
13.04800000000001
 21
24.56130048907215
 31
0.0
 12
13.04800000000001
 22
23.54530048907215
 32
0.0
 13
13.04800000000001
 23
23.54530048907215
 33
0.0
  0
SOLID
  5
11F
330
11B
100
AcDbEntity
  8
치수문자_일반주서
100
AcDbTrace
 10
-40.8
 20
24.05330048907214
 30
0.0
 11
-37.498
 21
23.54530048907214
 31
0.0
 12
-37.498
 22
24.56130048907214
 32
0.0
 13
-37.498
 23
24.56130048907214
 33
0.0
  0
LINE
  5
120
330
11B
100
AcDbEntity
  8
치수문자_일반주서
100
AcDbLine
 10
-17.89653280399564
 20
34.84618220511487
 30
0.0
 11
-18.60747028956014
 21
34.84618220511488
 31
0.0
  0
LINE
  5
121
330
11B
100
AcDbEntity
  8
치수문자_일반주서
100
AcDbLine
 10
-18.60747028956014
 20
34.84618220511488
 30
0.0
 11
-18.60747028956018
 21
29.28993221405558
 31
0.0
  0
LINE
  5
122
330
11B
100
AcDbEntity
  8
치수문자_일반주서
100
AcDbLine
 10
-18.60747028956018
 20
29.28993221405558
 30
0.0
 11
-17.89653280399568
 21
29.28993221405557
 31
0.0
  0
LINE
  5
123
330
11B
100
AcDbEntity
  8
치수문자_일반주서
100
AcDbLine
 10
-7.067799941858386
 20
34.84618220511479
 30
0.0
 11
-6.356862456293886
 21
34.84618220511479
 31
0.0
  0
LINE
  5
124
330
11B
100
AcDbEntity
  8
치수문자_일반주서
100
AcDbLine
 10
-6.356862456293886
 20
34.84618220511479
 30
0.0
 11
-6.356862456293926
 21
29.28993221405549
 31
0.0
  0
LINE
  5
125
330
11B
100
AcDbEntity
  8
치수문자_일반주서
100
AcDbLine
 10
-6.356862456293926
 20
29.28993221405549
 30
0.0
 11
-7.067799941858426
 21
29.28993221405549
 31
0.0
  0
LINE
  5
126
330
11B
100
AcDbEntity
  8
치수문자_일반주서
100
AcDbLine
 10
16.35000000000001
 20
2.080574928723895
 30
0.0
 11
16.35000000000001
 21
25.05330048907215
 31
0.0
  0
LINE
  5
127
330
11B
100
AcDbEntity
  8
치수문자_일반주서
100
AcDbLine
 10
-40.8
 20
3.366074928723886
 30
0.0
 11
-40.8
 21
25.05330048907214
 31
0.0
  0
LINE
  5
128
330
11B
100
AcDbEntity
  8
치수문자_일반주서
100
AcDbLine
 10
16.35000000000001
 20
24.05330048907215
 30
0.0
 11
-40.8
 21
24.05330048907214
 31
0.0
  0
MTEXT
  5
129
330
11B
100
AcDbEntity
  8
치수문자_일반주서
100
AcDbMText
 10
-19.12122901504688
 20
28.61850975493386
 30
0.0
 40
3.5
 41
0.0
 71
     1
 72
     1
  1

  7
SLDTEXTSTYLE0
 73
     1
 44
1.0
  0
MTEXT
  5
12A
330
11B
100
AcDbEntity
  8
치수문자_일반주서
100
AcDbMText
 10
-17.00786090338428
 20
33.80166912863447
 30
0.0
 40
3.5
 41
0.0
 71
     1
 72
     1
  1
2.25
  7
SLDTEXTSTYLE0
 73
     1
 44
1.0
  0
MTEXT
  5
12B
330
11B
100
AcDbEntity
  8
치수문자_일반주서
100
AcDbMText
 10
-18.30091661656105
 20
28.565037578274
 30
0.0
 40
3.5
 41
0.0
 71
     1
 72
     1
  1
57.15
  7
SLDTEXTSTYLE0
 73
     1
 44
1.0
  0
MTEXT
  5
12C
330
11B
100
AcDbEntity
  8
치수문자_일반주서
100
AcDbMText
 10
-4.511159211153318
 20
28.61850975493376
 30
0.0
 40
3.5
 41
0.0
 71
     1
 72
     1
  1

  7
SLDTEXTSTYLE0
 73
     1
 44
1.0
  0
ENDBLK
  5
11D
330
11B
100
AcDbEntity
  8
0
100
AcDbBlockEnd
  0
BLOCK
  5
135
330
134
100
AcDbEntity
  8
0
100
AcDbBlockBegin
  2
SW_DOWELSYMBOL_0
 70
     0
 10
0.0
 20
0.0
 30
0.0
  3
SW_DOWELSYMBOL_0
  1
SW_DOWELSYMBOL_0
  0
CIRCLE
  5
137
330
134
100
AcDbEntity
  8
해칭선
 62
     0
100
AcDbCircle
 10
0.0
 20
0.0
 30
0.0
 40
3.000000000000002
  0
HATCH
  5
138
330
134
100
AcDbEntity
  8
0
  6
Continuous
 62
     0
370
     0
100
AcDbHatch
 10
0.0
 20
0.0
 30
0.0
210
0.0
220
0.0
230
1.0
  2
SOLID
 70
     1
 71
     0
 91
        1
 92
        0
 93
        3
 72
     2
 10
0.0000000000000069
 20
0.0
 40
3.000000000000002
 50
0.0
 51
90.0
 73
     1
 72
     1
 10
0.0000000000000069
 20
3.000000000000002
 11
0.0000000000000069
 21
0.0
 72
     1
 10
0.0000000000000069
 20
0.0
 11
3.000000000000009
 21
0.0
 97
        0
 75
     0
 76
     1
 98
        1
 10
0.0
 20
0.0
  0
HATCH
  5
139
330
134
100
AcDbEntity
  8
0
  6
Continuous
 62
     0
370
     0
100
AcDbHatch
 10
0.0
 20
0.0
 30
0.0
210
0.0
220
0.0
230
1.0
  2
SOLID
 70
     1
 71
     0
 91
        1
 92
        0
 93
        3
 72
     2
 10
0.0000000000000069
 20
0.0
 40
3.000000000000002
 50
180.0
 51
270.0000000000008
 73
     1
 72
     1
 10
0.0000000000000069
 20
-3.000000000000002
 11
0.0000000000000069
 21
0.0
 72
     1
 10
0.0000000000000069
 20
0.0
 11
-2.999999999999995
 21
0.0
 97
        0
 75
     0
 76
     1
 98
        1
 10
0.0
 20
0.0
  0
ENDBLK
  5
136
330
134
100
AcDbEntity
  8
0
100
AcDbBlockEnd
  0
BLOCK
  5
20A
330
209
100
AcDbEntity
  8
0
100
AcDbBlockBegin
  2
*D8
 70
     1
 10
0.0
 20
0.0
 30
0.0
  3
*D8
  1
*D8
  0
LINE
  5
20B
330
209
100
AcDbEntity
  8
치수문자_일반주서
 62
     0
370
    -2
100
AcDbLine
 10
75.7379809861309
 20
26.73454554944354
 30
0.0
 11
91.16138639851444
 21
0.0000000000002487
 31
0.0
  0
MTEXT
  5
20C
330
209
100
AcDbEntity
  8
치수문자_일반주서
 62
     0
100
AcDbMText
 10
86.54846139496271
 20
13.24893956036157
 30
0.0
 40
3.5
 41
0.0
 71
     5
 72
     1
  1
\A1;R.25 [R0.010]
  7
SLDTEXTSTYLE0
 11
0.4997134381695328
 21
-0.8661907871322486
 31
0.0
 73
     1
 44
1.0
  0
LINE
  5
20D
330
209
100
AcDbEntity
  8
치수문자_일반주서
 62
     0
370
    -2
100
AcDbLine
 10
73.96100000000004
 20
29.81471998848582
 30
0.0
 11
74.0879272132951
 21
29.59470752855422
 31
0.0
  0
SOLID
  5
20E
330
209
100
AcDbEntity
  8
치수문자_일반주서
 62
     0
100
AcDbTrace
 10
76.21467464931602
 20
27.00955451158284
 30
0.0
 11
75.26128732294579
 21
26.45953658730424
 31
0.0
 12
74.0879272132951
 22
29.59470752855422
 32
0.0
 13
74.0879272132951
 23
29.59470752855422
 33
0.0
  0
POINT
  5
20F
330
209
100
AcDbEntity
  8
Defpoints
 62
     0
100
AcDbPoint
 10
74.0879272132951
 20
29.59470752855422
 30
0.0
  0
POINT
  5
210
330
209
100
AcDbEntity
  8
Defpoints
 62
     0
100
AcDbPoint
 10
73.96100000000004
 20
29.81471998848582
 30
0.0
  0
ENDBLK
  5
211
330
209
100
AcDbEntity
  8
0
100
AcDbBlockEnd
  0
BLOCK
  5
217
330
216
100
AcDbEntity
  8
0
100
AcDbBlockBegin
  2
*D9
 70
     1
 10
0.0
 20
0.0
 30
0.0
  3
*D9
  1
*D9
  0
LINE
  5
219
330
216
100
AcDbEntity
  8
치수문자_일반주서
 62
     0
370
    -2
100
AcDbLine
 10
17.81250000000005
 20
34.3232199884858
 30
0.0
 11
4.375000000000025
 21
34.32321998848575
 31
0.0
  0
LINE
  5
21A
330
216
100
AcDbEntity
  8
치수문자_일반주서
 62
     0
370
    -2
100
AcDbLine
 10
17.81250000000005
 20
27.9732199884858
 30
0.0
 11
4.375000000000047
 21
27.97321998848575
 31
0.0
  0
LINE
  5
21B
330
216
100
AcDbEntity
  8
치수문자_일반주서
 62
     0
370
    -2
100
AcDbLine
 10
4.375000000000036
 20
31.02121998848575
 30
0.0
 11
4.375000000000036
 21
31.27521998848575
 31
0.0
  0
SOLID
  5
21C
330
216
100
AcDbEntity
  8
치수문자_일반주서
 62
     0
100
AcDbTrace
 10
4.92533333333337
 20
31.02121998848575
 30
0.0
 11
3.824666666666703
 21
31.02121998848574
 31
0.0
 12
4.375000000000025
 22
34.32321998848575
 32
0.0
 13
4.375000000000025
 23
34.32321998848575
 33
0.0
  0
SOLID
  5
21D
330
216
100
AcDbEntity
  8
치수문자_일반주서
 62
     0
100
AcDbTrace
 10
3.824666666666702
 20
31.27521998848575
 30
0.0
 11
4.925333333333369
 21
31.27521998848576
 31
0.0
 12
4.375000000000047
 22
27.97321998848575
 32
0.0
 13
4.375000000000047
 23
27.97321998848575
 33
0.0
  0
MTEXT
  5
21E
330
216
100
AcDbEntity
  8
치수문자_일반주서
 62
     0
100
AcDbMText
 10
0.0000000000000355
 20
31.14821998848578
 30
0.0
 40
3.5
 41
0.0
 71
     2
 72
     1
  1
\A1;%%c6.35 [1/4]
  7
SLDTEXTSTYLE0
 11
-3.496765431890260E-15
 21
1.0
 31
0.0
 73
     1
 44
1.0
  0
POINT
  5
21F
330
216
100
AcDbEntity
  8
Defpoints
 62
     0
100
AcDbPoint
 10
17.87500000000005
 20
34.3232199884858
 30
0.0
  0
POINT
  5
220
330
216
100
AcDbEntity
  8
Defpoints
 62
     0
100
AcDbPoint
 10
17.87500000000005
 20
27.9732199884858
 30
0.0
  0
POINT
  5
221
330
216
100
AcDbEntity
  8
Defpoints
 62
     0
100
AcDbPoint
 10
4.37500000000005
 20
27.97321998848575
 30
0.0
  0
ENDBLK
  5
218
330
216
100
AcDbEntity
  8
0
100
AcDbBlockEnd
  0
BLOCK
  5
223
330
222
100
AcDbEntity
  8
0
100
AcDbBlockBegin
  2
*D10
 70
     1
 10
0.0
 20
0.0
 30
0.0
  3
*D10
  1
*D10
  0
LINE
  5
225
330
222
100
AcDbEntity
  8
치수문자_일반주서
 62
     0
370
    -2
100
AcDbLine
 10
74.27750000000006
 20
32.73571998848582
 30
0.0
 11
84.95403430210078
 21
32.73571998848586
 31
0.0
  0
LINE
  5
226
330
222
100
AcDbEntity
  8
치수문자_일반주서
 62
     0
370
    -2
100
AcDbLine
 10
74.27750000000005
 20
29.56071998848581
 30
0.0
 11
84.9540343021008
 21
29.56071998848586
 31
0.0
  0
LINE
  5
227
330
222
100
AcDbEntity
  8
치수문자_일반주서
 62
     0
370
    -2
100
AcDbLine
 10
84.95403430210078
 20
32.73571998848586
 30
0.0
 11
84.95403430210061
 21
69.78867110918222
 31
0.0
  0
LINE
  5
228
330
222
100
AcDbEntity
  8
치수문자_일반주서
 62
     0
370
    -2
100
AcDbLine
 10
84.95403430210078
 20
32.73571998848586
 30
0.0
 11
84.9540343021008
 21
29.56071998848586
 31
0.0
  0
LINE
  5
229
330
222
100
AcDbEntity
  8
치수문자_일반주서
 62
     0
370
    -2
100
AcDbLine
 10
84.95403430210077
 20
36.03771998848586
 30
0.0
 11
84.95403430210075
 21
39.33971998848586
 31
0.0
  0
LINE
  5
22A
330
222
100
AcDbEntity
  8
치수문자_일반주서
 62
     0
370
    -2
100
AcDbLine
 10
84.95403430210081
 20
26.25871998848586
 30
0.0
 11
84.95403430210082
 21
22.95671998848586
 31
0.0
  0
SOLID
  5
22B
330
222
100
AcDbEntity
  8
치수문자_일반주서
 62
     0
100
AcDbTrace
 10
84.40370096876744
 20
36.03771998848586
 30
0.0
 11
85.5043676354341
 21
36.03771998848586
 31
0.0
 12
84.95403430210078
 22
32.73571998848586
 32
0.0
 13
84.95403430210078
 23
32.73571998848586
 33
0.0
  0
SOLID
  5
22C
330
222
100
AcDbEntity
  8
치수문자_일반주서
 62
     0
100
AcDbTrace
 10
85.50436763543414
 20
26.25871998848586
 30
0.0
 11
84.40370096876748
 21
26.25871998848585
 31
0.0
 12
84.9540343021008
 22
29.56071998848586
 32
0.0
 13
84.9540343021008
 23
29.56071998848586
 33
0.0
  0
MTEXT
  5
22D
330
222
100
AcDbEntity
  8
치수문자_일반주서
 62
     0
100
AcDbMText
 10
80.57903430210067
 20
57.5386711091822
 30
0.0
 40
3.5
 41
0.0
 71
     2
 72
     1
  1
\A1;%%c3.18 [1/8]
  7
SLDTEXTSTYLE0
 11
-4.475859752819518E-15
 21
1.0
 31
0.0
 73
     1
 44
1.0
  0
POINT
  5
22E
330
222
100
AcDbEntity
  8
Defpoints
 62
     0
100
AcDbPoint
 10
74.21500000000006
 20
32.73571998848582
 30
0.0
  0
POINT
  5
22F
330
222
100
AcDbEntity
  8
Defpoints
 62
     0
100
AcDbPoint
 10
74.21500000000005
 20
29.56071998848581
 30
0.0
  0
POINT
  5
230
330
222
100
AcDbEntity
  8
Defpoints
 62
     0
100
AcDbPoint
 10
84.95403430210075
 20
29.56071998848585
 30
0.0
  0
ENDBLK
  5
224
330
222
100
AcDbEntity
  8
0
100
AcDbBlockEnd
  0
BLOCK
  5
232
330
231
100
AcDbEntity
  8
0
100
AcDbBlockBegin
  2
*D11
 70
     1
 10
0.0
 20
0.0
 30
0.0
  3
*D11
  1
*D11
  0
LINE
  5
234
330
231
100
AcDbEntity
  8
치수문자_일반주서
 62
     0
370
    -2
100
AcDbLine
 10
74.21500000000006
 20
32.79821998848581
 30
0.0
 11
74.21500000000006
 21
43.23219554883411
 31
0.0
  0
LINE
  5
235
330
231
100
AcDbEntity
  8
치수문자_일반주서
 62
     0
370
    -2
100
AcDbLine
 10
67.86500000000005
 20
32.59536315748547
 30
0.0
 11
67.86500000000005
 21
43.23219554883411
 31
0.0
  0
LINE
  5
236
330
231
100
AcDbEntity
  8
치수문자_일반주서
 62
     0
370
    -2
100
AcDbLine
 10
67.86500000000005
 20
43.23219554883411
 30
0.0
 11
37.85475000000005
 21
43.23219554883411
 31
0.0
  0
LINE
  5
237
330
231
100
AcDbEntity
  8
치수문자_일반주서
 62
     0
370
    -2
100
AcDbLine
 10
74.21500000000006
 20
43.23219554883411
 30
0.0
 11
67.86500000000005
 21
43.23219554883411
 31
0.0
  0
LINE
  5
238
330
231
100
AcDbEntity
  8
치수문자_일반주서
 62
     0
370
    -2
100
AcDbLine
 10
77.51700000000005
 20
43.23219554883411
 30
0.0
 11
80.81900000000005
 21
43.23219554883411
 31
0.0
  0
LINE
  5
239
330
231
100
AcDbEntity
  8
치수문자_일반주서
 62
     0
370
    -2
100
AcDbLine
 10
64.56300000000005
 20
43.23219554883411
 30
0.0
 11
61.26100000000005
 21
43.23219554883411
 31
0.0
  0
SOLID
  5
23A
330
231
100
AcDbEntity
  8
치수문자_일반주서
 62
     0
100
AcDbTrace
 10
77.51700000000005
 20
43.78252888216745
 30
0.0
 11
77.51700000000005
 21
42.68186221550078
 31
0.0
 12
74.21500000000006
 22
43.23219554883411
 32
0.0
 13
74.21500000000006
 23
43.23219554883411
 33
0.0
  0
SOLID
  5
23B
330
231
100
AcDbEntity
  8
치수문자_일반주서
 62
     0
100
AcDbTrace
 10
64.56300000000005
 20
42.68186221550078
 30
0.0
 11
64.56300000000005
 21
43.78252888216745
 31
0.0
 12
67.86500000000005
 22
43.23219554883411
 32
0.0
 13
67.86500000000005
 23
43.23219554883411
 33
0.0
  0
MTEXT
  5
23C
330
231
100
AcDbEntity
  8
치수문자_일반주서
 62
     0
100
AcDbMText
 10
49.22975000000005
 20
47.60719554883411
 30
0.0
 40
3.5
 41
0.0
 71
     2
 72
     1
  1
\A1;6.35 [1/4]
  7
SLDTEXTSTYLE0
 73
     1
 44
1.0
  0
POINT
  5
23D
330
231
100
AcDbEntity
  8
Defpoints
 62
     0
100
AcDbPoint
 10
74.21500000000006
 20
32.73571998848581
 30
0.0
  0
POINT
  5
23E
330
231
100
AcDbEntity
  8
Defpoints
 62
     0
100
AcDbPoint
 10
67.86500000000005
 20
32.53286315748547
 30
0.0
  0
POINT
  5
23F
330
231
100
AcDbEntity
  8
Defpoints
 62
     0
100
AcDbPoint
 10
67.86500000000005
 20
43.23219554883411
 30
0.0
  0
ENDBLK
  5
233
330
231
100
AcDbEntity
  8
0
100
AcDbBlockEnd
  0
BLOCK
  5
241
330
240
100
AcDbEntity
  8
0
100
AcDbBlockBegin
  2
*D12
 70
     1
 10
0.0
 20
0.0
 30
0.0
  3
*D12
  1
*D12
  0
LINE
  5
243
330
240
100
AcDbEntity
  8
치수문자_일반주서
 62
     0
370
    -2
100
AcDbLine
 10
74.21500000000006
 20
32.79821998848581
 30
0.0
 11
74.21500000000006
 21
55.23219554883407
 31
0.0
  0
LINE
  5
244
330
240
100
AcDbEntity
  8
치수문자_일반주서
 62
     0
370
    -2
100
AcDbLine
 10
17.06500000000004
 20
33.57571998848581
 30
0.0
 11
17.06500000000004
 21
55.23219554883407
 31
0.0
  0
LINE
  5
245
330
240
100
AcDbEntity
  8
치수문자_일반주서
 62
     0
370
    -2
100
AcDbLine
 10
70.91300000000007
 20
55.23219554883407
 30
0.0
 11
20.36700000000004
 21
55.23219554883407
 31
0.0
  0
SOLID
  5
246
330
240
100
AcDbEntity
  8
치수문자_일반주서
 62
     0
100
AcDbTrace
 10
70.91300000000007
 20
54.68186221550074
 30
0.0
 11
70.91300000000007
 21
55.78252888216741
 31
0.0
 12
74.21500000000006
 22
55.23219554883407
 32
0.0
 13
74.21500000000006
 23
55.23219554883407
 33
0.0
  0
SOLID
  5
247
330
240
100
AcDbEntity
  8
치수문자_일반주서
 62
     0
100
AcDbTrace
 10
20.36700000000004
 20
55.78252888216741
 30
0.0
 11
20.36700000000004
 21
54.68186221550074
 31
0.0
 12
17.06500000000004
 22
55.23219554883407
 32
0.0
 13
17.06500000000004
 23
55.23219554883407
 33
0.0
  0
MTEXT
  5
248
330
240
100
AcDbEntity
  8
치수문자_일반주서
 62
     0
100
AcDbMText
 10
45.38283327782706
 20
59.60719554883407
 30
0.0
 40
3.5
 41
0.0
 71
     2
 72
     1
  1
\A1;57.15 [2 1/4]
  7
SLDTEXTSTYLE0
 73
     1
 44
1.0
  0
POINT
  5
249
330
240
100
AcDbEntity
  8
Defpoints
 62
     0
100
AcDbPoint
 10
74.21500000000006
 20
32.73571998848581
 30
0.0
  0
POINT
  5
24A
330
240
100
AcDbEntity
  8
Defpoints
 62
     0
100
AcDbPoint
 10
17.06500000000004
 20
33.51321998848581
 30
0.0
  0
POINT
  5
24B
330
240
100
AcDbEntity
  8
Defpoints
 62
     0
100
AcDbPoint
 10
17.06500000000004
 20
55.23219554883407
 30
0.0
  0
ENDBLK
  5
242
330
240
100
AcDbEntity
  8
0
100
AcDbBlockEnd
  0
BLOCK
  5
291
330
290
100
AcDbEntity
  8
0
100
AcDbBlockBegin
  2
*D13
 70
     1
 10
0.0
 20
0.0
 30
0.0
  3
*D13
  1
*D13
  0
LINE
  5
293
330
290
100
AcDbEntity
  8
치수문자_일반주서
 62
     0
370
    -2
100
AcDbLine
 10
-41.12786934298441
 20
3.174999999999986
 30
0.0
 11
-54.56536934298445
 21
3.174999999999936
 31
0.0
  0
LINE
  5
294
330
290
100
AcDbEntity
  8
치수문자_일반주서
 62
     0
370
    -2
100
AcDbLine
 10
-41.12786934298441
 20
-3.175000000000008
 30
0.0
 11
-54.56536934298443
 21
-3.175000000000058
 31
0.0
  0
LINE
  5
295
330
290
100
AcDbEntity
  8
치수문자_일반주서
 62
     0
370
    -2
100
AcDbLine
 10
-54.56536934298443
 20
-0.1270000000000637
 30
0.0
 11
-54.56536934298444
 21
0.1269999999999412
 31
0.0
  0
SOLID
  5
296
330
290
100
AcDbEntity
  8
치수문자_일반주서
 62
     0
100
AcDbTrace
 10
-54.0150360096511
 20
-0.1270000000000619
 30
0.0
 11
-55.11570267631777
 21
-0.1270000000000656
 31
0.0
 12
-54.56536934298445
 22
3.174999999999936
 32
0.0
 13
-54.56536934298445
 23
3.174999999999936
 33
0.0
  0
SOLID
  5
297
330
290
100
AcDbEntity
  8
치수문자_일반주서
 62
     0
100
AcDbTrace
 10
-55.11570267631777
 20
0.1269999999999393
 30
0.0
 11
-54.01503600965111
 21
0.126999999999943
 31
0.0
 12
-54.56536934298443
 22
-3.175000000000058
 32
0.0
 13
-54.56536934298443
 23
-3.175000000000058
 33
0.0
  0
MTEXT
  5
298
330
290
100
AcDbEntity
  8
치수문자_일반주서
 62
     0
100
AcDbMText
 10
-58.94036934298444
 20
-0.0000000000000252
 30
0.0
 40
3.5
 41
0.0
 71
     2
 72
     1
  1
\A1;%%c6.35 [1/4]
  7
SLDTEXTSTYLE0
 11
-3.356894814614650E-15
 21
1.0
 31
0.0
 73
     1
 44
1.0
  0
POINT
  5
299
330
290
100
AcDbEntity
  8
Defpoints
 62
     0
100
AcDbPoint
 10
-41.06536934298441
 20
3.174999999999986
 30
0.0
  0
POINT
  5
29A
330
290
100
AcDbEntity
  8
Defpoints
 62
     0
100
AcDbPoint
 10
-41.06536934298441
 20
-3.175000000000008
 30
0.0
  0
POINT
  5
29B
330
290
100
AcDbEntity
  8
Defpoints
 62
     0
100
AcDbPoint
 10
-54.56536934298443
 20
-3.175000000000058
 30
0.0
  0
ENDBLK
  5
292
330
290
100
AcDbEntity
  8
0
100
AcDbBlockEnd
  0
BLOCK
  5
29D
330
29C
100
AcDbEntity
  8
0
100
AcDbBlockBegin
  2
*D14
 70
     1
 10
0.0
 20
0.0
 30
0.0
  3
*D14
  1
*D14
  0
LINE
  5
29F
330
29C
100
AcDbEntity
  8
치수문자_일반주서
 62
     0
370
    -2
100
AcDbLine
 10
15.33713065701559
 20
1.587500000000009
 30
0.0
 11
26.01366495911628
 21
1.587500000000048
 31
0.0
  0
LINE
  5
2A0
330
29C
100
AcDbEntity
  8
치수문자_일반주서
 62
     0
370
    -2
100
AcDbLine
 10
15.33713065701559
 20
-1.587499999999995
 30
0.0
 11
26.01366495911629
 21
-1.587499999999956
 31
0.0
  0
LINE
  5
2A1
330
29C
100
AcDbEntity
  8
치수문자_일반주서
 62
     0
370
    -2
100
AcDbLine
 10
26.01366495911628
 20
1.587500000000048
 30
0.0
 11
26.01366495911616
 21
38.64045112069641
 31
0.0
  0
LINE
  5
2A2
330
29C
100
AcDbEntity
  8
치수문자_일반주서
 62
     0
370
    -2
100
AcDbLine
 10
26.01366495911628
 20
1.587500000000048
 30
0.0
 11
26.01366495911629
 21
-1.587499999999956
 31
0.0
  0
LINE
  5
2A3
330
29C
100
AcDbEntity
  8
치수문자_일반주서
 62
     0
370
    -2
100
AcDbLine
 10
26.01366495911627
 20
4.889500000000048
 30
0.0
 11
26.01366495911626
 21
8.191500000000048
 31
0.0
  0
LINE
  5
2A4
330
29C
100
AcDbEntity
  8
치수문자_일반주서
 62
     0
370
    -2
100
AcDbLine
 10
26.0136649591163
 20
-4.889499999999956
 30
0.0
 11
26.01366495911631
 21
-8.191499999999955
 31
0.0
  0
SOLID
  5
2A5
330
29C
100
AcDbEntity
  8
치수문자_일반주서
 62
     0
100
AcDbTrace
 10
25.46333162578293
 20
4.889500000000046
 30
0.0
 11
26.5639982924496
 21
4.88950000000005
 31
0.0
 12
26.01366495911628
 22
1.587500000000048
 32
0.0
 13
26.01366495911628
 23
1.587500000000048
 33
0.0
  0
SOLID
  5
2A6
330
29C
100
AcDbEntity
  8
치수문자_일반주서
 62
     0
100
AcDbTrace
 10
26.56399829244964
 20
-4.889499999999954
 30
0.0
 11
25.46333162578297
 21
-4.889499999999957
 31
0.0
 12
26.01366495911629
 22
-1.587499999999956
 32
0.0
 13
26.01366495911629
 23
-1.587499999999956
 33
0.0
  0
MTEXT
  5
2A7
330
29C
100
AcDbEntity
  8
치수문자_일반주서
 62
     0
100
AcDbMText
 10
21.6386649591162
 20
26.39045112069639
 30
0.0
 40
3.5
 41
0.0
 71
     2
 72
     1
  1
\A1;%%c3.18 [1/8]
  7
SLDTEXTSTYLE0
 11
-3.356894814614642E-15
 21
1.0
 31
0.0
 73
     1
 44
1.0
  0
POINT
  5
2A8
330
29C
100
AcDbEntity
  8
Defpoints
 62
     0
100
AcDbPoint
 10
15.27463065701559
 20
1.587500000000009
 30
0.0
  0
POINT
  5
2A9
330
29C
100
AcDbEntity
  8
Defpoints
 62
     0
100
AcDbPoint
 10
15.27463065701559
 20
-1.587499999999995
 30
0.0
  0
POINT
  5
2AA
330
29C
100
AcDbEntity
  8
Defpoints
 62
     0
100
AcDbPoint
 10
26.0136649591162
 20
-1.587499999999955
 30
0.0
  0
ENDBLK
  5
29E
330
29C
100
AcDbEntity
  8
0
100
AcDbBlockEnd
  0
BLOCK
  5
2AC
330
2AB
100
AcDbEntity
  8
0
100
AcDbBlockBegin
  2
*D15
 70
     1
 10
0.0
 20
0.0
 30
0.0
  3
*D15
  1
*D15
  0
LINE
  5
2AE
330
2AB
100
AcDbEntity
  8
치수문자_일반주서
 62
     0
370
    -2
100
AcDbLine
 10
15.27463065701559
 20
1.650000000000002
 30
0.0
 11
15.27463065701559
 21
12.0839755603483
 31
0.0
  0
LINE
  5
2AF
330
2AB
100
AcDbEntity
  8
치수문자_일반주서
 62
     0
370
    -2
100
AcDbLine
 10
8.92463065701557
 20
1.447143168999663
 30
0.0
 11
8.92463065701557
 21
12.0839755603483
 31
0.0
  0
LINE
  5
2B0
330
2AB
100
AcDbEntity
  8
치수문자_일반주서
 62
     0
370
    -2
100
AcDbLine
 10
8.92463065701557
 20
12.0839755603483
 30
0.0
 11
-21.08561934298442
 21
12.0839755603483
 31
0.0
  0
LINE
  5
2B1
330
2AB
100
AcDbEntity
  8
치수문자_일반주서
 62
     0
370
    -2
100
AcDbLine
 10
15.27463065701559
 20
12.0839755603483
 30
0.0
 11
8.92463065701557
 21
12.0839755603483
 31
0.0
  0
LINE
  5
2B2
330
2AB
100
AcDbEntity
  8
치수문자_일반주서
 62
     0
370
    -2
100
AcDbLine
 10
18.57663065701559
 20
12.0839755603483
 30
0.0
 11
21.87863065701559
 21
12.0839755603483
 31
0.0
  0
LINE
  5
2B3
330
2AB
100
AcDbEntity
  8
치수문자_일반주서
 62
     0
370
    -2
100
AcDbLine
 10
5.62263065701557
 20
12.0839755603483
 30
0.0
 11
2.32063065701557
 21
12.0839755603483
 31
0.0
  0
SOLID
  5
2B4
330
2AB
100
AcDbEntity
  8
치수문자_일반주서
 62
     0
100
AcDbTrace
 10
18.57663065701559
 20
12.63430889368164
 30
0.0
 11
18.57663065701559
 21
11.53364222701497
 31
0.0
 12
15.27463065701559
 22
12.0839755603483
 32
0.0
 13
15.27463065701559
 23
12.0839755603483
 33
0.0
  0
SOLID
  5
2B5
330
2AB
100
AcDbEntity
  8
치수문자_일반주서
 62
     0
100
AcDbTrace
 10
5.62263065701557
 20
11.53364222701497
 30
0.0
 11
5.62263065701557
 21
12.63430889368164
 31
0.0
 12
8.92463065701557
 22
12.0839755603483
 32
0.0
 13
8.92463065701557
 23
12.0839755603483
 33
0.0
  0
MTEXT
  5
2B6
330
2AB
100
AcDbEntity
  8
치수문자_일반주서
 62
     0
100
AcDbMText
 10
-9.710619342984415
 20
16.4589755603483
 30
0.0
 40
3.5
 41
0.0
 71
     2
 72
     1
  1
\A1;6.35 [1/4]
  7
SLDTEXTSTYLE0
 73
     1
 44
1.0
  0
POINT
  5
2B7
330
2AB
100
AcDbEntity
  8
Defpoints
 62
     0
100
AcDbPoint
 10
15.27463065701559
 20
1.587500000000002
 30
0.0
  0
POINT
  5
2B8
330
2AB
100
AcDbEntity
  8
Defpoints
 62
     0
100
AcDbPoint
 10
8.92463065701557
 20
1.384643168999663
 30
0.0
  0
POINT
  5
2B9
330
2AB
100
AcDbEntity
  8
Defpoints
 62
     0
100
AcDbPoint
 10
8.92463065701557
 20
12.0839755603483
 30
0.0
  0
ENDBLK
  5
2AD
330
2AB
100
AcDbEntity
  8
0
100
AcDbBlockEnd
  0
BLOCK
  5
2BB
330
2BA
100
AcDbEntity
  8
0
100
AcDbBlockBegin
  2
*D16
 70
     1
 10
0.0
 20
0.0
 30
0.0
  3
*D16
  1
*D16
  0
LINE
  5
2BD
330
2BA
100
AcDbEntity
  8
치수문자_일반주서
 62
     0
370
    -2
100
AcDbLine
 10
15.27463065701559
 20
1.650000000000002
 30
0.0
 11
15.27463065701559
 21
24.08397556034826
 31
0.0
  0
LINE
  5
2BE
330
2BA
100
AcDbEntity
  8
치수문자_일반주서
 62
     0
370
    -2
100
AcDbLine
 10
-41.87536934298443
 20
2.427499999999998
 30
0.0
 11
-41.87536934298443
 21
24.08397556034826
 31
0.0
  0
LINE
  5
2BF
330
2BA
100
AcDbEntity
  8
치수문자_일반주서
 62
     0
370
    -2
100
AcDbLine
 10
11.97263065701559
 20
24.08397556034826
 30
0.0
 11
-38.57336934298443
 21
24.08397556034826
 31
0.0
  0
SOLID
  5
2C0
330
2BA
100
AcDbEntity
  8
치수문자_일반주서
 62
     0
100
AcDbTrace
 10
11.97263065701559
 20
23.53364222701493
 30
0.0
 11
11.97263065701559
 21
24.6343088936816
 31
0.0
 12
15.27463065701559
 22
24.08397556034826
 32
0.0
 13
15.27463065701559
 23
24.08397556034826
 33
0.0
  0
SOLID
  5
2C1
330
2BA
100
AcDbEntity
  8
치수문자_일반주서
 62
     0
100
AcDbTrace
 10
-38.57336934298443
 20
24.6343088936816
 30
0.0
 11
-38.57336934298443
 21
23.53364222701493
 31
0.0
 12
-41.87536934298443
 22
24.08397556034826
 32
0.0
 13
-41.87536934298443
 23
24.08397556034826
 33
0.0
  0
MTEXT
  5
2C2
330
2BA
100
AcDbEntity
  8
치수문자_일반주서
 62
     0
100
AcDbMText
 10
-13.55753606515741
 20
28.45897556034826
 30
0.0
 40
3.5
 41
0.0
 71
     2
 72
     1
  1
\A1;57.15 [2 1/4]
  7
SLDTEXTSTYLE0
 73
     1
 44
1.0
  0
POINT
  5
2C3
330
2BA
100
AcDbEntity
  8
Defpoints
 62
     0
100
AcDbPoint
 10
15.27463065701559
 20
1.587500000000002
 30
0.0
  0
POINT
  5
2C4
330
2BA
100
AcDbEntity
  8
Defpoints
 62
     0
100
AcDbPoint
 10
-41.87536934298443
 20
2.364999999999998
 30
0.0
  0
POINT
  5
2C5
330
2BA
100
AcDbEntity
  8
Defpoints
 62
     0
100
AcDbPoint
 10
-41.87536934298443
 20
24.08397556034826
 30
0.0
  0
ENDBLK
  5
2BC
330
2BA
100
AcDbEntity
  8
0
100
AcDbBlockEnd
  0
BLOCK
  5
2C7
330
2C6
100
AcDbEntity
  8
0
100
AcDbBlockBegin
  2
*D17
 70
     1
 10
0.0
 20
0.0
 30
0.0
  3
*D17
  1
*D17
  0
LINE
  5
2C9
330
2C6
100
AcDbEntity
  8
치수문자_일반주서
 62
     0
370
    -2
100
AcDbLine
 10
149.498315326021
 20
-28.4467565732166
 30
0.0
 11
164.9217207384046
 21
-55.1813021226599
 31
0.0
  0
MTEXT
  5
2CA
330
2C6
100
AcDbEntity
  8
치수문자_일반주서
 62
     0
100
AcDbMText
 10
160.3087957348529
 20
-41.93236256229857
 30
0.0
 40
3.5
 41
0.0
 71
     5
 72
     1
  1
\A1;R.25 [R0.010]
  7
SLDTEXTSTYLE0
 11
0.4997134381695328
 21
-0.8661907871322486
 31
0.0
 73
     1
 44
1.0
  0
LINE
  5
2CB
330
2C6
100
AcDbEntity
  8
치수문자_일반주서
 62
     0
370
    -2
100
AcDbLine
 10
147.7213343398902
 20
-25.36658213417433
 30
0.0
 11
147.8482615531852
 21
-25.58659459410592
 31
0.0
  0
SOLID
  5
2CC
330
2C6
100
AcDbEntity
  8
치수문자_일반주서
 62
     0
100
AcDbTrace
 10
149.9750089892061
 20
-28.1717476110773
 30
0.0
 11
149.0216216628359
 21
-28.7217655353559
 31
0.0
 12
147.8482615531852
 22
-25.58659459410592
 32
0.0
 13
147.8482615531852
 23
-25.58659459410592
 33
0.0
  0
POINT
  5
2CD
330
2C6
100
AcDbEntity
  8
Defpoints
 62
     0
100
AcDbPoint
 10
147.8482615531852
 20
-25.58659459410592
 30
0.0
  0
POINT
  5
2CE
330
2C6
100
AcDbEntity
  8
Defpoints
 62
     0
100
AcDbPoint
 10
147.7213343398902
 20
-25.36658213417433
 30
0.0
  0
ENDBLK
  5
2C8
330
2C6
100
AcDbEntity
  8
0
100
AcDbBlockEnd
  0
BLOCK
  5
2DB
330
2DA
100
AcDbEntity
  8
0
100
AcDbBlockBegin
  2
*D18
 70
     1
 10
0.0
 20
0.0
 30
0.0
  3
*D18
  1
*D18
  0
LINE
  5
2DD
330
2DA
100
AcDbEntity
  8
치수문자_일반주서
 62
     0
370
    -2
100
AcDbLine
 10
16.39837586470868
 20
-4.522392327269403
 30
0.0
 11
29.61701102556004
 21
-32.41298294013209
 31
0.0
  0
MTEXT
  5
2DE
330
2DA
100
AcDbEntity
  8
치수문자_일반주서
 62
     0
100
AcDbMText
 10
26.08685452045812
 20
-18.835373739246
 30
0.0
 40
3.5
 41
0.0
 71
     5
 72
     1
  1
\A1;R.51 [R0.020]
  7
SLDTEXTSTYLE0
 11
0.4282795820716797
 21
-0.9036462801232058
 31
0.0
 73
     1
 44
1.0
  0
LINE
  5
2DF
330
2DA
100
AcDbEntity
  8
치수문자_일반주서
 62
     0
370
    -2
100
AcDbLine
 10
14.76663065701558
 20
-1.079499999999989
 30
0.0
 11
14.984196684708
 21
-1.538552310302578
 31
0.0
  0
SOLID
  5
2E0
330
2DA
100
AcDbEntity
  8
치수문자_일반주서
 62
     0
100
AcDbTrace
 10
16.89568253420315
 20
-4.286695797269289
 30
0.0
 11
15.90106919521421
 21
-4.758088857269517
 31
0.0
 12
14.984196684708
 22
-1.538552310302578
 32
0.0
 13
14.984196684708
 23
-1.538552310302578
 33
0.0
  0
POINT
  5
2E1
330
2DA
100
AcDbEntity
  8
Defpoints
 62
     0
100
AcDbPoint
 10
14.984196684708
 20
-1.538552310302578
 30
0.0
  0
POINT
  5
2E2
330
2DA
100
AcDbEntity
  8
Defpoints
 62
     0
100
AcDbPoint
 10
14.76663065701558
 20
-1.079499999999989
 30
0.0
  0
ENDBLK
  5
2DC
330
2DA
100
AcDbEntity
  8
0
100
AcDbBlockEnd
  0
ENDSEC
  0
SECTION
  2
ENTITIES
  0
LINE
  5
D1
330
1F
100
AcDbEntity
  8
참조1
100
AcDbLine
 10
-12.225
 20
0.0010749287238892
 30
0.0
 11
-12.22499999999999
 21
-39.99892507127611
 31
0.0
  0
LINE
  5
D2
330
1F
100
AcDbEntity
  8
참조1
100
AcDbLine
 10
-12.22499999999999
 20
-39.99892507127611
 30
0.0
 11
-14.66672777521594
 21
-39.9989250712761
 31
0.0
  0
INSERT
  5
D4
330
1F
100
AcDbEntity
  8
0
  6
Continuous
 62
     7
100
AcDbBlockReference
 66
     1
  2
블럭10
 10
-26.16527293212521
 20
-52.04609937292004
 30
0.0
  0
ATTRIB
  5
D5
330
D4
100
AcDbEntity
  8
FORMAT
 62
     2
100
AcDbText
 10
-36.30690894426183
 20
-49.97073246008785
 30
0.0
 40
4.233333333333333
  1
EM636901 [ 2 FLUTE ]
 41
0.75
  7
SLDTEXTSTYLE0
 11
-36.30690894426183
 21
-52.08739912675452
 31
0.0
100
AcDbAttribute
  2
AUTOATTR0
 70
     0
 74
     1
  0
SEQEND
  5
D6
330
D4
100
AcDbEntity
  8
0
  6
Continuous
 62
     7
  0
HATCH
  5
D7
330
1F
100
AcDbEntity
  8
중심선
100
AcDbHatch
 10
0.0
 20
0.0
 30
0.0
210
0.0
220
0.0
230
1.0
  2
SOLID
 70
     1
 71
     0
 91
        1
 92
        0
 93
        4
 72
     1
 10
-20.45036362774436
 20
-35.7989250712761
 11
-23.89663887158164
 21
-35.7989250712761
 72
     1
 10
-23.89663887158164
 20
-35.7989250712761
 11
-26.02486873078566
 21
-38.33525065184867
 72
     1
 10
-26.02486873078566
 20
-38.33525065184867
 11
-22.57856040183523
 21
-38.33521122254619
 72
     1
 10
-22.57856040183523
 20
-38.33521122254619
 11
-20.45036362774436
 21
-35.7989250712761
 97
        0
 75
     0
 76
     1
 98
        1
 10
0.0
 20
0.0
  0
HATCH
  5
D8
330
1F
100
AcDbEntity
  8
중심선
100
AcDbHatch
 10
0.0
 20
0.0
 30
0.0
210
0.0
220
0.0
230
1.0
  2
SOLID
 70
     1
 71
     0
 91
        1
 92
        0
 93
        4
 72
     1
 10
-15.4375996367084
 20
-35.79892507127613
 11
-18.88387488054563
 21
-35.79892507127608
 72
     1
 10
-18.88387488054563
 20
-35.79892507127608
 11
-23.41501288890307
 21
-41.19892507127612
 72
     1
 10
-23.41501288890307
 20
-41.19892507127612
 11
-19.96873764506579
 21
-41.19892507127612
 72
     1
 10
-19.96873764506579
 20
-41.19892507127612
 11
-15.4375996367084
 21
-35.79892507127613
 97
        0
 75
     0
 76
     1
 98
        1
 10
0.0
 20
0.0
  0
HATCH
  5
D9
330
1F
100
AcDbEntity
  8
중심선
100
AcDbHatch
 10
0.0
 20
0.0
 30
0.0
210
0.0
220
0.0
230
1.0
  2
SOLID
 70
     1
 71
     0
 91
        1
 92
        0
 93
        4
 72
     1
 10
-10.42483564567254
 20
-35.7989250712761
 11
-13.8711108895096
 21
-35.7989250712761
 72
     1
 10
-13.8711108895096
 20
-35.7989250712761
 11
-20.91954779139887
 21
-44.19892507127612
 72
     1
 10
-20.91954779139887
 20
-44.19892507127612
 11
-17.47327254756159
 21
-44.19892507127612
 72
     1
 10
-17.47327254756159
 20
-44.19892507127612
 11
-10.42483564567254
 21
-35.7989250712761
 97
        0
 75
     0
 76
     1
 98
        1
 10
0.0
 20
0.0
  0
HATCH
  5
DA
330
1F
100
AcDbEntity
  8
중심선
100
AcDbHatch
 10
0.0
 20
0.0
 30
0.0
210
0.0
220
0.0
230
1.0
  2
SOLID
 70
     1
 71
     0
 91
        1
 92
        0
 93
        6
 72
     3
 10
-5.624945214660309
 20
-39.99892507132738
 11
3.960054785062284
 21
1.540850780301639E-10
 40
0.3939339440162633
 50
17.09539180608434
 51
320.0019657685086
 73
     0
 72
     1
 10
-3.941945558959714
 20
-38.58681907591443
 11
-1.636643685258649
 21
-36.65249236586649
 72
     3
 10
-5.624945214713156
 20
-39.99892507127625
 11
6.600054785286829
 21
-1.249000902703301E-13
 40
0.6363583540795982
 50
39.99873849337387
 51
368.4976242363725
 73
     1
 72
     1
 10
0.8003872771874532
 20
-39.03892507120613
 11
-6.944877907877234
 21
-39.03892507120613
 72
     1
 10
-6.944877907877234
 20
-39.03892507120613
 11
-6.944902952323168
 21
-40.95892507120602
 72
     1
 10
-6.944902952323168
 20
-40.95892507120602
 11
-2.50352318285113
 21
-40.95892507120599
 97
        0
 75
     0
 76
     1
 98
        1
 10
0.0
 20
0.0
  0
LINE
  5
12D
330
1F
100
AcDbEntity
  8
참조1
100
AcDbLine
 10
83.30561285443832
 20
7.441074928723896
 30
0.0
 11
83.30561285443832
 21
-7.438925071276109
 31
0.0
  0
LINE
  5
12E
330
1F
100
AcDbEntity
  8
참조1
100
AcDbLine
 10
96.00561285443833
 20
5.441074928723896
 30
0.0
 11
83.30561285443832
 21
5.441074928723896
 31
0.0
  0
SOLID
  5
12F
330
1F
100
AcDbEntity
  8
참조1
100
AcDbTrace
 10
83.30561285443832
 20
5.441074928723896
 30
0.0
 11
89.65561285443832
 21
4.425074928723896
 31
0.0
 12
89.65561285443832
 22
6.457074928723896
 32
0.0
 13
89.65561285443832
 23
6.457074928723896
 33
0.0
  0
LINE
  5
130
330
1F
100
AcDbEntity
  8
참조1
100
AcDbLine
 10
96.00561285443833
 20
-5.438925071276109
 30
0.0
 11
83.30561285443832
 21
-5.438925071276109
 31
0.0
  0
SOLID
  5
131
330
1F
100
AcDbEntity
  8
참조1
100
AcDbTrace
 10
83.30561285443832
 20
-5.438925071276109
 30
0.0
 11
89.65561285443832
 21
-6.454925071276109
 31
0.0
 12
89.65561285443832
 22
-4.422925071276109
 32
0.0
 13
89.65561285443832
 23
-4.422925071276109
 33
0.0
  0
MTEXT
  5
132
330
1F
100
AcDbEntity
  8
참조1
100
AcDbMText
 10
92.7031029469086
 20
10.98929157337383
 30
0.0
 40
3.5
 41
0.0
 71
     1
 72
     1
  1
A
  7
SLDTEXTSTYLE0
 73
     1
 44
1.0
  0
MTEXT
  5
133
330
1F
100
AcDbEntity
  8
참조1
100
AcDbMText
 10
92.7031029469086
 20
0.1092915733738251
 30
0.0
 40
3.5
 41
0.0
 71
     1
 72
     1
  1
A
  7
SLDTEXTSTYLE0
 73
     1
 44
1.0
  0
LINE
  5
24D
330
1F
100
AcDbEntity
  8
외형선
  6
Continuous
370
    15
100
AcDbLine
 10
2.0
 20
3.175000000000001
 30
0.0
 11
-41.06536934298443
 21
3.175000000000001
 31
0.0
  0
LINE
  5
24E
330
1F
100
AcDbEntity
  8
외형선
  6
Continuous
370
    15
100
AcDbLine
 10
-41.06536934298443
 20
-3.175000000000001
 30
0.0
 11
2.0
 21
-3.174999999999997
 31
0.0
  0
LINE
  5
24F
330
1F
100
AcDbEntity
  8
외형선
  6
Continuous
370
    15
100
AcDbLine
 10
2.0
 20
-3.174999999999997
 30
0.0
 11
7.92463065701557
 21
-1.587499999999999
 31
0.0
  0
LINE
  5
250
330
1F
100
AcDbEntity
  8
외형선
  6
Continuous
370
    15
100
AcDbLine
 10
7.92463065701557
 20
1.587500000000002
 30
0.0
 11
2.0
 21
3.175000000000001
 31
0.0
  0
LINE
  5
251
330
1F
100
AcDbEntity
  8
외형선
  6
Continuous
370
    15
100
AcDbLine
 10
-41.06536934298443
 20
3.174999999999994
 30
0.0
 11
-41.87536934298443
 21
2.364999999999991
 31
0.0
  0
LINE
  5
252
330
1F
100
AcDbEntity
  8
외형선
  6
Continuous
370
    15
100
AcDbLine
 10
-41.87536934298443
 20
-2.364999999999998
 30
0.0
 11
-41.06536934298443
 21
-3.174999999999997
 31
0.0
  0
LINE
  5
253
330
1F
100
AcDbEntity
  8
외형선
  6
Continuous
370
    15
100
AcDbLine
 10
8.03468632701447
 20
1.587500000000002
 30
0.0
 11
7.92463065701557
 21
1.587500000000002
 31
0.0
  0
LINE
  5
254
330
1F
100
AcDbEntity
  8
외형선
  6
Continuous
370
    15
100
AcDbLine
 10
7.92463065701557
 20
-1.587499999999999
 30
0.0
 11
8.03468632701447
 21
-1.587499999999999
 31
0.0
  0
LINE
  5
255
330
1F
100
AcDbEntity
  8
외형선
  6
Continuous
370
    15
100
AcDbLine
 10
8.252528099078546
 20
-1.32076283574489
 30
0.0
 11
8.92463065701557
 21
-1.266908114671473
 31
0.0
  0
LINE
  5
256
330
1F
100
AcDbEntity
  8
0
  6
Continuous
 62
     1
370
    15
100
AcDbLine
 10
11.1605192061557
 20
0.4070643778402214
 30
0.0
 11
10.72251705310092
 21
0.6268319299444798
 31
0.0
  0
SPLINE
  5
257
330
1F
100
AcDbEntity
  8
0
  6
Continuous
 62
     1
370
    15
100
AcDbSpline
210
0.0
220
0.0
230
1.0
 70
     8
 71
     3
 72
    10
 73
     6
 74
     0
 42
0.000000001
 43
0.00000001
 40
0.0
 40
0.0
 40
0.0
 40
0.0
 40
0.5819029339332282
 40
0.8245230948297528
 40
1.0
 40
1.0
 40
1.0
 40
1.0
 10
10.63771298373825
 20
1.261503086921973
 30
0.0
 10
10.38069621138172
 20
1.251692148620837
 30
0.0
 10
10.01651818063328
 20
1.237790611543925
 30
0.0
 10
9.576543694677696
 20
1.239749460646632
 30
0.0
 10
9.392257745903436
 20
1.248052527505369
 30
0.0
 10
9.314912242713234
 20
1.251537355776225
 30
0.0
  0
SPLINE
  5
258
330
1F
100
AcDbEntity
  8
0
  6
Continuous
 62
     1
370
    15
100
AcDbSpline
210
0.0
220
0.0
230
1.0
 70
     8
 71
     3
 72
    19
 73
    15
 74
     0
 42
0.000000001
 43
0.00000001
 40
0.0
 40
0.0
 40
0.0
 40
0.0
 40
0.1263828972566892
 40
0.2217084605865011
 40
0.3040963908056158
 40
0.3934491032396291
 40
0.4828873629660316
 40
0.5457337410170454
 40
0.6060228445604239
 40
0.6636138865141479
 40
0.7189449772761818
 40
0.7755764452029552
 40
0.8666920640666157
 40
1.0
 40
1.0
 40
1.0
 40
1.0
 10
14.68876560561844
 20
1.086167676208742
 30
0.0
 10
14.57084535091872
 20
1.076977774773045
 30
0.0
 10
14.36398256561361
 20
1.060856298335356
 30
0.0
 10
14.08290765090203
 20
1.049285521616756
 30
0.0
 10
13.83708796437642
 20
1.04425073869211
 30
0.0
 10
13.59519852705537
 20
1.044671851826163
 30
0.0
 10
13.37181863517992
 20
1.050270096362137
 30
0.0
 10
13.17492128680627
 20
1.058966511927519
 30
0.0
 10
13.00757560581059
 20
1.068927582842473
 30
0.0
 10
12.84720415911485
 20
1.080827108363753
 30
0.0
 10
12.69037735097717
 20
1.094713145363823
 30
0.0
 10
12.50251716931285
 20
1.113987576757086
 30
0.0
 10
12.24252316145223
 20
1.144412401817707
 30
0.0
 10
12.0343414121775
 20
1.175557312159544
 30
0.0
 10
11.91068113364787
 20
1.194057436695292
 30
0.0
  0
SPLINE
  5
259
330
1F
100
AcDbEntity
  8
0
  6
Continuous
 62
     1
370
    15
100
AcDbSpline
210
0.0
220
0.0
230
1.0
 70
     8
 71
     3
 72
    14
 73
    10
 74
     0
 42
0.000000001
 43
0.00000001
 40
0.0
 40
0.0
 40
0.0
 40
0.0
 40
0.2784635619230803
 40
0.4817224407490659
 40
0.6109123556105784
 40
0.7223407405665963
 40
0.8377674570354652
 40
0.9573704770909008
 40
0.9999999999999999
 40
0.9999999999999999
 40
0.9999999999999999
 40
0.9999999999999999
 10
11.91068113364787
 20
-1.194057436695285
 30
0.0
 10
12.02098112374784
 20
-1.177462943342196
 30
0.0
 10
12.21179237416285
 20
-1.148755633179825
 30
0.0
 10
12.45317649539669
 20
-1.119589878421355
 30
0.0
 10
12.62851841552541
 20
-1.100879883693349
 30
0.0
 10
12.76909991434505
 20
-1.087529954961987
 30
0.0
 10
12.90600970184241
 20
-1.076363408089406
 30
0.0
 10
13.0157823995537
 20
-1.068417599777611
 30
0.0
 10
13.07992972954946
 20
-1.064876296535886
 30
0.0
 10
13.09678559597208
 20
-1.063945755320709
 30
0.0
  0
SPLINE
  5
25A
330
1F
100
AcDbEntity
  8
0
  6
Continuous
 62
     1
370
    15
100
AcDbSpline
210
0.0
220
0.0
230
1.0
 70
     8
 71
     3
 72
    10
 73
     6
 74
     0
 42
0.000000001
 43
0.00000001
 40
0.0
 40
0.0
 40
0.0
 40
0.0
 40
0.4007550851674421
 40
0.5776040122108483
 40
0.9999999999999999
 40
0.9999999999999999
 40
0.9999999999999999
 40
0.9999999999999999
 10
8.92463065701557
 20
-1.266908114671473
 30
0.0
 10
9.153560080809001
 20
-1.256125980815082
 30
0.0
 10
9.483513607514652
 20
-1.240585806763278
 30
0.0
 10
10.05392739004193
 20
-1.238036095677757
 30
0.0
 10
10.39634765481136
 20
-1.251800692546801
 30
0.0
 10
10.63771298373825
 20
-1.261503086921966
 30
0.0
  0
LINE
  5
25B
330
1F
100
AcDbEntity
  8
외형선
  6
Continuous
370
    15
100
AcDbLine
 10
2.0
 20
3.175000000000001
 30
0.0
 11
2.0
 21
-3.175000000000001
 31
0.0
  0
LINE
  5
25C
330
1F
100
AcDbEntity
  8
외형선
  6
Continuous
370
    15
100
AcDbLine
 10
-41.06536934298443
 20
3.174999999999994
 30
0.0
 11
-41.06536934298443
 21
-3.175000000000001
 31
0.0
  0
LINE
  5
25D
330
1F
100
AcDbEntity
  8
외형선
  6
Continuous
370
    15
100
AcDbLine
 10
7.92463065701557
 20
1.587500000000002
 30
0.0
 11
7.92463065701557
 21
-1.587499999999999
 31
0.0
  0
LINE
  5
25E
330
1F
100
AcDbEntity
  8
외형선
  6
Continuous
370
    15
100
AcDbLine
 10
-41.87536934298443
 20
2.364999999999998
 30
0.0
 11
-41.87536934298443
 21
-2.364999999999998
 31
0.0
  0
SPLINE
  5
25F
330
1F
100
AcDbEntity
  8
외형선
  6
Continuous
370
    15
100
AcDbSpline
210
0.0
220
0.0
230
1.0
 70
     8
 71
     3
 72
    10
 73
     6
 74
     0
 42
0.000000001
 43
0.00000001
 40
0.0
 40
0.0
 40
0.0
 40
0.0
 40
0.5
 40
0.5
 40
1.0
 40
1.0
 40
1.0
 40
1.0
 10
8.92463065701537
 20
1.384643168999727
 30
0.0
 10
8.775661916114728
 20
1.426583815148785
 30
0.0
 10
8.625852321883542
 20
1.462502559213785
 30
0.0
 10
8.330398121031607
 20
1.520997363537344
 30
0.0
 10
8.183801988719807
 20
1.543699769355943
 30
0.0
 10
8.034744732049518
 20
1.559684231217869
 30
0.0
  0
LINE
  5
260
330
1F
100
AcDbEntity
  8
외형선
  6
Continuous
370
    15
100
AcDbLine
 10
8.92463065701557
 20
1.384643168999663
 30
0.0
 11
8.92463065701557
 21
1.116339895972072
 31
0.0
  0
SPLINE
  5
261
330
1F
100
AcDbEntity
  8
외형선
  6
Continuous
370
    15
100
AcDbSpline
210
0.0
220
0.0
230
1.0
 70
     8
 71
     3
 72
    10
 73
     6
 74
     0
 42
0.000000001
 43
0.00000001
 40
0.0
 40
0.0
 40
0.0
 40
0.0
 40
0.5
 40
0.5
 40
1.0
 40
1.0
 40
1.0
 40
1.0
 10
8.92463065701537
 20
1.116339895972157
 30
0.0
 10
8.775652187728468
 20
1.177308820870547
 30
0.0
 10
8.625832756586107
 20
1.233472039202436
 30
0.0
 10
8.330359802575686
 20
1.334079591072612
 30
0.0
 10
8.183753493796104
 20
1.37868685525056
 30
0.0
 10
8.03468632701447
 20
1.417321877315789
 30
0.0
  0
SPLINE
  5
262
330
1F
100
AcDbEntity
  8
외형선
  6
Continuous
370
    15
100
AcDbSpline
210
0.0
220
0.0
230
1.0
 70
     8
 71
     3
 72
    10
 73
     6
 74
     0
 42
0.000000001
 43
0.00000001
 40
0.0
 40
0.0
 40
0.0
 40
0.0
 40
0.5
 40
0.5
 40
1.0
 40
1.0
 40
1.0
 40
1.0
 10
8.92463065701537
 20
-1.38464316899972
 30
0.0
 10
8.775661916114728
 20
-1.426583815148781
 30
0.0
 10
8.625852321883542
 20
-1.462502559213778
 30
0.0
 10
8.330398121031607
 20
-1.520997363537337
 30
0.0
 10
8.183801988719807
 20
-1.543699769355936
 30
0.0
 10
8.034744732049518
 20
-1.559684231217862
 30
0.0
  0
LINE
  5
263
330
1F
100
AcDbEntity
  8
외형선
  6
Continuous
370
    15
100
AcDbLine
 10
8.03468632701447
 20
1.559696910107323
 30
0.0
 11
8.03468632701447
 21
1.587500000000002
 31
0.0
  0
LINE
  5
264
330
1F
100
AcDbEntity
  8
외형선
  6
Continuous
370
    15
100
AcDbLine
 10
8.03468632701447
 20
-1.587499999999999
 30
0.0
 11
8.03468632701447
 21
1.417566098014408
 31
0.0
  0
SPLINE
  5
265
330
1F
100
AcDbEntity
  8
외형선
  6
Continuous
370
    15
100
AcDbSpline
210
0.0
220
0.0
230
1.0
 70
    24
 71
     3
 72
    10
 73
     6
 74
     0
 42
0.000000001
 43
0.00000001
 40
0.0
 40
0.0
 40
0.0
 40
0.0
 40
0.5
 40
0.5
 40
1.0
 40
1.0
 40
1.0
 40
1.0
 10
8.92463065701557
 20
0.7483007728354423
 30
0.0
 10
8.92463065701557
 20
0.5048166175054121
 30
0.0
 10
8.92463065701557
 20
0.2089013566703422
 30
0.0
 10
8.92463065701557
 20
-0.3908267524472784
 30
0.0
 10
8.92463065701557
 20
-0.6899928556121999
 30
0.0
 10
8.92463065701557
 20
-0.9388990623622213
 30
0.0
  0
SPLINE
  5
266
330
1F
100
AcDbEntity
  8
외형선
  6
Continuous
370
    15
100
AcDbSpline
210
0.0
220
0.0
230
1.0
 70
     8
 71
     3
 72
    10
 73
     6
 74
     0
 42
0.000000001
 43
0.00000001
 40
0.0
 40
0.0
 40
0.0
 40
0.0
 40
0.5
 40
0.5
 40
1.0
 40
1.0
 40
1.0
 40
1.0
 10
8.924630657014774
 20
-0.9388990623619726
 30
0.0
 10
8.77565573832399
 20
-0.8927044224039911
 30
0.0
 10
8.625839897387124
 20
-0.8422887710557241
 30
0.0
 10
8.330373787755121
 20
-0.7350483490626587
 30
0.0
 10
8.183771193139137
 20
-0.6781416823117823
 30
0.0
 10
8.0347076432694
 20
-0.6182054403367943
 30
0.0
  0
SPLINE
  5
267
330
1F
100
AcDbEntity
  8
외형선
  6
Continuous
370
    15
100
AcDbSpline
210
0.0
220
0.0
230
1.0
 70
     8
 71
     3
 72
    10
 73
     6
 74
     0
 42
0.000000001
 43
0.00000001
 40
0.0
 40
0.0
 40
0.0
 40
0.0
 40
0.5
 40
0.5
 40
1.0
 40
1.0
 40
1.0
 40
1.0
 10
8.924630657014234
 20
0.7483007728358402
 30
0.0
 10
8.775654530086001
 20
0.7926773627819195
 30
0.0
 10
8.625837467433058
 20
0.8338391682424096
 30
0.0
 10
8.330369028715978
 20
0.9081836152426597
 30
0.0
 10
8.18376517020576
 20
0.9414833296625282
 30
0.0
 10
8.034700389530741
 20
0.9707081527807624
 30
0.0
  0
SPLINE
  5
268
330
1F
100
AcDbEntity
  8
외형선
  6
Continuous
370
    15
100
AcDbSpline
210
0.0
220
0.0
230
1.0
 70
    24
 71
     3
 72
    10
 73
     6
 74
     0
 42
0.000000001
 43
0.00000001
 40
0.0
 40
0.0
 40
0.0
 40
0.0
 40
0.5
 40
0.5
 40
1.0
 40
1.0
 40
1.0
 40
1.0
 10
8.92463065701557
 20
1.116339895972086
 30
0.0
 10
8.92463065701557
 20
1.077842223049661
 30
0.0
 10
8.92463065701557
 20
1.023813606029105
 30
0.0
 10
8.92463065701557
 20
0.8958893170175024
 30
0.0
 10
8.92463065701557
 20
0.8224126613645026
 30
0.0
 10
8.92463065701557
 20
0.7483007728354494
 30
0.0
  0
LINE
  5
269
330
1F
100
AcDbEntity
  8
외형선
  6
Continuous
370
    15
100
AcDbLine
 10
8.25551549204252
 20
-1.307743031426593
 30
0.0
 11
8.034744732049518
 21
-1.338479367327292
 31
0.0
  0
SPLINE
  5
26A
330
1F
100
AcDbEntity
  8
외형선
  6
Continuous
370
    15
100
AcDbSpline
210
0.0
220
0.0
230
1.0
 70
    24
 71
     3
 72
    11
 73
     7
 74
     0
 42
0.000000001
 43
0.00000001
 40
0.0
 40
0.0
 40
0.0
 40
0.0
 40
0.3662634218065413
 40
0.6324785063583899
 40
0.906413846396933
 40
1.0
 40
1.0
 40
1.0
 40
1.0
 10
8.92463065701557
 20
-0.9388990623622213
 30
0.0
 10
8.92463065701557
 20
-1.009876484448125
 30
0.0
 10
8.92463065701557
 20
-1.132443170699894
 30
0.0
 10
8.92463065701557
 20
-1.228229013750131
 30
0.0
 10
8.92463065701557
 20
-1.268278203065737
 30
0.0
 10
8.92463065701557
 20
-1.263492056800217
 30
0.0
 10
8.92463065701557
 20
-1.262273306258219
 30
0.0
  0
SPLINE
  5
26B
330
1F
100
AcDbEntity
  8
외형선
  6
Continuous
370
    15
100
AcDbSpline
210
0.0
220
0.0
230
1.0
 70
    24
 71
     3
 72
    10
 73
     6
 74
     0
 42
0.000000001
 43
0.00000001
 40
0.0
 40
0.0
 40
0.0
 40
0.0
 40
0.1930989994318915
 40
0.800355742222348
 40
1.0
 40
1.0
 40
1.0
 40
1.0
 10
8.92463065701557
 20
-1.266908114671473
 30
0.0
 10
8.92463065701557
 20
-1.275100274026908
 30
0.0
 10
8.92463065701557
 20
-1.309055094096475
 30
0.0
 10
8.92463065701557
 20
-1.347573761357598
 30
0.0
 10
8.92463065701557
 20
-1.377290599094419
 30
0.0
 10
8.92463065701557
 20
-1.384643168999887
 30
0.0
  0
SPLINE
  5
26C
330
1F
100
AcDbEntity
  8
0
  6
Continuous
 62
     1
370
    15
100
AcDbSpline
210
0.0
220
0.0
230
1.0
 70
     8
 71
     3
 72
    10
 73
     6
 74
     0
 42
0.000000001
 43
0.00000001
 40
0.0
 40
0.0
 40
0.0
 40
0.0
 40
0.2405010948017015
 40
0.617055687640668
 40
1.0
 40
1.0
 40
1.0
 40
1.0
 10
11.32841875240254
 20
-0.1485198426547854
 30
0.0
 10
11.13571786264268
 20
-0.0714311339031219
 30
0.0
 10
10.64130356428871
 20
0.126356016410309
 30
0.0
 10
9.840056926926366
 20
0.4509647396744896
 30
0.0
 10
9.231479415937798
 20
0.6486344253018679
 30
0.0
 10
8.92463065701557
 20
0.7483007728354423
 30
0.0
  0
SPLINE
  5
26D
330
1F
100
AcDbEntity
  8
외형선
  6
Continuous
370
    15
100
AcDbSpline
210
0.0
220
0.0
230
1.0
 70
    24
 71
     3
 72
    10
 73
     6
 74
     0
 42
0.000000001
 43
0.00000001
 40
0.0
 40
0.0
 40
0.0
 40
0.0
 40
0.5
 40
0.5
 40
1.0
 40
1.0
 40
1.0
 40
1.0
 10
8.92463065701557
 20
1.116339895972079
 30
0.0
 10
8.92463065701557
 20
1.077842223049661
 30
0.0
 10
8.92463065701557
 20
1.023813606029105
 30
0.0
 10
8.92463065701557
 20
0.8958893170175024
 30
0.0
 10
8.92463065701557
 20
0.8224126613644991
 30
0.0
 10
8.92463065701557
 20
0.7483007728354494
 30
0.0
  0
SPLINE
  5
26E
330
1F
100
AcDbEntity
  8
0
  6
Continuous
 62
     1
370
    15
100
AcDbSpline
210
0.0
220
0.0
230
1.0
 70
     8
 71
     3
 72
    24
 73
    20
 74
     0
 42
0.000000001
 43
0.00000001
 40
0.3166823541237576
 40
0.3166823541237576
 40
0.3166823541237576
 40
0.3166823541237576
 40
0.375
 40
0.375
 40
0.5000000000000001
 40
0.5000000000000001
 40
0.5625000000000001
 40
0.5625000000000001
 40
0.6250000000000001
 40
0.6250000000000001
 40
0.6875000000000001
 40
0.6875000000000001
 40
0.75
 40
0.75
 40
0.875
 40
0.875
 40
0.9375
 40
0.9375
 40
1.0
 40
1.0
 40
1.0
 40
1.0
 10
13.0891249655576
 20
-1.064368930880331
 30
0.0
 10
12.96990377444962
 20
-1.013513088499607
 30
0.0
 10
12.85079042976662
 20
-0.9597232394709394
 30
0.0
 10
12.48137742648109
 20
-0.7833923065092918
 30
0.0
 10
12.22439610811267
 20
-0.6507062655596734
 30
0.0
 10
11.84401699345435
 20
-0.4426059589570954
 30
0.0
 10
11.71906196123905
 20
-0.3719457391861845
 30
0.0
 10
11.46454732172461
 20
-0.2278448163057902
 30
0.0
 10
11.33630619710053
 20
-0.1546443417950591
 30
0.0
 10
11.08154234611175
 20
-0.0080462067226499
 30
0.0
 10
10.95639543294701
 20
0.0650828620639992
 30
0.0
 10
10.70318973393867
 20
0.211019419603943
 30
0.0
 10
10.57511593561389
 20
0.2838263077751968
 30
0.0
 10
10.19198693913117
 20
0.498607190803142
 30
0.0
 10
9.941593593067552
 20
0.636296971256062
 30
0.0
 10
9.558271567382576
 20
0.829425282564813
 30
0.0
 10
9.43037589745117
 20
0.891350273473595
 30
0.0
 10
9.177994557622412
 20
1.008590975827612
 30
0.0
 10
9.052205169222674
 20
1.064130466710697
 30
0.0
 10
8.92463065701537
 20
1.116339895972157
 30
0.0
  0
SPLINE
  5
26F
330
1F
100
AcDbEntity
  8
0
  6
Continuous
 62
     1
370
    15
100
AcDbSpline
210
0.0
220
0.0
230
1.0
 70
    24
 71
     3
 72
     8
 73
     4
 74
     0
 42
0.000000001
 43
0.00000001
 40
0.0
 40
0.0
 40
0.0
 40
0.0
 40
0.000120322776673
 40
0.000120322776673
 40
0.000120322776673
 40
0.000120322776673
 10
15.27463065701559
 20
-1.252493469684541
 30
0.0
 10
15.27446529109605
 20
-1.252456057896524
 30
0.0
 10
15.27429992517651
 20
-1.252418646108513
 30
0.0
 10
15.27413455925696
 20
-1.252381234316399
 30
0.0
  0
SPLINE
  5
270
330
1F
100
AcDbEntity
  8
0
  6
Continuous
 62
     1
370
    15
100
AcDbSpline
210
0.0
220
0.0
230
1.0
 70
     8
 71
     3
 72
     8
 73
     4
 74
     0
 42
0.000000001
 43
0.00000001
 40
0.0
 40
0.0
 40
0.0
 40
0.0
 40
0.2461389354987885
 40
0.2461389354987885
 40
0.2461389354987885
 40
0.2461389354987885
 10
15.02063065701557
 20
-1.453685101208315
 30
0.0
 10
15.04922151431401
 20
-1.460304866117067
 30
0.0
 10
15.07886320869434
 20
-1.461336596197192
 30
0.0
 10
15.10743163279432
 20
-1.45622097752619
 30
0.0
  0
SPLINE
  5
271
330
1F
100
AcDbEntity
  8
0
  6
Continuous
 62
     1
370
    15
100
AcDbSpline
210
0.0
220
0.0
230
1.0
 70
     8
 71
     3
 72
    30
 73
    26
 74
     0
 42
0.000000001
 43
0.00000001
 40
0.0
 40
0.0
 40
0.0
 40
0.0
 40
0.0625000000000001
 40
0.0625000000000001
 40
0.1250000000000002
 40
0.1250000000000002
 40
0.2500000000000003
 40
0.2500000000000003
 40
0.3750000000000005
 40
0.3750000000000005
 40
0.5000000000000007
 40
0.5000000000000007
 40
0.5625000000000007
 40
0.5625000000000007
 40
0.6250000000000006
 40
0.6250000000000006
 40
0.6875000000000006
 40
0.6875000000000006
 40
0.7500000000000006
 40
0.7500000000000006
 40
0.8750000000000002
 40
0.8750000000000002
 40
0.9375000000000001
 40
0.9375000000000001
 40
1.0
 40
1.0
 40
1.0
 40
1.0
 10
15.02063065701523
 20
-1.453685101208233
 30
0.0
 10
14.89324605610338
 20
-1.424191193340107
 30
0.0
 10
14.76500513370527
 20
-1.389948307434299
 30
0.0
 10
14.51049663476547
 20
-1.312958011614267
 30
0.0
 10
14.3855448805885
 20
-1.270389374119087
 30
0.0
 10
14.00515319387134
 20
-1.130338475409168
 30
0.0
 10
13.74819557080531
 20
-1.020719502064075
 30
0.0
 10
13.24438474862507
 20
-0.7798166300410188
 30
0.0
 10
12.98516553907623
 20
-0.6465532701128325
 30
0.0
 10
12.48137742648106
 20
-0.3694551311085164
 30
0.0
 10
12.22439610811267
 20
-0.2234411914803722
 30
0.0
 10
11.84401699345437
 20
-0.0038532450380195
 30
0.0
 10
11.71906196123905
 20
0.0692354088098668
 30
0.0
 10
11.46454732172461
 20
0.2153877197381178
 30
0.0
 10
11.33630619710053
 20
0.2881927720906603
 30
0.0
 10
11.08154234611177
 20
0.4311664344917645
 30
0.0
 10
10.95639543294703
 20
0.5010867009156712
 30
0.0
 10
10.70318973393867
 20
0.637828864797747
 30
0.0
 10
10.57511593561392
 20
0.7046365952743798
 30
0.0
 10
10.1919869391312
 20
0.8974372397814783
 30
0.0
 10
9.941593593067608
 20
1.015271118687163
 30
0.0
 10
9.558271567382633
 20
1.171551603124332
 30
0.0
 10
9.430375897451228
 20
1.220046348643702
 30
0.0
 10
9.177994557622469
 20
1.308542873774375
 30
0.0
 10
9.05220516922273
 20
1.348725852106401
 30
0.0
 10
8.924630657015427
 20
1.384643168999705
 30
0.0
  0
SPLINE
  5
272
330
1F
100
AcDbEntity
  8
0
  6
Continuous
 62
     1
370
    15
100
AcDbSpline
210
0.0
220
0.0
230
1.0
 70
     8
 71
     3
 72
     8
 73
     4
 74
     0
 42
0.000000001
 43
0.00000001
 40
0.0
 40
0.0
 40
0.0
 40
0.0
 40
1.0
 40
1.0
 40
1.0
 40
1.0
 10
14.29183608069209
 20
0.4445952940611981
 30
0.0
 10
14.22081138594368
 20
0.5287363700799546
 30
0.0
 10
14.15920048241341
 20
0.6091412587437226
 30
0.0
 10
14.11056508670677
 20
0.6839396099711585
 30
0.0
  0
LINE
  5
273
330
1F
100
AcDbEntity
  8
0
  6
Continuous
 62
     1
370
    15
100
AcDbLine
 10
14.11056508670677
 20
0.683939609971155
 30
0.0
 11
15.27463065701559
 21
0.0000000000000036
 31
0.0
  0
LINE
  5
274
330
1F
100
AcDbEntity
  8
0
  6
Continuous
 62
     1
370
    15
100
AcDbLine
 10
15.27463065701559
 20
0.0000000000000036
 30
0.0
 11
15.27463065701559
 21
-0.4242481768220578
 31
0.0
  0
SPLINE
  5
275
330
1F
100
AcDbEntity
  8
0
  6
Continuous
 62
     1
370
    15
100
AcDbSpline
210
0.0
220
0.0
230
1.0
 70
     8
 71
     3
 72
    10
 73
     6
 74
     0
 42
0.000000001
 43
0.00000001
 40
0.0
 40
0.0
 40
0.0
 40
0.0
 40
0.5
 40
0.5
 40
1.0
 40
1.0
 40
1.0
 40
1.0
 10
15.27463065701559
 20
-0.4242481768220578
 30
0.0
 10
15.10449758385042
 20
-0.2904929793873592
 30
0.0
 10
14.93720938773421
 20
-0.1512488725093313
 30
0.0
 10
14.60845881070404
 20
0.1384796766034562
 30
0.0
 10
14.44546699851193
 20
0.2904950568623477
 30
0.0
 10
14.29183608069209
 20
0.4445952940612017
 30
0.0
  0
SPLINE
  5
277
330
1F
100
AcDbEntity
  8
0
  6
Continuous
 62
     1
370
    15
100
AcDbSpline
210
0.0
220
0.0
230
1.0
 70
     8
 71
     3
 72
    12
 73
     8
 74
     0
 42
0.000000001
 43
0.00000001
 40
0.0
 40
0.0
 40
0.0
 40
0.0
 40
0.2261904725015685
 40
0.4737828202395534
 40
0.7214002914958743
 40
0.9690395798156735
 40
1.0
 40
1.0
 40
1.0
 40
1.0
 10
14.29183607407927
 20
0.4445952969289948
 30
0.0
 10
14.01631148301354
 20
0.5596955696336074
 30
0.0
 10
13.43919248964147
 20
0.8007867668411031
 30
0.0
 10
12.5603368034634
 20
1.080917894385149
 30
0.0
 10
11.65536650647323
 20
1.243380796010552
 30
0.0
 10
11.01429541935326
 20
1.298046382419852
 30
0.0
 10
10.67488403528628
 20
1.258497558638066
 30
0.0
 10
10.63716569335949
 20
1.254102549724902
 30
0.0
  0
SPLINE
  5
278
330
1F
100
AcDbEntity
  8
0
  6
Continuous
 62
     1
370
    15
100
AcDbSpline
210
0.0
220
0.0
230
1.0
 70
    24
 71
     3
 72
    10
 73
     6
 74
     0
 42
0.000000001
 43
0.00000001
 40
0.2037185514266657
 40
0.2037185514266657
 40
0.2037185514266657
 40
0.2037185514266657
 40
0.5000000000000003
 40
0.5000000000000003
 40
1.0
 40
1.0
 40
1.0
 40
1.0
 10
15.27463065701559
 20
-1.079499999988659
 30
0.0
 10
15.27463065701559
 20
-1.013133621777431
 30
0.0
 10
15.27463065701559
 20
-0.940059738571069
 30
0.0
 10
15.27463065701559
 20
-0.7284762699622753
 30
0.0
 10
15.27463065701559
 20
-0.5797022157431471
 30
0.0
 10
15.27463065701559
 20
-0.4242481768221111
 30
0.0
  0
LINE
  5
279
330
1F
100
AcDbEntity
  8
0
  6
Continuous
 62
     1
370
    15
100
AcDbLine
 10
15.27364157786479
 20
1.111184793507633
 30
0.0
 11
14.68538570523387
 21
1.072403163100351
 31
0.0
  0
SPLINE
  5
27A
330
1F
100
AcDbEntity
  8
0
  6
Continuous
 62
     1
370
    15
100
AcDbSpline
210
0.0
220
0.0
230
1.0
 70
     8
 71
     3
 72
    10
 73
     6
 74
     0
 42
0.000000001
 43
0.00000001
 40
0.0008240301985064
 40
0.0008240301985064
 40
0.0008240301985064
 40
0.0008240301985064
 40
0.5
 40
0.5
 40
1.0
 40
1.0
 40
1.0
 40
1.0
 10
15.27365404496601
 20
1.110984664064929
 30
0.0
 10
15.07645411505933
 20
1.057394019966623
 30
0.0
 10
14.88052256756833
 20
0.9960581544213376
 30
0.0
 10
14.49202938885136
 20
0.855330594114367
 30
0.0
 10
14.29931996401822
 20
0.7764611478481775
 30
0.0
 10
14.11056508670677
 20
0.6839396099711585
 30
0.0
  0
SPLINE
  5
27B
330
1F
100
AcDbEntity
  8
0
  6
Continuous
 62
     1
370
    15
100
AcDbSpline
210
0.0
220
0.0
230
1.0
 70
     8
 71
     3
 72
    11
 73
     7
 74
     0
 42
0.000000001
 43
0.00000001
 40
0.0
 40
0.0
 40
0.0
 40
0.0
 40
0.0877544155964116
 40
0.3901110654132008
 40
0.6924902867350484
 40
1.0
 40
1.0
 40
1.0
 40
1.0
 10
11.91807017430258
 20
-1.180034740559485
 30
0.0
 10
11.83051041272043
 20
-1.19767328063288
 30
0.0
 10
11.4412646790899
 20
-1.276085171517227
 30
0.0
 10
10.75029672439732
 20
-1.282347604774451
 30
0.0
 10
9.840065191018084
 20
-1.194615294802929
 30
0.0
 10
9.231482004271356
 20
-1.02461449861142
 30
0.0
 10
8.92463065701557
 20
-0.9388990623622213
 30
0.0
  0
SPLINE
  5
27C
330
1F
100
AcDbEntity
  8
외형선
  6
Continuous
370
    15
100
AcDbSpline
210
0.0
220
0.0
230
1.0
 70
    24
 71
     3
 72
    10
 73
     6
 74
     0
 42
0.000000001
 43
0.00000001
 40
0.0
 40
0.0
 40
0.0
 40
0.0
 40
0.5
 40
0.5
 40
1.0
 40
1.0
 40
1.0
 40
1.0
 10
8.92463065701557
 20
0.7483007728354423
 30
0.0
 10
8.92463065701557
 20
0.5048166175054121
 30
0.0
 10
8.92463065701557
 20
0.2089013566703422
 30
0.0
 10
8.92463065701557
 20
-0.3908267524472784
 30
0.0
 10
8.92463065701557
 20
-0.6899928556121999
 30
0.0
 10
8.92463065701557
 20
-0.9388990623622213
 30
0.0
  0
LINE
  5
27D
330
1F
100
AcDbEntity
  8
0
  6
Continuous
 62
     1
370
    15
100
AcDbLine
 10
15.27463065701559
 20
0.0000000000000036
 30
0.0
 11
15.27463065701559
 21
1.079500000000003
 31
0.0
  0
SPLINE
  5
27E
330
1F
100
AcDbEntity
  8
외형선
  6
Continuous
370
    15
100
AcDbSpline
210
0.0
220
0.0
230
1.0
 70
    24
 71
     3
 72
    11
 73
     7
 74
     0
 42
0.000000001
 43
0.00000001
 40
0.0
 40
0.0
 40
0.0
 40
0.0
 40
0.3673601168194776
 40
0.6343723237106427
 40
0.9091279026903429
 40
1.0
 40
1.0
 40
1.0
 40
1.0
 10
8.92463065701557
 20
-0.9388990623622213
 30
0.0
 10
8.92463065701557
 20
-1.009881236436044
 30
0.0
 10
8.92463065701557
 20
-1.132456128612951
 30
0.0
 10
8.92463065701557
 20
-1.228192808618811
 30
0.0
 10
8.92463065701557
 20
-1.268191165425087
 30
0.0
 10
8.92463065701557
 20
-1.263498340036648
 30
0.0
 10
8.92463065701557
 20
-1.262331998118324
 30
0.0
  0
SPLINE
  5
280
330
1F
100
AcDbEntity
  8
0
  6
Continuous
 62
     1
370
    15
100
AcDbSpline
210
0.0
220
0.0
230
1.0
 70
     8
 71
     3
 72
    10
 73
     6
 74
     0
 42
0.000000001
 43
0.00000001
 40
0.0
 40
0.0
 40
0.0
 40
0.0
 40
0.3019387712008419
 40
0.6512418142991679
 40
1.0
 40
1.0
 40
1.0
 40
1.0
 10
13.09698841657953
 20
1.06402485301825
 30
0.0
 10
13.18061216691743
 20
1.143448799729871
 30
0.0
 10
13.48203734475291
 20
1.314755700627583
 30
0.0
 10
13.95414906907357
 20
1.493454978663127
 30
0.0
 10
14.32457519123284
 20
1.546718388325569
 30
0.0
 10
14.76663065701558
 20
1.587500000000002
 30
0.0
  0
LINE
  5
282
330
1F
100
AcDbEntity
  8
0
  6
Continuous
 62
     1
370
    15
100
AcDbLine
 10
9.312171462003619
 20
-1.25247210099247
 30
0.0
 11
8.924630657015427
 21
-1.384643168999702
 31
0.0
  0
SPLINE
  5
283
330
1F
100
AcDbEntity
  8
외형선
  6
Continuous
370
    15
100
AcDbSpline
210
0.0
220
0.0
230
1.0
 70
    24
 71
     3
 72
    11
 73
     7
 74
     0
 42
0.000000001
 43
0.00000001
 40
0.0
 40
0.0
 40
0.0
 40
0.0
 40
0.1958530004568897
 40
0.4982772189295664
 40
0.8010592687691026
 40
1.0
 40
1.0
 40
1.0
 40
1.0
 10
8.92463065701557
 20
-1.266908114671473
 30
0.0
 10
8.92463065701557
 20
-1.275090136121079
 30
0.0
 10
8.92463065701557
 20
-1.295906334410724
 30
0.0
 10
8.92463065701557
 20
-1.327794557502195
 30
0.0
 10
8.92463065701557
 20
-1.358806043181797
 30
0.0
 10
8.92463065701557
 20
-1.377307184446796
 30
0.0
 10
8.92463065701557
 20
-1.384643168999887
 30
0.0
  0
LINE
  5
284
330
1F
100
AcDbEntity
  8
중심선
 48
0.8
100
AcDbLine
 10
-44.87536934298444
 20
0.0
 30
0.0
 11
18.27463065701556
 21
0.0000000000000071
 31
0.0
  0
CIRCLE
  5
285
330
1F
100
AcDbEntity
  8
해칭선
100
AcDbCircle
 10
0.0
 20
0.0
 30
0.0
 40
3.000000000000001
  0
DIMENSION
  5
286
330
1F
100
AcDbEntity
  8
치수문자_일반주서
100
AcDbDimension
  2
*D13
 10
-54.56536934298443
 20
-3.175000000000058
 30
0.0
 11
-54.56536934298444
 21
-0.0000000000000107
 31
0.0
 70
   160
  1
%%c<>
 71
     2
 42
6.349999999999994
 52
-270.0
  3
SLDDIMSTYLE0
100
AcDbAlignedDimension
 13
-41.06536934298441
 23
3.174999999999986
 33
0.0
 14
-41.06536934298441
 24
-3.175000000000008
 34
0.0
 50
90.0000000000002
100
AcDbRotatedDimension
1001
ACAD
1000
DSTYLE
1002
{
1070
   171
1070
     6
1070
   273
1070
     7
1002
}
  0
DIMENSION
  5
287
330
1F
100
AcDbEntity
  8
치수문자_일반주서
100
AcDbDimension
  2
*D14
 10
26.01366495911629
 20
-1.587499999999956
 30
0.0
 11
26.0136649591162
 21
26.39045112069641
 31
0.0
 70
   160
  1
%%c<>
 71
     2
 42
3.175000000000004
 52
-270.0
  3
SLDDIMSTYLE0
100
AcDbAlignedDimension
 13
15.27463065701559
 23
1.587500000000009
 33
0.0
 14
15.27463065701559
 24
-1.587499999999995
 34
0.0
 50
90.0000000000002
100
AcDbRotatedDimension
1001
ACAD
1000
DSTYLE
1002
{
1070
   171
1070
     6
1070
   273
1070
     7
1002
}
  0
DIMENSION
  5
288
330
1F
100
AcDbEntity
  8
치수문자_일반주서
100
AcDbDimension
  2
*D15
 10
8.92463065701557
 20
12.0839755603483
 30
0.0
 11
-9.710619342984415
 21
12.0839755603483
 31
0.0
 70
   160
  1
<>
 71
     2
 42
6.350000000000023
  3
SLDDIMSTYLE0
100
AcDbAlignedDimension
 13
15.27463065701559
 23
1.587500000000002
 33
0.0
 14
8.92463065701557
 24
1.384643168999663
 34
0.0
 50
0.0000000000000321
100
AcDbRotatedDimension
1001
ACAD
1000
DSTYLE
1002
{
1070
   171
1070
     6
1070
   273
1070
     7
1002
}
  0
DIMENSION
  5
289
330
1F
100
AcDbEntity
  8
치수문자_일반주서
100
AcDbDimension
  2
*D16
 10
-41.87536934298443
 20
24.08397556034826
 30
0.0
 11
-13.55753606515741
 21
24.08397556034826
 31
0.0
 70
   160
  1
<>
 71
     2
 42
57.15000000000002
  3
SLDDIMSTYLE0
100
AcDbAlignedDimension
 13
15.27463065701559
 23
1.587500000000002
 33
0.0
 14
-41.87536934298443
 24
2.364999999999998
 34
0.0
100
AcDbRotatedDimension
1001
ACAD
1000
DSTYLE
1002
{
1070
   171
1070
     6
1070
   273
1070
     7
1002
}
  0
INSERT
  5
28A
330
1F
100
AcDbEntity
  8
해칭선
100
AcDbBlockReference
  2
SW_DOWELSYMBOL_0
 10
0.0
 20
0.0
 30
0.0
  0
ARC
  5
2D1
330
1F
100
AcDbEntity
  8
0
  6
Continuous
 62
     1
370
    15
100
AcDbCircle
 10
14.76663065701558
 20
1.079500000000003
 30
0.0
 40
0.5079999999999999
100
AcDbArc
 50
0.0
 51
90.0
  0
ARC
  5
2D3
102
{ACAD_REACTORS
102
}
330
1F
100
AcDbEntity
  8
0
  6
Continuous
 62
     1
370
    15
100
AcDbCircle
 10
14.76663065701558
 20
-1.079499999999989
 30
0.0
 40
0.5079999999999999
100
AcDbArc
 50
270.0
 51
0.0
  0
SPLINE
  5
2D4
330
1F
100
AcDbEntity
  8
0
  6
Continuous
 62
     1
370
    15
100
AcDbSpline
210
0.0
220
0.0
230
1.0
 70
     8
 71
     3
 72
    12
 73
     8
 74
     0
 42
0.000000001
 43
0.00000001
 40
0.006817062528397
 40
0.006817062528397
 40
0.006817062528397
 40
0.006817062528397
 40
0.2194048474737478
 40
0.4388373574265514
 40
0.6582946910863401
 40
0.8777739827867209
 40
1.0
 40
1.0
 40
1.0
 40
1.0
 10
15.24652351431931
 20
-1.246133866631993
 30
0.0
 10
14.95435293849121
 20
-1.180011029283246
 30
0.0
 10
14.36060450641489
 20
-1.044164671343395
 30
0.0
 10
13.46522302323081
 20
-0.6941555632357144
 30
0.0
 10
12.56035561888982
 20
-0.2776244860075998
 30
0.0
 10
11.78907941146934
 20
0.1114528240335488
 30
0.0
 10
11.3194234133932
 20
0.3288911759976649
 30
0.0
 10
11.15143017299647
 20
0.4066676197833452
 30
0.0
  0
SPLINE
  5
2D6
330
1F
100
AcDbEntity
  8
0
  6
Continuous
 62
     1
370
    15
100
AcDbSpline
210
0.0
220
0.0
230
1.0
 70
     8
 71
     3
 72
    10
 73
     6
 74
     4
 42
0.000000001
 43
0.0000000001
 44
0.0
 40
0.0
 40
0.0
 40
0.0
 40
0.0
 40
1.005635994928503
 40
1.34940498510488
 40
1.760470013811359
 40
1.760470013811359
 40
1.760470013811359
 40
1.760470013811359
 10
13.0891249655576
 20
-1.064368930880335
 30
0.0
 10
13.40015643031327
 20
-1.191044977388602
 30
0.0
 10
13.81751162760374
 20
-1.361024263644945
 30
0.0
 10
14.38612545241314
 20
-1.508446684626936
 30
0.0
 10
14.63247463109184
 20
-1.559627901278957
 30
0.0
 10
14.76663065701558
 20
-1.587499999999988
 30
0.0
 11
13.0891249655576
 21
-1.064368930880335
 31
0.0
 11
14.03248784267709
 21
-1.412751244393363
 31
0.0
 11
14.36491748356613
 21
-1.500316377096205
 31
0.0
 11
14.76663065701558
 21
-1.587499999999988
 31
0.0
  0
DIMENSION
  5
2D7
102
{ACAD_REACTORS
102
}
102
{ACAD_XDICTIONARY
360
2D8
102
}
330
1F
100
AcDbEntity
  8
치수문자_일반주서
100
AcDbDimension
  2
*D18
 10
14.76663065701558
 20
-1.079499999999989
 30
0.0
 11
23.7147830351347
 21
-19.95960764218416
 31
0.0
 70
   164
  1
<>
 71
     5
 42
0.5080000000000002
  3
SLDDIMSTYLE0
100
AcDbRadialDimension
 15
14.984196684708
 25
-1.538552310302578
 35
0.0
 40
0.0
1001
ACAD
1000
DSTYLE
1002
{
1070
   171
1070
     3
1002
}
1001
ACAD_DSTYLE_DIMRADIAL_EXTENSION
1070
   387
1070
     1
1070
   388
1040
4.71238898038469
1070
   390
1040
0.0
  0
ENDSEC
  0
SECTION
  2
OBJECTS
  0
DICTIONARY
  5
C
330
0
100
AcDbDictionary
281
     1
  3
ACAD_GROUP
350
D
  3
ACAD_IMAGE_VARS
350
15E
  3
ACAD_LAYOUT
350
1A
  3
ACAD_MLINESTYLE
350
17
  3
ACAD_PLOTSETTINGS
350
19
  3
ACAD_PLOTSTYLENAME
350
E
  3
ACAD_SCALELIST
350
47
  3
APPDATA
350
15C
  3
DWGPROPS
350
2E4
  0
DICTIONARY
  5
212
330
2
100
AcDbDictionary
280
     1
281
     1
  3
ACAD_LAYERSTATES
360
213
  0
DICTIONARY
  5
2D8
330
2D7
100
AcDbDictionary
280
     1
281
     1
  0
DICTIONARY
  5
D
102
{ACAD_REACTORS
330
C
102
}
330
C
100
AcDbDictionary
281
     1
  0
RASTERVARIABLES
  5
15E
102
{ACAD_REACTORS
330
C
102
}
330
C
100
AcDbRasterVariables
 90
        0
 70
     1
 71
     1
 72
     1
  0
DICTIONARY
  5
1A
102
{ACAD_REACTORS
330
C
102
}
330
C
100
AcDbDictionary
281
     1
  3
Layout1
350
1E
  3
Layout2
350
26
  3
Model
350
22
  0
DICTIONARY
  5
17
102
{ACAD_REACTORS
330
C
102
}
330
C
100
AcDbDictionary
281
     1
  3
Standard
350
18
  0
DICTIONARY
  5
19
102
{ACAD_REACTORS
330
C
102
}
330
C
100
AcDbDictionary
281
     1
  0
ACDBDICTIONARYWDFLT
  5
E
102
{ACAD_REACTORS
330
C
102
}
330
C
100
AcDbDictionary
281
     1
  3
Normal
350
F
100
AcDbDictionaryWithDefault
340
F
  0
DICTIONARY
  5
47
102
{ACAD_REACTORS
330
C
102
}
330
C
100
AcDbDictionary
281
     1
  3
A0
350
48
  3
A1
350
49
  3
A2
350
4A
  3
A3
350
4B
  3
A4
350
4C
  3
A5
350
4D
  3
A6
350
4E
  3
A7
350
4F
  3
A8
350
50
  3
A9
350
51
  3
B0
350
52
  3
B1
350
53
  3
B2
350
54
  3
B3
350
55
  3
B4
350
56
  3
B5
350
57
  3
B6
350
58
  3
B7
350
59
  3
B8
350
5A
  3
B9
350
5B
  3
C0
350
5C
  3
C1
350
5D
  3
C2
350
5E
  3
C3
350
5F
  3
C4
350
60
  3
C5
350
61
  3
C6
350
62
  3
C7
350
63
  3
C8
350
64
  3
C9
350
65
  3
D0
350
66
  3
D1
350
67
  3
D2
350
68
  0
DICTIONARY
  5
15C
102
{ACAD_REACTORS
330
C
102
}
330
C
100
AcDbDictionary
281
     1
  0
XRECORD
  5
2E4
102
{ACAD_REACTORS
330
C
102
}
330
C
100
AcDbXrecord
280
     1
  1
DWGPROPS COOKIE
  2

  3

  4

  6

  7

  8
12017012
  9

300
=
301
=
302
=
303
=
304
=
305
=
306
=
307
=
308
=
309
=
 40
0.0
 41
2458288.276249931
 42
2458295.399004479
  1

 90
        0
  0
DICTIONARY
  5
213
102
{ACAD_REACTORS
330
212
102
}
330
212
100
AcDbDictionary
281
     1
  0
LAYOUT
  5
1E
102
{ACAD_REACTORS
330
1A
102
}
330
1A
100
AcDbPlotSettings
  1

  2
none_device
  4

  6

 40
0.0
 41
0.0
 42
0.0
 43
0.0
 44
0.0
 45
0.0
 46
0.0
 47
0.0
 48
0.0
 49
0.0
140
0.0
141
0.0
142
1.0
143
1.0
 70
   688
 72
     1
 73
     0
 74
     5
  7

 75
    16
147
1.0
148
0.0
149
0.0
100
AcDbLayout
  1
Layout1
 70
     1
 71
     1
 10
0.0
 20
0.0
 11
420.0
 21
297.0
 12
0.0
 22
0.0
 32
0.0
 14
1.000000000000000E+20
 24
1.000000000000000E+20
 34
1.000000000000000E+20
 15
-1.000000000000000E+20
 25
-1.000000000000000E+20
 35
-1.000000000000000E+20
146
0.0
 13
0.0
 23
0.0
 33
0.0
 16
1.0
 26
0.0
 36
0.0
 17
0.0
 27
1.0
 37
0.0
 76
     0
330
1B
  0
LAYOUT
  5
26
102
{ACAD_REACTORS
330
1A
102
}
330
1A
100
AcDbPlotSettings
  1

  2
none_device
  4

  6

 40
0.0
 41
0.0
 42
0.0
 43
0.0
 44
0.0
 45
0.0
 46
0.0
 47
0.0
 48
0.0
 49
0.0
140
0.0
141
0.0
142
1.0
143
1.0
 70
   688
 72
     1
 73
     0
 74
     5
  7

 75
    16
147
1.0
148
0.0
149
0.0
100
AcDbLayout
  1
Layout2
 70
     1
 71
     2
 10
0.0
 20
0.0
 11
0.0
 21
0.0
 12
0.0
 22
0.0
 32
0.0
 14
0.0
 24
0.0
 34
0.0
 15
0.0
 25
0.0
 35
0.0
146
0.0
 13
0.0
 23
0.0
 33
0.0
 16
1.0
 26
0.0
 36
0.0
 17
0.0
 27
1.0
 37
0.0
 76
     0
330
23
  0
LAYOUT
  5
22
102
{ACAD_REACTORS
330
1A
102
}
330
1A
100
AcDbPlotSettings
  1

  2
none_device
  4
ANSI_A_(11.00_x_8.50_Inches)
  6

 40
6.35
 41
19.05
 42
6.35000508
 43
19.05000254
 44
279.4
 45
215.9
 46
105.9784203771275
 47
102.5890985299606
 48
0.0
 49
0.0
140
0.0
141
0.0
142
0.0679399979966217
143
1.0
 70
  1696
 72
     0
 73
     0
 74
     0
  7

 75
     0
147
0.0235690232323232
148
0.0
149
0.0
100
AcDbLayout
  1
Model
 70
     1
 71
     0
 10
0.0
 20
0.0
 11
420.0
 21
297.0
 12
0.0
 22
0.0
 32
0.0
 14
1.000000000000000E+20
 24
1.000000000000000E+20
 34
1.000000000000000E+20
 15
-1.000000000000000E+20
 25
-1.000000000000000E+20
 35
-1.000000000000000E+20
146
0.0
 13
0.0
 23
0.0
 33
0.0
 16
1.0
 26
0.0
 36
0.0
 17
0.0
 27
1.0
 37
0.0
 76
     0
330
1F
331
29
  0
MLINESTYLE
  5
18
102
{ACAD_REACTORS
330
17
102
}
330
17
100
AcDbMlineStyle
  2
Standard
 70
     0
  3

 62
   256
 51
90.0
 52
90.0
 71
     2
 49
0.5
 62
   256
  6
BYLAYER
 49
-0.5
 62
   256
  6
BYLAYER
  0
ACDBPLACEHOLDER
  5
F
102
{ACAD_REACTORS
330
E
102
}
330
E
  0
SCALE
  5
48
102
{ACAD_REACTORS
330
47
102
}
330
47
100
AcDbScale
 70
     0
300
1:1
140
1.0
141
1.0
290
     1
  0
SCALE
  5
49
102
{ACAD_REACTORS
330
47
102
}
330
47
100
AcDbScale
 70
     0
300
1:2
140
1.0
141
2.0
290
     0
  0
SCALE
  5
4A
102
{ACAD_REACTORS
330
47
102
}
330
47
100
AcDbScale
 70
     0
300
1:4
140
1.0
141
4.0
290
     0
  0
SCALE
  5
4B
102
{ACAD_REACTORS
330
47
102
}
330
47
100
AcDbScale
 70
     0
300
1:5
140
1.0
141
5.0
290
     0
  0
SCALE
  5
4C
102
{ACAD_REACTORS
330
47
102
}
330
47
100
AcDbScale
 70
     0
300
1:8
140
1.0
141
8.0
290
     0
  0
SCALE
  5
4D
102
{ACAD_REACTORS
330
47
102
}
330
47
100
AcDbScale
 70
     0
300
1:10
140
1.0
141
10.0
290
     0
  0
SCALE
  5
4E
102
{ACAD_REACTORS
330
47
102
}
330
47
100
AcDbScale
 70
     0
300
1:16
140
1.0
141
16.0
290
     0
  0
SCALE
  5
4F
102
{ACAD_REACTORS
330
47
102
}
330
47
100
AcDbScale
 70
     0
300
1:20
140
1.0
141
20.0
290
     0
  0
SCALE
  5
50
102
{ACAD_REACTORS
330
47
102
}
330
47
100
AcDbScale
 70
     0
300
1:30
140
1.0
141
30.0
290
     0
  0
SCALE
  5
51
102
{ACAD_REACTORS
330
47
102
}
330
47
100
AcDbScale
 70
     0
300
1:40
140
1.0
141
40.0
290
     0
  0
SCALE
  5
52
102
{ACAD_REACTORS
330
47
102
}
330
47
100
AcDbScale
 70
     0
300
1:50
140
1.0
141
50.0
290
     0
  0
SCALE
  5
53
102
{ACAD_REACTORS
330
47
102
}
330
47
100
AcDbScale
 70
     0
300
1:100
140
1.0
141
100.0
290
     0
  0
SCALE
  5
54
102
{ACAD_REACTORS
330
47
102
}
330
47
100
AcDbScale
 70
     0
300
2:1
140
2.0
141
1.0
290
     0
  0
SCALE
  5
55
102
{ACAD_REACTORS
330
47
102
}
330
47
100
AcDbScale
 70
     0
300
4:1
140
4.0
141
1.0
290
     0
  0
SCALE
  5
56
102
{ACAD_REACTORS
330
47
102
}
330
47
100
AcDbScale
 70
     0
300
8:1
140
8.0
141
1.0
290
     0
  0
SCALE
  5
57
102
{ACAD_REACTORS
330
47
102
}
330
47
100
AcDbScale
 70
     0
300
10:1
140
10.0
141
1.0
290
     0
  0
SCALE
  5
58
102
{ACAD_REACTORS
330
47
102
}
330
47
100
AcDbScale
 70
     0
300
100:1
140
100.0
141
1.0
290
     0
  0
SCALE
  5
59
102
{ACAD_REACTORS
330
47
102
}
330
47
100
AcDbScale
 70
     0
300
1/128" = 1'-0"
140
0.0078125
141
12.0
290
     0
  0
SCALE
  5
5A
102
{ACAD_REACTORS
330
47
102
}
330
47
100
AcDbScale
 70
     0
300
1/64" = 1'-0"
140
0.015625
141
12.0
290
     0
  0
SCALE
  5
5B
102
{ACAD_REACTORS
330
47
102
}
330
47
100
AcDbScale
 70
     0
300
1/32" = 1'-0"
140
0.03125
141
12.0
290
     0
  0
SCALE
  5
5C
102
{ACAD_REACTORS
330
47
102
}
330
47
100
AcDbScale
 70
     0
300
1/16" = 1'-0"
140
0.0625
141
12.0
290
     0
  0
SCALE
  5
5D
102
{ACAD_REACTORS
330
47
102
}
330
47
100
AcDbScale
 70
     0
300
3/32" = 1'-0"
140
0.09375
141
12.0
290
     0
  0
SCALE
  5
5E
102
{ACAD_REACTORS
330
47
102
}
330
47
100
AcDbScale
 70
     0
300
1/8" = 1'-0"
140
0.125
141
12.0
290
     0
  0
SCALE
  5
5F
102
{ACAD_REACTORS
330
47
102
}
330
47
100
AcDbScale
 70
     0
300
3/16" = 1'-0"
140
0.1875
141
12.0
290
     0
  0
SCALE
  5
60
102
{ACAD_REACTORS
330
47
102
}
330
47
100
AcDbScale
 70
     0
300
1/4" = 1'-0"
140
0.25
141
12.0
290
     0
  0
SCALE
  5
61
102
{ACAD_REACTORS
330
47
102
}
330
47
100
AcDbScale
 70
     0
300
3/8" = 1'-0"
140
0.375
141
12.0
290
     0
  0
SCALE
  5
62
102
{ACAD_REACTORS
330
47
102
}
330
47
100
AcDbScale
 70
     0
300
1/2" = 1'-0"
140
0.5
141
12.0
290
     0
  0
SCALE
  5
63
102
{ACAD_REACTORS
330
47
102
}
330
47
100
AcDbScale
 70
     0
300
3/4" = 1'-0"
140
0.75
141
12.0
290
     0
  0
SCALE
  5
64
102
{ACAD_REACTORS
330
47
102
}
330
47
100
AcDbScale
 70
     0
300
1" = 1'-0"
140
1.0
141
12.0
290
     0
  0
SCALE
  5
65
102
{ACAD_REACTORS
330
47
102
}
330
47
100
AcDbScale
 70
     0
300
1-1/2" = 1'-0"
140
1.5
141
12.0
290
     0
  0
SCALE
  5
66
102
{ACAD_REACTORS
330
47
102
}
330
47
100
AcDbScale
 70
     0
300
3" = 1'-0"
140
3.0
141
12.0
290
     0
  0
SCALE
  5
67
102
{ACAD_REACTORS
330
47
102
}
330
47
100
AcDbScale
 70
     0
300
6" = 1'-0"
140
6.0
141
12.0
290
     0
  0
SCALE
  5
68
102
{ACAD_REACTORS
330
47
102
}
330
47
100
AcDbScale
 70
     0
300
1'-0" = 1'-0"
140
12.0
141
12.0
290
     0
  0
ENDSEC
  0
EOF
