  0
SECTION
  2
HEADER
  9
$ACADVER
  1
AC1015
  9
$ACADMAINTVER
 70
     6
  9
$DWGCODEPAGE
  3
ANSI_949
  9
$INSBASE
 10
0.0
 20
0.0
 30
0.0
  9
$EXTMIN
 10
1.000000000000000E+20
 20
1.000000000000000E+20
 30
1.000000000000000E+20
  9
$EXTMAX
 10
-1.000000000000000E+20
 20
-1.000000000000000E+20
 30
-1.000000000000000E+20
  9
$LIMMIN
 10
0.0
 20
0.0
  9
$LIMMAX
 10
420.0
 20
297.0
  9
$ORTHOMODE
 70
     1
  9
$REGENMODE
 70
     1
  9
$FILLMODE
 70
     1
  9
$QTEXTMODE
 70
     0
  9
$MIRRTEXT
 70
     1
  9
$LTSCALE
 40
1.0
  9
$ATTMODE
 70
     1
  9
$TEXTSIZE
 40
3.5
  9
$TRACEWID
 40
1.0
  9
$TEXTSTYLE
  7
Standard
  9
$CLAYER
  8
0
  9
$CELTYPE
  6
ByLayer
  9
$CECOLOR
 62
   256
  9
$CELTSCALE
 40
1.0
  9
$DISPSILH
 70
     0
  9
$DIMSCALE
 40
1.0
  9
$DIMASZ
 40
3.302
  9
$DIMEXO
 40
1.0
  9
$DIMDLI
 40
3.75
  9
$DIMRND
 40
0.0
  9
$DIMDLE
 40
0.0
  9
$DIMEXE
 40
1.0
  9
$DIMTP
 40
0.0
  9
$DIMTM
 40
0.0
  9
$DIMTXT
 40
3.5
  9
$DIMCEN
 40
2.5
  9
$DIMTSZ
 40
0.0
  9
$DIMTOL
 70
     0
  9
$DIMLIM
 70
     0
  9
$DIMTIH
 70
     1
  9
$DIMTOH
 70
     1
  9
$DIMSE1
 70
     0
  9
$DIMSE2
 70
     0
  9
$DIMTAD
 70
     1
  9
$DIMZIN
 70
     0
  9
$DIMBLK
  1

  9
$DIMASO
 70
     1
  9
$DIMSHO
 70
     1
  9
$DIMPOST
  1

  9
$DIMAPOST
  1

  9
$DIMALT
 70
     0
  9
$DIMALTD
 70
     3
  9
$DIMALTF
 40
0.0393700787401575
  9
$DIMLFAC
 40
1.0
  9
$DIMTOFL
 70
     1
  9
$DIMTVP
 40
0.0
  9
$DIMTIX
 70
     0
  9
$DIMSOXD
 70
     0
  9
$DIMSAH
 70
     0
  9
$DIMBLK1
  1

  9
$DIMBLK2
  1

  9
$DIMSTYLE
  2
ISO-25
  9
$DIMCLRD
 70
     0
  9
$DIMCLRE
 70
     0
  9
$DIMCLRT
 70
     0
  9
$DIMTFAC
 40
1.0
  9
$DIMGAP
 40
1.524
  9
$DIMJUST
 70
     0
  9
$DIMSD1
 70
     0
  9
$DIMSD2
 70
     0
  9
$DIMTOLJ
 70
     0
  9
$DIMTZIN
 70
     0
  9
$DIMALTZ
 70
     0
  9
$DIMALTTZ
 70
     0
  9
$DIMUPT
 70
     0
  9
$DIMDEC
 70
     2
  9
$DIMTDEC
 70
     2
  9
$DIMALTU
 70
     2
  9
$DIMALTTD
 70
     3
  9
$DIMTXSTY
  7
Standard
  9
$DIMAUNIT
 70
     0
  9
$DIMADEC
 70
     2
  9
$DIMALTRND
 40
0.0
  9
$DIMAZIN
 70
     0
  9
$DIMDSEP
 70
    44
  9
$DIMATFIT
 70
     3
  9
$DIMFRAC
 70
     0
  9
$DIMLDRBLK
  1

  9
$DIMLUNIT
 70
     2
  9
$DIMLWD
 70
    -2
  9
$DIMLWE
 70
    -2
  9
$DIMTMOVE
 70
     0
  9
$LUNITS
 70
     2
  9
$LUPREC
 70
     2
  9
$SKETCHINC
 40
1.0
  9
$FILLETRAD
 40
10.0
  9
$AUNITS
 70
     0
  9
$AUPREC
 70
     2
  9
$MENU
  1
.
  9
$ELEVATION
 40
0.0
  9
$PELEVATION
 40
0.0
  9
$THICKNESS
 40
0.0
  9
$LIMCHECK
 70
     0
  9
$CHAMFERA
 40
0.0
  9
$CHAMFERB
 40
0.0
  9
$CHAMFERC
 40
0.0
  9
$CHAMFERD
 40
0.0
  9
$SKPOLY
 70
     0
  9
$TDCREATE
 40
2458288.650493576
  9
$TDUCREATE
 40
2458288.275493576
  9
$TDUPDATE
 40
2458295.782127604
  9
$TDUUPDATE
 40
2458295.407127604
  9
$TDINDWG
 40
0.0018189468
  9
$TDUSRTIMER
 40
2458295.405309097
  9
$USRTIMER
 70
     1
  9
$ANGBASE
 50
0.0
  9
$ANGDIR
 70
     0
  9
$PDMODE
 70
     0
  9
$PDSIZE
 40
-1.0
  9
$PLINEWID
 40
0.0
  9
$SPLFRAME
 70
     0
  9
$SPLINETYPE
 70
     6
  9
$SPLINESEGS
 70
     8
  9
$HANDSEED
  5
2A6
  9
$SURFTAB1
 70
     6
  9
$SURFTAB2
 70
     6
  9
$SURFTYPE
 70
     6
  9
$SURFU
 70
     6
  9
$SURFV
 70
     6
  9
$UCSBASE
  2

  9
$UCSNAME
  2

  9
$UCSORG
 10
0.0
 20
0.0
 30
0.0
  9
$UCSXDIR
 10
1.0
 20
0.0
 30
0.0
  9
$UCSYDIR
 10
0.0
 20
1.0
 30
0.0
  9
$UCSORTHOREF
  2

  9
$UCSORTHOVIEW
 70
     0
  9
$UCSORGTOP
 10
0.0
 20
0.0
 30
0.0
  9
$UCSORGBOTTOM
 10
0.0
 20
0.0
 30
0.0
  9
$UCSORGLEFT
 10
0.0
 20
0.0
 30
0.0
  9
$UCSORGRIGHT
 10
0.0
 20
0.0
 30
0.0
  9
$UCSORGFRONT
 10
0.0
 20
0.0
 30
0.0
  9
$UCSORGBACK
 10
0.0
 20
0.0
 30
0.0
  9
$PUCSBASE
  2

  9
$PUCSNAME
  2

  9
$PUCSORG
 10
0.0
 20
0.0
 30
0.0
  9
$PUCSXDIR
 10
1.0
 20
0.0
 30
0.0
  9
$PUCSYDIR
 10
0.0
 20
1.0
 30
0.0
  9
$PUCSORTHOREF
  2

  9
$PUCSORTHOVIEW
 70
     0
  9
$PUCSORGTOP
 10
0.0
 20
0.0
 30
0.0
  9
$PUCSORGBOTTOM
 10
0.0
 20
0.0
 30
0.0
  9
$PUCSORGLEFT
 10
0.0
 20
0.0
 30
0.0
  9
$PUCSORGRIGHT
 10
0.0
 20
0.0
 30
0.0
  9
$PUCSORGFRONT
 10
0.0
 20
0.0
 30
0.0
  9
$PUCSORGBACK
 10
0.0
 20
0.0
 30
0.0
  9
$USERI1
 70
     0
  9
$USERI2
 70
     0
  9
$USERI3
 70
     0
  9
$USERI4
 70
     0
  9
$USERI5
 70
     0
  9
$USERR1
 40
0.0
  9
$USERR2
 40
0.0
  9
$USERR3
 40
0.0
  9
$USERR4
 40
0.0
  9
$USERR5
 40
0.0
  9
$WORLDVIEW
 70
     1
  9
$SHADEDGE
 70
     3
  9
$SHADEDIF
 70
    70
  9
$TILEMODE
 70
     1
  9
$MAXACTVP
 70
    64
  9
$PINSBASE
 10
0.0
 20
0.0
 30
0.0
  9
$PLIMCHECK
 70
     0
  9
$PEXTMIN
 10
1.000000000000000E+20
 20
1.000000000000000E+20
 30
1.000000000000000E+20
  9
$PEXTMAX
 10
-1.000000000000000E+20
 20
-1.000000000000000E+20
 30
-1.000000000000000E+20
  9
$PLIMMIN
 10
0.0
 20
0.0
  9
$PLIMMAX
 10
0.0
 20
0.0
  9
$UNITMODE
 70
     0
  9
$VISRETAIN
 70
     1
  9
$PLINEGEN
 70
     0
  9
$PSLTSCALE
 70
     1
  9
$TREEDEPTH
 70
  3020
  9
$CMLSTYLE
  2
Standard
  9
$CMLJUST
 70
     0
  9
$CMLSCALE
 40
20.0
  9
$PROXYGRAPHICS
 70
     1
  9
$MEASUREMENT
 70
     1
  9
$CELWEIGHT
370
    -1
  9
$ENDCAPS
280
     0
  9
$JOINSTYLE
280
     0
  9
$LWDISPLAY
290
     1
  9
$INSUNITS
 70
     4
  9
$HYPERLINKBASE
  1

  9
$STYLESHEET
  1

  9
$XEDIT
290
     1
  9
$CEPSNTYPE
380
     0
  9
$PSTYLEMODE
290
     1
  9
$FINGERPRINTGUID
  2
{87351C10-1642-4295-87C6-025D1D6A0F5A}
  9
$VERSIONGUID
  2
{FAEB1C32-E019-11D5-929B-00C0DF256EC4}
  9
$EXTNAMES
290
     1
  9
$PSVPSCALE
 40
0.0
  9
$OLESTARTUP
290
     0
  0
ENDSEC
  0
SECTION
  2
CLASSES
  0
CLASS
  1
ACDBDICTIONARYWDFLT
  2
AcDbDictionaryWithDefault
  3
ObjectDBX Classes
 90
        0
280
     0
281
     0
  0
CLASS
  1
VISUALSTYLE
  2
AcDbVisualStyle
  3
ObjectDBX Classes
 90
     4095
280
     0
281
     0
  0
CLASS
  1
MATERIAL
  2
AcDbMaterial
  3
ObjectDBX Classes
 90
     1153
280
     0
281
     0
  0
CLASS
  1
SCALE
  2
AcDbScale
  3
ObjectDBX Classes
 90
     1153
280
     0
281
     0
  0
CLASS
  1
SUN
  2
AcDbSun
  3
SCENEOE
 90
     1153
280
     0
281
     0
  0
CLASS
  1
ACDBPLACEHOLDER
  2
AcDbPlaceHolder
  3
ObjectDBX Classes
 90
        0
280
     0
281
     0
  0
CLASS
  1
LAYOUT
  2
AcDbLayout
  3
ObjectDBX Classes
 90
        0
280
     0
281
     0
  0
CLASS
  1
TABLESTYLE
  2
AcDbTableStyle
  3
ObjectDBX Classes
 90
     4095
280
     0
281
     0
  0
CLASS
  1
MLEADERSTYLE
  2
AcDbMLeaderStyle
  3
ACDB_MLEADERSTYLE_CLASS
 90
     4095
280
     0
281
     0
  0
CLASS
  1
RASTERVARIABLES
  2
AcDbRasterVariables
  3
ISM
 90
        0
280
     0
281
     0
  0
CLASS
  1
DIMASSOC
  2
AcDbDimAssoc
  3
"AcDbDimAssoc|Product Desc:     AcDim ARX App For Dimension|Company:          Autodesk, Inc.|WEB Address:      www.autodesk.com"
 90
        0
280
     0
281
     0
  0
ENDSEC
  0
SECTION
  2
TABLES
  0
TABLE
  2
VPORT
  5
8
330
0
100
AcDbSymbolTable
 70
     1
  0
VPORT
  5
29
330
8
100
AcDbSymbolTableRecord
100
AcDbViewportTableRecord
  2
*Active
 70
     0
 10
0.0
 20
0.0
 11
1.0
 21
1.0
 12
-55.04652647999905
 22
-27.53367540994655
 13
0.0
 23
0.0
 14
10.0
 24
10.0
 15
10.0
 25
10.0
 16
0.0
 26
0.0
 36
1.0
 17
0.0
 27
0.0
 37
0.0
 40
191.6252872093183
 41
1.798434442270059
 42
50.0
 43
0.0
 44
0.0
 50
0.0
 51
0.0
 71
    16
 72
  2000
 73
     1
 74
     3
 75
     0
 76
     0
 77
     0
 78
     0
281
     0
 65
     1
110
0.0
120
0.0
130
0.0
111
1.0
121
0.0
131
0.0
112
0.0
122
1.0
132
0.0
 79
     0
146
0.0
  0
ENDTAB
  0
TABLE
  2
LTYPE
  5
5
330
0
100
AcDbSymbolTable
 70
     6
  0
LTYPE
  5
14
330
5
100
AcDbSymbolTableRecord
100
AcDbLinetypeTableRecord
  2
ByBlock
 70
     0
  3

 72
    65
 73
     0
 40
0.0
  0
LTYPE
  5
15
330
5
100
AcDbSymbolTableRecord
100
AcDbLinetypeTableRecord
  2
ByLayer
 70
     0
  3

 72
    65
 73
     0
 40
0.0
  0
LTYPE
  5
16
330
5
100
AcDbSymbolTableRecord
100
AcDbLinetypeTableRecord
  2
Continuous
 70
     0
  3
Solid line
 72
    65
 73
     0
 40
0.0
  0
LTYPE
  5
6A
330
5
100
AcDbSymbolTableRecord
100
AcDbLinetypeTableRecord
  2
HIDDEN
 70
     0
  3
Hidden __ __ __ __ __ __ __ __ __ __ __ __ __ __
 72
    65
 73
     2
 40
1.905
 49
1.27
 74
     0
 49
-0.635
 74
     0
  0
LTYPE
  5
6B
330
5
100
AcDbSymbolTableRecord
100
AcDbLinetypeTableRecord
  2
PHANTOM
 70
     0
  3
Phantom ______  __  __  ______  __  __  ______
 72
    65
 73
     6
 40
12.7
 49
6.35
 74
     0
 49
-1.27
 74
     0
 49
1.27
 74
     0
 49
-1.27
 74
     0
 49
1.27
 74
     0
 49
-1.27
 74
     0
  0
LTYPE
  5
6C
330
5
100
AcDbSymbolTableRecord
100
AcDbLinetypeTableRecord
  2
CENTER
 70
     0
  3
Center ____ _ ____ _ ____ _ ____ _ ____ _ ____
 72
    65
 73
     4
 40
10.16
 49
6.35
 74
     0
 49
-1.27
 74
     0
 49
1.27
 74
     0
 49
-1.27
 74
     0
  0
LTYPE
  5
6D
330
5
100
AcDbSymbolTableRecord
100
AcDbLinetypeTableRecord
  2
CENTERX2
 70
     0
  3
Center (2x) ________  __  ________  __  _____
 72
    65
 73
     4
 40
20.32
 49
12.7
 74
     0
 49
-2.54
 74
     0
 49
2.54
 74
     0
 49
-2.54
 74
     0
  0
LTYPE
  5
6E
330
5
100
AcDbSymbolTableRecord
100
AcDbLinetypeTableRecord
  2
DOT2
 70
     0
  3
Dot (.5x) ........................................
 72
    65
 73
     2
 40
0.635
 49
0.0
 74
     0
 49
-0.635
 74
     0
  0
ENDTAB
  0
TABLE
  2
LAYER
  5
2
102
{ACAD_XDICTIONARY
360
209
102
}
330
0
100
AcDbSymbolTable
 70
    18
  0
LAYER
  5
10
330
2
100
AcDbSymbolTableRecord
100
AcDbLayerTableRecord
  2
0
 70
     0
 62
     7
  6
Continuous
370
    -3
390
F
  0
LAYER
  5
6F
330
2
100
AcDbSymbolTableRecord
100
AcDbLayerTableRecord
  2
FORMAT
 70
     0
 62
     2
  6
Continuous
370
    -3
390
F
  0
LAYER
  5
70
330
2
100
AcDbSymbolTableRecord
100
AcDbLayerTableRecord
  2
외형선
 70
     0
 62
     4
  6
Continuous
370
    30
390
F
  0
LAYER
  5
71
330
2
100
AcDbSymbolTableRecord
100
AcDbLayerTableRecord
  2
숨은선
 70
     0
 62
     2
  6
HIDDEN
370
    15
390
F
  0
LAYER
  5
72
330
2
100
AcDbSymbolTableRecord
100
AcDbLayerTableRecord
  2
중심선
 70
     0
 62
     1
  6
CENTERX2
370
    -3
390
F
  0
LAYER
  5
73
330
2
100
AcDbSymbolTableRecord
100
AcDbLayerTableRecord
  2
파단선
 70
     0
 62
     4
  6
Continuous
370
    -3
390
F
  0
LAYER
  5
74
330
2
100
AcDbSymbolTableRecord
100
AcDbLayerTableRecord
  2
해칭선
 70
     0
 62
   100
  6
Continuous
370
    -3
390
F
  0
LAYER
  5
75
330
2
100
AcDbSymbolTableRecord
100
AcDbLayerTableRecord
  2
가는실선
 70
     0
 62
     4
  6
Continuous
370
    -3
390
F
  0
LAYER
  5
76
330
2
100
AcDbSymbolTableRecord
100
AcDbLayerTableRecord
  2
치수_보조선
 70
     0
 62
     4
  6
Continuous
370
    -3
390
F
  0
LAYER
  5
77
330
2
100
AcDbSymbolTableRecord
100
AcDbLayerTableRecord
  2
치수문자_일반주서
 70
     0
 62
     7
  6
Continuous
370
    15
390
F
  0
LAYER
  5
78
330
2
100
AcDbSymbolTableRecord
100
AcDbLayerTableRecord
  2
개별주서
 70
     0
 62
   100
  6
Continuous
370
    30
390
F
  0
LAYER
  5
79
330
2
100
AcDbSymbolTableRecord
100
AcDbLayerTableRecord
  2
중간선
 70
     0
 62
     2
  6
Continuous
370
    15
390
F
  0
LAYER
  5
7A
330
2
100
AcDbSymbolTableRecord
100
AcDbLayerTableRecord
  2
윤곽선
 70
     0
 62
     3
  6
Continuous
370
    40
390
F
  0
LAYER
  5
7B
330
2
100
AcDbSymbolTableRecord
100
AcDbLayerTableRecord
  2
중심마크
 70
     0
 62
   100
  6
Continuous
370
    30
390
F
  0
LAYER
  5
7C
330
2
100
AcDbSymbolTableRecord
100
AcDbLayerTableRecord
  2
가상선
 70
     0
 62
     4
  6
PHANTOM
370
    -3
390
F
  0
LAYER
  5
7D
330
2
100
AcDbSymbolTableRecord
100
AcDbLayerTableRecord
  2
특수지정선
 70
     0
 62
     5
  6
CENTERX2
370
    60
390
F
  0
LAYER
  5
7E
330
2
100
AcDbSymbolTableRecord
100
AcDbLayerTableRecord
  2
참조1
 70
     0
 62
    -4
  6
Continuous
370
    -3
390
F
  0
LAYER
  5
15A
330
2
100
AcDbSymbolTableRecord
100
AcDbLayerTableRecord
  2
Defpoints
 70
     0
 62
     7
  6
Continuous
290
     0
370
    -3
390
F
  0
ENDTAB
  0
TABLE
  2
STYLE
  5
3
330
0
100
AcDbSymbolTable
 70
     2
  0
STYLE
  5
11
330
3
100
AcDbSymbolTableRecord
100
AcDbTextStyleTableRecord
  2
Standard
 70
     0
 40
0.0
 41
1.0
 50
0.0
 71
     0
 42
3.5
  3
txt
  4

  0
STYLE
  5
94
330
3
100
AcDbSymbolTableRecord
100
AcDbTextStyleTableRecord
  2
SLDTEXTSTYLE0
 70
     0
 40
0.0
 41
0.75
 50
0.0
 71
     0
 42
3.5
  3
TXT
  4

  0
ENDTAB
  0
TABLE
  2
VIEW
  5
6
330
0
100
AcDbSymbolTable
 70
     0
  0
ENDTAB
  0
TABLE
  2
UCS
  5
7
330
0
100
AcDbSymbolTable
 70
     0
  0
ENDTAB
  0
TABLE
  2
APPID
  5
9
330
0
100
AcDbSymbolTable
 70
     4
  0
APPID
  5
12
330
9
100
AcDbSymbolTableRecord
100
AcDbRegAppTableRecord
  2
ACAD
 70
     0
  0
APPID
  5
165
330
9
100
AcDbSymbolTableRecord
100
AcDbRegAppTableRecord
  2
ACAD_DSTYLE_DIMRADIAL_EXTENSION
 70
     0
  0
APPID
  5
2A4
330
9
100
AcDbSymbolTableRecord
100
AcDbRegAppTableRecord
  2
ACAD_DSTYLE_DIMFLIPARROW_SYMBOL
 70
     0
  0
APPID
  5
2A5
330
9
100
AcDbSymbolTableRecord
100
AcDbRegAppTableRecord
  2
ACAD_DSTYLE_DIMFLIPARROW_WHICH_SYMBOL
 70
     0
  0
ENDTAB
  0
TABLE
  2
DIMSTYLE
  5
A
330
0
100
AcDbSymbolTable
 70
     4
100
AcDbDimStyleTable
  0
DIMSTYLE
105
27
330
A
100
AcDbSymbolTableRecord
100
AcDbDimStyleTableRecord
  2
ISO-25
 70
     0
 41
2.5
 42
0.625
 43
3.75
 44
1.25
 73
     0
 74
     0
 77
     1
 78
     8
140
2.5
141
2.5
143
0.03937007874016
147
0.625
171
     3
172
     1
178
     0
271
     2
272
     2
274
     3
278
    44
283
     0
284
     8
340
11
  0
DIMSTYLE
105
D6
102
{ACAD_REACTORS
330
D5
330
1B0
330
1BD
330
1CD
330
1DD
330
1FD
330
FE
330
114
330
EA
330
294
102
}
330
A
100
AcDbSymbolTableRecord
100
AcDbDimStyleTableRecord
  2
SLDDIMSTYLE0
 70
     0
 41
3.302
 44
0.0
 45
0.000000001
 73
     0
 74
     0
 77
     1
 78
    12
 79
     3
140
3.5
143
0.0393700787401575
147
0.875
148
0.000000001
170
     1
172
     1
173
     1
178
     0
271
     2
272
     2
276
     2
284
    12
289
     0
340
94
  0
DIMSTYLE
105
EB
330
A
100
AcDbSymbolTableRecord
100
AcDbDimStyleTableRecord
  2
SLDDIMSTYLE1
 70
     0
 41
3.302
 44
0.0
 45
0.000000001
 73
     0
 74
     0
 77
     1
 78
     4
 79
     1
140
3.5
143
0.0393700787401575
147
0.875
148
0.000000001
170
     1
173
     1
178
     0
271
     2
272
     2
276
     2
284
    12
340
94
  0
DIMSTYLE
105
FF
330
A
100
AcDbSymbolTableRecord
100
AcDbDimStyleTableRecord
  2
SLDDIMSTYLE2
 70
     0
 41
3.302
 44
0.0
 45
0.000000001
 73
     0
 74
     0
 77
     1
 78
     4
 79
     1
140
3.5
143
0.0393700787401575
147
0.875
148
0.000000001
170
     1
172
     1
173
     1
178
     0
271
     2
272
     2
276
     2
284
    12
289
     0
340
94
  0
ENDTAB
  0
TABLE
  2
BLOCK_RECORD
  5
1
330
0
100
AcDbSymbolTable
 70
    19
  0
BLOCK_RECORD
  5
1F
330
1
100
AcDbSymbolTableRecord
100
AcDbBlockTableRecord
  2
*Model_Space
340
22
  0
BLOCK_RECORD
  5
1B
330
1
100
AcDbSymbolTableRecord
100
AcDbBlockTableRecord
  2
*Paper_Space
340
1E
  0
BLOCK_RECORD
  5
23
330
1
100
AcDbSymbolTableRecord
100
AcDbBlockTableRecord
  2
*Paper_Space0
340
26
  0
BLOCK_RECORD
  5
7F
330
1
100
AcDbSymbolTableRecord
100
AcDbBlockTableRecord
  2
블럭10
340
0
102
{BLKREFS
331
CE
102
}
  0
BLOCK_RECORD
  5
D7
330
1
100
AcDbSymbolTableRecord
100
AcDbBlockTableRecord
  2
_D
340
0
  0
BLOCK_RECORD
  5
EC
330
1
100
AcDbSymbolTableRecord
100
AcDbBlockTableRecord
  2
_D_1
340
0
  0
BLOCK_RECORD
  5
100
330
1
100
AcDbSymbolTableRecord
100
AcDbBlockTableRecord
  2
_D_2
340
0
  0
BLOCK_RECORD
  5
115
330
1
100
AcDbSymbolTableRecord
100
AcDbBlockTableRecord
  2
_D_3
340
0
  0
BLOCK_RECORD
  5
12E
330
1
100
AcDbSymbolTableRecord
100
AcDbBlockTableRecord
  2
SW_DOWELSYMBOL_0
340
0
102
{BLKREFS
331
134
331
1EA
331
0
102
}
  0
BLOCK_RECORD
  5
1B1
330
1
100
AcDbSymbolTableRecord
100
AcDbBlockTableRecord
  2
*D8
340
0
  0
BLOCK_RECORD
  5
1BE
330
1
100
AcDbSymbolTableRecord
100
AcDbBlockTableRecord
  2
*D9
340
0
  0
BLOCK_RECORD
  5
1CE
330
1
100
AcDbSymbolTableRecord
100
AcDbBlockTableRecord
  2
*D10
340
0
  0
BLOCK_RECORD
  5
1DE
330
1
100
AcDbSymbolTableRecord
100
AcDbBlockTableRecord
  2
*D11
340
0
  0
BLOCK_RECORD
  5
200
330
1
100
AcDbSymbolTableRecord
100
AcDbBlockTableRecord
  2
*D12
340
0
  0
BLOCK_RECORD
  5
24E
330
1
100
AcDbSymbolTableRecord
100
AcDbBlockTableRecord
  2
*D13
340
0
  0
BLOCK_RECORD
  5
25A
330
1
100
AcDbSymbolTableRecord
100
AcDbBlockTableRecord
  2
*D14
340
0
  0
BLOCK_RECORD
  5
269
330
1
100
AcDbSymbolTableRecord
100
AcDbBlockTableRecord
  2
*D15
340
0
  0
BLOCK_RECORD
  5
278
330
1
100
AcDbSymbolTableRecord
100
AcDbBlockTableRecord
  2
*D16
340
0
  0
BLOCK_RECORD
  5
284
330
1
100
AcDbSymbolTableRecord
100
AcDbBlockTableRecord
  2
*D17
340
0
  0
BLOCK_RECORD
  5
297
330
1
100
AcDbSymbolTableRecord
100
AcDbBlockTableRecord
  2
*D18
340
0
  0
ENDTAB
  0
ENDSEC
  0
SECTION
  2
BLOCKS
  0
BLOCK
  5
20
330
1F
100
AcDbEntity
  8
0
100
AcDbBlockBegin
  2
*Model_Space
 70
     0
 10
0.0
 20
0.0
 30
0.0
  3
*Model_Space
  1
*Model_Space
  0
ENDBLK
  5
21
330
1F
100
AcDbEntity
  8
0
100
AcDbBlockEnd
  0
BLOCK
  5
1C
330
1B
100
AcDbEntity
 67
     1
  8
0
100
AcDbBlockBegin
  2
*Paper_Space
 70
     0
 10
0.0
 20
0.0
 30
0.0
  3
*Paper_Space
  1
*Paper_Space
  0
ENDBLK
  5
1D
330
1B
100
AcDbEntity
 67
     1
  8
0
100
AcDbBlockEnd
  0
BLOCK
  5
24
330
23
100
AcDbEntity
  8
0
100
AcDbBlockBegin
  2
*Paper_Space0
 70
     0
 10
0.0
 20
0.0
 30
0.0
  3
*Paper_Space0
  1
*Paper_Space0
  0
ENDBLK
  5
25
330
23
100
AcDbEntity
  8
0
100
AcDbBlockEnd
  0
BLOCK
  5
80
330
7F
100
AcDbEntity
  8
0
100
AcDbBlockBegin
  2
블럭10
 70
     2
 10
0.0
 20
0.0
 30
0.0
  3
블럭10
  1
블럭10
  0
ELLIPSE
  5
82
330
7F
100
AcDbEntity
  8
중심선
100
AcDbEllipse
 10
20.54032771741204
 20
12.0471743016438
 30
0.0
 11
6.600054785286829
 21
-1.261213355974178E-13
 31
0.0
210
0.0
220
0.0
230
1.0
 40
0.636358354079598
 41
0.9219305317359503
 42
6.513795318482858
  0
ELLIPSE
  5
83
330
7F
100
AcDbEntity
  8
중심선
100
AcDbEllipse
 10
20.54032771746488
 20
12.04717430159265
 30
0.0
 11
3.960054785062283
 21
1.540847449632565E-10
 31
0.0
210
0.0
220
0.0
230
1.0
 40
0.3939339440162632
 41
1.131841032648279
 42
5.62031148352944
  0
LINE
  5
84
330
7F
100
AcDbEntity
  8
중심선
100
AcDbLine
 10
2.268634060543552
 20
16.24717430164393
 30
0.0
 11
5.714909304380834
 21
16.24717430164393
 31
0.0
  0
LINE
  5
85
330
7F
100
AcDbEntity
  8
중심선
100
AcDbLine
 10
5.245725140726316
 20
7.84717430164391
 30
0.0
 11
8.692000384563599
 21
7.84717430164391
 31
0.0
  0
LINE
  5
86
330
7F
100
AcDbEntity
  8
중심선
100
AcDbLine
 10
15.74043728645272
 20
16.24717430164393
 30
0.0
 11
8.692000384563599
 21
7.84717430164391
 31
0.0
  0
LINE
  5
87
330
7F
100
AcDbEntity
  8
중심선
100
AcDbLine
 10
0.1404042013395286
 20
13.71084872107135
 30
0.0
 11
3.58671253028996
 21
13.71088815037384
 31
0.0
  0
LINE
  5
88
330
7F
100
AcDbEntity
  8
중심선
100
AcDbLine
 10
2.750260043222114
 20
10.84717430164391
 30
0.0
 11
6.196535287059397
 21
10.84717430164391
 31
0.0
  0
LINE
  5
89
330
7F
100
AcDbEntity
  8
중심선
100
AcDbLine
 10
12.29416204261559
 20
16.24717430164393
 30
0.0
 11
5.245725140726316
 21
7.84717430164391
 31
0.0
  0
LINE
  5
8A
330
7F
100
AcDbEntity
  8
중심선
100
AcDbLine
 10
10.72767329541681
 20
16.24717430164393
 30
0.0
 11
6.196535287059397
 21
10.84717430164391
 31
0.0
  0
LINE
  5
8B
330
7F
100
AcDbEntity
  8
중심선
100
AcDbLine
 10
7.28139805157953
 20
16.24717430164393
 30
0.0
 11
2.750260043222114
 21
10.84717430164391
 31
0.0
  0
LINE
  5
8C
330
7F
100
AcDbEntity
  8
중심선
100
AcDbLine
 10
5.714909304380834
 20
16.24717430164393
 30
0.0
 11
3.58671253028996
 21
13.71088815037384
 31
0.0
  0
LINE
  5
8D
330
7F
100
AcDbEntity
  8
중심선
100
AcDbLine
 10
2.268634060543552
 20
16.24717430164393
 30
0.0
 11
0.1404042013395286
 21
13.71084872107135
 31
0.0
  0
LINE
  5
8E
330
7F
100
AcDbEntity
  8
중심선
100
AcDbLine
 10
7.28139805157953
 20
16.24717430164393
 30
0.0
 11
10.72767329541681
 21
16.24717430164393
 31
0.0
  0
LINE
  5
8F
330
7F
100
AcDbEntity
  8
중심선
100
AcDbLine
 10
12.29416204261559
 20
16.24717430164393
 30
0.0
 11
15.74043728645272
 21
16.24717430164393
 31
0.0
  0
LINE
  5
90
330
7F
100
AcDbEntity
  8
중심선
100
AcDbLine
 10
19.22036997980202
 20
11.08717430171403
 30
0.0
 11
23.66174974927406
 21
11.08717430171406
 31
0.0
  0
LINE
  5
91
330
7F
100
AcDbEntity
  8
중심선
100
AcDbLine
 10
19.22039502424796
 20
13.00717430171391
 30
0.0
 11
19.22036997980202
 21
11.08717430171403
 31
0.0
  0
LINE
  5
92
330
7F
100
AcDbEntity
  8
중심선
100
AcDbLine
 10
19.22039502424796
 20
13.00717430171391
 30
0.0
 11
26.96566020931264
 21
13.00717430171391
 31
0.0
  0
LINE
  5
93
330
7F
100
AcDbEntity
  8
중심선
100
AcDbLine
 10
22.22332737316547
 20
13.45928029700563
 30
0.0
 11
24.52862924686651
 21
15.39360700705356
 31
0.0
  0
ATTDEF
  5
95
330
7F
100
AcDbEntity
  8
FORMAT
 62
     2
100
AcDbText
 10
3.448148490846466
 20
2.075366912832191
 30
0.0
 40
4.233333333333333
  1
EM636016
 41
0.75
  7
SLDTEXTSTYLE0
 11
3.448148490846466
 21
-0.0412997538344756
 31
0.0
100
AcDbAttributeDefinition
  3

  2
AUTOATTR0
 70
     0
 74
     1
  0
ENDBLK
  5
81
330
7F
100
AcDbEntity
  8
0
100
AcDbBlockEnd
  0
BLOCK
  5
D8
330
D7
100
AcDbEntity
  8
0
100
AcDbBlockBegin
  2
_D
 70
     0
 10
0.0
 20
0.0
 30
0.0
  3
_D
  1
_D
  0
LINE
  5
DA
330
D7
100
AcDbEntity
  8
치수문자_일반주서
 62
     0
370
    -2
100
AcDbLine
 10
-52.75249999999998
 20
3.176074928723876
 30
0.0
 11
-66.19000000000001
 21
3.176074928723826
 31
0.0
  0
LINE
  5
DB
330
D7
100
AcDbEntity
  8
치수문자_일반주서
 62
     0
370
    -2
100
AcDbLine
 10
-52.75249999999998
 20
-3.173925071276118
 30
0.0
 11
-66.18999999999998
 21
-3.173925071276169
 31
0.0
  0
LINE
  5
DC
330
D7
100
AcDbEntity
  8
치수문자_일반주서
 62
     0
370
    -2
100
AcDbLine
 10
-66.19
 20
-0.1259250712761739
 30
0.0
 11
-66.19
 21
0.128074928723831
 31
0.0
  0
SOLID
  5
DD
330
D7
100
AcDbEntity
  8
치수문자_일반주서
 62
     0
100
AcDbTrace
 10
-65.63966666666667
 20
-0.1259250712761714
 30
0.0
 11
-66.74033333333333
 21
-0.1259250712761764
 31
0.0
 12
-66.19000000000001
 22
3.176074928723826
 32
0.0
 13
-66.19000000000001
 23
3.176074928723826
 33
0.0
  0
SOLID
  5
DE
330
D7
100
AcDbEntity
  8
치수문자_일반주서
 62
     0
100
AcDbTrace
 10
-66.74033333333333
 20
0.1280749287238285
 30
0.0
 11
-65.63966666666667
 21
0.1280749287238334
 31
0.0
 12
-66.18999999999998
 22
-3.173925071276169
 32
0.0
 13
-66.18999999999998
 23
-3.173925071276169
 33
0.0
  0
MTEXT
  5
DF
330
D7
100
AcDbEntity
  8
치수문자_일반주서
 62
     0
100
AcDbMText
 10
-70.565
 20
0.0010749287238603
 30
0.0
 40
3.5
 41
0.0
 71
     2
 72
     1
  1
\A1;%%c6.35 [1/4]
  7
SLDTEXTSTYLE0
 11
-4.475859752819533E-15
 21
1.0
 31
0.0
 73
     1
 44
1.0
  0
POINT
  5
E0
330
D7
100
AcDbEntity
  8
Defpoints
 62
     0
100
AcDbPoint
 10
-52.68999999999998
 20
3.176074928723876
 30
0.0
  0
POINT
  5
E1
330
D7
100
AcDbEntity
  8
Defpoints
 62
     0
100
AcDbPoint
 10
-52.68999999999998
 20
-3.173925071276118
 30
0.0
  0
POINT
  5
E2
330
D7
100
AcDbEntity
  8
Defpoints
 62
     0
100
AcDbPoint
 10
-66.18999999999998
 20
-3.173925071276169
 30
0.0
  0
ENDBLK
  5
D9
330
D7
100
AcDbEntity
  8
0
100
AcDbBlockEnd
  0
BLOCK
  5
ED
330
EC
100
AcDbEntity
  8
0
100
AcDbBlockBegin
  2
_D_1
 70
     0
 10
0.0
 20
0.0
 30
0.0
  3
_D_1
  1
_D_1
  0
LINE
  5
EF
330
EC
100
AcDbEntity
  8
치수문자_일반주서
 62
     0
370
    -2
100
AcDbLine
 10
22.76250000000001
 20
3.176074928723899
 30
0.0
 11
33.76937703789724
 21
3.176074928723942
 31
0.0
  0
LINE
  5
F0
330
EC
100
AcDbEntity
  8
치수문자_일반주서
 62
     0
370
    -2
100
AcDbLine
 10
22.76250000000001
 20
-3.173925071276101
 30
0.0
 11
33.76937703789726
 21
-3.173925071276059
 31
0.0
  0
LINE
  5
F1
330
EC
100
AcDbEntity
  8
치수문자_일반주서
 62
     0
370
    -2
100
AcDbLine
 10
33.76937703789724
 20
3.176074928723942
 30
0.0
 11
33.76937703789712
 21
39.07902604942032
 31
0.0
  0
LINE
  5
F2
330
EC
100
AcDbEntity
  8
치수문자_일반주서
 62
     0
370
    -2
100
AcDbLine
 10
33.76937703789724
 20
3.176074928723942
 30
0.0
 11
33.76937703789726
 21
-3.173925071276059
 31
0.0
  0
LINE
  5
F3
330
EC
100
AcDbEntity
  8
치수문자_일반주서
 62
     0
370
    -2
100
AcDbLine
 10
33.76937703789723
 20
6.478074928723942
 30
0.0
 11
33.76937703789721
 21
9.780074928723941
 31
0.0
  0
LINE
  5
F4
330
EC
100
AcDbEntity
  8
치수문자_일반주서
 62
     0
370
    -2
100
AcDbLine
 10
33.76937703789728
 20
-6.475925071276059
 30
0.0
 11
33.76937703789729
 21
-9.777925071276059
 31
0.0
  0
SOLID
  5
F5
330
EC
100
AcDbEntity
  8
치수문자_일반주서
 62
     0
100
AcDbTrace
 10
33.21904370456389
 20
6.47807492872394
 30
0.0
 11
34.31971037123056
 21
6.478074928723943
 31
0.0
 12
33.76937703789724
 22
3.176074928723942
 32
0.0
 13
33.76937703789724
 23
3.176074928723942
 33
0.0
  0
SOLID
  5
F6
330
EC
100
AcDbEntity
  8
치수문자_일반주서
 62
     0
100
AcDbTrace
 10
34.31971037123061
 20
-6.475925071276057
 30
0.0
 11
33.21904370456394
 21
-6.475925071276061
 31
0.0
 12
33.76937703789726
 22
-3.173925071276059
 32
0.0
 13
33.76937703789726
 23
-3.173925071276059
 33
0.0
  0
MTEXT
  5
F7
330
EC
100
AcDbEntity
  8
치수문자_일반주서
 62
     0
100
AcDbMText
 10
29.39437703789716
 20
26.39152604942031
 30
0.0
 40
3.5
 41
0.0
 71
     2
 72
     1
  1
\A1;%%c6.35 [1/4]
  7
SLDTEXTSTYLE0
 11
-3.356894814614646E-15
 21
1.0
 31
0.0
 73
     1
 44
1.0
  0
POINT
  5
F8
330
EC
100
AcDbEntity
  8
Defpoints
 62
     0
100
AcDbPoint
 10
22.70000000000001
 20
3.176074928723899
 30
0.0
  0
POINT
  5
28D
330
EC
100
AcDbEntity
  8
Defpoints
 62
     0
100
AcDbPoint
 10
22.70000000000001
 20
-3.173925071276101
 30
0.0
  0
POINT
  5
28E
330
EC
100
AcDbEntity
  8
Defpoints
 62
     0
100
AcDbPoint
 10
33.76937703789726
 20
-3.17392507127606
 30
0.0
  0
ENDBLK
  5
EE
330
EC
100
AcDbEntity
  8
0
100
AcDbBlockEnd
  0
BLOCK
  5
101
330
100
100
AcDbEntity
  8
0
100
AcDbBlockBegin
  2
_D_2
 70
     0
 10
0.0
 20
0.0
 30
0.0
  3
_D_2
  1
_D_2
  0
LINE
  5
103
330
100
100
AcDbEntity
  8
치수문자_일반주서
 62
     0
370
    -2
100
AcDbLine
 10
22.70000000000001
 20
3.238574928723899
 30
0.0
 11
22.70000000000001
 21
13.19630048907219
 31
0.0
  0
LINE
  5
104
330
100
100
AcDbEntity
  8
치수문자_일반주서
 62
     0
370
    -2
100
AcDbLine
 10
10.00000000000001
 20
2.832369356051368
 30
0.0
 11
10.00000000000001
 21
13.19630048907219
 31
0.0
  0
LINE
  5
105
330
100
100
AcDbEntity
  8
치수문자_일반주서
 62
     0
370
    -2
100
AcDbLine
 10
10.00000000000001
 20
13.19630048907219
 30
0.0
 11
-21.712189725061
 21
13.19630048907219
 31
0.0
  0
LINE
  5
106
330
100
100
AcDbEntity
  8
치수문자_일반주서
 62
     0
370
    -2
100
AcDbLine
 10
19.39800000000001
 20
13.19630048907219
 30
0.0
 11
13.30200000000001
 21
13.19630048907219
 31
0.0
  0
SOLID
  5
107
330
100
100
AcDbEntity
  8
치수문자_일반주서
 62
     0
100
AcDbTrace
 10
19.39800000000001
 20
12.64596715573886
 30
0.0
 11
19.39800000000001
 21
13.74663382240552
 31
0.0
 12
22.70000000000001
 22
13.19630048907219
 32
0.0
 13
22.70000000000001
 23
13.19630048907219
 33
0.0
  0
SOLID
  5
108
330
100
100
AcDbEntity
  8
치수문자_일반주서
 62
     0
100
AcDbTrace
 10
13.30200000000001
 20
13.74663382240552
 30
0.0
 11
13.30200000000001
 21
12.64596715573886
 31
0.0
 12
10.00000000000001
 22
13.19630048907219
 32
0.0
 13
10.00000000000001
 23
13.19630048907219
 33
0.0
  0
MTEXT
  5
109
330
100
100
AcDbEntity
  8
치수문자_일반주서
 62
     0
100
AcDbMText
 10
-10.774689725061
 20
17.57130048907219
 30
0.0
 40
3.5
 41
0.0
 71
     2
 72
     1
  1
\A1;12.7 [1/2]
  7
SLDTEXTSTYLE0
 73
     1
 44
1.0
  0
POINT
  5
10A
330
100
100
AcDbEntity
  8
Defpoints
 62
     0
100
AcDbPoint
 10
22.70000000000001
 20
3.176074928723899
 30
0.0
  0
POINT
  5
10B
330
100
100
AcDbEntity
  8
Defpoints
 62
     0
100
AcDbPoint
 10
10.00000000000001
 20
2.769869356051368
 30
0.0
  0
POINT
  5
2A1
330
100
100
AcDbEntity
  8
Defpoints
 62
     0
100
AcDbPoint
 10
10.00000000000001
 20
13.19630048907219
 30
0.0
  0
ENDBLK
  5
102
330
100
100
AcDbEntity
  8
0
100
AcDbBlockEnd
  0
BLOCK
  5
116
330
115
100
AcDbEntity
  8
0
100
AcDbBlockBegin
  2
_D_3
 70
     0
 10
0.0
 20
0.0
 30
0.0
  3
_D_3
  1
_D_3
  0
LINE
  5
118
330
115
100
AcDbEntity
  8
치수문자_일반주서
 62
     0
370
    -2
100
AcDbLine
 10
22.70000000000001
 20
3.238574928723899
 30
0.0
 11
22.70000000000001
 21
25.19630048907214
 31
0.0
  0
LINE
  5
119
330
115
100
AcDbEntity
  8
치수문자_일반주서
 62
     0
370
    -2
100
AcDbLine
 10
-53.49999999999999
 20
2.428574928723885
 30
0.0
 11
-53.49999999999999
 21
25.19630048907214
 31
0.0
  0
LINE
  5
11A
330
115
100
AcDbEntity
  8
치수문자_일반주서
 62
     0
370
    -2
100
AcDbLine
 10
19.39800000000001
 20
25.19630048907214
 30
0.0
 11
-50.19799999999999
 21
25.19630048907214
 31
0.0
  0
SOLID
  5
11B
330
115
100
AcDbEntity
  8
치수문자_일반주서
 62
     0
100
AcDbTrace
 10
19.39800000000001
 20
24.64596715573881
 30
0.0
 11
19.39800000000001
 21
25.74663382240548
 31
0.0
 12
22.70000000000001
 22
25.19630048907214
 32
0.0
 13
22.70000000000001
 23
25.19630048907214
 33
0.0
  0
SOLID
  5
11C
330
115
100
AcDbEntity
  8
치수문자_일반주서
 62
     0
100
AcDbTrace
 10
-50.19799999999999
 20
25.74663382240548
 30
0.0
 11
-50.19799999999999
 21
24.64596715573881
 31
0.0
 12
-53.49999999999999
 22
25.19630048907214
 32
0.0
 13
-53.49999999999999
 23
25.19630048907214
 33
0.0
  0
MTEXT
  5
11D
330
115
100
AcDbEntity
  8
치수문자_일반주서
 62
     0
100
AcDbMText
 10
-15.7428889628973
 20
29.57130048907214
 30
0.0
 40
3.5
 41
0.0
 71
     2
 72
     1
  1
\A1;76.2 [3]
  7
SLDTEXTSTYLE0
 73
     1
 44
1.0
  0
POINT
  5
11E
330
115
100
AcDbEntity
  8
Defpoints
 62
     0
100
AcDbPoint
 10
22.70000000000001
 20
3.176074928723899
 30
0.0
  0
POINT
  5
11F
330
115
100
AcDbEntity
  8
Defpoints
 62
     0
100
AcDbPoint
 10
-53.49999999999999
 20
2.366074928723885
 30
0.0
  0
POINT
  5
120
330
115
100
AcDbEntity
  8
Defpoints
 62
     0
100
AcDbPoint
 10
-53.49999999999999
 20
25.19630048907214
 30
0.0
  0
ENDBLK
  5
117
330
115
100
AcDbEntity
  8
0
100
AcDbBlockEnd
  0
BLOCK
  5
12F
330
12E
100
AcDbEntity
  8
0
100
AcDbBlockBegin
  2
SW_DOWELSYMBOL_0
 70
     0
 10
0.0
 20
0.0
 30
0.0
  3
SW_DOWELSYMBOL_0
  1
SW_DOWELSYMBOL_0
  0
CIRCLE
  5
131
330
12E
100
AcDbEntity
  8
해칭선
 62
     0
100
AcDbCircle
 10
0.0
 20
0.0
 30
0.0
 40
3.000000000000002
  0
HATCH
  5
132
330
12E
100
AcDbEntity
  8
0
  6
Continuous
 62
     0
370
     0
100
AcDbHatch
 10
0.0
 20
0.0
 30
0.0
210
0.0
220
0.0
230
1.0
  2
SOLID
 70
     1
 71
     0
 91
        1
 92
        0
 93
        3
 72
     2
 10
0.0000000000000069
 20
0.0
 40
3.000000000000002
 50
0.0
 51
90.0
 73
     1
 72
     1
 10
0.0000000000000069
 20
3.000000000000002
 11
0.0000000000000069
 21
0.0
 72
     1
 10
0.0000000000000069
 20
0.0
 11
3.000000000000009
 21
0.0
 97
        0
 75
     0
 76
     1
 98
        1
 10
0.0
 20
0.0
  0
HATCH
  5
133
330
12E
100
AcDbEntity
  8
0
  6
Continuous
 62
     0
370
     0
100
AcDbHatch
 10
0.0
 20
0.0
 30
0.0
210
0.0
220
0.0
230
1.0
  2
SOLID
 70
     1
 71
     0
 91
        1
 92
        0
 93
        3
 72
     2
 10
0.0000000000000069
 20
0.0
 40
3.000000000000002
 50
180.0
 51
270.0000000000008
 73
     1
 72
     1
 10
0.0000000000000069
 20
-3.000000000000002
 11
0.0000000000000069
 21
0.0
 72
     1
 10
0.0000000000000069
 20
0.0
 11
-2.999999999999995
 21
0.0
 97
        0
 75
     0
 76
     1
 98
        1
 10
0.0
 20
0.0
  0
ENDBLK
  5
130
330
12E
100
AcDbEntity
  8
0
100
AcDbBlockEnd
  0
BLOCK
  5
1B2
330
1B1
100
AcDbEntity
  8
0
100
AcDbBlockBegin
  2
*D8
 70
     1
 10
0.0
 20
0.0
 30
0.0
  3
*D8
  1
*D8
  0
LINE
  5
1B3
330
1B1
100
AcDbEntity
  8
치수문자_일반주서
 62
     0
370
    -2
100
AcDbLine
 10
17.81250000000006
 20
35.35744012327567
 30
0.0
 11
4.375000000000032
 21
35.35744012327562
 31
0.0
  0
LINE
  5
1B4
330
1B1
100
AcDbEntity
  8
치수문자_일반주서
 62
     0
370
    -2
100
AcDbLine
 10
17.81250000000006
 20
29.00744012327567
 30
0.0
 11
4.375000000000054
 21
29.00744012327562
 31
0.0
  0
LINE
  5
1B5
330
1B1
100
AcDbEntity
  8
치수문자_일반주서
 62
     0
370
    -2
100
AcDbLine
 10
4.375000000000044
 20
32.05544012327562
 30
0.0
 11
4.375000000000043
 21
32.30944012327562
 31
0.0
  0
SOLID
  5
1B6
330
1B1
100
AcDbEntity
  8
치수문자_일반주서
 62
     0
100
AcDbTrace
 10
4.925333333333377
 20
32.05544012327562
 30
0.0
 11
3.82466666666671
 21
32.05544012327562
 31
0.0
 12
4.375000000000032
 22
35.35744012327562
 32
0.0
 13
4.375000000000032
 23
35.35744012327562
 33
0.0
  0
SOLID
  5
1B7
330
1B1
100
AcDbEntity
  8
치수문자_일반주서
 62
     0
100
AcDbTrace
 10
3.82466666666671
 20
32.30944012327562
 30
0.0
 11
4.925333333333376
 21
32.30944012327562
 31
0.0
 12
4.375000000000054
 22
29.00744012327562
 32
0.0
 13
4.375000000000054
 23
29.00744012327562
 33
0.0
  0
MTEXT
  5
1B8
330
1B1
100
AcDbEntity
  8
치수문자_일반주서
 62
     0
100
AcDbMText
 10
0.0000000000000426
 20
32.18244012327565
 30
0.0
 40
3.5
 41
0.0
 71
     2
 72
     1
  1
\A1;%%c6.35 [1/4]
  7
SLDTEXTSTYLE0
 11
-3.496765431890260E-15
 21
1.0
 31
0.0
 73
     1
 44
1.0
  0
POINT
  5
1B9
330
1B1
100
AcDbEntity
  8
Defpoints
 62
     0
100
AcDbPoint
 10
17.87500000000006
 20
35.35744012327567
 30
0.0
  0
POINT
  5
1BA
330
1B1
100
AcDbEntity
  8
Defpoints
 62
     0
100
AcDbPoint
 10
17.87500000000006
 20
29.00744012327567
 30
0.0
  0
POINT
  5
1BB
330
1B1
100
AcDbEntity
  8
Defpoints
 62
     0
100
AcDbPoint
 10
4.375000000000057
 20
29.00744012327562
 30
0.0
  0
ENDBLK
  5
1BC
330
1B1
100
AcDbEntity
  8
0
100
AcDbBlockEnd
  0
BLOCK
  5
1BF
330
1BE
100
AcDbEntity
  8
0
100
AcDbBlockBegin
  2
*D9
 70
     1
 10
0.0
 20
0.0
 30
0.0
  3
*D9
  1
*D9
  0
LINE
  5
1C0
330
1BE
100
AcDbEntity
  8
치수문자_일반주서
 62
     0
370
    -2
100
AcDbLine
 10
80.62750000000003
 20
34.56369012327568
 30
0.0
 11
91.05200058329949
 21
34.56369012327572
 31
0.0
  0
LINE
  5
1C1
330
1BE
100
AcDbEntity
  8
치수문자_일반주서
 62
     0
370
    -2
100
AcDbLine
 10
80.62750000000003
 20
29.80119012327569
 30
0.0
 11
91.0520005832995
 21
29.80119012327573
 31
0.0
  0
LINE
  5
1C2
330
1BE
100
AcDbEntity
  8
치수문자_일반주서
 62
     0
370
    -2
100
AcDbLine
 10
91.05200058329949
 20
34.56369012327572
 30
0.0
 11
91.05200058329937
 21
72.5728912439721
 31
0.0
  0
LINE
  5
1C3
330
1BE
100
AcDbEntity
  8
치수문자_일반주서
 62
     0
370
    -2
100
AcDbLine
 10
91.05200058329949
 20
34.56369012327572
 30
0.0
 11
91.0520005832995
 21
29.80119012327573
 31
0.0
  0
LINE
  5
1C4
330
1BE
100
AcDbEntity
  8
치수문자_일반주서
 62
     0
370
    -2
100
AcDbLine
 10
91.05200058329947
 20
37.86569012327572
 30
0.0
 11
91.05200058329946
 21
41.16769012327572
 31
0.0
  0
LINE
  5
1C5
330
1BE
100
AcDbEntity
  8
치수문자_일반주서
 62
     0
370
    -2
100
AcDbLine
 10
91.05200058329952
 20
26.49919012327573
 30
0.0
 11
91.05200058329953
 21
23.19719012327573
 31
0.0
  0
SOLID
  5
1C6
330
1BE
100
AcDbEntity
  8
치수문자_일반주서
 62
     0
100
AcDbTrace
 10
90.50166724996615
 20
37.86569012327572
 30
0.0
 11
91.6023339166328
 21
37.86569012327572
 31
0.0
 12
91.05200058329949
 22
34.56369012327572
 32
0.0
 13
91.05200058329949
 23
34.56369012327572
 33
0.0
  0
SOLID
  5
1C7
330
1BE
100
AcDbEntity
  8
치수문자_일반주서
 62
     0
100
AcDbTrace
 10
91.60233391663284
 20
26.49919012327573
 30
0.0
 11
90.50166724996619
 21
26.49919012327573
 31
0.0
 12
91.0520005832995
 22
29.80119012327573
 32
0.0
 13
91.0520005832995
 23
29.80119012327573
 33
0.0
  0
MTEXT
  5
1C8
330
1BE
100
AcDbEntity
  8
치수문자_일반주서
 62
     0
100
AcDbMText
 10
86.67700058329942
 20
58.57289124397208
 30
0.0
 40
3.5
 41
0.0
 71
     2
 72
     1
  1
\A1;%%c4.76 [3/16]
  7
SLDTEXTSTYLE0
 11
-2.983906501879691E-15
 21
1.0
 31
0.0
 73
     1
 44
1.0
  0
POINT
  5
1C9
330
1BE
100
AcDbEntity
  8
Defpoints
 62
     0
100
AcDbPoint
 10
80.56500000000003
 20
34.56369012327568
 30
0.0
  0
POINT
  5
1CA
330
1BE
100
AcDbEntity
  8
Defpoints
 62
     0
100
AcDbPoint
 10
80.56500000000003
 20
29.80119012327569
 30
0.0
  0
POINT
  5
1CB
330
1BE
100
AcDbEntity
  8
Defpoints
 62
     0
100
AcDbPoint
 10
91.05200058329953
 20
29.80119012327573
 30
0.0
  0
ENDBLK
  5
1CC
330
1BE
100
AcDbEntity
  8
0
100
AcDbBlockEnd
  0
BLOCK
  5
1CF
330
1CE
100
AcDbEntity
  8
0
100
AcDbBlockBegin
  2
*D10
 70
     1
 10
0.0
 20
0.0
 30
0.0
  3
*D10
  1
*D10
  0
LINE
  5
1D0
330
1CE
100
AcDbEntity
  8
치수문자_일반주서
 62
     0
370
    -2
100
AcDbLine
 10
80.56500000000003
 20
34.62619012327568
 30
0.0
 11
80.56500000000003
 21
44.82204068362397
 31
0.0
  0
LINE
  5
1D1
330
1CE
100
AcDbEntity
  8
치수문자_일반주서
 62
     0
370
    -2
100
AcDbLine
 10
71.04000000000005
 20
34.32184881408109
 30
0.0
 11
71.04000000000005
 21
44.82204068362397
 31
0.0
  0
LINE
  5
1D2
330
1CE
100
AcDbEntity
  8
치수문자_일반주서
 62
     0
370
    -2
100
AcDbLine
 10
71.04000000000005
 20
44.82204068362397
 30
0.0
 11
40.59225000000005
 21
44.82204068362397
 31
0.0
  0
LINE
  5
1D3
330
1CE
100
AcDbEntity
  8
치수문자_일반주서
 62
     0
370
    -2
100
AcDbLine
 10
80.56500000000003
 20
44.82204068362397
 30
0.0
 11
71.04000000000005
 21
44.82204068362397
 31
0.0
  0
LINE
  5
1D4
330
1CE
100
AcDbEntity
  8
치수문자_일반주서
 62
     0
370
    -2
100
AcDbLine
 10
83.86700000000002
 20
44.82204068362397
 30
0.0
 11
87.16900000000001
 21
44.82204068362397
 31
0.0
  0
LINE
  5
1D5
330
1CE
100
AcDbEntity
  8
치수문자_일반주서
 62
     0
370
    -2
100
AcDbLine
 10
67.73800000000006
 20
44.82204068362397
 30
0.0
 11
64.43600000000006
 21
44.82204068362397
 31
0.0
  0
SOLID
  5
1D6
330
1CE
100
AcDbEntity
  8
치수문자_일반주서
 62
     0
100
AcDbTrace
 10
83.86700000000002
 20
45.3723740169573
 30
0.0
 11
83.86700000000002
 21
44.27170735029063
 31
0.0
 12
80.56500000000003
 22
44.82204068362397
 32
0.0
 13
80.56500000000003
 23
44.82204068362397
 33
0.0
  0
SOLID
  5
1D7
330
1CE
100
AcDbEntity
  8
치수문자_일반주서
 62
     0
100
AcDbTrace
 10
67.73800000000006
 20
44.27170735029063
 30
0.0
 11
67.73800000000006
 21
45.3723740169573
 31
0.0
 12
71.04000000000005
 22
44.82204068362397
 32
0.0
 13
71.04000000000005
 23
44.82204068362397
 33
0.0
  0
MTEXT
  5
1D8
330
1CE
100
AcDbEntity
  8
치수문자_일반주서
 62
     0
100
AcDbMText
 10
52.40475000000005
 20
49.19704068362397
 30
0.0
 40
3.5
 41
0.0
 71
     2
 72
     1
  1
\A1;9.53 [3/8]
  7
SLDTEXTSTYLE0
 73
     1
 44
1.0
  0
POINT
  5
1D9
330
1CE
100
AcDbEntity
  8
Defpoints
 62
     0
100
AcDbPoint
 10
80.56500000000003
 20
34.56369012327568
 30
0.0
  0
POINT
  5
1DA
330
1CE
100
AcDbEntity
  8
Defpoints
 62
     0
100
AcDbPoint
 10
71.04000000000005
 20
34.25934881408109
 30
0.0
  0
POINT
  5
1DB
330
1CE
100
AcDbEntity
  8
Defpoints
 62
     0
100
AcDbPoint
 10
71.04000000000005
 20
44.82204068362397
 30
0.0
  0
ENDBLK
  5
1DC
330
1CE
100
AcDbEntity
  8
0
100
AcDbBlockEnd
  0
BLOCK
  5
1DF
330
1DE
100
AcDbEntity
  8
0
100
AcDbBlockBegin
  2
*D11
 70
     1
 10
0.0
 20
0.0
 30
0.0
  3
*D11
  1
*D11
  0
LINE
  5
1E0
330
1DE
100
AcDbEntity
  8
치수문자_일반주서
 62
     0
370
    -2
100
AcDbLine
 10
80.56500000000003
 20
34.62619012327568
 30
0.0
 11
80.56500000000003
 21
56.82204068362394
 31
0.0
  0
LINE
  5
1E1
330
1DE
100
AcDbEntity
  8
치수문자_일반주서
 62
     0
370
    -2
100
AcDbLine
 10
17.06500000000005
 20
34.60994012327568
 30
0.0
 11
17.06500000000005
 21
56.82204068362394
 31
0.0
  0
LINE
  5
1E2
330
1DE
100
AcDbEntity
  8
치수문자_일반주서
 62
     0
370
    -2
100
AcDbLine
 10
77.26300000000003
 20
56.82204068362394
 30
0.0
 11
20.36700000000005
 21
56.82204068362394
 31
0.0
  0
SOLID
  5
1E3
330
1DE
100
AcDbEntity
  8
치수문자_일반주서
 62
     0
100
AcDbTrace
 10
77.26300000000003
 20
56.2717073502906
 30
0.0
 11
77.26300000000003
 21
57.37237401695727
 31
0.0
 12
80.56500000000003
 22
56.82204068362394
 32
0.0
 13
80.56500000000003
 23
56.82204068362394
 33
0.0
  0
SOLID
  5
1E4
330
1DE
100
AcDbEntity
  8
치수문자_일반주서
 62
     0
100
AcDbTrace
 10
20.36700000000005
 20
57.37237401695727
 30
0.0
 11
20.36700000000005
 21
56.2717073502906
 31
0.0
 12
17.06500000000005
 22
56.82204068362394
 32
0.0
 13
17.06500000000005
 23
56.82204068362394
 33
0.0
  0
MTEXT
  5
1E5
330
1DE
100
AcDbEntity
  8
치수문자_일반주서
 62
     0
100
AcDbMText
 10
48.52925919758562
 20
61.19704068362394
 30
0.0
 40
3.5
 41
0.0
 71
     2
 72
     1
  1
\A1;63.5 [2 1/2]
  7
SLDTEXTSTYLE0
 73
     1
 44
1.0
  0
POINT
  5
1E6
330
1DE
100
AcDbEntity
  8
Defpoints
 62
     0
100
AcDbPoint
 10
80.56500000000003
 20
34.56369012327568
 30
0.0
  0
POINT
  5
1E7
330
1DE
100
AcDbEntity
  8
Defpoints
 62
     0
100
AcDbPoint
 10
17.06500000000005
 20
34.54744012327568
 30
0.0
  0
POINT
  5
1E8
330
1DE
100
AcDbEntity
  8
Defpoints
 62
     0
100
AcDbPoint
 10
17.06500000000005
 20
56.82204068362394
 30
0.0
  0
ENDBLK
  5
1E9
330
1DE
100
AcDbEntity
  8
0
100
AcDbBlockEnd
  0
BLOCK
  5
201
330
200
100
AcDbEntity
  8
0
100
AcDbBlockBegin
  2
*D12
 70
     1
 10
0.0
 20
0.0
 30
0.0
  3
*D12
  1
*D12
  0
LINE
  5
202
330
200
100
AcDbEntity
  8
치수문자_일반주서
 62
     0
370
    -2
100
AcDbLine
 10
81.91980951823233
 20
27.0940096057008
 30
0.0
 11
98.45191476034208
 21
0.0
 31
0.0
  0
MTEXT
  5
203
330
200
100
AcDbEntity
  8
치수문자_일반주서
 62
     0
100
AcDbMText
 10
93.28661296931564
 20
13.50492998760524
 30
0.0
 40
3.5
 41
0.0
 71
     5
 72
     1
  1
\A1;R.76 [R0.030]
  7
SLDTEXTSTYLE0
 11
0.5208684838170025
 21
-0.8536369383796469
 31
0.0
 73
     1
 44
1.0
  0
LINE
  5
204
330
200
100
AcDbEntity
  8
치수문자_일반주서
 62
     0
370
    -2
100
AcDbLine
 10
79.80300000000003
 20
30.56319012327569
 30
0.0
 11
80.19990178466858
 21
29.9127187762304
 31
0.0
  0
SOLID
  5
205
330
200
100
AcDbEntity
  8
치수문자_일반주서
 62
     0
100
AcDbTrace
 10
82.38959437998726
 20
27.38066089462809
 30
0.0
 11
81.4500246564774
 21
26.80735831677351
 31
0.0
 12
80.19990178466858
 22
29.9127187762304
 32
0.0
 13
80.19990178466858
 23
29.9127187762304
 33
0.0
  0
POINT
  5
206
330
200
100
AcDbEntity
  8
Defpoints
 62
     0
100
AcDbPoint
 10
80.19990178466858
 20
29.9127187762304
 30
0.0
  0
POINT
  5
207
330
200
100
AcDbEntity
  8
Defpoints
 62
     0
100
AcDbPoint
 10
79.80300000000003
 20
30.56319012327569
 30
0.0
  0
ENDBLK
  5
208
330
200
100
AcDbEntity
  8
0
100
AcDbBlockEnd
  0
BLOCK
  5
24F
330
24E
100
AcDbEntity
  8
0
100
AcDbBlockBegin
  2
*D13
 70
     1
 10
0.0
 20
0.0
 30
0.0
  3
*D13
  1
*D13
  0
LINE
  5
251
330
24E
100
AcDbEntity
  8
치수문자_일반주서
 62
     0
370
    -2
100
AcDbLine
 10
95.94615592076573
 20
-42.33021021227691
 30
0.0
 11
82.5086559207657
 21
-42.33021021227696
 31
0.0
  0
LINE
  5
252
330
24E
100
AcDbEntity
  8
치수문자_일반주서
 62
     0
370
    -2
100
AcDbLine
 10
95.94615592076573
 20
-48.6802102122769
 30
0.0
 11
82.50865592076573
 21
-48.68021021227695
 31
0.0
  0
LINE
  5
253
330
24E
100
AcDbEntity
  8
치수문자_일반주서
 62
     0
370
    -2
100
AcDbLine
 10
82.50865592076572
 20
-45.63221021227696
 30
0.0
 11
82.50865592076572
 21
-45.37821021227695
 31
0.0
  0
SOLID
  5
254
330
24E
100
AcDbEntity
  8
치수문자_일반주서
 62
     0
100
AcDbTrace
 10
83.05898925409905
 20
-45.63221021227696
 30
0.0
 11
81.95832258743239
 21
-45.63221021227696
 31
0.0
 12
82.5086559207657
 22
-42.33021021227696
 32
0.0
 13
82.5086559207657
 23
-42.33021021227696
 33
0.0
  0
SOLID
  5
255
330
24E
100
AcDbEntity
  8
치수문자_일반주서
 62
     0
100
AcDbTrace
 10
81.95832258743239
 20
-45.37821021227695
 30
0.0
 11
83.05898925409905
 21
-45.37821021227695
 31
0.0
 12
82.50865592076573
 22
-48.68021021227695
 32
0.0
 13
82.50865592076573
 23
-48.68021021227695
 33
0.0
  0
MTEXT
  5
256
330
24E
100
AcDbEntity
  8
치수문자_일반주서
 62
     0
100
AcDbMText
 10
78.13365592076572
 20
-45.50521021227693
 30
0.0
 40
3.5
 41
0.0
 71
     2
 72
     1
  1
\A1;%%c6.35 [1/4]
  7
SLDTEXTSTYLE0
 11
-4.475859752819533E-15
 21
1.0
 31
0.0
 73
     1
 44
1.0
  0
POINT
  5
257
330
24E
100
AcDbEntity
  8
Defpoints
 62
     0
100
AcDbPoint
 10
96.00865592076573
 20
-42.33021021227691
 30
0.0
  0
POINT
  5
258
330
24E
100
AcDbEntity
  8
Defpoints
 62
     0
100
AcDbPoint
 10
96.00865592076573
 20
-48.6802102122769
 30
0.0
  0
POINT
  5
259
330
24E
100
AcDbEntity
  8
Defpoints
 62
     0
100
AcDbPoint
 10
82.50865592076573
 20
-48.68021021227695
 30
0.0
  0
ENDBLK
  5
250
330
24E
100
AcDbEntity
  8
0
100
AcDbBlockEnd
  0
BLOCK
  5
25B
330
25A
100
AcDbEntity
  8
0
100
AcDbBlockBegin
  2
*D14
 70
     1
 10
0.0
 20
0.0
 30
0.0
  3
*D14
  1
*D14
  0
LINE
  5
25D
330
25A
100
AcDbEntity
  8
치수문자_일반주서
 62
     0
370
    -2
100
AcDbLine
 10
158.7611559207657
 20
-43.1239602122769
 30
0.0
 11
169.1856565040652
 21
-43.12396021227686
 31
0.0
  0
LINE
  5
25E
330
25A
100
AcDbEntity
  8
치수문자_일반주서
 62
     0
370
    -2
100
AcDbLine
 10
158.7611559207657
 20
-47.88646021227689
 30
0.0
 11
169.1856565040653
 21
-47.88646021227684
 31
0.0
  0
LINE
  5
25F
330
25A
100
AcDbEntity
  8
치수문자_일반주서
 62
     0
370
    -2
100
AcDbLine
 10
169.1856565040652
 20
-43.12396021227686
 30
0.0
 11
169.185656504065
 21
-5.114759091580481
 31
0.0
  0
LINE
  5
260
330
25A
100
AcDbEntity
  8
치수문자_일반주서
 62
     0
370
    -2
100
AcDbLine
 10
169.1856565040652
 20
-43.12396021227686
 30
0.0
 11
169.1856565040653
 21
-47.88646021227684
 31
0.0
  0
LINE
  5
261
330
25A
100
AcDbEntity
  8
치수문자_일반주서
 62
     0
370
    -2
100
AcDbLine
 10
169.1856565040652
 20
-39.82196021227686
 30
0.0
 11
169.1856565040652
 21
-36.51996021227686
 31
0.0
  0
LINE
  5
262
330
25A
100
AcDbEntity
  8
치수문자_일반주서
 62
     0
370
    -2
100
AcDbLine
 10
169.1856565040653
 20
-51.18846021227684
 30
0.0
 11
169.1856565040653
 21
-54.49046021227684
 31
0.0
  0
SOLID
  5
263
330
25A
100
AcDbEntity
  8
치수문자_일반주서
 62
     0
100
AcDbTrace
 10
168.6353231707319
 20
-39.82196021227686
 30
0.0
 11
169.7359898373985
 21
-39.82196021227686
 31
0.0
 12
169.1856565040652
 22
-43.12396021227686
 32
0.0
 13
169.1856565040652
 23
-43.12396021227686
 33
0.0
  0
SOLID
  5
264
330
25A
100
AcDbEntity
  8
치수문자_일반주서
 62
     0
100
AcDbTrace
 10
169.7359898373986
 20
-51.18846021227684
 30
0.0
 11
168.635323170732
 21
-51.18846021227684
 31
0.0
 12
169.1856565040653
 22
-47.88646021227684
 32
0.0
 13
169.1856565040653
 23
-47.88646021227684
 33
0.0
  0
MTEXT
  5
265
330
25A
100
AcDbEntity
  8
치수문자_일반주서
 62
     0
100
AcDbMText
 10
164.8106565040651
 20
-19.11475909158051
 30
0.0
 40
3.5
 41
0.0
 71
     2
 72
     1
  1
\A1;%%c4.76 [3/16]
  7
SLDTEXTSTYLE0
 11
-5.967813003759386E-15
 21
1.0
 31
0.0
 73
     1
 44
1.0
  0
POINT
  5
266
330
25A
100
AcDbEntity
  8
Defpoints
 62
     0
100
AcDbPoint
 10
158.6986559207657
 20
-43.1239602122769
 30
0.0
  0
POINT
  5
267
330
25A
100
AcDbEntity
  8
Defpoints
 62
     0
100
AcDbPoint
 10
158.6986559207657
 20
-47.88646021227689
 30
0.0
  0
POINT
  5
268
330
25A
100
AcDbEntity
  8
Defpoints
 62
     0
100
AcDbPoint
 10
169.1856565040652
 20
-47.88646021227684
 30
0.0
  0
ENDBLK
  5
25C
330
25A
100
AcDbEntity
  8
0
100
AcDbBlockEnd
  0
BLOCK
  5
26A
330
269
100
AcDbEntity
  8
0
100
AcDbBlockBegin
  2
*D15
 70
     1
 10
0.0
 20
0.0
 30
0.0
  3
*D15
  1
*D15
  0
LINE
  5
26C
330
269
100
AcDbEntity
  8
치수문자_일반주서
 62
     0
370
    -2
100
AcDbLine
 10
158.6986559207657
 20
-43.0614602122769
 30
0.0
 11
158.6986559207657
 21
-32.86560965192861
 31
0.0
  0
LINE
  5
26D
330
269
100
AcDbEntity
  8
치수문자_일반주서
 62
     0
370
    -2
100
AcDbLine
 10
149.1736559207657
 20
-43.36580152147149
 30
0.0
 11
149.1736559207657
 21
-32.86560965192861
 31
0.0
  0
LINE
  5
26E
330
269
100
AcDbEntity
  8
치수문자_일반주서
 62
     0
370
    -2
100
AcDbLine
 10
149.1736559207657
 20
-32.86560965192861
 30
0.0
 11
118.7259059207657
 21
-32.86560965192861
 31
0.0
  0
LINE
  5
26F
330
269
100
AcDbEntity
  8
치수문자_일반주서
 62
     0
370
    -2
100
AcDbLine
 10
158.6986559207657
 20
-32.86560965192861
 30
0.0
 11
149.1736559207657
 21
-32.86560965192861
 31
0.0
  0
LINE
  5
270
330
269
100
AcDbEntity
  8
치수문자_일반주서
 62
     0
370
    -2
100
AcDbLine
 10
162.0006559207657
 20
-32.86560965192861
 30
0.0
 11
165.3026559207657
 21
-32.86560965192861
 31
0.0
  0
LINE
  5
271
330
269
100
AcDbEntity
  8
치수문자_일반주서
 62
     0
370
    -2
100
AcDbLine
 10
145.8716559207657
 20
-32.86560965192861
 30
0.0
 11
142.5696559207657
 21
-32.86560965192861
 31
0.0
  0
SOLID
  5
272
330
269
100
AcDbEntity
  8
치수문자_일반주서
 62
     0
100
AcDbTrace
 10
162.0006559207657
 20
-32.31527631859527
 30
0.0
 11
162.0006559207657
 21
-33.41594298526194
 31
0.0
 12
158.6986559207657
 22
-32.86560965192861
 32
0.0
 13
158.6986559207657
 23
-32.86560965192861
 33
0.0
  0
SOLID
  5
273
330
269
100
AcDbEntity
  8
치수문자_일반주서
 62
     0
100
AcDbTrace
 10
145.8716559207657
 20
-33.41594298526194
 30
0.0
 11
145.8716559207657
 21
-32.31527631859527
 31
0.0
 12
149.1736559207657
 22
-32.86560965192861
 32
0.0
 13
149.1736559207657
 23
-32.86560965192861
 33
0.0
  0
MTEXT
  5
274
330
269
100
AcDbEntity
  8
치수문자_일반주서
 62
     0
100
AcDbMText
 10
130.5384059207657
 20
-28.49060965192861
 30
0.0
 40
3.5
 41
0.0
 71
     2
 72
     1
  1
\A1;9.53 [3/8]
  7
SLDTEXTSTYLE0
 73
     1
 44
1.0
  0
POINT
  5
275
330
269
100
AcDbEntity
  8
Defpoints
 62
     0
100
AcDbPoint
 10
158.6986559207657
 20
-43.1239602122769
 30
0.0
  0
POINT
  5
276
330
269
100
AcDbEntity
  8
Defpoints
 62
     0
100
AcDbPoint
 10
149.1736559207657
 20
-43.42830152147149
 30
0.0
  0
POINT
  5
277
330
269
100
AcDbEntity
  8
Defpoints
 62
     0
100
AcDbPoint
 10
149.1736559207657
 20
-32.86560965192861
 30
0.0
  0
ENDBLK
  5
26B
330
269
100
AcDbEntity
  8
0
100
AcDbBlockEnd
  0
BLOCK
  5
279
330
278
100
AcDbEntity
  8
0
100
AcDbBlockBegin
  2
*D16
 70
     1
 10
0.0
 20
0.0
 30
0.0
  3
*D16
  1
*D16
  0
LINE
  5
27B
330
278
100
AcDbEntity
  8
치수문자_일반주서
 62
     0
370
    -2
100
AcDbLine
 10
158.6986559207657
 20
-43.0614602122769
 30
0.0
 11
158.6986559207657
 21
-20.86560965192864
 31
0.0
  0
LINE
  5
27C
330
278
100
AcDbEntity
  8
치수문자_일반주서
 62
     0
370
    -2
100
AcDbLine
 10
95.19865592076573
 20
-43.0777102122769
 30
0.0
 11
95.19865592076573
 21
-20.86560965192864
 31
0.0
  0
LINE
  5
27D
330
278
100
AcDbEntity
  8
치수문자_일반주서
 62
     0
370
    -2
100
AcDbLine
 10
155.3966559207657
 20
-20.86560965192864
 30
0.0
 11
98.50065592076572
 21
-20.86560965192864
 31
0.0
  0
SOLID
  5
27E
330
278
100
AcDbEntity
  8
치수문자_일반주서
 62
     0
100
AcDbTrace
 10
155.3966559207657
 20
-21.41594298526197
 30
0.0
 11
155.3966559207657
 21
-20.3152763185953
 31
0.0
 12
158.6986559207657
 22
-20.86560965192864
 32
0.0
 13
158.6986559207657
 23
-20.86560965192864
 33
0.0
  0
SOLID
  5
27F
330
278
100
AcDbEntity
  8
치수문자_일반주서
 62
     0
100
AcDbTrace
 10
98.50065592076572
 20
-20.3152763185953
 30
0.0
 11
98.50065592076572
 21
-21.41594298526197
 31
0.0
 12
95.19865592076573
 22
-20.86560965192864
 32
0.0
 13
95.19865592076573
 23
-20.86560965192864
 33
0.0
  0
MTEXT
  5
280
330
278
100
AcDbEntity
  8
치수문자_일반주서
 62
     0
100
AcDbMText
 10
126.6629151183513
 20
-16.49060965192864
 30
0.0
 40
3.5
 41
0.0
 71
     2
 72
     1
  1
\A1;63.5 [2 1/2]
  7
SLDTEXTSTYLE0
 73
     1
 44
1.0
  0
POINT
  5
281
330
278
100
AcDbEntity
  8
Defpoints
 62
     0
100
AcDbPoint
 10
158.6986559207657
 20
-43.1239602122769
 30
0.0
  0
POINT
  5
282
330
278
100
AcDbEntity
  8
Defpoints
 62
     0
100
AcDbPoint
 10
95.19865592076573
 20
-43.1402102122769
 30
0.0
  0
POINT
  5
283
330
278
100
AcDbEntity
  8
Defpoints
 62
     0
100
AcDbPoint
 10
95.19865592076573
 20
-20.86560965192864
 30
0.0
  0
ENDBLK
  5
27A
330
278
100
AcDbEntity
  8
0
100
AcDbBlockEnd
  0
BLOCK
  5
285
330
284
100
AcDbEntity
  8
0
100
AcDbBlockBegin
  2
*D17
 70
     1
 10
0.0
 20
0.0
 30
0.0
  3
*D17
  1
*D17
  0
LINE
  5
287
330
284
100
AcDbEntity
  8
치수문자_일반주서
 62
     0
370
    -2
100
AcDbLine
 10
160.053465438998
 20
-50.59364072985178
 30
0.0
 11
176.5855706811077
 21
-77.68765033555263
 31
0.0
  0
MTEXT
  5
288
330
284
100
AcDbEntity
  8
치수문자_일반주서
 62
     0
100
AcDbMText
 10
171.4202688900813
 20
-64.18272034794738
 30
0.0
 40
3.5
 41
0.0
 71
     5
 72
     1
  1
\A1;R.76 [R0.030]
  7
SLDTEXTSTYLE0
 11
0.5208684838170005
 21
-0.853636938379648
 31
0.0
 73
     1
 44
1.0
  0
LINE
  5
289
330
284
100
AcDbEntity
  8
치수문자_일반주서
 62
     0
370
    -2
100
AcDbLine
 10
157.9366559207657
 20
-47.12446021227689
 30
0.0
 11
158.3335577054343
 21
-47.77493155932218
 31
0.0
  0
SOLID
  5
28A
330
284
100
AcDbEntity
  8
치수문자_일반주서
 62
     0
100
AcDbTrace
 10
160.5232503007529
 20
-50.30698944092449
 30
0.0
 11
159.5836805772431
 21
-50.88029201877907
 31
0.0
 12
158.3335577054343
 22
-47.77493155932218
 32
0.0
 13
158.3335577054343
 23
-47.77493155932218
 33
0.0
  0
POINT
  5
28B
330
284
100
AcDbEntity
  8
Defpoints
 62
     0
100
AcDbPoint
 10
158.3335577054343
 20
-47.77493155932218
 30
0.0
  0
POINT
  5
28C
330
284
100
AcDbEntity
  8
Defpoints
 62
     0
100
AcDbPoint
 10
157.9366559207657
 20
-47.12446021227689
 30
0.0
  0
ENDBLK
  5
286
330
284
100
AcDbEntity
  8
0
100
AcDbBlockEnd
  0
BLOCK
  5
298
330
297
100
AcDbEntity
  8
0
100
AcDbBlockBegin
  2
*D18
 70
     1
 10
0.0
 20
0.0
 30
0.0
  3
*D18
  1
*D18
  0
LINE
  5
29A
330
297
100
AcDbEntity
  8
치수문자_일반주서
 62
     0
370
    -2
100
AcDbLine
 10
24.54594119838744
 20
-5.78966076700056
 30
0.0
 11
42.77249775565093
 21
-30.697691526474
 31
0.0
  0
MTEXT
  5
29B
330
297
100
AcDbEntity
  8
치수문자_일반주서
 62
     0
100
AcDbMText
 10
36.75259943197261
 20
-18.02589999034641
 30
0.0
 40
3.5
 41
0.0
 71
     5
 72
     1
  1
\A1;R.25 [R0.010]
  7
SLDTEXTSTYLE0
 11
0.590534645215814
 21
-0.8070122878865182
 31
0.0
 73
     1
 44
1.0
  0
LINE
  5
29C
330
297
100
AcDbEntity
  8
치수문자_일반주서
 62
     0
370
    -2
100
AcDbLine
 10
22.44600000000001
 20
-2.919925071276102
 30
0.0
 11
22.59599579988482
 21
-3.124906192399278
 31
0.0
  0
SOLID
  5
29D
330
297
100
AcDbEntity
  8
치수문자_일반주서
 62
     0
100
AcDbTrace
 10
24.99006696082099
 20
-5.464669867250124
 30
0.0
 11
24.10181543595389
 21
-6.114651666750997
 31
0.0
 12
22.59599579988482
 22
-3.124906192399278
 32
0.0
 13
22.59599579988482
 23
-3.124906192399278
 33
0.0
  0
POINT
  5
29E
330
297
100
AcDbEntity
  8
Defpoints
 62
     0
100
AcDbPoint
 10
22.59599579988482
 20
-3.124906192399278
 30
0.0
  0
POINT
  5
29F
330
297
100
AcDbEntity
  8
Defpoints
 62
     0
100
AcDbPoint
 10
22.44600000000001
 20
-2.919925071276102
 30
0.0
  0
ENDBLK
  5
299
330
297
100
AcDbEntity
  8
0
100
AcDbBlockEnd
  0
ENDSEC
  0
SECTION
  2
ENTITIES
  0
LINE
  5
96
330
1F
100
AcDbEntity
  8
외형선
  6
Continuous
370
    15
100
AcDbLine
 10
8.479905643885381
 20
3.176074928723893
 30
0.0
 11
-52.68999999999999
 21
3.176074928723889
 31
0.0
  0
LINE
  5
97
330
1F
100
AcDbEntity
  8
외형선
  6
Continuous
370
    15
100
AcDbLine
 10
-52.68999999999999
 20
-3.17392507127611
 30
0.0
 11
8.479905643885381
 21
-3.173925071276107
 31
0.0
  0
LINE
  5
98
330
1F
100
AcDbEntity
  8
외형선
  6
Continuous
370
    15
100
AcDbLine
 10
-52.68999999999999
 20
3.176074928723885
 30
0.0
 11
-53.49999999999999
 21
2.366074928723884
 31
0.0
  0
LINE
  5
99
330
1F
100
AcDbEntity
  8
외형선
  6
Continuous
370
    15
100
AcDbLine
 10
-53.49999999999999
 20
-2.363925071276106
 30
0.0
 11
-52.68999999999999
 21
-3.173925071276107
 31
0.0
  0
SPLINE
  5
9A
330
1F
100
AcDbEntity
  8
외형선
  6
Continuous
370
    15
100
AcDbSpline
210
0.0
220
0.0
230
1.0
 70
     8
 71
     3
 72
     9
 73
     5
 74
     0
 42
0.000000001
 43
0.00000001
 40
0.0
 40
0.0
 40
0.0
 40
0.0
 40
0.5248284408705133
 40
1.0
 40
1.0
 40
1.0
 40
1.0
 10
8.743079612787165
 20
-2.631141920365594
 30
0.0
 10
8.963109766843292
 20
-2.610939382524716
 30
0.0
 10
9.382351821811142
 20
-2.572445779153358
 30
0.0
 10
9.801047650351483
 20
-2.545460407695086
 30
0.0
 10
10.00000000000001
 20
-2.532637726665569
 30
0.0
  0
LINE
  5
9B
330
1F
100
AcDbEntity
  8
0
  6
Continuous
 62
     1
370
    15
100
AcDbLine
 10
14.47356676894649
 20
0.8146632224124742
 30
0.0
 11
13.59427468241566
 21
1.255184251755103
 31
0.0
  0
SPLINE
  5
9C
330
1F
100
AcDbEntity
  8
0
  6
Continuous
 62
     1
370
    15
100
AcDbSpline
210
0.0
220
0.0
230
1.0
 70
     8
 71
     3
 72
    17
 73
    13
 74
     0
 42
0.000000001
 43
0.00000001
 40
0.0
 40
0.0
 40
0.0
 40
0.0
 40
0.156867487358289
 40
0.267137193457849
 40
0.3735577455076348
 40
0.5048362616329578
 40
0.6344856356472417
 40
0.72167815028628
 40
0.8015619037712922
 40
0.8762156107136962
 40
0.9479190357332149
 40
1.0
 40
1.0
 40
1.0
 40
1.0
 10
13.42497926504479
 20
2.524051931255315
 30
0.0
 10
13.28883301427265
 20
2.517270321315074
 30
0.0
 10
13.0569830118052
 20
2.505721591383394
 30
0.0
 10
12.72654346561668
 20
2.494255032797757
 30
0.0
 10
12.41778893336422
 20
2.486228373567234
 30
0.0
 10
12.09561262025641
 20
2.481291905224211
 30
0.0
 10
11.78488723542127
 20
2.48013980547117
 30
0.0
 10
11.51945071878807
 20
2.48093344943413
 30
0.0
 10
11.30474890724833
 20
2.483830439532296
 30
0.0
 10
11.11850819235508
 20
2.488362258206448
 30
0.0
 10
10.95018579478009
 20
2.492671605028573
 30
0.0
 10
10.84128742784337
 20
2.496315639623289
 30
0.0
 10
10.79546959903763
 20
2.497848828392959
 30
0.0
  0
SPLINE
  5
9D
330
1F
100
AcDbEntity
  8
0
  6
Continuous
 62
     1
370
    15
100
AcDbSpline
210
0.0
220
0.0
230
1.0
 70
     8
 71
     3
 72
    25
 73
    21
 74
     0
 42
0.000000001
 43
0.00000001
 40
0.0
 40
0.0
 40
0.0
 40
0.0
 40
0.0751780827641084
 40
0.1288112256399864
 40
0.1640618511671264
 40
0.2055163247459008
 40
0.2575251638600916
 40
0.3075343152208527
 40
0.3712883137922419
 40
0.4254900990986341
 40
0.4793694326301049
 40
0.5521738861851213
 40
0.6357831514798596
 40
0.7103855945691504
 40
0.7403293915641446
 40
0.7679041459134577
 40
0.7957450773634234
 40
0.8417333618929115
 40
0.9097915821276387
 40
1.0
 40
1.0
 40
1.0
 40
1.0
 10
21.51942889839151
 20
2.172624483470504
 30
0.0
 10
21.38102033780866
 20
2.161379006482623
 30
0.0
 10
21.14386908744111
 20
2.14211084187326
 30
0.0
 10
20.84160920209827
 20
2.123933063596026
 30
0.0
 10
20.59854597932697
 20
2.111839466295724
 30
0.0
 10
20.35951285433418
 20
2.102315474316801
 30
0.0
 10
20.09409035527244
 20
2.094864795344007
 30
0.0
 10
19.78795365794918
 20
2.090246641010324
 30
0.0
 10
19.47763823940099
 20
2.090147825576762
 30
0.0
 10
19.1598560849366
 20
2.094850798297252
 30
0.0
 10
18.82518836597825
 20
2.104408993490207
 30
0.0
 10
18.4367345093689
 20
2.12179779239844
 30
0.0
 10
18.00611194257557
 20
2.149692805688157
 30
0.0
 10
17.65678576146476
 20
2.179007555982134
 30
0.0
 10
17.41636903744476
 20
2.202220441671037
 30
0.0
 10
17.26047573665354
 20
2.218299359744213
 30
0.0
 10
17.07500258708216
 20
2.238619496165958
 30
0.0
 10
16.81309934502726
 20
2.269798703471693
 30
0.0
 10
16.43496804152082
 20
2.319007367128513
 30
0.0
 10
16.14079113443555
 20
2.363652558998671
 30
0.0
 10
15.97311692539099
 20
2.389099312479906
 30
0.0
  0
SPLINE
  5
9E
330
1F
100
AcDbEntity
  8
0
  6
Continuous
 62
     1
370
    15
100
AcDbSpline
210
0.0
220
0.0
230
1.0
 70
     8
 71
     3
 72
    16
 73
    12
 74
     0
 42
0.000000001
 43
0.00000001
 40
0.0
 40
0.0
 40
0.0
 40
0.0
 40
0.1707352164626354
 40
0.2959329690524363
 40
0.3824274012017662
 40
0.4818430654908519
 40
0.6045296942927881
 40
0.7211397479037188
 40
0.8643981200178639
 40
0.9876552989960211
 40
1.0
 40
1.0
 40
1.0
 40
1.0
 10
15.97311692539099
 20
-2.38694945503212
 30
0.0
 10
16.10671673967057
 20
-2.366527340214232
 30
0.0
 10
16.33828343413317
 20
-2.331129973475252
 30
0.0
 10
16.63811809065581
 20
-2.290399796650584
 30
0.0
 10
16.88538182622732
 20
-2.258995747078794
 30
0.0
 10
17.12931351315484
 20
-2.230131777456752
 30
0.0
 10
17.39602285181255
 20
-2.201728495193738
 30
0.0
 10
17.69691606723969
 20
-2.173231277271846
 30
0.0
 10
17.99867746280269
 20
-2.149125242278828
 30
0.0
 10
18.21700225889749
 20
-2.133478352327331
 30
0.0
 10
18.32342298781522
 20
-2.127762604131513
 30
0.0
 10
18.33311114316593
 20
-2.127242263244641
 30
0.0
  0
SPLINE
  5
9F
330
1F
100
AcDbEntity
  8
0
  6
Continuous
 62
     1
370
    15
100
AcDbSpline
210
0.0
220
0.0
230
1.0
 70
     8
 71
     3
 72
    19
 73
    15
 74
     0
 42
0.000000001
 43
0.00000001
 40
0.0
 40
0.0
 40
0.0
 40
0.0
 40
0.1279210845279271
 40
0.21564496779589
 40
0.2717233517495746
 40
0.3268123710358041
 40
0.3841680622098179
 40
0.4455419454684526
 40
0.5125310763120245
 40
0.6121393846121674
 40
0.7129993463884267
 40
0.7947611847207787
 40
0.8794802893430727
 40
1.0
 40
1.0
 40
1.0
 40
1.0
 10
10.00000000000001
 20
-2.532637726665569
 30
0.0
 10
10.14647264848806
 20
-2.524513674486235
 30
0.0
 10
10.3933912052119
 20
-2.51081842653669
 30
0.0
 10
10.70421816112985
 20
-2.49847648959485
 30
0.0
 10
10.93226046142697
 20
-2.491072799921681
 30
0.0
 10
11.11856050374747
 20
-2.486185498057898
 30
0.0
 10
11.30473359479891
 20
-2.481688456970379
 30
0.0
 10
11.51945531188678
 20
-2.478781229847727
 30
0.0
 10
11.7848852556038
 20
-2.477990966203834
 30
0.0
 10
12.09561324881325
 20
-2.479141724522238
 30
0.0
 10
12.4177887996897
 20
-2.484078584865578
 30
0.0
 10
12.72654349901588
 20
-2.492105158173433
 30
0.0
 10
13.05698299905734
 20
-2.503571740491575
 30
0.0
 10
13.28883300955637
 20
-2.515120466292775
 30
0.0
 10
13.42497926504479
 20
-2.521902073807529
 30
0.0
  0
SPLINE
  5
A0
330
1F
100
AcDbEntity
  8
외형선
  6
Continuous
370
    15
100
AcDbSpline
210
0.0
220
0.0
230
1.0
 70
     8
 71
     3
 72
    10
 73
     6
 74
     0
 42
0.000000001
 43
0.00000001
 40
0.0
 40
0.0
 40
0.0
 40
0.0
 40
0.5
 40
0.5
 40
1.0
 40
1.0
 40
1.0
 40
1.0
 10
10.00000000000001
 20
2.7698693560662
 30
0.0
 10
9.746862510356179
 20
2.841442268894364
 30
0.0
 10
9.496019817025514
 20
2.904017434330746
 30
0.0
 10
8.987660523655553
 20
3.010829957428067
 30
0.0
 10
8.732435855308063
 20
3.054828676175918
 30
0.0
 10
8.47980696076649
 20
3.088850370054399
 30
0.0
  0
LINE
  5
A1
330
1F
100
AcDbEntity
  8
외형선
  6
Continuous
370
    15
100
AcDbLine
 10
10.00000000000001
 20
2.7698693560662
 30
0.0
 11
10.00000000000001
 21
2.233039768985801
 31
0.0
  0
SPLINE
  5
A2
330
1F
100
AcDbEntity
  8
외형선
  6
Continuous
370
    15
100
AcDbSpline
210
0.0
220
0.0
230
1.0
 70
     8
 71
     3
 72
    10
 73
     6
 74
     0
 42
0.000000001
 43
0.00000001
 40
0.0
 40
0.0
 40
0.0
 40
0.0
 40
0.4999999999999999
 40
0.4999999999999999
 40
1.0
 40
1.0
 40
1.0
 40
1.0
 10
8.47990564388538
 20
2.764600392705233
 30
0.0
 10
8.732518764775982
 20
2.692649526624317
 30
0.0
 10
8.98772685264576
 20
2.611628982746291
 30
0.0
 10
9.496052776757463
 20
2.433659167029321
 30
0.0
 10
9.746878990632336
 20
2.337045268336039
 30
0.0
 10
10.00000000000001
 20
2.233039768985801
 30
0.0
  0
SPLINE
  5
A3
330
1F
100
AcDbEntity
  8
외형선
  6
Continuous
370
    15
100
AcDbSpline
210
0.0
220
0.0
230
1.0
 70
     8
 71
     3
 72
    10
 73
     6
 74
     0
 42
0.000000001
 43
0.00000001
 40
0.0
 40
0.0
 40
0.0
 40
0.0
 40
0.5
 40
0.5
 40
1.0
 40
1.0
 40
1.0
 40
1.0
 10
10.00000000000001
 20
-2.767719498618414
 30
0.0
 10
9.746862510356179
 20
-2.839292411446578
 30
0.0
 10
9.496019817025514
 20
-2.901867576882959
 30
0.0
 10
8.987660523655553
 20
-3.008680099980281
 30
0.0
 10
8.732435855308063
 20
-3.052678818728132
 30
0.0
 10
8.47980696076649
 20
-3.086700512606613
 30
0.0
  0
LINE
  5
A4
330
1F
100
AcDbEntity
  8
외형선
  6
Continuous
370
    15
100
AcDbLine
 10
8.479905643885381
 20
3.088882042936875
 30
0.0
 11
8.479905643885381
 21
3.176074928723893
 31
0.0
  0
LINE
  5
A5
330
1F
100
AcDbEntity
  8
외형선
  6
Continuous
370
    15
100
AcDbLine
 10
-52.68999999999999
 20
3.176074928723885
 30
0.0
 11
-52.68999999999999
 21
-3.17392507127611
 31
0.0
  0
LINE
  5
A6
330
1F
100
AcDbEntity
  8
외형선
  6
Continuous
370
    15
100
AcDbLine
 10
8.479905643885381
 20
-3.173925071276107
 30
0.0
 11
8.47990564388538
 21
2.764598013189273
 31
0.0
  0
LINE
  5
A7
330
1F
100
AcDbEntity
  8
외형선
  6
Continuous
370
    15
100
AcDbLine
 10
-53.49999999999999
 20
2.366074928723885
 30
0.0
 11
-53.49999999999999
 21
-2.363925071276108
 31
0.0
  0
SPLINE
  5
A8
330
1F
100
AcDbEntity
  8
외형선
  6
Continuous
370
    15
100
AcDbSpline
210
0.0
220
0.0
230
1.0
 70
    24
 71
     3
 72
    14
 73
    10
 74
     0
 42
0.000000001
 43
0.00000001
 40
0.0
 40
0.0
 40
0.0
 40
0.0
 40
0.25
 40
0.25
 40
0.5
 40
0.5
 40
0.75
 40
0.75
 40
1.0
 40
1.0
 40
1.0
 40
1.0
 10
9.999999999999948
 20
1.497156090875841
 30
0.0
 10
9.999999999999948
 20
1.253627365724323
 30
0.0
 10
9.999999999999948
 20
0.9850311038153599
 30
0.0
 10
9.999999999999948
 20
0.4172825579026869
 30
0.0
 10
9.999999999999948
 20
0.118346860585433
 30
0.0
 10
9.999999999999948
 20
-0.4813850077726171
 30
0.0
 10
9.999999999999948
 20
-0.7818616166002301
 30
0.0
 10
9.999999999999948
 20
-1.355481533245839
 30
0.0
 10
9.999999999999948
 20
-1.628400007720379
 30
0.0
 10
9.999999999999948
 20
-1.877264731070454
 30
0.0
  0
SPLINE
  5
A9
330
1F
100
AcDbEntity
  8
외형선
  6
Continuous
370
    15
100
AcDbSpline
210
0.0
220
0.0
230
1.0
 70
     8
 71
     3
 72
    10
 73
     6
 74
     0
 42
0.000000001
 43
0.00000001
 40
0.0
 40
0.0
 40
0.0
 40
0.0
 40
0.5
 40
0.5
 40
1.0
 40
1.0
 40
1.0
 40
1.0
 10
10.00000000000001
 20
-1.877264731070472
 30
0.0
 10
9.746872969691974
 20
-1.79851065875802
 30
0.0
 10
9.496040735181063
 20
-1.714035976069695
 30
0.0
 10
8.98770261986807
 20
-1.533960442847238
 30
0.0
 10
8.732488474442198
 20
-1.438590882891432
 30
0.0
 10
8.479869590747034
 20
-1.339279837137767
 30
0.0
  0
SPLINE
  5
AA
330
1F
100
AcDbEntity
  8
외형선
  6
Continuous
370
    15
100
AcDbSpline
210
0.0
220
0.0
230
1.0
 70
     8
 71
     3
 72
    10
 73
     6
 74
     0
 42
0.000000001
 43
0.00000001
 40
0.0
 40
0.0
 40
0.0
 40
0.0
 40
0.5
 40
0.5
 40
1.0
 40
1.0
 40
1.0
 40
1.0
 10
10.00000000000001
 20
1.497156090875823
 30
0.0
 10
9.746875017826552
 20
1.572857608471905
 30
0.0
 10
9.496044831347291
 20
1.643586397872383
 30
0.0
 10
8.987710863097217
 20
1.774754498342307
 30
0.0
 10
8.732498778260425
 20
1.83495051624787
 30
0.0
 10
8.479881854887028
 20
1.888934052969208
 30
0.0
  0
SPLINE
  5
AB
330
1F
100
AcDbEntity
  8
외형선
  6
Continuous
370
    15
100
AcDbSpline
210
0.0
220
0.0
230
1.0
 70
    24
 71
     3
 72
    10
 73
     6
 74
     0
 42
0.000000001
 43
0.00000001
 40
0.0
 40
0.0
 40
0.0
 40
0.0
 40
0.5000000000000002
 40
0.5000000000000002
 40
1.0
 40
1.0
 40
1.0
 40
1.0
 10
10.00000000000001
 20
2.2330397689858
 30
0.0
 10
10.00000000000001
 20
2.156090328251886
 30
0.0
 10
10.00000000000001
 20
2.048075205137078
 30
0.0
 10
10.00000000000001
 20
1.792293536952875
 30
0.0
 10
10.00000000000001
 20
1.645364906924659
 30
0.0
 10
10.00000000000001
 20
1.497156090875824
 30
0.0
  0
LINE
  5
AC
330
1F
100
AcDbEntity
  8
외형선
  6
Continuous
370
    15
100
AcDbLine
 10
8.7448454942573
 20
-2.625305579017279
 30
0.0
 11
8.47980696076649
 21
-2.656627550095131
 31
0.0
  0
SPLINE
  5
AD
330
1F
100
AcDbEntity
  8
외형선
  6
Continuous
370
    15
100
AcDbSpline
210
0.0
220
0.0
230
1.0
 70
    24
 71
     3
 72
    12
 73
     8
 74
     0
 42
0.000000001
 43
0.00000001
 40
0.0
 40
0.0
 40
0.0
 40
0.0
 40
0.181796567786348
 40
0.3659786071741054
 40
0.6325778596034107
 40
0.9069085084138825
 40
0.9999999999999999
 40
0.9999999999999999
 40
0.9999999999999999
 40
0.9999999999999999
 10
10.00000000000001
 20
-1.877264731070472
 30
0.0
 10
10.00000000000001
 20
-1.950630291933012
 30
0.0
 10
10.00000000000001
 20
-2.098324091139247
 30
0.0
 10
10.00000000000001
 20
-2.297548936616591
 30
0.0
 10
10.00000000000001
 20
-2.456104525813913
 30
0.0
 10
10.00000000000001
 20
-2.535098896562868
 30
0.0
 10
10.00000000000001
 20
-2.525726554010991
 30
0.0
 10
10.00000000000001
 20
-2.523351941128738
 30
0.0
  0
SPLINE
  5
AE
330
1F
100
AcDbEntity
  8
외형선
  6
Continuous
370
    15
100
AcDbSpline
210
0.0
220
0.0
230
1.0
 70
    24
 71
     3
 72
    10
 73
     6
 74
     0
 42
0.000000001
 43
0.00000001
 40
0.0
 40
0.0
 40
0.0
 40
0.0
 40
0.0227444173387381
 40
0.7533286593156584
 40
1.0
 40
1.0
 40
1.0
 40
1.0
 10
10.00000000000001
 20
-2.575789454802354
 30
0.0
 10
10.00000000000001
 20
-2.577376860425803
 30
0.0
 10
10.00000000000001
 20
-2.629954076728755
 30
0.0
 10
10.00000000000001
 20
-2.692999639361967
 30
0.0
 10
10.00000000000001
 20
-2.752660390495647
 30
0.0
 10
10.00000000000001
 20
-2.767719498603582
 30
0.0
  0
SPLINE
  5
AF
330
1F
100
AcDbEntity
  8
0
  6
Continuous
 62
     1
370
    15
100
AcDbSpline
210
0.0
220
0.0
230
1.0
 70
     8
 71
     3
 72
    14
 73
    10
 74
     0
 42
0.000000001
 43
0.00000001
 40
0.0
 40
0.0
 40
0.0
 40
0.0
 40
0.1435603764052038
 40
0.2869628788213576
 40
0.4302936662292898
 40
0.5736396317276282
 40
0.7170875128548951
 40
0.8606934515089868
 40
1.0
 40
1.0
 40
1.0
 40
1.0
 10
22.70000000000001
 20
-2.503912010645194
 30
0.0
 10
22.30462010509705
 20
-2.420548290298674
 30
0.0
 10
21.51429511633275
 20
-2.253912525062349
 30
0.0
 10
20.32949534555174
 20
-1.868440015422793
 30
0.0
 10
19.14535517820566
 20
-1.404951146672544
 30
0.0
 10
17.96106923991292
 20
-0.873999920682157
 30
0.0
 10
16.77592773440321
 20
-0.3037760072091913
 30
0.0
 10
15.60157371296125
 20
0.2774309559298093
 30
0.0
 10
14.82251694436572
 20
0.647960318652774
 30
0.0
 10
14.43890818037383
 20
0.8304095528890721
 30
0.0
  0
LINE
  5
B0
330
1F
100
AcDbEntity
  8
0
  6
Continuous
 62
     1
370
    15
100
AcDbLine
 10
22.70000000000001
 20
-2.738622771145058
 30
0.0
 11
22.70000000000001
 21
-2.503912010645194
 31
0.0
  0
SPLINE
  5
B1
330
1F
100
AcDbEntity
  8
0
  6
Continuous
 62
     1
370
    15
100
AcDbSpline
210
0.0
220
0.0
230
1.0
 70
     8
 71
     3
 72
    10
 73
     6
 74
     0
 42
0.000000001
 43
0.00000001
 40
0.0
 40
0.0
 40
0.0
 40
0.0
 40
0.5
 40
0.5
 40
1.0
 40
1.0
 40
1.0
 40
1.0
 10
22.44600000000001
 20
-2.962194587974992
 30
0.0
 10
22.50661063814237
 20
-2.97476857899308
 30
0.0
 10
22.57218103519907
 20
-2.962542056026537
 30
0.0
 10
22.67136463847876
 20
-2.8787895772095
 30
0.0
 10
22.70000000000001
 20
-2.808792754850868
 30
0.0
 10
22.70000000000001
 20
-2.738622771145059
 30
0.0
  0
SPLINE
  5
B2
330
1F
100
AcDbEntity
  8
0
  6
Continuous
 62
     1
370
    15
100
AcDbSpline
210
0.0
220
0.0
230
1.0
 70
     8
 71
     3
 72
    38
 73
    34
 74
     0
 42
0.000000001
 43
0.00000001
 40
0.0
 40
0.0
 40
0.0
 40
0.0
 40
0.0624999999999999
 40
0.0624999999999999
 40
0.1249999999999998
 40
0.1249999999999998
 40
0.1874999999999997
 40
0.1874999999999997
 40
0.2499999999999996
 40
0.2499999999999996
 40
0.3124999999999994
 40
0.3124999999999994
 40
0.3749999999999993
 40
0.3749999999999993
 40
0.4374999999999992
 40
0.4374999999999992
 40
0.4999999999999991
 40
0.4999999999999991
 40
0.5624999999999992
 40
0.5624999999999992
 40
0.6249999999999993
 40
0.6249999999999993
 40
0.6874999999999994
 40
0.6874999999999994
 40
0.7499999999999996
 40
0.7499999999999996
 40
0.8124999999999997
 40
0.8124999999999997
 40
0.8749999999999998
 40
0.8749999999999998
 40
0.9374999999999999
 40
0.9374999999999999
 40
1.0
 40
1.0
 40
1.0
 40
1.0
 10
22.446
 20
-2.962194587974992
 30
0.0
 10
22.18703724129257
 20
-2.908471421517676
 30
0.0
 10
21.92574175628178
 20
-2.844667474186425
 30
0.0
 10
21.40629541473707
 20
-2.698749578038176
 30
0.0
 10
21.15009410888087
 20
-2.616904939062831
 30
0.0
 10
20.63095454941993
 20
-2.435640163452406
 30
0.0
 10
20.3696318278073
 20
-2.336331432200556
 30
0.0
 10
19.85129326540562
 20
-2.123354890127822
 30
0.0
 10
19.59482096352489
 20
-2.009826584358077
 30
0.0
 10
19.07481087111199
 20
-1.769095796833563
 30
0.0
 10
18.8136365499642
 20
-1.642206937572766
 30
0.0
 10
18.2967475051473
 20
-1.379242001299816
 30
0.0
 10
18.0392192787614
 20
-1.242891113725467
 30
0.0
 10
17.51868409064729
 20
-0.9618332789327562
 30
0.0
 10
17.25783347316812
 20
-0.8174971242791932
 30
0.0
 10
16.74273248863062
 20
-0.5255799635041696
 30
0.0
 10
16.48336573772794
 20
-0.3770404344359782
 30
0.0
 10
15.96265205611486
 20
-0.0780421894498873
 30
0.0
 10
15.70322081910991
 20
0.0720418798015229
 30
0.0
 10
15.18817629019036
 20
0.3700101230475551
 30
0.0
 10
14.92733758222641
 20
0.5188978816336302
 30
0.0
 10
14.40679240564067
 20
0.8120060804018968
 30
0.0
 10
14.14922217298432
 20
0.9558328822912555
 30
0.0
 10
13.63237989160823
 20
1.23651488992543
 30
0.0
 10
13.37121244177204
 20
1.373689761793506
 30
0.0
 10
12.85118239458974
 20
1.637555209338196
 30
0.0
 10
12.59469065884824
 20
1.763884108330377
 30
0.0
 10
12.07638906479329
 20
2.004855588704312
 30
0.0
 10
11.81506816083565
 20
2.119367603866625
 30
0.0
 10
11.29589872455191
 20
2.332997619345508
 30
0.0
 10
11.03970060012195
 20
2.431956341985356
 30
0.0
 10
10.52028135018984
 20
2.613931356150908
 30
0.0
 10
10.25898262508675
 20
2.696643770731533
 30
0.0
 10
9.999999999995831
 20
2.769869356067381
 30
0.0
  0
SPLINE
  5
B3
330
1F
100
AcDbEntity
  8
0
  6
Continuous
 62
     1
370
    15
100
AcDbSpline
210
0.0
220
0.0
230
1.0
 70
     8
 71
     3
 72
    12
 73
     8
 74
     0
 42
0.000000001
 43
0.00000001
 40
0.0
 40
0.0
 40
0.0
 40
0.0
 40
0.0834307298539278
 40
0.3298866152343344
 40
0.5762683841167561
 40
0.7878950309839292
 40
0.9999999999999999
 40
0.9999999999999999
 40
0.9999999999999999
 40
0.9999999999999999
 10
14.80528083832352
 20
-0.2969344258333219
 30
0.0
 10
14.67163370250972
 20
-0.2439678191294311
 30
0.0
 10
14.14319050961701
 20
-0.0345368979737995
 30
0.0
 10
13.22021441590949
 20
0.3432672602311938
 30
0.0
 10
12.09185666316652
 20
0.7849088371917221
 30
0.0
 10
11.01867614450809
 20
1.178482818034131
 30
0.0
 10
10.33981415539736
 20
1.390851756920204
 30
0.0
 10
10.00000000000001
 20
1.497156090875823
 30
0.0
  0
SPLINE
  5
B4
330
1F
100
AcDbEntity
  8
외형선
  6
Continuous
370
    15
100
AcDbSpline
210
0.0
220
0.0
230
1.0
 70
    24
 71
     3
 72
    10
 73
     6
 74
     0
 42
0.000000001
 43
0.00000001
 40
0.0
 40
0.0
 40
0.0
 40
0.0
 40
0.5000000000000002
 40
0.5000000000000002
 40
1.0
 40
1.0
 40
1.0
 40
1.0
 10
10.00000000000001
 20
2.2330397689858
 30
0.0
 10
10.00000000000001
 20
2.156090328251886
 30
0.0
 10
10.00000000000001
 20
2.048075205137078
 30
0.0
 10
10.00000000000001
 20
1.792293536952875
 30
0.0
 10
10.00000000000001
 20
1.645364906924659
 30
0.0
 10
10.00000000000001
 20
1.497156090875824
 30
0.0
  0
SPLINE
  5
B5
330
1F
100
AcDbEntity
  8
0
  6
Continuous
 62
     1
370
    15
100
AcDbSpline
210
0.0
220
0.0
230
1.0
 70
     8
 71
     3
 72
    38
 73
    34
 74
     0
 42
0.000000001
 43
0.00000001
 40
0.0
 40
0.0
 40
0.0
 40
0.0
 40
0.0625000000000001
 40
0.0625000000000001
 40
0.1250000000000002
 40
0.1250000000000002
 40
0.1875000000000002
 40
0.1875000000000002
 40
0.2500000000000003
 40
0.2500000000000003
 40
0.3125000000000003
 40
0.3125000000000003
 40
0.3750000000000002
 40
0.3750000000000002
 40
0.4375000000000002
 40
0.4375000000000002
 40
0.5000000000000002
 40
0.5000000000000002
 40
0.5625000000000002
 40
0.5625000000000002
 40
0.6250000000000002
 40
0.6250000000000002
 40
0.6875000000000001
 40
0.6875000000000001
 40
0.7500000000000001
 40
0.7500000000000001
 40
0.8125000000000001
 40
0.8125000000000001
 40
0.875
 40
0.875
 40
0.9375
 40
0.9375
 40
1.0
 40
1.0
 40
1.0
 40
1.0
 10
9.999999999997824
 20
2.233039768986123
 30
0.0
 10
10.25898262508886
 20
2.126625776276096
 30
0.0
 10
10.52028135019206
 20
2.012423868316121
 30
0.0
 10
11.03970060012437
 20
1.771819978426137
 30
0.0
 10
11.29589872455444
 20
1.645775280887036
 30
0.0
 10
11.81506816083841
 20
1.382488918672924
 30
0.0
 10
12.07638906479616
 20
1.24548145246559
 30
0.0
 10
12.59469065885129
 20
0.9648488002278807
 30
0.0
 10
12.85118239459291
 20
0.8213443184851958
 30
0.0
 10
13.37121244177545
 20
0.5285257668393246
 30
0.0
 10
13.63237989161175
 20
0.3796417125196099
 30
0.0
 10
14.149222172988
 20
0.0813913148482599
 30
0.0
 10
14.40679240564451
 20
-0.0683345669606137
 30
0.0
 10
14.92733758223048
 20
-0.3673652023780863
 30
0.0
 10
15.18817629019452
 20
-0.5162493240574982
 30
0.0
 10
15.7032208191142
 20
-0.808342963251093
 30
0.0
 10
15.96265205611935
 20
-0.9525435523308536
 30
0.0
 10
16.48336573773264
 20
-1.233950990219981
 30
0.0
 10
16.74273248863534
 20
-1.370805628400015
 30
0.0
 10
17.25783347317315
 20
-1.633892729364638
 30
0.0
 10
17.51868409065244
 20
-1.760981222126635
 30
0.0
 10
18.03921927876674
 20
-2.002337164373579
 30
0.0
 10
18.29674750515269
 20
-2.116306329943809
 30
0.0
 10
18.81363654996989
 20
-2.329717867192837
 30
0.0
 10
19.0748108711178
 20
-2.429361768799576
 30
0.0
 10
19.59482096353086
 20
-2.611453393905178
 30
0.0
 10
19.85129326541167
 20
-2.693695444446471
 30
0.0
 10
20.36963182781363
 20
-2.840302708462702
 30
0.0
 10
20.63095454942637
 20
-2.90453624994738
 30
0.0
 10
21.15009410888748
 20
-3.012913266545882
 30
0.0
 10
21.40629541474379
 20
-3.05703476524916
 30
0.0
 10
21.92574175628877
 20
-3.125031851766432
 30
0.0
 10
22.18703724129966
 20
-3.148726490585321
 30
0.0
 10
22.44600000000001
 20
-3.173925071276102
 30
0.0
  0
SPLINE
  5
B7
330
1F
100
AcDbEntity
  8
0
  6
Continuous
 62
     1
370
    15
100
AcDbSpline
210
0.0
220
0.0
230
1.0
 70
     8
 71
     3
 72
     8
 73
     4
 74
     0
 42
0.000000001
 43
0.00000001
 40
0.0
 40
0.0
 40
0.0
 40
0.0
 40
1.0
 40
1.0
 40
1.0
 40
1.0
 10
22.70000000000001
 20
-0.8474214249202273
 30
0.0
 10
22.2249232551836
 20
-0.4739289524691527
 30
0.0
 10
21.76157491095477
 20
-0.0802683770071944
 30
0.0
 10
21.31123646476662
 20
0.335763958516489
 30
0.0
  0
LINE
  5
B8
330
1F
100
AcDbEntity
  8
0
  6
Continuous
 62
     1
370
    15
100
AcDbLine
 10
21.64858107100639
 20
0.6188296931925444
 30
0.0
 11
22.70000000000001
 21
0.0010749287238948
 31
0.0
  0
LINE
  5
B9
330
1F
100
AcDbEntity
  8
0
  6
Continuous
 62
     1
370
    15
100
AcDbLine
 10
22.70000000000001
 20
0.0010749287238948
 30
0.0
 11
22.70000000000001
 21
-0.8474214249202275
 31
0.0
  0
SPLINE
  5
BA
330
1F
100
AcDbEntity
  8
0
  6
Continuous
 62
     1
370
    15
100
AcDbSpline
210
0.0
220
0.0
230
1.0
 70
     8
 71
     3
 72
    14
 73
    10
 74
     0
 42
0.000000001
 43
0.00000001
 40
0.0
 40
0.0
 40
0.0
 40
0.0
 40
0.1477112942591561
 40
0.2953616594318289
 40
0.4411861853694583
 40
0.5871158528216797
 40
0.7332085543147789
 40
0.8791873756453692
 40
0.9999999999999999
 40
0.9999999999999999
 40
0.9999999999999999
 40
0.9999999999999999
 10
21.5437306776279
 20
0.5308497667798568
 30
0.0
 10
21.14391155901484
 20
0.7090432992536306
 30
0.0
 10
20.34443824224237
 20
1.065356861567508
 30
0.0
 10
19.15035086565174
 20
1.540912086430656
 30
0.0
 10
17.9610861679147
 20
1.944021193368786
 30
0.0
 10
16.77593993811171
 20
2.256057151785183
 30
0.0
 10
15.59008431582364
 20
2.460433625634746
 30
0.0
 10
14.47243170159739
 20
2.557669539262268
 30
0.0
 10
13.75034086951949
 20
2.528745927474854
 30
0.0
 10
13.42335254265731
 20
2.515648290716384
 30
0.0
  0
SPLINE
  5
BB
330
1F
100
AcDbEntity
  8
0
  6
Continuous
 62
     1
370
    15
100
AcDbSpline
210
0.0
220
0.0
230
1.0
 70
    24
 71
     3
 72
     8
 73
     4
 74
     0
 42
0.000000001
 43
0.00000001
 40
0.0
 40
0.0
 40
0.0
 40
0.0
 40
1.0
 40
1.0
 40
1.0
 40
1.0
 10
21.54373067762669
 20
0.5308497667799859
 30
0.0
 10
21.46623158405414
 20
0.4658203059466853
 30
0.0
 10
21.38873352345683
 20
0.4007917118813848
 30
0.0
 10
21.31123646475718
 20
0.3357639585091834
 30
0.0
  0
SPLINE
  5
BC
330
1F
100
AcDbEntity
  8
0
  6
Continuous
 62
     1
370
    15
100
AcDbSpline
210
0.0
220
0.0
230
1.0
 70
    24
 71
     3
 72
    10
 73
     6
 74
     0
 42
0.000000001
 43
0.00000001
 40
0.0
 40
0.0
 40
0.0
 40
0.0
 40
0.5000000000000001
 40
0.5000000000000001
 40
1.0
 40
1.0
 40
1.0
 40
1.0
 10
22.70000000000001
 20
-2.503912010645193
 30
0.0
 10
22.70000000000001
 20
-2.311885231363188
 30
0.0
 10
22.70000000000001
 20
-2.069252032679145
 30
0.0
 10
22.70000000000001
 20
-1.505153196579515
 30
0.0
 10
22.70000000000001
 20
-1.184176202964014
 30
0.0
 10
22.70000000000001
 20
-0.8474214249203295
 30
0.0
  0
LINE
  5
BD
330
1F
100
AcDbEntity
  8
0
  6
Continuous
 62
     1
370
    15
100
AcDbLine
 10
22.70000000000001
 20
2.223574928723893
 30
0.0
 11
21.51936963831412
 21
2.172385024797917
 31
0.0
  0
SPLINE
  5
BE
330
1F
100
AcDbEntity
  8
0
  6
Continuous
 62
     1
370
    15
100
AcDbSpline
210
0.0
220
0.0
230
1.0
 70
    24
 71
     3
 72
    10
 73
     6
 74
     0
 42
0.000000001
 43
0.00000001
 40
0.0
 40
0.0
 40
0.0
 40
0.0
 40
0.5
 40
0.5
 40
1.0
 40
1.0
 40
1.0
 40
1.0
 10
22.70000000000001
 20
1.501074928721596
 30
0.0
 10
22.70000000000001
 20
1.682236186273083
 30
0.0
 10
22.70000000000001
 20
1.835943526241361
 30
0.0
 10
22.70000000000001
 20
2.07824451143977
 30
0.0
 10
22.70000000000001
 20
2.166857205650103
 30
0.0
 10
22.70000000000001
 20
2.223574928723893
 30
0.0
  0
SPLINE
  5
BF
330
1F
100
AcDbEntity
  8
0
  6
Continuous
 62
     1
370
    15
100
AcDbSpline
210
0.0
220
0.0
230
1.0
 70
    24
 71
     3
 72
     8
 73
     4
 74
     0
 42
0.000000001
 43
0.00000001
 40
0.0
 40
0.0
 40
0.0
 40
0.0
 40
1.0
 40
1.0
 40
1.0
 40
1.0
 10
22.70000000000001
 20
1.501074928723894
 30
0.0
 10
22.34112387580972
 20
1.199942105277494
 30
0.0
 10
21.95086612946885
 20
0.8724769742591338
 30
0.0
 10
21.54373067762775
 20
0.5308497667800721
 30
0.0
  0
SPLINE
  5
C0
330
1F
100
AcDbEntity
  8
0
  6
Continuous
 62
     1
370
    15
100
AcDbSpline
210
0.0
220
0.0
230
1.0
 70
     8
 71
     3
 72
    13
 73
     9
 74
     0
 42
0.000000001
 43
0.00000001
 40
0.0
 40
0.0
 40
0.0
 40
0.0
 40
0.065128807520806
 40
0.2633791435960094
 40
0.4614502579738677
 40
0.6594633571063024
 40
0.8295444670901484
 40
1.0
 40
1.0
 40
1.0
 40
1.0
 10
15.97930121697338
 20
-2.373957939834402
 30
0.0
 10
15.84947002363463
 20
-2.397782901300768
 30
0.0
 10
15.32443617432478
 20
-2.4941304038282
 30
0.0
 10
14.40466695261216
 20
-2.548782106408447
 30
0.0
 10
13.22019755318966
 20
-2.530311921674274
 30
0.0
 10
12.09184163906295
 20
-2.392367778739688
 30
0.0
 10
11.01870742050424
 20
-2.174893282578126
 30
0.0
 10
10.33981795507575
 20
-1.976546942733783
 30
0.0
 10
10.00000000000001
 20
-1.877264731070471
 30
0.0
  0
SPLINE
  5
C1
330
1F
100
AcDbEntity
  8
외형선
  6
Continuous
370
    15
100
AcDbSpline
210
0.0
220
0.0
230
1.0
 70
    24
 71
     3
 72
    14
 73
    10
 74
     0
 42
0.000000001
 43
0.00000001
 40
0.0
 40
0.0
 40
0.0
 40
0.0
 40
0.25
 40
0.25
 40
0.5
 40
0.5
 40
0.75
 40
0.75
 40
1.0
 40
1.0
 40
1.0
 40
1.0
 10
9.999999999999948
 20
1.497156090875841
 30
0.0
 10
9.999999999999948
 20
1.253627365724323
 30
0.0
 10
9.999999999999948
 20
0.9850311038153599
 30
0.0
 10
9.999999999999948
 20
0.4172825579026869
 30
0.0
 10
9.999999999999948
 20
0.118346860585433
 30
0.0
 10
9.999999999999948
 20
-0.4813850077726171
 30
0.0
 10
9.999999999999948
 20
-0.7818616166002301
 30
0.0
 10
9.999999999999948
 20
-1.355481533245839
 30
0.0
 10
9.999999999999948
 20
-1.628400007720379
 30
0.0
 10
9.999999999999948
 20
-1.877264731070454
 30
0.0
  0
SPLINE
  5
C2
330
1F
100
AcDbEntity
  8
외형선
  6
Continuous
370
    15
100
AcDbSpline
210
0.0
220
0.0
230
1.0
 70
    24
 71
     3
 72
    12
 73
     8
 74
     0
 42
0.000000001
 43
0.00000001
 40
0.0
 40
0.0
 40
0.0
 40
0.0
 40
0.1820624866085964
 40
0.3665139341132925
 40
0.6335031485758833
 40
0.9082350683450233
 40
1.0
 40
1.0
 40
1.0
 40
1.0
 10
10.00000000000001
 20
-1.877264731070471
 30
0.0
 10
10.00000000000001
 20
-1.950629860507769
 30
0.0
 10
10.00000000000001
 20
-2.098322791202505
 30
0.0
 10
10.00000000000001
 20
-2.297555201692743
 30
0.0
 10
10.00000000000001
 20
-2.456068592160583
 30
0.0
 10
10.00000000000001
 20
-2.535014997691147
 30
0.0
 10
10.00000000000001
 20
-2.525732384060182
 30
0.0
 10
10.00000000000001
 20
-2.523408166533851
 30
0.0
  0
LINE
  5
C3
330
1F
100
AcDbEntity
  8
0
  6
Continuous
 62
     1
370
    15
100
AcDbLine
 10
22.70000000000001
 20
-2.738622771145058
 30
0.0
 11
22.70000000000001
 21
-2.915043985402743
 31
0.0
  0
LINE
  5
C4
330
1F
100
AcDbEntity
  8
0
  6
Continuous
 62
     1
370
    15
100
AcDbLine
 10
22.70000000000001
 20
0.0010749287238948
 30
0.0
 11
22.70000000000001
 21
1.501074928723895
 31
0.0
  0
SPLINE
  5
C5
330
1F
100
AcDbEntity
  8
0
  6
Continuous
 62
     1
370
    15
100
AcDbSpline
210
0.0
220
0.0
230
1.0
 70
     8
 71
     3
 72
    13
 73
     9
 74
     0
 42
0.000000001
 43
0.00000001
 40
0.0
 40
0.0
 40
0.0
 40
0.0
 40
0.0196839831311369
 40
0.2429902862644237
 40
0.4447531271286627
 40
0.6476663046881275
 40
0.8234523689882357
 40
1.0
 40
1.0
 40
1.0
 40
1.0
 10
18.33455866551586
 20
2.130047437755904
 30
0.0
 10
18.36153633377361
 20
2.142323586044697
 30
0.0
 10
18.69456401872042
 20
2.293867344594239
 30
0.0
 10
19.30457059661641
 20
2.518802800677923
 30
0.0
 10
20.16417497844174
 20
2.796273760214129
 30
0.0
 10
20.96073434528082
 20
2.984062592533901
 30
0.0
 10
21.72064937389116
 20
3.111779657407499
 30
0.0
 10
22.11060469917048
 20
3.161563085197643
 30
0.0
 10
22.44600000000001
 20
3.1760749287239
 30
0.0
  0
SPLINE
  5
C7
330
1F
100
AcDbEntity
  8
0
  6
Continuous
 62
     1
370
    15
100
AcDbSpline
210
0.0
220
0.0
230
1.0
 70
    24
 71
     3
 72
    10
 73
     6
 74
     0
 42
0.000000001
 43
0.00000001
 40
0.0
 40
0.0
 40
0.0
 40
0.0
 40
0.5
 40
0.5
 40
1.0
 40
1.0
 40
1.0
 40
1.0
 10
22.70000000000001
 20
2.223574928723893
 30
0.0
 10
22.70000000000001
 20
2.323127630791611
 30
0.0
 10
22.70000000000001
 20
2.434394628828864
 30
0.0
 10
22.70000000000001
 20
2.669999008559368
 30
0.0
 10
22.70000000000001
 20
2.794183888038335
 30
0.0
 10
22.70000000000001
 20
2.91719384284993
 30
0.0
  0
LINE
  5
C8
330
1F
100
AcDbEntity
  8
0
  6
Continuous
 62
     1
370
    15
100
AcDbLine
 10
10.79546959903763
 20
-2.495698970945174
 30
0.0
 11
9.999999999995831
 21
-2.767719498619595
 31
0.0
  0
SPLINE
  5
C9
330
1F
100
AcDbEntity
  8
외형선
  6
Continuous
370
    15
100
AcDbSpline
210
0.0
220
0.0
230
1.0
 70
    24
 71
     3
 72
    11
 73
     7
 74
     0
 42
0.000000001
 43
0.00000001
 40
0.0
 40
0.0
 40
0.0
 40
0.0
 40
0.0231371142119569
 40
0.3880816991883798
 40
0.753454816606077
 40
1.0
 40
1.0
 40
1.0
 40
1.0
 10
10.00000000000001
 20
-2.575789454802354
 30
0.0
 10
10.00000000000001
 20
-2.577376882017481
 30
0.0
 10
10.00000000000001
 20
-2.604002996464625
 30
0.0
 10
10.00000000000001
 20
-2.653130896696341
 30
0.0
 10
10.00000000000001
 20
-2.715483566207396
 30
0.0
 10
10.00000000000001
 20
-2.752717675265355
 30
0.0
 10
10.00000000000001
 20
-2.767719498603582
 30
0.0
  0
LINE
  5
CA
330
1F
100
AcDbEntity
  8
중심선
 48
0.8
100
AcDbLine
 10
-56.5
 20
0.0010749287238892
 30
0.0
 11
25.69999999999999
 21
0.0010749287238993
 31
0.0
  0
LINE
  5
CB
330
1F
100
AcDbEntity
  8
참조1
100
AcDbLine
 10
-15.4
 20
0.0010749287238892
 30
0.0
 11
-15.39999999999999
 21
-39.99892507127611
 31
0.0
  0
LINE
  5
CC
330
1F
100
AcDbEntity
  8
참조1
100
AcDbLine
 10
-15.39999999999999
 20
-39.99892507127611
 30
0.0
 11
-14.66672777521594
 21
-39.9989250712761
 31
0.0
  0
CIRCLE
  5
CD
330
1F
100
AcDbEntity
  8
해칭선
100
AcDbCircle
 10
0.0
 20
0.0
 30
0.0
 40
3.000000000000001
  0
INSERT
  5
CE
330
1F
100
AcDbEntity
  8
0
  6
Continuous
 62
     7
100
AcDbBlockReference
 66
     1
  2
블럭10
 10
-29.3402729321252
 20
-52.04609937292004
 30
0.0
  0
ATTRIB
  5
CF
330
CE
100
AcDbEntity
  8
FORMAT
 62
     2
100
AcDbText
 10
-39.48190894426183
 20
-49.97073246008785
 30
0.0
 40
4.233333333333333
  1
EM636016 [ 2 FLUTE ]
 41
0.75
  7
SLDTEXTSTYLE0
 11
-39.48190894426183
 21
-52.08739912675452
 31
0.0
100
AcDbAttribute
  2
AUTOATTR0
 70
     0
 74
     1
  0
SEQEND
  5
D0
330
CE
100
AcDbEntity
  8
0
  6
Continuous
 62
     7
  0
HATCH
  5
D1
330
1F
100
AcDbEntity
  8
중심선
100
AcDbHatch
 10
0.0
 20
0.0
 30
0.0
210
0.0
220
0.0
230
1.0
  2
SOLID
 70
     1
 71
     0
 91
        1
 92
        0
 93
        4
 72
     1
 10
-23.62536362774437
 20
-35.7989250712761
 11
-27.07163887158165
 21
-35.7989250712761
 72
     1
 10
-27.07163887158165
 20
-35.7989250712761
 11
-29.1998687307857
 21
-38.3352506518487
 72
     1
 10
-29.1998687307857
 20
-38.3352506518487
 11
-25.75356040183524
 21
-38.33521122254621
 72
     1
 10
-25.75356040183524
 20
-38.33521122254621
 11
-23.62536362774437
 21
-35.7989250712761
 97
        0
 75
     0
 76
     1
 98
        1
 10
0.0
 20
0.0
  0
HATCH
  5
D2
330
1F
100
AcDbEntity
  8
중심선
100
AcDbHatch
 10
0.0
 20
0.0
 30
0.0
210
0.0
220
0.0
230
1.0
  2
SOLID
 70
     1
 71
     0
 91
        1
 92
        0
 93
        4
 72
     1
 10
-18.61259963670836
 20
-35.7989250712761
 11
-22.05887488054564
 21
-35.7989250712761
 72
     1
 10
-22.05887488054564
 20
-35.7989250712761
 11
-26.59001288890309
 21
-41.19892507127612
 72
     1
 10
-26.59001288890309
 20
-41.19892507127612
 11
-23.1437376450658
 21
-41.19892507127612
 72
     1
 10
-23.1437376450658
 20
-41.19892507127612
 11
-18.61259963670836
 21
-35.7989250712761
 97
        0
 75
     0
 76
     1
 98
        1
 10
0.0
 20
0.0
  0
HATCH
  5
D3
330
1F
100
AcDbEntity
  8
중심선
100
AcDbHatch
 10
0.0
 20
0.0
 30
0.0
210
0.0
220
0.0
230
1.0
  2
SOLID
 70
     1
 71
     0
 91
        1
 92
        0
 93
        4
 72
     1
 10
-13.59983564567255
 20
-35.7989250712761
 11
-17.04611088950963
 21
-35.7989250712761
 72
     1
 10
-17.04611088950963
 20
-35.7989250712761
 11
-24.09454779139888
 21
-44.19892507127612
 72
     1
 10
-24.09454779139888
 20
-44.19892507127612
 11
-20.6482725475616
 21
-44.19892507127612
 72
     1
 10
-20.6482725475616
 20
-44.19892507127612
 11
-13.59983564567255
 21
-35.7989250712761
 97
        0
 75
     0
 76
     1
 98
        1
 10
0.0
 20
0.0
  0
HATCH
  5
D4
330
1F
100
AcDbEntity
  8
중심선
100
AcDbHatch
 10
0.0
 20
0.0
 30
0.0
210
0.0
220
0.0
230
1.0
  2
SOLID
 70
     1
 71
     0
 91
        1
 92
        0
 93
        6
 72
     3
 10
-8.79994521466032
 20
-39.99892507132738
 11
3.960054785062284
 21
1.540850780301639E-10
 40
0.3939339440162633
 50
17.09539180608433
 51
320.0019657685074
 73
     0
 72
     1
 10
-7.116945558959725
 20
-38.58681907591438
 11
-4.811643685258687
 21
-36.65249236586649
 72
     3
 10
-8.799945214713167
 20
-39.99892507127625
 11
6.600054785286829
 21
-1.249000902703301E-13
 40
0.6363583540795982
 50
39.99873849337408
 51
368.4976242363725
 73
     1
 72
     1
 10
-2.374612722812558
 20
-39.03892507120613
 11
-10.11987790787724
 21
-39.03892507120613
 72
     1
 10
-10.11987790787724
 20
-39.03892507120613
 11
-10.11990295232318
 21
-40.95892507120602
 72
     1
 10
-10.11990295232318
 20
-40.95892507120602
 11
-5.678523182851142
 21
-40.95892507120599
 97
        0
 75
     0
 76
     1
 98
        1
 10
0.0
 20
0.0
  0
DIMENSION
  5
D5
330
1F
100
AcDbEntity
  8
치수문자_일반주서
100
AcDbDimension
  2
_D
 10
-66.18999999999998
 20
-3.173925071276169
 30
0.0
 11
-66.19
 21
0.0010749287238797
 31
0.0
 70
   160
  1
%%c<>
 71
     2
 42
6.349999999999994
 52
-270.0
  3
SLDDIMSTYLE0
100
AcDbAlignedDimension
 13
-52.68999999999998
 23
3.176074928723876
 33
0.0
 14
-52.68999999999998
 24
-3.173925071276118
 34
0.0
 50
90.0000000000002
100
AcDbRotatedDimension
1001
ACAD
1000
DSTYLE
1002
{
1070
   273
1070
     7
1070
   171
1070
     6
1002
}
  0
DIMENSION
  5
EA
330
1F
100
AcDbEntity
  8
치수문자_일반주서
100
AcDbDimension
  2
_D_1
 10
33.76937703789726
 20
-3.173925071276059
 30
0.0
 11
33.76937703789716
 21
26.39152604942032
 31
0.0
 70
   160
  1
%%c<>
 71
     2
 42
6.35
 52
-270.0
  3
SLDDIMSTYLE0
100
AcDbAlignedDimension
 13
22.70000000000001
 23
3.176074928723899
 33
0.0
 14
22.70000000000001
 24
-3.173925071276101
 34
0.0
 50
90.0000000000002
100
AcDbRotatedDimension
1001
ACAD
1000
DSTYLE
1002
{
1070
   273
1070
     7
1070
   171
1070
     6
1002
}
  0
DIMENSION
  5
FE
330
1F
100
AcDbEntity
  8
치수문자_일반주서
100
AcDbDimension
  2
_D_2
 10
10.00000000000001
 20
13.19630048907219
 30
0.0
 11
-10.774689725061
 21
13.19630048907219
 31
0.0
 70
   160
  1
<>
 71
     2
 42
12.7
  3
SLDDIMSTYLE0
100
AcDbAlignedDimension
 13
22.70000000000001
 23
3.176074928723899
 33
0.0
 14
10.00000000000001
 24
2.769869356051368
 34
0.0
 50
0.000000000000016
100
AcDbRotatedDimension
1001
ACAD
1000
DSTYLE
1002
{
1070
   273
1070
     7
1070
   171
1070
     6
1002
}
1001
ACAD_DSTYLE_DIMFLIPARROW_SYMBOL
1070
   385
1070
     0
1001
ACAD_DSTYLE_DIMFLIPARROW_WHICH_SYMBOL
1070
   386
1070
     3
  0
DIMENSION
  5
114
330
1F
100
AcDbEntity
  8
치수문자_일반주서
100
AcDbDimension
  2
_D_3
 10
-53.49999999999999
 20
25.19630048907214
 30
0.0
 11
-15.7428889628973
 21
25.19630048907214
 31
0.0
 70
   160
  1
<>
 71
     2
 42
76.2
  3
SLDDIMSTYLE0
100
AcDbAlignedDimension
 13
22.70000000000001
 23
3.176074928723899
 33
0.0
 14
-53.49999999999999
 24
2.366074928723885
 34
0.0
 50
0.0000000000000027
100
AcDbRotatedDimension
1001
ACAD
1000
DSTYLE
1002
{
1070
   273
1070
     7
1070
   171
1070
     6
1002
}
  0
LINE
  5
127
330
1F
100
AcDbEntity
  8
참조1
100
AcDbLine
 10
83.30561285443832
 20
7.441074928723896
 30
0.0
 11
83.30561285443832
 21
-7.438925071276109
 31
0.0
  0
LINE
  5
128
330
1F
100
AcDbEntity
  8
참조1
100
AcDbLine
 10
96.00561285443833
 20
5.441074928723896
 30
0.0
 11
83.30561285443832
 21
5.441074928723896
 31
0.0
  0
SOLID
  5
129
330
1F
100
AcDbEntity
  8
참조1
100
AcDbTrace
 10
83.30561285443832
 20
5.441074928723896
 30
0.0
 11
89.65561285443832
 21
4.425074928723896
 31
0.0
 12
89.65561285443832
 22
6.457074928723896
 32
0.0
 13
89.65561285443832
 23
6.457074928723896
 33
0.0
  0
LINE
  5
12A
330
1F
100
AcDbEntity
  8
참조1
100
AcDbLine
 10
96.00561285443833
 20
-5.438925071276109
 30
0.0
 11
83.30561285443832
 21
-5.438925071276109
 31
0.0
  0
SOLID
  5
12B
330
1F
100
AcDbEntity
  8
참조1
100
AcDbTrace
 10
83.30561285443832
 20
-5.438925071276109
 30
0.0
 11
89.65561285443832
 21
-6.454925071276109
 31
0.0
 12
89.65561285443832
 22
-4.422925071276109
 32
0.0
 13
89.65561285443832
 23
-4.422925071276109
 33
0.0
  0
MTEXT
  5
12C
330
1F
100
AcDbEntity
  8
참조1
100
AcDbMText
 10
92.7031029469086
 20
10.98929157337383
 30
0.0
 40
3.5
 41
0.0
 71
     1
 72
     1
  1
A
  7
SLDTEXTSTYLE0
 73
     1
 44
1.0
  0
MTEXT
  5
12D
330
1F
100
AcDbEntity
  8
참조1
100
AcDbMText
 10
92.7031029469086
 20
0.1092915733738251
 30
0.0
 40
3.5
 41
0.0
 71
     1
 72
     1
  1
A
  7
SLDTEXTSTYLE0
 73
     1
 44
1.0
  0
INSERT
  5
134
330
1F
100
AcDbEntity
  8
해칭선
100
AcDbBlockReference
  2
SW_DOWELSYMBOL_0
 10
0.0
 20
0.0
 30
0.0
  0
ARC
  5
292
330
1F
100
AcDbEntity
  8
0
  6
Continuous
 62
     1
370
    15
100
AcDbCircle
 10
22.44600000000001
 20
2.9220749287239
 30
0.0
 40
0.254
100
AcDbArc
 50
359.4410734736214
 51
90.0
  0
ARC
  5
293
102
{ACAD_REACTORS
102
}
330
1F
100
AcDbEntity
  8
0
  6
Continuous
 62
     1
370
    15
100
AcDbCircle
 10
22.44600000000001
 20
-2.919925071276102
 30
0.0
 40
0.254
100
AcDbArc
 50
270.0
 51
0.5589265263787055
  0
DIMENSION
  5
294
102
{ACAD_REACTORS
102
}
102
{ACAD_XDICTIONARY
360
295
102
}
330
1F
100
AcDbEntity
  8
치수문자_일반주서
100
AcDbDimension
  2
*D18
 10
22.44600000000001
 20
-2.919925071276102
 30
0.0
 11
34.6341921762705
 21
-19.57605343403792
 31
0.0
 70
   164
  1
<>
 71
     5
 42
0.2539999999999999
  3
SLDDIMSTYLE0
100
AcDbRadialDimension
 15
22.59599579988482
 25
-3.124906192399278
 35
0.0
 40
0.0
1001
ACAD_DSTYLE_DIMRADIAL_EXTENSION
1070
   387
1070
     1
1070
   388
1040
4.71238898038469
1070
   390
1040
0.0097551081620433
1001
ACAD
1000
DSTYLE
1002
{
1070
   171
1070
     3
1002
}
  0
ENDSEC
  0
SECTION
  2
OBJECTS
  0
DICTIONARY
  5
C
330
0
100
AcDbDictionary
281
     1
  3
ACAD_GROUP
350
D
  3
ACAD_IMAGE_VARS
350
158
  3
ACAD_LAYOUT
350
1A
  3
ACAD_MLINESTYLE
350
17
  3
ACAD_PLOTSETTINGS
350
19
  3
ACAD_PLOTSTYLENAME
350
E
  3
ACAD_SCALELIST
350
47
  3
APPDATA
350
156
  3
DWGPROPS
350
2A3
  0
DICTIONARY
  5
209
330
2
100
AcDbDictionary
280
     1
281
     1
  3
ACAD_LAYERSTATES
360
20A
  0
DICTIONARY
  5
295
330
294
100
AcDbDictionary
280
     1
281
     1
  0
DICTIONARY
  5
D
102
{ACAD_REACTORS
330
C
102
}
330
C
100
AcDbDictionary
281
     1
  0
RASTERVARIABLES
  5
158
102
{ACAD_REACTORS
330
C
102
}
330
C
100
AcDbRasterVariables
 90
        0
 70
     1
 71
     1
 72
     1
  0
DICTIONARY
  5
1A
102
{ACAD_REACTORS
330
C
102
}
330
C
100
AcDbDictionary
281
     1
  3
Layout1
350
1E
  3
Layout2
350
26
  3
Model
350
22
  0
DICTIONARY
  5
17
102
{ACAD_REACTORS
330
C
102
}
330
C
100
AcDbDictionary
281
     1
  3
Standard
350
18
  0
DICTIONARY
  5
19
102
{ACAD_REACTORS
330
C
102
}
330
C
100
AcDbDictionary
281
     1
  0
ACDBDICTIONARYWDFLT
  5
E
102
{ACAD_REACTORS
330
C
102
}
330
C
100
AcDbDictionary
281
     1
  3
Normal
350
F
100
AcDbDictionaryWithDefault
340
F
  0
DICTIONARY
  5
47
102
{ACAD_REACTORS
330
C
102
}
330
C
100
AcDbDictionary
281
     1
  3
A0
350
48
  3
A1
350
49
  3
A2
350
4A
  3
A3
350
4B
  3
A4
350
4C
  3
A5
350
4D
  3
A6
350
4E
  3
A7
350
4F
  3
A8
350
50
  3
A9
350
51
  3
B0
350
52
  3
B1
350
53
  3
B2
350
54
  3
B3
350
55
  3
B4
350
56
  3
B5
350
57
  3
B6
350
58
  3
B7
350
59
  3
B8
350
5A
  3
B9
350
5B
  3
C0
350
5C
  3
C1
350
5D
  3
C2
350
5E
  3
C3
350
5F
  3
C4
350
60
  3
C5
350
61
  3
C6
350
62
  3
C7
350
63
  3
C8
350
64
  3
C9
350
65
  3
D0
350
66
  3
D1
350
67
  3
D2
350
68
  0
DICTIONARY
  5
156
102
{ACAD_REACTORS
330
C
102
}
330
C
100
AcDbDictionary
281
     1
  0
XRECORD
  5
2A3
102
{ACAD_REACTORS
330
C
102
}
330
C
100
AcDbXrecord
280
     1
  1
DWGPROPS COOKIE
  2

  3

  4

  6

  7

  8
12017012
  9

300
=
301
=
302
=
303
=
304
=
305
=
306
=
307
=
308
=
309
=
 40
0.0
 41
2458288.275493576
 42
2458295.407127604
  1

 90
        0
  0
DICTIONARY
  5
20A
102
{ACAD_REACTORS
330
209
102
}
330
209
100
AcDbDictionary
281
     1
  0
LAYOUT
  5
1E
102
{ACAD_REACTORS
330
1A
102
}
330
1A
100
AcDbPlotSettings
  1

  2
none_device
  4

  6

 40
0.0
 41
0.0
 42
0.0
 43
0.0
 44
0.0
 45
0.0
 46
0.0
 47
0.0
 48
0.0
 49
0.0
140
0.0
141
0.0
142
1.0
143
1.0
 70
   688
 72
     1
 73
     0
 74
     5
  7

 75
    16
147
1.0
148
0.0
149
0.0
100
AcDbLayout
  1
Layout1
 70
     1
 71
     1
 10
0.0
 20
0.0
 11
420.0
 21
297.0
 12
0.0
 22
0.0
 32
0.0
 14
1.000000000000000E+20
 24
1.000000000000000E+20
 34
1.000000000000000E+20
 15
-1.000000000000000E+20
 25
-1.000000000000000E+20
 35
-1.000000000000000E+20
146
0.0
 13
0.0
 23
0.0
 33
0.0
 16
1.0
 26
0.0
 36
0.0
 17
0.0
 27
1.0
 37
0.0
 76
     0
330
1B
  0
LAYOUT
  5
26
102
{ACAD_REACTORS
330
1A
102
}
330
1A
100
AcDbPlotSettings
  1

  2
none_device
  4

  6

 40
0.0
 41
0.0
 42
0.0
 43
0.0
 44
0.0
 45
0.0
 46
0.0
 47
0.0
 48
0.0
 49
0.0
140
0.0
141
0.0
142
1.0
143
1.0
 70
   688
 72
     1
 73
     0
 74
     5
  7

 75
    16
147
1.0
148
0.0
149
0.0
100
AcDbLayout
  1
Layout2
 70
     1
 71
     2
 10
0.0
 20
0.0
 11
0.0
 21
0.0
 12
0.0
 22
0.0
 32
0.0
 14
0.0
 24
0.0
 34
0.0
 15
0.0
 25
0.0
 35
0.0
146
0.0
 13
0.0
 23
0.0
 33
0.0
 16
1.0
 26
0.0
 36
0.0
 17
0.0
 27
1.0
 37
0.0
 76
     0
330
23
  0
LAYOUT
  5
22
102
{ACAD_REACTORS
330
1A
102
}
330
1A
100
AcDbPlotSettings
  1

  2
none_device
  4
ANSI_A_(11.00_x_8.50_Inches)
  6

 40
6.35
 41
19.05
 42
6.35000508
 43
19.05000254
 44
279.4
 45
215.9
 46
118.1414670246906
 47
100.6729379848067
 48
0.0
 49
0.0
140
0.0
141
0.0
142
0.0629521635357261
143
1.0
 70
  1696
 72
     0
 73
     0
 74
     0
  7

 75
     0
147
0.0235690232323232
148
0.0
149
0.0
100
AcDbLayout
  1
Model
 70
     1
 71
     0
 10
0.0
 20
0.0
 11
420.0
 21
297.0
 12
0.0
 22
0.0
 32
0.0
 14
1.000000000000000E+20
 24
1.000000000000000E+20
 34
1.000000000000000E+20
 15
-1.000000000000000E+20
 25
-1.000000000000000E+20
 35
-1.000000000000000E+20
146
0.0
 13
0.0
 23
0.0
 33
0.0
 16
1.0
 26
0.0
 36
0.0
 17
0.0
 27
1.0
 37
0.0
 76
     0
330
1F
331
29
  0
MLINESTYLE
  5
18
102
{ACAD_REACTORS
330
17
102
}
330
17
100
AcDbMlineStyle
  2
Standard
 70
     0
  3

 62
   256
 51
90.0
 52
90.0
 71
     2
 49
0.5
 62
   256
  6
BYLAYER
 49
-0.5
 62
   256
  6
BYLAYER
  0
ACDBPLACEHOLDER
  5
F
102
{ACAD_REACTORS
330
E
102
}
330
E
  0
SCALE
  5
48
102
{ACAD_REACTORS
330
47
102
}
330
47
100
AcDbScale
 70
     0
300
1:1
140
1.0
141
1.0
290
     1
  0
SCALE
  5
49
102
{ACAD_REACTORS
330
47
102
}
330
47
100
AcDbScale
 70
     0
300
1:2
140
1.0
141
2.0
290
     0
  0
SCALE
  5
4A
102
{ACAD_REACTORS
330
47
102
}
330
47
100
AcDbScale
 70
     0
300
1:4
140
1.0
141
4.0
290
     0
  0
SCALE
  5
4B
102
{ACAD_REACTORS
330
47
102
}
330
47
100
AcDbScale
 70
     0
300
1:5
140
1.0
141
5.0
290
     0
  0
SCALE
  5
4C
102
{ACAD_REACTORS
330
47
102
}
330
47
100
AcDbScale
 70
     0
300
1:8
140
1.0
141
8.0
290
     0
  0
SCALE
  5
4D
102
{ACAD_REACTORS
330
47
102
}
330
47
100
AcDbScale
 70
     0
300
1:10
140
1.0
141
10.0
290
     0
  0
SCALE
  5
4E
102
{ACAD_REACTORS
330
47
102
}
330
47
100
AcDbScale
 70
     0
300
1:16
140
1.0
141
16.0
290
     0
  0
SCALE
  5
4F
102
{ACAD_REACTORS
330
47
102
}
330
47
100
AcDbScale
 70
     0
300
1:20
140
1.0
141
20.0
290
     0
  0
SCALE
  5
50
102
{ACAD_REACTORS
330
47
102
}
330
47
100
AcDbScale
 70
     0
300
1:30
140
1.0
141
30.0
290
     0
  0
SCALE
  5
51
102
{ACAD_REACTORS
330
47
102
}
330
47
100
AcDbScale
 70
     0
300
1:40
140
1.0
141
40.0
290
     0
  0
SCALE
  5
52
102
{ACAD_REACTORS
330
47
102
}
330
47
100
AcDbScale
 70
     0
300
1:50
140
1.0
141
50.0
290
     0
  0
SCALE
  5
53
102
{ACAD_REACTORS
330
47
102
}
330
47
100
AcDbScale
 70
     0
300
1:100
140
1.0
141
100.0
290
     0
  0
SCALE
  5
54
102
{ACAD_REACTORS
330
47
102
}
330
47
100
AcDbScale
 70
     0
300
2:1
140
2.0
141
1.0
290
     0
  0
SCALE
  5
55
102
{ACAD_REACTORS
330
47
102
}
330
47
100
AcDbScale
 70
     0
300
4:1
140
4.0
141
1.0
290
     0
  0
SCALE
  5
56
102
{ACAD_REACTORS
330
47
102
}
330
47
100
AcDbScale
 70
     0
300
8:1
140
8.0
141
1.0
290
     0
  0
SCALE
  5
57
102
{ACAD_REACTORS
330
47
102
}
330
47
100
AcDbScale
 70
     0
300
10:1
140
10.0
141
1.0
290
     0
  0
SCALE
  5
58
102
{ACAD_REACTORS
330
47
102
}
330
47
100
AcDbScale
 70
     0
300
100:1
140
100.0
141
1.0
290
     0
  0
SCALE
  5
59
102
{ACAD_REACTORS
330
47
102
}
330
47
100
AcDbScale
 70
     0
300
1/128" = 1'-0"
140
0.0078125
141
12.0
290
     0
  0
SCALE
  5
5A
102
{ACAD_REACTORS
330
47
102
}
330
47
100
AcDbScale
 70
     0
300
1/64" = 1'-0"
140
0.015625
141
12.0
290
     0
  0
SCALE
  5
5B
102
{ACAD_REACTORS
330
47
102
}
330
47
100
AcDbScale
 70
     0
300
1/32" = 1'-0"
140
0.03125
141
12.0
290
     0
  0
SCALE
  5
5C
102
{ACAD_REACTORS
330
47
102
}
330
47
100
AcDbScale
 70
     0
300
1/16" = 1'-0"
140
0.0625
141
12.0
290
     0
  0
SCALE
  5
5D
102
{ACAD_REACTORS
330
47
102
}
330
47
100
AcDbScale
 70
     0
300
3/32" = 1'-0"
140
0.09375
141
12.0
290
     0
  0
SCALE
  5
5E
102
{ACAD_REACTORS
330
47
102
}
330
47
100
AcDbScale
 70
     0
300
1/8" = 1'-0"
140
0.125
141
12.0
290
     0
  0
SCALE
  5
5F
102
{ACAD_REACTORS
330
47
102
}
330
47
100
AcDbScale
 70
     0
300
3/16" = 1'-0"
140
0.1875
141
12.0
290
     0
  0
SCALE
  5
60
102
{ACAD_REACTORS
330
47
102
}
330
47
100
AcDbScale
 70
     0
300
1/4" = 1'-0"
140
0.25
141
12.0
290
     0
  0
SCALE
  5
61
102
{ACAD_REACTORS
330
47
102
}
330
47
100
AcDbScale
 70
     0
300
3/8" = 1'-0"
140
0.375
141
12.0
290
     0
  0
SCALE
  5
62
102
{ACAD_REACTORS
330
47
102
}
330
47
100
AcDbScale
 70
     0
300
1/2" = 1'-0"
140
0.5
141
12.0
290
     0
  0
SCALE
  5
63
102
{ACAD_REACTORS
330
47
102
}
330
47
100
AcDbScale
 70
     0
300
3/4" = 1'-0"
140
0.75
141
12.0
290
     0
  0
SCALE
  5
64
102
{ACAD_REACTORS
330
47
102
}
330
47
100
AcDbScale
 70
     0
300
1" = 1'-0"
140
1.0
141
12.0
290
     0
  0
SCALE
  5
65
102
{ACAD_REACTORS
330
47
102
}
330
47
100
AcDbScale
 70
     0
300
1-1/2" = 1'-0"
140
1.5
141
12.0
290
     0
  0
SCALE
  5
66
102
{ACAD_REACTORS
330
47
102
}
330
47
100
AcDbScale
 70
     0
300
3" = 1'-0"
140
3.0
141
12.0
290
     0
  0
SCALE
  5
67
102
{ACAD_REACTORS
330
47
102
}
330
47
100
AcDbScale
 70
     0
300
6" = 1'-0"
140
6.0
141
12.0
290
     0
  0
SCALE
  5
68
102
{ACAD_REACTORS
330
47
102
}
330
47
100
AcDbScale
 70
     0
300
1'-0" = 1'-0"
140
12.0
141
12.0
290
     0
  0
ENDSEC
  0
EOF
