  0
SECTION
  2
HEADER
  9
$ACADVER
  1
AC1015
  9
$ACADMAINTVER
 70
     6
  9
$DWGCODEPAGE
  3
ANSI_949
  9
$INSBASE
 10
0.0
 20
0.0
 30
0.0
  9
$EXTMIN
 10
-52.50256088035022
 20
-49.97180738881175
 30
0.0
  9
$EXTMAX
 10
96.00561285443831
 20
43.43208820476418
 30
0.0
  9
$LIMMIN
 10
0.0
 20
0.0
  9
$LIMMAX
 10
420.0
 20
297.0
  9
$ORTHOMODE
 70
     1
  9
$REGENMODE
 70
     1
  9
$FILLMODE
 70
     1
  9
$QTEXTMODE
 70
     0
  9
$MIRRTEXT
 70
     1
  9
$LTSCALE
 40
1.0
  9
$ATTMODE
 70
     1
  9
$TEXTSIZE
 40
3.5
  9
$TRACEWID
 40
1.0
  9
$TEXTSTYLE
  7
Standard
  9
$CLAYER
  8
0
  9
$CELTYPE
  6
ByLayer
  9
$CECOLOR
 62
   256
  9
$CELTSCALE
 40
1.0
  9
$DISPSILH
 70
     0
  9
$DIMSCALE
 40
1.0
  9
$DIMASZ
 40
3.302
  9
$DIMEXO
 40
1.0
  9
$DIMDLI
 40
3.75
  9
$DIMRND
 40
0.0
  9
$DIMDLE
 40
0.0
  9
$DIMEXE
 40
1.0
  9
$DIMTP
 40
0.0
  9
$DIMTM
 40
0.0
  9
$DIMTXT
 40
3.5
  9
$DIMCEN
 40
2.5
  9
$DIMTSZ
 40
0.0
  9
$DIMTOL
 70
     0
  9
$DIMLIM
 70
     0
  9
$DIMTIH
 70
     1
  9
$DIMTOH
 70
     1
  9
$DIMSE1
 70
     0
  9
$DIMSE2
 70
     0
  9
$DIMTAD
 70
     1
  9
$DIMZIN
 70
     0
  9
$DIMBLK
  1

  9
$DIMASO
 70
     1
  9
$DIMSHO
 70
     1
  9
$DIMPOST
  1

  9
$DIMAPOST
  1

  9
$DIMALT
 70
     0
  9
$DIMALTD
 70
     3
  9
$DIMALTF
 40
0.0393700787401575
  9
$DIMLFAC
 40
1.0
  9
$DIMTOFL
 70
     1
  9
$DIMTVP
 40
0.0
  9
$DIMTIX
 70
     0
  9
$DIMSOXD
 70
     0
  9
$DIMSAH
 70
     0
  9
$DIMBLK1
  1

  9
$DIMBLK2
  1

  9
$DIMSTYLE
  2
ISO-25
  9
$DIMCLRD
 70
     0
  9
$DIMCLRE
 70
     0
  9
$DIMCLRT
 70
     0
  9
$DIMTFAC
 40
1.0
  9
$DIMGAP
 40
1.524
  9
$DIMJUST
 70
     0
  9
$DIMSD1
 70
     0
  9
$DIMSD2
 70
     0
  9
$DIMTOLJ
 70
     0
  9
$DIMTZIN
 70
     0
  9
$DIMALTZ
 70
     0
  9
$DIMALTTZ
 70
     0
  9
$DIMUPT
 70
     0
  9
$DIMDEC
 70
     2
  9
$DIMTDEC
 70
     2
  9
$DIMALTU
 70
     2
  9
$DIMALTTD
 70
     3
  9
$DIMTXSTY
  7
Standard
  9
$DIMAUNIT
 70
     0
  9
$DIMADEC
 70
     2
  9
$DIMALTRND
 40
0.0
  9
$DIMAZIN
 70
     0
  9
$DIMDSEP
 70
    44
  9
$DIMATFIT
 70
     3
  9
$DIMFRAC
 70
     0
  9
$DIMLDRBLK
  1

  9
$DIMLUNIT
 70
     2
  9
$DIMLWD
 70
    -2
  9
$DIMLWE
 70
    -2
  9
$DIMTMOVE
 70
     0
  9
$LUNITS
 70
     2
  9
$LUPREC
 70
     2
  9
$SKETCHINC
 40
1.0
  9
$FILLETRAD
 40
2.286
  9
$AUNITS
 70
     0
  9
$AUPREC
 70
     2
  9
$MENU
  1
.
  9
$ELEVATION
 40
0.0
  9
$PELEVATION
 40
0.0
  9
$THICKNESS
 40
0.0
  9
$LIMCHECK
 70
     0
  9
$CHAMFERA
 40
0.0
  9
$CHAMFERB
 40
0.0
  9
$CHAMFERC
 40
0.0
  9
$CHAMFERD
 40
0.0
  9
$SKPOLY
 70
     0
  9
$TDCREATE
 40
2458288.649170463
  9
$TDUCREATE
 40
2458288.274170463
  9
$TDUPDATE
 40
2458303.376278588
  9
$TDUUPDATE
 40
2458303.001278588
  9
$TDINDWG
 40
0.0036620486
  9
$TDUSRTIMER
 40
0.0003187847
  9
$USRTIMER
 70
     1
  9
$ANGBASE
 50
0.0
  9
$ANGDIR
 70
     0
  9
$PDMODE
 70
     0
  9
$PDSIZE
 40
-1.0
  9
$PLINEWID
 40
0.0
  9
$SPLFRAME
 70
     0
  9
$SPLINETYPE
 70
     6
  9
$SPLINESEGS
 70
     8
  9
$HANDSEED
  5
232
  9
$SURFTAB1
 70
     6
  9
$SURFTAB2
 70
     6
  9
$SURFTYPE
 70
     6
  9
$SURFU
 70
     6
  9
$SURFV
 70
     6
  9
$UCSBASE
  2

  9
$UCSNAME
  2

  9
$UCSORG
 10
0.0
 20
0.0
 30
0.0
  9
$UCSXDIR
 10
1.0
 20
0.0
 30
0.0
  9
$UCSYDIR
 10
0.0
 20
1.0
 30
0.0
  9
$UCSORTHOREF
  2

  9
$UCSORTHOVIEW
 70
     0
  9
$UCSORGTOP
 10
0.0
 20
0.0
 30
0.0
  9
$UCSORGBOTTOM
 10
0.0
 20
0.0
 30
0.0
  9
$UCSORGLEFT
 10
0.0
 20
0.0
 30
0.0
  9
$UCSORGRIGHT
 10
0.0
 20
0.0
 30
0.0
  9
$UCSORGFRONT
 10
0.0
 20
0.0
 30
0.0
  9
$UCSORGBACK
 10
0.0
 20
0.0
 30
0.0
  9
$PUCSBASE
  2

  9
$PUCSNAME
  2

  9
$PUCSORG
 10
0.0
 20
0.0
 30
0.0
  9
$PUCSXDIR
 10
1.0
 20
0.0
 30
0.0
  9
$PUCSYDIR
 10
0.0
 20
1.0
 30
0.0
  9
$PUCSORTHOREF
  2

  9
$PUCSORTHOVIEW
 70
     0
  9
$PUCSORGTOP
 10
0.0
 20
0.0
 30
0.0
  9
$PUCSORGBOTTOM
 10
0.0
 20
0.0
 30
0.0
  9
$PUCSORGLEFT
 10
0.0
 20
0.0
 30
0.0
  9
$PUCSORGRIGHT
 10
0.0
 20
0.0
 30
0.0
  9
$PUCSORGFRONT
 10
0.0
 20
0.0
 30
0.0
  9
$PUCSORGBACK
 10
0.0
 20
0.0
 30
0.0
  9
$USERI1
 70
     0
  9
$USERI2
 70
     0
  9
$USERI3
 70
     0
  9
$USERI4
 70
     0
  9
$USERI5
 70
     0
  9
$USERR1
 40
0.0
  9
$USERR2
 40
0.0
  9
$USERR3
 40
0.0
  9
$USERR4
 40
0.0
  9
$USERR5
 40
0.0
  9
$WORLDVIEW
 70
     1
  9
$SHADEDGE
 70
     3
  9
$SHADEDIF
 70
    70
  9
$TILEMODE
 70
     1
  9
$MAXACTVP
 70
    64
  9
$PINSBASE
 10
0.0
 20
0.0
 30
0.0
  9
$PLIMCHECK
 70
     0
  9
$PEXTMIN
 10
1.000000000000000E+20
 20
1.000000000000000E+20
 30
1.000000000000000E+20
  9
$PEXTMAX
 10
-1.000000000000000E+20
 20
-1.000000000000000E+20
 30
-1.000000000000000E+20
  9
$PLIMMIN
 10
0.0
 20
0.0
  9
$PLIMMAX
 10
0.0
 20
0.0
  9
$UNITMODE
 70
     0
  9
$VISRETAIN
 70
     1
  9
$PLINEGEN
 70
     0
  9
$PSLTSCALE
 70
     1
  9
$TREEDEPTH
 70
  3020
  9
$CMLSTYLE
  2
Standard
  9
$CMLJUST
 70
     0
  9
$CMLSCALE
 40
20.0
  9
$PROXYGRAPHICS
 70
     1
  9
$MEASUREMENT
 70
     1
  9
$CELWEIGHT
370
    -1
  9
$ENDCAPS
280
     0
  9
$JOINSTYLE
280
     0
  9
$LWDISPLAY
290
     1
  9
$INSUNITS
 70
     4
  9
$HYPERLINKBASE
  1

  9
$STYLESHEET
  1

  9
$XEDIT
290
     1
  9
$CEPSNTYPE
380
     0
  9
$PSTYLEMODE
290
     1
  9
$FINGERPRINTGUID
  2
{79D29D15-0869-4898-A4C9-D0CED34B4617}
  9
$VERSIONGUID
  2
{FAEB1C32-E019-11D5-929B-00C0DF256EC4}
  9
$EXTNAMES
290
     1
  9
$PSVPSCALE
 40
0.0
  9
$OLESTARTUP
290
     0
  0
ENDSEC
  0
SECTION
  2
CLASSES
  0
CLASS
  1
ACDBDICTIONARYWDFLT
  2
AcDbDictionaryWithDefault
  3
ObjectDBX Classes
 90
        0
280
     0
281
     0
  0
CLASS
  1
VISUALSTYLE
  2
AcDbVisualStyle
  3
ObjectDBX Classes
 90
     4095
280
     0
281
     0
  0
CLASS
  1
MATERIAL
  2
AcDbMaterial
  3
ObjectDBX Classes
 90
     1153
280
     0
281
     0
  0
CLASS
  1
SCALE
  2
AcDbScale
  3
ObjectDBX Classes
 90
     1153
280
     0
281
     0
  0
CLASS
  1
SUN
  2
AcDbSun
  3
SCENEOE
 90
     1153
280
     0
281
     0
  0
CLASS
  1
ACDBPLACEHOLDER
  2
AcDbPlaceHolder
  3
ObjectDBX Classes
 90
        0
280
     0
281
     0
  0
CLASS
  1
LAYOUT
  2
AcDbLayout
  3
ObjectDBX Classes
 90
        0
280
     0
281
     0
  0
CLASS
  1
TABLESTYLE
  2
AcDbTableStyle
  3
ObjectDBX Classes
 90
     4095
280
     0
281
     0
  0
CLASS
  1
MLEADERSTYLE
  2
AcDbMLeaderStyle
  3
ACDB_MLEADERSTYLE_CLASS
 90
     4095
280
     0
281
     0
  0
CLASS
  1
DICTIONARYVAR
  2
AcDbDictionaryVar
  3
ObjectDBX Classes
 90
        0
280
     0
281
     0
  0
ENDSEC
  0
SECTION
  2
TABLES
  0
TABLE
  2
VPORT
  5
8
330
0
100
AcDbSymbolTable
 70
     1
  0
VPORT
  5
29
330
8
100
AcDbSymbolTableRecord
100
AcDbViewportTableRecord
  2
*Active
 70
     0
 10
0.0
 20
0.0
 11
1.0
 21
1.0
 12
-9.864982675553392
 22
-3.350325785862832
 13
0.0
 23
0.0
 14
10.0
 24
10.0
 15
10.0
 25
10.0
 16
0.0
 26
0.0
 36
1.0
 17
0.0
 27
0.0
 37
0.0
 40
148.8624586022616
 41
2.268018018018018
 42
50.0
 43
0.0
 44
0.0
 50
0.0
 51
0.0
 71
    16
 72
  2000
 73
     1
 74
     3
 75
     0
 76
     0
 77
     0
 78
     0
281
     0
 65
     1
110
0.0
120
0.0
130
0.0
111
1.0
121
0.0
131
0.0
112
0.0
122
1.0
132
0.0
 79
     0
146
0.0
  0
ENDTAB
  0
TABLE
  2
LTYPE
  5
5
330
0
100
AcDbSymbolTable
 70
     6
  0
LTYPE
  5
14
330
5
100
AcDbSymbolTableRecord
100
AcDbLinetypeTableRecord
  2
ByBlock
 70
     0
  3

 72
    65
 73
     0
 40
0.0
  0
LTYPE
  5
15
330
5
100
AcDbSymbolTableRecord
100
AcDbLinetypeTableRecord
  2
ByLayer
 70
     0
  3

 72
    65
 73
     0
 40
0.0
  0
LTYPE
  5
16
330
5
100
AcDbSymbolTableRecord
100
AcDbLinetypeTableRecord
  2
Continuous
 70
     0
  3
Solid line
 72
    65
 73
     0
 40
0.0
  0
LTYPE
  5
6A
330
5
100
AcDbSymbolTableRecord
100
AcDbLinetypeTableRecord
  2
HIDDEN
 70
     0
  3
Hidden __ __ __ __ __ __ __ __ __ __ __ __ __ __
 72
    65
 73
     2
 40
1.905
 49
1.27
 74
     0
 49
-0.635
 74
     0
  0
LTYPE
  5
6B
330
5
100
AcDbSymbolTableRecord
100
AcDbLinetypeTableRecord
  2
PHANTOM
 70
     0
  3
Phantom ______  __  __  ______  __  __  ______
 72
    65
 73
     6
 40
12.7
 49
6.35
 74
     0
 49
-1.27
 74
     0
 49
1.27
 74
     0
 49
-1.27
 74
     0
 49
1.27
 74
     0
 49
-1.27
 74
     0
  0
LTYPE
  5
6C
330
5
100
AcDbSymbolTableRecord
100
AcDbLinetypeTableRecord
  2
CENTER
 70
     0
  3
Center ____ _ ____ _ ____ _ ____ _ ____ _ ____
 72
    65
 73
     4
 40
10.16
 49
6.35
 74
     0
 49
-1.27
 74
     0
 49
1.27
 74
     0
 49
-1.27
 74
     0
  0
LTYPE
  5
6D
330
5
100
AcDbSymbolTableRecord
100
AcDbLinetypeTableRecord
  2
CENTERX2
 70
     0
  3
Center (2x) ________  __  ________  __  _____
 72
    65
 73
     4
 40
20.32
 49
12.7
 74
     0
 49
-2.54
 74
     0
 49
2.54
 74
     0
 49
-2.54
 74
     0
  0
LTYPE
  5
6E
330
5
100
AcDbSymbolTableRecord
100
AcDbLinetypeTableRecord
  2
DOT2
 70
     0
  3
Dot (.5x) ........................................
 72
    65
 73
     2
 40
0.635
 49
0.0
 74
     0
 49
-0.635
 74
     0
  0
ENDTAB
  0
TABLE
  2
LAYER
  5
2
330
0
100
AcDbSymbolTable
 70
    18
  0
LAYER
  5
10
330
2
100
AcDbSymbolTableRecord
100
AcDbLayerTableRecord
  2
0
 70
     0
 62
     7
  6
Continuous
370
    -3
390
F
  0
LAYER
  5
6F
330
2
100
AcDbSymbolTableRecord
100
AcDbLayerTableRecord
  2
FORMAT
 70
     0
 62
     2
  6
Continuous
370
    -3
390
F
  0
LAYER
  5
70
330
2
100
AcDbSymbolTableRecord
100
AcDbLayerTableRecord
  2
외형선
 70
     0
 62
     4
  6
Continuous
370
    30
390
F
  0
LAYER
  5
71
330
2
100
AcDbSymbolTableRecord
100
AcDbLayerTableRecord
  2
숨은선
 70
     0
 62
     2
  6
HIDDEN
370
    15
390
F
  0
LAYER
  5
72
330
2
100
AcDbSymbolTableRecord
100
AcDbLayerTableRecord
  2
중심선
 70
     0
 62
     1
  6
CENTERX2
370
    -3
390
F
  0
LAYER
  5
73
330
2
100
AcDbSymbolTableRecord
100
AcDbLayerTableRecord
  2
파단선
 70
     0
 62
     4
  6
Continuous
370
    -3
390
F
  0
LAYER
  5
74
330
2
100
AcDbSymbolTableRecord
100
AcDbLayerTableRecord
  2
해칭선
 70
     0
 62
   100
  6
Continuous
370
    -3
390
F
  0
LAYER
  5
75
330
2
100
AcDbSymbolTableRecord
100
AcDbLayerTableRecord
  2
가는실선
 70
     0
 62
     4
  6
Continuous
370
    -3
390
F
  0
LAYER
  5
76
330
2
100
AcDbSymbolTableRecord
100
AcDbLayerTableRecord
  2
치수_보조선
 70
     0
 62
     4
  6
Continuous
370
    -3
390
F
  0
LAYER
  5
77
330
2
100
AcDbSymbolTableRecord
100
AcDbLayerTableRecord
  2
치수문자_일반주서
 70
     0
 62
     7
  6
Continuous
370
    15
390
F
  0
LAYER
  5
78
330
2
100
AcDbSymbolTableRecord
100
AcDbLayerTableRecord
  2
개별주서
 70
     0
 62
   100
  6
Continuous
370
    30
390
F
  0
LAYER
  5
79
330
2
100
AcDbSymbolTableRecord
100
AcDbLayerTableRecord
  2
중간선
 70
     0
 62
     2
  6
Continuous
370
    15
390
F
  0
LAYER
  5
7A
330
2
100
AcDbSymbolTableRecord
100
AcDbLayerTableRecord
  2
윤곽선
 70
     0
 62
     3
  6
Continuous
370
    40
390
F
  0
LAYER
  5
7B
330
2
100
AcDbSymbolTableRecord
100
AcDbLayerTableRecord
  2
중심마크
 70
     0
 62
   100
  6
Continuous
370
    30
390
F
  0
LAYER
  5
7C
330
2
100
AcDbSymbolTableRecord
100
AcDbLayerTableRecord
  2
가상선
 70
     0
 62
     4
  6
PHANTOM
370
    -3
390
F
  0
LAYER
  5
7D
330
2
100
AcDbSymbolTableRecord
100
AcDbLayerTableRecord
  2
특수지정선
 70
     0
 62
     5
  6
CENTERX2
370
    60
390
F
  0
LAYER
  5
7E
330
2
100
AcDbSymbolTableRecord
100
AcDbLayerTableRecord
  2
참조1
 70
     0
 62
    -4
  6
Continuous
370
    -3
390
F
  0
LAYER
  5
159
330
2
100
AcDbSymbolTableRecord
100
AcDbLayerTableRecord
  2
Defpoints
 70
     0
 62
     7
  6
Continuous
290
     0
370
    -3
390
F
  0
ENDTAB
  0
TABLE
  2
STYLE
  5
3
330
0
100
AcDbSymbolTable
 70
     2
  0
STYLE
  5
11
330
3
100
AcDbSymbolTableRecord
100
AcDbTextStyleTableRecord
  2
Standard
 70
     0
 40
0.0
 41
1.0
 50
0.0
 71
     0
 42
3.5
  3
txt
  4

  0
STYLE
  5
94
330
3
100
AcDbSymbolTableRecord
100
AcDbTextStyleTableRecord
  2
SLDTEXTSTYLE0
 70
     0
 40
0.0
 41
0.75
 50
0.0
 71
     0
 42
3.5
  3
TXT
  4

  0
ENDTAB
  0
TABLE
  2
VIEW
  5
6
330
0
100
AcDbSymbolTable
 70
     0
  0
ENDTAB
  0
TABLE
  2
UCS
  5
7
330
0
100
AcDbSymbolTable
 70
     0
  0
ENDTAB
  0
TABLE
  2
APPID
  5
9
330
0
100
AcDbSymbolTable
 70
     4
  0
APPID
  5
12
330
9
100
AcDbSymbolTableRecord
100
AcDbRegAppTableRecord
  2
ACAD
 70
     0
  0
APPID
  5
15A
330
9
100
AcDbSymbolTableRecord
100
AcDbRegAppTableRecord
  2
PE_URL
 70
     0
  0
APPID
  5
161
330
9
100
AcDbSymbolTableRecord
100
AcDbRegAppTableRecord
  2
ACAD_DSTYLE_DIMFLIPARROW_SYMBOL
 70
     0
  0
APPID
  5
162
330
9
100
AcDbSymbolTableRecord
100
AcDbRegAppTableRecord
  2
ACAD_DSTYLE_DIMFLIPARROW_WHICH_SYMBOL
 70
     0
  0
ENDTAB
  0
TABLE
  2
DIMSTYLE
  5
A
330
0
100
AcDbSymbolTable
 70
     4
100
AcDbDimStyleTable
  0
DIMSTYLE
105
27
102
{ACAD_REACTORS
330
20D
102
}
330
A
100
AcDbSymbolTableRecord
100
AcDbDimStyleTableRecord
  2
ISO-25
 70
     0
 41
2.5
 42
0.625
 43
3.75
 44
1.25
 73
     0
 74
     0
 77
     1
 78
     8
140
2.5
141
2.5
143
0.03937007874016
147
0.625
171
     3
172
     1
178
     0
271
     2
272
     2
274
     3
278
    44
283
     0
284
     8
340
11
  0
DIMSTYLE
105
D8
330
A
100
AcDbSymbolTableRecord
100
AcDbDimStyleTableRecord
  2
SLDDIMSTYLE0
 70
     0
 41
3.302
 44
0.0
 45
0.000000001
 73
     0
 74
     0
 77
     1
 78
    12
 79
     3
140
3.5
143
0.0393700787401575
147
0.875
148
0.000000001
170
     1
172
     1
173
     1
178
     0
271
     2
272
     2
276
     2
284
    12
289
     0
340
94
  0
DIMSTYLE
105
ED
102
{ACAD_REACTORS
330
EC
330
100
330
115
330
D7
102
}
330
A
100
AcDbSymbolTableRecord
100
AcDbDimStyleTableRecord
  2
SLDDIMSTYLE1
 70
     0
 41
3.302
 44
0.0
 45
0.000000001
 73
     0
 74
     0
 77
     1
 78
    12
 79
     3
140
3.5
143
0.0393700787401575
147
0.875
148
0.000000001
170
     1
173
     1
178
     0
271
     2
272
     2
276
     2
284
    12
340
94
  0
DIMSTYLE
105
116
330
A
100
AcDbSymbolTableRecord
100
AcDbDimStyleTableRecord
  2
SLDDIMSTYLE2
 70
     0
 41
3.302
 44
0.0
 45
0.000000001
 73
     0
 74
     0
 77
     1
 78
     4
 79
     1
140
3.5
143
0.0393700787401575
147
0.875
148
0.000000001
170
     1
173
     1
178
     0
271
     2
272
     2
276
     2
284
    12
340
94
  0
ENDTAB
  0
TABLE
  2
BLOCK_RECORD
  5
1
330
0
100
AcDbSymbolTable
 70
     7
  0
BLOCK_RECORD
  5
1F
330
1
100
AcDbSymbolTableRecord
100
AcDbBlockTableRecord
  2
*Model_Space
340
22
  0
BLOCK_RECORD
  5
1B
330
1
100
AcDbSymbolTableRecord
100
AcDbBlockTableRecord
  2
*Paper_Space
340
1E
  0
BLOCK_RECORD
  5
23
330
1
100
AcDbSymbolTableRecord
100
AcDbBlockTableRecord
  2
*Paper_Space0
340
26
  0
BLOCK_RECORD
  5
7F
330
1
100
AcDbSymbolTableRecord
100
AcDbBlockTableRecord
  2
블럭10
340
0
102
{BLKREFS
331
D0
102
}
  0
BLOCK_RECORD
  5
D9
330
1
100
AcDbSymbolTableRecord
100
AcDbBlockTableRecord
  2
_D
340
0
  0
BLOCK_RECORD
  5
EE
330
1
100
AcDbSymbolTableRecord
100
AcDbBlockTableRecord
  2
_D_1
340
0
  0
BLOCK_RECORD
  5
101
330
1
100
AcDbSymbolTableRecord
100
AcDbBlockTableRecord
  2
_D_2
340
0
  0
BLOCK_RECORD
  5
117
330
1
100
AcDbSymbolTableRecord
100
AcDbBlockTableRecord
  2
_D_3
340
0
  0
BLOCK_RECORD
  5
130
330
1
100
AcDbSymbolTableRecord
100
AcDbBlockTableRecord
  2
SW_DOWELSYMBOL_0
340
0
102
{BLKREFS
331
136
102
}
  0
ENDTAB
  0
ENDSEC
  0
SECTION
  2
BLOCKS
  0
BLOCK
  5
20
330
1F
100
AcDbEntity
  8
0
100
AcDbBlockBegin
  2
*Model_Space
 70
     0
 10
0.0
 20
0.0
 30
0.0
  3
*Model_Space
  1

  0
ENDBLK
  5
21
330
1F
100
AcDbEntity
  8
0
100
AcDbBlockEnd
  0
BLOCK
  5
1C
330
1B
100
AcDbEntity
 67
     1
  8
0
100
AcDbBlockBegin
  2
*Paper_Space
 70
     0
 10
0.0
 20
0.0
 30
0.0
  3
*Paper_Space
  1

  0
ENDBLK
  5
1D
330
1B
100
AcDbEntity
 67
     1
  8
0
100
AcDbBlockEnd
  0
BLOCK
  5
24
330
23
100
AcDbEntity
  8
0
100
AcDbBlockBegin
  2
*Paper_Space0
 70
     0
 10
0.0
 20
0.0
 30
0.0
  3
*Paper_Space0
  1

  0
ENDBLK
  5
25
330
23
100
AcDbEntity
  8
0
100
AcDbBlockEnd
  0
BLOCK
  5
80
330
7F
100
AcDbEntity
  8
0
100
AcDbBlockBegin
  2
블럭10
 70
     2
 10
0.0
 20
0.0
 30
0.0
  3
블럭10
  1

  0
ELLIPSE
  5
82
330
7F
100
AcDbEntity
  8
중심선
100
AcDbEllipse
 10
20.54032771741204
 20
12.0471743016438
 30
0.0
 11
6.600054785286829
 21
-1.261213355974178E-13
 31
0.0
210
0.0
220
0.0
230
1.0
 40
0.636358354079598
 41
0.9219305317359503
 42
6.513795318482858
  0
ELLIPSE
  5
83
330
7F
100
AcDbEntity
  8
중심선
100
AcDbEllipse
 10
20.54032771746488
 20
12.04717430159265
 30
0.0
 11
3.960054785062283
 21
1.540847449632565E-10
 31
0.0
210
0.0
220
0.0
230
1.0
 40
0.3939339440162632
 41
1.131841032648279
 42
5.62031148352944
  0
LINE
  5
84
330
7F
100
AcDbEntity
  8
중심선
100
AcDbLine
 10
2.268634060543552
 20
16.24717430164393
 30
0.0
 11
5.714909304380834
 21
16.24717430164393
 31
0.0
  0
LINE
  5
85
330
7F
100
AcDbEntity
  8
중심선
100
AcDbLine
 10
5.245725140726316
 20
7.84717430164391
 30
0.0
 11
8.692000384563599
 21
7.84717430164391
 31
0.0
  0
LINE
  5
86
330
7F
100
AcDbEntity
  8
중심선
100
AcDbLine
 10
15.74043728645272
 20
16.24717430164393
 30
0.0
 11
8.692000384563599
 21
7.84717430164391
 31
0.0
  0
LINE
  5
87
330
7F
100
AcDbEntity
  8
중심선
100
AcDbLine
 10
0.1404042013395286
 20
13.71084872107135
 30
0.0
 11
3.58671253028996
 21
13.71088815037384
 31
0.0
  0
LINE
  5
88
330
7F
100
AcDbEntity
  8
중심선
100
AcDbLine
 10
2.750260043222114
 20
10.84717430164391
 30
0.0
 11
6.196535287059397
 21
10.84717430164391
 31
0.0
  0
LINE
  5
89
330
7F
100
AcDbEntity
  8
중심선
100
AcDbLine
 10
12.29416204261559
 20
16.24717430164393
 30
0.0
 11
5.245725140726316
 21
7.84717430164391
 31
0.0
  0
LINE
  5
8A
330
7F
100
AcDbEntity
  8
중심선
100
AcDbLine
 10
10.72767329541681
 20
16.24717430164393
 30
0.0
 11
6.196535287059397
 21
10.84717430164391
 31
0.0
  0
LINE
  5
8B
330
7F
100
AcDbEntity
  8
중심선
100
AcDbLine
 10
7.28139805157953
 20
16.24717430164393
 30
0.0
 11
2.750260043222114
 21
10.84717430164391
 31
0.0
  0
LINE
  5
8C
330
7F
100
AcDbEntity
  8
중심선
100
AcDbLine
 10
5.714909304380834
 20
16.24717430164393
 30
0.0
 11
3.58671253028996
 21
13.71088815037384
 31
0.0
  0
LINE
  5
8D
330
7F
100
AcDbEntity
  8
중심선
100
AcDbLine
 10
2.268634060543552
 20
16.24717430164393
 30
0.0
 11
0.1404042013395286
 21
13.71084872107135
 31
0.0
  0
LINE
  5
8E
330
7F
100
AcDbEntity
  8
중심선
100
AcDbLine
 10
7.28139805157953
 20
16.24717430164393
 30
0.0
 11
10.72767329541681
 21
16.24717430164393
 31
0.0
  0
LINE
  5
8F
330
7F
100
AcDbEntity
  8
중심선
100
AcDbLine
 10
12.29416204261559
 20
16.24717430164393
 30
0.0
 11
15.74043728645272
 21
16.24717430164393
 31
0.0
  0
LINE
  5
90
330
7F
100
AcDbEntity
  8
중심선
100
AcDbLine
 10
19.22036997980202
 20
11.08717430171403
 30
0.0
 11
23.66174974927406
 21
11.08717430171406
 31
0.0
  0
LINE
  5
91
330
7F
100
AcDbEntity
  8
중심선
100
AcDbLine
 10
19.22039502424796
 20
13.00717430171391
 30
0.0
 11
19.22036997980202
 21
11.08717430171403
 31
0.0
  0
LINE
  5
92
330
7F
100
AcDbEntity
  8
중심선
100
AcDbLine
 10
19.22039502424796
 20
13.00717430171391
 30
0.0
 11
26.96566020931264
 21
13.00717430171391
 31
0.0
  0
LINE
  5
93
330
7F
100
AcDbEntity
  8
중심선
100
AcDbLine
 10
22.22332737316547
 20
13.45928029700563
 30
0.0
 11
24.52862924686651
 21
15.39360700705356
 31
0.0
  0
ATTDEF
  5
95
330
7F
100
AcDbEntity
  8
FORMAT
 62
     2
100
AcDbText
 10
3.448148490846466
 20
2.075366912832191
 30
0.0
 40
4.233333333333333
  1
EM211907
 41
0.75
  7
SLDTEXTSTYLE0
 11
3.448148490846466
 21
-0.0412997538344756
 31
0.0
100
AcDbAttributeDefinition
  3

  2
AUTOATTR0
 70
     0
 74
     1
  0
ENDBLK
  5
81
330
7F
100
AcDbEntity
  8
0
100
AcDbBlockEnd
  0
BLOCK
  5
DA
330
D9
100
AcDbEntity
  8
0
100
AcDbBlockBegin
  2
_D
 70
     0
 10
0.0
 20
0.0
 30
0.0
  3
_D
  1

  0
LINE
  5
DC
330
D9
100
AcDbEntity
  8
치수문자_일반주서
 62
     0
370
    -2
100
AcDbLine
 10
-37.68750000000001
 20
4.762500000000002
 30
0.0
 11
-48.12756088035011
 21
4.762499999999964
 31
0.0
  0
LINE
  5
DD
330
D9
100
AcDbEntity
  8
치수문자_일반주서
 62
     0
370
    -2
100
AcDbLine
 10
-37.68657822278255
 20
-4.762500000000006
 30
0.0
 11
-48.12756088035007
 21
-4.762500000000045
 31
0.0
  0
LINE
  5
DE
330
D9
100
AcDbEntity
  8
치수문자_일반주서
 62
     0
370
    -2
100
AcDbLine
 10
-48.12756088035011
 20
4.762499999999964
 30
0.0
 11
-48.12756088035022
 21
34.31449999999997
 31
0.0
  0
LINE
  5
DF
330
D9
100
AcDbEntity
  8
치수문자_일반주서
 62
     0
370
    -2
100
AcDbLine
 10
-48.12756088035011
 20
4.762499999999964
 30
0.0
 11
-48.12756088035007
 21
-4.762500000000045
 31
0.0
  0
LINE
  5
E0
330
D9
100
AcDbEntity
  8
치수문자_일반주서
 62
     0
370
    -2
100
AcDbLine
 10
-48.12756088035012
 20
8.064499999999963
 30
0.0
 11
-48.12756088035014
 21
11.36649999999996
 31
0.0
  0
LINE
  5
E1
330
D9
100
AcDbEntity
  8
치수문자_일반주서
 62
     0
370
    -2
100
AcDbLine
 10
-48.12756088035006
 20
-8.064500000000045
 30
0.0
 11
-48.12756088035005
 21
-11.36650000000004
 31
0.0
  0
SOLID
  5
E2
330
D9
100
AcDbEntity
  8
치수문자_일반주서
 62
     0
100
AcDbTrace
 10
-48.67789421368346
 20
8.064499999999962
 30
0.0
 11
-47.57722754701679
 21
8.064499999999965
 31
0.0
 12
-48.12756088035011
 22
4.762499999999964
 32
0.0
 13
-48.12756088035011
 23
4.762499999999964
 33
0.0
  0
SOLID
  5
E3
330
D9
100
AcDbEntity
  8
치수문자_일반주서
 62
     0
100
AcDbTrace
 10
-47.57722754701673
 20
-8.064500000000043
 30
0.0
 11
-48.67789421368339
 21
-8.064500000000047
 31
0.0
 12
-48.12756088035007
 22
-4.762500000000045
 32
0.0
 13
-48.12756088035007
 23
-4.762500000000045
 33
0.0
  0
MTEXT
  5
E4
330
D9
100
AcDbEntity
  8
치수문자_일반주서
 62
     0
100
AcDbMText
 10
-52.50256088035017
 20
21.18949999999995
 30
0.0
 40
3.5
 41
0.0
 71
     2
 72
     1
  1
\A1;%%c9.53 [3/8]
  7
SLDTEXTSTYLE0
 11
-3.729883127349603E-15
 21
1.0
 31
0.0
 73
     1
 44
1.0
  0
POINT
  5
15E
330
D9
100
AcDbEntity
  8
Defpoints
 62
     0
100
AcDbPoint
 10
-37.62500000000001
 20
4.762500000000002
 30
0.0
  0
POINT
  5
15F
330
D9
100
AcDbEntity
  8
Defpoints
 62
     0
100
AcDbPoint
 10
-37.62407822278255
 20
-4.762500000000006
 30
0.0
  0
POINT
  5
1C1
330
D9
100
AcDbEntity
  8
Defpoints
 62
     0
100
AcDbPoint
 10
-48.12756088035007
 20
-4.762500000000045
 30
0.0
  0
ENDBLK
  5
DB
330
D9
100
AcDbEntity
  8
0
100
AcDbBlockEnd
  0
BLOCK
  5
EF
330
EE
100
AcDbEntity
  8
0
100
AcDbBlockBegin
  2
_D_1
 70
     0
 10
0.0
 20
0.0
 30
0.0
  3
_D_1
  1

  0
LINE
  5
F1
330
EE
100
AcDbEntity
  8
치수문자_일반주서
 62
     0
370
    -2
100
AcDbLine
 10
38.63750000000001
 20
4.762500000000002
 30
0.0
 11
48.57500000000002
 21
4.762500000000042
 31
0.0
  0
LINE
  5
F2
330
EE
100
AcDbEntity
  8
치수문자_일반주서
 62
     0
370
    -2
100
AcDbLine
 10
38.6375
 20
-4.762499999999884
 30
0.0
 11
48.57500000000005
 21
-4.762499999999847
 31
0.0
  0
LINE
  5
F3
330
EE
100
AcDbEntity
  8
치수문자_일반주서
 62
     0
370
    -2
100
AcDbLine
 10
48.57500000000002
 20
4.762500000000042
 30
0.0
 11
48.5749999999999
 21
34.31450000000004
 31
0.0
  0
LINE
  5
F4
330
EE
100
AcDbEntity
  8
치수문자_일반주서
 62
     0
370
    -2
100
AcDbLine
 10
48.57500000000002
 20
4.762500000000042
 30
0.0
 11
48.57500000000005
 21
-4.762499999999847
 31
0.0
  0
LINE
  5
F5
330
EE
100
AcDbEntity
  8
치수문자_일반주서
 62
     0
370
    -2
100
AcDbLine
 10
48.575
 20
8.064500000000042
 30
0.0
 11
48.57499999999999
 21
11.36650000000004
 31
0.0
  0
LINE
  5
F6
330
EE
100
AcDbEntity
  8
치수문자_일반주서
 62
     0
370
    -2
100
AcDbLine
 10
48.57500000000007
 20
-8.064499999999846
 30
0.0
 11
48.57500000000008
 21
-11.36649999999985
 31
0.0
  0
SOLID
  5
F7
330
EE
100
AcDbEntity
  8
치수문자_일반주서
 62
     0
100
AcDbTrace
 10
48.02466666666667
 20
8.06450000000004
 30
0.0
 11
49.12533333333334
 21
8.064500000000043
 31
0.0
 12
48.57500000000002
 22
4.762500000000042
 32
0.0
 13
48.57500000000002
 23
4.762500000000042
 33
0.0
  0
SOLID
  5
F8
330
EE
100
AcDbEntity
  8
치수문자_일반주서
 62
     0
100
AcDbTrace
 10
49.1253333333334
 20
-8.064499999999844
 30
0.0
 11
48.02466666666673
 21
-8.064499999999848
 31
0.0
 12
48.57500000000005
 22
-4.762499999999847
 32
0.0
 13
48.57500000000005
 23
-4.762499999999847
 33
0.0
  0
MTEXT
  5
F9
330
EE
100
AcDbEntity
  8
치수문자_일반주서
 62
     0
100
AcDbMText
 10
44.19999999999995
 20
21.18950000000002
 30
0.0
 40
3.5
 41
0.0
 71
     2
 72
     1
  1
\A1;%%c9.53 [3/8]
  7
SLDTEXTSTYLE0
 11
-3.729883127349651E-15
 21
1.0
 31
0.0
 73
     1
 44
1.0
  0
POINT
  5
FA
330
EE
100
AcDbEntity
  8
Defpoints
 62
     0
100
AcDbPoint
 10
38.57500000000001
 20
4.762500000000002
 30
0.0
  0
POINT
  5
15C
330
EE
100
AcDbEntity
  8
Defpoints
 62
     0
100
AcDbPoint
 10
38.575
 20
-4.762499999999884
 30
0.0
  0
POINT
  5
15D
330
EE
100
AcDbEntity
  8
Defpoints
 62
     0
100
AcDbPoint
 10
48.57500000000005
 20
-4.762499999999847
 30
0.0
  0
ENDBLK
  5
F0
330
EE
100
AcDbEntity
  8
0
100
AcDbBlockEnd
  0
BLOCK
  5
102
330
101
100
AcDbEntity
  8
0
100
AcDbBlockBegin
  2
_D_2
 70
     0
 10
0.0
 20
0.0
 30
0.0
  3
_D_2
  1

  0
LINE
  5
104
330
101
100
AcDbEntity
  8
치수문자_일반주서
 62
     0
370
    -2
100
AcDbLine
 10
38.575
 20
4.825000000000114
 30
0.0
 11
38.575
 21
20.41201049254773
 31
0.0
  0
LINE
  5
105
330
101
100
AcDbEntity
  8
치수문자_일반주서
 62
     0
370
    -2
100
AcDbLine
 10
10.0
 20
4.814714317406554
 30
0.0
 11
10.0
 21
20.41201049254773
 31
0.0
  0
LINE
  5
106
330
101
100
AcDbEntity
  8
치수문자_일반주서
 62
     0
370
    -2
100
AcDbLine
 10
10.0
 20
20.41201049254773
 30
0.0
 11
-23.052
 21
20.41201049254773
 31
0.0
  0
LINE
  5
107
330
101
100
AcDbEntity
  8
치수문자_일반주서
 62
     0
370
    -2
100
AcDbLine
 10
38.575
 20
20.41201049254773
 30
0.0
 11
10.0
 21
20.41201049254773
 31
0.0
  0
LINE
  5
108
330
101
100
AcDbEntity
  8
치수문자_일반주서
 62
     0
370
    -2
100
AcDbLine
 10
41.877
 20
20.41201049254773
 30
0.0
 11
45.179
 21
20.41201049254773
 31
0.0
  0
LINE
  5
109
330
101
100
AcDbEntity
  8
치수문자_일반주서
 62
     0
370
    -2
100
AcDbLine
 10
6.698000000000004
 20
20.41201049254773
 30
0.0
 11
3.396000000000004
 21
20.41201049254773
 31
0.0
  0
SOLID
  5
10A
330
101
100
AcDbEntity
  8
치수문자_일반주서
 62
     0
100
AcDbTrace
 10
41.877
 20
20.96234382588106
 30
0.0
 11
41.877
 21
19.86167715921439
 31
0.0
 12
38.575
 22
20.41201049254773
 32
0.0
 13
38.575
 23
20.41201049254773
 33
0.0
  0
SOLID
  5
10B
330
101
100
AcDbEntity
  8
치수문자_일반주서
 62
     0
100
AcDbTrace
 10
6.698000000000004
 20
19.86167715921439
 30
0.0
 11
6.698000000000004
 21
20.96234382588106
 31
0.0
 12
10.0
 22
20.41201049254773
 32
0.0
 13
10.0
 23
20.41201049254773
 33
0.0
  0
MTEXT
  5
10C
330
101
100
AcDbEntity
  8
치수문자_일반주서
 62
     0
100
AcDbMText
 10
-8.176999999999996
 20
24.78701049254773
 30
0.0
 40
3.5
 41
0.0
 71
     2
 72
     1
  1
\A1;28.58 [1 1/8]
  7
SLDTEXTSTYLE0
 73
     1
 44
1.0
  0
POINT
  5
184
330
101
100
AcDbEntity
  8
Defpoints
 62
     0
100
AcDbPoint
 10
38.575
 20
4.762500000000114
 30
0.0
  0
POINT
  5
185
330
101
100
AcDbEntity
  8
Defpoints
 62
     0
100
AcDbPoint
 10
10.0
 20
4.752214317406554
 30
0.0
  0
POINT
  5
186
330
101
100
AcDbEntity
  8
Defpoints
 62
     0
100
AcDbPoint
 10
10.0
 20
20.41201049254773
 30
0.0
  0
ENDBLK
  5
103
330
101
100
AcDbEntity
  8
0
100
AcDbBlockEnd
  0
BLOCK
  5
118
330
117
100
AcDbEntity
  8
0
100
AcDbBlockBegin
  2
_D_3
 70
     0
 10
0.0
 20
0.0
 30
0.0
  3
_D_3
  1

  0
LINE
  5
11A
330
117
100
AcDbEntity
  8
치수문자_일반주서
 62
     0
370
    -2
100
AcDbLine
 10
38.575
 20
4.825000000000114
 30
0.0
 11
38.575
 21
39.05708820476418
 31
0.0
  0
LINE
  5
11B
330
117
100
AcDbEntity
  8
치수문자_일반주서
 62
     0
370
    -2
100
AcDbLine
 10
-37.62500000000001
 20
4.824999999999998
 30
0.0
 11
-37.62500000000001
 21
39.05708820476418
 31
0.0
  0
LINE
  5
11C
330
117
100
AcDbEntity
  8
치수문자_일반주서
 62
     0
370
    -2
100
AcDbLine
 10
35.273
 20
39.05708820476418
 30
0.0
 11
-34.32300000000001
 21
39.05708820476418
 31
0.0
  0
SOLID
  5
11D
330
117
100
AcDbEntity
  8
치수문자_일반주서
 62
     0
100
AcDbTrace
 10
35.273
 20
38.50675487143084
 30
0.0
 11
35.273
 21
39.60742153809751
 31
0.0
 12
38.575
 22
39.05708820476418
 32
0.0
 13
38.575
 23
39.05708820476418
 33
0.0
  0
SOLID
  5
11E
330
117
100
AcDbEntity
  8
치수문자_일반주서
 62
     0
100
AcDbTrace
 10
-34.32300000000001
 20
39.60742153809751
 30
0.0
 11
-34.32300000000001
 21
38.50675487143084
 31
0.0
 12
-37.62500000000001
 22
39.05708820476418
 32
0.0
 13
-37.62500000000001
 23
39.05708820476418
 33
0.0
  0
MTEXT
  5
11F
330
117
100
AcDbEntity
  8
치수문자_일반주서
 62
     0
100
AcDbMText
 10
0.1321110371026748
 20
43.43208820476418
 30
0.0
 40
3.5
 41
0.0
 71
     2
 72
     1
  1
\A1;76.2 [3]
  7
SLDTEXTSTYLE0
 73
     1
 44
1.0
  0
POINT
  5
120
330
117
100
AcDbEntity
  8
Defpoints
 62
     0
100
AcDbPoint
 10
38.575
 20
4.762500000000114
 30
0.0
  0
POINT
  5
121
330
117
100
AcDbEntity
  8
Defpoints
 62
     0
100
AcDbPoint
 10
-37.62500000000001
 20
4.762499999999998
 30
0.0
  0
POINT
  5
122
330
117
100
AcDbEntity
  8
Defpoints
 62
     0
100
AcDbPoint
 10
-37.62500000000001
 20
39.05708820476418
 30
0.0
  0
ENDBLK
  5
119
330
117
100
AcDbEntity
  8
0
100
AcDbBlockEnd
  0
BLOCK
  5
131
330
130
100
AcDbEntity
  8
0
100
AcDbBlockBegin
  2
SW_DOWELSYMBOL_0
 70
     0
 10
0.0
 20
0.0
 30
0.0
  3
SW_DOWELSYMBOL_0
  1

  0
CIRCLE
  5
133
330
130
100
AcDbEntity
  8
해칭선
 62
     0
100
AcDbCircle
 10
0.0
 20
0.0
 30
0.0
 40
3.000000000000002
  0
HATCH
  5
134
330
130
100
AcDbEntity
  8
0
  6
Continuous
 62
     0
370
     0
100
AcDbHatch
 10
0.0
 20
0.0
 30
0.0
210
0.0
220
0.0
230
1.0
  2
SOLID
 70
     1
 71
     0
 91
        1
 92
        0
 93
        3
 72
     2
 10
0.0000000000000069
 20
0.0
 40
3.000000000000002
 50
0.0
 51
90.0
 73
     1
 72
     1
 10
0.0000000000000069
 20
3.000000000000002
 11
0.0000000000000069
 21
0.0
 72
     1
 10
0.0000000000000069
 20
0.0
 11
3.000000000000009
 21
0.0
 97
        0
 75
     0
 76
     1
 98
        1
 10
0.0
 20
0.0
  0
HATCH
  5
135
330
130
100
AcDbEntity
  8
0
  6
Continuous
 62
     0
370
     0
100
AcDbHatch
 10
0.0
 20
0.0
 30
0.0
210
0.0
220
0.0
230
1.0
  2
SOLID
 70
     1
 71
     0
 91
        1
 92
        0
 93
        3
 72
     2
 10
0.0000000000000069
 20
0.0
 40
3.000000000000002
 50
180.0
 51
270.0000000000007
 73
     1
 72
     1
 10
0.0000000000000069
 20
-3.000000000000002
 11
0.0000000000000069
 21
0.0
 72
     1
 10
0.0000000000000069
 20
0.0
 11
-2.999999999999995
 21
0.0
 97
        0
 75
     0
 76
     1
 98
        1
 10
0.0
 20
0.0
  0
ENDBLK
  5
132
330
130
100
AcDbEntity
  8
0
100
AcDbBlockEnd
  0
ENDSEC
  0
SECTION
  2
ENTITIES
  0
LINE
  5
96
330
1F
100
AcDbEntity
  8
외형선
  6
Continuous
370
    15
100
AcDbLine
 10
8.480101010513822
 20
4.7625
 30
0.0
 11
-36.62500000000001
 21
4.762499999999997
 31
0.0
  0
LINE
  5
97
330
1F
100
AcDbEntity
  8
외형선
  6
Continuous
370
    15
100
AcDbLine
 10
-36.62500000000001
 20
-4.762500000000003
 30
0.0
 11
8.480101010513822
 21
-4.762500000000001
 31
0.0
  0
LINE
  5
98
330
1F
100
AcDbEntity
  8
외형선
  6
Continuous
370
    15
100
AcDbLine
 10
-36.62500000000001
 20
4.762499999999993
 30
0.0
 11
-37.62500000000001
 21
3.762499999999993
 31
0.0
  0
LINE
  5
99
330
1F
100
AcDbEntity
  8
외형선
  6
Continuous
370
    15
100
AcDbLine
 10
-37.62500000000001
 20
-3.762500000000002
 30
0.0
 11
-36.62500000000001
 21
-4.7625
 31
0.0
  0
SPLINE
  5
9A
330
1F
100
AcDbEntity
  8
외형선
  6
Continuous
370
    15
100
AcDbSpline
210
0.0
220
0.0
230
1.0
 70
     8
 71
     3
 72
     9
 73
     5
 74
     0
 42
0.000000001
 43
0.00000001
 40
0.0
 40
0.0
 40
0.0
 40
0.0
 40
0.4592666423710333
 40
1.0
 40
1.0
 40
1.0
 40
1.0
 10
10.0
 20
3.192293153768584
 30
0.0
 10
9.766191589794811
 20
3.179633840988483
 30
0.0
 10
9.257100816299644
 20
3.152069651447644
 30
0.0
 10
8.752812185415987
 20
3.142192969579338
 30
0.0
 10
8.48012650082415
 20
3.136852318230456
 30
0.0
  0
SPLINE
  5
9B
330
1F
100
AcDbEntity
  8
외형선
  6
Continuous
 62
     1
370
    15
100
AcDbSpline
210
0.0
220
0.0
230
1.0
 70
     8
 71
     3
 72
     9
 73
     5
 74
     0
 42
0.000000001
 43
0.00000001
 40
0.0
 40
0.0
 40
0.0
 40
0.0
 40
0.518944171725333
 40
0.9999999999999999
 40
0.9999999999999999
 40
0.9999999999999999
 40
0.9999999999999999
 10
26.23583846308973
 20
1.220390160591759
 30
0.0
 10
26.00789617023599
 20
1.329293956088767
 30
0.0
 10
25.56865375212403
 20
1.539150432817151
 30
0.0
 10
25.12795860265393
 20
1.770056650921846
 30
0.0
 10
24.91595963250896
 20
1.881135432925971
 30
0.0
  0
LINE
  5
9C
330
1F
100
AcDbEntity
  8
외형선
  6
Continuous
 62
     1
370
    15
100
AcDbLine
 10
23.59883184415155
 20
1.343407983067858
 30
0.0
 11
23.5521173325287
 21
1.369125030393608
 31
0.0
  0
LINE
  5
9D
330
1F
100
AcDbEntity
  8
외형선
  6
Continuous
 62
     1
370
    15
100
AcDbLine
 10
15.30716295451054
 20
4.762500000000002
 30
0.0
 11
12.99875278684733
 21
4.762500000000002
 31
0.0
  0
SPLINE
  5
9E
330
1F
100
AcDbEntity
  8
외형선
  6
Continuous
 62
     1
370
    15
100
AcDbSpline
210
0.0
220
0.0
230
1.0
 70
     8
 71
     3
 72
    17
 73
    13
 74
     0
 42
0.000000001
 43
0.00000001
 40
0.0
 40
0.0
 40
0.0
 40
0.0
 40
0.1517708123946842
 40
0.2657089593520834
 40
0.3631554135337107
 40
0.4548993471071714
 40
0.5348994552724434
 40
0.6379732206732276
 40
0.7741317295627625
 40
0.8984343654272118
 40
0.9881981489405871
 40
1.0
 40
1.0
 40
1.0
 40
1.0
 10
24.6620728548219
 20
3.784466449372175
 30
0.0
 10
24.46992770234735
 20
3.774789692839122
 30
0.0
 10
24.13353437544208
 20
3.757848353014082
 30
0.0
 10
23.65915468971759
 20
3.741105362166387
 30
0.0
 10
23.26223323232398
 20
3.730469956528354
 30
0.0
 10
22.91389603029192
 20
3.723965718199377
 30
0.0
 10
22.55842883026033
 20
3.719949637858136
 30
0.0
 10
22.14522778974142
 20
3.718558212809167
 30
0.0
 10
21.67507699133789
 20
3.721773633885318
 30
0.0
 10
21.22198152293149
 20
3.730336682648054
 30
0.0
 10
20.92972578516448
 20
3.737764270257967
 30
0.0
 10
20.79831431510917
 20
3.742392217792302
 30
0.0
 10
20.78304440020523
 20
3.742929981847444
 30
0.0
  0
SPLINE
  5
9F
330
1F
100
AcDbEntity
  8
외형선
  6
Continuous
 62
     1
370
    15
100
AcDbSpline
210
0.0
220
0.0
230
1.0
 70
     8
 71
     3
 72
    27
 73
    23
 74
     0
 42
0.000000001
 43
0.00000001
 40
0.0
 40
0.0
 40
0.0
 40
0.0
 40
0.0724069471679208
 40
0.1245853525358547
 40
0.1590685477709658
 40
0.1947371870864626
 40
0.2360565484755893
 40
0.2777035123043915
 40
0.3116760750308699
 40
0.3639217721040649
 40
0.4254068693489811
 40
0.5000090045861304
 40
0.552000083614787
 40
0.5919701471421045
 40
0.6358973424444203
 40
0.6865761364670113
 40
0.7429088073505797
 40
0.7842802951428944
 40
0.8156573253906404
 40
0.8510901380318241
 40
0.9122777532879922
 40
1.0
 40
1.0
 40
1.0
 40
1.0
 10
17.4995971584415
 20
-3.963063759677741
 30
0.0
 10
17.67174383292646
 20
-3.946325099713953
 30
0.0
 10
17.96794405911259
 20
-3.917524108453679
 30
0.0
 10
18.34645328824009
 20
-3.884746177204856
 30
0.0
 10
18.64044268718034
 20
-3.861119920657063
 30
0.0
 10
18.9077634739243
 20
-3.841041686990568
 30
0.0
 10
19.19136785193042
 20
-3.82135350690523
 30
0.0
 10
19.47044221987574
 20
-3.80369619042449
 30
0.0
 10
19.77567465333316
 20
-3.786101530368086
 30
0.0
 10
20.12827334683825
 20
-3.768015949830745
 30
0.0
 10
20.57795564567596
 20
-3.748980715864792
 30
0.0
 10
21.02704340982541
 20
-3.734818034641659
 30
0.0
 10
21.42473654841829
 20
-3.726232214382781
 30
0.0
 10
21.74926021744545
 20
-3.721587298721897
 30
0.0
 10
22.07041164252146
 20
-3.719138914330586
 30
0.0
 10
22.43072766536631
 20
-3.719141361127457
 30
0.0
 10
22.78503121886643
 20
-3.7221598239043
 30
0.0
 10
23.0932877266886
 20
-3.727188558265255
 30
0.0
 10
23.34958913586349
 20
-3.732824586541273
 30
0.0
 10
23.65322573448423
 20
-3.741123903444193
 30
0.0
 10
24.09441943149411
 20
-3.756345551815476
 30
0.0
 10
24.45163719617096
 20
-3.774041708930185
 30
0.0
 10
24.6620728548219
 20
-3.784466449372177
 30
0.0
  0
SPLINE
  5
A0
330
1F
100
AcDbEntity
  8
외형선
  6
Continuous
 62
     1
370
    15
100
AcDbSpline
210
0.0
220
0.0
230
1.0
 70
     8
 71
     3
 72
    17
 73
    13
 74
     0
 42
0.000000001
 43
0.00000001
 40
0.0
 40
0.0
 40
0.0
 40
0.0
 40
0.132207943864647
 40
0.2529946902942108
 40
0.3598260347457193
 40
0.4389350852576138
 40
0.5074584330912457
 40
0.589727500369568
 40
0.6823329723713278
 40
0.7962378259840474
 40
0.9306351841766967
 40
1.0
 40
1.0
 40
1.0
 40
1.0
 10
28.48581974717096
 20
-3.582033855031282
 30
0.0
 10
28.63394610613773
 20
-3.558923063662748
 30
0.0
 10
28.91740246447559
 20
-3.514697979043609
 30
0.0
 10
29.35735356126782
 20
-3.453602005341993
 30
0.0
 10
29.73044314249397
 20
-3.40489253842207
 30
0.0
 10
30.03870210433506
 20
-3.367618719597194
 30
0.0
 10
30.29555571141254
 20
-3.338980580156105
 30
0.0
 10
30.58387293426852
 20
-3.308284249737234
 30
0.0
 10
30.92719328763096
 20
-3.274857025906027
 30
0.0
 10
31.3321901058611
 20
-3.239682681437887
 30
0.0
 10
31.70966281940172
 20
-3.211223449029426
 30
0.0
 10
31.95179588319749
 20
-3.197003440019643
 30
0.0
 10
32.0342229355002
 20
-3.192162657814933
 30
0.0
  0
SPLINE
  5
A1
330
1F
100
AcDbEntity
  8
외형선
  6
Continuous
 62
     1
370
    15
100
AcDbSpline
210
0.0
220
0.0
230
1.0
 70
     8
 71
     3
 72
     9
 73
     5
 74
     0
 42
0.000000001
 43
0.00000001
 40
0.0
 40
0.0
 40
0.0
 40
0.0
 40
0.4982580756517704
 40
1.0
 40
1.0
 40
1.0
 40
1.0
 10
10.89035104868714
 20
3.257324010278335
 30
0.0
 10
10.74228189640356
 20
3.245025326258696
 30
0.0
 10
10.44510828393399
 20
3.220341965123902
 30
0.0
 10
10.14871362602549
 20
3.201664447435572
 30
0.0
 10
9.99999999999995
 20
3.192293153768581
 30
0.0
  0
SPLINE
  5
A2
330
1F
100
AcDbEntity
  8
외형선
  6
Continuous
 62
     1
370
    15
100
AcDbSpline
210
0.0
220
0.0
230
1.0
 70
     8
 71
     3
 72
    30
 73
    26
 74
     0
 42
0.000000001
 43
0.00000001
 40
0.0
 40
0.0
 40
0.0
 40
0.0
 40
0.0717441677538447
 40
0.1251067421430141
 40
0.1629908044017477
 40
0.1877464187744881
 40
0.2173414460211106
 40
0.2534133577404675
 40
0.2878522897727476
 40
0.3159529303033862
 40
0.3395831456889787
 40
0.3819634317222777
 40
0.4332138581294263
 40
0.4810061471647487
 40
0.5222849819775843
 40
0.5668798106395686
 40
0.6350861358200174
 40
0.7008027397659495
 40
0.7516816656896381
 40
0.7924200744061073
 40
0.8194931132355401
 40
0.8534534078876472
 40
0.8978165306190062
 40
0.9466767655716981
 40
1.0
 40
1.0
 40
1.0
 40
1.0
 10
36.8049921843267
 20
3.257322518731196
 30
0.0
 10
36.60427279841609
 20
3.241020751824872
 30
0.0
 10
36.2542603968174
 20
3.212593898288532
 30
0.0
 10
35.80448230031392
 20
3.185294078672352
 30
0.0
 10
35.49550162180945
 20
3.1696973823044
 30
0.0
 10
35.2759308025188
 20
3.157925464668927
 30
0.0
 10
35.01634783721129
 20
3.148467439302916
 30
0.0
 10
34.72959704251017
 20
3.141931957119034
 30
0.0
 10
34.44614351786529
 20
3.137161143824656
 30
0.0
 10
34.19958127114607
 20
3.134629986934426
 30
0.0
 10
33.93724250950181
 20
3.133659059271688
 30
0.0
 10
33.61033630948926
 20
3.135227869419919
 30
0.0
 10
33.21621213234831
 20
3.141874608078946
 30
0.0
 10
32.82540617448213
 20
3.153525070287991
 30
0.0
 10
32.45287996419926
 20
3.168832827993592
 30
0.0
 10
32.02352707906505
 20
3.191121097296013
 30
0.0
 10
31.52600351749327
 20
3.223945864848124
 30
0.0
 10
31.01146587705724
 20
3.266732276182401
 30
0.0
 10
30.57227130344993
 20
3.309222059388577
 30
0.0
 10
30.24436048684968
 20
3.344610118387059
 30
0.0
 10
29.97716430678661
 20
3.374762962879742
 30
0.0
 10
29.67400157971981
 20
3.412197875736319
 30
0.0
 10
29.31234938945092
 20
3.459627814051339
 30
0.0
 10
28.89360245079223
 20
3.518382749930761
 30
0.0
 10
28.6256483987233
 20
3.560207896948741
 30
0.0
 10
28.48581974717095
 20
3.58203385503128
 30
0.0
  0
LINE
  5
A3
330
1F
100
AcDbEntity
  8
외형선
  6
Continuous
 62
     1
370
    15
100
AcDbLine
 10
12.99875278684732
 20
-4.762500000000003
 30
0.0
 11
15.30716295451055
 21
-4.762500000000003
 31
0.0
  0
SPLINE
  5
A4
330
1F
100
AcDbEntity
  8
외형선
  6
Continuous
370
    15
100
AcDbSpline
210
0.0
220
0.0
230
1.0
 70
     8
 71
     3
 72
    10
 73
     6
 74
     0
 42
0.000000001
 43
0.00000001
 40
0.0
 40
0.0
 40
0.0
 40
0.0
 40
0.5
 40
0.5
 40
1.0
 40
1.0
 40
1.0
 40
1.0
 10
10.0
 20
4.451046776078622
 30
0.0
 10
9.745801947542496
 20
4.398949167713265
 30
0.0
 10
9.491357970387059
 20
4.340506697652679
 30
0.0
 10
8.985212994838506
 20
4.211730573704529
 30
0.0
 10
8.733778114753417
 20
4.141448493319174
 30
0.0
 10
8.480101010513822
 20
4.065197523897528
 30
0.0
  0
LINE
  5
A5
330
1F
100
AcDbEntity
  8
외형선
  6
Continuous
370
    15
100
AcDbLine
 10
8.480101010513822
 20
-3.221762750369741
 30
0.0
 11
8.480101010513822
 21
4.7625
 31
0.0
  0
SPLINE
  5
A6
330
1F
100
AcDbEntity
  8
외형선
  6
Continuous
370
    15
100
AcDbSpline
210
0.0
220
0.0
230
1.0
 70
     8
 71
     3
 72
    10
 73
     6
 74
     0
 42
0.000000001
 43
0.00000001
 40
0.0
 40
0.0
 40
0.0
 40
0.0
 40
0.5
 40
0.5
 40
1.0
 40
1.0
 40
1.0
 40
1.0
 10
10.0
 20
-3.810080068184515
 30
0.0
 10
9.745819617777963
 20
-3.722208622578631
 30
0.0
 10
9.491393344690483
 20
-3.628893020074096
 30
0.0
 10
8.985283172534896
 20
-3.432606969082393
 30
0.0
 10
8.73386602049473
 20
-3.329694832229936
 30
0.0
 10
8.480206814593425
 20
-3.221913063463349
 30
0.0
  0
LINE
  5
A7
330
1F
100
AcDbEntity
  8
외형선
  6
Continuous
370
    15
100
AcDbLine
 10
10.0
 20
-3.810080068184515
 30
0.0
 11
10.0
 21
-4.45104677607863
 31
0.0
  0
SPLINE
  5
A8
330
1F
100
AcDbEntity
  8
외형선
  6
Continuous
370
    15
100
AcDbSpline
210
0.0
220
0.0
230
1.0
 70
     8
 71
     3
 72
    10
 73
     6
 74
     0
 42
0.000000001
 43
0.00000001
 40
0.0
 40
0.0
 40
0.0
 40
0.0
 40
0.5
 40
0.5
 40
1.0
 40
1.0
 40
1.0
 40
1.0
 10
10.0
 20
-4.451046776078623
 30
0.0
 10
9.745801947542496
 20
-4.398949167713267
 30
0.0
 10
9.491357970387059
 20
-4.340506697652682
 30
0.0
 10
8.985212994838506
 20
-4.21173057370453
 30
0.0
 10
8.733778114753417
 20
-4.141448493319175
 30
0.0
 10
8.480101010513822
 20
-4.06519752389753
 30
0.0
  0
LINE
  5
A9
330
1F
100
AcDbEntity
  8
외형선
  6
Continuous
370
    15
100
AcDbLine
 10
8.480101010513822
 20
-4.762500000000001
 30
0.0
 11
8.480101010513822
 21
-4.065199360782378
 31
0.0
  0
LINE
  5
AA
330
1F
100
AcDbEntity
  8
외형선
  6
Continuous
370
    15
100
AcDbLine
 10
-36.62500000000001
 20
4.762499999999993
 30
0.0
 11
-36.62500000000001
 21
-4.762500000000003
 31
0.0
  0
LINE
  5
AB
330
1F
100
AcDbEntity
  8
외형선
  6
Continuous
370
    15
100
AcDbLine
 10
-37.62500000000001
 20
3.762499999999993
 30
0.0
 11
-37.62500000000001
 21
-3.762500000000003
 31
0.0
  0
SPLINE
  5
AC
330
1F
100
AcDbEntity
  8
외형선
  6
Continuous
370
    15
100
AcDbSpline
210
0.0
220
0.0
230
1.0
 70
     8
 71
     3
 72
    10
 73
     6
 74
     0
 42
0.000000001
 43
0.00000001
 40
0.0
 40
0.0
 40
0.0
 40
0.0
 40
0.5
 40
0.5
 40
1.0
 40
1.0
 40
1.0
 40
1.0
 10
9.999999999999993
 20
-3.086292779594934
 30
0.0
 10
9.745819617777954
 20
-3.005735148315306
 30
0.0
 10
9.491393344690481
 20
-2.920764590798432
 30
0.0
 10
8.985283172534897
 20
-2.74311597702192
 30
0.0
 10
8.733866020494728
 20
-2.650488215431348
 30
0.0
 10
8.480206814593425
 20
-2.553967690954077
 30
0.0
  0
SPLINE
  5
AD
330
1F
100
AcDbEntity
  8
외형선
  6
Continuous
370
    15
100
AcDbSpline
210
0.0
220
0.0
230
1.0
 70
     8
 71
     3
 72
    10
 73
     6
 74
     0
 42
0.000000001
 43
0.00000001
 40
0.0
 40
0.0
 40
0.0
 40
0.0
 40
0.5
 40
0.5
 40
1.0
 40
1.0
 40
1.0
 40
1.0
 10
10.0
 20
1.207673778302878
 30
0.0
 10
9.745808400021465
 20
1.31880318732442
 30
0.0
 10
9.49137088769956
 20
1.428250927771917
 30
0.0
 10
8.985238620979363
 20
1.642407483990793
 30
0.0
 10
8.733810214508189
 20
1.747089492005683
 30
0.0
 10
8.480139646038834
 20
1.849460106002155
 30
0.0
  0
SPLINE
  5
AE
330
1F
100
AcDbEntity
  8
외형선
  6
Continuous
370
    15
100
AcDbSpline
210
0.0
220
0.0
230
1.0
 70
    24
 71
     3
 72
    14
 73
    10
 74
     0
 42
0.000000001
 43
0.00000001
 40
0.0
 40
0.0
 40
0.0
 40
0.0
 40
0.2499999999999999
 40
0.2499999999999999
 40
0.4999999999999999
 40
0.4999999999999999
 40
0.7499999999999999
 40
0.7499999999999999
 40
1.0
 40
1.0
 40
1.0
 40
1.0
 10
10.0
 20
1.207673778302878
 30
0.0
 10
10.0
 20
0.8482000556669381
 30
0.0
 10
10.0
 20
0.472175343733042
 30
0.0
 10
10.0
 20
-0.2888665136329942
 30
0.0
 10
10.0
 20
-0.673688176231017
 30
0.0
 10
10.0
 20
-1.424165220694845
 30
0.0
 10
10.0
 20
-1.789603887571764
 30
0.0
 10
10.0
 20
-2.475843050071798
 30
0.0
 10
10.0
 20
-2.796506965628182
 30
0.0
 10
10.0
 20
-3.086292779594935
 30
0.0
  0
SPLINE
  5
AF
330
1F
100
AcDbEntity
  8
외형선
  6
Continuous
370
    15
100
AcDbSpline
210
0.0
220
0.0
230
1.0
 70
    24
 71
     3
 72
    13
 73
     9
 74
     0
 42
0.000000001
 43
0.00000001
 40
0.0
 40
0.0
 40
0.0
 40
0.0
 40
0.0591628328009345
 40
0.2502730378698054
 40
0.4359972288192935
 40
0.6271074338881695
 40
0.8135537169440847
 40
0.9999999999999999
 40
0.9999999999999999
 40
0.9999999999999999
 40
0.9999999999999999
 10
10.0
 20
3.176583443740057
 30
0.0
 10
10.0
 20
3.180496267937899
 30
0.0
 10
10.0
 20
3.197048457078997
 30
0.0
 10
10.00000000000001
 20
3.07477218529615
 30
0.0
 10
10.0
 20
2.809437558041011
 30
0.0
 10
10.0
 20
2.396908735923452
 30
0.0
 10
10.0
 20
1.866259609996317
 30
0.0
 10
10.0
 20
1.427202388867357
 30
0.0
 10
10.0
 20
1.207673778302877
 30
0.0
  0
SPLINE
  5
B0
330
1F
100
AcDbEntity
  8
외형선
  6
Continuous
370
    15
100
AcDbSpline
210
0.0
220
0.0
230
1.0
 70
    24
 71
     3
 72
     8
 73
     4
 74
     0
 42
0.000000001
 43
0.00000001
 40
0.0
 40
0.0
 40
0.0
 40
0.0
 40
1.0
 40
1.0
 40
1.0
 40
1.0
 10
10.00000000000001
 20
-3.08629277959494
 30
0.0
 10
10.00000000000001
 20
-3.319923477464633
 30
0.0
 10
10.00000000000001
 20
-3.562702643602552
 30
0.0
 10
10.00000000000001
 20
-3.810080068175097
 30
0.0
  0
SPLINE
  5
B1
330
1F
100
AcDbEntity
  8
외형선
  6
Continuous
370
    15
100
AcDbSpline
210
0.0
220
0.0
230
1.0
 70
    24
 71
     3
 72
    11
 73
     7
 74
     0
 42
0.000000001
 43
0.00000001
 40
0.0
 40
0.0
 40
0.0
 40
0.0
 40
0.1907712483858848
 40
0.4117251632689814
 40
0.6390867566521707
 40
1.0
 40
1.0
 40
1.0
 40
1.0
 10
10.0
 20
4.451046776078624
 30
0.0
 10
10.00000000000001
 20
4.360389078248215
 30
0.0
 10
10.00000000000001
 20
4.164730373088865
 30
0.0
 10
10.0
 20
3.872841355250734
 30
0.0
 10
10.00000000000001
 20
3.522359650233744
 30
0.0
 10
10.00000000000001
 20
3.317795540766324
 30
0.0
 10
10.0
 20
3.192293153768585
 30
0.0
  0
SPLINE
  5
B2
330
1F
100
AcDbEntity
  8
외형선
  6
Continuous
 62
     1
370
    15
100
AcDbSpline
210
0.0
220
0.0
230
1.0
 70
     8
 71
     3
 72
    23
 73
    19
 74
     0
 42
0.000000001
 43
0.00000001
 40
0.0399351974046862
 40
0.0399351974046862
 40
0.0399351974046862
 40
0.0399351974046862
 40
0.0642291125658547
 40
0.1284008693230071
 40
0.1925513017924587
 40
0.2567166293186532
 40
0.3209329400140885
 40
0.3851730434932214
 40
0.4456788980784674
 40
0.5061554350765193
 40
0.5666714575246254
 40
0.6272618269273889
 40
0.6877802361051527
 40
0.7552947512675379
 40
0.8228099537919644
 40
0.8903431270807102
 40
0.9579114572439982
 40
1.0
 40
1.0
 40
1.0
 40
1.0
 10
37.64565701429382
 20
-4.316412428776815
 30
0.0
 10
37.45721311846195
 20
-4.272380948692451
 30
0.0
 10
36.7710202034848
 20
-4.102457952436939
 30
0.0
 10
35.58744734468142
 20
-3.712487831601875
 30
0.0
 10
34.09472840187657
 20
-3.109781722187195
 30
0.0
 10
32.60161335548008
 20
-2.402480922798771
 30
0.0
 10
31.10752272752183
 20
-1.617463537719397
 30
0.0
 10
29.64157011416096
 20
-0.7956492173018658
 30
0.0
 10
28.20521393671762
 20
0.0344304886670298
 30
0.0
 10
26.7978371027685
 20
0.8470667849076311
 30
0.0
 10
25.38966965337384
 20
1.635176996520675
 30
0.0
 10
23.9805140769532
 20
2.374887922483088
 30
0.0
 10
22.51780411993045
 20
3.072565991741053
 30
0.0
 10
21.00116992555019
 20
3.69437698185982
 30
0.0
 10
19.43021180815569
 20
4.206771676271355
 30
0.0
 10
17.8587373063809
 20
4.559711476911275
 30
0.0
 10
16.48430554208014
 20
4.747652571691962
 30
0.0
 10
15.63365859133985
 20
4.743710781858781
 30
0.0
 10
15.30716295451054
 20
4.742197842582727
 30
0.0
  0
SPLINE
  5
B3
330
1F
100
AcDbEntity
  8
외형선
  6
Continuous
 62
     1
370
    15
100
AcDbSpline
210
0.0
220
0.0
230
1.0
 70
     8
 71
     3
 72
    16
 73
    12
 74
     0
 42
0.000000001
 43
0.00000001
 40
0.0279619772939181
 40
0.0279619772939181
 40
0.0279619772939181
 40
0.0279619772939181
 40
0.1216998791952219
 40
0.2432919736965658
 40
0.364840568020986
 40
0.4864103119207138
 40
0.6080656774791092
 40
0.7297971643687068
 40
0.8514193070449854
 40
0.9729756427061986
 40
0.9999999999999999
 40
0.9999999999999999
 40
0.9999999999999999
 40
0.9999999999999999
 10
38.22899071211268
 20
-3.685727868069773
 30
0.0
 10
37.84234569591629
 20
-3.604878678908786
 30
0.0
 10
36.95417896063113
 20
-3.411420336529074
 30
0.0
 10
35.56489438625415
 20
-2.987761695576109
 30
0.0
 10
34.06088888146958
 20
-2.438824234874375
 30
0.0
 10
32.55659097046959
 20
-1.806437788462071
 30
0.0
 10
31.051373649984
 20
-1.114966747196873
 30
0.0
 10
29.54568769133816
 20
-0.3857105961469723
 30
0.0
 10
28.0407475778963
 20
0.3529983006608876
 30
0.0
 10
26.9264721412011
 20
0.9019086620641122
 30
0.0
 10
26.31373844028042
 20
1.181607066123658
 30
0.0
 10
26.20229236925794
 20
1.232479554705332
 30
0.0
  0
SPLINE
  5
B5
330
1F
100
AcDbEntity
  8
외형선
  6
Continuous
 62
     1
370
    15
100
AcDbSpline
210
0.0
220
0.0
230
1.0
 70
     8
 71
     3
 72
    60
 73
    56
 74
     0
 42
0.000000001
 43
0.00000001
 40
0.054015526507693
 40
0.054015526507693
 40
0.054015526507693
 40
0.054015526507693
 40
0.0624999999999999
 40
0.0624999999999999
 40
0.1249999999999998
 40
0.1249999999999998
 40
0.1562499999999997
 40
0.1562499999999997
 40
0.1874999999999996
 40
0.1874999999999996
 40
0.2187499999999996
 40
0.2187499999999996
 40
0.2499999999999995
 40
0.2499999999999995
 40
0.2812499999999994
 40
0.2812499999999994
 40
0.3124999999999994
 40
0.3124999999999994
 40
0.3437499999999993
 40
0.3437499999999993
 40
0.3749999999999992
 40
0.3749999999999992
 40
0.4062499999999992
 40
0.4062499999999992
 40
0.4374999999999991
 40
0.4374999999999991
 40
0.4687499999999991
 40
0.4687499999999991
 40
0.499999999999999
 40
0.499999999999999
 40
0.531249999999999
 40
0.531249999999999
 40
0.5624999999999991
 40
0.5624999999999991
 40
0.5937499999999991
 40
0.5937499999999991
 40
0.6249999999999992
 40
0.6249999999999992
 40
0.6562499999999992
 40
0.6562499999999992
 40
0.6874999999999993
 40
0.6874999999999993
 40
0.7187499999999993
 40
0.7187499999999993
 40
0.7499999999999993
 40
0.7499999999999993
 40
0.7812499999999994
 40
0.7812499999999994
 40
0.8124999999999994
 40
0.8124999999999994
 40
0.8749999999999997
 40
0.8749999999999997
 40
0.9374999999999999
 40
0.9374999999999999
 40
1.0
 40
1.0
 40
1.0
 40
1.0
 10
37.03040928772054
 20
-4.638931101349078
 30
0.0
 10
36.94967960226032
 20
-4.628385849102817
 30
0.0
 10
36.8690833205413
 20
-4.617176622599597
 30
0.0
 10
36.19633671769952
 20
-4.517877266737875
 30
0.0
 10
35.59546655866729
 20
-4.393815632099931
 30
0.0
 10
34.7059050930398
 20
-4.158713973025968
 30
0.0
 10
34.40910876807537
 20
-4.072068163948469
 30
0.0
 10
33.81208587015028
 20
-3.882847013594869
 30
0.0
 10
33.51309813683639
 20
-3.78038079335868
 30
0.0
 10
32.91940682877842
 20
-3.561617287679772
 30
0.0
 10
32.62324252401531
 20
-3.445170118021604
 30
0.0
 10
32.02638720967568
 20
-3.198667761985232
 30
0.0
 10
31.72729091284652
 20
-3.068807147658275
 30
0.0
 10
31.13300407066092
 20
-2.798197642936327
 30
0.0
 10
30.83732701809112
 20
-2.657403357093145
 30
0.0
 10
30.24069506724182
 20
-2.365147656450129
 30
0.0
 10
29.94151830463677
 20
-2.213953863670947
 30
0.0
 10
29.34669090971368
 20
-1.904114321307895
 30
0.0
 10
29.05135619027045
 20
-1.745545902764758
 30
0.0
 10
28.45500331320755
 20
-1.421202161409161
 30
0.0
 10
28.15577420785271
 20
-1.255735366727848
 30
0.0
 10
27.56046140928525
 20
-0.9211249009267086
 30
0.0
 10
27.26532399773689
 20
-0.7521714472384055
 30
0.0
 10
26.66930581783076
 20
-0.4109018620854969
 30
0.0
 10
26.37005250920568
 20
-0.2388906665736727
 30
0.0
 10
25.77430960683943
 20
0.104864977607636
 30
0.0
 10
25.47922441675184
 20
0.2763377897545726
 30
0.0
 10
24.88359645318724
 20
0.6185846922727761
 30
0.0
 10
24.58434708838073
 20
0.789105177020139
 30
0.0
 10
23.98822951576476
 20
1.125945195919764
 30
0.0
 10
23.6930514445038
 20
1.291956186560605
 30
0.0
 10
23.09786909508797
 20
1.619192750517861
 30
0.0
 10
22.79865181994891
 20
1.780257205976265
 30
0.0
 10
22.20221512719979
 20
2.094438027204039
 30
0.0
 10
21.90679910094427
 20
2.247256803960673
 30
0.0
 10
21.31211762499423
 20
2.544204991757796
 30
0.0
 10
21.01296057528313
 20
2.688290920621079
 30
0.0
 10
20.41626041187286
 20
2.965123890296473
 30
0.0
 10
20.12046143060866
 20
3.097625796977348
 30
0.0
 10
19.52633593192877
 20
3.35043233607459
 30
0.0
 10
19.22726722447609
 20
3.470812303976756
 30
0.0
 10
18.63035932195506
 20
3.697352125413147
 30
0.0
 10
18.33403250442137
 20
3.803345795280243
 30
0.0
 10
17.74051791438207
 20
4.000230168426281
 30
0.0
 10
17.44156563825904
 20
4.091286726148217
 30
0.0
 10
16.84450579292536
 20
4.256938309108314
 30
0.0
 10
16.54750642148375
 20
4.331450987576458
 30
0.0
 10
15.95465748221243
 20
4.463255882556246
 30
0.0
 10
15.65584968992016
 20
4.520744391249122
 30
0.0
 10
14.76011577320991
 20
4.666267202109703
 30
0.0
 10
14.16871134220629
 20
4.727212271288395
 30
0.0
 10
12.9743190022665
 20
4.774894167294503
 30
0.0
 10
12.38294047894983
 20
4.761476810737021
 30
0.0
 10
11.18857946039806
 20
4.660580491236091
 30
0.0
 10
10.59710896727642
 20
4.573423595365272
 30
0.0
 10
10.0
 20
4.451046776078629
 30
0.0
  0
SPLINE
  5
B6
330
1F
100
AcDbEntity
  8
외형선
  6
Continuous
 62
     1
370
    15
100
AcDbSpline
210
0.0
220
0.0
230
1.0
 70
     8
 71
     3
 72
    16
 73
    12
 74
     0
 42
0.000000001
 43
0.00000001
 40
0.0
 40
0.0
 40
0.0
 40
0.0
 40
0.0840878639984112
 40
0.2026987524364279
 40
0.3213104158453488
 40
0.4399228207449244
 40
0.5585359336071671
 40
0.6771497208584875
 40
0.803339078533607
 40
0.9295402805506974
 40
1.0
 40
1.0
 40
1.0
 40
1.0
 10
26.74238849086019
 20
-0.4510523217217717
 30
0.0
 10
26.29790099775327
 20
-0.2726668391259956
 30
0.0
 10
25.22643769684136
 20
0.1573418809863041
 30
0.0
 10
23.52799310061574
 20
0.8435255009864968
 30
0.0
 10
21.6470502580317
 20
1.556984621766002
 30
0.0
 10
19.76609692380758
 20
2.190729421098965
 30
0.0
 10
17.88512178911249
 20
2.710267809672862
 30
0.0
 10
15.96412950909038
 20
3.099873551303146
 30
0.0
 10
14.00288470745297
 20
3.316506140611279
 30
0.0
 10
12.29621066608537
 20
3.368064251597999
 30
0.0
 10
11.2565960665667
 20
3.268682512251278
 30
0.0
 10
10.88412271257603
 20
3.233076000187059
 30
0.0
  0
SPLINE
  5
B7
330
1F
100
AcDbEntity
  8
외형선
  6
Continuous
370
    15
100
AcDbSpline
210
0.0
220
0.0
230
1.0
 70
    24
 71
     3
 72
    11
 73
     7
 74
     0
 42
0.000000001
 43
0.00000001
 40
0.0
 40
0.0
 40
0.0
 40
0.0
 40
0.1907712483858848
 40
0.4117251632689817
 40
0.6390867566521695
 40
1.0
 40
1.0
 40
1.0
 40
1.0
 10
10.0
 20
4.451046776078624
 30
0.0
 10
10.0
 20
4.360389078248215
 30
0.0
 10
10.0
 20
4.164730373088865
 30
0.0
 10
10.0
 20
3.872841355250735
 30
0.0
 10
10.0
 20
3.522359650233742
 30
0.0
 10
10.0
 20
3.317795540766322
 30
0.0
 10
10.0
 20
3.192293153768585
 30
0.0
  0
SPLINE
  5
B9
330
1F
100
AcDbEntity
  8
외형선
  6
Continuous
 62
     1
370
    15
100
AcDbSpline
210
0.0
220
0.0
230
1.0
 70
     8
 71
     3
 72
    15
 73
    11
 74
     0
 42
0.000000001
 43
0.00000001
 40
0.0
 40
0.0
 40
0.0
 40
0.0
 40
0.12474792060758
 40
0.2494989363675021
 40
0.3742794880546391
 40
0.4991158768284131
 40
0.646498075300961
 40
0.7938813328286147
 40
0.94126560908025
 40
0.9999999999999999
 40
0.9999999999999999
 40
0.9999999999999999
 40
0.9999999999999999
 10
37.42052765837758
 20
0.5312826839403385
 30
0.0
 10
36.88993539932174
 20
0.7721263332773031
 30
0.0
 10
35.82873771655072
 20
1.253819607584186
 30
0.0
 10
34.23681410934275
 20
1.924511014300728
 30
0.0
 10
32.64446221332455
 20
2.525367945011643
 30
0.0
 10
30.95574652526316
 20
3.061670177883759
 30
0.0
 10
29.17073295535639
 20
3.494305779751173
 30
0.0
 10
27.28984359561001
 20
3.756880991917443
 30
0.0
 10
25.78604764745519
 20
3.847630765754477
 30
0.0
 10
24.90922004040011
 20
3.78003500610048
 30
0.0
 10
24.65936428425367
 20
3.760773306873918
 30
0.0
  0
SPLINE
  5
BA
330
1F
100
AcDbEntity
  8
외형선
  6
Continuous
 62
     1
370
    15
100
AcDbSpline
210
0.0
220
0.0
230
1.0
 70
    24
 71
     3
 72
     8
 73
     4
 74
     0
 42
0.000000001
 43
0.00000001
 40
0.0
 40
0.0
 40
0.0
 40
0.0
 40
1.0
 40
1.0
 40
1.0
 40
1.0
 10
37.42052765837767
 20
0.5312826839403106
 30
0.0
 10
37.25401577711467
 20
0.3915626257859056
 30
0.0
 10
37.08759687325274
 20
0.2519205849344248
 30
0.0
 10
36.9212686410681
 20
0.1123546266539207
 30
0.0
  0
SPLINE
  5
BB
330
1F
100
AcDbEntity
  8
외형선
  6
Continuous
 62
     1
370
    15
100
AcDbSpline
210
0.0
220
0.0
230
1.0
 70
     8
 71
     3
 72
     8
 73
     4
 74
     0
 42
0.000000001
 43
0.00000001
 40
0.0
 40
0.0
 40
0.0
 40
0.0
 40
1.0
 40
1.0
 40
1.0
 40
1.0
 10
38.57500000000001
 20
-1.27274453046618
 30
0.0
 10
38.01551019568365
 20
-0.8328911292749442
 30
0.0
 10
37.46407819674813
 20
-0.3716900451962872
 30
0.0
 10
36.92126864107709
 20
0.1123546266614732
 30
0.0
  0
SPLINE
  5
BC
330
1F
100
AcDbEntity
  8
외형선
  6
Continuous
 62
     1
370
    15
100
AcDbSpline
210
0.0
220
0.0
230
1.0
 70
    24
 71
     3
 72
     8
 73
     4
 74
     0
 42
0.000000001
 43
0.00000001
 40
0.5794322992641986
 40
0.5794322992641986
 40
0.5794322992641986
 40
0.5794322992641986
 40
1.0
 40
1.0
 40
1.0
 40
1.0
 10
38.57500000000001
 20
-2.476500000000098
 30
0.0
 10
38.575
 20
-2.105769245618194
 30
0.0
 10
38.57500000000001
 20
-1.697629078607217
 30
0.0
 10
38.57500000000001
 20
-1.272744530466334
 30
0.0
  0
LINE
  5
BD
330
1F
100
AcDbEntity
  8
외형선
  6
Continuous
 62
     1
370
    15
100
AcDbLine
 10
37.5235810710064
 20
0.6177547644686523
 30
0.0
 11
38.57500000000001
 21
0.0000000000000026
 31
0.0
  0
LINE
  5
BE
330
1F
100
AcDbEntity
  8
외형선
  6
Continuous
 62
     1
370
    15
100
AcDbLine
 10
38.57500000000001
 20
0.0000000000000026
 30
0.0
 11
38.57500000000001
 21
-1.272744530466181
 31
0.0
  0
SPLINE
  5
BF
330
1F
100
AcDbEntity
  8
외형선
  6
Continuous
 62
     1
370
    15
100
AcDbSpline
210
0.0
220
0.0
230
1.0
 70
     8
 71
     3
 72
    12
 73
     8
 74
     0
 42
0.000000001
 43
0.00000001
 40
0.0
 40
0.0
 40
0.0
 40
0.0
 40
0.1994172879707935
 40
0.3996639996024879
 40
0.5999228075507075
 40
0.799998308934818
 40
1.0
 40
1.0
 40
1.0
 40
1.0
 10
17.49972003539542
 20
-3.962665033344854
 30
0.0
 10
17.00123297529732
 20
-4.000122340112882
 30
0.0
 10
16.00218552953086
 20
-4.075192747446073
 30
0.0
 10
14.50226208166078
 20
-4.018567696198097
 30
0.0
 10
13.00066937527479
 20
-3.836888804091711
 30
0.0
 10
11.49998902187288
 20
-3.533197756109622
 30
0.0
 10
10.49993484056092
 20
-3.235242781842809
 30
0.0
 10
9.999999999999993
 20
-3.086292779594935
 30
0.0
  0
SPLINE
  5
C0
330
1F
100
AcDbEntity
  8
외형선
  6
Continuous
 62
     1
370
    15
100
AcDbSpline
210
0.0
220
0.0
230
1.0
 70
     8
 71
     3
 72
    18
 73
    14
 74
     0
 42
0.000000001
 43
0.00000001
 40
0.0
 40
0.0
 40
0.0
 40
0.0
 40
0.0651051544901607
 40
0.166805714379681
 40
0.2685069493512665
 40
0.3702088314868844
 40
0.4719113328271041
 40
0.573614425372861
 40
0.6753180810872312
 40
0.7565300986694733
 40
0.83774711086744
 40
0.9188887340652533
 40
0.9999999999999999
 40
0.9999999999999999
 40
0.9999999999999999
 40
0.9999999999999999
 10
28.49394008038978
 20
-3.559222736676951
 30
0.0
 10
28.09257530925399
 20
-3.623690854315677
 30
0.0
 10
27.064239874058
 20
-3.788864418554224
 30
0.0
 10
25.40892771560439
 20
-3.837163849514498
 30
0.0
 10
23.52799953989903
 20
-3.721701124338312
 30
0.0
 10
21.64705895200159
 20
-3.405975597271453
 30
0.0
 10
19.76610088035846
 20
-2.915937972993172
 30
0.0
 10
17.88514733699751
 20
-2.274426816597207
 30
0.0
 10
16.13045442263304
 20
-1.566163995354197
 30
0.0
 10
14.50224191431052
 20
-0.848184071232585
 30
0.0
 10
13.00065051520971
 20
-0.1589520526414029
 30
0.0
 10
11.49998099151307
 20
0.5386969571297631
 30
0.0
 10
10.49993129459034
 20
0.9847093206515554
 30
0.0
 10
10.00000000000001
 20
1.207673778302876
 30
0.0
  0
SPLINE
  5
C1
330
1F
100
AcDbEntity
  8
외형선
  6
Continuous
370
    15
100
AcDbSpline
210
0.0
220
0.0
230
1.0
 70
    24
 71
     3
 72
    14
 73
    10
 74
     0
 42
0.000000001
 43
0.00000001
 40
0.0
 40
0.0
 40
0.0
 40
0.0
 40
0.2499999999999999
 40
0.2499999999999999
 40
0.4999999999999999
 40
0.4999999999999999
 40
0.7499999999999999
 40
0.7499999999999999
 40
1.0
 40
1.0
 40
1.0
 40
1.0
 10
10.0
 20
1.207673778302878
 30
0.0
 10
10.0
 20
0.8482000556669381
 30
0.0
 10
10.0
 20
0.472175343733042
 30
0.0
 10
10.0
 20
-0.2888665136329942
 30
0.0
 10
10.0
 20
-0.673688176231017
 30
0.0
 10
10.0
 20
-1.424165220694845
 30
0.0
 10
10.0
 20
-1.789603887571764
 30
0.0
 10
10.0
 20
-2.475843050071798
 30
0.0
 10
10.0
 20
-2.796506965628182
 30
0.0
 10
10.0
 20
-3.086292779594935
 30
0.0
  0
SPLINE
  5
C2
330
1F
100
AcDbEntity
  8
외형선
  6
Continuous
370
    15
100
AcDbSpline
210
0.0
220
0.0
230
1.0
 70
    24
 71
     3
 72
    13
 73
     9
 74
     0
 42
0.000000001
 43
0.00000001
 40
0.0
 40
0.0
 40
0.0
 40
0.0
 40
0.0598332445767912
 40
0.2508072703614765
 40
0.4363991199356289
 40
0.6273731457203191
 40
0.8136865728601596
 40
0.9999999999999999
 40
0.9999999999999999
 40
0.9999999999999999
 40
0.9999999999999999
 10
10.0
 20
3.176500385587393
 30
0.0
 10
10.0
 20
3.180474836039208
 30
0.0
 10
10.0
 20
3.197134822908674
 30
0.0
 10
10.0
 20
3.074813739719634
 30
0.0
 10
10.0
 20
2.80942619700855
 30
0.0
 10
10.0
 20
2.39691171866305
 30
0.0
 10
10.0
 20
1.866258872003404
 30
0.0
 10
10.0
 20
1.427202142869719
 30
0.0
 10
10.0
 20
1.207673778302876
 30
0.0
  0
LINE
  5
C3
330
1F
100
AcDbEntity
  8
외형선
  6
Continuous
 62
     1
370
    15
100
AcDbLine
 10
38.41120325334067
 20
3.32623487130417
 30
0.0
 11
36.80389222690378
 21
3.252490126892245
 31
0.0
  0
SPLINE
  5
C4
330
1F
100
AcDbEntity
  8
외형선
  6
Continuous
 62
     1
370
    15
100
AcDbSpline
210
0.0
220
0.0
230
1.0
 70
    24
 71
     3
 72
     8
 73
     4
 74
     0
 42
0.000000001
 43
0.00000001
 40
0.0
 40
0.0
 40
0.0
 40
0.0
 40
0.3955207541505074
 40
0.3955207541505074
 40
0.3955207541505074
 40
0.3955207541505074
 10
38.57500000000001
 20
1.500000000000063
 30
0.0
 10
38.57500000000001
 20
1.868388345669684
 30
0.0
 10
38.57500000000002
 20
2.199672154752135
 30
0.0
 10
38.57500000000001
 20
2.476500000000012
 30
0.0
  0
SPLINE
  5
C5
330
1F
100
AcDbEntity
  8
외형선
  6
Continuous
 62
     1
370
    15
100
AcDbSpline
210
0.0
220
0.0
230
1.0
 70
    24
 71
     3
 72
     8
 73
     4
 74
     0
 42
0.000000001
 43
0.00000001
 40
0.0
 40
0.0
 40
0.0
 40
0.0
 40
1.0
 40
1.0
 40
1.0
 40
1.0
 10
38.57500000000001
 20
1.500000000000004
 30
0.0
 10
38.20024444710683
 20
1.185542753785692
 30
0.0
 10
37.81495761033166
 20
0.8622487111501986
 30
0.0
 10
37.42052765837764
 20
0.5312826839403131
 30
0.0
  0
SPLINE
  5
C6
330
1F
100
AcDbEntity
  8
외형선
  6
Continuous
 62
     1
370
    15
100
AcDbSpline
210
0.0
220
0.0
230
1.0
 70
     8
 71
     3
 72
    14
 73
    10
 74
     0
 42
0.000000001
 43
0.00000001
 40
0.0
 40
0.0
 40
0.0
 40
0.0
 40
0.1252819898000253
 40
0.2710399866173973
 40
0.4168738631152001
 40
0.5627555202172592
 40
0.7085503378544418
 40
0.8542860933041432
 40
1.0
 40
1.0
 40
1.0
 40
1.0
 10
20.78087541767391
 20
-3.743631020770034
 30
0.0
 10
20.33069875994585
 20
-3.897480818777425
 30
0.0
 10
19.35676886402992
 20
-4.230325525822491
 30
0.0
 10
17.85873559575506
 20
-4.562001339728549
 30
0.0
 10
16.2865004179861
 20
-4.758232002915761
 30
0.0
 10
14.71394794890092
 20
-4.779311665990199
 30
0.0
 10
13.14204844374812
 20
-4.625726243292627
 30
0.0
 10
11.57085658610278
 20
-4.314375970682207
 30
0.0
 10
10.52359269237756
 20
-3.978170301041954
 30
0.0
 10
9.99999999999693
 20
-3.810080068183455
 30
0.0
  0
SPLINE
  5
C7
330
1F
100
AcDbEntity
  8
외형선
  6
Continuous
370
    15
100
AcDbSpline
210
0.0
220
0.0
230
1.0
 70
    24
 71
     3
 72
     8
 73
     4
 74
     0
 42
0.000000001
 43
0.00000001
 40
0.0
 40
0.0
 40
0.0
 40
0.0
 40
1.0
 40
1.0
 40
1.0
 40
1.0
 10
10.00000000000001
 20
-3.08629277959494
 30
0.0
 10
10.00000000000001
 20
-3.319923477464633
 30
0.0
 10
10.00000000000001
 20
-3.562702643602553
 30
0.0
 10
10.00000000000001
 20
-3.810080068175097
 30
0.0
  0
SPLINE
  5
C8
330
1F
100
AcDbEntity
  8
외형선
  6
Continuous
 62
     1
370
    15
100
AcDbSpline
210
0.0
220
0.0
230
1.0
 70
     8
 71
     3
 72
    10
 73
     6
 74
     0
 42
0.000000001
 43
0.00000001
 40
0.0
 40
0.0
 40
0.0
 40
0.0
 40
0.4977161144989083
 40
0.995622110982081
 40
0.9999999999999999
 40
0.9999999999999999
 40
0.9999999999999999
 40
0.9999999999999999
 10
10.0
 20
-4.451046776078632
 30
0.0
 10
10.49749195643156
 20
-4.535683712186072
 30
0.0
 10
11.49266566576114
 20
-4.704989873950964
 30
0.0
 10
12.49218821202802
 20
-4.787952890187276
 30
0.0
 10
12.99437573769836
 20
-4.762047493038999
 30
0.0
 10
12.99875278684732
 20
-4.761821702491155
 30
0.0
  0
SPLINE
  5
C9
330
1F
100
AcDbEntity
  8
외형선
  6
Continuous
 62
     1
370
    15
100
AcDbSpline
210
0.0
220
0.0
230
1.0
 70
     8
 71
     3
 72
    12
 73
     8
 74
     0
 42
0.000000001
 43
0.00000001
 40
0.0
 40
0.0
 40
0.0
 40
0.0
 40
0.0389896139007316
 40
0.2791520515957034
 40
0.5193337209925142
 40
0.7595960424593102
 40
0.7639727997477799
 40
0.7639727997477799
 40
0.7639727997477799
 40
0.7639727997477799
 10
32.03397834710659
 20
3.192052319756989
 30
0.0
 10
32.11898597781492
 20
3.230785245167899
 30
0.0
 10
32.72761099713242
 20
3.50809949660643
 30
0.0
 10
33.85982461093004
 20
3.913975253551319
 30
0.0
 10
35.43089863932849
 20
4.370330488823392
 30
0.0
 10
36.48796316602707
 20
4.572380661133362
 30
0.0
 10
37.02139924353084
 20
4.637592966808898
 30
0.0
 10
37.03094278692108
 20
4.638748112714139
 30
0.0
  0
LINE
  5
CB
330
1F
100
AcDbEntity
  8
외형선
  6
Continuous
 62
     1
370
    15
100
AcDbLine
 10
38.57500000000001
 20
0.0000000000000026
 30
0.0
 11
38.57500000000001
 21
1.500000000000003
 31
0.0
  0
LINE
  5
CC
330
1F
100
AcDbEntity
  8
중심선
 62
     1
100
AcDbLine
 10
-40.625
 20
-0.000000000000005
 30
0.0
 11
41.57500000000002
 21
0.0000000000000051
 31
0.0
  0
LINE
  5
CD
330
1F
100
AcDbEntity
  8
참조1
100
AcDbLine
 10
0.47500000000001
 20
-0.000000000000005
 30
0.0
 11
0.4750000000000152
 21
-40.00000000000001
 31
0.0
  0
LINE
  5
CE
330
1F
100
AcDbEntity
  8
참조1
100
AcDbLine
 10
0.4750000000000152
 20
-40.00000000000001
 30
0.0
 11
-14.66672777521595
 21
-39.99999999999999
 31
0.0
  0
CIRCLE
  5
CF
330
1F
100
AcDbEntity
  8
해칭선
100
AcDbCircle
 10
0.0
 20
0.0
 30
0.0
 40
3.000000000000001
  0
INSERT
  5
D0
330
1F
100
AcDbEntity
  8
0
  6
Continuous
 62
     7
100
AcDbBlockReference
 66
     1
  2
블럭10
 10
-13.4652729321252
 20
-52.04717430164393
 30
0.0
  0
ATTRIB
  5
D1
330
D0
100
AcDbEntity
  8
FORMAT
 62
     2
100
AcDbText
 10
-23.60690894426183
 20
-49.97180738881175
 30
0.0
 40
4.233333333333333
  1
EM211907 [ 2 FLUTE ]
 41
0.75
  7
SLDTEXTSTYLE0
 11
-23.60690894426183
 21
-52.08847405547841
 31
0.0
100
AcDbAttribute
  2
AUTOATTR0
 70
     0
 74
     1
  0
SEQEND
  5
D2
330
D0
100
AcDbEntity
  8
0
  6
Continuous
 62
     7
  0
HATCH
  5
D3
330
1F
100
AcDbEntity
  8
중심선
100
AcDbHatch
 10
0.0
 20
0.0
 30
0.0
210
0.0
220
0.0
230
1.0
  2
SOLID
 70
     1
 71
     0
 91
        1
 92
        0
 93
        4
 72
     1
 10
-7.750363627744346
 20
-35.8
 11
-11.19663887158163
 21
-35.8
 72
     1
 10
-11.19663887158163
 20
-35.8
 11
-13.32486873078565
 21
-38.3363255805726
 72
     1
 10
-13.32486873078565
 20
-38.3363255805726
 11
-9.87856040183522
 21
-38.3362861512701
 72
     1
 10
-9.87856040183522
 20
-38.3362861512701
 11
-7.750363627744346
 21
-35.8
 97
        0
 75
     0
 76
     1
 98
        1
 10
-0.0000000000000071
 20
-0.0010749287238942
  0
HATCH
  5
D4
330
1F
100
AcDbEntity
  8
중심선
100
AcDbHatch
 10
0.0
 20
0.0
 30
0.0
210
0.0
220
0.0
230
1.0
  2
SOLID
 70
     1
 71
     0
 91
        1
 92
        0
 93
        4
 72
     1
 10
-2.737599636708395
 20
-35.8
 11
-6.183874880545649
 21
-35.8
 72
     1
 10
-6.183874880545649
 20
-35.8
 11
-10.71501288890307
 21
-41.20000000000002
 72
     1
 10
-10.71501288890307
 20
-41.20000000000002
 11
-7.268737645065783
 21
-41.20000000000002
 72
     1
 10
-7.268737645065783
 20
-41.20000000000002
 11
-2.737599636708395
 21
-35.8
 97
        0
 75
     0
 76
     1
 98
        1
 10
-0.0000000000000071
 20
-0.0010749287238942
  0
HATCH
  5
D5
330
1F
100
AcDbEntity
  8
중심선
100
AcDbHatch
 10
0.0
 20
0.0
 30
0.0
210
0.0
220
0.0
230
1.0
  2
SOLID
 70
     1
 71
     0
 91
        1
 92
        0
 93
        4
 72
     1
 10
2.275164354327501
 20
-35.8
 11
-1.171110889509587
 21
-35.8
 72
     1
 10
-1.171110889509587
 20
-35.8
 11
-8.219547791398863
 21
-44.20000000000002
 72
     1
 10
-8.219547791398863
 20
-44.20000000000002
 11
-4.773272547561581
 21
-44.20000000000002
 72
     1
 10
-4.773272547561581
 20
-44.20000000000002
 11
2.275164354327501
 21
-35.8
 97
        0
 75
     0
 76
     1
 98
        1
 10
-0.0000000000000071
 20
-0.0010749287238942
  0
HATCH
  5
D6
330
1F
100
AcDbEntity
  8
중심선
100
AcDbHatch
 10
0.0
 20
0.0
 30
0.0
210
0.0
220
0.0
230
1.0
  2
SOLID
 70
     1
 71
     0
 91
        1
 92
        0
 93
        6
 72
     3
 10
7.075054785339701
 20
-40.00000000005127
 11
3.960054785062285
 21
1.540882976769353E-10
 40
0.3939339440162626
 50
17.09539180608438
 51
320.0019657685079
 73
     0
 72
     1
 10
8.758054441040295
 20
-38.58789400463831
 11
11.06335631474136
 21
-36.65356729459039
 72
     3
 10
7.075054785286854
 20
-40.00000000000014
 11
6.600054785286829
 21
-1.278976924368180E-13
 40
0.636358354079598
 50
39.99873849337384
 51
368.4976242363725
 73
     1
 72
     1
 10
13.50038727718746
 20
-39.03999999993002
 11
5.755122092122776
 21
-39.03999999993
 72
     1
 10
5.755122092122776
 20
-39.03999999993
 11
5.755097047676842
 21
-40.95999999992991
 72
     1
 10
5.755097047676842
 20
-40.95999999992991
 11
10.19647681714888
 21
-40.95999999992988
 97
        0
 75
     0
 76
     1
 98
        1
 10
-0.0000000000000071
 20
-0.0010749287238942
  0
DIMENSION
  5
D7
330
1F
100
AcDbEntity
  8
치수문자_일반주서
100
AcDbDimension
  2
_D
 10
-48.12756088035007
 20
-4.762500000000045
 30
0.0
 11
-48.12756088035017
 21
21.18949999999996
 31
0.0
 70
   160
  1
%%c<>
 71
     2
 42
9.52500000000001
 52
-270.0
  3
SLDDIMSTYLE1
100
AcDbAlignedDimension
 13
-37.62500000000001
 23
4.762500000000002
 33
0.0
 14
-37.62407822278255
 24
-4.762500000000006
 34
0.0
 50
90.0000000000002
100
AcDbRotatedDimension
1001
PE_URL
1000

1001
ACAD
1000
DSTYLE
1002
{
1070
   171
1070
     6
1070
   273
1070
     7
1002
}
1001
ACAD_DSTYLE_DIMFLIPARROW_SYMBOL
1070
   385
1070
     0
1001
ACAD_DSTYLE_DIMFLIPARROW_WHICH_SYMBOL
1070
   386
1070
     3
  0
DIMENSION
  5
EC
330
1F
100
AcDbEntity
  8
치수문자_일반주서
100
AcDbDimension
  2
_D_1
 10
48.57500000000005
 20
-4.762499999999847
 30
0.0
 11
48.57499999999995
 21
21.18950000000004
 31
0.0
 70
   160
  1
%%c<>
 71
     2
 42
9.524999999999885
 52
-270.0
  3
SLDDIMSTYLE1
100
AcDbAlignedDimension
 13
38.57500000000001
 23
4.762500000000002
 33
0.0
 14
38.575
 24
-4.762499999999884
 34
0.0
 50
90.0000000000002
100
AcDbRotatedDimension
1001
ACAD
1000
DSTYLE
1002
{
1070
   171
1070
     6
1070
   273
1070
     7
1002
}
1001
PE_URL
1000

1001
ACAD_DSTYLE_DIMFLIPARROW_SYMBOL
1070
   385
1070
     0
1001
ACAD_DSTYLE_DIMFLIPARROW_WHICH_SYMBOL
1070
   386
1070
     3
  0
DIMENSION
  5
100
330
1F
100
AcDbEntity
  8
치수문자_일반주서
100
AcDbDimension
  2
_D_2
 10
10.0
 20
20.41201049254773
 30
0.0
 11
-8.176999999999996
 21
20.41201049254773
 31
0.0
 70
   160
  1
<>
 71
     2
 42
28.57499999999999
  3
SLDDIMSTYLE1
100
AcDbAlignedDimension
 13
38.575
 23
4.762500000000114
 33
0.0
 14
10.0
 24
4.752214317406554
 34
0.0
100
AcDbRotatedDimension
1001
PE_URL
1000

1001
ACAD
1000
DSTYLE
1002
{
1070
   171
1070
     6
1070
   273
1070
     7
1002
}
1001
ACAD_DSTYLE_DIMFLIPARROW_SYMBOL
1070
   385
1070
     0
1001
ACAD_DSTYLE_DIMFLIPARROW_WHICH_SYMBOL
1070
   386
1070
     3
  0
DIMENSION
  5
115
330
1F
100
AcDbEntity
  8
치수문자_일반주서
100
AcDbDimension
  2
_D_3
 10
-37.62500000000001
 20
39.05708820476418
 30
0.0
 11
0.1321110371026748
 21
39.05708820476418
 31
0.0
 70
   160
  1
<>
 71
     2
 42
76.2
  3
SLDDIMSTYLE1
100
AcDbAlignedDimension
 13
38.575
 23
4.762500000000114
 33
0.0
 14
-37.62500000000001
 24
4.762499999999998
 34
0.0
 50
0.0000000000000053
100
AcDbRotatedDimension
1001
PE_URL
1000

1001
ACAD
1000
DSTYLE
1002
{
1070
   171
1070
     6
1070
   273
1070
     7
1002
}
  0
LINE
  5
129
330
1F
100
AcDbEntity
  8
참조1
100
AcDbLine
 10
83.30561285443832
 20
7.440000000000002
 30
0.0
 11
83.30561285443832
 21
-7.440000000000003
 31
0.0
  0
LINE
  5
12A
330
1F
100
AcDbEntity
  8
참조1
100
AcDbLine
 10
96.00561285443831
 20
5.440000000000002
 30
0.0
 11
83.30561285443832
 21
5.440000000000002
 31
0.0
  0
SOLID
  5
12B
330
1F
100
AcDbEntity
  8
참조1
100
AcDbTrace
 10
83.30561285443832
 20
5.440000000000002
 30
0.0
 11
89.65561285443832
 21
4.424000000000002
 31
0.0
 12
89.65561285443832
 22
6.456000000000002
 32
0.0
 13
89.65561285443832
 23
6.456000000000002
 33
0.0
  0
LINE
  5
12C
330
1F
100
AcDbEntity
  8
참조1
100
AcDbLine
 10
96.00561285443831
 20
-5.440000000000003
 30
0.0
 11
83.30561285443832
 21
-5.440000000000003
 31
0.0
  0
SOLID
  5
12D
330
1F
100
AcDbEntity
  8
참조1
100
AcDbTrace
 10
83.30561285443832
 20
-5.440000000000003
 30
0.0
 11
89.65561285443832
 21
-6.456000000000003
 31
0.0
 12
89.65561285443832
 22
-4.424000000000003
 32
0.0
 13
89.65561285443832
 23
-4.424000000000003
 33
0.0
  0
MTEXT
  5
12E
330
1F
100
AcDbEntity
  8
참조1
100
AcDbMText
 10
92.70310294690859
 20
10.98821664464994
 30
0.0
 40
3.5
 41
0.0
 71
     1
 72
     1
  1
A
  7
SLDTEXTSTYLE0
 73
     1
 44
1.0
  0
MTEXT
  5
12F
330
1F
100
AcDbEntity
  8
참조1
100
AcDbMText
 10
92.70310294690859
 20
0.1082166446499309
 30
0.0
 40
3.5
 41
0.0
 71
     1
 72
     1
  1
A
  7
SLDTEXTSTYLE0
 73
     1
 44
1.0
  0
INSERT
  5
136
330
1F
100
AcDbEntity
  8
해칭선
100
AcDbBlockReference
  2
SW_DOWELSYMBOL_0
 10
0.0
 20
0.0
 30
0.0
  0
ARC
  5
1BE
330
1F
100
AcDbEntity
  8
외형선
  6
Continuous
 62
     1
370
    15
100
AcDbCircle
 10
36.28900000000002
 20
2.476500000000012
 30
0.0
 40
2.286000000000001
100
AcDbArc
 50
0.0000000000001781
 51
71.06111652404311
1001
PE_URL
1000

  0
ARC
  5
1BF
330
1F
100
AcDbEntity
  8
외형선
  6
Continuous
 62
     1
370
    15
100
AcDbCircle
 10
36.28900000000002
 20
-2.476500000000011
 30
0.0
 40
2.286000000000001
100
AcDbArc
 50
288.9247472818502
 51
359.9999999999998
1001
PE_URL
1000

  0
MTEXT
  5
20C
102
{ACAD_REACTORS
330
20D
102
}
330
1F
100
AcDbEntity
  8
0
100
AcDbMText
 10
48.44663235552994
 20
-19.47528229953874
 30
0.0
 40
3.5
 41
0.0
 71
     7
 72
     1
  1
{R2.29[.090"]}
 73
     1
 44
1.0
1001
ACAD
1000
ACAD_MTEXT_DEFINED_HEIGHT_BEGIN
1070
    46
1040
3.5
1000
ACAD_MTEXT_DEFINED_HEIGHT_END
  0
LEADER
  5
20D
102
{ACAD_XDICTIONARY
360
20E
102
}
330
1F
100
AcDbEntity
  8
0
100
AcDbLeader
  3
ISO-25
 73
     0
 74
     0
 75
     1
 40
3.5
 41
31.5
 76
     3
 10
37.7047692976871
 20
-4.271324029181317
 30
0.0
 10
43.62063235552993
 20
-17.72528229953874
 30
0.0
 10
46.92263235552993
 20
-17.72528229953874
 30
0.0
340
20C
213
0.0
223
1.75
233
0.0
1001
ACAD
1000
DSTYLE
1002
{
1070
    77
1070
     0
1070
   179
1070
     2
1070
   143
1040
0.0393700787401575
1070
    41
1040
3.302
1070
    44
1040
1.0
1070
    42
1040
1.0
1070
   147
1040
1.524
1070
    73
1070
     1
1070
    74
1070
     1
1070
   140
1040
3.5
1070
   284
1070
     0
1070
    78
1070
     0
1002
}
  0
ENDSEC
  0
SECTION
  2
OBJECTS
  0
DICTIONARY
  5
C
330
0
100
AcDbDictionary
281
     1
  3
ACAD_DETAILVIEWSTYLE
350
1BC
  3
ACAD_GROUP
350
D
  3
ACAD_LAYOUT
350
1A
  3
ACAD_MLINESTYLE
350
17
  3
ACAD_PLOTSETTINGS
350
19
  3
ACAD_PLOTSTYLENAME
350
E
  3
ACAD_SCALELIST
350
47
  3
ACAD_SECTIONVIEWSTYLE
350
1BD
  3
AcDbVariableDictionary
350
1B7
  3
APPDATA
350
158
  3
DWGPROPS
350
231
  0
DICTIONARY
  5
20E
330
20D
100
AcDbDictionary
280
     1
281
     1
  0
DICTIONARY
  5
1BC
102
{ACAD_REACTORS
330
C
102
}
330
C
100
AcDbDictionary
281
     1
  0
DICTIONARY
  5
D
102
{ACAD_REACTORS
330
C
102
}
330
C
100
AcDbDictionary
281
     1
  0
DICTIONARY
  5
1A
102
{ACAD_REACTORS
330
C
102
}
330
C
100
AcDbDictionary
281
     1
  3
Layout1
350
1E
  3
Layout2
350
26
  3
Model
350
22
  0
DICTIONARY
  5
17
102
{ACAD_REACTORS
330
C
102
}
330
C
100
AcDbDictionary
281
     1
  3
Standard
350
18
  0
DICTIONARY
  5
19
102
{ACAD_REACTORS
330
C
102
}
330
C
100
AcDbDictionary
281
     1
  0
ACDBDICTIONARYWDFLT
  5
E
102
{ACAD_REACTORS
330
C
102
}
330
C
100
AcDbDictionary
281
     1
  3
Normal
350
F
100
AcDbDictionaryWithDefault
340
F
  0
DICTIONARY
  5
47
102
{ACAD_REACTORS
330
C
102
}
330
C
100
AcDbDictionary
281
     1
  3
A0
350
48
  3
A1
350
49
  3
A2
350
4A
  3
A3
350
4B
  3
A4
350
4C
  3
A5
350
4D
  3
A6
350
4E
  3
A7
350
4F
  3
A8
350
50
  3
A9
350
51
  3
B0
350
52
  3
B1
350
53
  3
B2
350
54
  3
B3
350
55
  3
B4
350
56
  3
B5
350
57
  3
B6
350
58
  3
B7
350
59
  3
B8
350
5A
  3
B9
350
5B
  3
C0
350
5C
  3
C1
350
5D
  3
C2
350
5E
  3
C3
350
5F
  3
C4
350
60
  3
C5
350
61
  3
C6
350
62
  3
C7
350
63
  3
C8
350
64
  3
C9
350
65
  3
D0
350
66
  3
D1
350
67
  3
D2
350
68
  0
DICTIONARY
  5
1BD
102
{ACAD_REACTORS
330
C
102
}
330
C
100
AcDbDictionary
281
     1
  0
DICTIONARY
  5
1B7
102
{ACAD_REACTORS
330
C
102
}
330
C
100
AcDbDictionary
281
     1
  0
DICTIONARY
  5
158
102
{ACAD_REACTORS
330
C
102
}
330
C
100
AcDbDictionary
281
     1
  0
XRECORD
  5
231
102
{ACAD_REACTORS
330
C
102
}
330
C
100
AcDbXrecord
280
     1
  1
DWGPROPS COOKIE
  2

  3

  4

  6

  7

  8
USER
  9

300
=
301
=
302
=
303
=
304
=
305
=
306
=
307
=
308
=
309
=
 40
0.0
 41
2458288.274170463
 42
2458303.001278588
  1

 90
        0
  0
LAYOUT
  5
1E
102
{ACAD_REACTORS
330
1A
102
}
330
1A
100
AcDbPlotSettings
  1

  2
none_device
  4

  6

 40
0.0
 41
0.0
 42
0.0
 43
0.0
 44
0.0
 45
0.0
 46
0.0
 47
0.0
 48
0.0
 49
0.0
140
0.0
141
0.0
142
1.0
143
1.0
 70
   688
 72
     1
 73
     0
 74
     5
  7

 75
    16
147
1.0
148
0.0
149
0.0
100
AcDbLayout
  1
Layout1
 70
     1
 71
     1
 10
0.0
 20
0.0
 11
420.0
 21
297.0
 12
0.0
 22
0.0
 32
0.0
 14
1.000000000000000E+20
 24
1.000000000000000E+20
 34
1.000000000000000E+20
 15
-1.000000000000000E+20
 25
-1.000000000000000E+20
 35
-1.000000000000000E+20
146
0.0
 13
0.0
 23
0.0
 33
0.0
 16
1.0
 26
0.0
 36
0.0
 17
0.0
 27
1.0
 37
0.0
 76
     0
330
1B
  0
LAYOUT
  5
26
102
{ACAD_REACTORS
330
1A
102
}
330
1A
100
AcDbPlotSettings
  1

  2
none_device
  4

  6

 40
0.0
 41
0.0
 42
0.0
 43
0.0
 44
0.0
 45
0.0
 46
0.0
 47
0.0
 48
0.0
 49
0.0
140
0.0
141
0.0
142
1.0
143
1.0
 70
   688
 72
     1
 73
     0
 74
     5
  7

 75
    16
147
1.0
148
0.0
149
0.0
100
AcDbLayout
  1
Layout2
 70
     1
 71
     2
 10
0.0
 20
0.0
 11
0.0
 21
0.0
 12
0.0
 22
0.0
 32
0.0
 14
0.0
 24
0.0
 34
0.0
 15
0.0
 25
0.0
 35
0.0
146
0.0
 13
0.0
 23
0.0
 33
0.0
 16
1.0
 26
0.0
 36
0.0
 17
0.0
 27
1.0
 37
0.0
 76
     0
330
23
  0
LAYOUT
  5
22
102
{ACAD_REACTORS
330
1A
102
}
330
1A
100
AcDbPlotSettings
  1

  2
none_device
  4
ANSI_A_(11.00_x_8.50_Inches)
  6

 40
6.35
 41
19.05
 42
6.35000508
 43
19.05000254
 44
279.4
 45
215.9
 46
102.4257659233773
 47
100.8988000233464
 48
0.0
 49
0.0
140
0.0
141
0.0
142
0.0693968741252371
143
1.0
 70
  1696
 72
     0
 73
     0
 74
     0
  7

 75
     0
147
0.0235690232323232
148
0.0
149
0.0
100
AcDbLayout
  1
Model
 70
     1
 71
     0
 10
0.0
 20
0.0
 11
420.0
 21
297.0
 12
0.0
 22
0.0
 32
0.0
 14
-52.50256088035022
 24
-49.97180738881175
 34
0.0
 15
96.00561285443831
 25
43.43208820476418
 35
0.0
146
0.0
 13
0.0
 23
0.0
 33
0.0
 16
1.0
 26
0.0
 36
0.0
 17
0.0
 27
1.0
 37
0.0
 76
     0
330
1F
331
29
  0
MLINESTYLE
  5
18
102
{ACAD_REACTORS
330
17
102
}
330
17
100
AcDbMlineStyle
  2
Standard
 70
     0
  3

 62
   256
 51
90.0
 52
90.0
 71
     2
 49
0.5
 62
   256
  6
BYLAYER
 49
-0.5
 62
   256
  6
BYLAYER
  0
ACDBPLACEHOLDER
  5
F
102
{ACAD_REACTORS
330
E
102
}
330
E
  0
SCALE
  5
48
102
{ACAD_REACTORS
330
47
102
}
330
47
100
AcDbScale
 70
     0
300
1:1
140
1.0
141
1.0
290
     1
  0
SCALE
  5
49
102
{ACAD_REACTORS
330
47
102
}
330
47
100
AcDbScale
 70
     0
300
1:2
140
1.0
141
2.0
290
     0
  0
SCALE
  5
4A
102
{ACAD_REACTORS
330
47
102
}
330
47
100
AcDbScale
 70
     0
300
1:4
140
1.0
141
4.0
290
     0
  0
SCALE
  5
4B
102
{ACAD_REACTORS
330
47
102
}
330
47
100
AcDbScale
 70
     0
300
1:5
140
1.0
141
5.0
290
     0
  0
SCALE
  5
4C
102
{ACAD_REACTORS
330
47
102
}
330
47
100
AcDbScale
 70
     0
300
1:8
140
1.0
141
8.0
290
     0
  0
SCALE
  5
4D
102
{ACAD_REACTORS
330
47
102
}
330
47
100
AcDbScale
 70
     0
300
1:10
140
1.0
141
10.0
290
     0
  0
SCALE
  5
4E
102
{ACAD_REACTORS
330
47
102
}
330
47
100
AcDbScale
 70
     0
300
1:16
140
1.0
141
16.0
290
     0
  0
SCALE
  5
4F
102
{ACAD_REACTORS
330
47
102
}
330
47
100
AcDbScale
 70
     0
300
1:20
140
1.0
141
20.0
290
     0
  0
SCALE
  5
50
102
{ACAD_REACTORS
330
47
102
}
330
47
100
AcDbScale
 70
     0
300
1:30
140
1.0
141
30.0
290
     0
  0
SCALE
  5
51
102
{ACAD_REACTORS
330
47
102
}
330
47
100
AcDbScale
 70
     0
300
1:40
140
1.0
141
40.0
290
     0
  0
SCALE
  5
52
102
{ACAD_REACTORS
330
47
102
}
330
47
100
AcDbScale
 70
     0
300
1:50
140
1.0
141
50.0
290
     0
  0
SCALE
  5
53
102
{ACAD_REACTORS
330
47
102
}
330
47
100
AcDbScale
 70
     0
300
1:100
140
1.0
141
100.0
290
     0
  0
SCALE
  5
54
102
{ACAD_REACTORS
330
47
102
}
330
47
100
AcDbScale
 70
     0
300
2:1
140
2.0
141
1.0
290
     0
  0
SCALE
  5
55
102
{ACAD_REACTORS
330
47
102
}
330
47
100
AcDbScale
 70
     0
300
4:1
140
4.0
141
1.0
290
     0
  0
SCALE
  5
56
102
{ACAD_REACTORS
330
47
102
}
330
47
100
AcDbScale
 70
     0
300
8:1
140
8.0
141
1.0
290
     0
  0
SCALE
  5
57
102
{ACAD_REACTORS
330
47
102
}
330
47
100
AcDbScale
 70
     0
300
10:1
140
10.0
141
1.0
290
     0
  0
SCALE
  5
58
102
{ACAD_REACTORS
330
47
102
}
330
47
100
AcDbScale
 70
     0
300
100:1
140
100.0
141
1.0
290
     0
  0
SCALE
  5
59
102
{ACAD_REACTORS
330
47
102
}
330
47
100
AcDbScale
 70
     0
300
1/128" = 1'-0"
140
0.0078125
141
12.0
290
     0
  0
SCALE
  5
5A
102
{ACAD_REACTORS
330
47
102
}
330
47
100
AcDbScale
 70
     0
300
1/64" = 1'-0"
140
0.015625
141
12.0
290
     0
  0
SCALE
  5
5B
102
{ACAD_REACTORS
330
47
102
}
330
47
100
AcDbScale
 70
     0
300
1/32" = 1'-0"
140
0.03125
141
12.0
290
     0
  0
SCALE
  5
5C
102
{ACAD_REACTORS
330
47
102
}
330
47
100
AcDbScale
 70
     0
300
1/16" = 1'-0"
140
0.0625
141
12.0
290
     0
  0
SCALE
  5
5D
102
{ACAD_REACTORS
330
47
102
}
330
47
100
AcDbScale
 70
     0
300
3/32" = 1'-0"
140
0.09375
141
12.0
290
     0
  0
SCALE
  5
5E
102
{ACAD_REACTORS
330
47
102
}
330
47
100
AcDbScale
 70
     0
300
1/8" = 1'-0"
140
0.125
141
12.0
290
     0
  0
SCALE
  5
5F
102
{ACAD_REACTORS
330
47
102
}
330
47
100
AcDbScale
 70
     0
300
3/16" = 1'-0"
140
0.1875
141
12.0
290
     0
  0
SCALE
  5
60
102
{ACAD_REACTORS
330
47
102
}
330
47
100
AcDbScale
 70
     0
300
1/4" = 1'-0"
140
0.25
141
12.0
290
     0
  0
SCALE
  5
61
102
{ACAD_REACTORS
330
47
102
}
330
47
100
AcDbScale
 70
     0
300
3/8" = 1'-0"
140
0.375
141
12.0
290
     0
  0
SCALE
  5
62
102
{ACAD_REACTORS
330
47
102
}
330
47
100
AcDbScale
 70
     0
300
1/2" = 1'-0"
140
0.5
141
12.0
290
     0
  0
SCALE
  5
63
102
{ACAD_REACTORS
330
47
102
}
330
47
100
AcDbScale
 70
     0
300
3/4" = 1'-0"
140
0.75
141
12.0
290
     0
  0
SCALE
  5
64
102
{ACAD_REACTORS
330
47
102
}
330
47
100
AcDbScale
 70
     0
300
1" = 1'-0"
140
1.0
141
12.0
290
     0
  0
SCALE
  5
65
102
{ACAD_REACTORS
330
47
102
}
330
47
100
AcDbScale
 70
     0
300
1-1/2" = 1'-0"
140
1.5
141
12.0
290
     0
  0
SCALE
  5
66
102
{ACAD_REACTORS
330
47
102
}
330
47
100
AcDbScale
 70
     0
300
3" = 1'-0"
140
3.0
141
12.0
290
     0
  0
SCALE
  5
67
102
{ACAD_REACTORS
330
47
102
}
330
47
100
AcDbScale
 70
     0
300
6" = 1'-0"
140
6.0
141
12.0
290
     0
  0
SCALE
  5
68
102
{ACAD_REACTORS
330
47
102
}
330
47
100
AcDbScale
 70
     0
300
1'-0" = 1'-0"
140
12.0
141
12.0
290
     0
  0
ENDSEC
  0
EOF
