  0
SECTION
  2
HEADER
  9
$ACADVER
  1
AC1015
  9
$ACADMAINTVER
 70
     6
  9
$DWGCODEPAGE
  3
ANSI_949
  9
$INSBASE
 10
0.0
 20
0.0
 30
0.0
  9
$EXTMIN
 10
-55.67500000000008
 20
-49.97180738881175
 30
0.0
  9
$EXTMAX
 10
102.6659001089102
 20
50.66255268697243
 30
0.0
  9
$LIMMIN
 10
0.0
 20
0.0
  9
$LIMMAX
 10
420.0
 20
297.0
  9
$ORTHOMODE
 70
     1
  9
$REGENMODE
 70
     1
  9
$FILLMODE
 70
     1
  9
$QTEXTMODE
 70
     0
  9
$MIRRTEXT
 70
     1
  9
$LTSCALE
 40
1.0
  9
$ATTMODE
 70
     1
  9
$TEXTSIZE
 40
3.5
  9
$TRACEWID
 40
1.0
  9
$TEXTSTYLE
  7
Standard
  9
$CLAYER
  8
0
  9
$CELTYPE
  6
ByLayer
  9
$CECOLOR
 62
   256
  9
$CELTSCALE
 40
1.0
  9
$DISPSILH
 70
     0
  9
$DIMSCALE
 40
1.0
  9
$DIMASZ
 40
3.302
  9
$DIMEXO
 40
1.0
  9
$DIMDLI
 40
3.75
  9
$DIMRND
 40
0.0
  9
$DIMDLE
 40
0.0
  9
$DIMEXE
 40
1.0
  9
$DIMTP
 40
0.0
  9
$DIMTM
 40
0.0
  9
$DIMTXT
 40
3.5
  9
$DIMCEN
 40
2.5
  9
$DIMTSZ
 40
0.0
  9
$DIMTOL
 70
     0
  9
$DIMLIM
 70
     0
  9
$DIMTIH
 70
     1
  9
$DIMTOH
 70
     1
  9
$DIMSE1
 70
     0
  9
$DIMSE2
 70
     0
  9
$DIMTAD
 70
     1
  9
$DIMZIN
 70
     0
  9
$DIMBLK
  1

  9
$DIMASO
 70
     1
  9
$DIMSHO
 70
     1
  9
$DIMPOST
  1

  9
$DIMAPOST
  1

  9
$DIMALT
 70
     0
  9
$DIMALTD
 70
     3
  9
$DIMALTF
 40
0.0393700787401575
  9
$DIMLFAC
 40
1.0
  9
$DIMTOFL
 70
     1
  9
$DIMTVP
 40
0.0
  9
$DIMTIX
 70
     0
  9
$DIMSOXD
 70
     0
  9
$DIMSAH
 70
     0
  9
$DIMBLK1
  1

  9
$DIMBLK2
  1

  9
$DIMSTYLE
  2
ISO-25
  9
$DIMCLRD
 70
     0
  9
$DIMCLRE
 70
     0
  9
$DIMCLRT
 70
     0
  9
$DIMTFAC
 40
1.0
  9
$DIMGAP
 40
1.524
  9
$DIMJUST
 70
     0
  9
$DIMSD1
 70
     0
  9
$DIMSD2
 70
     0
  9
$DIMTOLJ
 70
     0
  9
$DIMTZIN
 70
     0
  9
$DIMALTZ
 70
     0
  9
$DIMALTTZ
 70
     0
  9
$DIMUPT
 70
     0
  9
$DIMDEC
 70
     2
  9
$DIMTDEC
 70
     2
  9
$DIMALTU
 70
     2
  9
$DIMALTTD
 70
     3
  9
$DIMTXSTY
  7
Standard
  9
$DIMAUNIT
 70
     0
  9
$DIMADEC
 70
     2
  9
$DIMALTRND
 40
0.0
  9
$DIMAZIN
 70
     0
  9
$DIMDSEP
 70
    44
  9
$DIMATFIT
 70
     3
  9
$DIMFRAC
 70
     0
  9
$DIMLDRBLK
  1

  9
$DIMLUNIT
 70
     2
  9
$DIMLWD
 70
    -2
  9
$DIMLWE
 70
    -2
  9
$DIMTMOVE
 70
     0
  9
$LUNITS
 70
     2
  9
$LUPREC
 70
     2
  9
$SKETCHINC
 40
1.0
  9
$FILLETRAD
 40
0.508
  9
$AUNITS
 70
     0
  9
$AUPREC
 70
     2
  9
$MENU
  1
.
  9
$ELEVATION
 40
0.0
  9
$PELEVATION
 40
0.0
  9
$THICKNESS
 40
0.0
  9
$LIMCHECK
 70
     0
  9
$CHAMFERA
 40
0.0
  9
$CHAMFERB
 40
0.0
  9
$CHAMFERC
 40
0.0
  9
$CHAMFERD
 40
0.0
  9
$SKPOLY
 70
     0
  9
$TDCREATE
 40
2458288.647847176
  9
$TDUCREATE
 40
2458288.272847176
  9
$TDUPDATE
 40
2458303.379721378
  9
$TDUUPDATE
 40
2458303.004721378
  9
$TDINDWG
 40
0.0028930324
  9
$TDUSRTIMER
 40
0.0003276042
  9
$USRTIMER
 70
     1
  9
$ANGBASE
 50
0.0
  9
$ANGDIR
 70
     0
  9
$PDMODE
 70
     0
  9
$PDSIZE
 40
-1.0
  9
$PLINEWID
 40
0.0
  9
$SPLFRAME
 70
     0
  9
$SPLINETYPE
 70
     6
  9
$SPLINESEGS
 70
     8
  9
$HANDSEED
  5
205
  9
$SURFTAB1
 70
     6
  9
$SURFTAB2
 70
     6
  9
$SURFTYPE
 70
     6
  9
$SURFU
 70
     6
  9
$SURFV
 70
     6
  9
$UCSBASE
  2

  9
$UCSNAME
  2

  9
$UCSORG
 10
0.0
 20
0.0
 30
0.0
  9
$UCSXDIR
 10
1.0
 20
0.0
 30
0.0
  9
$UCSYDIR
 10
0.0
 20
1.0
 30
0.0
  9
$UCSORTHOREF
  2

  9
$UCSORTHOVIEW
 70
     0
  9
$UCSORGTOP
 10
0.0
 20
0.0
 30
0.0
  9
$UCSORGBOTTOM
 10
0.0
 20
0.0
 30
0.0
  9
$UCSORGLEFT
 10
0.0
 20
0.0
 30
0.0
  9
$UCSORGRIGHT
 10
0.0
 20
0.0
 30
0.0
  9
$UCSORGFRONT
 10
0.0
 20
0.0
 30
0.0
  9
$UCSORGBACK
 10
0.0
 20
0.0
 30
0.0
  9
$PUCSBASE
  2

  9
$PUCSNAME
  2

  9
$PUCSORG
 10
0.0
 20
0.0
 30
0.0
  9
$PUCSXDIR
 10
1.0
 20
0.0
 30
0.0
  9
$PUCSYDIR
 10
0.0
 20
1.0
 30
0.0
  9
$PUCSORTHOREF
  2

  9
$PUCSORTHOVIEW
 70
     0
  9
$PUCSORGTOP
 10
0.0
 20
0.0
 30
0.0
  9
$PUCSORGBOTTOM
 10
0.0
 20
0.0
 30
0.0
  9
$PUCSORGLEFT
 10
0.0
 20
0.0
 30
0.0
  9
$PUCSORGRIGHT
 10
0.0
 20
0.0
 30
0.0
  9
$PUCSORGFRONT
 10
0.0
 20
0.0
 30
0.0
  9
$PUCSORGBACK
 10
0.0
 20
0.0
 30
0.0
  9
$USERI1
 70
     0
  9
$USERI2
 70
     0
  9
$USERI3
 70
     0
  9
$USERI4
 70
     0
  9
$USERI5
 70
     0
  9
$USERR1
 40
0.0
  9
$USERR2
 40
0.0
  9
$USERR3
 40
0.0
  9
$USERR4
 40
0.0
  9
$USERR5
 40
0.0
  9
$WORLDVIEW
 70
     1
  9
$SHADEDGE
 70
     3
  9
$SHADEDIF
 70
    70
  9
$TILEMODE
 70
     1
  9
$MAXACTVP
 70
    64
  9
$PINSBASE
 10
0.0
 20
0.0
 30
0.0
  9
$PLIMCHECK
 70
     0
  9
$PEXTMIN
 10
1.000000000000000E+20
 20
1.000000000000000E+20
 30
1.000000000000000E+20
  9
$PEXTMAX
 10
-1.000000000000000E+20
 20
-1.000000000000000E+20
 30
-1.000000000000000E+20
  9
$PLIMMIN
 10
0.0
 20
0.0
  9
$PLIMMAX
 10
0.0
 20
0.0
  9
$UNITMODE
 70
     0
  9
$VISRETAIN
 70
     1
  9
$PLINEGEN
 70
     0
  9
$PSLTSCALE
 70
     1
  9
$TREEDEPTH
 70
  3020
  9
$CMLSTYLE
  2
Standard
  9
$CMLJUST
 70
     0
  9
$CMLSCALE
 40
20.0
  9
$PROXYGRAPHICS
 70
     1
  9
$MEASUREMENT
 70
     1
  9
$CELWEIGHT
370
    -1
  9
$ENDCAPS
280
     0
  9
$JOINSTYLE
280
     0
  9
$LWDISPLAY
290
     1
  9
$INSUNITS
 70
     4
  9
$HYPERLINKBASE
  1

  9
$STYLESHEET
  1

  9
$XEDIT
290
     1
  9
$CEPSNTYPE
380
     0
  9
$PSTYLEMODE
290
     1
  9
$FINGERPRINTGUID
  2
{FB421994-B93F-4365-8DF9-EB3C46C38901}
  9
$VERSIONGUID
  2
{FAEB1C32-E019-11D5-929B-00C0DF256EC4}
  9
$EXTNAMES
290
     1
  9
$PSVPSCALE
 40
0.0
  9
$OLESTARTUP
290
     0
  0
ENDSEC
  0
SECTION
  2
CLASSES
  0
CLASS
  1
ACDBDICTIONARYWDFLT
  2
AcDbDictionaryWithDefault
  3
ObjectDBX Classes
 90
        0
280
     0
281
     0
  0
CLASS
  1
VISUALSTYLE
  2
AcDbVisualStyle
  3
ObjectDBX Classes
 90
     4095
280
     0
281
     0
  0
CLASS
  1
MATERIAL
  2
AcDbMaterial
  3
ObjectDBX Classes
 90
     1153
280
     0
281
     0
  0
CLASS
  1
SCALE
  2
AcDbScale
  3
ObjectDBX Classes
 90
     1153
280
     0
281
     0
  0
CLASS
  1
SUN
  2
AcDbSun
  3
SCENEOE
 90
     1153
280
     0
281
     0
  0
CLASS
  1
ACDBPLACEHOLDER
  2
AcDbPlaceHolder
  3
ObjectDBX Classes
 90
        0
280
     0
281
     0
  0
CLASS
  1
LAYOUT
  2
AcDbLayout
  3
ObjectDBX Classes
 90
        0
280
     0
281
     0
  0
CLASS
  1
TABLESTYLE
  2
AcDbTableStyle
  3
ObjectDBX Classes
 90
     4095
280
     0
281
     0
  0
CLASS
  1
MLEADERSTYLE
  2
AcDbMLeaderStyle
  3
ACDB_MLEADERSTYLE_CLASS
 90
     4095
280
     0
281
     0
  0
CLASS
  1
DICTIONARYVAR
  2
AcDbDictionaryVar
  3
ObjectDBX Classes
 90
        0
280
     0
281
     0
  0
ENDSEC
  0
SECTION
  2
TABLES
  0
TABLE
  2
VPORT
  5
8
330
0
100
AcDbSymbolTable
 70
     1
  0
VPORT
  5
29
330
8
100
AcDbSymbolTableRecord
100
AcDbViewportTableRecord
  2
*Active
 70
     0
 10
0.0
 20
0.0
 11
1.0
 21
1.0
 12
6.7054910262706
 22
2.426056039836432
 13
0.0
 23
0.0
 14
10.0
 24
10.0
 15
10.0
 25
10.0
 16
0.0
 26
0.0
 36
1.0
 17
0.0
 27
0.0
 37
0.0
 40
128.3088090966248
 41
2.268018018018018
 42
50.0
 43
0.0
 44
0.0
 50
0.0
 51
0.0
 71
    16
 72
  2000
 73
     1
 74
     3
 75
     0
 76
     0
 77
     0
 78
     0
281
     0
 65
     1
110
0.0
120
0.0
130
0.0
111
1.0
121
0.0
131
0.0
112
0.0
122
1.0
132
0.0
 79
     0
146
0.0
  0
ENDTAB
  0
TABLE
  2
LTYPE
  5
5
330
0
100
AcDbSymbolTable
 70
     6
  0
LTYPE
  5
14
330
5
100
AcDbSymbolTableRecord
100
AcDbLinetypeTableRecord
  2
ByBlock
 70
     0
  3

 72
    65
 73
     0
 40
0.0
  0
LTYPE
  5
15
330
5
100
AcDbSymbolTableRecord
100
AcDbLinetypeTableRecord
  2
ByLayer
 70
     0
  3

 72
    65
 73
     0
 40
0.0
  0
LTYPE
  5
16
330
5
100
AcDbSymbolTableRecord
100
AcDbLinetypeTableRecord
  2
Continuous
 70
     0
  3
Solid line
 72
    65
 73
     0
 40
0.0
  0
LTYPE
  5
6A
330
5
100
AcDbSymbolTableRecord
100
AcDbLinetypeTableRecord
  2
HIDDEN
 70
     0
  3
Hidden __ __ __ __ __ __ __ __ __ __ __ __ __ __
 72
    65
 73
     2
 40
1.905
 49
1.27
 74
     0
 49
-0.635
 74
     0
  0
LTYPE
  5
6B
330
5
100
AcDbSymbolTableRecord
100
AcDbLinetypeTableRecord
  2
PHANTOM
 70
     0
  3
Phantom ______  __  __  ______  __  __  ______
 72
    65
 73
     6
 40
12.7
 49
6.35
 74
     0
 49
-1.27
 74
     0
 49
1.27
 74
     0
 49
-1.27
 74
     0
 49
1.27
 74
     0
 49
-1.27
 74
     0
  0
LTYPE
  5
6C
330
5
100
AcDbSymbolTableRecord
100
AcDbLinetypeTableRecord
  2
CENTER
 70
     0
  3
Center ____ _ ____ _ ____ _ ____ _ ____ _ ____
 72
    65
 73
     4
 40
10.16
 49
6.35
 74
     0
 49
-1.27
 74
     0
 49
1.27
 74
     0
 49
-1.27
 74
     0
  0
LTYPE
  5
6D
330
5
100
AcDbSymbolTableRecord
100
AcDbLinetypeTableRecord
  2
CENTERX2
 70
     0
  3
Center (2x) ________  __  ________  __  _____
 72
    65
 73
     4
 40
20.32
 49
12.7
 74
     0
 49
-2.54
 74
     0
 49
2.54
 74
     0
 49
-2.54
 74
     0
  0
LTYPE
  5
6E
330
5
100
AcDbSymbolTableRecord
100
AcDbLinetypeTableRecord
  2
DOT2
 70
     0
  3
Dot (.5x) ........................................
 72
    65
 73
     2
 40
0.635
 49
0.0
 74
     0
 49
-0.635
 74
     0
  0
ENDTAB
  0
TABLE
  2
LAYER
  5
2
330
0
100
AcDbSymbolTable
 70
    18
  0
LAYER
  5
10
330
2
100
AcDbSymbolTableRecord
100
AcDbLayerTableRecord
  2
0
 70
     0
 62
     7
  6
Continuous
370
    -3
390
F
  0
LAYER
  5
6F
330
2
100
AcDbSymbolTableRecord
100
AcDbLayerTableRecord
  2
FORMAT
 70
     0
 62
     2
  6
Continuous
370
    -3
390
F
  0
LAYER
  5
70
330
2
100
AcDbSymbolTableRecord
100
AcDbLayerTableRecord
  2
외형선
 70
     0
 62
     4
  6
Continuous
370
    30
390
F
  0
LAYER
  5
71
330
2
100
AcDbSymbolTableRecord
100
AcDbLayerTableRecord
  2
숨은선
 70
     0
 62
     2
  6
HIDDEN
370
    15
390
F
  0
LAYER
  5
72
330
2
100
AcDbSymbolTableRecord
100
AcDbLayerTableRecord
  2
중심선
 70
     0
 62
     1
  6
CENTERX2
370
    -3
390
F
  0
LAYER
  5
73
330
2
100
AcDbSymbolTableRecord
100
AcDbLayerTableRecord
  2
파단선
 70
     0
 62
     4
  6
Continuous
370
    -3
390
F
  0
LAYER
  5
74
330
2
100
AcDbSymbolTableRecord
100
AcDbLayerTableRecord
  2
해칭선
 70
     0
 62
   100
  6
Continuous
370
    -3
390
F
  0
LAYER
  5
75
330
2
100
AcDbSymbolTableRecord
100
AcDbLayerTableRecord
  2
가는실선
 70
     0
 62
     4
  6
Continuous
370
    -3
390
F
  0
LAYER
  5
76
330
2
100
AcDbSymbolTableRecord
100
AcDbLayerTableRecord
  2
치수_보조선
 70
     0
 62
     4
  6
Continuous
370
    -3
390
F
  0
LAYER
  5
77
330
2
100
AcDbSymbolTableRecord
100
AcDbLayerTableRecord
  2
치수문자_일반주서
 70
     0
 62
     7
  6
Continuous
370
    15
390
F
  0
LAYER
  5
78
330
2
100
AcDbSymbolTableRecord
100
AcDbLayerTableRecord
  2
개별주서
 70
     0
 62
   100
  6
Continuous
370
    30
390
F
  0
LAYER
  5
79
330
2
100
AcDbSymbolTableRecord
100
AcDbLayerTableRecord
  2
중간선
 70
     0
 62
     2
  6
Continuous
370
    15
390
F
  0
LAYER
  5
7A
330
2
100
AcDbSymbolTableRecord
100
AcDbLayerTableRecord
  2
윤곽선
 70
     0
 62
     3
  6
Continuous
370
    40
390
F
  0
LAYER
  5
7B
330
2
100
AcDbSymbolTableRecord
100
AcDbLayerTableRecord
  2
중심마크
 70
     0
 62
   100
  6
Continuous
370
    30
390
F
  0
LAYER
  5
7C
330
2
100
AcDbSymbolTableRecord
100
AcDbLayerTableRecord
  2
가상선
 70
     0
 62
     4
  6
PHANTOM
370
    -3
390
F
  0
LAYER
  5
7D
330
2
100
AcDbSymbolTableRecord
100
AcDbLayerTableRecord
  2
특수지정선
 70
     0
 62
     5
  6
CENTERX2
370
    60
390
F
  0
LAYER
  5
7E
330
2
100
AcDbSymbolTableRecord
100
AcDbLayerTableRecord
  2
참조1
 70
     0
 62
    -4
  6
Continuous
370
    -3
390
F
  0
LAYER
  5
15E
330
2
100
AcDbSymbolTableRecord
100
AcDbLayerTableRecord
  2
Defpoints
 70
     0
 62
     7
  6
Continuous
290
     0
370
    -3
390
F
  0
ENDTAB
  0
TABLE
  2
STYLE
  5
3
330
0
100
AcDbSymbolTable
 70
     2
  0
STYLE
  5
11
330
3
100
AcDbSymbolTableRecord
100
AcDbTextStyleTableRecord
  2
Standard
 70
     0
 40
0.0
 41
1.0
 50
0.0
 71
     0
 42
3.5
  3
txt
  4

  0
STYLE
  5
94
330
3
100
AcDbSymbolTableRecord
100
AcDbTextStyleTableRecord
  2
SLDTEXTSTYLE0
 70
     0
 40
0.0
 41
0.75
 50
0.0
 71
     0
 42
3.5
  3
TXT
  4

  0
ENDTAB
  0
TABLE
  2
VIEW
  5
6
330
0
100
AcDbSymbolTable
 70
     0
  0
ENDTAB
  0
TABLE
  2
UCS
  5
7
330
0
100
AcDbSymbolTable
 70
     0
  0
ENDTAB
  0
TABLE
  2
APPID
  5
9
330
0
100
AcDbSymbolTable
 70
     4
  0
APPID
  5
12
330
9
100
AcDbSymbolTableRecord
100
AcDbRegAppTableRecord
  2
ACAD
 70
     0
  0
APPID
  5
15F
330
9
100
AcDbSymbolTableRecord
100
AcDbRegAppTableRecord
  2
PE_URL
 70
     0
  0
APPID
  5
1BF
330
9
100
AcDbSymbolTableRecord
100
AcDbRegAppTableRecord
  2
ACAD_DSTYLE_DIMFLIPARROW_SYMBOL
 70
     0
  0
APPID
  5
1C0
330
9
100
AcDbSymbolTableRecord
100
AcDbRegAppTableRecord
  2
ACAD_DSTYLE_DIMFLIPARROW_WHICH_SYMBOL
 70
     0
  0
ENDTAB
  0
TABLE
  2
DIMSTYLE
  5
A
330
0
100
AcDbSymbolTable
 70
     3
100
AcDbDimStyleTable
  0
DIMSTYLE
105
27
102
{ACAD_REACTORS
330
1B1
102
}
330
A
100
AcDbSymbolTableRecord
100
AcDbDimStyleTableRecord
  2
ISO-25
 70
     0
 41
2.5
 42
0.625
 43
3.75
 44
1.25
 73
     0
 74
     0
 77
     1
 78
     8
140
2.5
141
2.5
143
0.03937007874016
147
0.625
171
     3
172
     1
178
     0
271
     2
272
     2
274
     3
278
    44
283
     0
284
     8
340
11
  0
DIMSTYLE
105
E0
330
A
100
AcDbSymbolTableRecord
100
AcDbDimStyleTableRecord
  2
SLDDIMSTYLE0
 70
     0
 41
3.302
 44
0.0
 45
0.000000001
 73
     0
 74
     0
 77
     1
 78
     4
 79
     1
140
3.5
143
0.0393700787401575
147
0.875
148
0.000000001
170
     1
172
     1
173
     1
178
     0
271
     2
272
     2
276
     2
284
    12
289
     0
340
94
  0
DIMSTYLE
105
F5
102
{ACAD_REACTORS
330
F4
330
108
330
11B
330
DF
102
}
330
A
100
AcDbSymbolTableRecord
100
AcDbDimStyleTableRecord
  2
SLDDIMSTYLE1
 70
     0
 41
3.302
 44
0.0
 45
0.000000001
 73
     0
 74
     0
 77
     1
 78
     4
 79
     1
140
3.5
143
0.0393700787401575
147
0.875
148
0.000000001
170
     1
173
     1
178
     0
271
     2
272
     2
276
     2
284
    12
340
94
  0
ENDTAB
  0
TABLE
  2
BLOCK_RECORD
  5
1
330
0
100
AcDbSymbolTable
 70
     7
  0
BLOCK_RECORD
  5
1F
330
1
100
AcDbSymbolTableRecord
100
AcDbBlockTableRecord
  2
*Model_Space
340
22
  0
BLOCK_RECORD
  5
1B
330
1
100
AcDbSymbolTableRecord
100
AcDbBlockTableRecord
  2
*Paper_Space
340
1E
  0
BLOCK_RECORD
  5
23
330
1
100
AcDbSymbolTableRecord
100
AcDbBlockTableRecord
  2
*Paper_Space0
340
26
  0
BLOCK_RECORD
  5
7F
330
1
100
AcDbSymbolTableRecord
100
AcDbBlockTableRecord
  2
블럭10
340
0
102
{BLKREFS
331
D8
102
}
  0
BLOCK_RECORD
  5
E1
330
1
100
AcDbSymbolTableRecord
100
AcDbBlockTableRecord
  2
_D
340
0
  0
BLOCK_RECORD
  5
F6
330
1
100
AcDbSymbolTableRecord
100
AcDbBlockTableRecord
  2
_D_1
340
0
  0
BLOCK_RECORD
  5
109
330
1
100
AcDbSymbolTableRecord
100
AcDbBlockTableRecord
  2
_D_2
340
0
  0
BLOCK_RECORD
  5
11C
330
1
100
AcDbSymbolTableRecord
100
AcDbBlockTableRecord
  2
_D_3
340
0
  0
BLOCK_RECORD
  5
135
330
1
100
AcDbSymbolTableRecord
100
AcDbBlockTableRecord
  2
SW_DOWELSYMBOL_0
340
0
102
{BLKREFS
331
13B
102
}
  0
ENDTAB
  0
ENDSEC
  0
SECTION
  2
BLOCKS
  0
BLOCK
  5
20
330
1F
100
AcDbEntity
  8
0
100
AcDbBlockBegin
  2
*Model_Space
 70
     0
 10
0.0
 20
0.0
 30
0.0
  3
*Model_Space
  1

  0
ENDBLK
  5
21
330
1F
100
AcDbEntity
  8
0
100
AcDbBlockEnd
  0
BLOCK
  5
1C
330
1B
100
AcDbEntity
 67
     1
  8
0
100
AcDbBlockBegin
  2
*Paper_Space
 70
     0
 10
0.0
 20
0.0
 30
0.0
  3
*Paper_Space
  1

  0
ENDBLK
  5
1D
330
1B
100
AcDbEntity
 67
     1
  8
0
100
AcDbBlockEnd
  0
BLOCK
  5
24
330
23
100
AcDbEntity
  8
0
100
AcDbBlockBegin
  2
*Paper_Space0
 70
     0
 10
0.0
 20
0.0
 30
0.0
  3
*Paper_Space0
  1

  0
ENDBLK
  5
25
330
23
100
AcDbEntity
  8
0
100
AcDbBlockEnd
  0
BLOCK
  5
80
330
7F
100
AcDbEntity
  8
0
100
AcDbBlockBegin
  2
블럭10
 70
     2
 10
0.0
 20
0.0
 30
0.0
  3
블럭10
  1

  0
ELLIPSE
  5
82
330
7F
100
AcDbEntity
  8
중심선
100
AcDbEllipse
 10
20.54032771741204
 20
12.0471743016438
 30
0.0
 11
6.600054785286829
 21
-1.261213355974178E-13
 31
0.0
210
0.0
220
0.0
230
1.0
 40
0.636358354079598
 41
0.9219305317359503
 42
6.513795318482858
  0
ELLIPSE
  5
83
330
7F
100
AcDbEntity
  8
중심선
100
AcDbEllipse
 10
20.54032771746488
 20
12.04717430159265
 30
0.0
 11
3.960054785062283
 21
1.540847449632565E-10
 31
0.0
210
0.0
220
0.0
230
1.0
 40
0.3939339440162632
 41
1.131841032648279
 42
5.62031148352944
  0
LINE
  5
84
330
7F
100
AcDbEntity
  8
중심선
100
AcDbLine
 10
2.268634060543552
 20
16.24717430164393
 30
0.0
 11
5.714909304380834
 21
16.24717430164393
 31
0.0
  0
LINE
  5
85
330
7F
100
AcDbEntity
  8
중심선
100
AcDbLine
 10
5.245725140726316
 20
7.84717430164391
 30
0.0
 11
8.692000384563599
 21
7.84717430164391
 31
0.0
  0
LINE
  5
86
330
7F
100
AcDbEntity
  8
중심선
100
AcDbLine
 10
15.74043728645272
 20
16.24717430164393
 30
0.0
 11
8.692000384563599
 21
7.84717430164391
 31
0.0
  0
LINE
  5
87
330
7F
100
AcDbEntity
  8
중심선
100
AcDbLine
 10
0.1404042013395286
 20
13.71084872107135
 30
0.0
 11
3.58671253028996
 21
13.71088815037384
 31
0.0
  0
LINE
  5
88
330
7F
100
AcDbEntity
  8
중심선
100
AcDbLine
 10
2.750260043222114
 20
10.84717430164391
 30
0.0
 11
6.196535287059397
 21
10.84717430164391
 31
0.0
  0
LINE
  5
89
330
7F
100
AcDbEntity
  8
중심선
100
AcDbLine
 10
12.29416204261559
 20
16.24717430164393
 30
0.0
 11
5.245725140726316
 21
7.84717430164391
 31
0.0
  0
LINE
  5
8A
330
7F
100
AcDbEntity
  8
중심선
100
AcDbLine
 10
10.72767329541681
 20
16.24717430164393
 30
0.0
 11
6.196535287059397
 21
10.84717430164391
 31
0.0
  0
LINE
  5
8B
330
7F
100
AcDbEntity
  8
중심선
100
AcDbLine
 10
7.28139805157953
 20
16.24717430164393
 30
0.0
 11
2.750260043222114
 21
10.84717430164391
 31
0.0
  0
LINE
  5
8C
330
7F
100
AcDbEntity
  8
중심선
100
AcDbLine
 10
5.714909304380834
 20
16.24717430164393
 30
0.0
 11
3.58671253028996
 21
13.71088815037384
 31
0.0
  0
LINE
  5
8D
330
7F
100
AcDbEntity
  8
중심선
100
AcDbLine
 10
2.268634060543552
 20
16.24717430164393
 30
0.0
 11
0.1404042013395286
 21
13.71084872107135
 31
0.0
  0
LINE
  5
8E
330
7F
100
AcDbEntity
  8
중심선
100
AcDbLine
 10
7.28139805157953
 20
16.24717430164393
 30
0.0
 11
10.72767329541681
 21
16.24717430164393
 31
0.0
  0
LINE
  5
8F
330
7F
100
AcDbEntity
  8
중심선
100
AcDbLine
 10
12.29416204261559
 20
16.24717430164393
 30
0.0
 11
15.74043728645272
 21
16.24717430164393
 31
0.0
  0
LINE
  5
90
330
7F
100
AcDbEntity
  8
중심선
100
AcDbLine
 10
19.22036997980202
 20
11.08717430171403
 30
0.0
 11
23.66174974927406
 21
11.08717430171406
 31
0.0
  0
LINE
  5
91
330
7F
100
AcDbEntity
  8
중심선
100
AcDbLine
 10
19.22039502424796
 20
13.00717430171391
 30
0.0
 11
19.22036997980202
 21
11.08717430171403
 31
0.0
  0
LINE
  5
92
330
7F
100
AcDbEntity
  8
중심선
100
AcDbLine
 10
19.22039502424796
 20
13.00717430171391
 30
0.0
 11
26.96566020931264
 21
13.00717430171391
 31
0.0
  0
LINE
  5
93
330
7F
100
AcDbEntity
  8
중심선
100
AcDbLine
 10
22.22332737316547
 20
13.45928029700563
 30
0.0
 11
24.52862924686651
 21
15.39360700705356
 31
0.0
  0
ATTDEF
  5
95
330
7F
100
AcDbEntity
  8
FORMAT
 62
     2
100
AcDbText
 10
3.448148490846466
 20
2.075366912832191
 30
0.0
 40
4.233333333333333
  1
EM211032
 41
0.75
  7
SLDTEXTSTYLE0
 11
3.448148490846466
 21
-0.0412997538344756
 31
0.0
100
AcDbAttributeDefinition
  3

  2
AUTOATTR0
 70
     0
 74
     1
  0
ENDBLK
  5
81
330
7F
100
AcDbEntity
  8
0
100
AcDbBlockEnd
  0
BLOCK
  5
E2
330
E1
100
AcDbEntity
  8
0
100
AcDbBlockBegin
  2
_D
 70
     0
 10
0.0
 20
0.0
 30
0.0
  3
_D
  1

  0
LINE
  5
E4
330
E1
100
AcDbEntity
  8
치수문자_일반주서
 62
     0
370
    -2
100
AcDbLine
 10
-38.86249999999998
 20
6.349999999999993
 30
0.0
 11
-51.29999999999998
 21
6.349999999999948
 31
0.0
  0
LINE
  5
E5
330
E1
100
AcDbEntity
  8
치수문자_일반주서
 62
     0
370
    -2
100
AcDbLine
 10
-38.85324662264488
 20
-6.349999999999998
 30
0.0
 11
-51.29999999999993
 21
-6.350000000000044
 31
0.0
  0
LINE
  5
E6
330
E1
100
AcDbEntity
  8
치수문자_일반주서
 62
     0
370
    -2
100
AcDbLine
 10
-51.29999999999998
 20
6.349999999999948
 30
0.0
 11
-51.30000000000008
 21
36.33949999999996
 31
0.0
  0
LINE
  5
E7
330
E1
100
AcDbEntity
  8
치수문자_일반주서
 62
     0
370
    -2
100
AcDbLine
 10
-51.29999999999998
 20
6.349999999999948
 30
0.0
 11
-51.29999999999993
 21
-6.350000000000044
 31
0.0
  0
LINE
  5
E8
330
E1
100
AcDbEntity
  8
치수문자_일반주서
 62
     0
370
    -2
100
AcDbLine
 10
-51.29999999999999
 20
9.651999999999948
 30
0.0
 11
-51.3
 21
12.95399999999995
 31
0.0
  0
LINE
  5
E9
330
E1
100
AcDbEntity
  8
치수문자_일반주서
 62
     0
370
    -2
100
AcDbLine
 10
-51.29999999999992
 20
-9.652000000000044
 30
0.0
 11
-51.2999999999999
 21
-12.95400000000004
 31
0.0
  0
SOLID
  5
EA
330
E1
100
AcDbEntity
  8
치수문자_일반주서
 62
     0
100
AcDbTrace
 10
-51.85033333333332
 20
9.651999999999946
 30
0.0
 11
-50.74966666666666
 21
9.65199999999995
 31
0.0
 12
-51.29999999999998
 22
6.349999999999948
 32
0.0
 13
-51.29999999999998
 23
6.349999999999948
 33
0.0
  0
SOLID
  5
EB
330
E1
100
AcDbEntity
  8
치수문자_일반주서
 62
     0
100
AcDbTrace
 10
-50.74966666666658
 20
-9.652000000000042
 30
0.0
 11
-51.85033333333325
 21
-9.652000000000045
 31
0.0
 12
-51.29999999999993
 22
-6.350000000000044
 32
0.0
 13
-51.29999999999993
 23
-6.350000000000044
 33
0.0
  0
MTEXT
  5
EC
330
E1
100
AcDbEntity
  8
치수문자_일반주서
 62
     0
100
AcDbMText
 10
-55.67500000000003
 20
22.99574999999994
 30
0.0
 40
3.5
 41
0.0
 71
     2
 72
     1
  1
\A1;%%c12.70 [1/2]
  7
SLDTEXTSTYLE0
 11
-3.356894814614648E-15
 21
1.0
 31
0.0
 73
     1
 44
1.0
  0
POINT
  5
182
330
E1
100
AcDbEntity
  8
Defpoints
 62
     0
100
AcDbPoint
 10
-38.79999999999998
 20
6.349999999999993
 30
0.0
  0
POINT
  5
183
330
E1
100
AcDbEntity
  8
Defpoints
 62
     0
100
AcDbPoint
 10
-38.79074662264488
 20
-6.349999999999998
 30
0.0
  0
POINT
  5
184
330
E1
100
AcDbEntity
  8
Defpoints
 62
     0
100
AcDbPoint
 10
-51.29999999999993
 20
-6.350000000000045
 30
0.0
  0
ENDBLK
  5
E3
330
E1
100
AcDbEntity
  8
0
100
AcDbBlockEnd
  0
BLOCK
  5
F7
330
F6
100
AcDbEntity
  8
0
100
AcDbBlockBegin
  2
_D_1
 70
     0
 10
0.0
 20
0.0
 30
0.0
  3
_D_1
  1

  0
LINE
  5
F9
330
F6
100
AcDbEntity
  8
치수문자_일반주서
 62
     0
370
    -2
100
AcDbLine
 10
62.86250000000001
 20
6.350000000000195
 30
0.0
 11
77.92873000969436
 21
6.35000000000025
 31
0.0
  0
LINE
  5
FA
330
F6
100
AcDbEntity
  8
치수문자_일반주서
 62
     0
370
    -2
100
AcDbLine
 10
62.87360853966267
 20
-6.349999999999898
 30
0.0
 11
77.9287300096944
 21
-6.349999999999838
 31
0.0
  0
LINE
  5
FB
330
F6
100
AcDbEntity
  8
치수문자_일반주서
 62
     0
370
    -2
100
AcDbLine
 10
77.92873000969436
 20
6.35000000000025
 30
0.0
 11
77.92873000969425
 21
39.58454931139165
 31
0.0
  0
LINE
  5
FC
330
F6
100
AcDbEntity
  8
치수문자_일반주서
 62
     0
370
    -2
100
AcDbLine
 10
77.92873000969436
 20
6.35000000000025
 30
0.0
 11
77.9287300096944
 21
-6.349999999999838
 31
0.0
  0
LINE
  5
FD
330
F6
100
AcDbEntity
  8
치수문자_일반주서
 62
     0
370
    -2
100
AcDbLine
 10
77.92873000969435
 20
9.65200000000025
 30
0.0
 11
77.92873000969433
 21
12.95400000000025
 31
0.0
  0
LINE
  5
FE
330
F6
100
AcDbEntity
  8
치수문자_일반주서
 62
     0
370
    -2
100
AcDbLine
 10
77.92873000969442
 20
-9.651999999999838
 30
0.0
 11
77.92873000969443
 21
-12.95399999999984
 31
0.0
  0
SOLID
  5
FF
330
F6
100
AcDbEntity
  8
치수문자_일반주서
 62
     0
100
AcDbTrace
 10
77.37839667636102
 20
9.652000000000248
 30
0.0
 11
78.47906334302768
 21
9.652000000000251
 31
0.0
 12
77.92873000969436
 22
6.35000000000025
 32
0.0
 13
77.92873000969436
 23
6.35000000000025
 33
0.0
  0
SOLID
  5
100
330
F6
100
AcDbEntity
  8
치수문자_일반주서
 62
     0
100
AcDbTrace
 10
78.47906334302775
 20
-9.651999999999836
 30
0.0
 11
77.37839667636109
 21
-9.65199999999984
 31
0.0
 12
77.9287300096944
 22
-6.349999999999838
 32
0.0
 13
77.9287300096944
 23
-6.349999999999838
 33
0.0
  0
MTEXT
  5
101
330
F6
100
AcDbEntity
  8
치수문자_일반주서
 62
     0
100
AcDbMText
 10
73.55373000969429
 20
26.24079931139164
 30
0.0
 40
3.5
 41
0.0
 71
     2
 72
     1
  1
\A1;%%c12.70 [1/2]
  7
SLDTEXTSTYLE0
 11
-3.356894814614622E-15
 21
1.0
 31
0.0
 73
     1
 44
1.0
  0
POINT
  5
102
330
F6
100
AcDbEntity
  8
Defpoints
 62
     0
100
AcDbPoint
 10
62.80000000000001
 20
6.350000000000195
 30
0.0
  0
POINT
  5
185
330
F6
100
AcDbEntity
  8
Defpoints
 62
     0
100
AcDbPoint
 10
62.81110853966267
 20
-6.349999999999898
 30
0.0
  0
POINT
  5
186
330
F6
100
AcDbEntity
  8
Defpoints
 62
     0
100
AcDbPoint
 10
77.9287300096944
 20
-6.349999999999841
 30
0.0
  0
ENDBLK
  5
F8
330
F6
100
AcDbEntity
  8
0
100
AcDbBlockEnd
  0
BLOCK
  5
10A
330
109
100
AcDbEntity
  8
0
100
AcDbBlockBegin
  2
_D_2
 70
     0
 10
0.0
 20
0.0
 30
0.0
  3
_D_2
  1

  0
LINE
  5
10C
330
109
100
AcDbEntity
  8
치수문자_일반주서
 62
     0
370
    -2
100
AcDbLine
 10
62.80000000000001
 20
6.412500000000195
 30
0.0
 11
62.80000000000001
 21
26.83969310958505
 31
0.0
  0
LINE
  5
10D
330
109
100
AcDbEntity
  8
치수문자_일반주서
 62
     0
370
    -2
100
AcDbLine
 10
12.00000000000001
 20
6.412500000000019
 30
0.0
 11
12.00000000000001
 21
26.83969310958505
 31
0.0
  0
LINE
  5
10E
330
109
100
AcDbEntity
  8
치수문자_일반주서
 62
     0
370
    -2
100
AcDbLine
 10
59.49800000000001
 20
26.83969310958505
 30
0.0
 11
15.30200000000001
 21
26.83969310958505
 31
0.0
  0
SOLID
  5
10F
330
109
100
AcDbEntity
  8
치수문자_일반주서
 62
     0
100
AcDbTrace
 10
59.49800000000001
 20
26.28935977625171
 30
0.0
 11
59.49800000000001
 21
27.39002644291838
 31
0.0
 12
62.80000000000001
 22
26.83969310958505
 32
0.0
 13
62.80000000000001
 23
26.83969310958505
 33
0.0
  0
SOLID
  5
110
330
109
100
AcDbEntity
  8
치수문자_일반주서
 62
     0
100
AcDbTrace
 10
15.30200000000001
 20
27.39002644291838
 30
0.0
 11
15.30200000000001
 21
26.28935977625171
 31
0.0
 12
12.00000000000001
 22
26.83969310958505
 32
0.0
 13
12.00000000000001
 23
26.83969310958505
 33
0.0
  0
MTEXT
  5
111
330
109
100
AcDbEntity
  8
치수문자_일반주서
 62
     0
100
AcDbMText
 10
37.50681402746532
 20
31.21469310958505
 30
0.0
 40
3.5
 41
0.0
 71
     2
 72
     1
  1
\A1;50.80 [2]
  7
SLDTEXTSTYLE0
 73
     1
 44
1.0
  0
POINT
  5
112
330
109
100
AcDbEntity
  8
Defpoints
 62
     0
100
AcDbPoint
 10
62.80000000000001
 20
6.350000000000195
 30
0.0
  0
POINT
  5
113
330
109
100
AcDbEntity
  8
Defpoints
 62
     0
100
AcDbPoint
 10
12.00000000000001
 20
6.350000000000019
 30
0.0
  0
POINT
  5
114
330
109
100
AcDbEntity
  8
Defpoints
 62
     0
100
AcDbPoint
 10
12.00000000000001
 20
26.83969310958505
 30
0.0
  0
ENDBLK
  5
10B
330
109
100
AcDbEntity
  8
0
100
AcDbBlockEnd
  0
BLOCK
  5
11D
330
11C
100
AcDbEntity
  8
0
100
AcDbBlockBegin
  2
_D_3
 70
     0
 10
0.0
 20
0.0
 30
0.0
  3
_D_3
  1

  0
LINE
  5
11F
330
11C
100
AcDbEntity
  8
치수문자_일반주서
 62
     0
370
    -2
100
AcDbLine
 10
62.80000000000001
 20
6.412500000000195
 30
0.0
 11
62.80000000000001
 21
46.28755268697243
 31
0.0
  0
LINE
  5
120
330
11C
100
AcDbEntity
  8
치수문자_일반주서
 62
     0
370
    -2
100
AcDbLine
 10
-38.79999999999998
 20
6.41249999999999
 30
0.0
 11
-38.79999999999998
 21
46.28755268697243
 31
0.0
  0
LINE
  5
121
330
11C
100
AcDbEntity
  8
치수문자_일반주서
 62
     0
370
    -2
100
AcDbLine
 10
59.49800000000001
 20
46.28755268697243
 30
0.0
 11
-35.49799999999998
 21
46.28755268697243
 31
0.0
  0
SOLID
  5
122
330
11C
100
AcDbEntity
  8
치수문자_일반주서
 62
     0
100
AcDbTrace
 10
59.49800000000001
 20
45.7372193536391
 30
0.0
 11
59.49800000000001
 21
46.83788602030577
 31
0.0
 12
62.80000000000001
 22
46.28755268697243
 32
0.0
 13
62.80000000000001
 23
46.28755268697243
 33
0.0
  0
SOLID
  5
123
330
11C
100
AcDbEntity
  8
치수문자_일반주서
 62
     0
100
AcDbTrace
 10
-35.49799999999998
 20
46.83788602030577
 30
0.0
 11
-35.49799999999998
 21
45.7372193536391
 31
0.0
 12
-38.79999999999998
 22
46.28755268697243
 32
0.0
 13
-38.79999999999998
 23
46.28755268697243
 33
0.0
  0
MTEXT
  5
124
330
11C
100
AcDbEntity
  8
치수문자_일반주서
 62
     0
100
AcDbMText
 10
11.54281471613693
 20
50.66255268697243
 30
0.0
 40
3.5
 41
0.0
 71
     2
 72
     1
  1
\A1;101.60 [4]
  7
SLDTEXTSTYLE0
 73
     1
 44
1.0
  0
POINT
  5
125
330
11C
100
AcDbEntity
  8
Defpoints
 62
     0
100
AcDbPoint
 10
62.80000000000001
 20
6.350000000000195
 30
0.0
  0
POINT
  5
126
330
11C
100
AcDbEntity
  8
Defpoints
 62
     0
100
AcDbPoint
 10
-38.79999999999998
 20
6.34999999999999
 30
0.0
  0
POINT
  5
127
330
11C
100
AcDbEntity
  8
Defpoints
 62
     0
100
AcDbPoint
 10
-38.79999999999998
 20
46.28755268697243
 30
0.0
  0
ENDBLK
  5
11E
330
11C
100
AcDbEntity
  8
0
100
AcDbBlockEnd
  0
BLOCK
  5
136
330
135
100
AcDbEntity
  8
0
100
AcDbBlockBegin
  2
SW_DOWELSYMBOL_0
 70
     0
 10
0.0
 20
0.0
 30
0.0
  3
SW_DOWELSYMBOL_0
  1

  0
CIRCLE
  5
138
330
135
100
AcDbEntity
  8
해칭선
 62
     0
100
AcDbCircle
 10
0.0
 20
0.0
 30
0.0
 40
3.000000000000002
  0
HATCH
  5
139
330
135
100
AcDbEntity
  8
0
  6
Continuous
 62
     0
370
     0
100
AcDbHatch
 10
0.0
 20
0.0
 30
0.0
210
0.0
220
0.0
230
1.0
  2
SOLID
 70
     1
 71
     0
 91
        1
 92
        0
 93
        3
 72
     2
 10
0.0000000000000069
 20
0.0
 40
3.000000000000002
 50
0.0
 51
90.0
 73
     1
 72
     1
 10
0.0000000000000069
 20
3.000000000000002
 11
0.0000000000000069
 21
0.0
 72
     1
 10
0.0000000000000069
 20
0.0
 11
3.000000000000009
 21
0.0
 97
        0
 75
     0
 76
     1
 98
        1
 10
0.0
 20
0.0
  0
HATCH
  5
13A
330
135
100
AcDbEntity
  8
0
  6
Continuous
 62
     0
370
     0
100
AcDbHatch
 10
0.0
 20
0.0
 30
0.0
210
0.0
220
0.0
230
1.0
  2
SOLID
 70
     1
 71
     0
 91
        1
 92
        0
 93
        3
 72
     2
 10
0.0000000000000069
 20
0.0
 40
3.000000000000002
 50
180.0
 51
270.0000000000007
 73
     1
 72
     1
 10
0.0000000000000069
 20
-3.000000000000002
 11
0.0000000000000069
 21
0.0
 72
     1
 10
0.0000000000000069
 20
0.0
 11
-2.999999999999995
 21
0.0
 97
        0
 75
     0
 76
     1
 98
        1
 10
0.0
 20
0.0
  0
ENDBLK
  5
137
330
135
100
AcDbEntity
  8
0
100
AcDbBlockEnd
  0
ENDSEC
  0
SECTION
  2
ENTITIES
  0
LINE
  5
96
330
1F
100
AcDbEntity
  8
외형선
  6
Continuous
370
    15
100
AcDbLine
 10
9.96993674599172
 20
6.349999999999999
 30
0.0
 11
-37.79999999999998
 21
6.349999999999996
 31
0.0
  0
LINE
  5
97
330
1F
100
AcDbEntity
  8
외형선
  6
Continuous
370
    15
100
AcDbLine
 10
-37.79999999999998
 20
-6.350000000000003
 30
0.0
 11
9.96993674599172
 21
-6.350000000000001
 31
0.0
  0
LINE
  5
98
330
1F
100
AcDbEntity
  8
외형선
  6
Continuous
370
    15
100
AcDbLine
 10
-37.79999999999998
 20
6.349999999999993
 30
0.0
 11
-38.79999999999998
 21
5.349999999999992
 31
0.0
  0
LINE
  5
99
330
1F
100
AcDbEntity
  8
외형선
  6
Continuous
370
    15
100
AcDbLine
 10
-38.79999999999998
 20
-5.35
 30
0.0
 11
-37.79999999999998
 21
-6.35
 31
0.0
  0
SPLINE
  5
9A
330
1F
100
AcDbEntity
  8
외형선
  6
Continuous
370
    15
100
AcDbSpline
210
0.0
220
0.0
230
1.0
 70
     8
 71
     3
 72
     9
 73
     5
 74
     0
 42
0.000000001
 43
0.00000001
 40
0.0
 40
0.0
 40
0.0
 40
0.0
 40
0.4365335359919832
 40
1.0
 40
1.0
 40
1.0
 40
1.0
 10
11.65937957597935
 20
1.691210924560634
 30
0.0
 10
11.45506615151405
 20
1.789286594830249
 30
0.0
 10
10.98703011849538
 20
2.013955863473599
 30
0.0
 10
10.5150477733668
 20
2.256678562713816
 30
0.0
 10
10.24910155028299
 20
2.393444663789182
 30
0.0
  0
SPLINE
  5
9B
330
1F
100
AcDbEntity
  8
외형선
  6
Continuous
 62
     1
370
    15
100
AcDbSpline
210
0.0
220
0.0
230
1.0
 70
     8
 71
     3
 72
     9
 73
     5
 74
     0
 42
0.000000001
 43
0.00000001
 40
0.0
 40
0.0
 40
0.0
 40
0.0
 40
0.4623969680501931
 40
1.0
 40
1.0
 40
1.0
 40
1.0
 10
46.34938473344401
 20
1.627139968365873
 30
0.0
 10
46.07797019058636
 20
1.756240529463593
 30
0.0
 10
45.49099717473347
 20
2.035439075340966
 30
0.0
 10
44.90281487538788
 20
2.342951187689687
 30
0.0
 10
44.5866062879205
 20
2.50827063164965
 30
0.0
  0
LINE
  5
9C
330
1F
100
AcDbEntity
  8
외형선
  6
Continuous
 62
     1
370
    15
100
AcDbLine
 10
31.77793686780367
 20
6.350000000000004
 30
0.0
 11
28.69924227173864
 21
6.350000000000004
 31
0.0
  0
LINE
  5
9D
330
1F
100
AcDbEntity
  8
외형선
  6
Continuous
 62
     1
370
    15
100
AcDbLine
 10
28.69924227173865
 20
-6.350000000000006
 30
0.0
 11
31.77793686780371
 21
-6.350000000000006
 31
0.0
  0
SPLINE
  5
9E
330
1F
100
AcDbEntity
  8
외형선
  6
Continuous
 62
     1
370
    15
100
AcDbSpline
210
0.0
220
0.0
230
1.0
 70
     8
 71
     3
 72
    22
 73
    18
 74
     0
 42
0.000000001
 43
0.00000001
 40
0.0
 40
0.0
 40
0.0
 40
0.0
 40
0.109094708173939
 40
0.2020793893750246
 40
0.2795225901175151
 40
0.3469191412891954
 40
0.4069739366759075
 40
0.4624719668592789
 40
0.5244219315234752
 40
0.6034733944420542
 40
0.6722650484953642
 40
0.738299046558328
 40
0.774033286033312
 40
0.8120898246345082
 40
0.8521499375528704
 40
0.9191533953241724
 40
1.0
 40
1.0
 40
1.0
 40
1.0
 10
34.69990182248772
 20
-5.284065902910229
 30
0.0
 10
35.04359775203068
 20
-5.250760658414853
 30
0.0
 10
35.68023599723306
 20
-5.189068358364144
 30
0.0
 10
36.58264338907267
 20
-5.119043502789615
 30
0.0
 10
37.36112822893241
 20
-5.068875094810624
 30
0.0
 10
38.03055269914274
 20
-5.031070125917367
 30
0.0
 10
38.62351592664383
 20
-5.004932418063696
 30
0.0
 10
39.17280586877911
 20
-4.986682682931367
 30
0.0
 10
39.79862634123929
 20
-4.970068984901547
 30
0.0
 10
40.47574919541845
 20
-4.960073161216101
 30
0.0
 10
41.15855225171052
 20
-4.95793221389842
 30
0.0
 10
41.71676254919876
 20
-4.962541510995317
 30
0.0
 10
42.17514446488367
 20
-4.969046668899387
 30
0.0
 10
42.54237528289961
 20
-4.973851113424587
 30
0.0
 10
43.02009096350906
 20
-4.981646023909928
 30
0.0
 10
43.62339681124293
 20
-5.009293830473004
 30
0.0
 10
44.02857685237419
 20
-5.033003453489559
 30
0.0
 10
44.25013530196623
 20
-5.045968226634093
 30
0.0
  0
SPLINE
  5
9F
330
1F
100
AcDbEntity
  8
외형선
  6
Continuous
 62
     1
370
    15
100
AcDbSpline
210
0.0
220
0.0
230
1.0
 70
     8
 71
     3
 72
    16
 73
    12
 74
     0
 42
0.000000001
 43
0.00000001
 40
0.0
 40
0.0
 40
0.0
 40
0.0
 40
0.1476838041960978
 40
0.2700801073882478
 40
0.3990884908267871
 40
0.5153208285740707
 40
0.6217843225370436
 40
0.7380044521212837
 40
0.8685697744603499
 40
0.9817347798196636
 40
1.0
 40
1.0
 40
1.0
 40
1.0
 10
44.25013530196623
 20
5.045968226634092
 30
0.0
 10
44.02878871694355
 20
5.032976264654064
 30
0.0
 10
43.62399612795003
 20
5.009216919437775
 30
0.0
 10
42.9199959523547
 20
4.977401906766957
 30
0.0
 10
42.26234184360079
 20
4.970737078670507
 30
0.0
 10
41.63095309500194
 20
4.961158984623382
 30
0.0
 10
41.02896688114032
 20
4.958066365562143
 30
0.0
 10
40.40982477929548
 20
4.960830192933185
 30
0.0
 10
39.77454617462784
 20
4.971029729735183
 30
0.0
 10
39.31772048851295
 20
4.982186389070648
 30
0.0
 10
39.09254452784103
 20
4.98993792437972
 30
0.0
 10
39.06125120483177
 20
4.99101517657627
 30
0.0
  0
SPLINE
  5
A0
330
1F
100
AcDbEntity
  8
외형선
  6
Continuous
 62
     1
370
    15
100
AcDbSpline
210
0.0
220
0.0
230
1.0
 70
     8
 71
     3
 72
    17
 73
    13
 74
     0
 42
0.000000001
 43
0.00000001
 40
0.0
 40
0.0
 40
0.0
 40
0.0
 40
0.1481432782750343
 40
0.2634056960870554
 40
0.3453252281471028
 40
0.420491411760542
 40
0.5129072216033217
 40
0.6203673664959339
 40
0.7186336284299943
 40
0.860967688992134
 40
0.9836690084413172
 40
1.0
 40
1.0
 40
1.0
 40
1.0
 10
49.34668360371229
 20
-4.776053347121981
 30
0.0
 10
49.5792265817036
 20
-4.740312318301299
 30
0.0
 10
49.99269890188705
 20
-4.67676309295001
 30
0.0
 10
50.5357868392539
 20
-4.601651323726825
 30
0.0
 10
50.96813601135501
 20
-4.545482376705706
 30
0.0
 10
51.36576326912808
 20
-4.496716843247845
 30
0.0
 10
51.80132858352124
 20
-4.446927485183814
 30
0.0
 10
52.27230877149052
 20
-4.397981541254948
 30
0.0
 10
52.82168362357014
 20
-4.346429865694372
 30
0.0
 10
53.39582057093777
 20
-4.3004150146953
 30
0.0
 10
53.83766841324226
 20
-4.26874130349997
 30
0.0
 10
54.05678346092078
 20
-4.257064557198447
 30
0.0
 10
54.08252111836226
 20
-4.25569298505165
 30
0.0
  0
SPLINE
  5
A1
330
1F
100
AcDbEntity
  8
외형선
  6
Continuous
 62
     1
370
    15
100
AcDbSpline
210
0.0
220
0.0
230
1.0
 70
     8
 71
     3
 72
    29
 73
    25
 74
     0
 42
0.000000001
 43
0.00000001
 40
0.0
 40
0.0
 40
0.0
 40
0.0
 40
0.0707977095536042
 40
0.1255275513753208
 40
0.167362698883955
 40
0.1923839911069331
 40
0.2173194378877965
 40
0.244277211550801
 40
0.2732870195265906
 40
0.3044627922499047
 40
0.3377945876692066
 40
0.4019501962832789
 40
0.4557014745075099
 40
0.5004709677145072
 40
0.5436949382466333
 40
0.5952000997321522
 40
0.6570370984983327
 40
0.7156842423620753
 40
0.7680286088221138
 40
0.8136551300114586
 40
0.8368861641413438
 40
0.8748614417371324
 40
0.9292977052305316
 40
1.0
 40
1.0
 40
1.0
 40
1.0
 10
25.88779883533556
 20
4.343105277760024
 30
0.0
 10
25.6241774896162
 20
4.321685611875561
 30
0.0
 10
25.15676488224418
 20
4.283707572378137
 30
0.0
 10
24.53595115795687
 20
4.245980732232236
 30
0.0
 10
24.08588570354669
 20
4.223585889876388
 30
0.0
 10
23.75071593182647
 20
4.209825454334223
 30
0.0
 10
23.46834003685843
 20
4.199935557898788
 30
0.0
 10
23.17005180025519
 20
4.191495660325624
 30
0.0
 10
22.84763506259251
 20
4.184688900315804
 30
0.0
 10
22.50075730224473
 20
4.180050204297319
 30
0.0
 10
22.0226825962674
 20
4.177614354511213
 30
0.0
 10
21.45871657421626
 20
4.181782013305543
 30
0.0
 10
20.85798956795614
 20
4.195590350811527
 30
0.0
 10
20.34135412080576
 20
4.213840704329223
 30
0.0
 10
19.82537333739912
 20
4.237674773747774
 30
0.0
 10
19.24645680707759
 20
4.271388201416937
 30
0.0
 10
18.61078684046254
 20
4.317594047325746
 30
0.0
 10
17.97148693980107
 20
4.373197668128061
 30
0.0
 10
17.39163257837639
 20
4.431309448034764
 30
0.0
 10
16.94573082029885
 20
4.481193594348494
 30
0.0
 10
16.55470978042661
 20
4.528094423661169
 30
0.0
 10
16.12673810134795
 20
4.582358440080707
 30
0.0
 10
15.52198415050821
 20
4.664490052689522
 30
0.0
 10
15.0565201890232
 20
4.735803928926351
 30
0.0
 10
14.79353673559114
 20
4.776095704449751
 30
0.0
  0
SPLINE
  5
A2
330
1F
100
AcDbEntity
  8
외형선
  6
Continuous
 62
     1
370
    15
100
AcDbSpline
210
0.0
220
0.0
230
1.0
 70
     8
 71
     3
 72
    18
 73
    14
 74
     0
 42
0.000000001
 43
0.00000001
 40
0.0
 40
0.0
 40
0.0
 40
0.0
 40
0.1659094984333196
 40
0.2936492443952018
 40
0.3908639549519108
 40
0.449282963131085
 40
0.5083500462657591
 40
0.5724068537824586
 40
0.6413950038723083
 40
0.7150603411574697
 40
0.7932633248869635
 40
0.9426568964607855
 40
1.0
 40
1.0
 40
1.0
 40
1.0
 10
14.79353673559114
 20
-4.776095704449753
 30
0.0
 10
15.05651876889408
 20
-4.735804314357714
 30
0.0
 10
15.52198021684101
 20
-4.664491120309849
 30
0.0
 10
16.13954985301785
 20
-4.580617054750006
 30
0.0
 10
16.58639312266062
 20
-4.524116121229154
 30
0.0
 10
16.92093773400744
 20
-4.484319743740466
 30
0.0
 10
17.20544211212972
 20
-4.452155156944464
 30
0.0
 10
17.50749197625322
 20
-4.419882687497442
 30
0.0
 10
17.83352085286879
 20
-4.387260522201601
 30
0.0
 10
18.18171635735481
 20
-4.354886182249436
 30
0.0
 10
18.65663627094588
 20
-4.31466716258634
 30
0.0
 10
19.1053857784895
 20
-4.28042966211235
 30
0.0
 10
19.43115440892144
 20
-4.261859625587335
 30
0.0
 10
19.52151372370907
 20
-4.256708804976536
 30
0.0
  0
SPLINE
  5
A3
330
1F
100
AcDbEntity
  8
외형선
  6
Continuous
 62
     1
370
    15
100
AcDbSpline
210
0.0
220
0.0
230
1.0
 70
     8
 71
     3
 72
    27
 73
    23
 74
     0
 42
0.000000001
 43
0.00000001
 40
0.0
 40
0.0
 40
0.0
 40
0.0
 40
0.0659995873551251
 40
0.116116856896457
 40
0.1500521954863512
 40
0.1807480717452615
 40
0.2193970946695195
 40
0.2651396234000013
 40
0.3077710016335748
 40
0.3717586113782882
 40
0.42561799526656
 40
0.4792292629575734
 40
0.5328162239056032
 40
0.5928397072290496
 40
0.6565782697971146
 40
0.7104272773809647
 40
0.7403656018517696
 40
0.7679578609371124
 40
0.7958339015085062
 40
0.8419139768554009
 40
0.9100096775666361
 40
1.0
 40
1.0
 40
1.0
 40
1.0
 10
60.44057835560293
 20
4.343096787551233
 30
0.0
 10
60.19747321547603
 20
4.323251443872675
 30
0.0
 10
59.76976440852521
 20
4.288336393274176
 30
0.0
 10
59.2166911169133
 20
4.253584412862986
 30
0.0
 10
58.7906282998093
 20
4.230874375706978
 30
0.0
 10
58.40563638359506
 20
4.213568810556841
 30
0.0
 10
57.97928573703814
 20
4.198093392532769
 30
0.0
 10
57.50952007462816
 20
4.186205213928453
 30
0.0
 10
56.94622724427964
 20
4.178333964901142
 30
0.0
 10
56.35286210789187
 20
4.178133973415953
 30
0.0
 10
55.71914439697314
 20
4.187573308613694
 30
0.0
 10
55.12327440179975
 20
4.204664109040304
 30
0.0
 10
54.50520829571096
 20
4.230751219830503
 30
0.0
 10
53.84652056057186
 20
4.268003085056224
 30
0.0
 10
53.1839239821467
 20
4.315936539493578
 30
0.0
 10
52.63854297093501
 20
4.36318037343777
 30
0.0
 10
52.23310307957503
 20
4.402345096790819
 30
0.0
 10
51.92110631224742
 20
4.434524023006881
 30
0.0
 10
51.54959164018239
 20
4.475197972659588
 30
0.0
 10
51.02495568688011
 20
4.537532014939266
 30
0.0
 10
50.26885646458422
 20
4.635842890274021
 30
0.0
 10
49.68120414373324
 20
4.725191648918225
 30
0.0
 10
49.34668360371229
 20
4.77605334712198
 30
0.0
  0
SPLINE
  5
A4
330
1F
100
AcDbEntity
  8
외형선
  6
Continuous
370
    15
100
AcDbSpline
210
0.0
220
0.0
230
1.0
 70
     8
 71
     3
 72
     8
 73
     4
 74
     0
 42
0.000000001
 43
0.00000001
 40
0.0
 40
0.0
 40
0.0
 40
0.0
 40
1.0
 40
1.0
 40
1.0
 40
1.0
 10
9.969936745991616
 20
0.8361789523236959
 30
0.0
 10
10.64386885521862
 20
0.4495790625631001
 30
0.0
 10
11.32631120166672
 20
0.0566017016611415
 30
0.0
 10
11.99999999999998
 20
-0.332811430327624
 30
0.0
  0
SPLINE
  5
A5
330
1F
100
AcDbEntity
  8
외형선
  6
Continuous
370
    15
100
AcDbSpline
210
0.0
220
0.0
230
1.0
 70
    24
 71
     3
 72
     9
 73
     5
 74
     0
 42
0.000000001
 43
0.00000001
 40
0.0
 40
0.0
 40
0.0
 40
0.0
 40
0.2244781654846027
 40
0.9999999999999999
 40
0.9999999999999999
 40
0.9999999999999999
 40
0.9999999999999999
 10
12.00000000000001
 20
-0.3328114303276004
 30
0.0
 10
12.00000000000001
 20
-0.3380485377294237
 30
0.0
 10
12.0
 20
-0.3613786793960634
 30
0.0
 10
12.00000000000001
 20
-0.3917105337631091
 30
0.0
 10
12.00000000000001
 20
-0.4152335491060943
 30
0.0
  0
SPLINE
  5
A6
330
1F
100
AcDbEntity
  8
외형선
  6
Continuous
370
    15
100
AcDbSpline
210
0.0
220
0.0
230
1.0
 70
    24
 71
     3
 72
     8
 73
     4
 74
     0
 42
0.000000001
 43
0.00000001
 40
0.0
 40
0.0
 40
0.0
 40
0.0
 40
1.0
 40
1.0
 40
1.0
 40
1.0
 10
12.00000000000001
 20
-0.4152335491063673
 30
0.0
 10
11.45266987561005
 20
-0.1944367809990425
 30
0.0
 10
10.89955980460254
 20
0.0286916576597818
 30
0.0
 10
10.34993297802139
 20
0.250414931359471
 30
0.0
  0
SPLINE
  5
A7
330
1F
100
AcDbEntity
  8
외형선
  6
Continuous
370
    15
100
AcDbSpline
210
0.0
220
0.0
230
1.0
 70
     8
 71
     3
 72
    12
 73
     8
 74
     0
 42
0.000000001
 43
0.00000001
 40
0.0
 40
0.0
 40
0.0
 40
0.0
 40
0.5000000000000013
 40
0.5000000000000013
 40
0.7500000000000007
 40
0.7500000000000007
 40
1.0
 40
1.0
 40
1.0
 40
1.0
 10
9.96993674599167
 20
0.647339805022634
 30
0.0
 10
9.969936745991491
 20
0.5962932436783638
 30
0.0
 10
10.01172639947381
 20
0.5232816023260668
 30
0.0
 10
10.10902456680725
 20
0.4126186985190758
 30
0.0
 10
10.14762622886776
 20
0.3755702255855669
 30
0.0
 10
10.23898618527449
 20
0.3060893116284471
 30
0.0
 10
10.29184886494132
 20
0.273846465409889
 30
0.0
 10
10.3499329780214
 20
0.2504149313594703
 30
0.0
  0
LINE
  5
A8
330
1F
100
AcDbEntity
  8
외형선
  6
Continuous
370
    15
100
AcDbLine
 10
9.96993674599165
 20
2.542417186322107
 30
0.0
 11
9.96993674599172
 21
6.349999999999999
 31
0.0
  0
SPLINE
  5
A9
330
1F
100
AcDbEntity
  8
외형선
  6
Continuous
370
    15
100
AcDbSpline
210
0.0
220
0.0
230
1.0
 70
     8
 71
     3
 72
     8
 73
     4
 74
     0
 42
0.000000001
 43
0.00000001
 40
0.0
 40
0.0
 40
0.0
 40
0.0
 40
1.0
 40
1.0
 40
1.0
 40
1.0
 10
12.00000000000001
 20
1.431470580999411
 30
0.0
 10
11.32628916193826
 20
1.811394698160066
 30
0.0
 10
10.64382420449606
 20
2.184777150792454
 30
0.0
 10
9.96987060295366
 20
2.542167805920452
 30
0.0
  0
LINE
  5
AA
330
1F
100
AcDbEntity
  8
외형선
  6
Continuous
370
    15
100
AcDbLine
 10
12.00000000000001
 20
1.43147058099941
 30
0.0
 11
12.00000000000001
 21
-0.3328114303276373
 31
0.0
  0
LINE
  5
AB
330
1F
100
AcDbEntity
  8
외형선
  6
Continuous
370
    15
100
AcDbLine
 10
9.96993674599172
 20
-6.350000000000001
 30
0.0
 11
9.969936745991616
 21
0.8361767514838895
 31
0.0
  0
LINE
  5
AC
330
1F
100
AcDbEntity
  8
외형선
  6
Continuous
370
    15
100
AcDbLine
 10
-37.79999999999998
 20
6.349999999999993
 30
0.0
 11
-37.79999999999998
 21
-6.350000000000003
 31
0.0
  0
LINE
  5
AD
330
1F
100
AcDbEntity
  8
외형선
  6
Continuous
370
    15
100
AcDbLine
 10
-38.79999999999998
 20
5.349999999999992
 30
0.0
 11
-38.79999999999998
 21
-5.35
 31
0.0
  0
LINE
  5
AE
330
1F
100
AcDbEntity
  8
외형선
  6
Continuous
370
    15
100
AcDbLine
 10
11.99999999999998
 20
1.531481970067776
 30
0.0
 11
11.63888401734557
 21
1.695760136363433
 31
0.0
  0
SPLINE
  5
AF
330
1F
100
AcDbEntity
  8
외형선
  6
Continuous
370
    15
100
AcDbSpline
210
0.0
220
0.0
230
1.0
 70
    24
 71
     3
 72
     8
 73
     4
 74
     0
 42
0.000000001
 43
0.00000001
 40
0.0
 40
0.0
 40
0.0
 40
0.0
 40
1.0
 40
1.0
 40
1.0
 40
1.0
 10
12.00000000000001
 20
1.531481970067762
 30
0.0
 10
12.00000000000001
 20
1.525217347573264
 30
0.0
 10
12.00000000000001
 20
1.491786088515094
 30
0.0
 10
12.00000000000001
 20
1.431470581002467
 30
0.0
  0
SPLINE
  5
B0
330
1F
100
AcDbEntity
  8
외형선
  6
Continuous
370
    15
100
AcDbSpline
210
0.0
220
0.0
230
1.0
 70
     8
 71
     3
 72
    12
 73
     8
 74
     0
 42
0.000000001
 43
0.00000001
 40
0.0
 40
0.0
 40
0.0
 40
0.0
 40
0.25
 40
0.25
 40
0.5
 40
0.5
 40
1.0
 40
1.0
 40
1.0
 40
1.0
 10
10.26551571048232
 20
-5.069586258367495
 30
0.0
 10
10.19951235491386
 20
-5.067634813102871
 30
0.0
 10
10.1538222261102
 20
-5.067783290834282
 30
0.0
 10
10.08094513859557
 20
-5.068053826093793
 30
0.0
 10
10.05415180178218
 20
-5.068436921384074
 30
0.0
 10
9.99072374034553
 20
-5.069881715741411
 30
0.0
 10
9.969936745991692
 20
-5.07117339294147
 30
0.0
 10
9.969936745991689
 20
-5.074733966129636
 30
0.0
  0
SPLINE
  5
B1
330
1F
100
AcDbEntity
  8
외형선
  6
Continuous
370
    15
100
AcDbSpline
210
0.0
220
0.0
230
1.0
 70
     8
 71
     3
 72
     8
 73
     4
 74
     0
 42
0.000000001
 43
0.00000001
 40
0.0
 40
0.0
 40
0.0
 40
0.0
 40
1.0
 40
1.0
 40
1.0
 40
1.0
 10
12.0
 20
5.057786057524109
 30
0.0
 10
11.32630314913144
 20
5.086928352653756
 30
0.0
 10
10.64385254142993
 20
5.087341110165439
 30
0.0
 10
9.969912579664536
 20
5.059003621056591
 30
0.0
  0
SPLINE
  5
B2
330
1F
100
AcDbEntity
  8
외형선
  6
Continuous
370
    15
100
AcDbSpline
210
0.0
220
0.0
230
1.0
 70
    24
 71
     3
 72
    14
 73
    10
 74
     0
 42
0.000000001
 43
0.00000001
 40
0.0
 40
0.0
 40
0.0
 40
0.0
 40
0.25
 40
0.25
 40
0.5
 40
0.5
 40
0.75
 40
0.75
 40
1.0
 40
1.0
 40
1.0
 40
1.0
 10
12.00000000000001
 20
5.057786057524106
 30
0.0
 10
12.00000000000001
 20
4.95599192211586
 30
0.0
 10
12.00000000000001
 20
4.800841828128232
 30
0.0
 10
12.00000000000001
 20
4.383466439459221
 30
0.0
 10
12.00000000000001
 20
4.121238199235122
 30
0.0
 10
12.00000000000001
 20
3.504929191292929
 30
0.0
 10
12.00000000000001
 20
3.151026394907593
 30
0.0
 10
12.00000000000001
 20
2.379861326347184
 30
0.0
 10
12.00000000000001
 20
1.962874697405592
 30
0.0
 10
12.00000000000001
 20
1.531481970067765
 30
0.0
  0
SPLINE
  5
B3
330
1F
100
AcDbEntity
  8
외형선
  6
Continuous
370
    15
100
AcDbSpline
210
0.0
220
0.0
230
1.0
 70
     8
 71
     3
 72
     8
 73
     4
 74
     0
 42
0.000000001
 43
0.00000001
 40
0.0
 40
0.0
 40
0.0
 40
0.0
 40
1.0
 40
1.0
 40
1.0
 40
1.0
 10
12.0
 20
-5.057786057524114
 30
0.0
 10
11.42463885558251
 20
-5.082674617200664
 30
0.0
 10
10.84289048887708
 20
-5.086656834060305
 30
0.0
 10
10.26551571048231
 20
-5.069586258367495
 30
0.0
  0
SPLINE
  5
B4
330
1F
100
AcDbEntity
  8
외형선
  6
Continuous
370
    15
100
AcDbSpline
210
0.0
220
0.0
230
1.0
 70
    24
 71
     3
 72
    14
 73
    10
 74
     0
 42
0.000000001
 43
0.00000001
 40
0.0
 40
0.0
 40
0.0
 40
0.0
 40
0.25
 40
0.25
 40
0.5
 40
0.5
 40
0.75
 40
0.75
 40
1.0
 40
1.0
 40
1.0
 40
1.0
 10
12.00000000000001
 20
-0.4152335491063659
 30
0.0
 10
12.00000000000001
 20
-0.9512593748671828
 30
0.0
 10
12.00000000000001
 20
-1.483589656027701
 30
0.0
 10
12.00000000000001
 20
-2.48584394312437
 30
0.0
 10
12.00000000000001
 20
-2.955159362025842
 30
0.0
 10
12.00000000000001
 20
-3.780274792714125
 30
0.0
 10
12.00000000000001
 20
-4.135635148502856
 30
0.0
 10
12.00000000000001
 20
-4.70368382552273
 30
0.0
 10
12.00000000000001
 20
-4.91637342492719
 30
0.0
 10
12.00000000000001
 20
-5.05778605752411
 30
0.0
  0
SPLINE
  5
B5
330
1F
100
AcDbEntity
  8
외형선
  6
Continuous
 62
     1
370
    15
100
AcDbSpline
210
0.0
220
0.0
230
1.0
 70
     8
 71
     3
 72
    17
 73
    13
 74
     0
 42
0.000000001
 43
0.00000001
 40
0.0
 40
0.0
 40
0.0
 40
0.0
 40
0.086699135175339
 40
0.1908213684429423
 40
0.2949423105899183
 40
0.3990625330645876
 40
0.5031826076199082
 40
0.6073031060714614
 40
0.7114246000553786
 40
0.8155476607864275
 40
0.9196728588164794
 40
1.0
 40
1.0
 40
1.0
 40
1.0
 10
47.02205914813676
 20
-0.6028666476021664
 30
0.0
 10
46.41115909924056
 20
-0.3570848640218692
 30
0.0
 10
45.06659224656692
 20
0.1838711234431581
 30
0.0
 10
42.98837290125778
 20
1.022546704031495
 30
0.0
 10
40.78740356997584
 20
1.867731144210435
 30
0.0
 10
38.58645116002278
 20
2.638923435481751
 30
0.0
 10
36.38550216571132
 20
3.304719954863996
 30
0.0
 10
34.18454328145318
 20
3.838242936133582
 30
0.0
 10
31.9835612382174
 20
4.220020457283137
 30
0.0
 10
29.78254244633017
 20
4.427809462729404
 30
0.0
 10
27.74917978520447
 20
4.475555123528337
 30
0.0
 10
26.44948533991854
 20
4.372242016732318
 30
0.0
 10
25.88348146245598
 20
4.327250196346116
 30
0.0
  0
SPLINE
  5
B6
330
1F
100
AcDbEntity
  8
외형선
  6
Continuous
 62
     1
370
    15
100
AcDbSpline
210
0.0
220
0.0
230
1.0
 70
     8
 71
     3
 72
    31
 73
    27
 74
     0
 42
0.000000001
 43
0.00000001
 40
0.0
 40
0.0
 40
0.0
 40
0.0
 40
0.007299393238604
 40
0.0503404782151719
 40
0.093061692157125
 40
0.1360795004945106
 40
0.1787887046280896
 40
0.2217944314946377
 40
0.2645035916697436
 40
0.307212801031375
 40
0.3499105934678134
 40
0.3929051035310342
 40
0.4356027959868577
 40
0.4785963000134335
 40
0.5212940460007371
 40
0.5642881300946291
 40
0.6069858408151341
 40
0.6496835305267157
 40
0.6923812034445153
 40
0.7353745563344253
 40
0.778072316263116
 40
0.8210666652016523
 40
0.8677699958754823
 40
0.9144733308321511
 40
0.9570895541775621
 40
1.0
 40
1.0
 40
1.0
 40
1.0
 10
19.52133686428386
 20
4.256629567448792
 30
0.0
 10
19.62539031637694
 20
4.303680193031541
 30
0.0
 10
20.34299798143627
 20
4.628166203681323
 30
0.0
 10
21.6696882526171
 20
5.114106349533048
 30
0.0
 10
23.50610232162949
 20
5.682974196404753
 30
0.0
 10
25.33743760189492
 20
6.083138559674139
 30
0.0
 10
27.17252601361977
 20
6.318227269868208
 30
0.0
 10
29.00323079114592
 20
6.377007179436449
 30
0.0
 10
30.8340415428526
 20
6.259345608610161
 30
0.0
 10
32.66103571337118
 20
5.97001066332275
 30
0.0
 10
34.49161253428666
 20
5.515311759112811
 30
0.0
 10
36.32183757342024
 20
4.907754376660005
 30
0.0
 10
38.15624337630917
 20
4.162649636834507
 30
0.0
 10
39.98663205842452
 20
3.304227365973098
 30
0.0
 10
41.82173606929882
 20
2.35312536424389
 30
0.0
 10
43.65210828168163
 20
1.338240635813788
 30
0.0
 10
45.482295293932
 20
0.2860890151602151
 30
0.0
 10
47.30826666246939
 20
-0.7715007532445924
 30
0.0
 10
49.13871347146588
 20
-1.809786940087077
 30
0.0
 10
50.96957211286121
 20
-2.797459643845925
 30
0.0
 10
52.80410956606269
 20
-3.710756178253441
 30
0.0
 10
54.69135194237302
 20
-4.544463901372411
 30
0.0
 10
56.6360464848209
 20
-5.265035670745105
 30
0.0
 10
58.57528650554421
 20
-5.811680539542333
 30
0.0
 10
60.46076820374441
 20
-6.182692210876276
 30
0.0
 10
61.68019107866527
 20
-6.277970948665279
 30
0.0
 10
62.29200000000002
 20
-6.350000000000189
 30
0.0
  0
SPLINE
  5
B8
330
1F
100
AcDbEntity
  8
외형선
  6
Continuous
 62
     1
370
    15
100
AcDbSpline
210
0.0
220
0.0
230
1.0
 70
     8
 71
     3
 72
    15
 73
    11
 74
     0
 42
0.000000001
 43
0.00000001
 40
0.0
 40
0.0
 40
0.0
 40
0.0
 40
0.1335330068326902
 40
0.2670588428332057
 40
0.4005781981747179
 40
0.5340917657278905
 40
0.6676002407758124
 40
0.8011043207267915
 40
0.9346047048252653
 40
1.0
 40
1.0
 40
1.0
 40
1.0
 10
62.80000000000001
 20
-5.009973878738172
 30
0.0
 10
62.06609358198582
 20
-4.856610704423328
 30
0.0
 10
60.59832015733507
 20
-4.549892591522099
 30
0.0
 10
58.39673802715434
 20
-3.85456603855077
 30
0.0
 10
56.19527720410575
 20
-3.019652458761913
 30
0.0
 10
53.99392635502976
 20
-2.060600574518469
 30
0.0
 10
51.79267173342695
 20
-1.019390648713991
 30
0.0
 10
49.59150070302649
 20
0.059274944276113
 30
0.0
 10
47.76467796447184
 20
0.963336977305958
 30
0.0
 10
46.67157954147948
 20
1.469295796344768
 30
0.0
 10
46.31217759625959
 20
1.635650975291885
 30
0.0
  0
LINE
  5
B9
330
1F
100
AcDbEntity
  8
외형선
  6
Continuous
 62
     1
370
    15
100
AcDbLine
 10
62.80000000000002
 20
-5.47939539973791
 30
0.0
 11
62.80000000000001
 21
-5.009973878738172
 31
0.0
  0
SPLINE
  5
BA
330
1F
100
AcDbEntity
  8
외형선
  6
Continuous
 62
     1
370
    15
100
AcDbSpline
210
0.0
220
0.0
230
1.0
 70
     8
 71
     3
 72
    14
 73
    10
 74
     0
 42
0.000000001
 43
0.00000001
 40
0.0
 40
0.0
 40
0.0
 40
0.0
 40
0.25
 40
0.25
 40
0.5
 40
0.5
 40
0.75
 40
0.75
 40
1.0
 40
1.0
 40
1.0
 40
1.0
 10
62.29200000000002
 20
-5.926692480533911
 30
0.0
 10
62.35261807938353
 20
-5.939255236930518
 30
0.0
 10
62.41455129760842
 20
-5.940118481372061
 30
0.0
 10
62.53566207917942
 20
-5.91337355184704
 30
0.0
 10
62.59399361529915
 20
-5.88540661833767
 30
0.0
 10
62.6931654919544
 20
-5.801611698425439
 30
0.0
 10
62.73377783355316
 20
-5.745507478086023
 30
0.0
 10
62.78698718316809
 20
-5.619369449407417
 30
0.0
 10
62.80000000000001
 20
-5.549558331880636
 30
0.0
 10
62.80000000000001
 20
-5.479395399737911
 30
0.0
  0
SPLINE
  5
BB
330
1F
100
AcDbEntity
  8
외형선
  6
Continuous
 62
     1
370
    15
100
AcDbSpline
210
0.0
220
0.0
230
1.0
 70
     8
 71
     3
 72
    22
 73
    18
 74
     0
 42
0.000000001
 43
0.00000001
 40
0.0
 40
0.0
 40
0.0
 40
0.0
 40
0.06936154008836
 40
0.1387329222665399
 40
0.2081152775317126
 40
0.2774917011406187
 40
0.3468573131404236
 40
0.4162143143094879
 40
0.488348140544414
 40
0.5604804177848401
 40
0.6326115091224405
 40
0.704741778139766
 40
0.7768715887598948
 40
0.8490013050957832
 40
0.9211312912994465
 40
0.9932619114111063
 40
1.0
 40
1.0
 40
1.0
 40
1.0
 10
62.29200000000002
 20
-5.926692480533911
 30
0.0
 10
61.58651092855769
 20
-5.759286689162108
 30
0.0
 10
60.17543267995453
 20
-5.424451352291466
 30
0.0
 10
58.05858866335451
 20
-4.663312942332032
 30
0.0
 10
55.94149319660082
 20
-3.74579219431744
 30
0.0
 10
53.82452066616114
 20
-2.685724547972328
 30
0.0
 10
51.70786582614055
 20
-1.527658212280155
 30
0.0
 10
49.56325742009195
 20
-0.2967083950622631
 30
0.0
 10
47.39039216911477
 20
0.9624666985866743
 30
0.0
 10
45.18935531788635
 20
2.199634726939136
 30
0.0
 10
42.98835235036621
 20
3.348847042058183
 30
0.0
 10
40.78738205933669
 20
4.364882447354956
 30
0.0
 10
38.58642781587813
 20
5.204770226644889
 30
0.0
 10
36.38547740200215
 20
5.843996721561515
 30
0.0
 10
34.1845163337761
 20
6.223416970822734
 30
0.0
 10
32.64866935583909
 20
6.383892087624759
 30
0.0
 10
31.84647199383782
 20
6.342770406783894
 30
0.0
 10
31.77793686780369
 20
6.339257207024507
 30
0.0
  0
SPLINE
  5
BC
330
1F
100
AcDbEntity
  8
외형선
  6
Continuous
370
    15
100
AcDbSpline
210
0.0
220
0.0
230
1.0
 70
    24
 71
     3
 72
     8
 73
     4
 74
     0
 42
0.000000001
 43
0.00000001
 40
0.0
 40
0.0
 40
0.0
 40
0.0
 40
1.0
 40
1.0
 40
1.0
 40
1.0
 10
12.00000000000001
 20
1.531481970067762
 30
0.0
 10
12.00000000000001
 20
1.525217347573264
 30
0.0
 10
12.00000000000001
 20
1.491786088515094
 30
0.0
 10
12.00000000000001
 20
1.431470581002467
 30
0.0
  0
SPLINE
  5
BD
330
1F
100
AcDbEntity
  8
외형선
  6
Continuous
 62
     1
370
    15
100
AcDbSpline
210
0.0
220
0.0
230
1.0
 70
     8
 71
     3
 72
    18
 73
    14
 74
     0
 42
0.000000001
 43
0.00000001
 40
0.0
 40
0.0
 40
0.0
 40
0.0
 40
0.0228861257679626
 40
0.1198298363310716
 40
0.2167749478058195
 40
0.3137219704048464
 40
0.4106714135408007
 40
0.5076237856137761
 40
0.6045795937996498
 40
0.7015393438395109
 40
0.7985035398303607
 40
0.8992517074467073
 40
0.9999999999999999
 40
0.9999999999999999
 40
0.9999999999999999
 40
0.9999999999999999
 10
34.70412148262933
 20
-5.264676793416052
 30
0.0
 10
34.53092186899062
 20
-5.287788961422197
 30
0.0
 10
33.62406320862332
 20
-5.408802335966771
 30
0.0
 10
31.98353228897512
 20
-5.418212075768807
 30
0.0
 10
29.78251196776785
 20
-5.27858698509842
 30
0.0
 10
27.5814416153684
 20
-4.911077837021681
 30
0.0
 10
25.38030823279367
 20
-4.3521163188419
 30
0.0
 10
23.17909835162421
 20
-3.618148803764454
 30
0.0
 10
20.97779932560113
 20
-2.740145396088924
 30
0.0
 10
18.77639588709271
 20
-1.752307211817244
 30
0.0
 10
16.54628256928095
 20
-0.6820405291519968
 30
0.0
 10
14.28745577358393
 20
0.4359028290805566
 30
0.0
 10
12.76248557304486
 20
1.166288772114564
 30
0.0
 10
11.99999999999998
 20
1.531481970067776
 30
0.0
  0
SPLINE
  5
BE
330
1F
100
AcDbEntity
  8
외형선
  6
Continuous
 62
     1
370
    15
100
AcDbSpline
210
0.0
220
0.0
230
1.0
 70
     8
 71
     3
 72
    20
 73
    16
 74
     0
 42
0.000000001
 43
0.00000001
 40
0.0
 40
0.0
 40
0.0
 40
0.0
 40
0.017546662979049
 40
0.0988805356139173
 40
0.1802147125532019
 40
0.2615496042906982
 40
0.3428856210241505
 40
0.4242231724855244
 40
0.5055626677716887
 40
0.5869045151756619
 40
0.6695207126441369
 40
0.75213824176943
 40
0.8347572207766035
 40
0.9173777676275834
 40
1.0
 40
1.0
 40
1.0
 40
1.0
 10
39.06125120483177
 20
-4.991015176576274
 30
0.0
 10
38.90297646920015
 20
-5.052254311743286
 30
0.0
 10
38.01105242346604
 20
-5.39735460192823
 30
0.0
 10
36.38547735230761
 20
-5.829222191617921
 30
0.0
 10
34.1845167559294
 20
-6.242791046805853
 30
0.0
 10
31.98353313228758
 20
-6.390667002255939
 30
0.0
 10
29.78251272365957
 20
-6.287850663179705
 30
0.0
 10
27.58144332430438
 20
-5.93283828088843
 30
0.0
 10
25.38030770193428
 20
-5.341299743737081
 30
0.0
 10
23.16763711123795
 20
-4.532231529171441
 30
0.0
 10
20.94337893152635
 20
-3.534606352956782
 30
0.0
 10
18.70760744109984
 20
-2.385964972199311
 30
0.0
 10
16.47178485330856
 20
-1.140199420340736
 30
0.0
 10
14.23591308738015
 20
0.1567623804411177
 30
0.0
 10
12.74530943064807
 20
1.006564958073922
 30
0.0
 10
12.00000000000001
 20
1.43147058099941
 30
0.0
  0
SPLINE
  5
BF
330
1F
100
AcDbEntity
  8
외형선
  6
Continuous
 62
     1
370
    15
100
AcDbSpline
210
0.0
220
0.0
230
1.0
 70
     8
 71
     3
 72
    16
 73
    12
 74
     0
 42
0.000000001
 43
0.00000001
 40
0.0
 40
0.0
 40
0.0
 40
0.0
 40
0.1195399862053229
 40
0.2400738252735849
 40
0.3596134065176946
 40
0.469090783559556
 40
0.5793285109342992
 40
0.6887469779226431
 40
0.7989250886821041
 40
0.9083127958979632
 40
1.0
 40
1.0
 40
1.0
 40
1.0
 10
12.00000000000002
 20
-0.332811430327603
 30
0.0
 10
12.66548565552337
 20
-0.7153352295078532
 30
0.0
 10
14.0019897999339
 20
-1.483563122471238
 30
0.0
 10
16.00378886546295
 20
-2.582754088279373
 30
0.0
 10
17.94958028697996
 20
-3.568810060692697
 30
0.0
 10
19.83769583808922
 20
-4.418778843810427
 30
0.0
 10
21.66968827267818
 20
-5.120374894082891
 30
0.0
 10
23.50610195224971
 20
-5.682055912993388
 30
0.0
 10
25.33743906757599
 20
-6.080493194135254
 30
0.0
 10
27.06977804980296
 20
-6.315701822391155
 30
0.0
 10
28.18892686265887
 20
-6.330756327136688
 30
0.0
 10
28.69924227173865
 20
-6.337620960025058
 30
0.0
  0
SPLINE
  5
C0
330
1F
100
AcDbEntity
  8
외형선
  6
Continuous
 62
     1
370
    15
100
AcDbSpline
210
0.0
220
0.0
230
1.0
 70
     8
 71
     3
 72
    12
 73
     8
 74
     0
 42
0.000000001
 43
0.00000001
 40
0.0
 40
0.0
 40
0.0
 40
0.0
 40
0.0675861015486593
 40
0.3109551455187158
 40
0.5543242118064607
 40
0.7763955155774926
 40
1.0
 40
1.0
 40
1.0
 40
1.0
 10
54.08386433818357
 20
4.25628367465839
 30
0.0
 10
54.26875254682695
 20
4.338791816513062
 30
0.0
 10
55.11939992115445
 20
4.718401391100326
 30
0.0
 10
56.63605219224672
 20
5.259106991327159
 30
0.0
 10
58.57528513187471
 20
5.813107460588596
 30
0.0
 10
60.46545780452012
 20
6.148640317161854
 30
0.0
 10
61.67959879007108
 20
6.283636694661483
 30
0.0
 10
62.29200000000001
 20
6.350000000000199
 30
0.0
  0
SPLINE
  5
C1
330
1F
100
AcDbEntity
  8
외형선
  6
Continuous
 62
     1
370
    15
100
AcDbSpline
210
0.0
220
0.0
230
1.0
 70
     8
 71
     3
 72
     9
 73
     5
 74
     0
 42
0.000000001
 43
0.00000001
 40
0.0
 40
0.0
 40
0.0
 40
0.0
 40
0.9323656110908293
 40
1.0
 40
1.0
 40
1.0
 40
1.0
 10
62.80000000000002
 20
4.444999999999999
 30
0.0
 10
62.06609356825276
 20
4.442449978381823
 30
0.0
 10
61.27894910151441
 20
4.439714976588707
 30
0.0
 10
60.49181143586608
 20
4.343699534199938
 30
0.0
 10
60.43857386086256
 20
4.337205588428129
 30
0.0
  0
LINE
  5
C2
330
1F
100
AcDbEntity
  8
외형선
  6
Continuous
370
    15
100
AcDbLine
 10
12.47105462040842
 20
-0.6015661348913297
 30
0.0
 11
12.00000000000001
 21
-0.4152335491063659
 31
0.0
  0
SPLINE
  5
C4
330
1F
100
AcDbEntity
  8
외형선
  6
Continuous
 62
     1
370
    15
100
AcDbSpline
210
0.0
220
0.0
230
1.0
 70
    24
 71
     3
 72
    10
 73
     6
 74
     0
 42
0.000000001
 43
0.00000001
 40
0.0
 40
0.0
 40
0.0
 40
0.0
 40
0.5
 40
0.5
 40
1.0
 40
1.0
 40
1.0
 40
1.0
 10
62.80000000000001
 20
4.444999999999999
 30
0.0
 10
62.80000000000001
 20
4.644105404135435
 30
0.0
 10
62.8
 20
4.866639400209943
 30
0.0
 10
62.79999999999999
 20
5.33784815967095
 30
0.0
 10
62.80000000000002
 20
5.586217918628885
 30
0.0
 10
62.80000000000001
 20
5.842000000000199
 30
0.0
  0
SPLINE
  5
C5
330
1F
100
AcDbEntity
  8
외형선
  6
Continuous
370
    15
100
AcDbSpline
210
0.0
220
0.0
230
1.0
 70
    24
 71
     3
 72
    11
 73
     7
 74
     0
 42
0.000000001
 43
0.00000001
 40
0.0
 40
0.0
 40
0.0
 40
0.0
 40
0.2878904203967711
 40
0.6856096303781172
 40
0.842445831301264
 40
1.0
 40
1.0
 40
1.0
 40
1.0
 10
12.00000000000001
 20
-0.1906232294541875
 30
0.0
 10
12.00000000000001
 20
-0.1916726569077964
 30
0.0
 10
12.00000000000002
 20
-0.1941718632641105
 30
0.0
 10
12.00000000000001
 20
-0.2643918236004123
 30
0.0
 10
12.00000000000003
 20
-0.3466173335399722
 30
0.0
 10
12.00000000000001
 20
-0.3923266820381059
 30
0.0
 10
12.00000000000001
 20
-0.4152335491060945
 30
0.0
  0
SPLINE
  5
C6
330
1F
100
AcDbEntity
  8
외형선
  6
Continuous
 62
     1
370
    15
100
AcDbSpline
210
0.0
220
0.0
230
1.0
 70
     8
 71
     3
 72
    24
 73
    20
 74
     0
 42
0.000000001
 43
0.00000001
 40
0.0
 40
0.0
 40
0.0
 40
0.0
 40
0.0524945005366886
 40
0.1114232780729011
 40
0.1703510292622682
 40
0.2292780687841073
 40
0.2882047116169148
 40
0.3471312729060001
 40
0.406058067830966
 40
0.4649854114731617
 40
0.523913618683221
 40
0.5828430039488081
 40
0.6417738812626888
 40
0.7007065639912395
 40
0.7596413647435187
 40
0.8185785952410107
 40
0.8775185661881579
 40
0.9387592446791649
 40
1.0
 40
1.0
 40
1.0
 40
1.0
 10
49.35111578109915
 20
-4.765899729588329
 30
0.0
 10
48.69754218118455
 20
-4.858058033204884
 30
0.0
 10
47.31028614064948
 20
-5.053670529478036
 30
0.0
 10
45.18936899517718
 20
-5.108694589360414
 30
0.0
 10
42.9883693243647
 20
-4.979608046329559
 30
0.0
 10
40.78739995775194
 20
-4.646986352759846
 30
0.0
 10
38.58644732030429
 20
-4.130138018737939
 30
0.0
 10
36.38549814670795
 20
-3.448079168005957
 30
0.0
 10
34.18453908543814
 20
-2.628468066145381
 30
0.0
 10
31.98355681113117
 20
-1.703903515982356
 30
0.0
 10
29.78253800567846
 20
-0.71132314594023
 30
0.0
 10
27.58146935610999
 20
0.3096679878675674
 30
0.0
 10
25.38033761654558
 20
1.318285914365059
 30
0.0
 10
23.17912939698869
 20
2.274364250853229
 30
0.0
 10
20.97783198060948
 20
3.139372114791312
 30
0.0
 10
18.77643029988462
 20
3.880122630310289
 30
0.0
 10
16.54631111007143
 20
4.469560347695683
 30
0.0
 10
14.28747428176982
 20
4.895727153604099
 30
0.0
 10
12.76249174611894
 20
5.003766400293914
 30
0.0
 10
12.00000000000001
 20
5.057786057524107
 30
0.0
  0
SPLINE
  5
C7
330
1F
100
AcDbEntity
  8
외형선
  6
Continuous
370
    15
100
AcDbSpline
210
0.0
220
0.0
230
1.0
 70
    24
 71
     3
 72
    14
 73
    10
 74
     0
 42
0.000000001
 43
0.00000001
 40
0.0
 40
0.0
 40
0.0
 40
0.0
 40
0.25
 40
0.25
 40
0.5
 40
0.5
 40
0.75
 40
0.75
 40
1.0
 40
1.0
 40
1.0
 40
1.0
 10
12.00000000000001
 20
5.057786057524106
 30
0.0
 10
12.00000000000001
 20
4.95599192211586
 30
0.0
 10
12.00000000000001
 20
4.800841828128232
 30
0.0
 10
12.00000000000001
 20
4.383466439459221
 30
0.0
 10
12.00000000000001
 20
4.121238199235122
 30
0.0
 10
12.00000000000001
 20
3.504929191292929
 30
0.0
 10
12.00000000000001
 20
3.151026394907593
 30
0.0
 10
12.00000000000001
 20
2.379861326347184
 30
0.0
 10
12.00000000000001
 20
1.962874697405592
 30
0.0
 10
12.00000000000001
 20
1.531481970067765
 30
0.0
  0
SPLINE
  5
C8
330
1F
100
AcDbEntity
  8
외형선
  6
Continuous
 62
     1
370
    15
100
AcDbSpline
210
0.0
220
0.0
230
1.0
 70
     8
 71
     3
 72
    16
 73
    12
 74
     0
 42
0.000000001
 43
0.00000001
 40
0.0
 40
0.0
 40
0.0
 40
0.0
 40
0.1043648494229318
 40
0.2088021803440576
 40
0.3133161447920694
 40
0.4398363836573283
 40
0.5663517291672638
 40
0.6928628514607723
 40
0.8193704224473999
 40
0.945875115526985
 40
1.0
 40
1.0
 40
1.0
 40
1.0
 10
61.64627083110449
 20
0.5319062799012862
 30
0.0
 10
61.04109795085561
 20
0.8086239234957268
 30
0.0
 10
59.8303318971531
 20
1.362251391380458
 30
0.0
 10
58.01333799993169
 20
2.15165891325294
 30
0.0
 10
56.06759873483328
 20
2.934609146532978
 30
0.0
 10
53.99394028653165
 20
3.670848583691897
 30
0.0
 10
51.79267938654688
 20
4.304761990372996
 30
0.0
 10
49.59151186742434
 20
4.770069973775046
 30
0.0
 10
47.39041184277443
 20
5.033018464589722
 30
0.0
 10
45.60913133553892
 20
5.119202503513813
 30
0.0
 10
44.56155025921913
 20
5.043791495823694
 30
0.0
 10
44.2476470463557
 20
5.021194908185477
 30
0.0
  0
SPLINE
  5
C9
330
1F
100
AcDbEntity
  8
외형선
  6
Continuous
 62
     1
370
    15
100
AcDbSpline
210
0.0
220
0.0
230
1.0
 70
     8
 71
     3
 72
     9
 73
     5
 74
     0
 42
0.000000001
 43
0.00000001
 40
0.0
 40
0.0
 40
0.0
 40
0.0
 40
0.1841753860565116
 40
1.0
 40
1.0
 40
1.0
 40
1.0
 10
14.80388289898601
 20
-4.75688544539451
 30
0.0
 10
14.63174751984351
 20
-4.78964180697673
 30
0.0
 10
13.69712002792841
 20
-4.96749598327893
 30
0.0
 10
12.76249230292874
 20
-5.017219989414685
 30
0.0
 10
12.00000000000001
 20
-5.057786057524109
 30
0.0
  0
SPLINE
  5
CA
330
1F
100
AcDbEntity
  8
외형선
  6
Continuous
 62
     1
370
    15
100
AcDbSpline
210
0.0
220
0.0
230
1.0
 70
    24
 71
     3
 72
     8
 73
     4
 74
     0
 42
0.000000001
 43
0.00000001
 40
0.0
 40
0.0
 40
0.0
 40
0.0
 40
1.0
 40
1.0
 40
1.0
 40
1.0
 10
61.64627083110449
 20
0.53190627990129
 30
0.0
 10
61.39226809442522
 20
0.3187726772356981
 30
0.0
 10
61.13857374671343
 20
0.1058978436389222
 30
0.0
 10
60.88518188485774
 20
-0.1067231741875075
 30
0.0
  0
SPLINE
  5
CB
330
1F
100
AcDbEntity
  8
외형선
  6
Continuous
 62
     1
370
    15
100
AcDbSpline
210
0.0
220
0.0
230
1.0
 70
     8
 71
     3
 72
     8
 73
     4
 74
     0
 42
0.000000001
 43
0.00000001
 40
0.0
 40
0.0
 40
0.0
 40
0.0
 40
1.0
 40
1.0
 40
1.0
 40
1.0
 10
62.8
 20
-1.696992707288234
 30
0.0
 10
62.15495232656339
 20
-1.189877340515798
 30
0.0
 10
61.51656081378366
 20
-0.6601903829914771
 30
0.0
 10
60.8851818848647
 20
-0.1067231741816009
 30
0.0
  0
SPLINE
  5
CC
330
1F
100
AcDbEntity
  8
외형선
  6
Continuous
 62
     1
370
    15
100
AcDbSpline
210
0.0
220
0.0
230
1.0
 70
    24
 71
     3
 72
    10
 73
     6
 74
     0
 42
0.000000001
 43
0.00000001
 40
0.0
 40
0.0
 40
0.0
 40
0.0
 40
0.5
 40
0.5
 40
1.0
 40
1.0
 40
1.0
 40
1.0
 10
62.80000000000001
 20
-5.009973878738171
 30
0.0
 10
62.80000000000001
 20
-4.625920320174162
 30
0.0
 10
62.8
 20
-4.140653922806075
 30
0.0
 10
62.79999999999999
 20
-3.012456250606813
 30
0.0
 10
62.80000000000002
 20
-2.37050226337581
 30
0.0
 10
62.80000000000001
 20
-1.696992707288438
 30
0.0
  0
LINE
  5
CD
330
1F
100
AcDbEntity
  8
외형선
  6
Continuous
 62
     1
370
    15
100
AcDbLine
 10
61.74858107100641
 20
0.6177547644686552
 30
0.0
 11
62.80000000000001
 21
0.0000000000000056
 31
0.0
  0
LINE
  5
CE
330
1F
100
AcDbEntity
  8
외형선
  6
Continuous
 62
     1
370
    15
100
AcDbLine
 10
62.80000000000001
 20
0.0000000000000056
 30
0.0
 11
62.80000000000001
 21
-1.69699270728824
 31
0.0
  0
SPLINE
  5
CF
330
1F
100
AcDbEntity
  8
외형선
  6
Continuous
 62
     1
370
    15
100
AcDbSpline
210
0.0
220
0.0
230
1.0
 70
    24
 71
     3
 72
    14
 73
    10
 74
     0
 42
0.000000001
 43
0.00000001
 40
0.0
 40
0.0
 40
0.0
 40
0.0
 40
0.25
 40
0.25
 40
0.5
 40
0.5
 40
0.75
 40
0.75
 40
1.0
 40
1.0
 40
1.0
 40
1.0
 10
62.80000000000001
 20
1.500000000000006
 30
0.0
 10
62.8
 20
1.870972544391125
 30
0.0
 10
62.80000000000002
 20
2.222751651562182
 30
0.0
 10
62.8
 20
2.865867809526873
 30
0.0
 10
62.80000000000001
 20
3.157076711148592
 30
0.0
 10
62.80000000000003
 20
3.662943604909867
 30
0.0
 10
62.80000000000002
 20
3.877547716141515
 30
0.0
 10
62.80000000000003
 20
4.223246578877529
 30
0.0
 10
62.80000000000001
 20
4.354375114955245
 30
0.0
 10
62.80000000000001
 20
4.444999999999999
 30
0.0
  0
SPLINE
  5
D0
330
1F
100
AcDbEntity
  8
외형선
  6
Continuous
 62
     1
370
    15
100
AcDbSpline
210
0.0
220
0.0
230
1.0
 70
    24
 71
     3
 72
     8
 73
     4
 74
     0
 42
0.000000001
 43
0.00000001
 40
0.0
 40
0.0
 40
0.0
 40
0.0
 40
1.0
 40
1.0
 40
1.0
 40
1.0
 10
62.80000000000001
 20
1.500000000000006
 30
0.0
 10
62.42152726809084
 20
1.18242367024436
 30
0.0
 10
62.03681278668895
 20
0.8596098907914742
 30
0.0
 10
61.64627083110448
 20
0.5319062799012945
 30
0.0
  0
SPLINE
  5
D1
330
1F
100
AcDbEntity
  8
외형선
  6
Continuous
370
    15
100
AcDbSpline
210
0.0
220
0.0
230
1.0
 70
    24
 71
     3
 72
    14
 73
    10
 74
     0
 42
0.000000001
 43
0.00000001
 40
0.0
 40
0.0
 40
0.0
 40
0.0
 40
0.25
 40
0.25
 40
0.5
 40
0.5
 40
0.75
 40
0.75
 40
1.0
 40
1.0
 40
1.0
 40
1.0
 10
12.00000000000001
 20
-0.4152335491063659
 30
0.0
 10
12.00000000000001
 20
-0.9512593748671828
 30
0.0
 10
12.00000000000001
 20
-1.483589656027701
 30
0.0
 10
12.00000000000001
 20
-2.48584394312437
 30
0.0
 10
12.00000000000001
 20
-2.955159362025842
 30
0.0
 10
12.00000000000001
 20
-3.780274792714125
 30
0.0
 10
12.00000000000001
 20
-4.135635148502856
 30
0.0
 10
12.00000000000001
 20
-4.70368382552273
 30
0.0
 10
12.00000000000001
 20
-4.91637342492719
 30
0.0
 10
12.00000000000001
 20
-5.05778605752411
 30
0.0
  0
LINE
  5
D2
330
1F
100
AcDbEntity
  8
외형선
  6
Continuous
 62
     1
370
    15
100
AcDbLine
 10
62.80000000000002
 20
-5.47939539973791
 30
0.0
 11
62.80000000000002
 21
-5.842000000000188
 31
0.0
  0
LINE
  5
D3
330
1F
100
AcDbEntity
  8
외형선
  6
Continuous
 62
     1
370
    15
100
AcDbLine
 10
62.80000000000001
 20
0.0000000000000056
 30
0.0
 11
62.80000000000001
 21
1.500000000000006
 31
0.0
  0
LINE
  5
D4
330
1F
100
AcDbEntity
  8
중심선
 62
     1
100
AcDbLine
 10
-41.79999999999999
 20
-0.0000000000000051
 30
0.0
 11
65.80000000000001
 21
0.0000000000000081
 31
0.0
  0
LINE
  5
D5
330
1F
100
AcDbEntity
  8
참조1
100
AcDbLine
 10
12.00000000000001
 20
-0.0000000000000047
 30
0.0
 11
12.00000000000001
 21
-40.00000000000001
 31
0.0
  0
LINE
  5
D6
330
1F
100
AcDbEntity
  8
참조1
100
AcDbLine
 10
12.00000000000001
 20
-40.00000000000001
 30
0.0
 11
-12.66672777521594
 21
-39.99999999999999
 31
0.0
  0
CIRCLE
  5
D7
330
1F
100
AcDbEntity
  8
해칭선
100
AcDbCircle
 10
0.0
 20
0.0
 30
0.0
 40
3.000000000000001
  0
INSERT
  5
D8
330
1F
100
AcDbEntity
  8
0
  6
Continuous
 62
     7
100
AcDbBlockReference
 66
     1
  2
블럭10
 10
-1.940272932125196
 20
-52.04717430164393
 30
0.0
  0
ATTRIB
  5
D9
330
D8
100
AcDbEntity
  8
FORMAT
 62
     2
100
AcDbText
 10
-12.08190894426182
 20
-49.97180738881175
 30
0.0
 40
4.233333333333333
  1
EM211032 [ 2 FLUTE ]
 41
0.75
  7
SLDTEXTSTYLE0
 11
-12.08190894426182
 21
-52.08847405547841
 31
0.0
100
AcDbAttribute
  2
AUTOATTR0
 70
     0
 74
     1
  0
SEQEND
  5
DA
330
D8
100
AcDbEntity
  8
0
  6
Continuous
 62
     7
  0
HATCH
  5
DB
330
1F
100
AcDbEntity
  8
중심선
100
AcDbHatch
 10
0.0
 20
0.0
 30
0.0
210
0.0
220
0.0
230
1.0
  2
SOLID
 70
     1
 71
     0
 91
        1
 92
        0
 93
        4
 72
     1
 10
3.774636372255639
 20
-35.8
 11
0.328361128418357
 21
-35.8
 72
     1
 10
0.328361128418357
 20
-35.8
 11
-1.799868730785693
 21
-38.3363255805726
 72
     1
 10
-1.799868730785694
 20
-38.3363255805726
 11
1.646439598164765
 21
-38.3362861512701
 72
     1
 10
1.646439598164765
 20
-38.3362861512701
 11
3.774636372255639
 21
-35.8
 97
        0
 75
     0
 76
     1
 98
        1
 10
2.0
 20
-0.0010749287238939
  0
HATCH
  5
DC
330
1F
100
AcDbEntity
  8
중심선
100
AcDbHatch
 10
0.0
 20
0.0
 30
0.0
210
0.0
220
0.0
230
1.0
  2
SOLID
 70
     1
 71
     0
 91
        1
 92
        0
 93
        4
 72
     1
 10
8.787400363291589
 20
-35.80000000000003
 11
5.341125119454335
 21
-35.79999999999998
 72
     1
 10
5.341125119454336
 20
-35.79999999999998
 11
0.8099871110969188
 21
-41.20000000000002
 72
     1
 10
0.8099871110969199
 20
-41.20000000000002
 11
4.256262354934202
 21
-41.20000000000002
 72
     1
 10
4.256262354934202
 20
-41.20000000000002
 11
8.78740036329159
 21
-35.80000000000003
 97
        0
 75
     0
 76
     1
 98
        1
 10
2.0
 20
-0.0010749287238939
  0
HATCH
  5
DD
330
1F
100
AcDbEntity
  8
중심선
100
AcDbHatch
 10
0.0
 20
0.0
 30
0.0
210
0.0
220
0.0
230
1.0
  2
SOLID
 70
     1
 71
     0
 91
        1
 92
        0
 93
        4
 72
     1
 10
13.80016435432751
 20
-35.79999999999998
 11
10.3538891104904
 21
-35.79999999999998
 72
     1
 10
10.3538891104904
 20
-35.79999999999998
 11
3.305452208601121
 21
-44.20000000000002
 72
     1
 10
3.305452208601121
 20
-44.20000000000002
 11
6.751727452438404
 21
-44.20000000000002
 72
     1
 10
6.751727452438404
 20
-44.20000000000002
 11
13.80016435432751
 21
-35.79999999999998
 97
        0
 75
     0
 76
     1
 98
        1
 10
2.0
 20
-0.0010749287238939
  0
HATCH
  5
DE
330
1F
100
AcDbEntity
  8
중심선
100
AcDbHatch
 10
0.0
 20
0.0
 30
0.0
210
0.0
220
0.0
230
1.0
  2
SOLID
 70
     1
 71
     0
 91
        1
 92
        0
 93
        6
 72
     3
 10
18.60005478533969
 20
-40.00000000005127
 11
3.960054785062283
 21
1.540882976769353E-10
 40
0.3939339440162628
 50
17.09539180608439
 51
320.0019657685078
 73
     0
 72
     1
 10
20.28305444104028
 20
-38.58789400463831
 11
22.58835631474132
 21
-36.6535672945904
 72
     3
 10
18.60005478528684
 20
-40.00000000000014
 11
6.600054785286829
 21
-1.278976924368180E-13
 40
0.636358354079598
 50
39.99873849337384
 51
368.4976242363724
 73
     1
 72
     1
 10
25.02538727718745
 20
-39.03999999993002
 11
17.28012209212279
 21
-39.03999999993002
 72
     1
 10
17.28012209212279
 20
-39.03999999993002
 11
17.28009704767683
 21
-40.95999999992991
 72
     1
 10
17.28009704767683
 20
-40.95999999992991
 11
21.72147681714887
 21
-40.95999999992988
 97
        0
 75
     0
 76
     1
 98
        1
 10
2.0
 20
-0.0010749287238939
  0
DIMENSION
  5
DF
330
1F
100
AcDbEntity
  8
치수문자_일반주서
100
AcDbDimension
  2
_D
 10
-51.29999999999993
 20
-6.350000000000044
 30
0.0
 11
-51.30000000000003
 21
22.99574999999995
 31
0.0
 70
   160
  1
%%c<>
 71
     2
 42
12.69999999999999
 52
-270.0
  3
SLDDIMSTYLE1
100
AcDbAlignedDimension
 13
-38.79999999999998
 23
6.349999999999993
 33
0.0
 14
-38.79074662264488
 24
-6.349999999999998
 34
0.0
 50
90.0000000000002
100
AcDbRotatedDimension
1001
PE_URL
1000

1001
ACAD
1000
DSTYLE
1002
{
1070
   171
1070
     6
1070
   273
1070
     7
1002
}
1001
ACAD_DSTYLE_DIMFLIPARROW_SYMBOL
1070
   385
1070
     0
1001
ACAD_DSTYLE_DIMFLIPARROW_WHICH_SYMBOL
1070
   386
1070
     3
  0
DIMENSION
  5
F4
330
1F
100
AcDbEntity
  8
치수문자_일반주서
100
AcDbDimension
  2
_D_1
 10
77.9287300096944
 20
-6.349999999999838
 30
0.0
 11
77.92873000969429
 21
26.24079931139165
 31
0.0
 70
   160
  1
%%c<>
 71
     2
 42
12.70000000000009
 52
-270.0
  3
SLDDIMSTYLE1
100
AcDbAlignedDimension
 13
62.80000000000001
 23
6.350000000000195
 33
0.0
 14
62.81110853966267
 24
-6.349999999999898
 34
0.0
 50
90.0000000000002
100
AcDbRotatedDimension
1001
ACAD
1000
DSTYLE
1002
{
1070
   171
1070
     6
1070
   273
1070
     7
1002
}
1001
PE_URL
1000

1001
ACAD_DSTYLE_DIMFLIPARROW_SYMBOL
1070
   385
1070
     0
1001
ACAD_DSTYLE_DIMFLIPARROW_WHICH_SYMBOL
1070
   386
1070
     3
  0
DIMENSION
  5
108
330
1F
100
AcDbEntity
  8
치수문자_일반주서
100
AcDbDimension
  2
_D_2
 10
12.00000000000001
 20
26.83969310958505
 30
0.0
 11
37.50681402746532
 21
26.83969310958505
 31
0.0
 70
   160
  1
<>
 71
     2
 42
50.8
  3
SLDDIMSTYLE1
100
AcDbAlignedDimension
 13
62.80000000000001
 23
6.350000000000195
 33
0.0
 14
12.00000000000001
 24
6.350000000000019
 34
0.0
 50
-0.0000000000000341
100
AcDbRotatedDimension
1001
PE_URL
1000

1001
ACAD
1000
DSTYLE
1002
{
1070
   171
1070
     6
1070
   273
1070
     7
1002
}
  0
DIMENSION
  5
11B
330
1F
100
AcDbEntity
  8
치수문자_일반주서
100
AcDbDimension
  2
_D_3
 10
-38.79999999999998
 20
46.28755268697243
 30
0.0
 11
11.54281471613693
 21
46.28755268697243
 31
0.0
 70
   160
  1
<>
 71
     2
 42
101.6
  3
SLDDIMSTYLE1
100
AcDbAlignedDimension
 13
62.80000000000001
 23
6.350000000000195
 33
0.0
 14
-38.79999999999998
 24
6.34999999999999
 34
0.0
 50
0.000000000000004
100
AcDbRotatedDimension
1001
PE_URL
1000

1001
ACAD
1000
DSTYLE
1002
{
1070
   171
1070
     6
1070
   273
1070
     7
1002
}
  0
LINE
  5
12E
330
1F
100
AcDbEntity
  8
참조1
100
AcDbLine
 10
85.30561285443832
 20
7.440000000000002
 30
0.0
 11
85.30561285443832
 21
-7.440000000000003
 31
0.0
  0
LINE
  5
12F
330
1F
100
AcDbEntity
  8
참조1
100
AcDbLine
 10
98.00561285443833
 20
5.440000000000002
 30
0.0
 11
85.30561285443832
 21
5.440000000000002
 31
0.0
  0
SOLID
  5
130
330
1F
100
AcDbEntity
  8
참조1
100
AcDbTrace
 10
85.30561285443832
 20
5.440000000000002
 30
0.0
 11
91.65561285443832
 21
4.424000000000002
 31
0.0
 12
91.65561285443832
 22
6.456000000000002
 32
0.0
 13
91.65561285443832
 23
6.456000000000002
 33
0.0
  0
LINE
  5
131
330
1F
100
AcDbEntity
  8
참조1
100
AcDbLine
 10
98.00561285443833
 20
-5.440000000000003
 30
0.0
 11
85.30561285443832
 21
-5.440000000000003
 31
0.0
  0
SOLID
  5
132
330
1F
100
AcDbEntity
  8
참조1
100
AcDbTrace
 10
85.30561285443832
 20
-5.440000000000003
 30
0.0
 11
91.65561285443832
 21
-6.456000000000003
 31
0.0
 12
91.65561285443832
 22
-4.424000000000003
 32
0.0
 13
91.65561285443832
 23
-4.424000000000003
 33
0.0
  0
MTEXT
  5
133
330
1F
100
AcDbEntity
  8
참조1
100
AcDbMText
 10
94.7031029469086
 20
10.98821664464994
 30
0.0
 40
3.5
 41
0.0
 71
     1
 72
     1
  1
A
  7
SLDTEXTSTYLE0
 73
     1
 44
1.0
  0
MTEXT
  5
134
330
1F
100
AcDbEntity
  8
참조1
100
AcDbMText
 10
94.7031029469086
 20
0.1082166446499312
 30
0.0
 40
3.5
 41
0.0
 71
     1
 72
     1
  1
A
  7
SLDTEXTSTYLE0
 73
     1
 44
1.0
  0
INSERT
  5
13B
330
1F
100
AcDbEntity
  8
해칭선
100
AcDbBlockReference
  2
SW_DOWELSYMBOL_0
 10
0.0
 20
0.0
 30
0.0
  0
MTEXT
  5
1B0
102
{ACAD_REACTORS
330
1B1
102
}
330
1F
100
AcDbEntity
  8
0
100
AcDbMText
 10
72.91590010891021
 20
-20.95928370825906
 30
0.0
 40
3.5
 41
0.0
 71
     7
 72
     1
  1
{R0.51[.020"]}
 73
     1
 44
1.0
1001
ACAD
1000
ACAD_MTEXT_DEFINED_HEIGHT_BEGIN
1070
    46
1040
3.5
1000
ACAD_MTEXT_DEFINED_HEIGHT_END
  0
LEADER
  5
1B1
102
{ACAD_XDICTIONARY
360
1B2
102
}
330
1F
100
AcDbEntity
  8
0
100
AcDbLeader
  3
ISO-25
 73
     0
 74
     0
 75
     1
 40
3.5
 41
29.75
 76
     3
 10
62.48518692720545
 20
-6.61259278473369
 30
0.0
 10
68.0899001089102
 20
-19.20928370825906
 30
0.0
 10
71.3919001089102
 20
-19.20928370825906
 30
0.0
340
1B0
213
0.0
223
1.75
233
0.0
1001
ACAD
1000
DSTYLE
1002
{
1070
    77
1070
     0
1070
   179
1070
     2
1070
   143
1040
0.0393700787401575
1070
    41
1040
3.302
1070
    44
1040
1.0
1070
    42
1040
1.0
1070
   147
1040
1.524
1070
    73
1070
     1
1070
    74
1070
     1
1070
   140
1040
3.5
1070
   284
1070
     0
1070
    78
1070
     0
1002
}
  0
ARC
  5
1BC
330
1F
100
AcDbEntity
  8
외형선
  6
Continuous
 62
     1
370
    15
100
AcDbCircle
 10
62.29200000000001
 20
5.842000000000199
 30
0.0
 40
0.5080000000000003
100
AcDbArc
 50
0.0
 51
90.0
1001
PE_URL
1000

  0
ARC
  5
1BD
330
1F
100
AcDbEntity
  8
외형선
  6
Continuous
 62
     1
370
    15
100
AcDbCircle
 10
62.29200000000002
 20
-5.842000000000189
 30
0.0
 40
0.5080000000000003
100
AcDbArc
 50
270.0
 51
0.0000000000001002
1001
PE_URL
1000

  0
ENDSEC
  0
SECTION
  2
OBJECTS
  0
DICTIONARY
  5
C
330
0
100
AcDbDictionary
281
     1
  3
ACAD_DETAILVIEWSTYLE
350
1B8
  3
ACAD_GROUP
350
D
  3
ACAD_LAYOUT
350
1A
  3
ACAD_MLINESTYLE
350
17
  3
ACAD_PLOTSETTINGS
350
19
  3
ACAD_PLOTSTYLENAME
350
E
  3
ACAD_SCALELIST
350
47
  3
ACAD_SECTIONVIEWSTYLE
350
1B9
  3
AcDbVariableDictionary
350
1B3
  3
APPDATA
350
15D
  3
DWGPROPS
350
204
  0
DICTIONARY
  5
1B2
330
1B1
100
AcDbDictionary
280
     1
281
     1
  0
DICTIONARY
  5
1B8
102
{ACAD_REACTORS
330
C
102
}
330
C
100
AcDbDictionary
281
     1
  0
DICTIONARY
  5
D
102
{ACAD_REACTORS
330
C
102
}
330
C
100
AcDbDictionary
281
     1
  0
DICTIONARY
  5
1A
102
{ACAD_REACTORS
330
C
102
}
330
C
100
AcDbDictionary
281
     1
  3
Layout1
350
1E
  3
Layout2
350
26
  3
Model
350
22
  0
DICTIONARY
  5
17
102
{ACAD_REACTORS
330
C
102
}
330
C
100
AcDbDictionary
281
     1
  3
Standard
350
18
  0
DICTIONARY
  5
19
102
{ACAD_REACTORS
330
C
102
}
330
C
100
AcDbDictionary
281
     1
  0
ACDBDICTIONARYWDFLT
  5
E
102
{ACAD_REACTORS
330
C
102
}
330
C
100
AcDbDictionary
281
     1
  3
Normal
350
F
100
AcDbDictionaryWithDefault
340
F
  0
DICTIONARY
  5
47
102
{ACAD_REACTORS
330
C
102
}
330
C
100
AcDbDictionary
281
     1
  3
A0
350
48
  3
A1
350
49
  3
A2
350
4A
  3
A3
350
4B
  3
A4
350
4C
  3
A5
350
4D
  3
A6
350
4E
  3
A7
350
4F
  3
A8
350
50
  3
A9
350
51
  3
B0
350
52
  3
B1
350
53
  3
B2
350
54
  3
B3
350
55
  3
B4
350
56
  3
B5
350
57
  3
B6
350
58
  3
B7
350
59
  3
B8
350
5A
  3
B9
350
5B
  3
C0
350
5C
  3
C1
350
5D
  3
C2
350
5E
  3
C3
350
5F
  3
C4
350
60
  3
C5
350
61
  3
C6
350
62
  3
C7
350
63
  3
C8
350
64
  3
C9
350
65
  3
D0
350
66
  3
D1
350
67
  3
D2
350
68
  0
DICTIONARY
  5
1B9
102
{ACAD_REACTORS
330
C
102
}
330
C
100
AcDbDictionary
281
     1
  0
DICTIONARY
  5
1B3
102
{ACAD_REACTORS
330
C
102
}
330
C
100
AcDbDictionary
281
     1
  0
DICTIONARY
  5
15D
102
{ACAD_REACTORS
330
C
102
}
330
C
100
AcDbDictionary
281
     1
  0
XRECORD
  5
204
102
{ACAD_REACTORS
330
C
102
}
330
C
100
AcDbXrecord
280
     1
  1
DWGPROPS COOKIE
  2

  3

  4

  6

  7

  8
USER
  9

300
=
301
=
302
=
303
=
304
=
305
=
306
=
307
=
308
=
309
=
 40
0.0
 41
2458288.272847176
 42
2458303.004721378
  1

 90
        0
  0
LAYOUT
  5
1E
102
{ACAD_REACTORS
330
1A
102
}
330
1A
100
AcDbPlotSettings
  1

  2
none_device
  4

  6

 40
0.0
 41
0.0
 42
0.0
 43
0.0
 44
0.0
 45
0.0
 46
0.0
 47
0.0
 48
0.0
 49
0.0
140
0.0
141
0.0
142
1.0
143
1.0
 70
   688
 72
     1
 73
     0
 74
     5
  7

 75
    16
147
1.0
148
0.0
149
0.0
100
AcDbLayout
  1
Layout1
 70
     1
 71
     1
 10
0.0
 20
0.0
 11
420.0
 21
297.0
 12
0.0
 22
0.0
 32
0.0
 14
1.000000000000000E+20
 24
1.000000000000000E+20
 34
1.000000000000000E+20
 15
-1.000000000000000E+20
 25
-1.000000000000000E+20
 35
-1.000000000000000E+20
146
0.0
 13
0.0
 23
0.0
 33
0.0
 16
1.0
 26
0.0
 36
0.0
 17
0.0
 27
1.0
 37
0.0
 76
     0
330
1B
  0
LAYOUT
  5
26
102
{ACAD_REACTORS
330
1A
102
}
330
1A
100
AcDbPlotSettings
  1

  2
none_device
  4

  6

 40
0.0
 41
0.0
 42
0.0
 43
0.0
 44
0.0
 45
0.0
 46
0.0
 47
0.0
 48
0.0
 49
0.0
140
0.0
141
0.0
142
1.0
143
1.0
 70
   688
 72
     1
 73
     0
 74
     5
  7

 75
    16
147
1.0
148
0.0
149
0.0
100
AcDbLayout
  1
Layout2
 70
     1
 71
     2
 10
0.0
 20
0.0
 11
0.0
 21
0.0
 12
0.0
 22
0.0
 32
0.0
 14
0.0
 24
0.0
 34
0.0
 15
0.0
 25
0.0
 35
0.0
146
0.0
 13
0.0
 23
0.0
 33
0.0
 16
1.0
 26
0.0
 36
0.0
 17
0.0
 27
1.0
 37
0.0
 76
     0
330
23
  0
LAYOUT
  5
22
102
{ACAD_REACTORS
330
1A
102
}
330
1A
100
AcDbPlotSettings
  1

  2
none_device
  4
ANSI_A_(11.00_x_8.50_Inches)
  6

 40
6.35
 41
19.05
 42
6.35000508
 43
19.05000254
 44
279.4
 45
215.9
 46
105.7818028528329
 47
99.70087868516701
 48
0.0
 49
0.0
140
0.0
141
0.0
142
0.0680206271096811
143
1.0
 70
  1696
 72
     0
 73
     0
 74
     0
  7

 75
     0
147
0.0235690232323232
148
0.0
149
0.0
100
AcDbLayout
  1
Model
 70
     1
 71
     0
 10
0.0
 20
0.0
 11
420.0
 21
297.0
 12
0.0
 22
0.0
 32
0.0
 14
-55.67500000000008
 24
-49.97180738881175
 34
0.0
 15
102.6659001089102
 25
50.66255268697243
 35
0.0
146
0.0
 13
0.0
 23
0.0
 33
0.0
 16
1.0
 26
0.0
 36
0.0
 17
0.0
 27
1.0
 37
0.0
 76
     0
330
1F
331
29
  0
MLINESTYLE
  5
18
102
{ACAD_REACTORS
330
17
102
}
330
17
100
AcDbMlineStyle
  2
Standard
 70
     0
  3

 62
   256
 51
90.0
 52
90.0
 71
     2
 49
0.5
 62
   256
  6
BYLAYER
 49
-0.5
 62
   256
  6
BYLAYER
  0
ACDBPLACEHOLDER
  5
F
102
{ACAD_REACTORS
330
E
102
}
330
E
  0
SCALE
  5
48
102
{ACAD_REACTORS
330
47
102
}
330
47
100
AcDbScale
 70
     0
300
1:1
140
1.0
141
1.0
290
     1
  0
SCALE
  5
49
102
{ACAD_REACTORS
330
47
102
}
330
47
100
AcDbScale
 70
     0
300
1:2
140
1.0
141
2.0
290
     0
  0
SCALE
  5
4A
102
{ACAD_REACTORS
330
47
102
}
330
47
100
AcDbScale
 70
     0
300
1:4
140
1.0
141
4.0
290
     0
  0
SCALE
  5
4B
102
{ACAD_REACTORS
330
47
102
}
330
47
100
AcDbScale
 70
     0
300
1:5
140
1.0
141
5.0
290
     0
  0
SCALE
  5
4C
102
{ACAD_REACTORS
330
47
102
}
330
47
100
AcDbScale
 70
     0
300
1:8
140
1.0
141
8.0
290
     0
  0
SCALE
  5
4D
102
{ACAD_REACTORS
330
47
102
}
330
47
100
AcDbScale
 70
     0
300
1:10
140
1.0
141
10.0
290
     0
  0
SCALE
  5
4E
102
{ACAD_REACTORS
330
47
102
}
330
47
100
AcDbScale
 70
     0
300
1:16
140
1.0
141
16.0
290
     0
  0
SCALE
  5
4F
102
{ACAD_REACTORS
330
47
102
}
330
47
100
AcDbScale
 70
     0
300
1:20
140
1.0
141
20.0
290
     0
  0
SCALE
  5
50
102
{ACAD_REACTORS
330
47
102
}
330
47
100
AcDbScale
 70
     0
300
1:30
140
1.0
141
30.0
290
     0
  0
SCALE
  5
51
102
{ACAD_REACTORS
330
47
102
}
330
47
100
AcDbScale
 70
     0
300
1:40
140
1.0
141
40.0
290
     0
  0
SCALE
  5
52
102
{ACAD_REACTORS
330
47
102
}
330
47
100
AcDbScale
 70
     0
300
1:50
140
1.0
141
50.0
290
     0
  0
SCALE
  5
53
102
{ACAD_REACTORS
330
47
102
}
330
47
100
AcDbScale
 70
     0
300
1:100
140
1.0
141
100.0
290
     0
  0
SCALE
  5
54
102
{ACAD_REACTORS
330
47
102
}
330
47
100
AcDbScale
 70
     0
300
2:1
140
2.0
141
1.0
290
     0
  0
SCALE
  5
55
102
{ACAD_REACTORS
330
47
102
}
330
47
100
AcDbScale
 70
     0
300
4:1
140
4.0
141
1.0
290
     0
  0
SCALE
  5
56
102
{ACAD_REACTORS
330
47
102
}
330
47
100
AcDbScale
 70
     0
300
8:1
140
8.0
141
1.0
290
     0
  0
SCALE
  5
57
102
{ACAD_REACTORS
330
47
102
}
330
47
100
AcDbScale
 70
     0
300
10:1
140
10.0
141
1.0
290
     0
  0
SCALE
  5
58
102
{ACAD_REACTORS
330
47
102
}
330
47
100
AcDbScale
 70
     0
300
100:1
140
100.0
141
1.0
290
     0
  0
SCALE
  5
59
102
{ACAD_REACTORS
330
47
102
}
330
47
100
AcDbScale
 70
     0
300
1/128" = 1'-0"
140
0.0078125
141
12.0
290
     0
  0
SCALE
  5
5A
102
{ACAD_REACTORS
330
47
102
}
330
47
100
AcDbScale
 70
     0
300
1/64" = 1'-0"
140
0.015625
141
12.0
290
     0
  0
SCALE
  5
5B
102
{ACAD_REACTORS
330
47
102
}
330
47
100
AcDbScale
 70
     0
300
1/32" = 1'-0"
140
0.03125
141
12.0
290
     0
  0
SCALE
  5
5C
102
{ACAD_REACTORS
330
47
102
}
330
47
100
AcDbScale
 70
     0
300
1/16" = 1'-0"
140
0.0625
141
12.0
290
     0
  0
SCALE
  5
5D
102
{ACAD_REACTORS
330
47
102
}
330
47
100
AcDbScale
 70
     0
300
3/32" = 1'-0"
140
0.09375
141
12.0
290
     0
  0
SCALE
  5
5E
102
{ACAD_REACTORS
330
47
102
}
330
47
100
AcDbScale
 70
     0
300
1/8" = 1'-0"
140
0.125
141
12.0
290
     0
  0
SCALE
  5
5F
102
{ACAD_REACTORS
330
47
102
}
330
47
100
AcDbScale
 70
     0
300
3/16" = 1'-0"
140
0.1875
141
12.0
290
     0
  0
SCALE
  5
60
102
{ACAD_REACTORS
330
47
102
}
330
47
100
AcDbScale
 70
     0
300
1/4" = 1'-0"
140
0.25
141
12.0
290
     0
  0
SCALE
  5
61
102
{ACAD_REACTORS
330
47
102
}
330
47
100
AcDbScale
 70
     0
300
3/8" = 1'-0"
140
0.375
141
12.0
290
     0
  0
SCALE
  5
62
102
{ACAD_REACTORS
330
47
102
}
330
47
100
AcDbScale
 70
     0
300
1/2" = 1'-0"
140
0.5
141
12.0
290
     0
  0
SCALE
  5
63
102
{ACAD_REACTORS
330
47
102
}
330
47
100
AcDbScale
 70
     0
300
3/4" = 1'-0"
140
0.75
141
12.0
290
     0
  0
SCALE
  5
64
102
{ACAD_REACTORS
330
47
102
}
330
47
100
AcDbScale
 70
     0
300
1" = 1'-0"
140
1.0
141
12.0
290
     0
  0
SCALE
  5
65
102
{ACAD_REACTORS
330
47
102
}
330
47
100
AcDbScale
 70
     0
300
1-1/2" = 1'-0"
140
1.5
141
12.0
290
     0
  0
SCALE
  5
66
102
{ACAD_REACTORS
330
47
102
}
330
47
100
AcDbScale
 70
     0
300
3" = 1'-0"
140
3.0
141
12.0
290
     0
  0
SCALE
  5
67
102
{ACAD_REACTORS
330
47
102
}
330
47
100
AcDbScale
 70
     0
300
6" = 1'-0"
140
6.0
141
12.0
290
     0
  0
SCALE
  5
68
102
{ACAD_REACTORS
330
47
102
}
330
47
100
AcDbScale
 70
     0
300
1'-0" = 1'-0"
140
12.0
141
12.0
290
     0
  0
ENDSEC
  0
EOF
