  0
SECTION
  2
HEADER
  9
$ACADVER
  1
AC1015
  9
$ACADMAINTVER
 70
     6
  9
$DWGCODEPAGE
  3
ANSI_949
  9
$INSBASE
 10
0.0
 20
0.0
 30
0.0
  9
$EXTMIN
 10
-50.79700161012526
 20
-49.97180738881174
 30
0.0
  9
$EXTMAX
 10
96.00561285443831
 20
42.99825689628484
 30
0.0
  9
$LIMMIN
 10
0.0
 20
0.0
  9
$LIMMAX
 10
420.0
 20
297.0
  9
$ORTHOMODE
 70
     1
  9
$REGENMODE
 70
     1
  9
$FILLMODE
 70
     1
  9
$QTEXTMODE
 70
     0
  9
$MIRRTEXT
 70
     1
  9
$LTSCALE
 40
1.0
  9
$ATTMODE
 70
     1
  9
$TEXTSIZE
 40
3.5
  9
$TRACEWID
 40
1.0
  9
$TEXTSTYLE
  7
Standard
  9
$CLAYER
  8
0
  9
$CELTYPE
  6
ByLayer
  9
$CECOLOR
 62
   256
  9
$CELTSCALE
 40
1.0
  9
$DISPSILH
 70
     0
  9
$DIMSCALE
 40
1.0
  9
$DIMASZ
 40
3.302
  9
$DIMEXO
 40
1.0
  9
$DIMDLI
 40
3.75
  9
$DIMRND
 40
0.0
  9
$DIMDLE
 40
0.0
  9
$DIMEXE
 40
1.0
  9
$DIMTP
 40
0.0
  9
$DIMTM
 40
0.0
  9
$DIMTXT
 40
3.5
  9
$DIMCEN
 40
2.5
  9
$DIMTSZ
 40
0.0
  9
$DIMTOL
 70
     0
  9
$DIMLIM
 70
     0
  9
$DIMTIH
 70
     1
  9
$DIMTOH
 70
     1
  9
$DIMSE1
 70
     0
  9
$DIMSE2
 70
     0
  9
$DIMTAD
 70
     1
  9
$DIMZIN
 70
     0
  9
$DIMBLK
  1

  9
$DIMASO
 70
     1
  9
$DIMSHO
 70
     1
  9
$DIMPOST
  1

  9
$DIMAPOST
  1

  9
$DIMALT
 70
     0
  9
$DIMALTD
 70
     3
  9
$DIMALTF
 40
0.0393700787401575
  9
$DIMLFAC
 40
1.0
  9
$DIMTOFL
 70
     1
  9
$DIMTVP
 40
0.0
  9
$DIMTIX
 70
     0
  9
$DIMSOXD
 70
     0
  9
$DIMSAH
 70
     0
  9
$DIMBLK1
  1

  9
$DIMBLK2
  1

  9
$DIMSTYLE
  2
ISO-25
  9
$DIMCLRD
 70
     0
  9
$DIMCLRE
 70
     0
  9
$DIMCLRT
 70
     0
  9
$DIMTFAC
 40
1.0
  9
$DIMGAP
 40
1.524
  9
$DIMJUST
 70
     0
  9
$DIMSD1
 70
     0
  9
$DIMSD2
 70
     0
  9
$DIMTOLJ
 70
     0
  9
$DIMTZIN
 70
     0
  9
$DIMALTZ
 70
     0
  9
$DIMALTTZ
 70
     0
  9
$DIMUPT
 70
     0
  9
$DIMDEC
 70
     2
  9
$DIMTDEC
 70
     2
  9
$DIMALTU
 70
     2
  9
$DIMALTTD
 70
     3
  9
$DIMTXSTY
  7
Standard
  9
$DIMAUNIT
 70
     0
  9
$DIMADEC
 70
     2
  9
$DIMALTRND
 40
0.0
  9
$DIMAZIN
 70
     0
  9
$DIMDSEP
 70
    44
  9
$DIMATFIT
 70
     3
  9
$DIMFRAC
 70
     0
  9
$DIMLDRBLK
  1

  9
$DIMLUNIT
 70
     2
  9
$DIMLWD
 70
    -2
  9
$DIMLWE
 70
    -2
  9
$DIMTMOVE
 70
     0
  9
$LUNITS
 70
     2
  9
$LUPREC
 70
     2
  9
$SKETCHINC
 40
1.0
  9
$FILLETRAD
 40
0.508
  9
$AUNITS
 70
     0
  9
$AUPREC
 70
     2
  9
$MENU
  1
.
  9
$ELEVATION
 40
0.0
  9
$PELEVATION
 40
0.0
  9
$THICKNESS
 40
0.0
  9
$LIMCHECK
 70
     0
  9
$CHAMFERA
 40
0.0
  9
$CHAMFERB
 40
0.0
  9
$CHAMFERC
 40
0.0
  9
$CHAMFERD
 40
0.0
  9
$SKPOLY
 70
     0
  9
$TDCREATE
 40
2458288.647658299
  9
$TDUCREATE
 40
2458288.272658299
  9
$TDUPDATE
 40
2458303.380270694
  9
$TDUUPDATE
 40
2458303.005270694
  9
$TDINDWG
 40
0.0037138657
  9
$TDUSRTIMER
 40
0.0005473843
  9
$USRTIMER
 70
     1
  9
$ANGBASE
 50
0.0
  9
$ANGDIR
 70
     0
  9
$PDMODE
 70
     0
  9
$PDSIZE
 40
-1.0
  9
$PLINEWID
 40
0.0
  9
$SPLFRAME
 70
     0
  9
$SPLINETYPE
 70
     6
  9
$SPLINESEGS
 70
     8
  9
$HANDSEED
  5
1FE
  9
$SURFTAB1
 70
     6
  9
$SURFTAB2
 70
     6
  9
$SURFTYPE
 70
     6
  9
$SURFU
 70
     6
  9
$SURFV
 70
     6
  9
$UCSBASE
  2

  9
$UCSNAME
  2

  9
$UCSORG
 10
0.0
 20
0.0
 30
0.0
  9
$UCSXDIR
 10
1.0
 20
0.0
 30
0.0
  9
$UCSYDIR
 10
0.0
 20
1.0
 30
0.0
  9
$UCSORTHOREF
  2

  9
$UCSORTHOVIEW
 70
     0
  9
$UCSORGTOP
 10
0.0
 20
0.0
 30
0.0
  9
$UCSORGBOTTOM
 10
0.0
 20
0.0
 30
0.0
  9
$UCSORGLEFT
 10
0.0
 20
0.0
 30
0.0
  9
$UCSORGRIGHT
 10
0.0
 20
0.0
 30
0.0
  9
$UCSORGFRONT
 10
0.0
 20
0.0
 30
0.0
  9
$UCSORGBACK
 10
0.0
 20
0.0
 30
0.0
  9
$PUCSBASE
  2

  9
$PUCSNAME
  2

  9
$PUCSORG
 10
0.0
 20
0.0
 30
0.0
  9
$PUCSXDIR
 10
1.0
 20
0.0
 30
0.0
  9
$PUCSYDIR
 10
0.0
 20
1.0
 30
0.0
  9
$PUCSORTHOREF
  2

  9
$PUCSORTHOVIEW
 70
     0
  9
$PUCSORGTOP
 10
0.0
 20
0.0
 30
0.0
  9
$PUCSORGBOTTOM
 10
0.0
 20
0.0
 30
0.0
  9
$PUCSORGLEFT
 10
0.0
 20
0.0
 30
0.0
  9
$PUCSORGRIGHT
 10
0.0
 20
0.0
 30
0.0
  9
$PUCSORGFRONT
 10
0.0
 20
0.0
 30
0.0
  9
$PUCSORGBACK
 10
0.0
 20
0.0
 30
0.0
  9
$USERI1
 70
     0
  9
$USERI2
 70
     0
  9
$USERI3
 70
     0
  9
$USERI4
 70
     0
  9
$USERI5
 70
     0
  9
$USERR1
 40
0.0
  9
$USERR2
 40
0.0
  9
$USERR3
 40
0.0
  9
$USERR4
 40
0.0
  9
$USERR5
 40
0.0
  9
$WORLDVIEW
 70
     1
  9
$SHADEDGE
 70
     3
  9
$SHADEDIF
 70
    70
  9
$TILEMODE
 70
     1
  9
$MAXACTVP
 70
    64
  9
$PINSBASE
 10
0.0
 20
0.0
 30
0.0
  9
$PLIMCHECK
 70
     0
  9
$PEXTMIN
 10
1.000000000000000E+20
 20
1.000000000000000E+20
 30
1.000000000000000E+20
  9
$PEXTMAX
 10
-1.000000000000000E+20
 20
-1.000000000000000E+20
 30
-1.000000000000000E+20
  9
$PLIMMIN
 10
0.0
 20
0.0
  9
$PLIMMAX
 10
0.0
 20
0.0
  9
$UNITMODE
 70
     0
  9
$VISRETAIN
 70
     1
  9
$PLINEGEN
 70
     0
  9
$PSLTSCALE
 70
     1
  9
$TREEDEPTH
 70
  3020
  9
$CMLSTYLE
  2
Standard
  9
$CMLJUST
 70
     0
  9
$CMLSCALE
 40
20.0
  9
$PROXYGRAPHICS
 70
     1
  9
$MEASUREMENT
 70
     1
  9
$CELWEIGHT
370
    -1
  9
$ENDCAPS
280
     0
  9
$JOINSTYLE
280
     0
  9
$LWDISPLAY
290
     1
  9
$INSUNITS
 70
     4
  9
$HYPERLINKBASE
  1

  9
$STYLESHEET
  1

  9
$XEDIT
290
     1
  9
$CEPSNTYPE
380
     0
  9
$PSTYLEMODE
290
     1
  9
$FINGERPRINTGUID
  2
{1224C0F0-9F31-4C1F-9FAA-1B137043FA01}
  9
$VERSIONGUID
  2
{FAEB1C32-E019-11D5-929B-00C0DF256EC4}
  9
$EXTNAMES
290
     1
  9
$PSVPSCALE
 40
0.0
  9
$OLESTARTUP
290
     0
  0
ENDSEC
  0
SECTION
  2
CLASSES
  0
CLASS
  1
ACDBDICTIONARYWDFLT
  2
AcDbDictionaryWithDefault
  3
ObjectDBX Classes
 90
        0
280
     0
281
     0
  0
CLASS
  1
VISUALSTYLE
  2
AcDbVisualStyle
  3
ObjectDBX Classes
 90
     4095
280
     0
281
     0
  0
CLASS
  1
MATERIAL
  2
AcDbMaterial
  3
ObjectDBX Classes
 90
     1153
280
     0
281
     0
  0
CLASS
  1
SCALE
  2
AcDbScale
  3
ObjectDBX Classes
 90
     1153
280
     0
281
     0
  0
CLASS
  1
SUN
  2
AcDbSun
  3
SCENEOE
 90
     1153
280
     0
281
     0
  0
CLASS
  1
ACDBPLACEHOLDER
  2
AcDbPlaceHolder
  3
ObjectDBX Classes
 90
        0
280
     0
281
     0
  0
CLASS
  1
LAYOUT
  2
AcDbLayout
  3
ObjectDBX Classes
 90
        0
280
     0
281
     0
  0
CLASS
  1
TABLESTYLE
  2
AcDbTableStyle
  3
ObjectDBX Classes
 90
     4095
280
     0
281
     0
  0
CLASS
  1
MLEADERSTYLE
  2
AcDbMLeaderStyle
  3
ACDB_MLEADERSTYLE_CLASS
 90
     4095
280
     0
281
     0
  0
ENDSEC
  0
SECTION
  2
TABLES
  0
TABLE
  2
VPORT
  5
8
330
0
100
AcDbSymbolTable
 70
     1
  0
VPORT
  5
29
330
8
100
AcDbSymbolTableRecord
100
AcDbViewportTableRecord
  2
*Active
 70
     0
 10
0.0
 20
0.0
 11
1.0
 21
1.0
 12
-37.04866869717466
 22
1.501968263926209
 13
0.0
 23
0.0
 14
10.0
 24
10.0
 15
10.0
 25
10.0
 16
0.0
 26
0.0
 36
1.0
 17
0.0
 27
0.0
 37
0.0
 40
148.1710399543722
 41
2.268018018018018
 42
50.0
 43
0.0
 44
0.0
 50
0.0
 51
0.0
 71
    16
 72
  2000
 73
     1
 74
     3
 75
     0
 76
     0
 77
     0
 78
     0
281
     0
 65
     1
110
0.0
120
0.0
130
0.0
111
1.0
121
0.0
131
0.0
112
0.0
122
1.0
132
0.0
 79
     0
146
0.0
  0
ENDTAB
  0
TABLE
  2
LTYPE
  5
5
330
0
100
AcDbSymbolTable
 70
     6
  0
LTYPE
  5
14
330
5
100
AcDbSymbolTableRecord
100
AcDbLinetypeTableRecord
  2
ByBlock
 70
     0
  3

 72
    65
 73
     0
 40
0.0
  0
LTYPE
  5
15
330
5
100
AcDbSymbolTableRecord
100
AcDbLinetypeTableRecord
  2
ByLayer
 70
     0
  3

 72
    65
 73
     0
 40
0.0
  0
LTYPE
  5
16
330
5
100
AcDbSymbolTableRecord
100
AcDbLinetypeTableRecord
  2
Continuous
 70
     0
  3
Solid line
 72
    65
 73
     0
 40
0.0
  0
LTYPE
  5
6A
330
5
100
AcDbSymbolTableRecord
100
AcDbLinetypeTableRecord
  2
HIDDEN
 70
     0
  3
Hidden __ __ __ __ __ __ __ __ __ __ __ __ __ __
 72
    65
 73
     2
 40
1.905
 49
1.27
 74
     0
 49
-0.635
 74
     0
  0
LTYPE
  5
6B
330
5
100
AcDbSymbolTableRecord
100
AcDbLinetypeTableRecord
  2
PHANTOM
 70
     0
  3
Phantom ______  __  __  ______  __  __  ______
 72
    65
 73
     6
 40
12.7
 49
6.35
 74
     0
 49
-1.27
 74
     0
 49
1.27
 74
     0
 49
-1.27
 74
     0
 49
1.27
 74
     0
 49
-1.27
 74
     0
  0
LTYPE
  5
6C
330
5
100
AcDbSymbolTableRecord
100
AcDbLinetypeTableRecord
  2
CENTER
 70
     0
  3
Center ____ _ ____ _ ____ _ ____ _ ____ _ ____
 72
    65
 73
     4
 40
10.16
 49
6.35
 74
     0
 49
-1.27
 74
     0
 49
1.27
 74
     0
 49
-1.27
 74
     0
  0
LTYPE
  5
6D
330
5
100
AcDbSymbolTableRecord
100
AcDbLinetypeTableRecord
  2
CENTERX2
 70
     0
  3
Center (2x) ________  __  ________  __  _____
 72
    65
 73
     4
 40
20.32
 49
12.7
 74
     0
 49
-2.54
 74
     0
 49
2.54
 74
     0
 49
-2.54
 74
     0
  0
LTYPE
  5
6E
330
5
100
AcDbSymbolTableRecord
100
AcDbLinetypeTableRecord
  2
DOT2
 70
     0
  3
Dot (.5x) ........................................
 72
    65
 73
     2
 40
0.635
 49
0.0
 74
     0
 49
-0.635
 74
     0
  0
ENDTAB
  0
TABLE
  2
LAYER
  5
2
330
0
100
AcDbSymbolTable
 70
    18
  0
LAYER
  5
10
330
2
100
AcDbSymbolTableRecord
100
AcDbLayerTableRecord
  2
0
 70
     0
 62
     7
  6
Continuous
370
    -3
390
F
  0
LAYER
  5
6F
330
2
100
AcDbSymbolTableRecord
100
AcDbLayerTableRecord
  2
FORMAT
 70
     0
 62
     2
  6
Continuous
370
    -3
390
F
  0
LAYER
  5
70
330
2
100
AcDbSymbolTableRecord
100
AcDbLayerTableRecord
  2
외형선
 70
     0
 62
     4
  6
Continuous
370
    30
390
F
  0
LAYER
  5
71
330
2
100
AcDbSymbolTableRecord
100
AcDbLayerTableRecord
  2
숨은선
 70
     0
 62
     2
  6
HIDDEN
370
    15
390
F
  0
LAYER
  5
72
330
2
100
AcDbSymbolTableRecord
100
AcDbLayerTableRecord
  2
중심선
 70
     0
 62
     1
  6
CENTERX2
370
    -3
390
F
  0
LAYER
  5
73
330
2
100
AcDbSymbolTableRecord
100
AcDbLayerTableRecord
  2
파단선
 70
     0
 62
     4
  6
Continuous
370
    -3
390
F
  0
LAYER
  5
74
330
2
100
AcDbSymbolTableRecord
100
AcDbLayerTableRecord
  2
해칭선
 70
     0
 62
   100
  6
Continuous
370
    -3
390
F
  0
LAYER
  5
75
330
2
100
AcDbSymbolTableRecord
100
AcDbLayerTableRecord
  2
가는실선
 70
     0
 62
     4
  6
Continuous
370
    -3
390
F
  0
LAYER
  5
76
330
2
100
AcDbSymbolTableRecord
100
AcDbLayerTableRecord
  2
치수_보조선
 70
     0
 62
     4
  6
Continuous
370
    -3
390
F
  0
LAYER
  5
77
330
2
100
AcDbSymbolTableRecord
100
AcDbLayerTableRecord
  2
치수문자_일반주서
 70
     0
 62
     7
  6
Continuous
370
    15
390
F
  0
LAYER
  5
78
330
2
100
AcDbSymbolTableRecord
100
AcDbLayerTableRecord
  2
개별주서
 70
     0
 62
   100
  6
Continuous
370
    30
390
F
  0
LAYER
  5
79
330
2
100
AcDbSymbolTableRecord
100
AcDbLayerTableRecord
  2
중간선
 70
     0
 62
     2
  6
Continuous
370
    15
390
F
  0
LAYER
  5
7A
330
2
100
AcDbSymbolTableRecord
100
AcDbLayerTableRecord
  2
윤곽선
 70
     0
 62
     3
  6
Continuous
370
    40
390
F
  0
LAYER
  5
7B
330
2
100
AcDbSymbolTableRecord
100
AcDbLayerTableRecord
  2
중심마크
 70
     0
 62
   100
  6
Continuous
370
    30
390
F
  0
LAYER
  5
7C
330
2
100
AcDbSymbolTableRecord
100
AcDbLayerTableRecord
  2
가상선
 70
     0
 62
     4
  6
PHANTOM
370
    -3
390
F
  0
LAYER
  5
7D
330
2
100
AcDbSymbolTableRecord
100
AcDbLayerTableRecord
  2
특수지정선
 70
     0
 62
     5
  6
CENTERX2
370
    60
390
F
  0
LAYER
  5
7E
330
2
100
AcDbSymbolTableRecord
100
AcDbLayerTableRecord
  2
참조1
 70
     0
 62
    -4
  6
Continuous
370
    -3
390
F
  0
LAYER
  5
15B
330
2
100
AcDbSymbolTableRecord
100
AcDbLayerTableRecord
  2
Defpoints
 70
     0
 62
     7
  6
Continuous
290
     0
370
    -3
390
F
  0
ENDTAB
  0
TABLE
  2
STYLE
  5
3
330
0
100
AcDbSymbolTable
 70
     2
  0
STYLE
  5
11
330
3
100
AcDbSymbolTableRecord
100
AcDbTextStyleTableRecord
  2
Standard
 70
     0
 40
0.0
 41
1.0
 50
0.0
 71
     0
 42
3.5
  3
txt
  4

  0
STYLE
  5
94
330
3
100
AcDbSymbolTableRecord
100
AcDbTextStyleTableRecord
  2
SLDTEXTSTYLE0
 70
     0
 40
0.0
 41
0.75
 50
0.0
 71
     0
 42
3.5
  3
TXT
  4

  0
ENDTAB
  0
TABLE
  2
VIEW
  5
6
330
0
100
AcDbSymbolTable
 70
     0
  0
ENDTAB
  0
TABLE
  2
UCS
  5
7
330
0
100
AcDbSymbolTable
 70
     0
  0
ENDTAB
  0
TABLE
  2
APPID
  5
9
330
0
100
AcDbSymbolTable
 70
     4
  0
APPID
  5
12
330
9
100
AcDbSymbolTableRecord
100
AcDbRegAppTableRecord
  2
ACAD
 70
     0
  0
APPID
  5
15C
330
9
100
AcDbSymbolTableRecord
100
AcDbRegAppTableRecord
  2
PE_URL
 70
     0
  0
APPID
  5
1B8
330
9
100
AcDbSymbolTableRecord
100
AcDbRegAppTableRecord
  2
ACAD_DSTYLE_DIMFLIPARROW_SYMBOL
 70
     0
  0
APPID
  5
1B9
330
9
100
AcDbSymbolTableRecord
100
AcDbRegAppTableRecord
  2
ACAD_DSTYLE_DIMFLIPARROW_WHICH_SYMBOL
 70
     0
  0
ENDTAB
  0
TABLE
  2
DIMSTYLE
  5
A
330
0
100
AcDbSymbolTable
 70
     4
100
AcDbDimStyleTable
  0
DIMSTYLE
105
27
102
{ACAD_REACTORS
330
1B1
102
}
330
A
100
AcDbSymbolTableRecord
100
AcDbDimStyleTableRecord
  2
ISO-25
 70
     0
 41
2.5
 42
0.625
 43
3.75
 44
1.25
 73
     0
 74
     0
 77
     1
 78
     8
140
2.5
141
2.5
143
0.03937007874016
147
0.625
171
     3
172
     1
178
     0
271
     2
272
     2
274
     3
278
    44
283
     0
284
     8
340
11
  0
DIMSTYLE
105
DA
330
A
100
AcDbSymbolTableRecord
100
AcDbDimStyleTableRecord
  2
SLDDIMSTYLE0
 70
     0
 41
3.302
 44
0.0
 45
0.000000001
 73
     0
 74
     0
 77
     1
 78
    12
 79
     3
140
3.5
143
0.0393700787401575
147
0.875
148
0.000000001
170
     1
172
     1
173
     1
178
     0
271
     2
272
     2
276
     2
284
    12
289
     0
340
94
  0
DIMSTYLE
105
EF
102
{ACAD_REACTORS
330
EE
330
102
330
117
330
D9
102
}
330
A
100
AcDbSymbolTableRecord
100
AcDbDimStyleTableRecord
  2
SLDDIMSTYLE1
 70
     0
 41
3.302
 44
0.0
 45
0.000000001
 73
     0
 74
     0
 77
     1
 78
    12
 79
     3
140
3.5
143
0.0393700787401575
147
0.875
148
0.000000001
170
     1
173
     1
178
     0
271
     2
272
     2
276
     2
284
    12
340
94
  0
DIMSTYLE
105
118
330
A
100
AcDbSymbolTableRecord
100
AcDbDimStyleTableRecord
  2
SLDDIMSTYLE2
 70
     0
 41
3.302
 44
0.0
 45
0.000000001
 73
     0
 74
     0
 77
     1
 78
     4
 79
     1
140
3.5
143
0.0393700787401575
147
0.875
148
0.000000001
170
     1
173
     1
178
     0
271
     2
272
     2
276
     2
284
    12
340
94
  0
ENDTAB
  0
TABLE
  2
BLOCK_RECORD
  5
1
330
0
100
AcDbSymbolTable
 70
     7
  0
BLOCK_RECORD
  5
1F
330
1
100
AcDbSymbolTableRecord
100
AcDbBlockTableRecord
  2
*Model_Space
340
22
  0
BLOCK_RECORD
  5
1B
330
1
100
AcDbSymbolTableRecord
100
AcDbBlockTableRecord
  2
*Paper_Space
340
1E
  0
BLOCK_RECORD
  5
23
330
1
100
AcDbSymbolTableRecord
100
AcDbBlockTableRecord
  2
*Paper_Space0
340
26
  0
BLOCK_RECORD
  5
7F
330
1
100
AcDbSymbolTableRecord
100
AcDbBlockTableRecord
  2
블럭10
340
0
102
{BLKREFS
331
D2
102
}
  0
BLOCK_RECORD
  5
DB
330
1
100
AcDbSymbolTableRecord
100
AcDbBlockTableRecord
  2
_D
340
0
  0
BLOCK_RECORD
  5
F0
330
1
100
AcDbSymbolTableRecord
100
AcDbBlockTableRecord
  2
_D_1
340
0
  0
BLOCK_RECORD
  5
103
330
1
100
AcDbSymbolTableRecord
100
AcDbBlockTableRecord
  2
_D_2
340
0
  0
BLOCK_RECORD
  5
119
330
1
100
AcDbSymbolTableRecord
100
AcDbBlockTableRecord
  2
_D_3
340
0
  0
BLOCK_RECORD
  5
132
330
1
100
AcDbSymbolTableRecord
100
AcDbBlockTableRecord
  2
SW_DOWELSYMBOL_0
340
0
102
{BLKREFS
331
138
102
}
  0
ENDTAB
  0
ENDSEC
  0
SECTION
  2
BLOCKS
  0
BLOCK
  5
20
330
1F
100
AcDbEntity
  8
0
100
AcDbBlockBegin
  2
*Model_Space
 70
     0
 10
0.0
 20
0.0
 30
0.0
  3
*Model_Space
  1

  0
ENDBLK
  5
21
330
1F
100
AcDbEntity
  8
0
100
AcDbBlockEnd
  0
BLOCK
  5
1C
330
1B
100
AcDbEntity
 67
     1
  8
0
100
AcDbBlockBegin
  2
*Paper_Space
 70
     0
 10
0.0
 20
0.0
 30
0.0
  3
*Paper_Space
  1

  0
ENDBLK
  5
1D
330
1B
100
AcDbEntity
 67
     1
  8
0
100
AcDbBlockEnd
  0
BLOCK
  5
24
330
23
100
AcDbEntity
  8
0
100
AcDbBlockBegin
  2
*Paper_Space0
 70
     0
 10
0.0
 20
0.0
 30
0.0
  3
*Paper_Space0
  1

  0
ENDBLK
  5
25
330
23
100
AcDbEntity
  8
0
100
AcDbBlockEnd
  0
BLOCK
  5
80
330
7F
100
AcDbEntity
  8
0
100
AcDbBlockBegin
  2
블럭10
 70
     2
 10
0.0
 20
0.0
 30
0.0
  3
블럭10
  1

  0
ELLIPSE
  5
82
330
7F
100
AcDbEntity
  8
중심선
100
AcDbEllipse
 10
20.54032771741204
 20
12.0471743016438
 30
0.0
 11
6.600054785286829
 21
-1.261213355974178E-13
 31
0.0
210
0.0
220
0.0
230
1.0
 40
0.636358354079598
 41
0.9219305317359503
 42
6.513795318482858
  0
ELLIPSE
  5
83
330
7F
100
AcDbEntity
  8
중심선
100
AcDbEllipse
 10
20.54032771746488
 20
12.04717430159265
 30
0.0
 11
3.960054785062283
 21
1.540847449632565E-10
 31
0.0
210
0.0
220
0.0
230
1.0
 40
0.3939339440162632
 41
1.131841032648279
 42
5.62031148352944
  0
LINE
  5
84
330
7F
100
AcDbEntity
  8
중심선
100
AcDbLine
 10
2.268634060543552
 20
16.24717430164393
 30
0.0
 11
5.714909304380834
 21
16.24717430164393
 31
0.0
  0
LINE
  5
85
330
7F
100
AcDbEntity
  8
중심선
100
AcDbLine
 10
5.245725140726316
 20
7.84717430164391
 30
0.0
 11
8.692000384563599
 21
7.84717430164391
 31
0.0
  0
LINE
  5
86
330
7F
100
AcDbEntity
  8
중심선
100
AcDbLine
 10
15.74043728645272
 20
16.24717430164393
 30
0.0
 11
8.692000384563599
 21
7.84717430164391
 31
0.0
  0
LINE
  5
87
330
7F
100
AcDbEntity
  8
중심선
100
AcDbLine
 10
0.1404042013395286
 20
13.71084872107135
 30
0.0
 11
3.58671253028996
 21
13.71088815037384
 31
0.0
  0
LINE
  5
88
330
7F
100
AcDbEntity
  8
중심선
100
AcDbLine
 10
2.750260043222114
 20
10.84717430164391
 30
0.0
 11
6.196535287059397
 21
10.84717430164391
 31
0.0
  0
LINE
  5
89
330
7F
100
AcDbEntity
  8
중심선
100
AcDbLine
 10
12.29416204261559
 20
16.24717430164393
 30
0.0
 11
5.245725140726316
 21
7.84717430164391
 31
0.0
  0
LINE
  5
8A
330
7F
100
AcDbEntity
  8
중심선
100
AcDbLine
 10
10.72767329541681
 20
16.24717430164393
 30
0.0
 11
6.196535287059397
 21
10.84717430164391
 31
0.0
  0
LINE
  5
8B
330
7F
100
AcDbEntity
  8
중심선
100
AcDbLine
 10
7.28139805157953
 20
16.24717430164393
 30
0.0
 11
2.750260043222114
 21
10.84717430164391
 31
0.0
  0
LINE
  5
8C
330
7F
100
AcDbEntity
  8
중심선
100
AcDbLine
 10
5.714909304380834
 20
16.24717430164393
 30
0.0
 11
3.58671253028996
 21
13.71088815037384
 31
0.0
  0
LINE
  5
8D
330
7F
100
AcDbEntity
  8
중심선
100
AcDbLine
 10
2.268634060543552
 20
16.24717430164393
 30
0.0
 11
0.1404042013395286
 21
13.71084872107135
 31
0.0
  0
LINE
  5
8E
330
7F
100
AcDbEntity
  8
중심선
100
AcDbLine
 10
7.28139805157953
 20
16.24717430164393
 30
0.0
 11
10.72767329541681
 21
16.24717430164393
 31
0.0
  0
LINE
  5
8F
330
7F
100
AcDbEntity
  8
중심선
100
AcDbLine
 10
12.29416204261559
 20
16.24717430164393
 30
0.0
 11
15.74043728645272
 21
16.24717430164393
 31
0.0
  0
LINE
  5
90
330
7F
100
AcDbEntity
  8
중심선
100
AcDbLine
 10
19.22036997980202
 20
11.08717430171403
 30
0.0
 11
23.66174974927406
 21
11.08717430171406
 31
0.0
  0
LINE
  5
91
330
7F
100
AcDbEntity
  8
중심선
100
AcDbLine
 10
19.22039502424796
 20
13.00717430171391
 30
0.0
 11
19.22036997980202
 21
11.08717430171403
 31
0.0
  0
LINE
  5
92
330
7F
100
AcDbEntity
  8
중심선
100
AcDbLine
 10
19.22039502424796
 20
13.00717430171391
 30
0.0
 11
26.96566020931264
 21
13.00717430171391
 31
0.0
  0
LINE
  5
93
330
7F
100
AcDbEntity
  8
중심선
100
AcDbLine
 10
22.22332737316547
 20
13.45928029700563
 30
0.0
 11
24.52862924686651
 21
15.39360700705356
 31
0.0
  0
ATTDEF
  5
95
330
7F
100
AcDbEntity
  8
FORMAT
 62
     2
100
AcDbText
 10
3.448148490846466
 20
2.075366912832191
 30
0.0
 40
4.233333333333333
  1
EM211024
 41
0.75
  7
SLDTEXTSTYLE0
 11
3.448148490846466
 21
-0.0412997538344756
 31
0.0
100
AcDbAttributeDefinition
  3

  2
AUTOATTR0
 70
     0
 74
     1
  0
ENDBLK
  5
81
330
7F
100
AcDbEntity
  8
0
100
AcDbBlockEnd
  0
BLOCK
  5
DC
330
DB
100
AcDbEntity
  8
0
100
AcDbBlockBegin
  2
_D
 70
     0
 10
0.0
 20
0.0
 30
0.0
  3
_D
  1

  0
LINE
  5
DE
330
DB
100
AcDbEntity
  8
치수문자_일반주서
 62
     0
370
    -2
100
AcDbLine
 10
-37.68750000000001
 20
4.762500000000007
 30
0.0
 11
-46.42200161012514
 21
4.762499999999971
 31
0.0
  0
LINE
  5
DF
330
DB
100
AcDbEntity
  8
치수문자_일반주서
 62
     0
370
    -2
100
AcDbLine
 10
-37.68352479558768
 20
-4.762500000000001
 30
0.0
 11
-46.42200161012511
 21
-4.762500000000038
 31
0.0
  0
LINE
  5
E0
330
DB
100
AcDbEntity
  8
치수문자_일반주서
 62
     0
370
    -2
100
AcDbLine
 10
-46.42200161012514
 20
4.762499999999971
 30
0.0
 11
-46.42200161012526
 21
34.31449999999998
 31
0.0
  0
LINE
  5
E1
330
DB
100
AcDbEntity
  8
치수문자_일반주서
 62
     0
370
    -2
100
AcDbLine
 10
-46.42200161012514
 20
4.762499999999971
 30
0.0
 11
-46.42200161012511
 21
-4.762500000000038
 31
0.0
  0
LINE
  5
E2
330
DB
100
AcDbEntity
  8
치수문자_일반주서
 62
     0
370
    -2
100
AcDbLine
 10
-46.42200161012516
 20
8.06449999999997
 30
0.0
 11
-46.42200161012517
 21
11.36649999999997
 31
0.0
  0
LINE
  5
E3
330
DB
100
AcDbEntity
  8
치수문자_일반주서
 62
     0
370
    -2
100
AcDbLine
 10
-46.42200161012509
 20
-8.064500000000038
 30
0.0
 11
-46.42200161012508
 21
-11.36650000000004
 31
0.0
  0
SOLID
  5
E4
330
DB
100
AcDbEntity
  8
치수문자_일반주서
 62
     0
100
AcDbTrace
 10
-46.97233494345849
 20
8.064499999999969
 30
0.0
 11
-45.87166827679182
 21
8.064499999999972
 31
0.0
 12
-46.42200161012514
 22
4.762499999999971
 32
0.0
 13
-46.42200161012514
 23
4.762499999999971
 33
0.0
  0
SOLID
  5
E5
330
DB
100
AcDbEntity
  8
치수문자_일반주서
 62
     0
100
AcDbTrace
 10
-45.87166827679176
 20
-8.064500000000036
 30
0.0
 11
-46.97233494345843
 21
-8.06450000000004
 31
0.0
 12
-46.42200161012511
 22
-4.762500000000038
 32
0.0
 13
-46.42200161012511
 23
-4.762500000000038
 33
0.0
  0
MTEXT
  5
E6
330
DB
100
AcDbEntity
  8
치수문자_일반주서
 62
     0
100
AcDbMText
 10
-50.79700161012521
 20
21.18949999999996
 30
0.0
 40
3.5
 41
0.0
 71
     2
 72
     1
  1
\A1;%%c9.53 [3/8]
  7
SLDTEXTSTYLE0
 11
-3.729883127349604E-15
 21
1.0
 31
0.0
 73
     1
 44
1.0
  0
POINT
  5
17F
330
DB
100
AcDbEntity
  8
Defpoints
 62
     0
100
AcDbPoint
 10
-37.62500000000001
 20
4.762500000000007
 30
0.0
  0
POINT
  5
180
330
DB
100
AcDbEntity
  8
Defpoints
 62
     0
100
AcDbPoint
 10
-37.62102479558768
 20
-4.762500000000001
 30
0.0
  0
POINT
  5
181
330
DB
100
AcDbEntity
  8
Defpoints
 62
     0
100
AcDbPoint
 10
-46.42200161012511
 20
-4.762500000000034
 30
0.0
  0
ENDBLK
  5
DD
330
DB
100
AcDbEntity
  8
0
100
AcDbBlockEnd
  0
BLOCK
  5
F1
330
F0
100
AcDbEntity
  8
0
100
AcDbBlockBegin
  2
_D_1
 70
     0
 10
0.0
 20
0.0
 30
0.0
  3
_D_1
  1

  0
LINE
  5
F3
330
F0
100
AcDbEntity
  8
치수문자_일반주서
 62
     0
370
    -2
100
AcDbLine
 10
38.63750000000001
 20
4.76250000000013
 30
0.0
 11
48.57500000000002
 21
4.762500000000166
 31
0.0
  0
LINE
  5
F4
330
F0
100
AcDbEntity
  8
치수문자_일반주서
 62
     0
370
    -2
100
AcDbLine
 10
38.67140001736881
 20
-4.762499999999918
 30
0.0
 11
48.57500000000005
 21
-4.762499999999882
 31
0.0
  0
LINE
  5
F5
330
F0
100
AcDbEntity
  8
치수문자_일반주서
 62
     0
370
    -2
100
AcDbLine
 10
48.57500000000002
 20
4.762500000000166
 30
0.0
 11
48.5749999999999
 21
34.31450000000017
 31
0.0
  0
LINE
  5
F6
330
F0
100
AcDbEntity
  8
치수문자_일반주서
 62
     0
370
    -2
100
AcDbLine
 10
48.57500000000002
 20
4.762500000000166
 30
0.0
 11
48.57500000000005
 21
-4.762499999999882
 31
0.0
  0
LINE
  5
F7
330
F0
100
AcDbEntity
  8
치수문자_일반주서
 62
     0
370
    -2
100
AcDbLine
 10
48.575
 20
8.064500000000166
 30
0.0
 11
48.57499999999999
 21
11.36650000000017
 31
0.0
  0
LINE
  5
F8
330
F0
100
AcDbEntity
  8
치수문자_일반주서
 62
     0
370
    -2
100
AcDbLine
 10
48.57500000000007
 20
-8.064499999999882
 30
0.0
 11
48.57500000000008
 21
-11.36649999999988
 31
0.0
  0
SOLID
  5
F9
330
F0
100
AcDbEntity
  8
치수문자_일반주서
 62
     0
100
AcDbTrace
 10
48.02466666666667
 20
8.064500000000164
 30
0.0
 11
49.12533333333334
 21
8.064500000000168
 31
0.0
 12
48.57500000000002
 22
4.762500000000166
 32
0.0
 13
48.57500000000002
 23
4.762500000000166
 33
0.0
  0
SOLID
  5
FA
330
F0
100
AcDbEntity
  8
치수문자_일반주서
 62
     0
100
AcDbTrace
 10
49.1253333333334
 20
-8.06449999999988
 30
0.0
 11
48.02466666666673
 21
-8.064499999999883
 31
0.0
 12
48.57500000000005
 22
-4.762499999999882
 32
0.0
 13
48.57500000000005
 23
-4.762499999999882
 33
0.0
  0
MTEXT
  5
FB
330
F0
100
AcDbEntity
  8
치수문자_일반주서
 62
     0
100
AcDbMText
 10
44.19999999999995
 20
21.18950000000015
 30
0.0
 40
3.5
 41
0.0
 71
     2
 72
     1
  1
\A1;%%c9.53 [3/8]
  7
SLDTEXTSTYLE0
 11
-3.729883127349589E-15
 21
1.0
 31
0.0
 73
     1
 44
1.0
  0
POINT
  5
FC
330
F0
100
AcDbEntity
  8
Defpoints
 62
     0
100
AcDbPoint
 10
38.57500000000001
 20
4.76250000000013
 30
0.0
  0
POINT
  5
185
330
F0
100
AcDbEntity
  8
Defpoints
 62
     0
100
AcDbPoint
 10
38.60890001736881
 20
-4.762499999999918
 30
0.0
  0
POINT
  5
186
330
F0
100
AcDbEntity
  8
Defpoints
 62
     0
100
AcDbPoint
 10
48.57500000000005
 20
-4.76249999999988
 30
0.0
  0
ENDBLK
  5
F2
330
F0
100
AcDbEntity
  8
0
100
AcDbBlockEnd
  0
BLOCK
  5
104
330
103
100
AcDbEntity
  8
0
100
AcDbBlockBegin
  2
_D_2
 70
     0
 10
0.0
 20
0.0
 30
0.0
  3
_D_2
  1

  0
LINE
  5
106
330
103
100
AcDbEntity
  8
치수문자_일반주서
 62
     0
370
    -2
100
AcDbLine
 10
38.57500000000001
 20
4.82500000000013
 30
0.0
 11
38.57500000000002
 21
20.79774303955042
 31
0.0
  0
LINE
  5
107
330
103
100
AcDbEntity
  8
치수문자_일반주서
 62
     0
370
    -2
100
AcDbLine
 10
10.0
 20
4.82500000000003
 30
0.0
 11
10.0
 21
20.79774303955042
 31
0.0
  0
LINE
  5
108
330
103
100
AcDbEntity
  8
치수문자_일반주서
 62
     0
370
    -2
100
AcDbLine
 10
10.0
 20
20.79774303955042
 30
0.0
 11
-23.052
 21
20.79774303955042
 31
0.0
  0
LINE
  5
109
330
103
100
AcDbEntity
  8
치수문자_일반주서
 62
     0
370
    -2
100
AcDbLine
 10
38.57500000000002
 20
20.79774303955042
 30
0.0
 11
10.0
 21
20.79774303955042
 31
0.0
  0
LINE
  5
10A
330
103
100
AcDbEntity
  8
치수문자_일반주서
 62
     0
370
    -2
100
AcDbLine
 10
41.87700000000002
 20
20.79774303955042
 30
0.0
 11
45.17900000000002
 21
20.79774303955042
 31
0.0
  0
LINE
  5
10B
330
103
100
AcDbEntity
  8
치수문자_일반주서
 62
     0
370
    -2
100
AcDbLine
 10
6.698000000000004
 20
20.79774303955042
 30
0.0
 11
3.396000000000004
 21
20.79774303955042
 31
0.0
  0
SOLID
  5
10C
330
103
100
AcDbEntity
  8
치수문자_일반주서
 62
     0
100
AcDbTrace
 10
41.87700000000002
 20
21.34807637288376
 30
0.0
 11
41.87700000000002
 21
20.24740970621709
 31
0.0
 12
38.57500000000002
 22
20.79774303955042
 32
0.0
 13
38.57500000000002
 23
20.79774303955042
 33
0.0
  0
SOLID
  5
10D
330
103
100
AcDbEntity
  8
치수문자_일반주서
 62
     0
100
AcDbTrace
 10
6.698000000000004
 20
20.24740970621709
 30
0.0
 11
6.698000000000004
 21
21.34807637288376
 31
0.0
 12
10.0
 22
20.79774303955042
 32
0.0
 13
10.0
 23
20.79774303955042
 33
0.0
  0
MTEXT
  5
10E
330
103
100
AcDbEntity
  8
치수문자_일반주서
 62
     0
100
AcDbMText
 10
-8.176999999999996
 20
25.17274303955042
 30
0.0
 40
3.5
 41
0.0
 71
     2
 72
     1
  1
\A1;28.58 [1 1/8]
  7
SLDTEXTSTYLE0
 73
     1
 44
1.0
  0
POINT
  5
182
330
103
100
AcDbEntity
  8
Defpoints
 62
     0
100
AcDbPoint
 10
38.57500000000001
 20
4.76250000000013
 30
0.0
  0
POINT
  5
183
330
103
100
AcDbEntity
  8
Defpoints
 62
     0
100
AcDbPoint
 10
10.0
 20
4.76250000000003
 30
0.0
  0
POINT
  5
184
330
103
100
AcDbEntity
  8
Defpoints
 62
     0
100
AcDbPoint
 10
10.0
 20
20.79774303955042
 30
0.0
  0
ENDBLK
  5
105
330
103
100
AcDbEntity
  8
0
100
AcDbBlockEnd
  0
BLOCK
  5
11A
330
119
100
AcDbEntity
  8
0
100
AcDbBlockBegin
  2
_D_3
 70
     0
 10
0.0
 20
0.0
 30
0.0
  3
_D_3
  1

  0
LINE
  5
11C
330
119
100
AcDbEntity
  8
치수문자_일반주서
 62
     0
370
    -2
100
AcDbLine
 10
38.57500000000001
 20
4.82500000000013
 30
0.0
 11
38.57500000000001
 21
38.62325689628483
 31
0.0
  0
LINE
  5
11D
330
119
100
AcDbEntity
  8
치수문자_일반주서
 62
     0
370
    -2
100
AcDbLine
 10
-37.62500000000001
 20
4.825000000000004
 30
0.0
 11
-37.62500000000001
 21
38.62325689628483
 31
0.0
  0
LINE
  5
11E
330
119
100
AcDbEntity
  8
치수문자_일반주서
 62
     0
370
    -2
100
AcDbLine
 10
35.27300000000001
 20
38.62325689628483
 30
0.0
 11
-34.32300000000001
 21
38.62325689628483
 31
0.0
  0
SOLID
  5
11F
330
119
100
AcDbEntity
  8
치수문자_일반주서
 62
     0
100
AcDbTrace
 10
35.27300000000001
 20
38.07292356295149
 30
0.0
 11
35.27300000000001
 21
39.17359022961816
 31
0.0
 12
38.57500000000001
 22
38.62325689628483
 32
0.0
 13
38.57500000000001
 23
38.62325689628483
 33
0.0
  0
SOLID
  5
120
330
119
100
AcDbEntity
  8
치수문자_일반주서
 62
     0
100
AcDbTrace
 10
-34.32300000000001
 20
39.17359022961816
 30
0.0
 11
-34.32300000000001
 21
38.07292356295149
 31
0.0
 12
-37.62500000000001
 22
38.62325689628483
 32
0.0
 13
-37.62500000000001
 23
38.62325689628483
 33
0.0
  0
MTEXT
  5
121
330
119
100
AcDbEntity
  8
치수문자_일반주서
 62
     0
100
AcDbMText
 10
0.1321110371027032
 20
42.99825689628483
 30
0.0
 40
3.5
 41
0.0
 71
     2
 72
     1
  1
\A1;76.2 [3]
  7
SLDTEXTSTYLE0
 73
     1
 44
1.0
  0
POINT
  5
122
330
119
100
AcDbEntity
  8
Defpoints
 62
     0
100
AcDbPoint
 10
38.57500000000001
 20
4.76250000000013
 30
0.0
  0
POINT
  5
123
330
119
100
AcDbEntity
  8
Defpoints
 62
     0
100
AcDbPoint
 10
-37.62500000000001
 20
4.762500000000004
 30
0.0
  0
POINT
  5
124
330
119
100
AcDbEntity
  8
Defpoints
 62
     0
100
AcDbPoint
 10
-37.62500000000001
 20
38.62325689628483
 30
0.0
  0
ENDBLK
  5
11B
330
119
100
AcDbEntity
  8
0
100
AcDbBlockEnd
  0
BLOCK
  5
133
330
132
100
AcDbEntity
  8
0
100
AcDbBlockBegin
  2
SW_DOWELSYMBOL_0
 70
     0
 10
0.0
 20
0.0
 30
0.0
  3
SW_DOWELSYMBOL_0
  1

  0
CIRCLE
  5
135
330
132
100
AcDbEntity
  8
해칭선
 62
     0
100
AcDbCircle
 10
0.0
 20
0.0
 30
0.0
 40
3.000000000000002
  0
HATCH
  5
136
330
132
100
AcDbEntity
  8
0
  6
Continuous
 62
     0
370
     0
100
AcDbHatch
 10
0.0
 20
0.0
 30
0.0
210
0.0
220
0.0
230
1.0
  2
SOLID
 70
     1
 71
     0
 91
        1
 92
        0
 93
        3
 72
     2
 10
0.0000000000000069
 20
0.0
 40
3.000000000000002
 50
0.0
 51
90.0
 73
     1
 72
     1
 10
0.0000000000000069
 20
3.000000000000002
 11
0.0000000000000069
 21
0.0
 72
     1
 10
0.0000000000000069
 20
0.0
 11
3.000000000000009
 21
0.0
 97
        0
 75
     0
 76
     1
 98
        1
 10
0.0
 20
0.0
  0
HATCH
  5
137
330
132
100
AcDbEntity
  8
0
  6
Continuous
 62
     0
370
     0
100
AcDbHatch
 10
0.0
 20
0.0
 30
0.0
210
0.0
220
0.0
230
1.0
  2
SOLID
 70
     1
 71
     0
 91
        1
 92
        0
 93
        3
 72
     2
 10
0.0000000000000069
 20
0.0
 40
3.000000000000002
 50
180.0
 51
270.0000000000007
 73
     1
 72
     1
 10
0.0000000000000069
 20
-3.000000000000002
 11
0.0000000000000069
 21
0.0
 72
     1
 10
0.0000000000000069
 20
0.0
 11
-2.999999999999995
 21
0.0
 97
        0
 75
     0
 76
     1
 98
        1
 10
0.0
 20
0.0
  0
ENDBLK
  5
134
330
132
100
AcDbEntity
  8
0
100
AcDbBlockEnd
  0
ENDSEC
  0
SECTION
  2
ENTITIES
  0
LINE
  5
96
330
1F
100
AcDbEntity
  8
외형선
  6
Continuous
370
    15
100
AcDbLine
 10
8.480101010513822
 20
4.762500000000006
 30
0.0
 11
-36.62500000000001
 21
4.762500000000002
 31
0.0
  0
LINE
  5
97
330
1F
100
AcDbEntity
  8
외형선
  6
Continuous
370
    15
100
AcDbLine
 10
-36.62500000000001
 20
-4.762499999999998
 30
0.0
 11
8.480101010513822
 21
-4.762499999999996
 31
0.0
  0
LINE
  5
98
330
1F
100
AcDbEntity
  8
외형선
  6
Continuous
370
    15
100
AcDbLine
 10
-36.62500000000001
 20
4.762499999999998
 30
0.0
 11
-37.62500000000001
 21
3.762499999999998
 31
0.0
  0
LINE
  5
99
330
1F
100
AcDbEntity
  8
외형선
  6
Continuous
370
    15
100
AcDbLine
 10
-37.62500000000001
 20
-3.762499999999998
 30
0.0
 11
-36.62500000000001
 21
-4.762499999999995
 31
0.0
  0
SPLINE
  5
9A
330
1F
100
AcDbEntity
  8
외형선
  6
Continuous
370
    15
100
AcDbSpline
210
0.0
220
0.0
230
1.0
 70
     8
 71
     3
 72
     9
 73
     5
 74
     0
 42
0.000000001
 43
0.00000001
 40
0.0
 40
0.0
 40
0.0
 40
0.0
 40
0.4592666423710333
 40
1.0
 40
1.0
 40
1.0
 40
1.0
 10
10.0
 20
3.192293153768589
 30
0.0
 10
9.766191589794811
 20
3.179633840988488
 30
0.0
 10
9.257100816299644
 20
3.152069651447649
 30
0.0
 10
8.752812185415987
 20
3.142192969579343
 30
0.0
 10
8.48012650082415
 20
3.136852318230461
 30
0.0
  0
SPLINE
  5
9B
330
1F
100
AcDbEntity
  8
외형선
  6
Continuous
 62
     1
370
    15
100
AcDbSpline
210
0.0
220
0.0
230
1.0
 70
     8
 71
     3
 72
     9
 73
     5
 74
     0
 42
0.000000001
 43
0.00000001
 40
0.0
 40
0.0
 40
0.0
 40
0.0
 40
0.5189441717092284
 40
1.0
 40
1.0
 40
1.0
 40
1.0
 10
26.23583846308977
 20
1.220390160591745
 30
0.0
 10
26.00789617024205
 20
1.32929395608583
 30
0.0
 10
25.56865375212805
 20
1.539150432815094
 30
0.0
 10
25.12795860266004
 20
1.770056650918662
 30
0.0
 10
24.91595963250898
 20
1.881135432925964
 30
0.0
  0
LINE
  5
9C
330
1F
100
AcDbEntity
  8
외형선
  6
Continuous
 62
     1
370
    15
100
AcDbLine
 10
15.30758279267036
 20
4.762500000000007
 30
0.0
 11
12.9987185145953
 21
4.762500000000007
 31
0.0
  0
SPLINE
  5
9D
330
1F
100
AcDbEntity
  8
외형선
  6
Continuous
 62
     1
370
    15
100
AcDbSpline
210
0.0
220
0.0
230
1.0
 70
     8
 71
     3
 72
    17
 73
    13
 74
     0
 42
0.000000001
 43
0.00000001
 40
0.0
 40
0.0
 40
0.0
 40
0.0
 40
0.1527623986676347
 40
0.2674449542547681
 40
0.3655280694965135
 40
0.4578714070246777
 40
0.5383941915059
 40
0.6421413836958019
 40
0.7791894767302063
 40
0.9043042370438165
 40
0.9946544873101568
 40
1.0
 40
1.0
 40
1.0
 40
1.0
 10
24.6620728548219
 20
3.78446644937218
 30
0.0
 10
24.4699277023407
 20
3.774789691514472
 30
0.0
 10
24.13353437542381
 20
3.757848349370323
 30
0.0
 10
23.65915468976688
 20
3.741105372000406
 30
0.0
 10
23.26223323217124
 20
3.730469926052155
 30
0.0
 10
22.91389603079933
 20
3.723965819444139
 30
0.0
 10
22.55842882843486
 20
3.719949273620329
 30
0.0
 10
22.14522780008703
 20
3.718560277090395
 30
0.0
 10
21.67507694118055
 20
3.721763625895262
 30
0.0
 10
21.22198167098934
 20
3.730366224911505
 30
0.0
 10
20.93812443726699
 20
3.737503487574337
 30
0.0
 10
20.81511132328781
 20
3.741811585724538
 30
0.0
 10
20.80823987839329
 20
3.742052233717926
 30
0.0
  0
SPLINE
  5
9E
330
1F
100
AcDbEntity
  8
외형선
  6
Continuous
 62
     1
370
    15
100
AcDbSpline
210
0.0
220
0.0
230
1.0
 70
     8
 71
     3
 72
    27
 73
    23
 74
     0
 42
0.000000001
 43
0.00000001
 40
0.0
 40
0.0
 40
0.0
 40
0.0
 40
0.0724069471679208
 40
0.1245853525358547
 40
0.1590685477709658
 40
0.1947371870864626
 40
0.2360565484755893
 40
0.2777035123043915
 40
0.3116760750308699
 40
0.3639217721040649
 40
0.4254068693489811
 40
0.5000090045861304
 40
0.552000083614787
 40
0.5919701471421045
 40
0.6358973424444203
 40
0.6865761364670113
 40
0.7429088073505797
 40
0.7842802951428944
 40
0.8156573253906404
 40
0.8510901380318241
 40
0.9122777532879922
 40
1.0
 40
1.0
 40
1.0
 40
1.0
 10
17.4995971584415
 20
-3.963063759677736
 30
0.0
 10
17.67174383292646
 20
-3.946325099713949
 30
0.0
 10
17.96794405911259
 20
-3.917524108453674
 30
0.0
 10
18.34645328824009
 20
-3.884746177204851
 30
0.0
 10
18.64044268718034
 20
-3.861119920657059
 30
0.0
 10
18.9077634739243
 20
-3.841041686990563
 30
0.0
 10
19.19136785193042
 20
-3.821353506905226
 30
0.0
 10
19.47044221987574
 20
-3.803696190424485
 30
0.0
 10
19.77567465333316
 20
-3.786101530368081
 30
0.0
 10
20.12827334683825
 20
-3.76801594983074
 30
0.0
 10
20.57795564567596
 20
-3.748980715864787
 30
0.0
 10
21.02704340982541
 20
-3.734818034641654
 30
0.0
 10
21.42473654841829
 20
-3.726232214382776
 30
0.0
 10
21.74926021744545
 20
-3.721587298721893
 30
0.0
 10
22.07041164252146
 20
-3.719138914330582
 30
0.0
 10
22.43072766536631
 20
-3.719141361127452
 30
0.0
 10
22.78503121886643
 20
-3.722159823904295
 30
0.0
 10
23.0932877266886
 20
-3.72718855826525
 30
0.0
 10
23.34958913586349
 20
-3.732824586541268
 30
0.0
 10
23.65322573448423
 20
-3.741123903444188
 30
0.0
 10
24.09441943149411
 20
-3.756345551815472
 30
0.0
 10
24.45163719617096
 20
-3.77404170893018
 30
0.0
 10
24.6620728548219
 20
-3.784466449372172
 30
0.0
  0
SPLINE
  5
9F
330
1F
100
AcDbEntity
  8
외형선
  6
Continuous
 62
     1
370
    15
100
AcDbSpline
210
0.0
220
0.0
230
1.0
 70
     8
 71
     3
 72
    17
 73
    13
 74
     0
 42
0.000000001
 43
0.00000001
 40
0.0
 40
0.0
 40
0.0
 40
0.0
 40
0.1324438917598848
 40
0.2534462029865372
 40
0.3604682064115682
 40
0.4397184406785148
 40
0.5083640802536518
 40
0.5907799708823724
 40
0.6835507133328481
 40
0.7976588498170932
 40
0.9322960632927468
 40
1.0
 40
1.0
 40
1.0
 40
1.0
 10
28.48581974717096
 20
-3.582033855031277
 30
0.0
 10
28.63394610613743
 20
-3.558923063531216
 30
0.0
 10
28.91740246447469
 20
-3.514697978660387
 30
0.0
 10
29.35735356127091
 20
-3.453602006655854
 30
0.0
 10
29.73044314248489
 20
-3.404892534580195
 30
0.0
 10
30.03870210435807
 20
-3.367618729337309
 30
0.0
 10
30.29555571133246
 20
-3.338980546278419
 30
0.0
 10
30.58387293465708
 20
-3.308284414105313
 30
0.0
 10
30.92719328582481
 20
-3.274856261885549
 30
0.0
 10
31.33219011496239
 20
-3.239686531375102
 30
0.0
 10
31.70754590093377
 20
-3.211369577376912
 30
0.0
 10
31.94756197737063
 20
-3.197266555172968
 30
0.0
 10
32.02787205385835
 20
-3.192547642970413
 30
0.0
  0
SPLINE
  5
A0
330
1F
100
AcDbEntity
  8
외형선
  6
Continuous
 62
     1
370
    15
100
AcDbSpline
210
0.0
220
0.0
230
1.0
 70
     8
 71
     3
 72
     9
 73
     5
 74
     0
 42
0.000000001
 43
0.00000001
 40
0.0
 40
0.0
 40
0.0
 40
0.0
 40
0.4982580756517704
 40
1.0
 40
1.0
 40
1.0
 40
1.0
 10
10.89035104868714
 20
3.25732401027834
 30
0.0
 10
10.74228189640356
 20
3.245025326258701
 30
0.0
 10
10.44510828393399
 20
3.220341965123906
 30
0.0
 10
10.14871362602549
 20
3.201664447435577
 30
0.0
 10
9.99999999999995
 20
3.192293153768586
 30
0.0
  0
SPLINE
  5
A1
330
1F
100
AcDbEntity
  8
외형선
  6
Continuous
 62
     1
370
    15
100
AcDbSpline
210
0.0
220
0.0
230
1.0
 70
     8
 71
     3
 72
    30
 73
    26
 74
     0
 42
0.000000001
 43
0.00000001
 40
0.0
 40
0.0
 40
0.0
 40
0.0
 40
0.0717441677538447
 40
0.1251067421430141
 40
0.1629908044017477
 40
0.1877464187744881
 40
0.2173414460211106
 40
0.2534133577404675
 40
0.2878522897727476
 40
0.3159529303033862
 40
0.3395831456889787
 40
0.3819634317222777
 40
0.4332138581294263
 40
0.4810061471647487
 40
0.5222849819775843
 40
0.5668798106395686
 40
0.6350861358200174
 40
0.7008027397659495
 40
0.7516816656896381
 40
0.7924200744061073
 40
0.8194931132355401
 40
0.8534534078876472
 40
0.8978165306190062
 40
0.9466767655716981
 40
1.0
 40
1.0
 40
1.0
 40
1.0
 10
36.8049921843267
 20
3.2573225187312
 30
0.0
 10
36.60427279841609
 20
3.241020751824877
 30
0.0
 10
36.2542603968174
 20
3.212593898288536
 30
0.0
 10
35.80448230031392
 20
3.185294078672356
 30
0.0
 10
35.49550162180945
 20
3.169697382304405
 30
0.0
 10
35.2759308025188
 20
3.157925464668931
 30
0.0
 10
35.01634783721129
 20
3.148467439302921
 30
0.0
 10
34.72959704251017
 20
3.141931957119039
 30
0.0
 10
34.44614351786529
 20
3.13716114382466
 30
0.0
 10
34.19958127114607
 20
3.134629986934431
 30
0.0
 10
33.93724250950181
 20
3.133659059271693
 30
0.0
 10
33.61033630948926
 20
3.135227869419924
 30
0.0
 10
33.21621213234831
 20
3.141874608078951
 30
0.0
 10
32.82540617448213
 20
3.153525070287996
 30
0.0
 10
32.45287996419926
 20
3.168832827993596
 30
0.0
 10
32.02352707906505
 20
3.191121097296018
 30
0.0
 10
31.52600351749327
 20
3.223945864848129
 30
0.0
 10
31.01146587705724
 20
3.266732276182406
 30
0.0
 10
30.57227130344993
 20
3.309222059388582
 30
0.0
 10
30.24436048684968
 20
3.344610118387064
 30
0.0
 10
29.97716430678661
 20
3.374762962879747
 30
0.0
 10
29.67400157971981
 20
3.412197875736324
 30
0.0
 10
29.31234938945092
 20
3.459627814051343
 30
0.0
 10
28.89360245079223
 20
3.518382749930766
 30
0.0
 10
28.6256483987233
 20
3.560207896948746
 30
0.0
 10
28.48581974717095
 20
3.582033855031284
 30
0.0
  0
LINE
  5
A2
330
1F
100
AcDbEntity
  8
외형선
  6
Continuous
 62
     1
370
    15
100
AcDbLine
 10
12.99871851459529
 20
-4.762499999999998
 30
0.0
 11
15.30758279267037
 21
-4.762499999999998
 31
0.0
  0
SPLINE
  5
A3
330
1F
100
AcDbEntity
  8
외형선
  6
Continuous
370
    15
100
AcDbSpline
210
0.0
220
0.0
230
1.0
 70
     8
 71
     3
 72
    10
 73
     6
 74
     0
 42
0.000000001
 43
0.00000001
 40
0.0
 40
0.0
 40
0.0
 40
0.0
 40
0.5
 40
0.5
 40
1.0
 40
1.0
 40
1.0
 40
1.0
 10
10.0
 20
4.451046776078627
 30
0.0
 10
9.745801947542496
 20
4.39894916771327
 30
0.0
 10
9.491357970387059
 20
4.340506697652684
 30
0.0
 10
8.985212994838506
 20
4.211730573704534
 30
0.0
 10
8.733778114753417
 20
4.141448493319179
 30
0.0
 10
8.480101010513822
 20
4.065197523897534
 30
0.0
  0
SPLINE
  5
A4
330
1F
100
AcDbEntity
  8
외형선
  6
Continuous
370
    15
100
AcDbSpline
210
0.0
220
0.0
230
1.0
 70
     8
 71
     3
 72
    10
 73
     6
 74
     0
 42
0.000000001
 43
0.00000001
 40
0.0
 40
0.0
 40
0.0
 40
0.0
 40
0.5
 40
0.5
 40
1.0
 40
1.0
 40
1.0
 40
1.0
 10
10.0
 20
-3.81008006818451
 30
0.0
 10
9.745819617777963
 20
-3.722208622578626
 30
0.0
 10
9.491393344690483
 20
-3.628893020074091
 30
0.0
 10
8.985283172534896
 20
-3.432606969082388
 30
0.0
 10
8.73386602049473
 20
-3.329694832229932
 30
0.0
 10
8.480206814593425
 20
-3.221913063463344
 30
0.0
  0
LINE
  5
A5
330
1F
100
AcDbEntity
  8
외형선
  6
Continuous
370
    15
100
AcDbLine
 10
10.0
 20
-3.81008006818451
 30
0.0
 11
10.0
 21
-4.451046776078624
 31
0.0
  0
SPLINE
  5
A6
330
1F
100
AcDbEntity
  8
외형선
  6
Continuous
370
    15
100
AcDbSpline
210
0.0
220
0.0
230
1.0
 70
     8
 71
     3
 72
    10
 73
     6
 74
     0
 42
0.000000001
 43
0.00000001
 40
0.0
 40
0.0
 40
0.0
 40
0.0
 40
0.5
 40
0.5
 40
1.0
 40
1.0
 40
1.0
 40
1.0
 10
10.0
 20
-4.451046776078618
 30
0.0
 10
9.745801947542496
 20
-4.398949167713262
 30
0.0
 10
9.491357970387059
 20
-4.340506697652676
 30
0.0
 10
8.985212994838506
 20
-4.211730573704525
 30
0.0
 10
8.733778114753417
 20
-4.14144849331917
 30
0.0
 10
8.480101010513822
 20
-4.065197523897525
 30
0.0
  0
LINE
  5
A7
330
1F
100
AcDbEntity
  8
외형선
  6
Continuous
370
    15
100
AcDbLine
 10
8.480101010513822
 20
-4.762499999999996
 30
0.0
 11
8.480101010513822
 21
-4.065199360782373
 31
0.0
  0
LINE
  5
A8
330
1F
100
AcDbEntity
  8
외형선
  6
Continuous
370
    15
100
AcDbLine
 10
-36.62500000000001
 20
4.762499999999998
 30
0.0
 11
-36.62500000000001
 21
-4.762499999999998
 31
0.0
  0
LINE
  5
A9
330
1F
100
AcDbEntity
  8
외형선
  6
Continuous
370
    15
100
AcDbLine
 10
8.480101010513822
 20
-3.221762750369737
 30
0.0
 11
8.480101010513822
 21
4.762500000000006
 31
0.0
  0
LINE
  5
AA
330
1F
100
AcDbEntity
  8
외형선
  6
Continuous
370
    15
100
AcDbLine
 10
-37.62500000000001
 20
3.762499999999998
 30
0.0
 11
-37.62500000000001
 21
-3.762499999999998
 31
0.0
  0
SPLINE
  5
AB
330
1F
100
AcDbEntity
  8
외형선
  6
Continuous
370
    15
100
AcDbSpline
210
0.0
220
0.0
230
1.0
 70
     8
 71
     3
 72
    10
 73
     6
 74
     0
 42
0.000000001
 43
0.00000001
 40
0.0
 40
0.0
 40
0.0
 40
0.0
 40
0.5
 40
0.5
 40
1.0
 40
1.0
 40
1.0
 40
1.0
 10
9.999999999999993
 20
-3.086292779594929
 30
0.0
 10
9.745819617777954
 20
-3.005735148315301
 30
0.0
 10
9.491393344690481
 20
-2.920764590798427
 30
0.0
 10
8.985283172534897
 20
-2.743115977021915
 30
0.0
 10
8.733866020494728
 20
-2.650488215431343
 30
0.0
 10
8.480206814593425
 20
-2.553967690954072
 30
0.0
  0
SPLINE
  5
AC
330
1F
100
AcDbEntity
  8
외형선
  6
Continuous
370
    15
100
AcDbSpline
210
0.0
220
0.0
230
1.0
 70
     8
 71
     3
 72
    10
 73
     6
 74
     0
 42
0.000000001
 43
0.00000001
 40
0.0
 40
0.0
 40
0.0
 40
0.0
 40
0.5
 40
0.5
 40
1.0
 40
1.0
 40
1.0
 40
1.0
 10
10.0
 20
1.207673778302883
 30
0.0
 10
9.745808400021465
 20
1.318803187324425
 30
0.0
 10
9.49137088769956
 20
1.428250927771922
 30
0.0
 10
8.985238620979363
 20
1.642407483990798
 30
0.0
 10
8.733810214508189
 20
1.747089492005688
 30
0.0
 10
8.480139646038834
 20
1.84946010600216
 30
0.0
  0
SPLINE
  5
AD
330
1F
100
AcDbEntity
  8
외형선
  6
Continuous
370
    15
100
AcDbSpline
210
0.0
220
0.0
230
1.0
 70
    24
 71
     3
 72
    14
 73
    10
 74
     0
 42
0.000000001
 43
0.00000001
 40
0.0
 40
0.0
 40
0.0
 40
0.0
 40
0.2499999999999999
 40
0.2499999999999999
 40
0.4999999999999999
 40
0.4999999999999999
 40
0.7499999999999999
 40
0.7499999999999999
 40
1.0
 40
1.0
 40
1.0
 40
1.0
 10
10.0
 20
1.207673778302883
 30
0.0
 10
10.0
 20
0.8482000556669431
 30
0.0
 10
10.0
 20
0.472175343733047
 30
0.0
 10
10.0
 20
-0.2888665136329892
 30
0.0
 10
10.0
 20
-0.673688176231012
 30
0.0
 10
10.0
 20
-1.42416522069484
 30
0.0
 10
10.0
 20
-1.789603887571759
 30
0.0
 10
10.0
 20
-2.475843050071793
 30
0.0
 10
10.0
 20
-2.796506965628177
 30
0.0
 10
10.0
 20
-3.08629277959493
 30
0.0
  0
SPLINE
  5
AE
330
1F
100
AcDbEntity
  8
외형선
  6
Continuous
370
    15
100
AcDbSpline
210
0.0
220
0.0
230
1.0
 70
    24
 71
     3
 72
    13
 73
     9
 74
     0
 42
0.000000001
 43
0.00000001
 40
0.0
 40
0.0
 40
0.0
 40
0.0
 40
0.0591628328009345
 40
0.2502730378698054
 40
0.4359972288192935
 40
0.6271074338881695
 40
0.8135537169440847
 40
0.9999999999999999
 40
0.9999999999999999
 40
0.9999999999999999
 40
0.9999999999999999
 10
10.0
 20
3.176583443740062
 30
0.0
 10
10.0
 20
3.180496267937904
 30
0.0
 10
10.0
 20
3.197048457079001
 30
0.0
 10
10.00000000000001
 20
3.074772185296155
 30
0.0
 10
10.0
 20
2.809437558041016
 30
0.0
 10
10.0
 20
2.396908735923457
 30
0.0
 10
10.0
 20
1.866259609996322
 30
0.0
 10
10.0
 20
1.427202388867362
 30
0.0
 10
10.0
 20
1.207673778302882
 30
0.0
  0
SPLINE
  5
AF
330
1F
100
AcDbEntity
  8
외형선
  6
Continuous
370
    15
100
AcDbSpline
210
0.0
220
0.0
230
1.0
 70
    24
 71
     3
 72
     8
 73
     4
 74
     0
 42
0.000000001
 43
0.00000001
 40
0.0
 40
0.0
 40
0.0
 40
0.0
 40
1.0
 40
1.0
 40
1.0
 40
1.0
 10
10.00000000000001
 20
-3.086292779594936
 30
0.0
 10
10.00000000000001
 20
-3.319923477464628
 30
0.0
 10
10.00000000000001
 20
-3.562702643602548
 30
0.0
 10
10.00000000000001
 20
-3.810080068175092
 30
0.0
  0
SPLINE
  5
B0
330
1F
100
AcDbEntity
  8
외형선
  6
Continuous
370
    15
100
AcDbSpline
210
0.0
220
0.0
230
1.0
 70
    24
 71
     3
 72
    11
 73
     7
 74
     0
 42
0.000000001
 43
0.00000001
 40
0.0
 40
0.0
 40
0.0
 40
0.0
 40
0.1907712483858848
 40
0.4117251632689814
 40
0.6390867566521707
 40
1.0
 40
1.0
 40
1.0
 40
1.0
 10
10.0
 20
4.45104677607863
 30
0.0
 10
10.00000000000001
 20
4.36038907824822
 30
0.0
 10
10.00000000000001
 20
4.164730373088871
 30
0.0
 10
10.0
 20
3.872841355250739
 30
0.0
 10
10.00000000000001
 20
3.522359650233748
 30
0.0
 10
10.00000000000001
 20
3.317795540766328
 30
0.0
 10
10.0
 20
3.19229315376859
 30
0.0
  0
SPLINE
  5
B1
330
1F
100
AcDbEntity
  8
외형선
  6
Continuous
 62
     1
370
    15
100
AcDbSpline
210
0.0
220
0.0
230
1.0
 70
     8
 71
     3
 72
    16
 73
    12
 74
     0
 42
0.000000001
 43
0.00000001
 40
0.0
 40
0.0
 40
0.0
 40
0.0
 40
0.1216997161131452
 40
0.2432916476768475
 40
0.364840079121918
 40
0.486409660113955
 40
0.6080648626499234
 40
0.7297961864150889
 40
0.8514181661134603
 40
0.9729743388849502
 40
0.9999999999999999
 40
0.9999999999999999
 40
0.9999999999999999
 40
0.9999999999999999
 10
38.57500000000001
 20
-3.757480409053625
 30
0.0
 10
38.07301644713753
 20
-3.65381811271082
 30
0.0
 10
37.06949392807883
 20
-3.446585329556589
 30
0.0
 10
35.56489438625413
 20
-2.987761695631382
 30
0.0
 10
34.06088888146967
 20
-2.438824234667141
 30
0.0
 10
32.55659097046925
 20
-1.806437789236108
 30
0.0
 10
31.05137364998524
 20
-1.11496674430502
 30
0.0
 10
29.54568769133354
 20
-0.3857106069426715
 30
0.0
 10
28.04074757791356
 20
0.3529983409006144
 30
0.0
 10
26.92646661505046
 20
0.9019112835539033
 30
0.0
 10
26.31372738791393
 20
1.181612157226864
 30
0.0
 10
26.20227579069422
 20
1.232487158751217
 30
0.0
  0
LINE
  5
B2
330
1F
100
AcDbEntity
  8
외형선
  6
Continuous
 62
     1
370
    15
100
AcDbLine
 10
38.57500000000001
 20
-3.974647176018939
 30
0.0
 11
38.57500000000001
 21
-3.757480409053625
 31
0.0
  0
SPLINE
  5
B3
330
1F
100
AcDbEntity
  8
외형선
  6
Continuous
 62
     1
370
    15
100
AcDbSpline
210
0.0
220
0.0
230
1.0
 70
     8
 71
     3
 72
    14
 73
    10
 74
     0
 42
0.000000001
 43
0.00000001
 40
0.0
 40
0.0
 40
0.0
 40
0.0
 40
0.25
 40
0.25
 40
0.5
 40
0.5
 40
0.75
 40
0.75
 40
1.0
 40
1.0
 40
1.0
 40
1.0
 10
38.067
 20
-4.418150874969313
 30
0.0
 10
38.12757194843492
 20
-4.431196210824366
 30
0.0
 10
38.18947260783613
 20
-4.432469150246047
 30
0.0
 10
38.31047126984771
 20
-4.406429099676819
 30
0.0
 10
38.36879563325235
 20
-4.378727157151447
 30
0.0
 10
38.46789222001455
 20
-4.295548682415609
 30
0.0
 10
38.50852164003846
 20
-4.239776600583222
 30
0.0
 10
38.56186973126051
 20
-4.114234904168105
 30
0.0
 10
38.57500000000001
 20
-4.044702679207163
 30
0.0
 10
38.57500000000001
 20
-3.974647176018939
 30
0.0
  0
SPLINE
  5
B4
330
1F
100
AcDbEntity
  8
외형선
  6
Continuous
 62
     1
370
    15
100
AcDbSpline
210
0.0
220
0.0
230
1.0
 70
     8
 71
     3
 72
    23
 73
    19
 74
     0
 42
0.000000001
 43
0.00000001
 40
0.0
 40
0.0
 40
0.0
 40
0.0
 40
0.0644694528344357
 40
0.128984026844596
 40
0.1934309165963805
 40
0.2578440836351479
 40
0.3222694346530585
 40
0.3867527527197993
 40
0.4475788562880162
 40
0.5083165001061276
 40
0.569046150905881
 40
0.6298506771915335
 40
0.6906724163216997
 40
0.7584748285589299
 40
0.8262630808012396
 40
0.8940607186262461
 40
0.9618912261959485
 40
1.0
 40
1.0
 40
1.0
 40
1.0
 10
38.067
 20
-4.418150874969313
 30
0.0
 10
37.57790956916082
 20
-4.299233048508755
 30
0.0
 10
36.59938640063312
 20
-4.061314166834971
 30
0.0
 10
35.13149962256815
 20
-3.539475098094844
 30
0.0
 10
33.66458745786255
 20
-2.915589483159177
 30
0.0
 10
32.19845148129702
 20
-2.197183032304741
 30
0.0
 10
30.73201640803692
 20
-1.410101188537607
 30
0.0
 10
29.29245554973331
 20
-0.5942769675825733
 30
0.0
 10
27.88069395653618
 20
0.2221678841678007
 30
0.0
 10
26.49805734173959
 20
1.017076093389892
 30
0.0
 10
25.11560349974148
 20
1.783359488440535
 30
0.0
 10
23.73201262582877
 20
2.499149890339704
 30
0.0
 10
22.29468834625221
 20
3.169901337695764
 30
0.0
 10
20.80471639882149
 20
3.765031805287153
 30
0.0
 10
19.26183789813926
 20
4.251839542816923
 30
0.0
 10
17.71871061522995
 20
4.582463112156999
 30
0.0
 10
16.40062559006469
 20
4.753018297119992
 30
0.0
 10
15.59675379655953
 20
4.744893093692966
 30
0.0
 10
15.30758279267036
 20
4.741970272851658
 30
0.0
  0
SPLINE
  5
B5
330
1F
100
AcDbEntity
  8
외형선
  6
Continuous
 62
     1
370
    15
100
AcDbSpline
210
0.0
220
0.0
230
1.0
 70
     8
 71
     3
 72
    16
 73
    12
 74
     0
 42
0.000000001
 43
0.00000001
 40
0.0
 40
0.0
 40
0.0
 40
0.0
 40
0.0840049039830312
 40
0.2026265357672077
 40
0.3212489425924824
 40
0.4398720909755736
 40
0.5584959473854565
 40
0.6771204782455007
 40
0.8033212656971697
 40
0.9295338985636274
 40
1.0
 40
1.0
 40
1.0
 40
1.0
 10
26.74095226347305
 20
-0.4504753908142898
 30
0.0
 10
26.2969435127445
 20
-0.2722819437132515
 30
0.0
 10
25.22595895416889
 20
0.1575348785260083
 30
0.0
 10
23.52799310057668
 20
0.843525628728133
 30
0.0
 10
21.64705025804216
 20
1.556984587537766
 30
0.0
 10
19.76609692380479
 20
2.190729430269174
 30
0.0
 10
17.88512178911323
 20
2.710267807220583
 30
0.0
 10
15.96412950909016
 20
3.099873552007811
 30
0.0
 10
14.00288470745303
 20
3.316506140414733
 30
0.0
 10
12.29621066608536
 20
3.368064251622848
 30
0.0
 10
11.2565960665667
 20
3.268682512257837
 30
0.0
 10
10.88412271257603
 20
3.233076000187064
 30
0.0
  0
SPLINE
  5
B6
330
1F
100
AcDbEntity
  8
외형선
  6
Continuous
370
    15
100
AcDbSpline
210
0.0
220
0.0
230
1.0
 70
    24
 71
     3
 72
    11
 73
     7
 74
     0
 42
0.000000001
 43
0.00000001
 40
0.0
 40
0.0
 40
0.0
 40
0.0
 40
0.1907712483858848
 40
0.4117251632689817
 40
0.6390867566521695
 40
1.0
 40
1.0
 40
1.0
 40
1.0
 10
10.0
 20
4.45104677607863
 30
0.0
 10
10.0
 20
4.36038907824822
 30
0.0
 10
10.0
 20
4.164730373088871
 30
0.0
 10
10.0
 20
3.87284135525074
 30
0.0
 10
10.0
 20
3.522359650233747
 30
0.0
 10
10.0
 20
3.317795540766327
 30
0.0
 10
10.0
 20
3.19229315376859
 30
0.0
  0
SPLINE
  5
B7
330
1F
100
AcDbEntity
  8
외형선
  6
Continuous
 62
     1
370
    15
100
AcDbSpline
210
0.0
220
0.0
230
1.0
 70
     8
 71
     3
 72
    60
 73
    56
 74
     0
 42
0.000000001
 43
0.00000001
 40
0.0
 40
0.0
 40
0.0
 40
0.0
 40
0.0312500000000001
 40
0.0312500000000001
 40
0.0625000000000002
 40
0.0625000000000002
 40
0.0937500000000003
 40
0.0937500000000003
 40
0.1250000000000004
 40
0.1250000000000004
 40
0.1562500000000006
 40
0.1562500000000006
 40
0.1875000000000007
 40
0.1875000000000007
 40
0.2187500000000008
 40
0.2187500000000008
 40
0.2500000000000009
 40
0.2500000000000009
 40
0.3125000000000008
 40
0.3125000000000008
 40
0.3750000000000007
 40
0.3750000000000007
 40
0.4375000000000006
 40
0.4375000000000006
 40
0.4687500000000005
 40
0.4687500000000005
 40
0.5000000000000004
 40
0.5000000000000004
 40
0.5312500000000004
 40
0.5312500000000004
 40
0.5625000000000004
 40
0.5625000000000004
 40
0.5937500000000004
 40
0.5937500000000004
 40
0.6250000000000004
 40
0.6250000000000004
 40
0.6562500000000004
 40
0.6562500000000004
 40
0.6875000000000004
 40
0.6875000000000004
 40
0.7187500000000004
 40
0.7187500000000004
 40
0.7500000000000004
 40
0.7500000000000004
 40
0.7812500000000004
 40
0.7812500000000004
 40
0.8125000000000004
 40
0.8125000000000004
 40
0.8437500000000004
 40
0.8437500000000004
 40
0.8750000000000004
 40
0.8750000000000004
 40
0.9375000000000002
 40
0.9375000000000002
 40
1.0
 40
1.0
 40
1.0
 40
1.0
 10
38.06699999999999
 20
-4.762500000000117
 30
0.0
 10
37.77207436626437
 20
-4.738824273019565
 30
0.0
 10
37.48038198902081
 20
-4.693730378487987
 30
0.0
 10
36.89519573454339
 20
-4.623603301078755
 30
0.0
 10
36.60535552021867
 20
-4.579894416692419
 30
0.0
 10
36.02050136847059
 20
-4.475157000269968
 30
0.0
 10
35.726618223804
 20
-4.414145345137324
 30
0.0
 10
35.14091556459957
 20
-4.275845014839034
 30
0.0
 10
34.85082613721445
 20
-4.198738181108531
 30
0.0
 10
34.26667468493419
 20
-4.028689199771322
 30
0.0
 10
33.97286947492977
 20
-3.935729255584675
 30
0.0
 10
33.38677148526726
 20
-3.735462337113971
 30
0.0
 10
33.09611034461512
 20
-3.628374896855294
 30
0.0
 10
32.5127815972665
 20
-3.400738934762531
 30
0.0
 10
32.21911551699771
 20
-3.280030697474691
 30
0.0
 10
31.63274354408894
 20
-3.026810856385104
 30
0.0
 10
31.3411885828467
 20
-2.894484149226257
 30
0.0
 10
30.46760867924271
 20
-2.482133949443814
 30
0.0
 10
29.87670426510013
 20
-2.184974710893104
 30
0.0
 10
28.71405293752817
 20
-1.565547148098527
 30
0.0
 10
28.12254676395107
 20
-1.23981662413036
 30
0.0
 10
26.95881841707914
 20
-0.5781347682602025
 30
0.0
 10
26.36901686639522
 20
-0.238921415268432
 30
0.0
 10
25.49471702899861
 20
0.2668156150137723
 30
0.0
 10
25.20364350409174
 20
0.4351418461537018
 30
0.0
 10
24.61739159657651
 20
0.7703059961502223
 30
0.0
 10
24.32364919523507
 20
0.9368633342966337
 30
0.0
 10
23.73989937491926
 20
1.265123349764825
 30
0.0
 10
23.44956073313677
 20
1.426898972048149
 30
0.0
 10
22.86364273784154
 20
1.745429148185365
 30
0.0
 10
22.56979140476701
 20
1.901853594144004
 30
0.0
 10
21.985278051698
 20
2.206389269848882
 30
0.0
 10
21.69535196411585
 20
2.354395097669661
 30
0.0
 10
21.10988910395332
 20
2.641931210138349
 30
0.0
 10
20.8159900663418
 20
2.781165119767592
 30
0.0
 10
20.23083343502855
 20
3.048212270823868
 30
0.0
 10
19.94099728916028
 20
3.175841417493187
 30
0.0
 10
19.35611047294769
 20
3.419432305037731
 30
0.0
 10
19.06222499122584
 20
3.535195020843805
 30
0.0
 10
18.47654577932045
 20
3.752677143177543
 30
0.0
 10
18.18647690084752
 20
3.854220076867465
 30
0.0
 10
17.60228664029349
 20
4.042910289936474
 30
0.0
 10
17.30847596544441
 20
4.129983083790504
 30
0.0
 10
16.72239523103444
 20
4.288060459393554
 30
0.0
 10
16.43177110562568
 20
4.358951936484702
 30
0.0
 10
15.84839743289124
 20
4.484277435666254
 30
0.0
 10
15.55472276379409
 20
4.538740145336989
 30
0.0
 10
14.96836184217332
 20
4.63025743334033
 30
0.0
 10
14.67686033707395
 20
4.667275046874474
 30
0.0
 10
14.09442272302571
 20
4.723645267503242
 30
0.0
 10
13.80094516387179
 20
4.743053841502927
 30
0.0
 10
12.92116579392821
 20
4.774271624244762
 30
0.0
 10
12.34040125998533
 20
4.759137622381451
 30
0.0
 10
11.16728806044333
 20
4.657457281880703
 30
0.0
 10
10.5864719554535
 20
4.571243551612895
 30
0.0
 10
10.0
 20
4.451046776078635
 30
0.0
  0
SPLINE
  5
B9
330
1F
100
AcDbEntity
  8
외형선
  6
Continuous
 62
     1
370
    15
100
AcDbSpline
210
0.0
220
0.0
230
1.0
 70
     8
 71
     3
 72
    15
 73
    11
 74
     0
 42
0.000000001
 43
0.00000001
 40
0.0
 40
0.0
 40
0.0
 40
0.0
 40
0.12474792060758
 40
0.2494989363675021
 40
0.3742794880546391
 40
0.4991158768284131
 40
0.646498075300961
 40
0.7938813328286147
 40
0.94126560908025
 40
0.9999999999999999
 40
0.9999999999999999
 40
0.9999999999999999
 40
0.9999999999999999
 10
37.42052765837758
 20
0.5312826839403435
 30
0.0
 10
36.88993539932174
 20
0.7721263332773081
 30
0.0
 10
35.82873771655072
 20
1.253819607584191
 30
0.0
 10
34.23681410934275
 20
1.924511014300733
 30
0.0
 10
32.64446221332455
 20
2.525367945011648
 30
0.0
 10
30.95574652526316
 20
3.061670177883764
 30
0.0
 10
29.17073295535639
 20
3.494305779751178
 30
0.0
 10
27.28984359561001
 20
3.756880991917448
 30
0.0
 10
25.78604764745519
 20
3.847630765754482
 30
0.0
 10
24.90922004040011
 20
3.780035006100485
 30
0.0
 10
24.65936428425367
 20
3.760773306873923
 30
0.0
  0
SPLINE
  5
BA
330
1F
100
AcDbEntity
  8
외형선
  6
Continuous
 62
     1
370
    15
100
AcDbSpline
210
0.0
220
0.0
230
1.0
 70
    24
 71
     3
 72
     8
 73
     4
 74
     0
 42
0.000000001
 43
0.00000001
 40
0.0
 40
0.0
 40
0.0
 40
0.0
 40
1.0
 40
1.0
 40
1.0
 40
1.0
 10
37.42052765837767
 20
0.5312826839403156
 30
0.0
 10
37.25401577711467
 20
0.3915626257859106
 30
0.0
 10
37.08759687325274
 20
0.2519205849344298
 30
0.0
 10
36.9212686410681
 20
0.1123546266539257
 30
0.0
  0
SPLINE
  5
BB
330
1F
100
AcDbEntity
  8
외형선
  6
Continuous
 62
     1
370
    15
100
AcDbSpline
210
0.0
220
0.0
230
1.0
 70
     8
 71
     3
 72
     8
 73
     4
 74
     0
 42
0.000000001
 43
0.00000001
 40
0.0
 40
0.0
 40
0.0
 40
0.0
 40
1.0
 40
1.0
 40
1.0
 40
1.0
 10
38.57500000000001
 20
-1.272744530466175
 30
0.0
 10
38.01551019568365
 20
-0.8328911292749392
 30
0.0
 10
37.46407819674813
 20
-0.3716900451962822
 30
0.0
 10
36.92126864107709
 20
0.1123546266614782
 30
0.0
  0
SPLINE
  5
BC
330
1F
100
AcDbEntity
  8
외형선
  6
Continuous
 62
     1
370
    15
100
AcDbSpline
210
0.0
220
0.0
230
1.0
 70
    24
 71
     3
 72
    10
 73
     6
 74
     0
 42
0.000000001
 43
0.00000001
 40
0.0
 40
0.0
 40
0.0
 40
0.0
 40
0.5
 40
0.5
 40
1.0
 40
1.0
 40
1.0
 40
1.0
 10
38.57500000000001
 20
-3.757480409053622
 30
0.0
 10
38.57500000000001
 20
-3.469440240130615
 30
0.0
 10
38.57500000000001
 20
-3.105490442104551
 30
0.0
 10
38.575
 20
-2.259342187955107
 30
0.0
 10
38.57500000000001
 20
-1.777876697531856
 30
0.0
 10
38.57500000000001
 20
-1.272744530466329
 30
0.0
  0
LINE
  5
BD
330
1F
100
AcDbEntity
  8
외형선
  6
Continuous
 62
     1
370
    15
100
AcDbLine
 10
37.5235810710064
 20
0.6177547644686573
 30
0.0
 11
38.57500000000001
 21
0.0000000000000076
 31
0.0
  0
LINE
  5
BE
330
1F
100
AcDbEntity
  8
외형선
  6
Continuous
 62
     1
370
    15
100
AcDbLine
 10
38.57500000000001
 20
0.0000000000000076
 30
0.0
 11
38.57500000000001
 21
-1.272744530466176
 31
0.0
  0
SPLINE
  5
BF
330
1F
100
AcDbEntity
  8
외형선
  6
Continuous
 62
     1
370
    15
100
AcDbSpline
210
0.0
220
0.0
230
1.0
 70
     8
 71
     3
 72
    12
 73
     8
 74
     0
 42
0.000000001
 43
0.00000001
 40
0.0
 40
0.0
 40
0.0
 40
0.0
 40
0.1994172879707935
 40
0.3996639996024879
 40
0.5999228075507075
 40
0.799998308934818
 40
1.0
 40
1.0
 40
1.0
 40
1.0
 10
17.49972003539542
 20
-3.962665033344849
 30
0.0
 10
17.00123297529732
 20
-4.000122340112877
 30
0.0
 10
16.00218552953086
 20
-4.075192747446068
 30
0.0
 10
14.50226208166078
 20
-4.018567696198092
 30
0.0
 10
13.00066937527479
 20
-3.836888804091706
 30
0.0
 10
11.49998902187288
 20
-3.533197756109618
 30
0.0
 10
10.49993484056092
 20
-3.235242781842804
 30
0.0
 10
9.999999999999993
 20
-3.08629277959493
 30
0.0
  0
SPLINE
  5
C0
330
1F
100
AcDbEntity
  8
외형선
  6
Continuous
 62
     1
370
    15
100
AcDbSpline
210
0.0
220
0.0
230
1.0
 70
     8
 71
     3
 72
    18
 73
    14
 74
     0
 42
0.000000001
 43
0.00000001
 40
0.0
 40
0.0
 40
0.0
 40
0.0
 40
0.0651051544901607
 40
0.166805714379681
 40
0.2685069493512665
 40
0.3702088314868844
 40
0.4719113328271041
 40
0.573614425372861
 40
0.6753180810872312
 40
0.7565300986694733
 40
0.83774711086744
 40
0.9188887340652533
 40
0.9999999999999999
 40
0.9999999999999999
 40
0.9999999999999999
 40
0.9999999999999999
 10
28.49394008038978
 20
-3.559222736676946
 30
0.0
 10
28.09257530925399
 20
-3.623690854315672
 30
0.0
 10
27.064239874058
 20
-3.78886441855422
 30
0.0
 10
25.40892771560439
 20
-3.837163849514493
 30
0.0
 10
23.52799953989903
 20
-3.721701124338308
 30
0.0
 10
21.64705895200159
 20
-3.405975597271448
 30
0.0
 10
19.76610088035846
 20
-2.915937972993167
 30
0.0
 10
17.88514733699751
 20
-2.274426816597202
 30
0.0
 10
16.13045442263304
 20
-1.566163995354192
 30
0.0
 10
14.50224191431052
 20
-0.84818407123258
 30
0.0
 10
13.00065051520971
 20
-0.1589520526413979
 30
0.0
 10
11.49998099151307
 20
0.5386969571297681
 30
0.0
 10
10.49993129459034
 20
0.9847093206515604
 30
0.0
 10
10.00000000000001
 20
1.207673778302881
 30
0.0
  0
SPLINE
  5
C1
330
1F
100
AcDbEntity
  8
외형선
  6
Continuous
370
    15
100
AcDbSpline
210
0.0
220
0.0
230
1.0
 70
    24
 71
     3
 72
    14
 73
    10
 74
     0
 42
0.000000001
 43
0.00000001
 40
0.0
 40
0.0
 40
0.0
 40
0.0
 40
0.2499999999999999
 40
0.2499999999999999
 40
0.4999999999999999
 40
0.4999999999999999
 40
0.7499999999999999
 40
0.7499999999999999
 40
1.0
 40
1.0
 40
1.0
 40
1.0
 10
10.0
 20
1.207673778302883
 30
0.0
 10
10.0
 20
0.8482000556669431
 30
0.0
 10
10.0
 20
0.472175343733047
 30
0.0
 10
10.0
 20
-0.2888665136329892
 30
0.0
 10
10.0
 20
-0.673688176231012
 30
0.0
 10
10.0
 20
-1.42416522069484
 30
0.0
 10
10.0
 20
-1.789603887571759
 30
0.0
 10
10.0
 20
-2.475843050071793
 30
0.0
 10
10.0
 20
-2.796506965628177
 30
0.0
 10
10.0
 20
-3.08629277959493
 30
0.0
  0
SPLINE
  5
C2
330
1F
100
AcDbEntity
  8
외형선
  6
Continuous
370
    15
100
AcDbSpline
210
0.0
220
0.0
230
1.0
 70
    24
 71
     3
 72
    13
 73
     9
 74
     0
 42
0.000000001
 43
0.00000001
 40
0.0
 40
0.0
 40
0.0
 40
0.0
 40
0.0598335908222007
 40
0.2508075462748099
 40
0.4363993274990388
 40
0.627373282951653
 40
0.8136866414758265
 40
1.0
 40
1.0
 40
1.0
 40
1.0
 10
10.0
 20
3.176500342660017
 30
0.0
 10
10.0
 20
3.180474825027838
 30
0.0
 10
10.0
 20
3.197134867600709
 30
0.0
 10
10.0
 20
3.074813761128349
 30
0.0
 10
10.0
 20
2.809426191155387
 30
0.0
 10
10.0
 20
2.396911720199753
 30
0.0
 10
10.0
 20
1.866258871623198
 30
0.0
 10
10.0
 20
1.427202142742987
 30
0.0
 10
10.0
 20
1.207673778302882
 30
0.0
  0
LINE
  5
C3
330
1F
100
AcDbEntity
  8
외형선
  6
Continuous
 62
     1
370
    15
100
AcDbLine
 10
38.57500000000001
 20
3.333750000000004
 30
0.0
 11
36.80389222690378
 21
3.252490126892249
 31
0.0
  0
SPLINE
  5
C4
330
1F
100
AcDbEntity
  8
외형선
  6
Continuous
 62
     1
370
    15
100
AcDbSpline
210
0.0
220
0.0
230
1.0
 70
    24
 71
     3
 72
    10
 73
     6
 74
     0
 42
0.000000001
 43
0.00000001
 40
0.0
 40
0.0
 40
0.0
 40
0.0
 40
0.5
 40
0.5
 40
1.0
 40
1.0
 40
1.0
 40
1.0
 10
38.57500000000001
 20
1.500000000000068
 30
0.0
 10
38.57500000000001
 20
1.965700398530152
 30
0.0
 10
38.57500000000002
 20
2.372104378088717
 30
0.0
 10
38.57500000000001
 20
2.996211531088615
 30
0.0
 10
38.57500000000001
 20
3.213486889686468
 30
0.0
 10
38.57500000000001
 20
3.333750000000004
 30
0.0
  0
SPLINE
  5
C5
330
1F
100
AcDbEntity
  8
외형선
  6
Continuous
 62
     1
370
    15
100
AcDbSpline
210
0.0
220
0.0
230
1.0
 70
    24
 71
     3
 72
     8
 73
     4
 74
     0
 42
0.000000001
 43
0.00000001
 40
0.0
 40
0.0
 40
0.0
 40
0.0
 40
1.0
 40
1.0
 40
1.0
 40
1.0
 10
38.57500000000001
 20
1.500000000000009
 30
0.0
 10
38.20024444710683
 20
1.185542753785697
 30
0.0
 10
37.81495761033166
 20
0.8622487111502036
 30
0.0
 10
37.42052765837764
 20
0.5312826839403181
 30
0.0
  0
SPLINE
  5
C6
330
1F
100
AcDbEntity
  8
외형선
  6
Continuous
 62
     1
370
    15
100
AcDbSpline
210
0.0
220
0.0
230
1.0
 70
     8
 71
     3
 72
    15
 73
    11
 74
     0
 42
0.000000001
 43
0.00000001
 40
0.0
 40
0.0
 40
0.0
 40
0.0
 40
0.0001548144854324
 40
0.1429275284615946
 40
0.2857200099501142
 40
0.4285817202873308
 40
0.5715394248748676
 40
0.7144234364540313
 40
0.8572271655653513
 40
1.0
 40
1.0
 40
1.0
 40
1.0
 10
20.80628390375739
 20
-3.742829257610405
 30
0.0
 10
20.80572627265998
 20
-3.743050802853576
 30
0.0
 10
20.29091117428976
 20
-3.947585371828478
 30
0.0
 10
19.26184804688161
 20
-4.240945720950223
 30
0.0
 10
17.71870824781235
 20
-4.589948668907059
 30
0.0
 10
16.1747900737875
 20
-4.763182354342426
 30
0.0
 10
14.63018891522437
 20
-4.774871588063875
 30
0.0
 10
13.08607945239102
 20
-4.616177589255992
 30
0.0
 10
11.54281129006423
 20
-4.306123936107267
 30
0.0
 10
10.514233338293
 20
-3.975416098445864
 30
0.0
 10
9.99999999999693
 20
-3.810080068183449
 30
0.0
  0
SPLINE
  5
C7
330
1F
100
AcDbEntity
  8
외형선
  6
Continuous
370
    15
100
AcDbSpline
210
0.0
220
0.0
230
1.0
 70
    24
 71
     3
 72
     8
 73
     4
 74
     0
 42
0.000000001
 43
0.00000001
 40
0.0
 40
0.0
 40
0.0
 40
0.0
 40
1.0
 40
1.0
 40
1.0
 40
1.0
 10
10.00000000000001
 20
-3.086292779594936
 30
0.0
 10
10.00000000000001
 20
-3.319923477464628
 30
0.0
 10
10.00000000000001
 20
-3.562702643602548
 30
0.0
 10
10.00000000000001
 20
-3.810080068175092
 30
0.0
  0
SPLINE
  5
C8
330
1F
100
AcDbEntity
  8
외형선
  6
Continuous
 62
     1
370
    15
100
AcDbSpline
210
0.0
220
0.0
230
1.0
 70
     8
 71
     3
 72
    10
 73
     6
 74
     0
 42
0.000000001
 43
0.00000001
 40
0.0
 40
0.0
 40
0.0
 40
0.0
 40
0.4888353768541782
 40
0.977914021379866
 40
1.0
 40
1.0
 40
1.0
 40
1.0
 10
10.0
 20
-4.451046776078626
 30
0.0
 10
10.4885996664852
 20
-4.534693595048429
 30
0.0
 10
11.46604214982644
 20
-4.702028859612957
 30
0.0
 10
12.46555672777819
 20
-4.785097600955332
 30
0.0
 10
12.97663621448026
 20
-4.760331277720852
 30
0.0
 10
12.99871851459529
 20
-4.759261194892956
 30
0.0
  0
SPLINE
  5
C9
330
1F
100
AcDbEntity
  8
외형선
  6
Continuous
 62
     1
370
    15
100
AcDbSpline
210
0.0
220
0.0
230
1.0
 70
     8
 71
     3
 72
    11
 73
     7
 74
     0
 42
0.000000001
 43
0.00000001
 40
0.0
 40
0.0
 40
0.0
 40
0.0
 40
0.2328672771157816
 40
0.4885563393766881
 40
0.7443663873316577
 40
1.0
 40
1.0
 40
1.0
 40
1.0
 10
32.02767315962134
 20
3.192468811562989
 30
0.0
 10
32.49640302313775
 20
3.386214153580753
 30
0.0
 10
33.47979987095788
 20
3.79269254006706
 30
0.0
 10
34.97830293383375
 20
4.251834147552635
 30
0.0
 10
36.52289955892827
 20
4.598221972612466
 30
0.0
 10
37.55169276799575
 20
4.709212027825312
 30
0.0
 10
38.067
 20
4.762500000000135
 30
0.0
  0
LINE
  5
CA
330
1F
100
AcDbEntity
  8
외형선
  6
Continuous
 62
     1
370
    15
100
AcDbLine
 10
38.57500000000001
 20
-3.974647176018939
 30
0.0
 11
38.575
 21
-4.254500000000119
 31
0.0
  0
SPLINE
  5
CC
330
1F
100
AcDbEntity
  8
외형선
  6
Continuous
 62
     1
370
    15
100
AcDbSpline
210
0.0
220
0.0
230
1.0
 70
    24
 71
     3
 72
     8
 73
     4
 74
     0
 42
0.000000001
 43
0.00000001
 40
0.0
 40
0.0
 40
0.0
 40
0.0
 40
1.0
 40
1.0
 40
1.0
 40
1.0
 10
38.57500000000001
 20
3.333750000000004
 30
0.0
 10
38.57500000000001
 20
3.598103359907308
 30
0.0
 10
38.57500000000001
 20
3.91980240032768
 30
0.0
 10
38.57500000000001
 20
4.254500000000135
 30
0.0
  0
LINE
  5
CD
330
1F
100
AcDbEntity
  8
외형선
  6
Continuous
 62
     1
370
    15
100
AcDbLine
 10
38.57500000000001
 20
0.0000000000000076
 30
0.0
 11
38.57500000000001
 21
1.500000000000008
 31
0.0
  0
LINE
  5
CE
330
1F
100
AcDbEntity
  8
중심선
 62
     1
100
AcDbLine
 10
-40.625
 20
0.0
 30
0.0
 11
41.57500000000001
 21
0.0
 31
0.0
  0
LINE
  5
CF
330
1F
100
AcDbEntity
  8
참조1
100
AcDbLine
 10
0.47500000000001
 20
0.0
 30
0.0
 11
0.4750000000000149
 21
-40.0
 31
0.0
  0
LINE
  5
D0
330
1F
100
AcDbEntity
  8
참조1
100
AcDbLine
 10
0.4750000000000149
 20
-40.0
 30
0.0
 11
-14.66672777521595
 21
-39.99999999999999
 31
0.0
  0
CIRCLE
  5
D1
330
1F
100
AcDbEntity
  8
해칭선
100
AcDbCircle
 10
0.0
 20
0.0
 30
0.0
 40
3.000000000000001
  0
INSERT
  5
D2
330
1F
100
AcDbEntity
  8
0
  6
Continuous
 62
     7
100
AcDbBlockReference
 66
     1
  2
블럭10
 10
-13.4652729321252
 20
-52.04717430164393
 30
0.0
  0
ATTRIB
  5
D3
330
D2
100
AcDbEntity
  8
FORMAT
 62
     2
100
AcDbText
 10
-23.60690894426183
 20
-49.97180738881174
 30
0.0
 40
4.233333333333333
  1
EM211024 [ 2 FLUTE ]
 41
0.75
  7
SLDTEXTSTYLE0
 11
-23.60690894426183
 21
-52.08847405547841
 31
0.0
100
AcDbAttribute
  2
AUTOATTR0
 70
     0
 74
     1
  0
SEQEND
  5
D4
330
D2
100
AcDbEntity
  8
0
  6
Continuous
 62
     7
  0
HATCH
  5
D5
330
1F
100
AcDbEntity
  8
중심선
100
AcDbHatch
 10
0.0
 20
0.0
 30
0.0
210
0.0
220
0.0
230
1.0
  2
SOLID
 70
     1
 71
     0
 91
        1
 92
        0
 93
        4
 72
     1
 10
-7.750363627744346
 20
-35.79999999999999
 11
-11.19663887158163
 21
-35.79999999999999
 72
     1
 10
-11.19663887158163
 20
-35.79999999999999
 11
-13.32486873078565
 21
-38.33632558057259
 72
     1
 10
-13.32486873078565
 20
-38.33632558057259
 11
-9.87856040183522
 21
-38.33628615127009
 72
     1
 10
-9.87856040183522
 20
-38.33628615127009
 11
-7.750363627744346
 21
-35.79999999999999
 97
        0
 75
     0
 76
     1
 98
        1
 10
-0.0000000000000071
 20
-0.0010749287238892
  0
HATCH
  5
D6
330
1F
100
AcDbEntity
  8
중심선
100
AcDbHatch
 10
0.0
 20
0.0
 30
0.0
210
0.0
220
0.0
230
1.0
  2
SOLID
 70
     1
 71
     0
 91
        1
 92
        0
 93
        4
 72
     1
 10
-2.737599636708395
 20
-35.79999999999999
 11
-6.183874880545649
 21
-35.79999999999999
 72
     1
 10
-6.183874880545649
 20
-35.79999999999999
 11
-10.71501288890307
 21
-41.20000000000001
 72
     1
 10
-10.71501288890307
 20
-41.20000000000001
 11
-7.268737645065783
 21
-41.20000000000001
 72
     1
 10
-7.268737645065783
 20
-41.20000000000001
 11
-2.737599636708395
 21
-35.79999999999999
 97
        0
 75
     0
 76
     1
 98
        1
 10
-0.0000000000000071
 20
-0.0010749287238892
  0
HATCH
  5
D7
330
1F
100
AcDbEntity
  8
중심선
100
AcDbHatch
 10
0.0
 20
0.0
 30
0.0
210
0.0
220
0.0
230
1.0
  2
SOLID
 70
     1
 71
     0
 91
        1
 92
        0
 93
        4
 72
     1
 10
2.275164354327501
 20
-35.79999999999999
 11
-1.171110889509587
 21
-35.79999999999999
 72
     1
 10
-1.171110889509587
 20
-35.79999999999999
 11
-8.219547791398863
 21
-44.20000000000001
 72
     1
 10
-8.219547791398863
 20
-44.20000000000001
 11
-4.773272547561581
 21
-44.20000000000001
 72
     1
 10
-4.773272547561581
 20
-44.20000000000001
 11
2.275164354327501
 21
-35.79999999999999
 97
        0
 75
     0
 76
     1
 98
        1
 10
-0.0000000000000071
 20
-0.0010749287238892
  0
HATCH
  5
D8
330
1F
100
AcDbEntity
  8
중심선
100
AcDbHatch
 10
0.0
 20
0.0
 30
0.0
210
0.0
220
0.0
230
1.0
  2
SOLID
 70
     1
 71
     0
 91
        1
 92
        0
 93
        6
 72
     3
 10
7.075054785339701
 20
-40.00000000005127
 11
3.960054785062285
 21
1.540882976769353E-10
 40
0.3939339440162626
 50
17.09539180608438
 51
320.0019657685079
 73
     0
 72
     1
 10
8.758054441040295
 20
-38.5878940046383
 11
11.06335631474136
 21
-36.65356729459038
 72
     3
 10
7.075054785286854
 20
-40.00000000000014
 11
6.600054785286829
 21
-1.278976924368180E-13
 40
0.636358354079598
 50
39.99873849337384
 51
368.4976242363725
 73
     1
 72
     1
 10
13.50038727718746
 20
-39.03999999993002
 11
5.755122092122776
 21
-39.03999999992999
 72
     1
 10
5.755122092122776
 20
-39.03999999992999
 11
5.755097047676842
 21
-40.95999999992991
 72
     1
 10
5.755097047676842
 20
-40.95999999992991
 11
10.19647681714888
 21
-40.95999999992988
 97
        0
 75
     0
 76
     1
 98
        1
 10
-0.0000000000000071
 20
-0.0010749287238892
  0
DIMENSION
  5
D9
330
1F
100
AcDbEntity
  8
치수문자_일반주서
100
AcDbDimension
  2
_D
 10
-46.42200161012511
 20
-4.762500000000038
 30
0.0
 11
-46.42200161012521
 21
21.18949999999998
 31
0.0
 70
   160
  1
%%c<>
 71
     2
 42
9.52500000000001
 52
-270.0
  3
SLDDIMSTYLE1
100
AcDbAlignedDimension
 13
-37.62500000000001
 23
4.762500000000007
 33
0.0
 14
-37.62102479558768
 24
-4.762500000000001
 34
0.0
 50
90.0000000000002
100
AcDbRotatedDimension
1001
PE_URL
1000

1001
ACAD
1000
DSTYLE
1002
{
1070
   171
1070
     6
1070
   273
1070
     7
1002
}
1001
ACAD_DSTYLE_DIMFLIPARROW_SYMBOL
1070
   385
1070
     0
1001
ACAD_DSTYLE_DIMFLIPARROW_WHICH_SYMBOL
1070
   386
1070
     3
  0
DIMENSION
  5
EE
330
1F
100
AcDbEntity
  8
치수문자_일반주서
100
AcDbDimension
  2
_D_1
 10
48.57500000000005
 20
-4.762499999999882
 30
0.0
 11
48.57499999999995
 21
21.18950000000017
 31
0.0
 70
   160
  1
%%c<>
 71
     2
 42
9.525000000000048
 52
-270.0
  3
SLDDIMSTYLE1
100
AcDbAlignedDimension
 13
38.57500000000001
 23
4.76250000000013
 33
0.0
 14
38.60890001736881
 24
-4.762499999999918
 34
0.0
 50
90.0000000000002
100
AcDbRotatedDimension
1001
ACAD
1000
DSTYLE
1002
{
1070
   171
1070
     6
1070
   273
1070
     7
1002
}
1001
PE_URL
1000

1001
ACAD_DSTYLE_DIMFLIPARROW_SYMBOL
1070
   385
1070
     0
1001
ACAD_DSTYLE_DIMFLIPARROW_WHICH_SYMBOL
1070
   386
1070
     3
  0
DIMENSION
  5
102
330
1F
100
AcDbEntity
  8
치수문자_일반주서
100
AcDbDimension
  2
_D_2
 10
10.0
 20
20.79774303955042
 30
0.0
 11
-8.176999999999996
 21
20.79774303955042
 31
0.0
 70
   160
  1
<>
 71
     2
 42
28.57500000000001
  3
SLDDIMSTYLE1
100
AcDbAlignedDimension
 13
38.57500000000001
 23
4.76250000000013
 33
0.0
 14
10.0
 24
4.76250000000003
 34
0.0
100
AcDbRotatedDimension
1001
PE_URL
1000

1001
ACAD
1000
DSTYLE
1002
{
1070
   171
1070
     6
1070
   273
1070
     7
1002
}
1001
ACAD_DSTYLE_DIMFLIPARROW_SYMBOL
1070
   385
1070
     0
1001
ACAD_DSTYLE_DIMFLIPARROW_WHICH_SYMBOL
1070
   386
1070
     3
  0
DIMENSION
  5
117
330
1F
100
AcDbEntity
  8
치수문자_일반주서
100
AcDbDimension
  2
_D_3
 10
-37.62500000000001
 20
38.62325689628483
 30
0.0
 11
0.1321110371027032
 21
38.62325689628483
 31
0.0
 70
   160
  1
<>
 71
     2
 42
76.20000000000002
  3
SLDDIMSTYLE1
100
AcDbAlignedDimension
 13
38.57500000000001
 23
4.76250000000013
 33
0.0
 14
-37.62500000000001
 24
4.762500000000004
 34
0.0
 50
0.0000000000000053
100
AcDbRotatedDimension
1001
PE_URL
1000

1001
ACAD
1000
DSTYLE
1002
{
1070
   171
1070
     6
1070
   273
1070
     7
1002
}
  0
LINE
  5
12B
330
1F
100
AcDbEntity
  8
참조1
100
AcDbLine
 10
83.30561285443832
 20
7.440000000000007
 30
0.0
 11
83.30561285443832
 21
-7.439999999999998
 31
0.0
  0
LINE
  5
12C
330
1F
100
AcDbEntity
  8
참조1
100
AcDbLine
 10
96.00561285443831
 20
5.440000000000007
 30
0.0
 11
83.30561285443832
 21
5.440000000000007
 31
0.0
  0
SOLID
  5
12D
330
1F
100
AcDbEntity
  8
참조1
100
AcDbTrace
 10
83.30561285443832
 20
5.440000000000007
 30
0.0
 11
89.65561285443832
 21
4.424000000000007
 31
0.0
 12
89.65561285443832
 22
6.456000000000008
 32
0.0
 13
89.65561285443832
 23
6.456000000000008
 33
0.0
  0
LINE
  5
12E
330
1F
100
AcDbEntity
  8
참조1
100
AcDbLine
 10
96.00561285443831
 20
-5.439999999999998
 30
0.0
 11
83.30561285443832
 21
-5.439999999999998
 31
0.0
  0
SOLID
  5
12F
330
1F
100
AcDbEntity
  8
참조1
100
AcDbTrace
 10
83.30561285443832
 20
-5.439999999999998
 30
0.0
 11
89.65561285443832
 21
-6.455999999999998
 31
0.0
 12
89.65561285443832
 22
-4.423999999999998
 32
0.0
 13
89.65561285443832
 23
-4.423999999999998
 33
0.0
  0
MTEXT
  5
130
330
1F
100
AcDbEntity
  8
참조1
100
AcDbMText
 10
92.70310294690859
 20
10.98821664464994
 30
0.0
 40
3.5
 41
0.0
 71
     1
 72
     1
  1
A
  7
SLDTEXTSTYLE0
 73
     1
 44
1.0
  0
MTEXT
  5
131
330
1F
100
AcDbEntity
  8
참조1
100
AcDbMText
 10
92.70310294690859
 20
0.1082166446499359
 30
0.0
 40
3.5
 41
0.0
 71
     1
 72
     1
  1
A
  7
SLDTEXTSTYLE0
 73
     1
 44
1.0
  0
INSERT
  5
138
330
1F
100
AcDbEntity
  8
해칭선
100
AcDbBlockReference
  2
SW_DOWELSYMBOL_0
 10
0.0
 20
0.0
 30
0.0
  0
MTEXT
  5
1B0
102
{ACAD_REACTORS
330
1B1
102
}
330
1F
100
AcDbEntity
  8
0
100
AcDbMText
 10
48.78881423182315
 20
-19.24398572808043
 30
0.0
 40
3.5
 41
0.0
 71
     7
 72
     1
  1
{R0.51[.020"]}
 73
     1
 44
1.0
1001
ACAD
1000
ACAD_MTEXT_DEFINED_HEIGHT_BEGIN
1070
    46
1040
3.5
1000
ACAD_MTEXT_DEFINED_HEIGHT_END
  0
LEADER
  5
1B1
102
{ACAD_XDICTIONARY
360
1B2
102
}
330
1F
100
AcDbEntity
  8
0
100
AcDbLeader
  3
ISO-25
 73
     0
 74
     0
 75
     1
 40
3.5
 41
29.75
 76
     3
 10
38.36388491837975
 20
-4.654449155059663
 30
0.0
 10
43.96281423182315
 20
-17.49398572808043
 30
0.0
 10
47.26481423182315
 20
-17.49398572808043
 30
0.0
340
1B0
213
0.0
223
1.75
233
0.0
1001
ACAD
1000
DSTYLE
1002
{
1070
    77
1070
     0
1070
   179
1070
     2
1070
   143
1040
0.0393700787401575
1070
    41
1040
3.302
1070
    44
1040
1.0
1070
    42
1040
1.0
1070
   147
1040
1.524
1070
    73
1070
     1
1070
    74
1070
     1
1070
   140
1040
3.5
1070
   284
1070
     0
1070
    78
1070
     0
1002
}
  0
ARC
  5
1B5
330
1F
100
AcDbEntity
  8
외형선
  6
Continuous
 62
     1
370
    15
100
AcDbCircle
 10
38.067
 20
4.254500000000135
 30
0.0
 40
0.5079999999999999
100
AcDbArc
 50
0.0
 51
90.0
1001
PE_URL
1000

  0
ARC
  5
1B6
330
1F
100
AcDbEntity
  8
외형선
  6
Continuous
 62
     1
370
    15
100
AcDbCircle
 10
38.06699999999999
 20
-4.254500000000117
 30
0.0
 40
0.5079999999999999
100
AcDbArc
 50
270.0
 51
359.9999999999997
1001
PE_URL
1000

  0
ENDSEC
  0
SECTION
  2
OBJECTS
  0
DICTIONARY
  5
C
330
0
100
AcDbDictionary
281
     1
  3
ACAD_GROUP
350
D
  3
ACAD_LAYOUT
350
1A
  3
ACAD_MLINESTYLE
350
17
  3
ACAD_PLOTSETTINGS
350
19
  3
ACAD_PLOTSTYLENAME
350
E
  3
ACAD_SCALELIST
350
47
  3
APPDATA
350
15A
  3
DWGPROPS
350
1FD
  0
DICTIONARY
  5
1B2
330
1B1
100
AcDbDictionary
280
     1
281
     1
  0
DICTIONARY
  5
D
102
{ACAD_REACTORS
330
C
102
}
330
C
100
AcDbDictionary
281
     1
  0
DICTIONARY
  5
1A
102
{ACAD_REACTORS
330
C
102
}
330
C
100
AcDbDictionary
281
     1
  3
Layout1
350
1E
  3
Layout2
350
26
  3
Model
350
22
  0
DICTIONARY
  5
17
102
{ACAD_REACTORS
330
C
102
}
330
C
100
AcDbDictionary
281
     1
  3
Standard
350
18
  0
DICTIONARY
  5
19
102
{ACAD_REACTORS
330
C
102
}
330
C
100
AcDbDictionary
281
     1
  0
ACDBDICTIONARYWDFLT
  5
E
102
{ACAD_REACTORS
330
C
102
}
330
C
100
AcDbDictionary
281
     1
  3
Normal
350
F
100
AcDbDictionaryWithDefault
340
F
  0
DICTIONARY
  5
47
102
{ACAD_REACTORS
330
C
102
}
330
C
100
AcDbDictionary
281
     1
  3
A0
350
48
  3
A1
350
49
  3
A2
350
4A
  3
A3
350
4B
  3
A4
350
4C
  3
A5
350
4D
  3
A6
350
4E
  3
A7
350
4F
  3
A8
350
50
  3
A9
350
51
  3
B0
350
52
  3
B1
350
53
  3
B2
350
54
  3
B3
350
55
  3
B4
350
56
  3
B5
350
57
  3
B6
350
58
  3
B7
350
59
  3
B8
350
5A
  3
B9
350
5B
  3
C0
350
5C
  3
C1
350
5D
  3
C2
350
5E
  3
C3
350
5F
  3
C4
350
60
  3
C5
350
61
  3
C6
350
62
  3
C7
350
63
  3
C8
350
64
  3
C9
350
65
  3
D0
350
66
  3
D1
350
67
  3
D2
350
68
  0
DICTIONARY
  5
15A
102
{ACAD_REACTORS
330
C
102
}
330
C
100
AcDbDictionary
281
     1
  0
XRECORD
  5
1FD
102
{ACAD_REACTORS
330
C
102
}
330
C
100
AcDbXrecord
280
     1
  1
DWGPROPS COOKIE
  2

  3

  4

  6

  7

  8
USER
  9

300
=
301
=
302
=
303
=
304
=
305
=
306
=
307
=
308
=
309
=
 40
0.0
 41
2458288.272658299
 42
2458303.005270694
  1

 90
        0
  0
LAYOUT
  5
1E
102
{ACAD_REACTORS
330
1A
102
}
330
1A
100
AcDbPlotSettings
  1

  2
none_device
  4

  6

 40
0.0
 41
0.0
 42
0.0
 43
0.0
 44
0.0
 45
0.0
 46
0.0
 47
0.0
 48
0.0
 49
0.0
140
0.0
141
0.0
142
1.0
143
1.0
 70
   688
 72
     1
 73
     0
 74
     5
  7

 75
    16
147
1.0
148
0.0
149
0.0
100
AcDbLayout
  1
Layout1
 70
     1
 71
     1
 10
0.0
 20
0.0
 11
420.0
 21
297.0
 12
0.0
 22
0.0
 32
0.0
 14
1.000000000000000E+20
 24
1.000000000000000E+20
 34
1.000000000000000E+20
 15
-1.000000000000000E+20
 25
-1.000000000000000E+20
 35
-1.000000000000000E+20
146
0.0
 13
0.0
 23
0.0
 33
0.0
 16
1.0
 26
0.0
 36
0.0
 17
0.0
 27
1.0
 37
0.0
 76
     0
330
1B
  0
LAYOUT
  5
26
102
{ACAD_REACTORS
330
1A
102
}
330
1A
100
AcDbPlotSettings
  1

  2
none_device
  4

  6

 40
0.0
 41
0.0
 42
0.0
 43
0.0
 44
0.0
 45
0.0
 46
0.0
 47
0.0
 48
0.0
 49
0.0
140
0.0
141
0.0
142
1.0
143
1.0
 70
   688
 72
     1
 73
     0
 74
     5
  7

 75
    16
147
1.0
148
0.0
149
0.0
100
AcDbLayout
  1
Layout2
 70
     1
 71
     2
 10
0.0
 20
0.0
 11
0.0
 21
0.0
 12
0.0
 22
0.0
 32
0.0
 14
0.0
 24
0.0
 34
0.0
 15
0.0
 25
0.0
 35
0.0
146
0.0
 13
0.0
 23
0.0
 33
0.0
 16
1.0
 26
0.0
 36
0.0
 17
0.0
 27
1.0
 37
0.0
 76
     0
330
23
  0
LAYOUT
  5
22
102
{ACAD_REACTORS
330
1A
102
}
330
1A
100
AcDbPlotSettings
  1

  2
none_device
  4
ANSI_A_(11.00_x_8.50_Inches)
  6

 40
6.35
 41
19.05
 42
6.35000508
 43
19.05000254
 44
279.4
 45
215.9
 46
102.4257659233773
 47
100.8988000233464
 48
0.0
 49
0.0
140
0.0
141
0.0
142
0.0693968741252371
143
1.0
 70
  1696
 72
     0
 73
     0
 74
     0
  7

 75
     0
147
0.0235690232323232
148
0.0
149
0.0
100
AcDbLayout
  1
Model
 70
     1
 71
     0
 10
0.0
 20
0.0
 11
420.0
 21
297.0
 12
0.0
 22
0.0
 32
0.0
 14
-50.79700161012526
 24
-49.97180738881174
 34
0.0
 15
96.00561285443831
 25
42.99825689628484
 35
0.0
146
0.0
 13
0.0
 23
0.0
 33
0.0
 16
1.0
 26
0.0
 36
0.0
 17
0.0
 27
1.0
 37
0.0
 76
     0
330
1F
331
29
  0
MLINESTYLE
  5
18
102
{ACAD_REACTORS
330
17
102
}
330
17
100
AcDbMlineStyle
  2
Standard
 70
     0
  3

 62
   256
 51
90.0
 52
90.0
 71
     2
 49
0.5
 62
   256
  6
BYLAYER
 49
-0.5
 62
   256
  6
BYLAYER
  0
ACDBPLACEHOLDER
  5
F
102
{ACAD_REACTORS
330
E
102
}
330
E
  0
SCALE
  5
48
102
{ACAD_REACTORS
330
47
102
}
330
47
100
AcDbScale
 70
     0
300
1:1
140
1.0
141
1.0
290
     1
  0
SCALE
  5
49
102
{ACAD_REACTORS
330
47
102
}
330
47
100
AcDbScale
 70
     0
300
1:2
140
1.0
141
2.0
290
     0
  0
SCALE
  5
4A
102
{ACAD_REACTORS
330
47
102
}
330
47
100
AcDbScale
 70
     0
300
1:4
140
1.0
141
4.0
290
     0
  0
SCALE
  5
4B
102
{ACAD_REACTORS
330
47
102
}
330
47
100
AcDbScale
 70
     0
300
1:5
140
1.0
141
5.0
290
     0
  0
SCALE
  5
4C
102
{ACAD_REACTORS
330
47
102
}
330
47
100
AcDbScale
 70
     0
300
1:8
140
1.0
141
8.0
290
     0
  0
SCALE
  5
4D
102
{ACAD_REACTORS
330
47
102
}
330
47
100
AcDbScale
 70
     0
300
1:10
140
1.0
141
10.0
290
     0
  0
SCALE
  5
4E
102
{ACAD_REACTORS
330
47
102
}
330
47
100
AcDbScale
 70
     0
300
1:16
140
1.0
141
16.0
290
     0
  0
SCALE
  5
4F
102
{ACAD_REACTORS
330
47
102
}
330
47
100
AcDbScale
 70
     0
300
1:20
140
1.0
141
20.0
290
     0
  0
SCALE
  5
50
102
{ACAD_REACTORS
330
47
102
}
330
47
100
AcDbScale
 70
     0
300
1:30
140
1.0
141
30.0
290
     0
  0
SCALE
  5
51
102
{ACAD_REACTORS
330
47
102
}
330
47
100
AcDbScale
 70
     0
300
1:40
140
1.0
141
40.0
290
     0
  0
SCALE
  5
52
102
{ACAD_REACTORS
330
47
102
}
330
47
100
AcDbScale
 70
     0
300
1:50
140
1.0
141
50.0
290
     0
  0
SCALE
  5
53
102
{ACAD_REACTORS
330
47
102
}
330
47
100
AcDbScale
 70
     0
300
1:100
140
1.0
141
100.0
290
     0
  0
SCALE
  5
54
102
{ACAD_REACTORS
330
47
102
}
330
47
100
AcDbScale
 70
     0
300
2:1
140
2.0
141
1.0
290
     0
  0
SCALE
  5
55
102
{ACAD_REACTORS
330
47
102
}
330
47
100
AcDbScale
 70
     0
300
4:1
140
4.0
141
1.0
290
     0
  0
SCALE
  5
56
102
{ACAD_REACTORS
330
47
102
}
330
47
100
AcDbScale
 70
     0
300
8:1
140
8.0
141
1.0
290
     0
  0
SCALE
  5
57
102
{ACAD_REACTORS
330
47
102
}
330
47
100
AcDbScale
 70
     0
300
10:1
140
10.0
141
1.0
290
     0
  0
SCALE
  5
58
102
{ACAD_REACTORS
330
47
102
}
330
47
100
AcDbScale
 70
     0
300
100:1
140
100.0
141
1.0
290
     0
  0
SCALE
  5
59
102
{ACAD_REACTORS
330
47
102
}
330
47
100
AcDbScale
 70
     0
300
1/128" = 1'-0"
140
0.0078125
141
12.0
290
     0
  0
SCALE
  5
5A
102
{ACAD_REACTORS
330
47
102
}
330
47
100
AcDbScale
 70
     0
300
1/64" = 1'-0"
140
0.015625
141
12.0
290
     0
  0
SCALE
  5
5B
102
{ACAD_REACTORS
330
47
102
}
330
47
100
AcDbScale
 70
     0
300
1/32" = 1'-0"
140
0.03125
141
12.0
290
     0
  0
SCALE
  5
5C
102
{ACAD_REACTORS
330
47
102
}
330
47
100
AcDbScale
 70
     0
300
1/16" = 1'-0"
140
0.0625
141
12.0
290
     0
  0
SCALE
  5
5D
102
{ACAD_REACTORS
330
47
102
}
330
47
100
AcDbScale
 70
     0
300
3/32" = 1'-0"
140
0.09375
141
12.0
290
     0
  0
SCALE
  5
5E
102
{ACAD_REACTORS
330
47
102
}
330
47
100
AcDbScale
 70
     0
300
1/8" = 1'-0"
140
0.125
141
12.0
290
     0
  0
SCALE
  5
5F
102
{ACAD_REACTORS
330
47
102
}
330
47
100
AcDbScale
 70
     0
300
3/16" = 1'-0"
140
0.1875
141
12.0
290
     0
  0
SCALE
  5
60
102
{ACAD_REACTORS
330
47
102
}
330
47
100
AcDbScale
 70
     0
300
1/4" = 1'-0"
140
0.25
141
12.0
290
     0
  0
SCALE
  5
61
102
{ACAD_REACTORS
330
47
102
}
330
47
100
AcDbScale
 70
     0
300
3/8" = 1'-0"
140
0.375
141
12.0
290
     0
  0
SCALE
  5
62
102
{ACAD_REACTORS
330
47
102
}
330
47
100
AcDbScale
 70
     0
300
1/2" = 1'-0"
140
0.5
141
12.0
290
     0
  0
SCALE
  5
63
102
{ACAD_REACTORS
330
47
102
}
330
47
100
AcDbScale
 70
     0
300
3/4" = 1'-0"
140
0.75
141
12.0
290
     0
  0
SCALE
  5
64
102
{ACAD_REACTORS
330
47
102
}
330
47
100
AcDbScale
 70
     0
300
1" = 1'-0"
140
1.0
141
12.0
290
     0
  0
SCALE
  5
65
102
{ACAD_REACTORS
330
47
102
}
330
47
100
AcDbScale
 70
     0
300
1-1/2" = 1'-0"
140
1.5
141
12.0
290
     0
  0
SCALE
  5
66
102
{ACAD_REACTORS
330
47
102
}
330
47
100
AcDbScale
 70
     0
300
3" = 1'-0"
140
3.0
141
12.0
290
     0
  0
SCALE
  5
67
102
{ACAD_REACTORS
330
47
102
}
330
47
100
AcDbScale
 70
     0
300
6" = 1'-0"
140
6.0
141
12.0
290
     0
  0
SCALE
  5
68
102
{ACAD_REACTORS
330
47
102
}
330
47
100
AcDbScale
 70
     0
300
1'-0" = 1'-0"
140
12.0
141
12.0
290
     0
  0
ENDSEC
  0
EOF
