  0
SECTION
  2
HEADER
  9
$ACADVER
  1
AC1015
  9
$ACADMAINTVER
 70
     6
  9
$DWGCODEPAGE
  3
ANSI_949
  9
$INSBASE
 10
0.0
 20
0.0
 30
0.0
  9
$EXTMIN
 10
-51.39260359008324
 20
-49.97180738881174
 30
0.0
  9
$EXTMAX
 10
96.00561285443831
 20
44.52223242174135
 30
0.0
  9
$LIMMIN
 10
0.0
 20
0.0
  9
$LIMMAX
 10
420.0
 20
297.0
  9
$ORTHOMODE
 70
     1
  9
$REGENMODE
 70
     1
  9
$FILLMODE
 70
     1
  9
$QTEXTMODE
 70
     0
  9
$MIRRTEXT
 70
     1
  9
$LTSCALE
 40
1.0
  9
$ATTMODE
 70
     1
  9
$TEXTSIZE
 40
3.5
  9
$TRACEWID
 40
1.0
  9
$TEXTSTYLE
  7
Standard
  9
$CLAYER
  8
0
  9
$CELTYPE
  6
ByLayer
  9
$CECOLOR
 62
   256
  9
$CELTSCALE
 40
1.0
  9
$DISPSILH
 70
     0
  9
$DIMSCALE
 40
1.0
  9
$DIMASZ
 40
3.302
  9
$DIMEXO
 40
1.0
  9
$DIMDLI
 40
3.75
  9
$DIMRND
 40
0.0
  9
$DIMDLE
 40
0.0
  9
$DIMEXE
 40
1.0
  9
$DIMTP
 40
0.0
  9
$DIMTM
 40
0.0
  9
$DIMTXT
 40
3.5
  9
$DIMCEN
 40
2.5
  9
$DIMTSZ
 40
0.0
  9
$DIMTOL
 70
     0
  9
$DIMLIM
 70
     0
  9
$DIMTIH
 70
     1
  9
$DIMTOH
 70
     1
  9
$DIMSE1
 70
     0
  9
$DIMSE2
 70
     0
  9
$DIMTAD
 70
     1
  9
$DIMZIN
 70
     0
  9
$DIMBLK
  1

  9
$DIMASO
 70
     1
  9
$DIMSHO
 70
     1
  9
$DIMPOST
  1

  9
$DIMAPOST
  1

  9
$DIMALT
 70
     0
  9
$DIMALTD
 70
     3
  9
$DIMALTF
 40
0.0393700787401575
  9
$DIMLFAC
 40
1.0
  9
$DIMTOFL
 70
     1
  9
$DIMTVP
 40
0.0
  9
$DIMTIX
 70
     0
  9
$DIMSOXD
 70
     0
  9
$DIMSAH
 70
     0
  9
$DIMBLK1
  1

  9
$DIMBLK2
  1

  9
$DIMSTYLE
  2
ISO-25
  9
$DIMCLRD
 70
     0
  9
$DIMCLRE
 70
     0
  9
$DIMCLRT
 70
     0
  9
$DIMTFAC
 40
1.0
  9
$DIMGAP
 40
1.524
  9
$DIMJUST
 70
     0
  9
$DIMSD1
 70
     0
  9
$DIMSD2
 70
     0
  9
$DIMTOLJ
 70
     0
  9
$DIMTZIN
 70
     0
  9
$DIMALTZ
 70
     0
  9
$DIMALTTZ
 70
     0
  9
$DIMUPT
 70
     0
  9
$DIMDEC
 70
     2
  9
$DIMTDEC
 70
     2
  9
$DIMALTU
 70
     2
  9
$DIMALTTD
 70
     3
  9
$DIMTXSTY
  7
Standard
  9
$DIMAUNIT
 70
     0
  9
$DIMADEC
 70
     2
  9
$DIMALTRND
 40
0.0
  9
$DIMAZIN
 70
     0
  9
$DIMDSEP
 70
    44
  9
$DIMATFIT
 70
     3
  9
$DIMFRAC
 70
     0
  9
$DIMLDRBLK
  1

  9
$DIMLUNIT
 70
     2
  9
$DIMLWD
 70
    -2
  9
$DIMLWE
 70
    -2
  9
$DIMTMOVE
 70
     0
  9
$LUNITS
 70
     2
  9
$LUPREC
 70
     2
  9
$SKETCHINC
 40
1.0
  9
$FILLETRAD
 40
0.508
  9
$AUNITS
 70
     0
  9
$AUPREC
 70
     2
  9
$MENU
  1
.
  9
$ELEVATION
 40
0.0
  9
$PELEVATION
 40
0.0
  9
$THICKNESS
 40
0.0
  9
$LIMCHECK
 70
     0
  9
$CHAMFERA
 40
0.0
  9
$CHAMFERB
 40
0.0
  9
$CHAMFERC
 40
0.0
  9
$CHAMFERD
 40
0.0
  9
$SKPOLY
 70
     0
  9
$TDCREATE
 40
2458288.647469086
  9
$TDUCREATE
 40
2458288.272469086
  9
$TDUPDATE
 40
2458303.380683738
  9
$TDUUPDATE
 40
2458303.005683738
  9
$TDINDWG
 40
0.0042966898
  9
$TDUSRTIMER
 40
0.0004115394
  9
$USRTIMER
 70
     1
  9
$ANGBASE
 50
0.0
  9
$ANGDIR
 70
     0
  9
$PDMODE
 70
     0
  9
$PDSIZE
 40
-1.0
  9
$PLINEWID
 40
0.0
  9
$SPLFRAME
 70
     0
  9
$SPLINETYPE
 70
     6
  9
$SPLINESEGS
 70
     8
  9
$HANDSEED
  5
20D
  9
$SURFTAB1
 70
     6
  9
$SURFTAB2
 70
     6
  9
$SURFTYPE
 70
     6
  9
$SURFU
 70
     6
  9
$SURFV
 70
     6
  9
$UCSBASE
  2

  9
$UCSNAME
  2

  9
$UCSORG
 10
0.0
 20
0.0
 30
0.0
  9
$UCSXDIR
 10
1.0
 20
0.0
 30
0.0
  9
$UCSYDIR
 10
0.0
 20
1.0
 30
0.0
  9
$UCSORTHOREF
  2

  9
$UCSORTHOVIEW
 70
     0
  9
$UCSORGTOP
 10
0.0
 20
0.0
 30
0.0
  9
$UCSORGBOTTOM
 10
0.0
 20
0.0
 30
0.0
  9
$UCSORGLEFT
 10
0.0
 20
0.0
 30
0.0
  9
$UCSORGRIGHT
 10
0.0
 20
0.0
 30
0.0
  9
$UCSORGFRONT
 10
0.0
 20
0.0
 30
0.0
  9
$UCSORGBACK
 10
0.0
 20
0.0
 30
0.0
  9
$PUCSBASE
  2

  9
$PUCSNAME
  2

  9
$PUCSORG
 10
0.0
 20
0.0
 30
0.0
  9
$PUCSXDIR
 10
1.0
 20
0.0
 30
0.0
  9
$PUCSYDIR
 10
0.0
 20
1.0
 30
0.0
  9
$PUCSORTHOREF
  2

  9
$PUCSORTHOVIEW
 70
     0
  9
$PUCSORGTOP
 10
0.0
 20
0.0
 30
0.0
  9
$PUCSORGBOTTOM
 10
0.0
 20
0.0
 30
0.0
  9
$PUCSORGLEFT
 10
0.0
 20
0.0
 30
0.0
  9
$PUCSORGRIGHT
 10
0.0
 20
0.0
 30
0.0
  9
$PUCSORGFRONT
 10
0.0
 20
0.0
 30
0.0
  9
$PUCSORGBACK
 10
0.0
 20
0.0
 30
0.0
  9
$USERI1
 70
     0
  9
$USERI2
 70
     0
  9
$USERI3
 70
     0
  9
$USERI4
 70
     0
  9
$USERI5
 70
     0
  9
$USERR1
 40
0.0
  9
$USERR2
 40
0.0
  9
$USERR3
 40
0.0
  9
$USERR4
 40
0.0
  9
$USERR5
 40
0.0
  9
$WORLDVIEW
 70
     1
  9
$SHADEDGE
 70
     3
  9
$SHADEDIF
 70
    70
  9
$TILEMODE
 70
     1
  9
$MAXACTVP
 70
    64
  9
$PINSBASE
 10
0.0
 20
0.0
 30
0.0
  9
$PLIMCHECK
 70
     0
  9
$PEXTMIN
 10
1.000000000000000E+20
 20
1.000000000000000E+20
 30
1.000000000000000E+20
  9
$PEXTMAX
 10
-1.000000000000000E+20
 20
-1.000000000000000E+20
 30
-1.000000000000000E+20
  9
$PLIMMIN
 10
0.0
 20
0.0
  9
$PLIMMAX
 10
0.0
 20
0.0
  9
$UNITMODE
 70
     0
  9
$VISRETAIN
 70
     1
  9
$PLINEGEN
 70
     0
  9
$PSLTSCALE
 70
     1
  9
$TREEDEPTH
 70
  3020
  9
$CMLSTYLE
  2
Standard
  9
$CMLJUST
 70
     0
  9
$CMLSCALE
 40
20.0
  9
$PROXYGRAPHICS
 70
     1
  9
$MEASUREMENT
 70
     1
  9
$CELWEIGHT
370
    -1
  9
$ENDCAPS
280
     0
  9
$JOINSTYLE
280
     0
  9
$LWDISPLAY
290
     1
  9
$INSUNITS
 70
     4
  9
$HYPERLINKBASE
  1

  9
$STYLESHEET
  1

  9
$XEDIT
290
     1
  9
$CEPSNTYPE
380
     0
  9
$PSTYLEMODE
290
     1
  9
$FINGERPRINTGUID
  2
{D2727B30-3C11-4E4C-8405-ECEAC9DB5F31}
  9
$VERSIONGUID
  2
{FAEB1C32-E019-11D5-929B-00C0DF256EC4}
  9
$EXTNAMES
290
     1
  9
$PSVPSCALE
 40
0.0
  9
$OLESTARTUP
290
     0
  0
ENDSEC
  0
SECTION
  2
CLASSES
  0
CLASS
  1
ACDBDICTIONARYWDFLT
  2
AcDbDictionaryWithDefault
  3
ObjectDBX Classes
 90
        0
280
     0
281
     0
  0
CLASS
  1
VISUALSTYLE
  2
AcDbVisualStyle
  3
ObjectDBX Classes
 90
     4095
280
     0
281
     0
  0
CLASS
  1
MATERIAL
  2
AcDbMaterial
  3
ObjectDBX Classes
 90
     1153
280
     0
281
     0
  0
CLASS
  1
SCALE
  2
AcDbScale
  3
ObjectDBX Classes
 90
     1153
280
     0
281
     0
  0
CLASS
  1
SUN
  2
AcDbSun
  3
SCENEOE
 90
     1153
280
     0
281
     0
  0
CLASS
  1
ACDBPLACEHOLDER
  2
AcDbPlaceHolder
  3
ObjectDBX Classes
 90
        0
280
     0
281
     0
  0
CLASS
  1
LAYOUT
  2
AcDbLayout
  3
ObjectDBX Classes
 90
        0
280
     0
281
     0
  0
CLASS
  1
TABLESTYLE
  2
AcDbTableStyle
  3
ObjectDBX Classes
 90
     4095
280
     0
281
     0
  0
CLASS
  1
MLEADERSTYLE
  2
AcDbMLeaderStyle
  3
ACDB_MLEADERSTYLE_CLASS
 90
     4095
280
     0
281
     0
  0
CLASS
  1
DICTIONARYVAR
  2
AcDbDictionaryVar
  3
ObjectDBX Classes
 90
        0
280
     0
281
     0
  0
ENDSEC
  0
SECTION
  2
TABLES
  0
TABLE
  2
VPORT
  5
8
330
0
100
AcDbSymbolTable
 70
     1
  0
VPORT
  5
29
330
8
100
AcDbSymbolTableRecord
100
AcDbViewportTableRecord
  2
*Active
 70
     0
 10
0.0
 20
0.0
 11
1.0
 21
1.0
 12
-27.30032843275963
 22
-1.410618302369357
 13
0.0
 23
0.0
 14
10.0
 24
10.0
 15
10.0
 25
10.0
 16
0.0
 26
0.0
 36
1.0
 17
0.0
 27
0.0
 37
0.0
 40
120.4799007584551
 41
2.268018018018018
 42
50.0
 43
0.0
 44
0.0
 50
0.0
 51
0.0
 71
    16
 72
  2000
 73
     1
 74
     3
 75
     0
 76
     0
 77
     0
 78
     0
281
     0
 65
     1
110
0.0
120
0.0
130
0.0
111
1.0
121
0.0
131
0.0
112
0.0
122
1.0
132
0.0
 79
     0
146
0.0
  0
ENDTAB
  0
TABLE
  2
LTYPE
  5
5
330
0
100
AcDbSymbolTable
 70
     6
  0
LTYPE
  5
14
330
5
100
AcDbSymbolTableRecord
100
AcDbLinetypeTableRecord
  2
ByBlock
 70
     0
  3

 72
    65
 73
     0
 40
0.0
  0
LTYPE
  5
15
330
5
100
AcDbSymbolTableRecord
100
AcDbLinetypeTableRecord
  2
ByLayer
 70
     0
  3

 72
    65
 73
     0
 40
0.0
  0
LTYPE
  5
16
330
5
100
AcDbSymbolTableRecord
100
AcDbLinetypeTableRecord
  2
Continuous
 70
     0
  3
Solid line
 72
    65
 73
     0
 40
0.0
  0
LTYPE
  5
6A
330
5
100
AcDbSymbolTableRecord
100
AcDbLinetypeTableRecord
  2
HIDDEN
 70
     0
  3
Hidden __ __ __ __ __ __ __ __ __ __ __ __ __ __
 72
    65
 73
     2
 40
1.905
 49
1.27
 74
     0
 49
-0.635
 74
     0
  0
LTYPE
  5
6B
330
5
100
AcDbSymbolTableRecord
100
AcDbLinetypeTableRecord
  2
PHANTOM
 70
     0
  3
Phantom ______  __  __  ______  __  __  ______
 72
    65
 73
     6
 40
12.7
 49
6.35
 74
     0
 49
-1.27
 74
     0
 49
1.27
 74
     0
 49
-1.27
 74
     0
 49
1.27
 74
     0
 49
-1.27
 74
     0
  0
LTYPE
  5
6C
330
5
100
AcDbSymbolTableRecord
100
AcDbLinetypeTableRecord
  2
CENTER
 70
     0
  3
Center ____ _ ____ _ ____ _ ____ _ ____ _ ____
 72
    65
 73
     4
 40
10.16
 49
6.35
 74
     0
 49
-1.27
 74
     0
 49
1.27
 74
     0
 49
-1.27
 74
     0
  0
LTYPE
  5
6D
330
5
100
AcDbSymbolTableRecord
100
AcDbLinetypeTableRecord
  2
CENTERX2
 70
     0
  3
Center (2x) ________  __  ________  __  _____
 72
    65
 73
     4
 40
20.32
 49
12.7
 74
     0
 49
-2.54
 74
     0
 49
2.54
 74
     0
 49
-2.54
 74
     0
  0
LTYPE
  5
6E
330
5
100
AcDbSymbolTableRecord
100
AcDbLinetypeTableRecord
  2
DOT2
 70
     0
  3
Dot (.5x) ........................................
 72
    65
 73
     2
 40
0.635
 49
0.0
 74
     0
 49
-0.635
 74
     0
  0
ENDTAB
  0
TABLE
  2
LAYER
  5
2
330
0
100
AcDbSymbolTable
 70
    18
  0
LAYER
  5
10
330
2
100
AcDbSymbolTableRecord
100
AcDbLayerTableRecord
  2
0
 70
     0
 62
     7
  6
Continuous
370
    -3
390
F
  0
LAYER
  5
6F
330
2
100
AcDbSymbolTableRecord
100
AcDbLayerTableRecord
  2
FORMAT
 70
     0
 62
     2
  6
Continuous
370
    -3
390
F
  0
LAYER
  5
70
330
2
100
AcDbSymbolTableRecord
100
AcDbLayerTableRecord
  2
외형선
 70
     0
 62
     4
  6
Continuous
370
    30
390
F
  0
LAYER
  5
71
330
2
100
AcDbSymbolTableRecord
100
AcDbLayerTableRecord
  2
숨은선
 70
     0
 62
     2
  6
HIDDEN
370
    15
390
F
  0
LAYER
  5
72
330
2
100
AcDbSymbolTableRecord
100
AcDbLayerTableRecord
  2
중심선
 70
     0
 62
     1
  6
CENTERX2
370
    -3
390
F
  0
LAYER
  5
73
330
2
100
AcDbSymbolTableRecord
100
AcDbLayerTableRecord
  2
파단선
 70
     0
 62
     4
  6
Continuous
370
    -3
390
F
  0
LAYER
  5
74
330
2
100
AcDbSymbolTableRecord
100
AcDbLayerTableRecord
  2
해칭선
 70
     0
 62
   100
  6
Continuous
370
    -3
390
F
  0
LAYER
  5
75
330
2
100
AcDbSymbolTableRecord
100
AcDbLayerTableRecord
  2
가는실선
 70
     0
 62
     4
  6
Continuous
370
    -3
390
F
  0
LAYER
  5
76
330
2
100
AcDbSymbolTableRecord
100
AcDbLayerTableRecord
  2
치수_보조선
 70
     0
 62
     4
  6
Continuous
370
    -3
390
F
  0
LAYER
  5
77
330
2
100
AcDbSymbolTableRecord
100
AcDbLayerTableRecord
  2
치수문자_일반주서
 70
     0
 62
     7
  6
Continuous
370
    15
390
F
  0
LAYER
  5
78
330
2
100
AcDbSymbolTableRecord
100
AcDbLayerTableRecord
  2
개별주서
 70
     0
 62
   100
  6
Continuous
370
    30
390
F
  0
LAYER
  5
79
330
2
100
AcDbSymbolTableRecord
100
AcDbLayerTableRecord
  2
중간선
 70
     0
 62
     2
  6
Continuous
370
    15
390
F
  0
LAYER
  5
7A
330
2
100
AcDbSymbolTableRecord
100
AcDbLayerTableRecord
  2
윤곽선
 70
     0
 62
     3
  6
Continuous
370
    40
390
F
  0
LAYER
  5
7B
330
2
100
AcDbSymbolTableRecord
100
AcDbLayerTableRecord
  2
중심마크
 70
     0
 62
   100
  6
Continuous
370
    30
390
F
  0
LAYER
  5
7C
330
2
100
AcDbSymbolTableRecord
100
AcDbLayerTableRecord
  2
가상선
 70
     0
 62
     4
  6
PHANTOM
370
    -3
390
F
  0
LAYER
  5
7D
330
2
100
AcDbSymbolTableRecord
100
AcDbLayerTableRecord
  2
특수지정선
 70
     0
 62
     5
  6
CENTERX2
370
    60
390
F
  0
LAYER
  5
7E
330
2
100
AcDbSymbolTableRecord
100
AcDbLayerTableRecord
  2
참조1
 70
     0
 62
    -4
  6
Continuous
370
    -3
390
F
  0
LAYER
  5
15F
330
2
100
AcDbSymbolTableRecord
100
AcDbLayerTableRecord
  2
Defpoints
 70
     0
 62
     7
  6
Continuous
290
     0
370
    -3
390
F
  0
ENDTAB
  0
TABLE
  2
STYLE
  5
3
330
0
100
AcDbSymbolTable
 70
     2
  0
STYLE
  5
11
330
3
100
AcDbSymbolTableRecord
100
AcDbTextStyleTableRecord
  2
Standard
 70
     0
 40
0.0
 41
1.0
 50
0.0
 71
     0
 42
3.5
  3
txt
  4

  0
STYLE
  5
94
330
3
100
AcDbSymbolTableRecord
100
AcDbTextStyleTableRecord
  2
SLDTEXTSTYLE0
 70
     0
 40
0.0
 41
0.75
 50
0.0
 71
     0
 42
3.5
  3
TXT
  4

  0
ENDTAB
  0
TABLE
  2
VIEW
  5
6
330
0
100
AcDbSymbolTable
 70
     0
  0
ENDTAB
  0
TABLE
  2
UCS
  5
7
330
0
100
AcDbSymbolTable
 70
     0
  0
ENDTAB
  0
TABLE
  2
APPID
  5
9
330
0
100
AcDbSymbolTable
 70
     4
  0
APPID
  5
12
330
9
100
AcDbSymbolTableRecord
100
AcDbRegAppTableRecord
  2
ACAD
 70
     0
  0
APPID
  5
160
330
9
100
AcDbSymbolTableRecord
100
AcDbRegAppTableRecord
  2
PE_URL
 70
     0
  0
APPID
  5
1E9
330
9
100
AcDbSymbolTableRecord
100
AcDbRegAppTableRecord
  2
ACAD_DSTYLE_DIMFLIPARROW_SYMBOL
 70
     0
  0
APPID
  5
1EA
330
9
100
AcDbSymbolTableRecord
100
AcDbRegAppTableRecord
  2
ACAD_DSTYLE_DIMFLIPARROW_WHICH_SYMBOL
 70
     0
  0
ENDTAB
  0
TABLE
  2
DIMSTYLE
  5
A
330
0
100
AcDbSymbolTable
 70
     4
100
AcDbDimStyleTable
  0
DIMSTYLE
105
27
102
{ACAD_REACTORS
330
1E1
102
}
330
A
100
AcDbSymbolTableRecord
100
AcDbDimStyleTableRecord
  2
ISO-25
 70
     0
 41
2.5
 42
0.625
 43
3.75
 44
1.25
 73
     0
 74
     0
 77
     1
 78
     8
140
2.5
141
2.5
143
0.03937007874016
147
0.625
171
     3
172
     1
178
     0
271
     2
272
     2
274
     3
278
    44
283
     0
284
     8
340
11
  0
DIMSTYLE
105
DE
330
A
100
AcDbSymbolTableRecord
100
AcDbDimStyleTableRecord
  2
SLDDIMSTYLE0
 70
     0
 41
3.302
 44
0.0
 45
0.000000001
 73
     0
 74
     0
 77
     1
 78
    12
 79
     3
140
3.5
143
0.0393700787401575
147
0.875
148
0.000000001
170
     1
172
     1
173
     1
178
     0
271
     2
272
     2
276
     2
284
    12
289
     0
340
94
  0
DIMSTYLE
105
F3
102
{ACAD_REACTORS
330
F2
330
106
330
11B
330
DD
102
}
330
A
100
AcDbSymbolTableRecord
100
AcDbDimStyleTableRecord
  2
SLDDIMSTYLE1
 70
     0
 41
3.302
 44
0.0
 45
0.000000001
 73
     0
 74
     0
 77
     1
 78
    12
 79
     3
140
3.5
143
0.0393700787401575
147
0.875
148
0.000000001
170
     1
173
     1
178
     0
271
     2
272
     2
276
     2
284
    12
340
94
  0
DIMSTYLE
105
11C
330
A
100
AcDbSymbolTableRecord
100
AcDbDimStyleTableRecord
  2
SLDDIMSTYLE2
 70
     0
 41
3.302
 44
0.0
 45
0.000000001
 73
     0
 74
     0
 77
     1
 78
     4
 79
     1
140
3.5
143
0.0393700787401575
147
0.875
148
0.000000001
170
     1
173
     1
178
     0
271
     2
272
     2
276
     2
284
    12
340
94
  0
ENDTAB
  0
TABLE
  2
BLOCK_RECORD
  5
1
330
0
100
AcDbSymbolTable
 70
     7
  0
BLOCK_RECORD
  5
1F
330
1
100
AcDbSymbolTableRecord
100
AcDbBlockTableRecord
  2
*Model_Space
340
22
  0
BLOCK_RECORD
  5
1B
330
1
100
AcDbSymbolTableRecord
100
AcDbBlockTableRecord
  2
*Paper_Space
340
1E
  0
BLOCK_RECORD
  5
23
330
1
100
AcDbSymbolTableRecord
100
AcDbBlockTableRecord
  2
*Paper_Space0
340
26
  0
BLOCK_RECORD
  5
7F
330
1
100
AcDbSymbolTableRecord
100
AcDbBlockTableRecord
  2
블럭10
340
0
102
{BLKREFS
331
D6
102
}
  0
BLOCK_RECORD
  5
DF
330
1
100
AcDbSymbolTableRecord
100
AcDbBlockTableRecord
  2
_D
340
0
  0
BLOCK_RECORD
  5
F4
330
1
100
AcDbSymbolTableRecord
100
AcDbBlockTableRecord
  2
_D_1
340
0
  0
BLOCK_RECORD
  5
107
330
1
100
AcDbSymbolTableRecord
100
AcDbBlockTableRecord
  2
_D_2
340
0
  0
BLOCK_RECORD
  5
11D
330
1
100
AcDbSymbolTableRecord
100
AcDbBlockTableRecord
  2
_D_3
340
0
  0
BLOCK_RECORD
  5
136
330
1
100
AcDbSymbolTableRecord
100
AcDbBlockTableRecord
  2
SW_DOWELSYMBOL_0
340
0
102
{BLKREFS
331
13C
102
}
  0
ENDTAB
  0
ENDSEC
  0
SECTION
  2
BLOCKS
  0
BLOCK
  5
20
330
1F
100
AcDbEntity
  8
0
100
AcDbBlockBegin
  2
*Model_Space
 70
     0
 10
0.0
 20
0.0
 30
0.0
  3
*Model_Space
  1

  0
ENDBLK
  5
21
330
1F
100
AcDbEntity
  8
0
100
AcDbBlockEnd
  0
BLOCK
  5
1C
330
1B
100
AcDbEntity
 67
     1
  8
0
100
AcDbBlockBegin
  2
*Paper_Space
 70
     0
 10
0.0
 20
0.0
 30
0.0
  3
*Paper_Space
  1

  0
ENDBLK
  5
1D
330
1B
100
AcDbEntity
 67
     1
  8
0
100
AcDbBlockEnd
  0
BLOCK
  5
24
330
23
100
AcDbEntity
  8
0
100
AcDbBlockBegin
  2
*Paper_Space0
 70
     0
 10
0.0
 20
0.0
 30
0.0
  3
*Paper_Space0
  1

  0
ENDBLK
  5
25
330
23
100
AcDbEntity
  8
0
100
AcDbBlockEnd
  0
BLOCK
  5
80
330
7F
100
AcDbEntity
  8
0
100
AcDbBlockBegin
  2
블럭10
 70
     2
 10
0.0
 20
0.0
 30
0.0
  3
블럭10
  1

  0
ELLIPSE
  5
82
330
7F
100
AcDbEntity
  8
중심선
100
AcDbEllipse
 10
20.54032771741204
 20
12.0471743016438
 30
0.0
 11
6.600054785286829
 21
-1.261213355974178E-13
 31
0.0
210
0.0
220
0.0
230
1.0
 40
0.636358354079598
 41
0.9219305317359503
 42
6.513795318482858
  0
ELLIPSE
  5
83
330
7F
100
AcDbEntity
  8
중심선
100
AcDbEllipse
 10
20.54032771746488
 20
12.04717430159265
 30
0.0
 11
3.960054785062283
 21
1.540847449632565E-10
 31
0.0
210
0.0
220
0.0
230
1.0
 40
0.3939339440162632
 41
1.131841032648279
 42
5.62031148352944
  0
LINE
  5
84
330
7F
100
AcDbEntity
  8
중심선
100
AcDbLine
 10
2.268634060543552
 20
16.24717430164393
 30
0.0
 11
5.714909304380834
 21
16.24717430164393
 31
0.0
  0
LINE
  5
85
330
7F
100
AcDbEntity
  8
중심선
100
AcDbLine
 10
5.245725140726316
 20
7.84717430164391
 30
0.0
 11
8.692000384563599
 21
7.84717430164391
 31
0.0
  0
LINE
  5
86
330
7F
100
AcDbEntity
  8
중심선
100
AcDbLine
 10
15.74043728645272
 20
16.24717430164393
 30
0.0
 11
8.692000384563599
 21
7.84717430164391
 31
0.0
  0
LINE
  5
87
330
7F
100
AcDbEntity
  8
중심선
100
AcDbLine
 10
0.1404042013395286
 20
13.71084872107135
 30
0.0
 11
3.58671253028996
 21
13.71088815037384
 31
0.0
  0
LINE
  5
88
330
7F
100
AcDbEntity
  8
중심선
100
AcDbLine
 10
2.750260043222114
 20
10.84717430164391
 30
0.0
 11
6.196535287059397
 21
10.84717430164391
 31
0.0
  0
LINE
  5
89
330
7F
100
AcDbEntity
  8
중심선
100
AcDbLine
 10
12.29416204261559
 20
16.24717430164393
 30
0.0
 11
5.245725140726316
 21
7.84717430164391
 31
0.0
  0
LINE
  5
8A
330
7F
100
AcDbEntity
  8
중심선
100
AcDbLine
 10
10.72767329541681
 20
16.24717430164393
 30
0.0
 11
6.196535287059397
 21
10.84717430164391
 31
0.0
  0
LINE
  5
8B
330
7F
100
AcDbEntity
  8
중심선
100
AcDbLine
 10
7.28139805157953
 20
16.24717430164393
 30
0.0
 11
2.750260043222114
 21
10.84717430164391
 31
0.0
  0
LINE
  5
8C
330
7F
100
AcDbEntity
  8
중심선
100
AcDbLine
 10
5.714909304380834
 20
16.24717430164393
 30
0.0
 11
3.58671253028996
 21
13.71088815037384
 31
0.0
  0
LINE
  5
8D
330
7F
100
AcDbEntity
  8
중심선
100
AcDbLine
 10
2.268634060543552
 20
16.24717430164393
 30
0.0
 11
0.1404042013395286
 21
13.71084872107135
 31
0.0
  0
LINE
  5
8E
330
7F
100
AcDbEntity
  8
중심선
100
AcDbLine
 10
7.28139805157953
 20
16.24717430164393
 30
0.0
 11
10.72767329541681
 21
16.24717430164393
 31
0.0
  0
LINE
  5
8F
330
7F
100
AcDbEntity
  8
중심선
100
AcDbLine
 10
12.29416204261559
 20
16.24717430164393
 30
0.0
 11
15.74043728645272
 21
16.24717430164393
 31
0.0
  0
LINE
  5
90
330
7F
100
AcDbEntity
  8
중심선
100
AcDbLine
 10
19.22036997980202
 20
11.08717430171403
 30
0.0
 11
23.66174974927406
 21
11.08717430171406
 31
0.0
  0
LINE
  5
91
330
7F
100
AcDbEntity
  8
중심선
100
AcDbLine
 10
19.22039502424796
 20
13.00717430171391
 30
0.0
 11
19.22036997980202
 21
11.08717430171403
 31
0.0
  0
LINE
  5
92
330
7F
100
AcDbEntity
  8
중심선
100
AcDbLine
 10
19.22039502424796
 20
13.00717430171391
 30
0.0
 11
26.96566020931264
 21
13.00717430171391
 31
0.0
  0
LINE
  5
93
330
7F
100
AcDbEntity
  8
중심선
100
AcDbLine
 10
22.22332737316547
 20
13.45928029700563
 30
0.0
 11
24.52862924686651
 21
15.39360700705356
 31
0.0
  0
ATTDEF
  5
95
330
7F
100
AcDbEntity
  8
FORMAT
 62
     2
100
AcDbText
 10
3.448148490846466
 20
2.075366912832191
 30
0.0
 40
4.233333333333333
  1
EM211020
 41
0.75
  7
SLDTEXTSTYLE0
 11
3.448148490846466
 21
-0.0412997538344756
 31
0.0
100
AcDbAttributeDefinition
  3

  2
AUTOATTR0
 70
     0
 74
     1
  0
ENDBLK
  5
81
330
7F
100
AcDbEntity
  8
0
100
AcDbBlockEnd
  0
BLOCK
  5
E0
330
DF
100
AcDbEntity
  8
0
100
AcDbBlockBegin
  2
_D
 70
     0
 10
0.0
 20
0.0
 30
0.0
  3
_D
  1

  0
LINE
  5
E2
330
DF
100
AcDbEntity
  8
치수문자_일반주서
 62
     0
370
    -2
100
AcDbLine
 10
-37.6875
 20
3.968749999999993
 30
0.0
 11
-47.01760359008312
 21
3.968749999999957
 31
0.0
  0
LINE
  5
E3
330
DF
100
AcDbEntity
  8
치수문자_일반주서
 62
     0
370
    -2
100
AcDbLine
 10
-37.68556257220952
 20
-3.968749999999993
 30
0.0
 11
-47.01760359008309
 21
-3.968750000000028
 31
0.0
  0
LINE
  5
E4
330
DF
100
AcDbEntity
  8
치수문자_일반주서
 62
     0
370
    -2
100
AcDbLine
 10
-47.01760359008312
 20
3.968749999999957
 30
0.0
 11
-47.01760359008324
 21
38.57274999999996
 31
0.0
  0
LINE
  5
E5
330
DF
100
AcDbEntity
  8
치수문자_일반주서
 62
     0
370
    -2
100
AcDbLine
 10
-47.01760359008313
 20
7.270749999999957
 30
0.0
 11
-47.01760359008315
 21
10.57274999999996
 31
0.0
  0
LINE
  5
E6
330
DF
100
AcDbEntity
  8
치수문자_일반주서
 62
     0
370
    -2
100
AcDbLine
 10
-47.01760359008308
 20
-7.270750000000028
 30
0.0
 11
-47.01760359008306
 21
-10.57275000000003
 31
0.0
  0
SOLID
  5
E7
330
DF
100
AcDbEntity
  8
치수문자_일반주서
 62
     0
100
AcDbTrace
 10
-47.56793692341647
 20
7.270749999999955
 30
0.0
 11
-46.4672702567498
 21
7.270749999999959
 31
0.0
 12
-47.01760359008312
 22
3.968749999999957
 32
0.0
 13
-47.01760359008312
 23
3.968749999999957
 33
0.0
  0
SOLID
  5
E8
330
DF
100
AcDbEntity
  8
치수문자_일반주서
 62
     0
100
AcDbTrace
 10
-46.46727025674974
 20
-7.270750000000026
 30
0.0
 11
-47.56793692341641
 21
-7.27075000000003
 31
0.0
 12
-47.01760359008309
 22
-3.968750000000028
 32
0.0
 13
-47.01760359008309
 23
-3.968750000000028
 33
0.0
  0
MTEXT
  5
E9
330
DF
100
AcDbEntity
  8
치수문자_일반주서
 62
     0
100
AcDbMText
 10
-51.39260359008319
 20
24.57274999999995
 30
0.0
 40
3.5
 41
0.0
 71
     2
 72
     1
  1
\A1;%%c7.94 [5/16]
  7
SLDTEXTSTYLE0
 11
-3.580687802255629E-15
 21
1.0
 31
0.0
 73
     1
 44
1.0
  0
POINT
  5
EA
330
DF
100
AcDbEntity
  8
Defpoints
 62
     0
100
AcDbPoint
 10
-37.625
 20
3.968749999999994
 30
0.0
  0
POINT
  5
EB
330
DF
100
AcDbEntity
  8
Defpoints
 62
     0
100
AcDbPoint
 10
-37.62306257220952
 20
-3.968749999999992
 30
0.0
  0
POINT
  5
1AC
330
DF
100
AcDbEntity
  8
Defpoints
 62
     0
100
AcDbPoint
 10
-47.01760359008308
 20
-3.968750000000028
 30
0.0
  0
ENDBLK
  5
E1
330
DF
100
AcDbEntity
  8
0
100
AcDbBlockEnd
  0
BLOCK
  5
F5
330
F4
100
AcDbEntity
  8
0
100
AcDbBlockBegin
  2
_D_1
 70
     0
 10
0.0
 20
0.0
 30
0.0
  3
_D_1
  1

  0
LINE
  5
F7
330
F4
100
AcDbEntity
  8
치수문자_일반주서
 62
     0
370
    -2
100
AcDbLine
 10
38.63750000000002
 20
3.968750000000125
 30
0.0
 11
48.575
 21
3.96875000000016
 31
0.0
  0
LINE
  5
F8
330
F4
100
AcDbEntity
  8
치수문자_일반주서
 62
     0
370
    -2
100
AcDbLine
 10
38.63888125008362
 20
-3.96874999999993
 30
0.0
 11
48.57500000000003
 21
-3.968749999999893
 31
0.0
  0
LINE
  5
F9
330
F4
100
AcDbEntity
  8
치수문자_일반주서
 62
     0
370
    -2
100
AcDbLine
 10
48.575
 20
3.96875000000016
 30
0.0
 11
48.57499999999988
 21
38.57275000000016
 31
0.0
  0
LINE
  5
FA
330
F4
100
AcDbEntity
  8
치수문자_일반주서
 62
     0
370
    -2
100
AcDbLine
 10
48.57499999999999
 20
7.270750000000159
 30
0.0
 11
48.57499999999997
 21
10.57275000000016
 31
0.0
  0
LINE
  5
FB
330
F4
100
AcDbEntity
  8
치수문자_일반주서
 62
     0
370
    -2
100
AcDbLine
 10
48.57500000000005
 20
-7.270749999999893
 30
0.0
 11
48.57500000000006
 21
-10.57274999999989
 31
0.0
  0
SOLID
  5
FC
330
F4
100
AcDbEntity
  8
치수문자_일반주서
 62
     0
100
AcDbTrace
 10
48.02466666666665
 20
7.270750000000158
 30
0.0
 11
49.12533333333332
 21
7.270750000000161
 31
0.0
 12
48.575
 22
3.96875000000016
 32
0.0
 13
48.575
 23
3.96875000000016
 33
0.0
  0
SOLID
  5
FD
330
F4
100
AcDbEntity
  8
치수문자_일반주서
 62
     0
100
AcDbTrace
 10
49.12533333333338
 20
-7.270749999999891
 30
0.0
 11
48.02466666666671
 21
-7.270749999999895
 31
0.0
 12
48.57500000000003
 22
-3.968749999999893
 32
0.0
 13
48.57500000000003
 23
-3.968749999999893
 33
0.0
  0
MTEXT
  5
FE
330
F4
100
AcDbEntity
  8
치수문자_일반주서
 62
     0
100
AcDbMText
 10
44.19999999999993
 20
24.57275000000014
 30
0.0
 40
3.5
 41
0.0
 71
     2
 72
     1
  1
\A1;%%c7.94 [5/16]
  7
SLDTEXTSTYLE0
 11
-3.580687802255598E-15
 21
1.0
 31
0.0
 73
     1
 44
1.0
  0
POINT
  5
FF
330
F4
100
AcDbEntity
  8
Defpoints
 62
     0
100
AcDbPoint
 10
38.57500000000002
 20
3.968750000000125
 30
0.0
  0
POINT
  5
100
330
F4
100
AcDbEntity
  8
Defpoints
 62
     0
100
AcDbPoint
 10
38.57638125008362
 20
-3.96874999999993
 30
0.0
  0
POINT
  5
101
330
F4
100
AcDbEntity
  8
Defpoints
 62
     0
100
AcDbPoint
 10
48.57500000000003
 20
-3.968749999999893
 30
0.0
  0
ENDBLK
  5
F6
330
F4
100
AcDbEntity
  8
0
100
AcDbBlockEnd
  0
BLOCK
  5
108
330
107
100
AcDbEntity
  8
0
100
AcDbBlockBegin
  2
_D_2
 70
     0
 10
0.0
 20
0.0
 30
0.0
  3
_D_2
  1

  0
LINE
  5
10A
330
107
100
AcDbEntity
  8
치수문자_일반주서
 62
     0
370
    -2
100
AcDbLine
 10
38.57500000000002
 20
4.031250000000124
 30
0.0
 11
38.57500000000002
 21
23.24722659278625
 31
0.0
  0
LINE
  5
10B
330
107
100
AcDbEntity
  8
치수문자_일반주서
 62
     0
370
    -2
100
AcDbLine
 10
10.00000000000001
 20
4.031250000000026
 30
0.0
 11
10.00000000000001
 21
23.24722659278625
 31
0.0
  0
LINE
  5
10C
330
107
100
AcDbEntity
  8
치수문자_일반주서
 62
     0
370
    -2
100
AcDbLine
 10
10.00000000000001
 20
23.24722659278625
 30
0.0
 11
-23.05199999999999
 21
23.24722659278625
 31
0.0
  0
LINE
  5
10D
330
107
100
AcDbEntity
  8
치수문자_일반주서
 62
     0
370
    -2
100
AcDbLine
 10
38.57500000000002
 20
23.24722659278625
 30
0.0
 11
10.00000000000001
 21
23.24722659278625
 31
0.0
  0
LINE
  5
10E
330
107
100
AcDbEntity
  8
치수문자_일반주서
 62
     0
370
    -2
100
AcDbLine
 10
41.87700000000002
 20
23.24722659278625
 30
0.0
 11
45.17900000000002
 21
23.24722659278625
 31
0.0
  0
LINE
  5
10F
330
107
100
AcDbEntity
  8
치수문자_일반주서
 62
     0
370
    -2
100
AcDbLine
 10
6.698000000000015
 20
23.24722659278625
 30
0.0
 11
3.396000000000015
 21
23.24722659278625
 31
0.0
  0
SOLID
  5
110
330
107
100
AcDbEntity
  8
치수문자_일반주서
 62
     0
100
AcDbTrace
 10
41.87700000000002
 20
23.79755992611959
 30
0.0
 11
41.87700000000002
 21
22.69689325945292
 31
0.0
 12
38.57500000000002
 22
23.24722659278625
 32
0.0
 13
38.57500000000002
 23
23.24722659278625
 33
0.0
  0
SOLID
  5
111
330
107
100
AcDbEntity
  8
치수문자_일반주서
 62
     0
100
AcDbTrace
 10
6.698000000000015
 20
22.69689325945292
 30
0.0
 11
6.698000000000015
 21
23.79755992611959
 31
0.0
 12
10.00000000000001
 22
23.24722659278625
 32
0.0
 13
10.00000000000001
 23
23.24722659278625
 33
0.0
  0
MTEXT
  5
112
330
107
100
AcDbEntity
  8
치수문자_일반주서
 62
     0
100
AcDbMText
 10
-8.176999999999992
 20
27.62222659278625
 30
0.0
 40
3.5
 41
0.0
 71
     2
 72
     1
  1
\A1;28.58 [1 1/8]
  7
SLDTEXTSTYLE0
 73
     1
 44
1.0
  0
POINT
  5
1AD
330
107
100
AcDbEntity
  8
Defpoints
 62
     0
100
AcDbPoint
 10
38.57500000000002
 20
3.968750000000125
 30
0.0
  0
POINT
  5
1AE
330
107
100
AcDbEntity
  8
Defpoints
 62
     0
100
AcDbPoint
 10
10.00000000000001
 20
3.968750000000026
 30
0.0
  0
POINT
  5
1AF
330
107
100
AcDbEntity
  8
Defpoints
 62
     0
100
AcDbPoint
 10
10.00000000000001
 20
23.24722659278625
 30
0.0
  0
ENDBLK
  5
109
330
107
100
AcDbEntity
  8
0
100
AcDbBlockEnd
  0
BLOCK
  5
11E
330
11D
100
AcDbEntity
  8
0
100
AcDbBlockBegin
  2
_D_3
 70
     0
 10
0.0
 20
0.0
 30
0.0
  3
_D_3
  1

  0
LINE
  5
120
330
11D
100
AcDbEntity
  8
치수문자_일반주서
 62
     0
370
    -2
100
AcDbLine
 10
38.57500000000002
 20
4.031250000000124
 30
0.0
 11
38.57500000000002
 21
40.14723242174135
 31
0.0
  0
LINE
  5
121
330
11D
100
AcDbEntity
  8
치수문자_일반주서
 62
     0
370
    -2
100
AcDbLine
 10
-37.625
 20
4.031249999999994
 30
0.0
 11
-37.62500000000001
 21
40.14723242174135
 31
0.0
  0
LINE
  5
122
330
11D
100
AcDbEntity
  8
치수문자_일반주서
 62
     0
370
    -2
100
AcDbLine
 10
35.27300000000002
 20
40.14723242174135
 30
0.0
 11
-34.32300000000001
 21
40.14723242174135
 31
0.0
  0
SOLID
  5
123
330
11D
100
AcDbEntity
  8
치수문자_일반주서
 62
     0
100
AcDbTrace
 10
35.27300000000002
 20
39.59689908840802
 30
0.0
 11
35.27300000000002
 21
40.69756575507468
 31
0.0
 12
38.57500000000002
 22
40.14723242174135
 32
0.0
 13
38.57500000000002
 23
40.14723242174135
 33
0.0
  0
SOLID
  5
124
330
11D
100
AcDbEntity
  8
치수문자_일반주서
 62
     0
100
AcDbTrace
 10
-34.32300000000001
 20
40.69756575507468
 30
0.0
 11
-34.32300000000001
 21
39.59689908840802
 31
0.0
 12
-37.62500000000001
 22
40.14723242174135
 32
0.0
 13
-37.62500000000001
 23
40.14723242174135
 33
0.0
  0
MTEXT
  5
125
330
11D
100
AcDbEntity
  8
치수문자_일반주서
 62
     0
100
AcDbMText
 10
0.1321110371027032
 20
44.52223242174135
 30
0.0
 40
3.5
 41
0.0
 71
     2
 72
     1
  1
\A1;76.2 [3]
  7
SLDTEXTSTYLE0
 73
     1
 44
1.0
  0
POINT
  5
126
330
11D
100
AcDbEntity
  8
Defpoints
 62
     0
100
AcDbPoint
 10
38.57500000000002
 20
3.968750000000125
 30
0.0
  0
POINT
  5
127
330
11D
100
AcDbEntity
  8
Defpoints
 62
     0
100
AcDbPoint
 10
-37.625
 20
3.968749999999994
 30
0.0
  0
POINT
  5
128
330
11D
100
AcDbEntity
  8
Defpoints
 62
     0
100
AcDbPoint
 10
-37.625
 20
40.14723242174135
 30
0.0
  0
ENDBLK
  5
11F
330
11D
100
AcDbEntity
  8
0
100
AcDbBlockEnd
  0
BLOCK
  5
137
330
136
100
AcDbEntity
  8
0
100
AcDbBlockBegin
  2
SW_DOWELSYMBOL_0
 70
     0
 10
0.0
 20
0.0
 30
0.0
  3
SW_DOWELSYMBOL_0
  1

  0
CIRCLE
  5
139
330
136
100
AcDbEntity
  8
해칭선
 62
     0
100
AcDbCircle
 10
0.0
 20
0.0
 30
0.0
 40
3.000000000000002
  0
HATCH
  5
13A
330
136
100
AcDbEntity
  8
0
  6
Continuous
 62
     0
370
     0
100
AcDbHatch
 10
0.0
 20
0.0
 30
0.0
210
0.0
220
0.0
230
1.0
  2
SOLID
 70
     1
 71
     0
 91
        1
 92
        0
 93
        3
 72
     2
 10
0.0000000000000069
 20
0.0
 40
3.000000000000002
 50
0.0
 51
90.0
 73
     1
 72
     1
 10
0.0000000000000069
 20
3.000000000000002
 11
0.0000000000000069
 21
0.0
 72
     1
 10
0.0000000000000069
 20
0.0
 11
3.000000000000009
 21
0.0
 97
        0
 75
     0
 76
     1
 98
        1
 10
0.0
 20
0.0
  0
HATCH
  5
13B
330
136
100
AcDbEntity
  8
0
  6
Continuous
 62
     0
370
     0
100
AcDbHatch
 10
0.0
 20
0.0
 30
0.0
210
0.0
220
0.0
230
1.0
  2
SOLID
 70
     1
 71
     0
 91
        1
 92
        0
 93
        3
 72
     2
 10
0.0000000000000069
 20
0.0
 40
3.000000000000002
 50
180.0
 51
270.0000000000007
 73
     1
 72
     1
 10
0.0000000000000069
 20
-3.000000000000002
 11
0.0000000000000069
 21
0.0
 72
     1
 10
0.0000000000000069
 20
0.0
 11
-2.999999999999995
 21
0.0
 97
        0
 75
     0
 76
     1
 98
        1
 10
0.0
 20
0.0
  0
ENDBLK
  5
138
330
136
100
AcDbEntity
  8
0
100
AcDbBlockEnd
  0
ENDSEC
  0
SECTION
  2
ENTITIES
  0
LINE
  5
96
330
1F
100
AcDbEntity
  8
외형선
  6
Continuous
370
    15
100
AcDbLine
 10
8.480089995418895
 20
3.968750000000004
 30
0.0
 11
-36.81499999999999
 21
3.968750000000002
 31
0.0
  0
LINE
  5
97
330
1F
100
AcDbEntity
  8
외형선
  6
Continuous
370
    15
100
AcDbLine
 10
-36.81499999999999
 20
-3.968749999999998
 30
0.0
 11
8.480089995418895
 21
-3.968749999999996
 31
0.0
  0
LINE
  5
98
330
1F
100
AcDbEntity
  8
외형선
  6
Continuous
370
    15
100
AcDbLine
 10
-36.81499999999999
 20
3.968749999999996
 30
0.0
 11
-37.625
 21
3.158749999999998
 31
0.0
  0
LINE
  5
99
330
1F
100
AcDbEntity
  8
외형선
  6
Continuous
370
    15
100
AcDbLine
 10
-37.625
 20
-3.158749999999996
 30
0.0
 11
-36.81499999999999
 21
-3.968749999999994
 31
0.0
  0
SPLINE
  5
9A
330
1F
100
AcDbEntity
  8
외형선
  6
Continuous
370
    15
100
AcDbSpline
210
0.0
220
0.0
230
1.0
 70
     8
 71
     3
 72
     9
 73
     5
 74
     0
 42
0.000000001
 43
0.00000001
 40
0.0
 40
0.0
 40
0.0
 40
0.0
 40
0.5596173244390001
 40
0.9999999999999999
 40
0.9999999999999999
 40
0.9999999999999999
 40
0.9999999999999999
 10
8.768210748393424
 20
-2.950346711190603
 30
0.0
 10
8.999617738198383
 20
-2.918214750288633
 30
0.0
 10
9.413127076989744
 20
-2.860797012311743
 30
0.0
 10
9.820569441416744
 20
-2.812791620418156
 30
0.0
 10
10.0
 20
-2.791650877494704
 30
0.0
  0
SPLINE
  5
9B
330
1F
100
AcDbEntity
  8
외형선
  6
Continuous
370
    15
100
AcDbSpline
210
0.0
220
0.0
230
1.0
 70
     8
 71
     3
 72
     9
 73
     5
 74
     0
 42
0.000000001
 43
0.00000001
 40
0.0
 40
0.0
 40
0.0
 40
0.0
 40
0.4684790943402689
 40
1.0
 40
1.0
 40
1.0
 40
1.0
 10
10.0
 20
2.791650877494712
 30
0.0
 10
9.796342392422046
 20
2.81561721119778
 30
0.0
 10
9.36162159049435
 20
2.866774955465575
 30
0.0
 10
8.934428086760155
 20
2.929645951156654
 30
0.0
 10
8.707365808763402
 20
2.963063199726104
 30
0.0
  0
LINE
  5
9C
330
1F
100
AcDbEntity
  8
외형선
  6
Continuous
 62
     1
370
    15
100
AcDbLine
 10
27.22887531863333
 20
1.54837322020059
 30
0.0
 11
27.19100926433958
 21
1.567809655621401
 31
0.0
  0
SPLINE
  5
9D
330
1F
100
AcDbEntity
  8
외형선
  6
Continuous
 62
     1
370
    15
100
AcDbSpline
210
0.0
220
0.0
230
1.0
 70
     8
 71
     3
 72
     9
 73
     5
 74
     0
 42
0.000000001
 43
0.00000001
 40
0.0
 40
0.0
 40
0.0
 40
0.0
 40
0.4525614051892126
 40
1.0
 40
1.0
 40
1.0
 40
1.0
 10
28.29361102880229
 20
1.016994020878994
 30
0.0
 10
28.13298468512057
 20
1.093252477074728
 30
0.0
 10
27.7780575043227
 20
1.261756585735632
 30
0.0
 10
27.42315994164654
 20
1.446976623174341
 30
0.0
 10
27.22887531863333
 20
1.54837322020059
 30
0.0
  0
LINE
  5
9E
330
1F
100
AcDbEntity
  8
외형선
  6
Continuous
 62
     1
370
    15
100
AcDbLine
 10
19.18434627166773
 20
3.968750000000007
 30
0.0
 11
17.26205446106691
 21
3.968750000000007
 31
0.0
  0
LINE
  5
9F
330
1F
100
AcDbEntity
  8
외형선
  6
Continuous
 62
     1
370
    15
100
AcDbLine
 10
17.2620544610669
 20
-3.968749999999998
 30
0.0
 11
19.18434627166773
 21
-3.968749999999998
 31
0.0
  0
SPLINE
  5
A0
330
1F
100
AcDbEntity
  8
외형선
  6
Continuous
 62
     1
370
    15
100
AcDbSpline
210
0.0
220
0.0
230
1.0
 70
     8
 71
     3
 72
    15
 73
    11
 74
     0
 42
0.000000001
 43
0.00000001
 40
0.0
 40
0.0
 40
0.0
 40
0.0
 40
0.2278488254714945
 40
0.3959543893539525
 40
0.5052620895679113
 40
0.6015855277748233
 40
0.7071723402949122
 40
0.8022031484169846
 40
0.8896795099366555
 40
1.0
 40
1.0
 40
1.0
 40
1.0
 10
26.98078894479424
 20
3.153722007690812
 30
0.0
 10
26.73726583336004
 20
3.141961548443893
 30
0.0
 10
26.3140727592594
 20
3.121524289441131
 30
0.0
 10
25.77158803358091
 20
3.107052850646701
 30
0.0
 10
25.36334139651807
 20
3.101015608725517
 30
0.0
 10
25.02372333263949
 20
3.098966367676796
 30
0.0
 10
24.70306095550651
 20
3.099790181885866
 30
0.0
 10
24.39191135393782
 20
3.103357852814124
 30
0.0
 10
24.07543185984093
 20
3.109214907328724
 30
0.0
 10
23.86202481467803
 20
3.115731846447029
 30
0.0
 10
23.74299779469808
 20
3.119366646048187
 30
0.0
  0
SPLINE
  5
A1
330
1F
100
AcDbEntity
  8
외형선
  6
Continuous
 62
     1
370
    15
100
AcDbSpline
210
0.0
220
0.0
230
1.0
 70
     8
 71
     3
 72
    22
 73
    18
 74
     0
 42
0.000000001
 43
0.00000001
 40
0.0
 40
0.0
 40
0.0
 40
0.0
 40
0.1084184779978788
 40
0.1978844399924244
 40
0.2729055731617932
 40
0.3380873379746071
 40
0.3948577248122536
 40
0.4546322340805699
 40
0.5245702163497812
 40
0.5963827675454618
 40
0.6607177513785711
 40
0.684708601534566
 40
0.7104691427412588
 40
0.7544290682148885
 40
0.817498303979717
 40
0.8995970822795567
 40
0.9999999999999999
 40
0.9999999999999999
 40
0.9999999999999999
 40
0.9999999999999999
 10
21.01148393935401
 20
-3.302557323146734
 30
0.0
 10
21.21943058652303
 20
-3.282234676010079
 30
0.0
 10
21.59897295405329
 20
-3.245141961538665
 30
0.0
 10
22.14823880342449
 20
-3.201733087209961
 30
0.0
 10
22.61319864107032
 20
-3.171990924942358
 30
0.0
 10
23.01400725109734
 20
-3.148750511321841
 30
0.0
 10
23.37228602413955
 20
-3.132455273911102
 30
0.0
 10
23.73532646279089
 20
-3.118786822480101
 30
0.0
 10
24.13555730530332
 20
-3.107630132496336
 30
0.0
 10
24.54684186262225
 20
-3.10090901073464
 30
0.0
 10
24.86865784727649
 20
-3.099164114781078
 30
0.0
 10
25.09613446194312
 20
-3.099531904257098
 30
0.0
 10
25.28212093603272
 20
-3.100570275458554
 30
0.0
 10
25.54674859099951
 20
-3.103525704978222
 30
0.0
 10
25.9240077316081
 20
-3.111046052788421
 30
0.0
 10
26.4146604650962
 20
-3.125933957457508
 30
0.0
 10
26.77986980666235
 20
-3.143860021757475
 30
0.0
 10
26.98078894479424
 20
-3.153722007690805
 30
0.0
  0
SPLINE
  5
A2
330
1F
100
AcDbEntity
  8
외형선
  6
Continuous
 62
     1
370
    15
100
AcDbSpline
210
0.0
220
0.0
230
1.0
 70
     8
 71
     3
 72
    16
 73
    12
 74
     0
 42
0.000000001
 43
0.00000001
 40
0.0
 40
0.0
 40
0.0
 40
0.0
 40
0.1647052089837262
 40
0.2938973005316215
 40
0.3984589349605237
 40
0.503523804865269
 40
0.6065980670882819
 40
0.695217101690286
 40
0.8243794339319371
 40
0.9849410066644247
 40
1.0
 40
1.0
 40
1.0
 40
1.0
 10
30.16755057017929
 20
-2.985036008599213
 30
0.0
 10
30.3274056972919
 20
-2.960367615313918
 30
0.0
 10
30.61264859048525
 20
-2.916349734885392
 30
0.0
 10
31.0076338953439
 20
-2.862573150438645
 30
0.0
 10
31.34955764953759
 20
-2.819798351881437
 30
0.0
 10
31.66162824426956
 20
-2.783766778439885
 30
0.0
 10
31.95516858897366
 20
-2.752794408131614
 30
0.0
 10
32.27292957245406
 20
-2.722304693769421
 30
0.0
 10
32.64804518310032
 20
-2.69132853506019
 30
0.0
 10
32.95023353194712
 20
-2.668755193882074
 30
0.0
 10
33.12420380367166
 20
-2.65997962813321
 30
0.0
 10
33.13912128868575
 20
-2.659227146865857
 30
0.0
  0
SPLINE
  5
A3
330
1F
100
AcDbEntity
  8
외형선
  6
Continuous
 62
     1
370
    15
100
AcDbSpline
210
0.0
220
0.0
230
1.0
 70
     8
 71
     3
 72
    11
 73
     7
 74
     0
 42
0.000000001
 43
0.00000001
 40
0.0
 40
0.0
 40
0.0
 40
0.0
 40
0.2794312947698588
 40
0.4885007283577792
 40
0.7054152057189901
 40
0.9999999999999999
 40
0.9999999999999999
 40
0.9999999999999999
 40
0.9999999999999999
 10
15.50396457558002
 20
2.714426551478076
 30
0.0
 10
14.99091860598694
 20
2.678061990855948
 30
0.0
 10
14.09401359027045
 20
2.614489604073177
 30
0.0
 10
12.8009119774574
 20
2.606587935910696
 30
0.0
 10
11.47900042433617
 20
2.647608304988949
 30
0.0
 10
10.54050322312916
 20
2.739010274134422
 30
0.0
 10
9.999999999999945
 20
2.791650877494719
 30
0.0
  0
SPLINE
  5
A4
330
1F
100
AcDbEntity
  8
외형선
  6
Continuous
 62
     1
370
    15
100
AcDbSpline
210
0.0
220
0.0
230
1.0
 70
     8
 71
     3
 72
    10
 73
     6
 74
     0
 42
0.000000001
 43
0.00000001
 40
0.0
 40
0.0
 40
0.0
 40
0.0
 40
0.4362277074408106
 40
0.7902921235107399
 40
1.0
 40
1.0
 40
1.0
 40
1.0
 10
9.999999999999945
 20
-2.791650877494711
 30
0.0
 10
10.22079989373963
 20
-2.768180073823424
 30
0.0
 10
10.62081212111095
 20
-2.725659181735428
 30
0.0
 10
11.12676753529405
 20
-2.684830902061611
 30
0.0
 10
11.41198027877263
 20
-2.66738155759553
 30
0.0
 10
11.51807162020955
 20
-2.660890878606146
 30
0.0
  0
SPLINE
  5
A5
330
1F
100
AcDbEntity
  8
외형선
  6
Continuous
 62
     1
370
    15
100
AcDbSpline
210
0.0
220
0.0
230
1.0
 70
     8
 71
     3
 72
    23
 73
    19
 74
     0
 42
0.000000001
 43
0.00000001
 40
0.0
 40
0.0
 40
0.0
 40
0.0
 40
0.096942748813142
 40
0.1718253120326326
 40
0.2379640523232748
 40
0.2942460043595537
 40
0.3501981747991202
 40
0.4222183574010338
 40
0.491686525482768
 40
0.5491959812182181
 40
0.6026997232523871
 40
0.670895671496132
 40
0.7402314955662658
 40
0.7791278945510534
 40
0.810137558792912
 40
0.8469658157711631
 40
0.910372050589989
 40
1.0
 40
1.0
 40
1.0
 40
1.0
 10
37.09955493254346
 20
2.714430144630634
 30
0.0
 10
36.88254815822428
 20
2.696875451123648
 30
0.0
 10
36.49791643313817
 20
2.665760790910237
 30
0.0
 10
35.93225108817364
 20
2.636883079526166
 30
0.0
 10
35.47407605615625
 20
2.620695247007391
 30
0.0
 10
35.06267597856083
 20
2.612740748564228
 30
0.0
 10
34.63628820203211
 20
2.610668370063754
 30
0.0
 10
34.17985078153898
 20
2.615946925964935
 30
0.0
 10
33.71986396994112
 20
2.629597784118346
 30
0.0
 10
33.30286087346936
 20
2.648839945022264
 30
0.0
 10
32.88843236275495
 20
2.673629087647347
 30
0.0
 10
32.44695717798054
 20
2.70663703360644
 30
0.0
 10
32.0390394811845
 20
2.7440624472645
 30
0.0
 10
31.71730485363507
 20
2.777878331934698
 30
0.0
 10
31.47322263583962
 20
2.805349852325043
 30
0.0
 10
31.17220734405653
 20
2.841516029753721
 30
0.0
 10
30.73165575677027
 20
2.898898988324575
 30
0.0
 10
30.37590442567183
 20
2.953221055109217
 30
0.0
 10
30.16755057017929
 20
2.98503600859922
 30
0.0
  0
SPLINE
  5
A6
330
1F
100
AcDbEntity
  8
외형선
  6
Continuous
370
    15
100
AcDbSpline
210
0.0
220
0.0
230
1.0
 70
     8
 71
     3
 72
    10
 73
     6
 74
     0
 42
0.000000001
 43
0.00000001
 40
0.0
 40
0.0
 40
0.0
 40
0.0
 40
0.5
 40
0.5
 40
1.0
 40
1.0
 40
1.0
 40
1.0
 10
9.999999999995486
 20
-0.9218523851557735
 30
0.0
 10
9.74679304436901
 20
-0.7796385863836519
 30
0.0
 10
9.4920692707175
 20
-0.6352591407068578
 30
0.0
 10
8.984247409315326
 20
-0.3448026607837651
 30
0.0
 10
8.732747067962563
 20
-0.1990376660897376
 30
0.0
 10
8.480184126253269
 20
-0.0529618052939326
 30
0.0
  0
LINE
  5
A7
330
1F
100
AcDbEntity
  8
외형선
  6
Continuous
370
    15
100
AcDbLine
 10
10.0
 20
-0.9218523851583119
 30
0.0
 11
10.0
 21
-1.952111356619389
 31
0.0
  0
SPLINE
  5
A8
330
1F
100
AcDbEntity
  8
외형선
  6
Continuous
370
    15
100
AcDbSpline
210
0.0
220
0.0
230
1.0
 70
     8
 71
     3
 72
    10
 73
     6
 74
     0
 42
0.000000001
 43
0.00000001
 40
0.0
 40
0.0
 40
0.0
 40
0.0
 40
0.5000000000000001
 40
0.5000000000000001
 40
1.0
 40
1.0
 40
1.0
 40
1.0
 10
9.999999999995486
 20
-1.952111356617113
 30
0.0
 10
9.746777315907371
 20
-1.824800601567404
 30
0.0
 10
9.492037625272474
 20
-1.69324943631055
 30
0.0
 10
8.984184421636343
 20
-1.424053723088865
 30
0.0
 10
8.732669107994802
 20
-1.286709899474424
 30
0.0
 10
8.480089995418894
 20
-1.146844618545536
 30
0.0
  0
LINE
  5
A9
330
1F
100
AcDbEntity
  8
외형선
  6
Continuous
370
    15
100
AcDbLine
 10
8.480089995418895
 20
-3.968749999999996
 30
0.0
 11
8.480089995418894
 21
-1.146848619534264
 31
0.0
  0
LINE
  5
AA
330
1F
100
AcDbEntity
  8
외형선
  6
Continuous
370
    15
100
AcDbLine
 10
-36.81499999999999
 20
3.968749999999996
 30
0.0
 11
-36.81499999999999
 21
-3.968749999999998
 31
0.0
  0
LINE
  5
AB
330
1F
100
AcDbEntity
  8
외형선
  6
Continuous
370
    15
100
AcDbLine
 10
8.480089995418894
 20
-0.0527917309306181
 30
0.0
 11
8.480089995418895
 21
3.968750000000004
 31
0.0
  0
SPLINE
  5
AC
330
1F
100
AcDbEntity
  8
외형선
  6
Continuous
370
    15
100
AcDbSpline
210
0.0
220
0.0
230
1.0
 70
    24
 71
     3
 72
     8
 73
     4
 74
     0
 42
0.000000001
 43
0.00000001
 40
0.0
 40
0.0
 40
0.0
 40
0.0
 40
1.0
 40
1.0
 40
1.0
 40
1.0
 10
10.00000000000044
 20
-0.5843873609529725
 30
0.0
 10
10.00000000000044
 20
-0.6819612000065103
 30
0.0
 10
10.00000000000044
 20
-0.7951063270106118
 30
0.0
 10
10.00000000000044
 20
-0.9218523851578544
 30
0.0
  0
SPLINE
  5
AD
330
1F
100
AcDbEntity
  8
외형선
  6
Continuous
370
    15
100
AcDbSpline
210
0.0
220
0.0
230
1.0
 70
     8
 71
     3
 72
    10
 73
     6
 74
     0
 42
0.000000001
 43
0.00000001
 40
0.0
 40
0.0
 40
0.0
 40
0.0
 40
0.5
 40
0.5
 40
1.0
 40
1.0
 40
1.0
 40
1.0
 10
9.999999999992529
 20
-0.584387360949144
 30
0.0
 10
9.746793044366534
 20
-0.4619854843640407
 30
0.0
 10
9.492069270715524
 20
-0.3381465470326306
 30
0.0
 10
8.984247409314346
 20
-0.089855895010069
 30
0.0
 10
8.732747067962071
 20
0.0343312042730138
 30
0.0
 10
8.480184126253269
 20
0.158369829972774
 30
0.0
  0
LINE
  5
AE
330
1F
100
AcDbEntity
  8
외형선
  6
Continuous
370
    15
100
AcDbLine
 10
-37.625
 20
3.158749999999998
 30
0.0
 11
-37.625
 21
-3.158749999999998
 31
0.0
  0
SPLINE
  5
AF
330
1F
100
AcDbEntity
  8
외형선
  6
Continuous
370
    15
100
AcDbSpline
210
0.0
220
0.0
230
1.0
 70
     8
 71
     3
 72
    10
 73
     6
 74
     0
 42
0.000000001
 43
0.00000001
 40
0.0
 40
0.0
 40
0.0
 40
0.0
 40
0.5
 40
0.5
 40
1.0
 40
1.0
 40
1.0
 40
1.0
 10
9.999999999991305
 20
2.697841651888229
 30
0.0
 10
9.746783062018919
 20
2.759515941979973
 30
0.0
 10
9.492049186374208
 20
2.815803244597411
 30
0.0
 10
8.984207433062789
 20
2.91654250513576
 30
0.0
 10
8.73269758931041
 20
2.960917722011062
 30
0.0
 10
8.48012438447384
 20
2.999262437765207
 30
0.0
  0
SPLINE
  5
B0
330
1F
100
AcDbEntity
  8
외형선
  6
Continuous
370
    15
100
AcDbSpline
210
0.0
220
0.0
230
1.0
 70
    24
 71
     3
 72
    14
 73
    10
 74
     0
 42
0.000000001
 43
0.00000001
 40
0.0
 40
0.0
 40
0.0
 40
0.0
 40
0.25
 40
0.25
 40
0.5
 40
0.5
 40
0.75
 40
0.75
 40
1.0
 40
1.0
 40
1.0
 40
1.0
 10
10.0
 20
2.697841651886109
 30
0.0
 10
10.0
 20
2.507487073207887
 30
0.0
 10
10.0
 20
2.287125238442937
 30
0.0
 10
10.0
 20
1.796015462901635
 30
0.0
 10
10.0
 20
1.525345590297736
 30
0.0
 10
10.0
 20
0.9516947489146895
 30
0.0
 10
10.0
 20
0.6488794330847314
 30
0.0
 10
10.0
 20
0.0337142320782357
 30
0.0
 10
10.0
 20
-0.2784598985004731
 30
0.0
 10
10.0
 20
-0.5843873609527602
 30
0.0
  0
SPLINE
  5
B1
330
1F
100
AcDbEntity
  8
외형선
  6
Continuous
370
    15
100
AcDbSpline
210
0.0
220
0.0
230
1.0
 70
     8
 71
     3
 72
    12
 73
     8
 74
     0
 42
0.000000001
 43
0.00000001
 40
0.0
 40
0.0
 40
0.0
 40
0.0
 40
0.2499999999999999
 40
0.2499999999999999
 40
0.4999999999999998
 40
0.4999999999999998
 40
1.0
 40
1.0
 40
1.0
 40
1.0
 10
8.775511417114316
 20
-2.951567555002697
 30
0.0
 10
8.710820709730475
 20
-2.962613249294329
 30
0.0
 10
8.665765264504035
 20
-2.98712052976697
 30
0.0
 10
8.593520694884225
 20
-3.037482908421659
 30
0.0
 10
8.566586128226499
 20
-3.06476418662607
 30
0.0
 10
8.502361903283953
 20
-3.147737040090449
 30
0.0
 10
8.480089995418895
 20
-3.205810305818913
 30
0.0
 10
8.480089995418874
 20
-3.266878465424083
 30
0.0
  0
LINE
  5
B2
330
1F
100
AcDbEntity
  8
외형선
  6
Continuous
370
    15
100
AcDbLine
 10
8.8060558927496
 20
-2.945238443589081
 30
0.0
 11
8.775511417114316
 21
-2.951567555002697
 31
0.0
  0
SPLINE
  5
B3
330
1F
100
AcDbEntity
  8
외형선
  6
Continuous
370
    15
100
AcDbSpline
210
0.0
220
0.0
230
1.0
 70
    24
 71
     3
 72
    11
 73
     7
 74
     0
 42
0.000000001
 43
0.00000001
 40
0.0
 40
0.0
 40
0.0
 40
0.0
 40
0.2357733056209334
 40
0.5092190237341886
 40
0.7905946861972609
 40
1.0
 40
1.0
 40
1.0
 40
1.0
 10
10.0
 20
-2.004710811196059
 30
0.0
 10
10.0
 20
-2.11973050527273
 30
0.0
 10
10.0
 20
-2.368148010272614
 30
0.0
 10
10.0
 20
-2.617730871313793
 30
0.0
 10
10.0
 20
-2.773634261140288
 30
0.0
 10
10.0
 20
-2.778330536590298
 30
0.0
 10
10.0
 20
-2.780334332747589
 30
0.0
  0
SPLINE
  5
B4
330
1F
100
AcDbEntity
  8
외형선
  6
Continuous
370
    15
100
AcDbSpline
210
0.0
220
0.0
230
1.0
 70
    24
 71
     3
 72
     9
 73
     5
 74
     0
 42
0.000000001
 43
0.00000001
 40
0.0
 40
0.0
 40
0.0
 40
0.0
 40
0.191486569082653
 40
0.9999999999999999
 40
0.9999999999999999
 40
0.9999999999999999
 40
0.9999999999999999
 10
10.0
 20
2.780344323604749
 30
0.0
 10
10.0
 20
2.783674470021007
 30
0.0
 10
10.0
 20
2.801065488264288
 30
0.0
 10
10.0
 20
2.743988866872641
 30
0.0
 10
10.0
 20
2.697841651886109
 30
0.0
  0
SPLINE
  5
B5
330
1F
100
AcDbEntity
  8
외형선
  6
Continuous
 62
     1
370
    15
100
AcDbSpline
210
0.0
220
0.0
230
1.0
 70
     8
 71
     3
 72
    17
 73
    13
 74
     0
 42
0.000000001
 43
0.00000001
 40
0.0
 40
0.0
 40
0.0
 40
0.0
 40
0.0510237633799817
 40
0.164867364460774
 40
0.2787334308484465
 40
0.3926302332569729
 40
0.5065596549271338
 40
0.6204651454236252
 40
0.7343379057995238
 40
0.8481861899476963
 40
0.9620183133279011
 40
1.0
 40
1.0
 40
1.0
 40
1.0
 10
28.71662591243522
 20
-0.3759371020315154
 30
0.0
 10
28.49185831765209
 20
-0.2864754005852703
 30
0.0
 10
27.76559199558338
 20
0.002592162459397
 30
0.0
 10
26.53771028347112
 20
0.5032205027750443
 30
0.0
 10
25.03283007011006
 20
1.088681955534185
 30
0.0
 10
23.52753397812168
 20
1.623252539104068
 30
0.0
 10
22.02199321818402
 20
2.080137519791115
 30
0.0
 10
20.51661385478997
 20
2.437228588906175
 30
0.0
 10
19.01163632357622
 20
2.680318184646167
 30
0.0
 10
17.50701639522681
 20
2.786544085678127
 30
0.0
 10
16.33672821071829
 20
2.791610189557255
 30
0.0
 10
15.66796911460974
 20
2.718172337458307
 30
0.0
 10
15.50065496552962
 20
2.699799216545701
 30
0.0
  0
SPLINE
  5
B6
330
1F
100
AcDbEntity
  8
외형선
  6
Continuous
 62
     1
370
    15
100
AcDbSpline
210
0.0
220
0.0
230
1.0
 70
     8
 71
     3
 72
    25
 73
    21
 74
     0
 42
0.000000001
 43
0.00000001
 40
0.0
 40
0.0
 40
0.0
 40
0.0
 40
0.055709064337573
 40
0.1122405264150606
 40
0.168771619045119
 40
0.2254469964875183
 40
0.2821297713586929
 40
0.3388237502886312
 40
0.3955327123898015
 40
0.4522526285090049
 40
0.5089576108146633
 40
0.5656485236202818
 40
0.6223291535614135
 40
0.6790033125445679
 40
0.7356748284113538
 40
0.7885076127317034
 40
0.8413608592947183
 40
0.8942516487576926
 40
0.9471450598921264
 40
1.0
 40
1.0
 40
1.0
 40
1.0
 10
11.52287275941504
 20
2.662734063859831
 30
0.0
 10
12.01577569106605
 20
2.862217459253681
 30
0.0
 10
13.00885796910969
 20
3.264129097445895
 30
0.0
 10
14.50208108948738
 20
3.680670253626064
 30
0.0
 10
16.0038525211501
 20
3.934122747571696
 30
0.0
 10
17.50699162571421
 20
3.997904117147077
 30
0.0
 10
19.01160854531236
 20
3.871615132419401
 30
0.0
 10
20.51658279291312
 20
3.560328948030159
 30
0.0
 10
22.02196506905139
 20
3.079096392259488
 30
0.0
 10
23.52754345114193
 20
2.450941853842081
 30
0.0
 10
25.03283570014026
 20
1.705694910686989
 30
0.0
 10
26.53771286533921
 20
0.8790951186010978
 30
0.0
 10
28.04226603406554
 20
0.010594067565827
 30
0.0
 10
29.54659270314144
 20
-0.8583620939530182
 30
0.0
 10
31.01693825774928
 20
-1.667676286636265
 30
0.0
 10
32.45321095924923
 20
-2.384000898043837
 30
0.0
 10
33.85620158926204
 20
-2.985341126199651
 30
0.0
 10
35.25997682327569
 20
-3.459488997060221
 30
0.0
 10
36.66380462000031
 20
-3.801800908799696
 30
0.0
 10
37.58027339923543
 20
-3.899598275828793
 30
0.0
 10
38.06699999999999
 20
-3.968750000000111
 30
0.0
  0
SPLINE
  5
B8
330
1F
100
AcDbEntity
  8
외형선
  6
Continuous
 62
     1
370
    15
100
AcDbSpline
210
0.0
220
0.0
230
1.0
 70
     8
 71
     3
 72
    16
 73
    12
 74
     0
 42
0.000000001
 43
0.00000001
 40
0.0
 40
0.0
 40
0.0
 40
0.0
 40
0.1218029828454661
 40
0.2434173646292058
 40
0.3650245141883194
 40
0.4868059202897417
 40
0.608629286321972
 40
0.7302520483160035
 40
0.8518531143963592
 40
0.973614074231971
 40
1.0
 40
1.0
 40
1.0
 40
1.0
 10
38.57500000000001
 20
-3.131233674211354
 30
0.0
 10
38.15659719457779
 20
-3.04485721520942
 30
0.0
 10
37.32043944318217
 20
-2.872238043452938
 30
0.0
 10
36.06698422581196
 20
-2.489816441839301
 30
0.0
 10
34.81360377439766
 20
-2.032168778670998
 30
0.0
 10
33.55913682327926
 20
-1.505334171710616
 30
0.0
 10
32.30448997315963
 20
-0.9295638747179698
 30
0.0
 10
31.05095190264997
 20
-0.3212967806318027
 30
0.0
 10
29.79763803772983
 20
0.2943552361542274
 30
0.0
 10
28.87111291461849
 20
0.7504054701804939
 30
0.0
 10
28.36222057919704
 20
0.9824237993029903
 30
0.0
 10
28.27158353791441
 20
1.023747775734243
 30
0.0
  0
LINE
  5
B9
330
1F
100
AcDbEntity
  8
외형선
  6
Continuous
 62
     1
370
    15
100
AcDbLine
 10
38.57500000000001
 20
-3.222838978409458
 30
0.0
 11
38.57500000000001
 21
-3.131233674211353
 31
0.0
  0
SPLINE
  5
BA
330
1F
100
AcDbEntity
  8
외형선
  6
Continuous
 62
     1
370
    15
100
AcDbSpline
210
0.0
220
0.0
230
1.0
 70
     8
 71
     3
 72
    14
 73
    10
 74
     0
 42
0.000000001
 43
0.00000001
 40
0.0
 40
0.0
 40
0.0
 40
0.0
 40
0.25
 40
0.25
 40
0.5
 40
0.5
 40
0.75
 40
0.75
 40
1.0
 40
1.0
 40
1.0
 40
1.0
 10
38.067
 20
-3.663245121882966
 30
0.0
 10
38.12753684061597
 20
-3.676674399211834
 30
0.0
 10
38.1894127370681
 20
-3.678275426942066
 30
0.0
 10
38.31032556977026
 20
-3.652799341201344
 30
0.0
 10
38.36864364578425
 20
-3.625311304700418
 30
0.0
 10
38.46768375523613
 20
-3.542624102303087
 30
0.0
 10
38.50832527101877
 20
-3.487117731019503
 30
0.0
 10
38.56177995322917
 20
-3.362065109860558
 30
0.0
 10
38.575
 20
-3.292772148772682
 30
0.0
 10
38.575
 20
-3.222838978409457
 30
0.0
1001
PE_URL
1000

  0
SPLINE
  5
BB
330
1F
100
AcDbEntity
  8
외형선
  6
Continuous
 62
     1
370
    15
100
AcDbSpline
210
0.0
220
0.0
230
1.0
 70
     8
 71
     3
 72
    20
 73
    16
 74
     0
 42
0.000000001
 43
0.00000001
 40
0.0
 40
0.0
 40
0.0
 40
0.0
 40
0.0743010538457805
 40
0.1486561909325164
 40
0.2230076379083019
 40
0.2973063079979203
 40
0.3715762138210721
 40
0.4512424521899137
 40
0.5309124073429302
 40
0.6105914607865502
 40
0.6902849716208119
 40
0.769998263413458
 40
0.8497325445232403
 40
0.9294514164631182
 40
1.0
 40
1.0
 40
1.0
 40
1.0
 10
38.06699999999999
 20
-3.663245121882965
 30
0.0
 10
37.59938323203817
 20
-3.544610241474901
 30
0.0
 10
36.6638093209916
 20
-3.307254127121495
 30
0.0
 10
35.25998621959791
 20
-2.773366763708838
 30
0.0
 10
33.85621573276647
 20
-2.135276092513092
 30
0.0
 10
32.45322987435885
 20
-1.405483807829562
 30
0.0
 10
31.01696193409805
 20
-0.5991598994171414
 30
0.0
 10
29.54662111118594
 20
0.2541581900217778
 30
0.0
 10
28.04229915162856
 20
1.115024943863557
 30
0.0
 10
26.53775062264134
 20
1.922817223424134
 30
0.0
 10
25.03287816535167
 20
2.638545471465513
 30
0.0
 10
23.52759017256163
 20
3.229650373037737
 30
0.0
 10
22.0220177406792
 20
3.661752812540674
 30
0.0
 10
20.57422714486321
 20
3.926344614085262
 30
0.0
 10
19.62839973502547
 20
3.948643678882267
 30
0.0
 10
19.18434627166773
 20
3.95911279497021
 30
0.0
  0
SPLINE
  5
BC
330
1F
100
AcDbEntity
  8
외형선
  6
Continuous
370
    15
100
AcDbSpline
210
0.0
220
0.0
230
1.0
 70
    24
 71
     3
 72
     8
 73
     4
 74
     0
 42
0.000000001
 43
0.00000001
 40
0.0
 40
0.0
 40
0.0
 40
0.0
 40
1.0
 40
1.0
 40
1.0
 40
1.0
 10
10.00000000000044
 20
-0.5843873609529725
 30
0.0
 10
10.00000000000044
 20
-0.6819612000065104
 30
0.0
 10
10.00000000000044
 20
-0.7951063270106118
 30
0.0
 10
10.00000000000044
 20
-0.9218523851578547
 30
0.0
  0
SPLINE
  5
BD
330
1F
100
AcDbEntity
  8
외형선
  6
Continuous
 62
     1
370
    15
100
AcDbSpline
210
0.0
220
0.0
230
1.0
 70
     8
 71
     3
 72
    16
 73
    12
 74
     0
 42
0.000000001
 43
0.00000001
 40
0.0
 40
0.0
 40
0.0
 40
0.0
 40
0.113119414401359
 40
0.227011657222699
 40
0.3410348325796036
 40
0.4548628083566565
 40
0.5686299030909443
 40
0.6825061998885551
 40
0.7965352725103718
 40
0.8982842520501546
 40
1.0
 40
1.0
 40
1.0
 40
1.0
 10
21.01156578265585
 20
-3.302236247074081
 30
0.0
 10
20.59641494225762
 20
-3.333466162626005
 30
0.0
 10
19.76327696346814
 20
-3.396139355568931
 30
0.0
 10
18.51147360484637
 20
-3.348330036293651
 30
0.0
 10
17.25665555980977
 20
-3.197529487519583
 30
0.0
 10
16.00286828519492
 20
-2.938229702392552
 30
0.0
 10
14.74966170846038
 20
-2.581964904490671
 30
0.0
 10
13.49557858780552
 20
-2.139863810511713
 30
0.0
 10
12.2850651864195
 20
-1.645358402589456
 30
0.0
 10
11.11998778522592
 20
-1.121614768651006
 30
0.0
 10
10.37328860932172
 20
-0.7634436636683618
 30
0.0
 10
9.999999999999988
 20
-0.58438736095275
 30
0.0
  0
SPLINE
  5
BE
330
1F
100
AcDbEntity
  8
외형선
  6
Continuous
 62
     1
370
    15
100
AcDbSpline
210
0.0
220
0.0
230
1.0
 70
     8
 71
     3
 72
    17
 73
    13
 74
     0
 42
0.000000001
 43
0.00000001
 40
0.0
 40
0.0
 40
0.0
 40
0.0
 40
0.0156790376820613
 40
0.1252308478691014
 40
0.234761486454253
 40
0.3442631865551953
 40
0.4537432480539489
 40
0.5632090239808646
 40
0.6723977573433811
 40
0.7815872067556959
 40
0.8907853143740887
 40
1.0
 40
1.0
 40
1.0
 40
1.0
 10
23.74319506843976
 20
-3.119289927488836
 30
0.0
 10
23.67136418165832
 20
-3.147620413356151
 30
0.0
 10
23.09764001329809
 20
-3.373900293387722
 30
0.0
 10
22.02201045346988
 20
-3.656098636234868
 30
0.0
 10
20.51664098202891
 20
-3.928049103273847
 30
0.0
 10
19.01166944760835
 20
-3.998683701718597
 30
0.0
 10
17.50705801145838
 20
-3.88216506955788
 30
0.0
 10
16.00391582162522
 20
-3.57958083875459
 30
0.0
 10
14.5021351512368
 20
-3.107425010363009
 30
0.0
 10
13.00157467861663
 20
-2.487186105333371
 30
0.0
 10
11.50087703004226
 20
-1.751966554052436
 30
0.0
 10
10.50031765822419
 20
-1.198571109428545
 30
0.0
 10
9.999999999995538
 20
-0.9218523851558043
 30
0.0
  0
SPLINE
  5
BF
330
1F
100
AcDbEntity
  8
외형선
  6
Continuous
 62
     1
370
    15
100
AcDbSpline
210
0.0
220
0.0
230
1.0
 70
     8
 71
     3
 72
    12
 73
     8
 74
     0
 42
0.000000001
 43
0.00000001
 40
0.0
 40
0.0
 40
0.0
 40
0.0
 40
0.2066740344748937
 40
0.4133166916591417
 40
0.619942963863497
 40
0.8265678857128061
 40
1.0
 40
1.0
 40
1.0
 40
1.0
 10
9.999999999995486
 20
-1.952111356617116
 30
0.0
 10
10.50031176148184
 20
-2.194549879732814
 30
0.0
 10
11.50085932702917
 20
-2.679390118902196
 30
0.0
 10
13.00153900887071
 20
-3.255930228353313
 30
0.0
 10
14.50208246725672
 20
-3.67926687470709
 30
0.0
 10
15.92222597036044
 20
-3.931412940946539
 30
0.0
 10
16.84222818669899
 20
-3.948174618965486
 30
0.0
 10
17.2620544610669
 20
-3.955823505794104
 30
0.0
  0
SPLINE
  5
C0
330
1F
100
AcDbEntity
  8
외형선
  6
Continuous
 62
     1
370
    15
100
AcDbSpline
210
0.0
220
0.0
230
1.0
 70
     8
 71
     3
 72
    11
 73
     7
 74
     0
 42
0.000000001
 43
0.00000001
 40
0.0
 40
0.0
 40
0.0
 40
0.0
 40
0.1453894801135268
 40
0.4303193207518627
 40
0.7152632846891462
 40
1.0
 40
1.0
 40
1.0
 40
1.0
 10
33.1395764237833
 20
2.659420653560349
 30
0.0
 10
33.37834880985605
 20
2.763956290084847
 30
0.0
 10
34.08505998943313
 20
3.073357658522649
 30
0.0
 10
35.25998338619426
 20
3.455888443315727
 30
0.0
 10
36.66380298062898
 20
3.80270030203609
 30
0.0
 10
37.59938111399181
 20
3.895900223310024
 30
0.0
 10
38.06700000000001
 20
3.96875000000013
 30
0.0
  0
LINE
  5
C1
330
1F
100
AcDbEntity
  8
외형선
  6
Continuous
 62
     1
370
    15
100
AcDbLine
 10
38.57500000000001
 20
2.778125000000004
 30
0.0
 11
37.09929622014792
 21
2.713119148956907
 31
0.0
  0
SPLINE
  5
C3
330
1F
100
AcDbEntity
  8
외형선
  6
Continuous
 62
     1
370
    15
100
AcDbSpline
210
0.0
220
0.0
230
1.0
 70
    24
 71
     3
 72
     8
 73
     4
 74
     0
 42
0.000000001
 43
0.00000001
 40
0.0
 40
0.0
 40
0.0
 40
0.0
 40
1.0
 40
1.0
 40
1.0
 40
1.0
 10
38.57500000000001
 20
2.778125000000004
 30
0.0
 10
38.57500000000001
 20
2.975596855819921
 30
0.0
 10
38.57500000000001
 20
3.211084238736904
 30
0.0
 10
38.57500000000001
 20
3.46075000000013
 30
0.0
  0
SPLINE
  5
C4
330
1F
100
AcDbEntity
  8
외형선
  6
Continuous
 62
     1
370
    15
100
AcDbSpline
210
0.0
220
0.0
230
1.0
 70
     8
 71
     3
 72
     8
 73
     4
 74
     0
 42
0.000000001
 43
0.00000001
 40
0.0
 40
0.0
 40
0.0
 40
0.0
 40
1.0
 40
1.0
 40
1.0
 40
1.0
 10
38.57500000000001
 20
-1.060620442055146
 30
0.0
 10
38.05799701749258
 20
-0.6541678997792556
 30
0.0
 10
37.55038716063779
 20
-0.2269273926010357
 30
0.0
 10
37.05296605240354
 20
0.2228618759324827
 30
0.0
  0
LINE
  5
C5
330
1F
100
AcDbEntity
  8
외형선
  6
Continuous
 62
     1
370
    15
100
AcDbLine
 10
37.5235810710064
 20
0.6177547644686573
 30
0.0
 11
38.57500000000001
 21
0.0000000000000076
 31
0.0
  0
LINE
  5
C6
330
1F
100
AcDbEntity
  8
외형선
  6
Continuous
 62
     1
370
    15
100
AcDbLine
 10
38.57500000000001
 20
0.0000000000000076
 30
0.0
 11
38.57500000000001
 21
-1.060620442055146
 31
0.0
  0
SPLINE
  5
C7
330
1F
100
AcDbEntity
  8
외형선
  6
Continuous
 62
     1
370
    15
100
AcDbSpline
210
0.0
220
0.0
230
1.0
 70
     8
 71
     3
 72
    16
 73
    12
 74
     0
 42
0.000000001
 43
0.00000001
 40
0.0
 40
0.0
 40
0.0
 40
0.0
 40
0.12479140783662
 40
0.2495944303400126
 40
0.369776680684724
 40
0.4900009300370452
 40
0.610024441978531
 40
0.7300262369262686
 40
0.8501880220373104
 40
0.9704291512816988
 40
1.0
 40
1.0
 40
1.0
 40
1.0
 10
37.41986121040236
 20
0.5307234675597272
 30
0.0
 10
36.98559358688262
 20
0.7267445748333826
 30
0.0
 10
36.11701792140543
 20
1.118805033584207
 30
0.0
 10
34.83025928485948
 20
1.655094720964648
 30
0.0
 10
33.55912637882637
 20
2.128439766404901
 30
0.0
 10
32.30449340063259
 20
2.524657705023209
 30
0.0
 10
31.05094020331292
 20
2.837003393230281
 30
0.0
 10
29.79760067337487
 20
3.05729146493322
 30
0.0
 10
28.5432481164607
 20
3.167608960955544
 30
0.0
 10
27.60340336463762
 20
3.195069177779096
 30
0.0
 10
27.08208247530067
 20
3.152393958340804
 30
0.0
 10
26.97918081575438
 20
3.143970449919172
 30
0.0
  0
SPLINE
  5
C8
330
1F
100
AcDbEntity
  8
외형선
  6
Continuous
 62
     1
370
    15
100
AcDbSpline
210
0.0
220
0.0
230
1.0
 70
    24
 71
     3
 72
     8
 73
     4
 74
     0
 42
0.000000001
 43
0.00000001
 40
0.0
 40
0.0
 40
0.0
 40
0.0
 40
1.0
 40
1.0
 40
1.0
 40
1.0
 10
37.41986121030164
 20
0.5307234676055361
 30
0.0
 10
37.29752617462223
 20
0.4280721842868779
 30
0.0
 10
37.17522813606826
 20
0.3254519452425217
 30
0.0
 10
37.05296605239315
 20
0.2228618759237765
 30
0.0
  0
SPLINE
  5
C9
330
1F
100
AcDbEntity
  8
외형선
  6
Continuous
 62
     1
370
    15
100
AcDbSpline
210
0.0
220
0.0
230
1.0
 70
    24
 71
     3
 72
    10
 73
     6
 74
     0
 42
0.000000001
 43
0.00000001
 40
0.0
 40
0.0
 40
0.0
 40
0.0
 40
0.5
 40
0.5
 40
1.0
 40
1.0
 40
1.0
 40
1.0
 10
38.57500000000001
 20
-3.131233674211353
 30
0.0
 10
38.57500000000001
 20
-2.891200200108847
 30
0.0
 10
38.575
 20
-2.587908701753793
 30
0.0
 10
38.575
 20
-1.882785156629255
 30
0.0
 10
38.57500000000001
 20
-1.48156391460988
 30
0.0
 10
38.575
 20
-1.060620442055272
 30
0.0
  0
SPLINE
  5
CA
330
1F
100
AcDbEntity
  8
외형선
  6
Continuous
 62
     1
370
    15
100
AcDbSpline
210
0.0
220
0.0
230
1.0
 70
     8
 71
     3
 72
    24
 73
    20
 74
     0
 42
0.000000001
 43
0.00000001
 40
0.0
 40
0.0
 40
0.0
 40
0.0
 40
0.0185432871124748
 40
0.0807357753178819
 40
0.1429693298995315
 40
0.2050951878869474
 40
0.2672023136479643
 40
0.3293847965198219
 40
0.3916252637549161
 40
0.453756651919344
 40
0.51586181774001
 40
0.5780348832491724
 40
0.6402804384230262
 40
0.7024179501244728
 40
0.7645217521372686
 40
0.8266859892465767
 40
0.888934807060911
 40
0.9444766071095518
 40
1.0
 40
1.0
 40
1.0
 40
1.0
 10
30.17213201208784
 20
-2.974033821768722
 30
0.0
 10
30.04746182793126
 20
-2.996652633854588
 30
0.0
 10
29.50465925383244
 20
-3.095132871983096
 30
0.0
 10
28.54322578428808
 20
-3.168324510328749
 30
0.0
 10
27.28853974555918
 20
-3.185848538847885
 30
0.0
 10
26.03489849865029
 20
-3.090360053127684
 30
0.0
 10
24.78161631201034
 20
-2.894187539975433
 30
0.0
 10
23.52733193263775
 20
-2.601466461670038
 30
0.0
 10
22.27258336055153
 20
-2.222971877605882
 30
0.0
 10
21.01886107102644
 20
-1.770095948303311
 30
0.0
 10
19.765617545484
 20
-1.258549964728742
 30
0.0
 10
18.51142024743009
 20
-0.7052627310666478
 30
0.0
 10
17.25663220619979
 20
-0.1292790884952161
 30
0.0
 10
16.00282702974153
 20
0.4519102620251618
 30
0.0
 10
14.74960644882872
 20
1.017822578413237
 30
0.0
 10
13.49551209198151
 20
1.550403978350851
 30
0.0
 10
12.28504814416334
 20
2.012248095369582
 30
0.0
 10
11.11996176451515
 20
2.404152332447747
 30
0.0
 10
10.37327933822
 20
2.599956029112467
 30
0.0
 10
10.00000000000001
 20
2.697841651886109
 30
0.0
  0
SPLINE
  5
CB
330
1F
100
AcDbEntity
  8
외형선
  6
Continuous
370
    15
100
AcDbSpline
210
0.0
220
0.0
230
1.0
 70
    24
 71
     3
 72
    14
 73
    10
 74
     0
 42
0.000000001
 43
0.00000001
 40
0.0
 40
0.0
 40
0.0
 40
0.0
 40
0.25
 40
0.25
 40
0.5
 40
0.5
 40
0.75
 40
0.75
 40
1.0
 40
1.0
 40
1.0
 40
1.0
 10
10.0
 20
2.697841651886109
 30
0.0
 10
10.0
 20
2.507487073207887
 30
0.0
 10
10.0
 20
2.287125238442937
 30
0.0
 10
10.0
 20
1.796015462901635
 30
0.0
 10
10.0
 20
1.525345590297736
 30
0.0
 10
10.0
 20
0.9516947489146895
 30
0.0
 10
10.0
 20
0.6488794330847314
 30
0.0
 10
10.0
 20
0.0337142320782357
 30
0.0
 10
10.0
 20
-0.2784598985004731
 30
0.0
 10
10.0
 20
-0.5843873609527602
 30
0.0
  0
SPLINE
  5
CC
330
1F
100
AcDbEntity
  8
외형선
  6
Continuous
370
    15
100
AcDbSpline
210
0.0
220
0.0
230
1.0
 70
    24
 71
     3
 72
     9
 73
     5
 74
     0
 42
0.000000001
 43
0.00000001
 40
0.0
 40
0.0
 40
0.0
 40
0.0
 40
0.1954395071799401
 40
1.0
 40
1.0
 40
1.0
 40
1.0
 10
10.0
 20
2.78015804833094
 30
0.0
 10
10.0
 20
2.783592910814324
 30
0.0
 10
10.0
 20
2.801167978071442
 30
0.0
 10
10.0
 20
2.743909533925932
 30
0.0
 10
10.0
 20
2.697841651886109
 30
0.0
  0
SPLINE
  5
CD
330
1F
100
AcDbEntity
  8
외형선
  6
Continuous
 62
     1
370
    15
100
AcDbSpline
210
0.0
220
0.0
230
1.0
 70
    24
 71
     3
 72
    10
 73
     6
 74
     0
 42
0.000000001
 43
0.00000001
 40
0.0
 40
0.0
 40
0.0
 40
0.0
 40
0.5
 40
0.5
 40
1.0
 40
1.0
 40
1.0
 40
1.0
 10
38.575
 20
1.500000000000007
 30
0.0
 10
38.575
 20
1.82479827905619
 30
0.0
 10
38.575
 20
2.104137372298017
 30
0.0
 10
38.575
 20
2.536278438437888
 30
0.0
 10
38.57500000000001
 20
2.68898429820348
 30
0.0
 10
38.57500000000001
 20
2.778125000000004
 30
0.0
  0
SPLINE
  5
CE
330
1F
100
AcDbEntity
  8
외형선
  6
Continuous
 62
     1
370
    15
100
AcDbSpline
210
0.0
220
0.0
230
1.0
 70
    24
 71
     3
 72
     8
 73
     4
 74
     0
 42
0.000000001
 43
0.00000001
 40
0.0
 40
0.0
 40
0.0
 40
0.0
 40
1.0
 40
1.0
 40
1.0
 40
1.0
 10
38.57500000000001
 20
1.500000000000008
 30
0.0
 10
38.20458880967932
 20
1.189188106817978
 30
0.0
 10
37.81849798477079
 20
0.865219438036291
 30
0.0
 10
37.41986121030165
 20
0.5307234676055356
 30
0.0
  0
SPLINE
  5
CF
330
1F
100
AcDbEntity
  8
외형선
  6
Continuous
370
    15
100
AcDbSpline
210
0.0
220
0.0
230
1.0
 70
    24
 71
     3
 72
    14
 73
    10
 74
     0
 42
0.000000001
 43
0.00000001
 40
0.0
 40
0.0
 40
0.0
 40
0.0
 40
0.0974375744723295
 40
0.2384713357513938
 40
0.37455066657179
 40
0.511574819818742
 40
0.651578890737425
 40
0.7926126520164932
 40
0.9999999999999999
 40
0.9999999999999999
 40
0.9999999999999999
 40
0.9999999999999999
 10
10.0
 20
-2.004720811196059
 30
0.0
 10
10.0
 20
-2.05396750479478
 30
0.0
 10
10.0
 20
-2.174495184875339
 30
0.0
 10
10.0
 20
-2.333080556581433
 30
0.0
 10
10.0
 20
-2.484187166864012
 30
0.0
 10
10.0
 20
-2.606079288983413
 30
0.0
 10
10.0
 20
-2.698439169343192
 30
0.0
 10
10.0
 20
-2.776041783940341
 30
0.0
 10
10.0
 20
-2.7792254632344
 30
0.0
 10
10.0
 20
-2.781120454060364
 30
0.0
  0
LINE
  5
D0
330
1F
100
AcDbEntity
  8
외형선
  6
Continuous
 62
     1
370
    15
100
AcDbLine
 10
38.57500000000001
 20
-3.222838978409458
 30
0.0
 11
38.575
 21
-3.460750000000115
 31
0.0
  0
LINE
  5
D1
330
1F
100
AcDbEntity
  8
외형선
  6
Continuous
 62
     1
370
    15
100
AcDbLine
 10
38.57500000000001
 20
0.0000000000000076
 30
0.0
 11
38.57500000000001
 21
1.500000000000008
 31
0.0
  0
LINE
  5
D2
330
1F
100
AcDbEntity
  8
중심선
 62
     1
100
AcDbLine
 10
-40.625
 20
0.0
 30
0.0
 11
41.57500000000001
 21
0.0
 31
0.0
  0
LINE
  5
D3
330
1F
100
AcDbEntity
  8
참조1
100
AcDbLine
 10
0.47500000000001
 20
0.0
 30
0.0
 11
0.4750000000000149
 21
-40.0
 31
0.0
  0
LINE
  5
D4
330
1F
100
AcDbEntity
  8
참조1
100
AcDbLine
 10
0.4750000000000149
 20
-40.0
 30
0.0
 11
-14.66672777521595
 21
-39.99999999999999
 31
0.0
  0
CIRCLE
  5
D5
330
1F
100
AcDbEntity
  8
해칭선
100
AcDbCircle
 10
0.0
 20
0.0
 30
0.0
 40
3.000000000000001
  0
INSERT
  5
D6
330
1F
100
AcDbEntity
  8
0
  6
Continuous
 62
     7
100
AcDbBlockReference
 66
     1
  2
블럭10
 10
-13.4652729321252
 20
-52.04717430164393
 30
0.0
  0
ATTRIB
  5
D7
330
D6
100
AcDbEntity
  8
FORMAT
 62
     2
100
AcDbText
 10
-23.60690894426183
 20
-49.97180738881174
 30
0.0
 40
4.233333333333333
  1
EM211020 [ 2 FLUTE ]
 41
0.75
  7
SLDTEXTSTYLE0
 11
-23.60690894426183
 21
-52.08847405547841
 31
0.0
100
AcDbAttribute
  2
AUTOATTR0
 70
     0
 74
     1
  0
SEQEND
  5
D8
330
D6
100
AcDbEntity
  8
0
  6
Continuous
 62
     7
  0
HATCH
  5
D9
330
1F
100
AcDbEntity
  8
중심선
100
AcDbHatch
 10
0.0
 20
0.0
 30
0.0
210
0.0
220
0.0
230
1.0
  2
SOLID
 70
     1
 71
     0
 91
        1
 92
        0
 93
        4
 72
     1
 10
-7.750363627744346
 20
-35.79999999999999
 11
-11.19663887158163
 21
-35.79999999999999
 72
     1
 10
-11.19663887158163
 20
-35.79999999999999
 11
-13.32486873078565
 21
-38.33632558057259
 72
     1
 10
-13.32486873078565
 20
-38.33632558057259
 11
-9.87856040183522
 21
-38.33628615127009
 72
     1
 10
-9.87856040183522
 20
-38.33628615127009
 11
-7.750363627744346
 21
-35.79999999999999
 97
        0
 75
     0
 76
     1
 98
        1
 10
-0.0000000000000071
 20
-0.0010749287238892
  0
HATCH
  5
DA
330
1F
100
AcDbEntity
  8
중심선
100
AcDbHatch
 10
0.0
 20
0.0
 30
0.0
210
0.0
220
0.0
230
1.0
  2
SOLID
 70
     1
 71
     0
 91
        1
 92
        0
 93
        4
 72
     1
 10
-2.737599636708395
 20
-35.79999999999999
 11
-6.183874880545649
 21
-35.79999999999999
 72
     1
 10
-6.183874880545649
 20
-35.79999999999999
 11
-10.71501288890307
 21
-41.20000000000001
 72
     1
 10
-10.71501288890307
 20
-41.20000000000001
 11
-7.268737645065783
 21
-41.20000000000001
 72
     1
 10
-7.268737645065783
 20
-41.20000000000001
 11
-2.737599636708395
 21
-35.79999999999999
 97
        0
 75
     0
 76
     1
 98
        1
 10
-0.0000000000000071
 20
-0.0010749287238892
  0
HATCH
  5
DB
330
1F
100
AcDbEntity
  8
중심선
100
AcDbHatch
 10
0.0
 20
0.0
 30
0.0
210
0.0
220
0.0
230
1.0
  2
SOLID
 70
     1
 71
     0
 91
        1
 92
        0
 93
        4
 72
     1
 10
2.275164354327501
 20
-35.79999999999999
 11
-1.171110889509587
 21
-35.79999999999999
 72
     1
 10
-1.171110889509587
 20
-35.79999999999999
 11
-8.219547791398863
 21
-44.20000000000001
 72
     1
 10
-8.219547791398863
 20
-44.20000000000001
 11
-4.773272547561581
 21
-44.20000000000001
 72
     1
 10
-4.773272547561581
 20
-44.20000000000001
 11
2.275164354327501
 21
-35.79999999999999
 97
        0
 75
     0
 76
     1
 98
        1
 10
-0.0000000000000071
 20
-0.0010749287238892
  0
HATCH
  5
DC
330
1F
100
AcDbEntity
  8
중심선
100
AcDbHatch
 10
0.0
 20
0.0
 30
0.0
210
0.0
220
0.0
230
1.0
  2
SOLID
 70
     1
 71
     0
 91
        1
 92
        0
 93
        6
 72
     3
 10
7.075054785339701
 20
-40.00000000005127
 11
3.960054785062285
 21
1.540882976769353E-10
 40
0.3939339440162626
 50
17.09539180608438
 51
320.0019657685079
 73
     0
 72
     1
 10
8.758054441040295
 20
-38.5878940046383
 11
11.06335631474136
 21
-36.65356729459038
 72
     3
 10
7.075054785286854
 20
-40.00000000000014
 11
6.600054785286829
 21
-1.278976924368180E-13
 40
0.636358354079598
 50
39.99873849337385
 51
368.4976242363725
 73
     1
 72
     1
 10
13.50038727718746
 20
-39.03999999993002
 11
5.755122092122776
 21
-39.03999999992999
 72
     1
 10
5.755122092122776
 20
-39.03999999992999
 11
5.755097047676842
 21
-40.95999999992991
 72
     1
 10
5.755097047676842
 20
-40.95999999992991
 11
10.19647681714888
 21
-40.95999999992988
 97
        0
 75
     0
 76
     1
 98
        1
 10
-0.0000000000000071
 20
-0.0010749287238892
  0
DIMENSION
  5
DD
330
1F
100
AcDbEntity
  8
치수문자_일반주서
100
AcDbDimension
  2
_D
 10
-47.01760359008309
 20
-3.968750000000028
 30
0.0
 11
-47.01760359008319
 21
24.57274999999996
 31
0.0
 70
   160
  1
%%c<>
 71
     2
 42
7.937499999999986
 52
-270.0
  3
SLDDIMSTYLE1
100
AcDbAlignedDimension
 13
-37.625
 23
3.968749999999994
 33
0.0
 14
-37.62306257220952
 24
-3.968749999999992
 34
0.0
 50
90.0000000000002
100
AcDbRotatedDimension
1001
PE_URL
1000

1001
ACAD
1000
DSTYLE
1002
{
1070
   171
1070
     6
1070
   273
1070
     7
1002
}
  0
DIMENSION
  5
F2
330
1F
100
AcDbEntity
  8
치수문자_일반주서
100
AcDbDimension
  2
_D_1
 10
48.57500000000003
 20
-3.968749999999893
 30
0.0
 11
48.57499999999993
 21
24.57275000000016
 31
0.0
 70
   160
  1
%%c<>
 71
     2
 42
7.937500000000055
 52
-270.0
  3
SLDDIMSTYLE1
100
AcDbAlignedDimension
 13
38.57500000000002
 23
3.968750000000125
 33
0.0
 14
38.57638125008362
 24
-3.96874999999993
 34
0.0
 50
90.0000000000002
100
AcDbRotatedDimension
1001
ACAD
1000
DSTYLE
1002
{
1070
   171
1070
     6
1070
   273
1070
     7
1002
}
1001
PE_URL
1000

  0
DIMENSION
  5
106
330
1F
100
AcDbEntity
  8
치수문자_일반주서
100
AcDbDimension
  2
_D_2
 10
10.00000000000001
 20
23.24722659278625
 30
0.0
 11
-8.176999999999992
 21
23.24722659278625
 31
0.0
 70
   160
  1
<>
 71
     2
 42
28.57500000000001
  3
SLDDIMSTYLE1
100
AcDbAlignedDimension
 13
38.57500000000002
 23
3.968750000000125
 33
0.0
 14
10.00000000000001
 24
3.968750000000026
 34
0.0
 50
0.0000000000000641
100
AcDbRotatedDimension
1001
PE_URL
1000

1001
ACAD
1000
DSTYLE
1002
{
1070
   171
1070
     6
1070
   273
1070
     7
1002
}
1001
ACAD_DSTYLE_DIMFLIPARROW_SYMBOL
1070
   385
1070
     0
1001
ACAD_DSTYLE_DIMFLIPARROW_WHICH_SYMBOL
1070
   386
1070
     3
  0
DIMENSION
  5
11B
330
1F
100
AcDbEntity
  8
치수문자_일반주서
100
AcDbDimension
  2
_D_3
 10
-37.62500000000001
 20
40.14723242174135
 30
0.0
 11
0.1321110371027032
 21
40.14723242174135
 31
0.0
 70
   160
  1
<>
 71
     2
 42
76.20000000000002
  3
SLDDIMSTYLE1
100
AcDbAlignedDimension
 13
38.57500000000002
 23
3.968750000000125
 33
0.0
 14
-37.625
 24
3.968749999999994
 34
0.0
 50
0.0000000000000053
100
AcDbRotatedDimension
1001
PE_URL
1000

1001
ACAD
1000
DSTYLE
1002
{
1070
   171
1070
     6
1070
   273
1070
     7
1002
}
  0
LINE
  5
12F
330
1F
100
AcDbEntity
  8
참조1
100
AcDbLine
 10
83.30561285443832
 20
7.440000000000007
 30
0.0
 11
83.30561285443832
 21
-7.439999999999998
 31
0.0
  0
LINE
  5
130
330
1F
100
AcDbEntity
  8
참조1
100
AcDbLine
 10
96.00561285443831
 20
5.440000000000007
 30
0.0
 11
83.30561285443832
 21
5.440000000000007
 31
0.0
  0
SOLID
  5
131
330
1F
100
AcDbEntity
  8
참조1
100
AcDbTrace
 10
83.30561285443832
 20
5.440000000000007
 30
0.0
 11
89.65561285443832
 21
4.424000000000007
 31
0.0
 12
89.65561285443832
 22
6.456000000000008
 32
0.0
 13
89.65561285443832
 23
6.456000000000008
 33
0.0
  0
LINE
  5
132
330
1F
100
AcDbEntity
  8
참조1
100
AcDbLine
 10
96.00561285443831
 20
-5.439999999999998
 30
0.0
 11
83.30561285443832
 21
-5.439999999999998
 31
0.0
  0
SOLID
  5
133
330
1F
100
AcDbEntity
  8
참조1
100
AcDbTrace
 10
83.30561285443832
 20
-5.439999999999998
 30
0.0
 11
89.65561285443832
 21
-6.455999999999998
 31
0.0
 12
89.65561285443832
 22
-4.423999999999998
 32
0.0
 13
89.65561285443832
 23
-4.423999999999998
 33
0.0
  0
MTEXT
  5
134
330
1F
100
AcDbEntity
  8
참조1
100
AcDbMText
 10
92.70310294690859
 20
10.98821664464994
 30
0.0
 40
3.5
 41
0.0
 71
     1
 72
     1
  1
A
  7
SLDTEXTSTYLE0
 73
     1
 44
1.0
  0
MTEXT
  5
135
330
1F
100
AcDbEntity
  8
참조1
100
AcDbMText
 10
92.70310294690859
 20
0.1082166446499359
 30
0.0
 40
3.5
 41
0.0
 71
     1
 72
     1
  1
A
  7
SLDTEXTSTYLE0
 73
     1
 44
1.0
  0
INSERT
  5
13C
330
1F
100
AcDbEntity
  8
해칭선
100
AcDbBlockReference
  2
SW_DOWELSYMBOL_0
 10
0.0
 20
0.0
 30
0.0
  0
LINE
  5
161
330
1F
100
AcDbEntity
  8
0
100
AcDbLine
 10
48.575
 20
3.968750000000126
 30
0.0
 11
48.57500000000002
 21
-3.968749999999878
 31
0.0
  0
MTEXT
  5
1E0
102
{ACAD_REACTORS
330
1E1
102
}
330
1F
100
AcDbEntity
  8
0
100
AcDbMText
 10
48.76855350372613
 20
-18.44909492115821
 30
0.0
 40
3.5
 41
0.0
 71
     7
 72
     1
  1
{R0.51[.020"]}
 73
     1
 44
1.0
1001
ACAD
1000
ACAD_MTEXT_DEFINED_HEIGHT_BEGIN
1070
    46
1040
3.5
1000
ACAD_MTEXT_DEFINED_HEIGHT_END
  0
LEADER
  5
1E1
102
{ACAD_XDICTIONARY
360
1E2
102
}
330
1F
100
AcDbEntity
  8
0
100
AcDbLeader
  3
ISO-25
 73
     0
 74
     0
 75
     1
 40
3.5
 41
29.75
 76
     3
 10
38.33424932429954
 20
-3.879746286998734
 30
0.0
 10
43.94255350372613
 20
-16.69909492115821
 30
0.0
 10
47.24455350372613
 20
-16.69909492115821
 30
0.0
340
1E0
213
0.0
223
1.75
233
0.0
1001
ACAD
1000
DSTYLE
1002
{
1070
    77
1070
     0
1070
   179
1070
     2
1070
   143
1040
0.0393700787401575
1070
    41
1040
3.302
1070
    44
1040
1.0
1070
    42
1040
1.0
1070
   147
1040
1.524
1070
    73
1070
     1
1070
    74
1070
     1
1070
   140
1040
3.5
1070
   284
1070
     0
1070
    78
1070
     0
1002
}
  0
ARC
  5
1E5
330
1F
100
AcDbEntity
  8
외형선
  6
Continuous
 62
     1
370
    15
100
AcDbCircle
 10
38.06700000000001
 20
3.46075000000013
 30
0.0
 40
0.5080000000000001
100
AcDbArc
 50
0.0
 51
90.0
1001
PE_URL
1000

  0
ARC
  5
1E6
330
1F
100
AcDbEntity
  8
외형선
  6
Continuous
 62
     1
370
    15
100
AcDbCircle
 10
38.067
 20
-3.460750000000111
 30
0.0
 40
0.5080000000000001
100
AcDbArc
 50
269.9999999999992
 51
359.9999999999997
1001
PE_URL
1000

  0
LINE
  5
1E7
330
1F
100
AcDbEntity
  8
0
100
AcDbLine
 10
-47.01760359008312
 20
3.968749999999964
 30
0.0
 11
-47.01760359008308
 21
-3.968750000000022
 31
0.0
  0
ENDSEC
  0
SECTION
  2
OBJECTS
  0
DICTIONARY
  5
C
330
0
100
AcDbDictionary
281
     1
  3
ACAD_DETAILVIEWSTYLE
350
1B5
  3
ACAD_GROUP
350
D
  3
ACAD_LAYOUT
350
1A
  3
ACAD_MLINESTYLE
350
17
  3
ACAD_PLOTSETTINGS
350
19
  3
ACAD_PLOTSTYLENAME
350
E
  3
ACAD_SCALELIST
350
47
  3
ACAD_SECTIONVIEWSTYLE
350
1B6
  3
AcDbVariableDictionary
350
1B0
  3
APPDATA
350
15E
  3
DWGPROPS
350
20C
  0
DICTIONARY
  5
1E2
330
1E1
100
AcDbDictionary
280
     1
281
     1
  0
DICTIONARY
  5
1B5
102
{ACAD_REACTORS
330
C
102
}
330
C
100
AcDbDictionary
281
     1
  0
DICTIONARY
  5
D
102
{ACAD_REACTORS
330
C
102
}
330
C
100
AcDbDictionary
281
     1
  0
DICTIONARY
  5
1A
102
{ACAD_REACTORS
330
C
102
}
330
C
100
AcDbDictionary
281
     1
  3
Layout1
350
1E
  3
Layout2
350
26
  3
Model
350
22
  0
DICTIONARY
  5
17
102
{ACAD_REACTORS
330
C
102
}
330
C
100
AcDbDictionary
281
     1
  3
Standard
350
18
  0
DICTIONARY
  5
19
102
{ACAD_REACTORS
330
C
102
}
330
C
100
AcDbDictionary
281
     1
  0
ACDBDICTIONARYWDFLT
  5
E
102
{ACAD_REACTORS
330
C
102
}
330
C
100
AcDbDictionary
281
     1
  3
Normal
350
F
100
AcDbDictionaryWithDefault
340
F
  0
DICTIONARY
  5
47
102
{ACAD_REACTORS
330
C
102
}
330
C
100
AcDbDictionary
281
     1
  3
A0
350
48
  3
A1
350
49
  3
A2
350
4A
  3
A3
350
4B
  3
A4
350
4C
  3
A5
350
4D
  3
A6
350
4E
  3
A7
350
4F
  3
A8
350
50
  3
A9
350
51
  3
B0
350
52
  3
B1
350
53
  3
B2
350
54
  3
B3
350
55
  3
B4
350
56
  3
B5
350
57
  3
B6
350
58
  3
B7
350
59
  3
B8
350
5A
  3
B9
350
5B
  3
C0
350
5C
  3
C1
350
5D
  3
C2
350
5E
  3
C3
350
5F
  3
C4
350
60
  3
C5
350
61
  3
C6
350
62
  3
C7
350
63
  3
C8
350
64
  3
C9
350
65
  3
D0
350
66
  3
D1
350
67
  3
D2
350
68
  0
DICTIONARY
  5
1B6
102
{ACAD_REACTORS
330
C
102
}
330
C
100
AcDbDictionary
281
     1
  0
DICTIONARY
  5
1B0
102
{ACAD_REACTORS
330
C
102
}
330
C
100
AcDbDictionary
281
     1
  0
DICTIONARY
  5
15E
102
{ACAD_REACTORS
330
C
102
}
330
C
100
AcDbDictionary
281
     1
  0
XRECORD
  5
20C
102
{ACAD_REACTORS
330
C
102
}
330
C
100
AcDbXrecord
280
     1
  1
DWGPROPS COOKIE
  2

  3

  4

  6

  7

  8
USER
  9

300
=
301
=
302
=
303
=
304
=
305
=
306
=
307
=
308
=
309
=
 40
0.0
 41
2458288.272469086
 42
2458303.005683738
  1

 90
        0
  0
LAYOUT
  5
1E
102
{ACAD_REACTORS
330
1A
102
}
330
1A
100
AcDbPlotSettings
  1

  2
none_device
  4

  6

 40
0.0
 41
0.0
 42
0.0
 43
0.0
 44
0.0
 45
0.0
 46
0.0
 47
0.0
 48
0.0
 49
0.0
140
0.0
141
0.0
142
1.0
143
1.0
 70
   688
 72
     1
 73
     0
 74
     5
  7

 75
    16
147
1.0
148
0.0
149
0.0
100
AcDbLayout
  1
Layout1
 70
     1
 71
     1
 10
0.0
 20
0.0
 11
420.0
 21
297.0
 12
0.0
 22
0.0
 32
0.0
 14
1.000000000000000E+20
 24
1.000000000000000E+20
 34
1.000000000000000E+20
 15
-1.000000000000000E+20
 25
-1.000000000000000E+20
 35
-1.000000000000000E+20
146
0.0
 13
0.0
 23
0.0
 33
0.0
 16
1.0
 26
0.0
 36
0.0
 17
0.0
 27
1.0
 37
0.0
 76
     0
330
1B
  0
LAYOUT
  5
26
102
{ACAD_REACTORS
330
1A
102
}
330
1A
100
AcDbPlotSettings
  1

  2
none_device
  4

  6

 40
0.0
 41
0.0
 42
0.0
 43
0.0
 44
0.0
 45
0.0
 46
0.0
 47
0.0
 48
0.0
 49
0.0
140
0.0
141
0.0
142
1.0
143
1.0
 70
   688
 72
     1
 73
     0
 74
     5
  7

 75
    16
147
1.0
148
0.0
149
0.0
100
AcDbLayout
  1
Layout2
 70
     1
 71
     2
 10
0.0
 20
0.0
 11
0.0
 21
0.0
 12
0.0
 22
0.0
 32
0.0
 14
0.0
 24
0.0
 34
0.0
 15
0.0
 25
0.0
 35
0.0
146
0.0
 13
0.0
 23
0.0
 33
0.0
 16
1.0
 26
0.0
 36
0.0
 17
0.0
 27
1.0
 37
0.0
 76
     0
330
23
  0
LAYOUT
  5
22
102
{ACAD_REACTORS
330
1A
102
}
330
1A
100
AcDbPlotSettings
  1

  2
none_device
  4
ANSI_A_(11.00_x_8.50_Inches)
  6

 40
6.35
 41
19.05
 42
6.35000508
 43
19.05000254
 44
279.4
 45
215.9
 46
102.6304152698885
 47
101.3733921793742
 48
0.0
 49
0.0
140
0.0
141
0.0
142
0.0693129513144063
143
1.0
 70
  1696
 72
     0
 73
     0
 74
     0
  7

 75
     0
147
0.0235690232323232
148
0.0
149
0.0
100
AcDbLayout
  1
Model
 70
     1
 71
     0
 10
0.0
 20
0.0
 11
420.0
 21
297.0
 12
0.0
 22
0.0
 32
0.0
 14
-51.39260359008324
 24
-49.97180738881174
 34
0.0
 15
96.00561285443831
 25
44.52223242174135
 35
0.0
146
0.0
 13
0.0
 23
0.0
 33
0.0
 16
1.0
 26
0.0
 36
0.0
 17
0.0
 27
1.0
 37
0.0
 76
     0
330
1F
331
29
  0
MLINESTYLE
  5
18
102
{ACAD_REACTORS
330
17
102
}
330
17
100
AcDbMlineStyle
  2
Standard
 70
     0
  3

 62
   256
 51
90.0
 52
90.0
 71
     2
 49
0.5
 62
   256
  6
BYLAYER
 49
-0.5
 62
   256
  6
BYLAYER
  0
ACDBPLACEHOLDER
  5
F
102
{ACAD_REACTORS
330
E
102
}
330
E
  0
SCALE
  5
48
102
{ACAD_REACTORS
330
47
102
}
330
47
100
AcDbScale
 70
     0
300
1:1
140
1.0
141
1.0
290
     1
  0
SCALE
  5
49
102
{ACAD_REACTORS
330
47
102
}
330
47
100
AcDbScale
 70
     0
300
1:2
140
1.0
141
2.0
290
     0
  0
SCALE
  5
4A
102
{ACAD_REACTORS
330
47
102
}
330
47
100
AcDbScale
 70
     0
300
1:4
140
1.0
141
4.0
290
     0
  0
SCALE
  5
4B
102
{ACAD_REACTORS
330
47
102
}
330
47
100
AcDbScale
 70
     0
300
1:5
140
1.0
141
5.0
290
     0
  0
SCALE
  5
4C
102
{ACAD_REACTORS
330
47
102
}
330
47
100
AcDbScale
 70
     0
300
1:8
140
1.0
141
8.0
290
     0
  0
SCALE
  5
4D
102
{ACAD_REACTORS
330
47
102
}
330
47
100
AcDbScale
 70
     0
300
1:10
140
1.0
141
10.0
290
     0
  0
SCALE
  5
4E
102
{ACAD_REACTORS
330
47
102
}
330
47
100
AcDbScale
 70
     0
300
1:16
140
1.0
141
16.0
290
     0
  0
SCALE
  5
4F
102
{ACAD_REACTORS
330
47
102
}
330
47
100
AcDbScale
 70
     0
300
1:20
140
1.0
141
20.0
290
     0
  0
SCALE
  5
50
102
{ACAD_REACTORS
330
47
102
}
330
47
100
AcDbScale
 70
     0
300
1:30
140
1.0
141
30.0
290
     0
  0
SCALE
  5
51
102
{ACAD_REACTORS
330
47
102
}
330
47
100
AcDbScale
 70
     0
300
1:40
140
1.0
141
40.0
290
     0
  0
SCALE
  5
52
102
{ACAD_REACTORS
330
47
102
}
330
47
100
AcDbScale
 70
     0
300
1:50
140
1.0
141
50.0
290
     0
  0
SCALE
  5
53
102
{ACAD_REACTORS
330
47
102
}
330
47
100
AcDbScale
 70
     0
300
1:100
140
1.0
141
100.0
290
     0
  0
SCALE
  5
54
102
{ACAD_REACTORS
330
47
102
}
330
47
100
AcDbScale
 70
     0
300
2:1
140
2.0
141
1.0
290
     0
  0
SCALE
  5
55
102
{ACAD_REACTORS
330
47
102
}
330
47
100
AcDbScale
 70
     0
300
4:1
140
4.0
141
1.0
290
     0
  0
SCALE
  5
56
102
{ACAD_REACTORS
330
47
102
}
330
47
100
AcDbScale
 70
     0
300
8:1
140
8.0
141
1.0
290
     0
  0
SCALE
  5
57
102
{ACAD_REACTORS
330
47
102
}
330
47
100
AcDbScale
 70
     0
300
10:1
140
10.0
141
1.0
290
     0
  0
SCALE
  5
58
102
{ACAD_REACTORS
330
47
102
}
330
47
100
AcDbScale
 70
     0
300
100:1
140
100.0
141
1.0
290
     0
  0
SCALE
  5
59
102
{ACAD_REACTORS
330
47
102
}
330
47
100
AcDbScale
 70
     0
300
1/128" = 1'-0"
140
0.0078125
141
12.0
290
     0
  0
SCALE
  5
5A
102
{ACAD_REACTORS
330
47
102
}
330
47
100
AcDbScale
 70
     0
300
1/64" = 1'-0"
140
0.015625
141
12.0
290
     0
  0
SCALE
  5
5B
102
{ACAD_REACTORS
330
47
102
}
330
47
100
AcDbScale
 70
     0
300
1/32" = 1'-0"
140
0.03125
141
12.0
290
     0
  0
SCALE
  5
5C
102
{ACAD_REACTORS
330
47
102
}
330
47
100
AcDbScale
 70
     0
300
1/16" = 1'-0"
140
0.0625
141
12.0
290
     0
  0
SCALE
  5
5D
102
{ACAD_REACTORS
330
47
102
}
330
47
100
AcDbScale
 70
     0
300
3/32" = 1'-0"
140
0.09375
141
12.0
290
     0
  0
SCALE
  5
5E
102
{ACAD_REACTORS
330
47
102
}
330
47
100
AcDbScale
 70
     0
300
1/8" = 1'-0"
140
0.125
141
12.0
290
     0
  0
SCALE
  5
5F
102
{ACAD_REACTORS
330
47
102
}
330
47
100
AcDbScale
 70
     0
300
3/16" = 1'-0"
140
0.1875
141
12.0
290
     0
  0
SCALE
  5
60
102
{ACAD_REACTORS
330
47
102
}
330
47
100
AcDbScale
 70
     0
300
1/4" = 1'-0"
140
0.25
141
12.0
290
     0
  0
SCALE
  5
61
102
{ACAD_REACTORS
330
47
102
}
330
47
100
AcDbScale
 70
     0
300
3/8" = 1'-0"
140
0.375
141
12.0
290
     0
  0
SCALE
  5
62
102
{ACAD_REACTORS
330
47
102
}
330
47
100
AcDbScale
 70
     0
300
1/2" = 1'-0"
140
0.5
141
12.0
290
     0
  0
SCALE
  5
63
102
{ACAD_REACTORS
330
47
102
}
330
47
100
AcDbScale
 70
     0
300
3/4" = 1'-0"
140
0.75
141
12.0
290
     0
  0
SCALE
  5
64
102
{ACAD_REACTORS
330
47
102
}
330
47
100
AcDbScale
 70
     0
300
1" = 1'-0"
140
1.0
141
12.0
290
     0
  0
SCALE
  5
65
102
{ACAD_REACTORS
330
47
102
}
330
47
100
AcDbScale
 70
     0
300
1-1/2" = 1'-0"
140
1.5
141
12.0
290
     0
  0
SCALE
  5
66
102
{ACAD_REACTORS
330
47
102
}
330
47
100
AcDbScale
 70
     0
300
3" = 1'-0"
140
3.0
141
12.0
290
     0
  0
SCALE
  5
67
102
{ACAD_REACTORS
330
47
102
}
330
47
100
AcDbScale
 70
     0
300
6" = 1'-0"
140
6.0
141
12.0
290
     0
  0
SCALE
  5
68
102
{ACAD_REACTORS
330
47
102
}
330
47
100
AcDbScale
 70
     0
300
1'-0" = 1'-0"
140
12.0
141
12.0
290
     0
  0
ENDSEC
  0
EOF
