  0
SECTION
  2
HEADER
  9
$ACADVER
  1
AC1015
  9
$ACADMAINTVER
 70
     6
  9
$DWGCODEPAGE
  3
ANSI_949
  9
$INSBASE
 10
0.0
 20
0.0
 30
0.0
  9
$EXTMIN
 10
-68.24000000296265
 20
-49.97073246008785
 30
0.0
  9
$EXTMAX
 10
91.22598381534564
 20
61.74777559439124
 30
0.0
  9
$LIMMIN
 10
0.0
 20
0.0
  9
$LIMMAX
 10
420.0
 20
297.0
  9
$ORTHOMODE
 70
     0
  9
$REGENMODE
 70
     1
  9
$FILLMODE
 70
     1
  9
$QTEXTMODE
 70
     0
  9
$MIRRTEXT
 70
     1
  9
$LTSCALE
 40
1.0
  9
$ATTMODE
 70
     1
  9
$TEXTSIZE
 40
3.5
  9
$TRACEWID
 40
1.0
  9
$TEXTSTYLE
  7
Standard
  9
$CLAYER
  8
0
  9
$CELTYPE
  6
ByLayer
  9
$CECOLOR
 62
   256
  9
$CELTSCALE
 40
1.0
  9
$DISPSILH
 70
     0
  9
$DIMSCALE
 40
1.0
  9
$DIMASZ
 40
3.302
  9
$DIMEXO
 40
1.0
  9
$DIMDLI
 40
3.75
  9
$DIMRND
 40
0.0
  9
$DIMDLE
 40
0.0
  9
$DIMEXE
 40
1.0
  9
$DIMTP
 40
0.0
  9
$DIMTM
 40
0.0
  9
$DIMTXT
 40
3.5
  9
$DIMCEN
 40
2.5
  9
$DIMTSZ
 40
0.0
  9
$DIMTOL
 70
     0
  9
$DIMLIM
 70
     0
  9
$DIMTIH
 70
     1
  9
$DIMTOH
 70
     1
  9
$DIMSE1
 70
     0
  9
$DIMSE2
 70
     0
  9
$DIMTAD
 70
     1
  9
$DIMZIN
 70
     0
  9
$DIMBLK
  1

  9
$DIMASO
 70
     1
  9
$DIMSHO
 70
     1
  9
$DIMPOST
  1

  9
$DIMAPOST
  1

  9
$DIMALT
 70
     0
  9
$DIMALTD
 70
     3
  9
$DIMALTF
 40
0.0393700787401575
  9
$DIMLFAC
 40
1.0
  9
$DIMTOFL
 70
     1
  9
$DIMTVP
 40
0.0
  9
$DIMTIX
 70
     0
  9
$DIMSOXD
 70
     0
  9
$DIMSAH
 70
     0
  9
$DIMBLK1
  1

  9
$DIMBLK2
  1

  9
$DIMSTYLE
  2
ISO-25
  9
$DIMCLRD
 70
     0
  9
$DIMCLRE
 70
     0
  9
$DIMCLRT
 70
     0
  9
$DIMTFAC
 40
1.0
  9
$DIMGAP
 40
1.524
  9
$DIMJUST
 70
     0
  9
$DIMSD1
 70
     0
  9
$DIMSD2
 70
     0
  9
$DIMTOLJ
 70
     0
  9
$DIMTZIN
 70
     0
  9
$DIMALTZ
 70
     0
  9
$DIMALTTZ
 70
     0
  9
$DIMUPT
 70
     0
  9
$DIMDEC
 70
     2
  9
$DIMTDEC
 70
     2
  9
$DIMALTU
 70
     2
  9
$DIMALTTD
 70
     3
  9
$DIMTXSTY
  7
Standard
  9
$DIMAUNIT
 70
     0
  9
$DIMADEC
 70
     2
  9
$DIMALTRND
 40
0.0
  9
$DIMAZIN
 70
     0
  9
$DIMDSEP
 70
    44
  9
$DIMATFIT
 70
     3
  9
$DIMFRAC
 70
     0
  9
$DIMLDRBLK
  1

  9
$DIMLUNIT
 70
     2
  9
$DIMLWD
 70
    -2
  9
$DIMLWE
 70
    -2
  9
$DIMTMOVE
 70
     0
  9
$LUNITS
 70
     2
  9
$LUPREC
 70
     2
  9
$SKETCHINC
 40
1.0
  9
$FILLETRAD
 40
10.0
  9
$AUNITS
 70
     0
  9
$AUPREC
 70
     2
  9
$MENU
  1
.
  9
$ELEVATION
 40
0.0
  9
$PELEVATION
 40
0.0
  9
$THICKNESS
 40
0.0
  9
$LIMCHECK
 70
     0
  9
$CHAMFERA
 40
0.0
  9
$CHAMFERB
 40
0.0
  9
$CHAMFERC
 40
0.0
  9
$CHAMFERD
 40
0.0
  9
$SKPOLY
 70
     0
  9
$TDCREATE
 40
2458292.674790602
  9
$TDUCREATE
 40
2458292.299790602
  9
$TDUPDATE
 40
2458295.81089
  9
$TDUUPDATE
 40
2458295.43589
  9
$TDINDWG
 40
0.0011646528
  9
$TDUSRTIMER
 40
2458295.435641563
  9
$USRTIMER
 70
     1
  9
$ANGBASE
 50
0.0
  9
$ANGDIR
 70
     0
  9
$PDMODE
 70
     0
  9
$PDSIZE
 40
-1.0
  9
$PLINEWID
 40
0.0
  9
$SPLFRAME
 70
     0
  9
$SPLINETYPE
 70
     6
  9
$SPLINESEGS
 70
     8
  9
$HANDSEED
  5
1C3
  9
$SURFTAB1
 70
     6
  9
$SURFTAB2
 70
     6
  9
$SURFTYPE
 70
     6
  9
$SURFU
 70
     6
  9
$SURFV
 70
     6
  9
$UCSBASE
  2

  9
$UCSNAME
  2

  9
$UCSORG
 10
0.0
 20
0.0
 30
0.0
  9
$UCSXDIR
 10
1.0
 20
0.0
 30
0.0
  9
$UCSYDIR
 10
0.0
 20
1.0
 30
0.0
  9
$UCSORTHOREF
  2

  9
$UCSORTHOVIEW
 70
     0
  9
$UCSORGTOP
 10
0.0
 20
0.0
 30
0.0
  9
$UCSORGBOTTOM
 10
0.0
 20
0.0
 30
0.0
  9
$UCSORGLEFT
 10
0.0
 20
0.0
 30
0.0
  9
$UCSORGRIGHT
 10
0.0
 20
0.0
 30
0.0
  9
$UCSORGFRONT
 10
0.0
 20
0.0
 30
0.0
  9
$UCSORGBACK
 10
0.0
 20
0.0
 30
0.0
  9
$PUCSBASE
  2

  9
$PUCSNAME
  2

  9
$PUCSORG
 10
0.0
 20
0.0
 30
0.0
  9
$PUCSXDIR
 10
1.0
 20
0.0
 30
0.0
  9
$PUCSYDIR
 10
0.0
 20
1.0
 30
0.0
  9
$PUCSORTHOREF
  2

  9
$PUCSORTHOVIEW
 70
     0
  9
$PUCSORGTOP
 10
0.0
 20
0.0
 30
0.0
  9
$PUCSORGBOTTOM
 10
0.0
 20
0.0
 30
0.0
  9
$PUCSORGLEFT
 10
0.0
 20
0.0
 30
0.0
  9
$PUCSORGRIGHT
 10
0.0
 20
0.0
 30
0.0
  9
$PUCSORGFRONT
 10
0.0
 20
0.0
 30
0.0
  9
$PUCSORGBACK
 10
0.0
 20
0.0
 30
0.0
  9
$USERI1
 70
     0
  9
$USERI2
 70
     0
  9
$USERI3
 70
     0
  9
$USERI4
 70
     0
  9
$USERI5
 70
     0
  9
$USERR1
 40
0.0
  9
$USERR2
 40
0.0
  9
$USERR3
 40
0.0
  9
$USERR4
 40
0.0
  9
$USERR5
 40
0.0
  9
$WORLDVIEW
 70
     1
  9
$SHADEDGE
 70
     3
  9
$SHADEDIF
 70
    70
  9
$TILEMODE
 70
     1
  9
$MAXACTVP
 70
    64
  9
$PINSBASE
 10
0.0
 20
0.0
 30
0.0
  9
$PLIMCHECK
 70
     0
  9
$PEXTMIN
 10
1.000000000000000E+20
 20
1.000000000000000E+20
 30
1.000000000000000E+20
  9
$PEXTMAX
 10
-1.000000000000000E+20
 20
-1.000000000000000E+20
 30
-1.000000000000000E+20
  9
$PLIMMIN
 10
0.0
 20
0.0
  9
$PLIMMAX
 10
0.0
 20
0.0
  9
$UNITMODE
 70
     0
  9
$VISRETAIN
 70
     1
  9
$PLINEGEN
 70
     0
  9
$PSLTSCALE
 70
     1
  9
$TREEDEPTH
 70
  3020
  9
$CMLSTYLE
  2
Standard
  9
$CMLJUST
 70
     0
  9
$CMLSCALE
 40
20.0
  9
$PROXYGRAPHICS
 70
     1
  9
$MEASUREMENT
 70
     1
  9
$CELWEIGHT
370
    -1
  9
$ENDCAPS
280
     0
  9
$JOINSTYLE
280
     0
  9
$LWDISPLAY
290
     1
  9
$INSUNITS
 70
     4
  9
$HYPERLINKBASE
  1

  9
$STYLESHEET
  1

  9
$XEDIT
290
     1
  9
$CEPSNTYPE
380
     0
  9
$PSTYLEMODE
290
     1
  9
$FINGERPRINTGUID
  2
{B1DD5669-726C-4DE2-A6A4-59F99E0D6F0A}
  9
$VERSIONGUID
  2
{FAEB1C32-E019-11D5-929B-00C0DF256EC4}
  9
$EXTNAMES
290
     1
  9
$PSVPSCALE
 40
0.0
  9
$OLESTARTUP
290
     0
  0
ENDSEC
  0
SECTION
  2
CLASSES
  0
CLASS
  1
ACDBDICTIONARYWDFLT
  2
AcDbDictionaryWithDefault
  3
ObjectDBX Classes
 90
        0
280
     0
281
     0
  0
CLASS
  1
VISUALSTYLE
  2
AcDbVisualStyle
  3
ObjectDBX Classes
 90
     4095
280
     0
281
     0
  0
CLASS
  1
MATERIAL
  2
AcDbMaterial
  3
ObjectDBX Classes
 90
     1153
280
     0
281
     0
  0
CLASS
  1
SCALE
  2
AcDbScale
  3
ObjectDBX Classes
 90
     1153
280
     0
281
     0
  0
CLASS
  1
SUN
  2
AcDbSun
  3
SCENEOE
 90
     1153
280
     0
281
     0
  0
CLASS
  1
ACDBPLACEHOLDER
  2
AcDbPlaceHolder
  3
ObjectDBX Classes
 90
        0
280
     0
281
     0
  0
CLASS
  1
LAYOUT
  2
AcDbLayout
  3
ObjectDBX Classes
 90
        0
280
     0
281
     0
  0
CLASS
  1
TABLESTYLE
  2
AcDbTableStyle
  3
ObjectDBX Classes
 90
     4095
280
     0
281
     0
  0
CLASS
  1
MLEADERSTYLE
  2
AcDbMLeaderStyle
  3
ACDB_MLEADERSTYLE_CLASS
 90
     4095
280
     0
281
     0
  0
CLASS
  1
RASTERVARIABLES
  2
AcDbRasterVariables
  3
ISM
 90
        0
280
     0
281
     0
  0
ENDSEC
  0
SECTION
  2
TABLES
  0
TABLE
  2
VPORT
  5
8
330
0
100
AcDbSymbolTable
 70
     1
  0
VPORT
  5
29
330
8
100
AcDbSymbolTableRecord
100
AcDbViewportTableRecord
  2
*Active
 70
     0
 10
0.0
 20
0.0
 11
1.0
 21
1.0
 12
-39.44828984420612
 22
15.74277437553951
 13
0.0
 23
0.0
 14
10.0
 24
10.0
 15
10.0
 25
10.0
 16
0.0
 26
0.0
 36
1.0
 17
0.0
 27
0.0
 37
0.0
 40
153.6504253149005
 41
1.798434442270059
 42
50.0
 43
0.0
 44
0.0
 50
0.0
 51
0.0
 71
    16
 72
  2000
 73
     1
 74
     3
 75
     0
 76
     0
 77
     0
 78
     0
281
     0
 65
     1
110
0.0
120
0.0
130
0.0
111
1.0
121
0.0
131
0.0
112
0.0
122
1.0
132
0.0
 79
     0
146
0.0
  0
ENDTAB
  0
TABLE
  2
LTYPE
  5
5
330
0
100
AcDbSymbolTable
 70
     6
  0
LTYPE
  5
14
330
5
100
AcDbSymbolTableRecord
100
AcDbLinetypeTableRecord
  2
ByBlock
 70
     0
  3

 72
    65
 73
     0
 40
0.0
  0
LTYPE
  5
15
330
5
100
AcDbSymbolTableRecord
100
AcDbLinetypeTableRecord
  2
ByLayer
 70
     0
  3

 72
    65
 73
     0
 40
0.0
  0
LTYPE
  5
16
330
5
100
AcDbSymbolTableRecord
100
AcDbLinetypeTableRecord
  2
Continuous
 70
     0
  3
Solid line
 72
    65
 73
     0
 40
0.0
  0
LTYPE
  5
6A
330
5
100
AcDbSymbolTableRecord
100
AcDbLinetypeTableRecord
  2
HIDDEN
 70
     0
  3
Hidden __ __ __ __ __ __ __ __ __ __ __ __ __ __
 72
    65
 73
     2
 40
1.905
 49
1.27
 74
     0
 49
-0.635
 74
     0
  0
LTYPE
  5
6B
330
5
100
AcDbSymbolTableRecord
100
AcDbLinetypeTableRecord
  2
PHANTOM
 70
     0
  3
Phantom ______  __  __  ______  __  __  ______
 72
    65
 73
     6
 40
12.7
 49
6.35
 74
     0
 49
-1.27
 74
     0
 49
1.27
 74
     0
 49
-1.27
 74
     0
 49
1.27
 74
     0
 49
-1.27
 74
     0
  0
LTYPE
  5
6C
330
5
100
AcDbSymbolTableRecord
100
AcDbLinetypeTableRecord
  2
CENTER
 70
     0
  3
Center ____ _ ____ _ ____ _ ____ _ ____ _ ____
 72
    65
 73
     4
 40
10.16
 49
6.35
 74
     0
 49
-1.27
 74
     0
 49
1.27
 74
     0
 49
-1.27
 74
     0
  0
LTYPE
  5
6D
330
5
100
AcDbSymbolTableRecord
100
AcDbLinetypeTableRecord
  2
CENTERX2
 70
     0
  3
Center (2x) ________  __  ________  __  _____
 72
    65
 73
     4
 40
20.32
 49
12.7
 74
     0
 49
-2.54
 74
     0
 49
2.54
 74
     0
 49
-2.54
 74
     0
  0
LTYPE
  5
6E
330
5
100
AcDbSymbolTableRecord
100
AcDbLinetypeTableRecord
  2
DOT2
 70
     0
  3
Dot (.5x) ........................................
 72
    65
 73
     2
 40
0.635
 49
0.0
 74
     0
 49
-0.635
 74
     0
  0
ENDTAB
  0
TABLE
  2
LAYER
  5
2
102
{ACAD_XDICTIONARY
360
197
102
}
330
0
100
AcDbSymbolTable
 70
    18
  0
LAYER
  5
10
330
2
100
AcDbSymbolTableRecord
100
AcDbLayerTableRecord
  2
0
 70
     0
 62
     7
  6
Continuous
370
    -3
390
F
  0
LAYER
  5
6F
330
2
100
AcDbSymbolTableRecord
100
AcDbLayerTableRecord
  2
FORMAT
 70
     0
 62
     2
  6
Continuous
370
    -3
390
F
  0
LAYER
  5
70
330
2
100
AcDbSymbolTableRecord
100
AcDbLayerTableRecord
  2
외형선
 70
     0
 62
     4
  6
Continuous
370
    30
390
F
  0
LAYER
  5
71
330
2
100
AcDbSymbolTableRecord
100
AcDbLayerTableRecord
  2
숨은선
 70
     0
 62
     2
  6
HIDDEN
370
    15
390
F
  0
LAYER
  5
72
330
2
100
AcDbSymbolTableRecord
100
AcDbLayerTableRecord
  2
중심선
 70
     0
 62
     1
  6
CENTERX2
370
    -3
390
F
  0
LAYER
  5
73
330
2
100
AcDbSymbolTableRecord
100
AcDbLayerTableRecord
  2
파단선
 70
     0
 62
     4
  6
Continuous
370
    -3
390
F
  0
LAYER
  5
74
330
2
100
AcDbSymbolTableRecord
100
AcDbLayerTableRecord
  2
해칭선
 70
     0
 62
   100
  6
Continuous
370
    -3
390
F
  0
LAYER
  5
75
330
2
100
AcDbSymbolTableRecord
100
AcDbLayerTableRecord
  2
가는실선
 70
     0
 62
     4
  6
Continuous
370
    -3
390
F
  0
LAYER
  5
76
330
2
100
AcDbSymbolTableRecord
100
AcDbLayerTableRecord
  2
치수_보조선
 70
     0
 62
     4
  6
Continuous
370
    -3
390
F
  0
LAYER
  5
77
330
2
100
AcDbSymbolTableRecord
100
AcDbLayerTableRecord
  2
치수문자_일반주서
 70
     0
 62
     7
  6
Continuous
370
    15
390
F
  0
LAYER
  5
78
330
2
100
AcDbSymbolTableRecord
100
AcDbLayerTableRecord
  2
개별주서
 70
     0
 62
   100
  6
Continuous
370
    30
390
F
  0
LAYER
  5
79
330
2
100
AcDbSymbolTableRecord
100
AcDbLayerTableRecord
  2
중간선
 70
     0
 62
     2
  6
Continuous
370
    15
390
F
  0
LAYER
  5
7A
330
2
100
AcDbSymbolTableRecord
100
AcDbLayerTableRecord
  2
윤곽선
 70
     0
 62
     3
  6
Continuous
370
    40
390
F
  0
LAYER
  5
7B
330
2
100
AcDbSymbolTableRecord
100
AcDbLayerTableRecord
  2
중심마크
 70
     0
 62
   100
  6
Continuous
370
    30
390
F
  0
LAYER
  5
7C
330
2
100
AcDbSymbolTableRecord
100
AcDbLayerTableRecord
  2
가상선
 70
     0
 62
     4
  6
PHANTOM
370
    -3
390
F
  0
LAYER
  5
7D
330
2
100
AcDbSymbolTableRecord
100
AcDbLayerTableRecord
  2
특수지정선
 70
     0
 62
     5
  6
CENTERX2
370
    60
390
F
  0
LAYER
  5
7E
330
2
100
AcDbSymbolTableRecord
100
AcDbLayerTableRecord
  2
참조1
 70
     0
 62
    -4
  6
Continuous
370
    -3
390
F
  0
LAYER
  5
19E
330
2
100
AcDbSymbolTableRecord
100
AcDbLayerTableRecord
  2
Defpoints
 70
     0
 62
     7
  6
Continuous
290
     0
370
    -3
390
F
  0
ENDTAB
  0
TABLE
  2
STYLE
  5
3
330
0
100
AcDbSymbolTable
 70
     2
  0
STYLE
  5
11
330
3
100
AcDbSymbolTableRecord
100
AcDbTextStyleTableRecord
  2
Standard
 70
     0
 40
0.0
 41
1.0
 50
0.0
 71
     0
 42
3.5
  3
txt
  4

  0
STYLE
  5
94
330
3
100
AcDbSymbolTableRecord
100
AcDbTextStyleTableRecord
  2
SLDTEXTSTYLE0
 70
     0
 40
0.0
 41
0.75
 50
0.0
 71
     0
 42
3.5
  3
TXT
  4

  0
ENDTAB
  0
TABLE
  2
VIEW
  5
6
330
0
100
AcDbSymbolTable
 70
     0
  0
ENDTAB
  0
TABLE
  2
UCS
  5
7
330
0
100
AcDbSymbolTable
 70
     0
  0
ENDTAB
  0
TABLE
  2
APPID
  5
9
330
0
100
AcDbSymbolTable
 70
     1
  0
APPID
  5
12
330
9
100
AcDbSymbolTableRecord
100
AcDbRegAppTableRecord
  2
ACAD
 70
     0
  0
ENDTAB
  0
TABLE
  2
DIMSTYLE
  5
A
330
0
100
AcDbSymbolTable
 70
     3
100
AcDbDimStyleTable
  0
DIMSTYLE
105
27
330
A
100
AcDbSymbolTableRecord
100
AcDbDimStyleTableRecord
  2
ISO-25
 70
     0
 41
2.5
 42
0.625
 43
3.75
 44
1.25
 73
     0
 74
     0
 77
     1
 78
     8
140
2.5
141
2.5
143
0.03937007874016
147
0.625
171
     3
172
     1
178
     0
271
     2
272
     2
274
     3
278
    44
283
     0
284
     8
340
11
  0
DIMSTYLE
105
F0
102
{ACAD_REACTORS
330
EF
330
12B
330
104
330
118
102
}
330
A
100
AcDbSymbolTableRecord
100
AcDbDimStyleTableRecord
  2
SLDDIMSTYLE0
 70
     0
 41
3.302
 44
0.0
 45
0.000000001
 73
     0
 74
     0
 77
     1
 78
     4
 79
     1
140
3.5
143
0.0393700787401575
147
0.875
148
0.000000001
170
     1
172
     1
173
     1
178
     0
271
     2
272
     2
276
     2
284
    12
289
     0
340
94
  0
DIMSTYLE
105
105
330
A
100
AcDbSymbolTableRecord
100
AcDbDimStyleTableRecord
  2
SLDDIMSTYLE1
 70
     0
 41
3.302
 44
0.0
 45
0.000000001
 73
     0
 74
     0
 77
     1
 78
    12
 79
     3
140
3.5
143
0.0393700787401575
147
0.875
148
0.000000001
170
     1
173
     1
178
     0
271
     2
272
     2
276
     2
284
    12
340
94
  0
ENDTAB
  0
TABLE
  2
BLOCK_RECORD
  5
1
330
0
100
AcDbSymbolTable
 70
     7
  0
BLOCK_RECORD
  5
1F
330
1
100
AcDbSymbolTableRecord
100
AcDbBlockTableRecord
  2
*Model_Space
340
22
  0
BLOCK_RECORD
  5
1B
330
1
100
AcDbSymbolTableRecord
100
AcDbBlockTableRecord
  2
*Paper_Space
340
1E
  0
BLOCK_RECORD
  5
23
330
1
100
AcDbSymbolTableRecord
100
AcDbBlockTableRecord
  2
*Paper_Space0
340
26
  0
BLOCK_RECORD
  5
7F
330
1
100
AcDbSymbolTableRecord
100
AcDbBlockTableRecord
  2
블럭10
340
0
102
{BLKREFS
331
E8
102
}
  0
BLOCK_RECORD
  5
F1
330
1
100
AcDbSymbolTableRecord
100
AcDbBlockTableRecord
  2
_D
340
0
  0
BLOCK_RECORD
  5
106
330
1
100
AcDbSymbolTableRecord
100
AcDbBlockTableRecord
  2
_D_1
340
0
  0
BLOCK_RECORD
  5
119
330
1
100
AcDbSymbolTableRecord
100
AcDbBlockTableRecord
  2
_D_2
340
0
  0
BLOCK_RECORD
  5
12C
330
1
100
AcDbSymbolTableRecord
100
AcDbBlockTableRecord
  2
_D_3
340
0
  0
BLOCK_RECORD
  5
146
330
1
100
AcDbSymbolTableRecord
100
AcDbBlockTableRecord
  2
SW_DOWELSYMBOL_0
340
0
102
{BLKREFS
331
14C
102
}
  0
ENDTAB
  0
ENDSEC
  0
SECTION
  2
BLOCKS
  0
BLOCK
  5
20
330
1F
100
AcDbEntity
  8
0
100
AcDbBlockBegin
  2
*Model_Space
 70
     0
 10
0.0
 20
0.0
 30
0.0
  3
*Model_Space
  1
*Model_Space
  0
ENDBLK
  5
21
330
1F
100
AcDbEntity
  8
0
100
AcDbBlockEnd
  0
BLOCK
  5
1C
330
1B
100
AcDbEntity
 67
     1
  8
0
100
AcDbBlockBegin
  2
*Paper_Space
 70
     0
 10
0.0
 20
0.0
 30
0.0
  3
*Paper_Space
  1
*Paper_Space
  0
ENDBLK
  5
1D
330
1B
100
AcDbEntity
 67
     1
  8
0
100
AcDbBlockEnd
  0
BLOCK
  5
24
330
23
100
AcDbEntity
  8
0
100
AcDbBlockBegin
  2
*Paper_Space0
 70
     0
 10
0.0
 20
0.0
 30
0.0
  3
*Paper_Space0
  1
*Paper_Space0
  0
ENDBLK
  5
25
330
23
100
AcDbEntity
  8
0
100
AcDbBlockEnd
  0
BLOCK
  5
80
330
7F
100
AcDbEntity
  8
0
100
AcDbBlockBegin
  2
블럭10
 70
     2
 10
0.0
 20
0.0
 30
0.0
  3
블럭10
  1
블럭10
  0
ELLIPSE
  5
82
330
7F
100
AcDbEntity
  8
중심선
100
AcDbEllipse
 10
20.54032771741204
 20
12.0471743016438
 30
0.0
 11
6.600054785286829
 21
-1.261213355974178E-13
 31
0.0
210
0.0
220
0.0
230
1.0
 40
0.636358354079598
 41
0.9219305317359503
 42
6.513795318482858
  0
ELLIPSE
  5
83
330
7F
100
AcDbEntity
  8
중심선
100
AcDbEllipse
 10
20.54032771746488
 20
12.04717430159265
 30
0.0
 11
3.960054785062283
 21
1.540847449632565E-10
 31
0.0
210
0.0
220
0.0
230
1.0
 40
0.3939339440162632
 41
1.131841032648279
 42
5.62031148352944
  0
LINE
  5
84
330
7F
100
AcDbEntity
  8
중심선
100
AcDbLine
 10
2.268634060543552
 20
16.24717430164393
 30
0.0
 11
5.714909304380834
 21
16.24717430164393
 31
0.0
  0
LINE
  5
85
330
7F
100
AcDbEntity
  8
중심선
100
AcDbLine
 10
5.245725140726316
 20
7.84717430164391
 30
0.0
 11
8.692000384563599
 21
7.84717430164391
 31
0.0
  0
LINE
  5
86
330
7F
100
AcDbEntity
  8
중심선
100
AcDbLine
 10
15.74043728645272
 20
16.24717430164393
 30
0.0
 11
8.692000384563599
 21
7.84717430164391
 31
0.0
  0
LINE
  5
87
330
7F
100
AcDbEntity
  8
중심선
100
AcDbLine
 10
0.1404042013395286
 20
13.71084872107135
 30
0.0
 11
3.58671253028996
 21
13.71088815037384
 31
0.0
  0
LINE
  5
88
330
7F
100
AcDbEntity
  8
중심선
100
AcDbLine
 10
2.750260043222114
 20
10.84717430164391
 30
0.0
 11
6.196535287059397
 21
10.84717430164391
 31
0.0
  0
LINE
  5
89
330
7F
100
AcDbEntity
  8
중심선
100
AcDbLine
 10
12.29416204261559
 20
16.24717430164393
 30
0.0
 11
5.245725140726316
 21
7.84717430164391
 31
0.0
  0
LINE
  5
8A
330
7F
100
AcDbEntity
  8
중심선
100
AcDbLine
 10
10.72767329541681
 20
16.24717430164393
 30
0.0
 11
6.196535287059397
 21
10.84717430164391
 31
0.0
  0
LINE
  5
8B
330
7F
100
AcDbEntity
  8
중심선
100
AcDbLine
 10
7.28139805157953
 20
16.24717430164393
 30
0.0
 11
2.750260043222114
 21
10.84717430164391
 31
0.0
  0
LINE
  5
8C
330
7F
100
AcDbEntity
  8
중심선
100
AcDbLine
 10
5.714909304380834
 20
16.24717430164393
 30
0.0
 11
3.58671253028996
 21
13.71088815037384
 31
0.0
  0
LINE
  5
8D
330
7F
100
AcDbEntity
  8
중심선
100
AcDbLine
 10
2.268634060543552
 20
16.24717430164393
 30
0.0
 11
0.1404042013395286
 21
13.71084872107135
 31
0.0
  0
LINE
  5
8E
330
7F
100
AcDbEntity
  8
중심선
100
AcDbLine
 10
7.28139805157953
 20
16.24717430164393
 30
0.0
 11
10.72767329541681
 21
16.24717430164393
 31
0.0
  0
LINE
  5
8F
330
7F
100
AcDbEntity
  8
중심선
100
AcDbLine
 10
12.29416204261559
 20
16.24717430164393
 30
0.0
 11
15.74043728645272
 21
16.24717430164393
 31
0.0
  0
LINE
  5
90
330
7F
100
AcDbEntity
  8
중심선
100
AcDbLine
 10
19.22036997980202
 20
11.08717430171403
 30
0.0
 11
23.66174974927406
 21
11.08717430171406
 31
0.0
  0
LINE
  5
91
330
7F
100
AcDbEntity
  8
중심선
100
AcDbLine
 10
19.22039502424796
 20
13.00717430171391
 30
0.0
 11
19.22036997980202
 21
11.08717430171403
 31
0.0
  0
LINE
  5
92
330
7F
100
AcDbEntity
  8
중심선
100
AcDbLine
 10
19.22039502424796
 20
13.00717430171391
 30
0.0
 11
26.96566020931264
 21
13.00717430171391
 31
0.0
  0
LINE
  5
93
330
7F
100
AcDbEntity
  8
중심선
100
AcDbLine
 10
22.22332737316547
 20
13.45928029700563
 30
0.0
 11
24.52862924686651
 21
15.39360700705356
 31
0.0
  0
ATTDEF
  5
95
330
7F
100
AcDbEntity
  8
FORMAT
 62
     2
100
AcDbText
 10
3.448148490846466
 20
2.075366912832191
 30
0.0
 40
4.233333333333333
  1
EM208064
 41
0.75
  7
SLDTEXTSTYLE0
 11
3.448148490846466
 21
-0.0412997538344756
 31
0.0
100
AcDbAttributeDefinition
  3

  2
AUTOATTR0
 70
     0
 74
     1
  0
ENDBLK
  5
81
330
7F
100
AcDbEntity
  8
0
100
AcDbBlockEnd
  0
BLOCK
  5
F2
330
F1
100
AcDbEntity
  8
0
100
AcDbBlockBegin
  2
_D
 70
     0
 10
0.0
 20
0.0
 30
0.0
  3
_D
  1
_D
  0
LINE
  5
F4
330
F1
100
AcDbEntity
  8
치수문자_일반주서
 62
     0
370
    -2
100
AcDbLine
 10
56.51249999703744
 20
-12.69903393036071
 30
0.0
 11
82.88381559945827
 21
-12.69903393036061
 31
0.0
  0
LINE
  5
F5
330
F1
100
AcDbEntity
  8
치수문자_일반주서
 62
     0
370
    -2
100
AcDbLine
 10
56.51249999703744
 20
12.70096606963929
 30
0.0
 11
82.88381559945819
 21
12.70096606963939
 31
0.0
  0
LINE
  5
F6
330
F1
100
AcDbEntity
  8
치수문자_일반주서
 62
     0
370
    -2
100
AcDbLine
 10
82.88381559945826
 20
-9.39703393036061
 30
0.0
 11
82.8838155994582
 21
9.39896606963939
 31
0.0
  0
SOLID
  5
F7
330
F1
100
AcDbEntity
  8
치수문자_일반주서
 62
     0
100
AcDbTrace
 10
82.33348226612493
 20
-9.397033930360612
 30
0.0
 11
83.43414893279159
 21
-9.397033930360609
 31
0.0
 12
82.88381559945827
 22
-12.69903393036061
 32
0.0
 13
82.88381559945827
 23
-12.69903393036061
 33
0.0
  0
SOLID
  5
F8
330
F1
100
AcDbEntity
  8
치수문자_일반주서
 62
     0
100
AcDbTrace
 10
83.43414893279153
 20
9.398966069639393
 30
0.0
 11
82.33348226612488
 21
9.398966069639389
 31
0.0
 12
82.88381559945819
 22
12.70096606963939
 32
0.0
 13
82.88381559945819
 23
12.70096606963939
 33
0.0
  0
MTEXT
  5
F9
330
F1
100
AcDbEntity
  8
치수문자_일반주서
 62
     0
100
AcDbMText
 10
78.50881559945823
 20
0.0009660696393721
 30
0.0
 40
3.5
 41
0.0
 71
     2
 72
     1
  1
\A1;%%c25.40 [1]
  7
SLDTEXTSTYLE0
 11
-3.356894814614647E-15
 21
1.0
 31
0.0
 73
     1
 44
1.0
  0
POINT
  5
FA
330
F1
100
AcDbEntity
  8
Defpoints
 62
     0
100
AcDbPoint
 10
56.44999999703744
 20
-12.69903393036071
 30
0.0
  0
POINT
  5
FB
330
F1
100
AcDbEntity
  8
Defpoints
 62
     0
100
AcDbPoint
 10
56.44999999703744
 20
12.70096606963929
 30
0.0
  0
POINT
  5
FC
330
F1
100
AcDbEntity
  8
Defpoints
 62
     0
100
AcDbPoint
 10
82.88381559945819
 20
12.70096606963939
 30
0.0
  0
ENDBLK
  5
F3
330
F1
100
AcDbEntity
  8
0
100
AcDbBlockEnd
  0
BLOCK
  5
107
330
106
100
AcDbEntity
  8
0
100
AcDbBlockBegin
  2
_D_1
 70
     0
 10
0.0
 20
0.0
 30
0.0
  3
_D_1
  1
_D_1
  0
LINE
  5
109
330
106
100
AcDbEntity
  8
치수문자_일반주서
 62
     0
370
    -2
100
AcDbLine
 10
56.44999999703744
 20
12.7634660696393
 30
0.0
 11
56.44999999703744
 21
41.74548275125988
 31
0.0
  0
LINE
  5
10A
330
106
100
AcDbEntity
  8
치수문자_일반주서
 62
     0
370
    -2
100
AcDbLine
 10
11.99999999703743
 20
12.75565066545729
 30
0.0
 11
11.99999999703743
 21
41.74548275125988
 31
0.0
  0
LINE
  5
10B
330
106
100
AcDbEntity
  8
치수문자_일반주서
 62
     0
370
    -2
100
AcDbLine
 10
53.14799999703745
 20
41.74548275125988
 30
0.0
 11
15.30199999703743
 21
41.74548275125988
 31
0.0
  0
SOLID
  5
10C
330
106
100
AcDbEntity
  8
치수문자_일반주서
 62
     0
100
AcDbTrace
 10
53.14799999703745
 20
41.19514941792654
 30
0.0
 11
53.14799999703745
 21
42.29581608459321
 31
0.0
 12
56.44999999703744
 22
41.74548275125988
 32
0.0
 13
56.44999999703744
 23
41.74548275125988
 33
0.0
  0
SOLID
  5
10D
330
106
100
AcDbEntity
  8
치수문자_일반주서
 62
     0
100
AcDbTrace
 10
15.30199999703743
 20
42.29581608459321
 30
0.0
 11
15.30199999703743
 21
41.19514941792654
 31
0.0
 12
11.99999999703743
 22
41.74548275125988
 32
0.0
 13
11.99999999703743
 23
41.74548275125988
 33
0.0
  0
MTEXT
  5
10E
330
106
100
AcDbEntity
  8
치수문자_일반주서
 62
     0
100
AcDbMText
 10
34.22499999703744
 20
46.12048275125988
 30
0.0
 40
3.5
 41
0.0
 71
     2
 72
     1
  1
\A1;44.45 [1 3/4]
  7
SLDTEXTSTYLE0
 73
     1
 44
1.0
  0
POINT
  5
10F
330
106
100
AcDbEntity
  8
Defpoints
 62
     0
100
AcDbPoint
 10
56.44999999703744
 20
12.7009660696393
 30
0.0
  0
POINT
  5
110
330
106
100
AcDbEntity
  8
Defpoints
 62
     0
100
AcDbPoint
 10
11.99999999703743
 20
12.69315066545729
 30
0.0
  0
POINT
  5
111
330
106
100
AcDbEntity
  8
Defpoints
 62
     0
100
AcDbPoint
 10
11.99999999703743
 20
41.74548275125988
 30
0.0
  0
ENDBLK
  5
108
330
106
100
AcDbEntity
  8
0
100
AcDbBlockEnd
  0
BLOCK
  5
11A
330
119
100
AcDbEntity
  8
0
100
AcDbBlockBegin
  2
_D_2
 70
     0
 10
0.0
 20
0.0
 30
0.0
  3
_D_2
  1
_D_2
  0
LINE
  5
11C
330
119
100
AcDbEntity
  8
치수문자_일반주서
 62
     0
370
    -2
100
AcDbLine
 10
56.44999999703744
 20
12.7634660696393
 30
0.0
 11
56.44999999703745
 21
57.37277559439124
 31
0.0
  0
LINE
  5
11D
330
119
100
AcDbEntity
  8
치수문자_일반주서
 62
     0
370
    -2
100
AcDbLine
 10
-51.50000000296257
 20
10.2234660696393
 30
0.0
 11
-51.50000000296256
 21
57.37277559439124
 31
0.0
  0
LINE
  5
11E
330
119
100
AcDbEntity
  8
치수문자_일반주서
 62
     0
370
    -2
100
AcDbLine
 10
53.14799999703745
 20
57.37277559439124
 30
0.0
 11
-48.19800000296256
 21
57.37277559439124
 31
0.0
  0
SOLID
  5
11F
330
119
100
AcDbEntity
  8
치수문자_일반주서
 62
     0
100
AcDbTrace
 10
53.14799999703745
 20
56.8224422610579
 30
0.0
 11
53.14799999703745
 21
57.92310892772457
 31
0.0
 12
56.44999999703745
 22
57.37277559439124
 32
0.0
 13
56.44999999703745
 23
57.37277559439124
 33
0.0
  0
SOLID
  5
120
330
119
100
AcDbEntity
  8
치수문자_일반주서
 62
     0
100
AcDbTrace
 10
-48.19800000296256
 20
57.92310892772457
 30
0.0
 11
-48.19800000296256
 21
56.8224422610579
 31
0.0
 12
-51.50000000296256
 22
57.37277559439124
 32
0.0
 13
-51.50000000296256
 23
57.37277559439124
 33
0.0
  0
MTEXT
  5
121
330
119
100
AcDbEntity
  8
치수문자_일반주서
 62
     0
100
AcDbMText
 10
2.47499999703744
 20
61.74777559439124
 30
0.0
 40
3.5
 41
0.0
 71
     2
 72
     1
  1
\A1;107.95 [4 1/4]
  7
SLDTEXTSTYLE0
 73
     1
 44
1.0
  0
POINT
  5
122
330
119
100
AcDbEntity
  8
Defpoints
 62
     0
100
AcDbPoint
 10
56.44999999703744
 20
12.7009660696393
 30
0.0
  0
POINT
  5
123
330
119
100
AcDbEntity
  8
Defpoints
 62
     0
100
AcDbPoint
 10
-51.50000000296257
 20
10.1609660696393
 30
0.0
  0
POINT
  5
124
330
119
100
AcDbEntity
  8
Defpoints
 62
     0
100
AcDbPoint
 10
-51.50000000296257
 20
57.37277559439124
 30
0.0
  0
ENDBLK
  5
11B
330
119
100
AcDbEntity
  8
0
100
AcDbBlockEnd
  0
BLOCK
  5
12D
330
12C
100
AcDbEntity
  8
0
100
AcDbBlockBegin
  2
_D_3
 70
     0
 10
0.0
 20
0.0
 30
0.0
  3
_D_3
  1
_D_3
  0
LINE
  5
12F
330
12C
100
AcDbEntity
  8
치수문자_일반주서
 62
     0
370
    -2
100
AcDbLine
 10
-49.02250000296257
 20
12.70096606963928
 30
0.0
 11
-63.86500000296264
 21
12.70096606963922
 31
0.0
  0
LINE
  5
130
330
12C
100
AcDbEntity
  8
치수문자_일반주서
 62
     0
370
    -2
100
AcDbLine
 10
-49.02250000296257
 20
-12.6990339303607
 30
0.0
 11
-63.86500000296255
 21
-12.69903393036076
 31
0.0
  0
LINE
  5
131
330
12C
100
AcDbEntity
  8
치수문자_일반주서
 62
     0
370
    -2
100
AcDbLine
 10
-63.86500000296262
 20
9.398966069639222
 30
0.0
 11
-63.86500000296257
 21
-9.39703393036076
 31
0.0
  0
SOLID
  5
132
330
12C
100
AcDbEntity
  8
치수문자_일반주서
 62
     0
100
AcDbTrace
 10
-63.31466666962929
 20
9.398966069639224
 30
0.0
 11
-64.41533333629596
 21
9.39896606963922
 31
0.0
 12
-63.86500000296264
 22
12.70096606963922
 32
0.0
 13
-63.86500000296264
 23
12.70096606963922
 33
0.0
  0
SOLID
  5
133
330
12C
100
AcDbEntity
  8
치수문자_일반주서
 62
     0
100
AcDbTrace
 10
-64.4153333362959
 20
-9.397033930360761
 30
0.0
 11
-63.31466666962923
 21
-9.397033930360758
 31
0.0
 12
-63.86500000296255
 22
-12.69903393036076
 32
0.0
 13
-63.86500000296255
 23
-12.69903393036076
 33
0.0
  0
MTEXT
  5
134
330
12C
100
AcDbEntity
  8
치수문자_일반주서
 62
     0
100
AcDbMText
 10
-68.2400000029626
 20
0.0009660696392627
 30
0.0
 40
3.5
 41
0.0
 71
     2
 72
     1
  1
\A1;%%c25.40 [1]
  7
SLDTEXTSTYLE0
 11
-3.356894814614650E-15
 21
1.0
 31
0.0
 73
     1
 44
1.0
  0
POINT
  5
135
330
12C
100
AcDbEntity
  8
Defpoints
 62
     0
100
AcDbPoint
 10
-48.96000000296257
 20
12.70096606963928
 30
0.0
  0
POINT
  5
136
330
12C
100
AcDbEntity
  8
Defpoints
 62
     0
100
AcDbPoint
 10
-48.96000000296257
 20
-12.6990339303607
 30
0.0
  0
POINT
  5
137
330
12C
100
AcDbEntity
  8
Defpoints
 62
     0
100
AcDbPoint
 10
-63.86500000296255
 20
-12.69903393036076
 30
0.0
  0
ENDBLK
  5
12E
330
12C
100
AcDbEntity
  8
0
100
AcDbBlockEnd
  0
BLOCK
  5
147
330
146
100
AcDbEntity
  8
0
100
AcDbBlockBegin
  2
SW_DOWELSYMBOL_0
 70
     0
 10
0.0
 20
0.0
 30
0.0
  3
SW_DOWELSYMBOL_0
  1
SW_DOWELSYMBOL_0
  0
CIRCLE
  5
149
330
146
100
AcDbEntity
  8
해칭선
 62
     0
100
AcDbCircle
 10
0.0
 20
0.0
 30
0.0
 40
3.000000000000001
  0
HATCH
  5
14A
330
146
100
AcDbEntity
  8
0
  6
Continuous
 62
     0
370
     0
100
AcDbHatch
 10
0.0
 20
0.0
 30
0.0
210
0.0
220
0.0
230
1.0
  2
SOLID
 70
     1
 71
     0
 91
        1
 92
        0
 93
        3
 72
     2
 10
0.0
 20
0.0
 40
3.000000000000001
 50
0.0
 51
90.0
 73
     1
 72
     1
 10
0.0
 20
3.000000000000001
 11
0.0
 21
0.0
 72
     1
 10
0.0
 20
0.0
 11
3.000000000000001
 21
0.0
 97
        0
 75
     0
 76
     1
 98
        1
 10
0.0
 20
0.0
  0
HATCH
  5
14B
330
146
100
AcDbEntity
  8
0
  6
Continuous
 62
     0
370
     0
100
AcDbHatch
 10
0.0
 20
0.0
 30
0.0
210
0.0
220
0.0
230
1.0
  2
SOLID
 70
     1
 71
     0
 91
        1
 92
        0
 93
        3
 72
     2
 10
0.0
 20
0.0
 40
3.000000000000001
 50
180.0
 51
270.0000000000007
 73
     1
 72
     1
 10
0.0
 20
-3.000000000000001
 11
0.0
 21
0.0
 72
     1
 10
0.0
 20
0.0
 11
-3.000000000000001
 21
0.0
 97
        0
 75
     0
 76
     1
 98
        1
 10
0.0
 20
0.0
  0
ENDBLK
  5
148
330
146
100
AcDbEntity
  8
0
100
AcDbBlockEnd
  0
ENDSEC
  0
SECTION
  2
ENTITIES
  0
LINE
  5
96
330
1F
100
AcDbEntity
  8
0
  6
Continuous
 62
     1
370
    15
100
AcDbLine
 10
28.50565395298289
 20
-1.192676940146154
 30
0.0
 11
28.57983105490361
 21
-1.269054525714669
 31
0.0
  0
LINE
  5
97
330
1F
100
AcDbEntity
  8
0
  6
Continuous
 62
     1
370
    15
100
AcDbLine
 10
31.17988339759636
 20
1.21445493928829
 30
0.0
 11
31.12404499540929
 21
1.270956797475155
 31
0.0
  0
LINE
  5
98
330
1F
100
AcDbEntity
  8
0
  6
Continuous
 62
     1
370
    15
100
AcDbLine
 10
38.43050837624704
 20
-1.146675995776118
 30
0.0
 11
38.55448278167534
 21
-1.269149139449223
 31
0.0
  0
LINE
  5
99
330
1F
100
AcDbEntity
  8
0
  6
Continuous
 62
     1
370
    15
100
AcDbLine
 10
48.43001524496908
 20
-1.171400644376898
 30
0.0
 11
48.52895753495105
 21
-1.269067594981425
 31
0.0
  0
LINE
  5
9A
330
1F
100
AcDbEntity
  8
0
  6
Continuous
 62
     1
370
    15
100
AcDbLine
 10
12.38763336364741
 20
0.0008402506182884
 30
0.0
 11
12.41778792509326
 21
0.0295488787672874
 31
0.0
  0
LINE
  5
9B
330
1F
100
AcDbEntity
  8
0
  6
Continuous
 62
     1
370
    15
100
AcDbLine
 10
51.16985891505927
 20
1.173025056274165
 30
0.0
 11
51.07326317266104
 21
1.270852426076315
 31
0.0
  0
SPLINE
  5
9C
330
1F
100
AcDbEntity
  8
0
  6
Continuous
 62
     1
370
    15
100
AcDbSpline
210
0.0
220
0.0
230
1.0
 70
     8
 71
     3
 72
     9
 73
     5
 74
     0
 42
0.000000001
 43
0.00000001
 40
0.0
 40
0.0
 40
0.0
 40
0.0
 40
0.187130677765419
 40
1.0
 40
1.0
 40
1.0
 40
1.0
 10
13.56929429649124
 20
-1.119495500236849
 30
0.0
 10
13.47125996900931
 20
-1.02807798335173
 30
0.0
 10
12.94737832302475
 20
-0.539555641762621
 30
0.0
 10
12.4247933168316
 20
-0.0377579764989082
 30
0.0
 10
11.99999999703742
 20
0.3701379515629013
 30
0.0
  0
LINE
  5
9D
330
1F
100
AcDbEntity
  8
0
  6
Continuous
 62
     1
370
    15
100
AcDbLine
 10
27.30764718606044
 20
12.70096606963929
 30
0.0
 11
22.42017706999919
 21
12.70096606963929
 31
0.0
  0
LINE
  5
9E
330
1F
100
AcDbEntity
  8
0
  6
Continuous
 62
     1
370
    15
100
AcDbLine
 10
52.34493041639353
 20
-12.69903393036071
 30
0.0
 11
56.44999999703744
 21
-12.69903393036071
 31
0.0
  0
LINE
  5
9F
330
1F
100
AcDbEntity
  8
0
  6
Continuous
 62
     1
370
    15
100
AcDbLine
 10
17.33154602748818
 20
12.70096606963929
 30
0.0
 11
12.44569039517274
 21
12.70096606963929
 31
0.0
  0
LINE
  5
A0
330
1F
100
AcDbEntity
  8
0
  6
Continuous
 62
     1
370
    15
100
AcDbLine
 10
42.3706706273131
 20
-12.69903393036071
 30
0.0
 11
47.25511381162326
 21
-12.69903393036071
 31
0.0
  0
LINE
  5
A1
330
1F
100
AcDbEntity
  8
0
  6
Continuous
 62
     1
370
    15
100
AcDbLine
 10
32.39485778752429
 20
-12.69903393036071
 30
0.0
 11
37.28151426356406
 21
-12.69903393036071
 31
0.0
  0
LINE
  5
A2
330
1F
100
AcDbEntity
  8
0
  6
Continuous
 62
     1
370
    15
100
AcDbLine
 10
37.28151426356414
 20
12.70096606963929
 30
0.0
 11
32.39485778752439
 21
12.70096606963929
 31
0.0
  0
LINE
  5
A3
330
1F
100
AcDbEntity
  8
0
  6
Continuous
 62
     1
370
    15
100
AcDbLine
 10
22.42017706999912
 20
-12.69903393036071
 30
0.0
 11
27.30764718606034
 21
-12.69903393036071
 31
0.0
  0
LINE
  5
A4
330
1F
100
AcDbEntity
  8
0
  6
Continuous
 62
     1
370
    15
100
AcDbLine
 10
47.25511381162326
 20
12.70096606963929
 30
0.0
 11
42.37067062731317
 21
12.70096606963929
 31
0.0
  0
LINE
  5
A5
330
1F
100
AcDbEntity
  8
0
  6
Continuous
 62
     1
370
    15
100
AcDbLine
 10
12.44569039517275
 20
-12.69903393036071
 30
0.0
 11
17.33154602748811
 21
-12.69903393036071
 31
0.0
  0
LINE
  5
A6
330
1F
100
AcDbEntity
  8
0
  6
Continuous
 62
     1
370
    15
100
AcDbLine
 10
56.44999999703744
 20
12.70096606963929
 30
0.0
 11
52.34493041639351
 21
12.70096606963929
 31
0.0
  0
LINE
  5
A7
330
1F
100
AcDbEntity
  8
외형선
  6
Continuous
370
    15
100
AcDbLine
 10
-48.96000000296256
 20
-12.69903393036071
 30
0.0
 11
11.00035080187678
 21
-12.69903393036071
 31
0.0
  0
LINE
  5
A8
330
1F
100
AcDbEntity
  8
외형선
  6
Continuous
370
    15
100
AcDbLine
 10
11.00035080187678
 20
12.70096606963929
 30
0.0
 11
-48.96000000296256
 21
12.70096606963929
 31
0.0
  0
LINE
  5
A9
330
1F
100
AcDbEntity
  8
외형선
  6
Continuous
370
    15
100
AcDbLine
 10
-48.96000000296256
 20
12.7009660696393
 30
0.0
 11
-51.50000000296257
 21
10.1609660696393
 31
0.0
  0
LINE
  5
AA
330
1F
100
AcDbEntity
  8
외형선
  6
Continuous
370
    15
100
AcDbLine
 10
-51.50000000296257
 20
-10.15903393036072
 30
0.0
 11
-48.96000000296256
 21
-12.69903393036071
 31
0.0
  0
SPLINE
  5
AB
330
1F
100
AcDbEntity
  8
0
  6
Continuous
 62
     1
370
    15
100
AcDbSpline
210
0.0
220
0.0
230
1.0
 70
     8
 71
     3
 72
    23
 73
    19
 74
     0
 42
0.000000001
 43
0.00000001
 40
0.0
 40
0.0
 40
0.0
 40
0.0
 40
0.0621117366434445
 40
0.1241563138103391
 40
0.1861812267635407
 40
0.2482818334412723
 40
0.3103472112134071
 40
0.3723675881896345
 40
0.440426564664704
 40
0.5085281559448164
 40
0.5765738111344448
 40
0.6445977605906957
 40
0.7126482057631685
 40
0.7807509823861952
 40
0.8488044195192682
 40
0.9168285872325911
 40
0.9848716849010727
 40
1.0
 40
1.0
 40
1.0
 40
1.0
 10
11.99999999703743
 20
5.177351095390827
 30
0.0
 10
12.57638263298391
 20
4.642356724381023
 30
0.0
 10
13.72852468037508
 20
3.572946455027871
 30
0.0
 10
15.45499106086561
 20
1.87657808510406
 30
0.0
 10
17.18076271539879
 20
0.1519370814045265
 30
0.0
 10
18.9087021550773
 20
-1.575551539915897
 30
0.0
 10
20.63561109884856
 20
-3.274425704743783
 30
0.0
 10
22.41679436653646
 20
-4.966224438919937
 30
0.0
 10
24.25512314868691
 20
-6.609195599146389
 30
0.0
 10
26.15024731722412
 20
-8.154566162267049
 30
0.0
 10
28.04369926195913
 20
-9.519788088793828
 30
0.0
 10
29.93649428613763
 20
-10.67333950620048
 30
0.0
 10
31.83008117247616
 20
-11.59051025715517
 30
0.0
 10
33.72529149721029
 20
-12.24837113852163
 30
0.0
 10
35.61896210675839
 20
-12.64090221243145
 30
0.0
 10
37.51179726152693
 20
-12.72967289356396
 30
0.0
 10
38.91383416864623
 20
-12.64994425616128
 30
0.0
 10
39.68557056788111
 20
-12.45634386960999
 30
0.0
 10
39.82594417742393
 20
-12.4211292741911
 30
0.0
  0
SPLINE
  5
AC
330
1F
100
AcDbEntity
  8
외형선
  6
Continuous
370
    15
100
AcDbSpline
210
0.0
220
0.0
230
1.0
 70
    24
 71
     3
 72
    18
 73
    14
 74
     0
 42
0.000000001
 43
0.00000001
 40
0.0
 40
0.0
 40
0.0
 40
0.0
 40
0.1480294011898138
 40
0.2380388938269853
 40
0.3306586678483124
 40
0.4206681604854572
 40
0.5132879345067551
 40
0.6032974271439016
 40
0.6959172011651995
 40
0.7859266938023677
 40
0.8785464678236444
 40
0.9685559604607901
 40
1.0
 40
1.0
 40
1.0
 40
1.0
 10
11.9999999970374
 20
9.290696012778945
 30
0.0
 10
11.99999999703742
 20
9.1241434477489
 30
0.0
 10
11.99999999703746
 20
8.856318353374823
 30
0.0
 10
11.99999999703751
 20
8.394941751203378
 30
0.0
 10
11.9999999970374
 20
7.990266009111683
 30
0.0
 10
11.99999999703743
 20
7.56329809186056
 30
0.0
 10
11.99999999703742
 20
7.135397897792057
 30
0.0
 10
11.99999999703752
 20
6.710452179472459
 30
0.0
 10
11.99999999703748
 20
6.308637264815959
 30
0.0
 10
11.99999999703736
 20
5.932613847050821
 30
0.0
 10
11.99999999703753
 20
5.605204473876353
 30
0.0
 10
11.99999999703736
 20
5.375279471839066
 30
0.0
 10
11.9999999970374
 20
5.27977196432979
 30
0.0
 10
11.9999999970374
 20
5.25504529077325
 30
0.0
  0
SPLINE
  5
AD
330
1F
100
AcDbEntity
  8
0
  6
Continuous
 62
     1
370
    15
100
AcDbSpline
210
0.0
220
0.0
230
1.0
 70
     8
 71
     3
 72
    24
 73
    20
 74
     0
 42
0.000000001
 43
0.00000001
 40
0.0
 40
0.0
 40
0.0
 40
0.0
 40
0.0352370902177008
 40
0.0976324535616621
 40
0.1599754816296676
 40
0.2223011655324866
 40
0.284653666913045
 40
0.3470513745424724
 40
0.4094011346033368
 40
0.4717266185327971
 40
0.5340719898746714
 40
0.59646861145909
 40
0.6588261881428806
 40
0.715651027621174
 40
0.7725170981130225
 40
0.829415446333629
 40
0.8862444418034847
 40
0.9430914541871521
 40
1.0
 40
1.0
 40
1.0
 40
1.0
 10
42.37067062731311
 20
-12.66434600376116
 30
0.0
 10
42.01395545521779
 20
-12.66915642981689
 30
0.0
 10
41.02559412177148
 20
-12.68248482031667
 30
0.0
 10
39.40511187081646
 20
-12.39244840582029
 30
0.0
 10
37.51177874672238
 20
-11.8271894221776
 30
0.0
 10
35.61896706946771
 20
-10.98627739599351
 30
0.0
 10
33.72529016610584
 20
-9.904872859689656
 30
0.0
 10
31.83008152895293
 20
-8.60336404388368
 30
0.0
 10
29.93649419069347
 20
-7.110402158477355
 30
0.0
 10
28.04369928753794
 20
-5.459716865246587
 30
0.0
 10
26.15024731036143
 20
-3.687561792603811
 30
0.0
 10
24.25512315053076
 20
-1.83454407778378
 30
0.0
 10
22.4167943660911
 20
0.0042975863397249
 30
0.0
 10
20.63561109896321
 20
1.786695888825604
 30
0.0
 10
18.90870215504649
 20
3.479772316712872
 30
0.0
 10
17.18076271540701
 20
5.108631490161705
 30
0.0
 10
15.45499106086341
 20
6.641551752485877
 30
0.0
 10
13.72852468037562
 20
8.06368321154536
 30
0.0
 10
12.57638263298406
 20
8.881544278046718
 30
0.0
 10
11.99999999703741
 20
9.290696012778943
 30
0.0
  0
SPLINE
  5
AE
330
1F
100
AcDbEntity
  8
0
  6
Continuous
 62
     1
370
    15
100
AcDbSpline
210
0.0
220
0.0
230
1.0
 70
     8
 71
     3
 72
    28
 73
    24
 74
     0
 42
0.000000001
 43
0.00000001
 40
0.0
 40
0.0
 40
0.0
 40
0.0
 40
0.0457225642426743
 40
0.0913956901078855
 40
0.1370543404758328
 40
0.1827687115717715
 40
0.2284571494707592
 40
0.2741124607516057
 40
0.3242129907373577
 40
0.3743448909321323
 40
0.4244356146660825
 40
0.474510360070615
 40
0.5246046098740355
 40
0.5747373826400902
 40
0.6248338349275845
 40
0.6749087409985793
 40
0.72499758205413
 40
0.7751284713290266
 40
0.8252315230882068
 40
0.8753074657992743
 40
0.9253917708098114
 40
0.9755180210735636
 40
0.9999999999999999
 40
0.9999999999999999
 40
0.9999999999999999
 40
0.9999999999999999
 10
11.99999999703743
 20
11.86168148816103
 30
0.0
 10
12.57638263298416
 20
11.63471067450772
 30
0.0
 10
13.72852468037583
 20
11.18101446363703
 30
0.0
 10
15.4549910608627
 20
10.23510193677697
 30
0.0
 10
17.18076271540964
 20
9.115541980649427
 30
0.0
 10
18.9087021550368
 20
7.824791513503687
 30
0.0
 10
20.63561109899947
 20
6.390085416492791
 30
0.0
 10
22.41679436595062
 20
4.786637316279528
 30
0.0
 10
24.25512315111227
 20
3.033874673434073
 30
0.0
 10
26.15024730819723
 20
1.161507196510992
 30
0.0
 10
28.04369929560447
 20
-0.7376478238277314
 30
0.0
 10
29.93649416059418
 20
-2.620116420795437
 30
0.0
 10
31.83008164137146
 20
-4.444650732444692
 30
0.0
 10
33.72528974632866
 20
-6.169549407184896
 30
0.0
 10
35.61896863450797
 20
-7.758420432316408
 30
0.0
 10
37.51177290789274
 20
-9.174881624824492
 30
0.0
 10
39.40513367645777
 20
-10.38777104672788
 30
0.0
 10
41.30026324596154
 20
-11.36980227123723
 30
0.0
 10
43.19421737857549
 20
-12.09885330638826
 30
0.0
 10
45.08706794605442
 20
-12.56324552203794
 30
0.0
 10
46.98021235440297
 20
-12.7339879859038
 30
0.0
 10
48.55216407659876
 20
-12.68690230556284
 30
0.0
 10
49.49231941509651
 20
-12.47876489525821
 30
0.0
 10
49.80082242387324
 20
-12.410466588916
 30
0.0
  0
SPLINE
  5
AF
330
1F
100
AcDbEntity
  8
외형선
  6
Continuous
370
    15
100
AcDbSpline
210
0.0
220
0.0
230
1.0
 70
    24
 71
     3
 72
     9
 73
     5
 74
     0
 42
0.000000001
 43
0.00000001
 40
0.0
 40
0.0
 40
0.0
 40
0.0
 40
0.9148702900526353
 40
0.9999999999999999
 40
0.9999999999999999
 40
0.9999999999999999
 40
0.9999999999999999
 10
11.99999999703741
 20
12.69315066545729
 30
0.0
 10
11.99999999703742
 20
12.4582938159411
 30
0.0
 10
11.99999999703743
 20
12.20158327230472
 30
0.0
 10
11.99999999703748
 20
11.9599461791926
 30
0.0
 10
11.99999999703747
 20
11.93937568354344
 30
0.0
  0
SPLINE
  5
B0
330
1F
100
AcDbEntity
  8
0
  6
Continuous
 62
     1
370
    15
100
AcDbSpline
210
0.0
220
0.0
230
1.0
 70
     8
 71
     3
 72
    29
 73
    25
 74
     0
 42
0.000000001
 43
0.00000001
 40
0.0
 40
0.0
 40
0.0
 40
0.0
 40
0.039051308262109
 40
0.0860016779706402
 40
0.1329667853709865
 40
0.1798925927376818
 40
0.2268105651617937
 40
0.2737539370392745
 40
0.3207233908979237
 40
0.367653448250207
 40
0.4145704494085235
 40
0.4615076380009021
 40
0.5084788565709357
 40
0.5554139815758621
 40
0.6023308321999251
 40
0.6492626535020912
 40
0.6962330545283493
 40
0.7431740636645665
 40
0.7859501856848442
 40
0.8287573452387614
 40
0.8715888025483178
 40
0.9143680530807711
 40
0.9571608662332108
 40
1.0
 40
1.0
 40
1.0
 40
1.0
 10
52.34493041639351
 20
-12.67935542318803
 30
0.0
 10
51.81989366592984
 20
-12.66844294014618
 30
0.0
 10
50.66361892007349
 20
-12.64441066327273
 30
0.0
 10
48.87516527264361
 20
-12.26840639709084
 30
0.0
 10
46.9802359572699
 20
-11.62770561911992
 30
0.0
 10
45.08706162521969
 20
-10.72062476912888
 30
0.0
 10
43.19421907311128
 20
-9.577784472786682
 30
0.0
 10
41.30026279151432
 20
-8.22170495328446
 30
0.0
 10
39.40513379814238
 20
-6.683969272225546
 30
0.0
 10
37.51177287530962
 20
-4.996958528491523
 30
0.0
 10
35.61896864324153
 20
-3.19928107449264
 30
0.0
 10
33.72528974398614
 20
-1.330341815539368
 30
0.0
 10
31.83008164199881
 20
0.5671181783398891
 30
0.0
 10
29.93649416042621
 20
2.453071380318094
 30
0.0
 10
28.04369929564951
 20
4.28433439548005
 30
0.0
 10
26.15024730818514
 20
6.02078065934337
 30
0.0
 10
24.25512315111551
 20
7.622726454666078
 30
0.0
 10
22.41679436594984
 20
9.014058974956741
 30
0.0
 10
20.63561109899965
 20
10.18273058639839
 30
0.0
 10
18.9087021550367
 20
11.12630680776118
 30
0.0
 10
17.1807627154096
 20
11.8653973299581
 30
0.0
 10
15.45499106086266
 20
12.38165607266037
 30
0.0
 10
13.72852468037577
 20
12.68588665253388
 30
0.0
 10
12.57638263298411
 20
12.69072845479597
 30
0.0
 10
11.99999999703741
 20
12.69315066545729
 30
0.0
  0
LINE
  5
B1
330
1F
100
AcDbEntity
  8
0
  6
Continuous
 62
     1
370
    15
100
AcDbLine
 10
56.44999999703744
 20
-12.67505187819123
 30
0.0
 11
56.44999999703744
 21
-11.36684165051762
 31
0.0
  0
SPLINE
  5
B2
330
1F
100
AcDbEntity
  8
0
  6
Continuous
 62
     1
370
    15
100
AcDbSpline
210
0.0
220
0.0
230
1.0
 70
     8
 71
     3
 72
    28
 73
    24
 74
     0
 42
0.000000001
 43
0.00000001
 40
0.0
 40
0.0
 40
0.0
 40
0.0
 40
0.0403116063563597
 40
0.0844612608433701
 40
0.1285789044144355
 40
0.1769920520334761
 40
0.2254355133150804
 40
0.2738391849561982
 40
0.3222274164169222
 40
0.3706344953697354
 40
0.4190787998344798
 40
0.4674880070918566
 40
0.5158763938078076
 40
0.5642782461790034
 40
0.612720730588441
 40
0.6611363150477559
 40
0.709525703489814
 40
0.7579231725896769
 40
0.8063611742295429
 40
0.8547839759820922
 40
0.9031752123858785
 40
0.951569142553073
 40
1.0
 40
1.0
 40
1.0
 40
1.0
 10
17.33154602748819
 20
12.69160253560026
 30
0.0
 10
17.85734105629924
 20
12.67656179091083
 30
0.0
 10
18.95899179891595
 20
12.64504827965894
 30
0.0
 10
20.63563363887
 20
12.30843660950385
 30
0.0
 10
22.41678767060484
 20
11.73715787522741
 30
0.0
 10
24.25512501637185
 20
10.90001711322141
 30
0.0
 10
26.15024680871175
 20
9.797834218598409
 30
0.0
 10
28.04369942938541
 20
8.477121736982664
 30
0.0
 10
29.93649412458796
 20
6.968581196649303
 30
0.0
 10
31.83008165158923
 20
5.305111485168791
 30
0.0
 10
33.7252897415014
 20
3.524914486995178
 30
0.0
 10
35.61896864359438
 20
1.665536605243459
 30
0.0
 10
37.51177287638054
 20
-0.2305724682604295
 30
0.0
 10
39.40513379350246
 20
-2.121842607288616
 30
0.0
 10
41.30026280901458
 20
-3.964975398372636
 30
0.0
 10
43.19421900781045
 20
-5.720910932397005
 30
0.0
 10
45.0870618688126
 20
-7.349753526053686
 30
0.0
 10
46.98023504765721
 20
-8.815714825340068
 30
0.0
 10
48.87516867006551
 20
-10.08498558463774
 30
0.0
 10
50.76943996281571
 20
-11.13222475410992
 30
0.0
 10
52.66235406636116
 20
-11.92703354451257
 30
0.0
 10
54.55537741010419
 20
-12.47725654033089
 30
0.0
 10
55.81829858271425
 20
-12.60910333755066
 30
0.0
 10
56.44999999703744
 20
-12.67505187819123
 30
0.0
  0
SPLINE
  5
B3
330
1F
100
AcDbEntity
  8
0
  6
Continuous
 62
     1
370
    15
100
AcDbSpline
210
0.0
220
0.0
230
1.0
 70
     8
 71
     3
 72
    27
 73
    23
 74
     0
 42
0.000000001
 43
0.00000001
 40
0.0
 40
0.0
 40
0.0
 40
0.0
 40
0.0518009855976095
 40
0.1035624742796898
 40
0.1553210817491119
 40
0.2071134510857161
 40
0.2589220780148035
 40
0.3106873518910731
 40
0.3624439828057956
 40
0.4142286326238407
 40
0.4660420542622165
 40
0.5178120164258118
 40
0.569567575907932
 40
0.6213454047576288
 40
0.6731607731023747
 40
0.7249363255464936
 40
0.776691718969737
 40
0.8284636269996671
 40
0.8802780934872086
 40
0.9320601368940813
 40
0.9792477676670782
 40
1.0
 40
1.0
 40
1.0
 40
1.0
 10
56.44999999703746
 20
-11.36684165051763
 30
0.0
 10
55.81829858271423
 20
-11.0609937001929
 30
0.0
 10
54.55537741010419
 20
-10.44953100071751
 30
0.0
 10
52.66235406636108
 20
-9.232371096997973
 30
0.0
 10
50.7694399628158
 20
-7.828396667786003
 30
0.0
 10
48.87516867006515
 20
-6.245948658150001
 30
0.0
 10
46.98023504765845
 20
-4.526625808938567
 30
0.0
 10
45.08706186880796
 20
-2.705654315598873
 30
0.0
 10
43.19421900782756
 20
-0.824929569846867
 30
0.0
 10
41.30026280895071
 20
1.07420743834567
 30
0.0
 10
39.40513379374116
 20
2.948693997651133
 30
0.0
 10
37.51177287549056
 20
4.75878226319738
 30
0.0
 10
35.6189686469156
 20
6.462968941041185
 30
0.0
 10
33.72528972909656
 20
8.023889184562904
 30
0.0
 10
31.83008169790653
 20
9.406011825659373
 30
0.0
 10
29.9364939519102
 20
10.58007440052406
 30
0.0
 10
28.04370007365041
 20
11.5194328640378
 30
0.0
 10
26.15024440255688
 20
12.20211222654897
 30
0.0
 10
24.2551340020187
 20
12.61782890838993
 30
0.0
 10
22.41675541659249
 20
12.73489951215848
 30
0.0
 10
20.95821485920121
 20
12.66152902154623
 30
0.0
 10
20.12991834331655
 20
12.47546760834342
 30
0.0
 10
19.87691515855312
 20
12.41863514653883
 30
0.0
  0
LINE
  5
B4
330
1F
100
AcDbEntity
  8
0
  6
Continuous
 62
     1
370
    15
100
AcDbLine
 10
56.44999999703744
 20
-8.41071229869161
 30
0.0
 11
56.44999999703744
 21
-4.033355562029611
 31
0.0
  0
SPLINE
  5
B5
330
1F
100
AcDbEntity
  8
0
  6
Continuous
 62
     1
370
    15
100
AcDbSpline
210
0.0
220
0.0
230
1.0
 70
     8
 71
     3
 72
    23
 73
    19
 74
     0
 42
0.000000001
 43
0.00000001
 40
0.0
 40
0.0
 40
0.0
 40
0.0
 40
0.0252647807109376
 40
0.0902169406550592
 40
0.1551943998358707
 40
0.2202218273112852
 40
0.2852021433433236
 40
0.3501545116885798
 40
0.4151249551600971
 40
0.480149939551319
 40
0.5451388157854516
 40
0.6100925287608453
 40
0.6750570885095628
 40
0.7400760556201893
 40
0.8050746197220197
 40
0.870030813240763
 40
0.9349906226335827
 40
1.0
 40
1.0
 40
1.0
 40
1.0
 10
27.30764718606044
 20
12.66743427463382
 30
0.0
 10
27.55306162095097
 20
12.67596619611511
 30
0.0
 10
28.42940168349617
 20
12.70643247495433
 30
0.0
 10
29.93646622817736
 20
12.4645844975095
 30
0.0
 10
31.83008913422849
 20
11.95077089045472
 30
0.0
 10
33.72528773747322
 20
11.15429457098341
 30
0.0
 10
35.61896918014457
 20
10.11462887216271
 30
0.0
 10
37.51177273259778
 20
8.849298508934774
 30
0.0
 10
39.40513383207021
 20
7.387661578242172
 30
0.0
 10
41.30026279868298
 20
5.76286360772218
 30
0.0
 10
43.19421901057644
 20
4.009495925223534
 30
0.0
 10
45.08706186807152
 20
2.167207874934441
 30
0.0
 10
46.98023504785603
 20
0.276519177081293
 30
0.0
 10
48.87516867001223
 20
-1.619151557602867
 30
0.0
 10
50.76943996282998
 20
-3.480325239064847
 30
0.0
 10
52.66235406635734
 20
-5.260837310989598
 30
0.0
 10
54.55537741010517
 20
-6.938017794833186
 30
0.0
 10
55.81829858271454
 20
-7.919689333289719
 30
0.0
 10
56.44999999703743
 20
-8.41071229869161
 30
0.0
  0
SPLINE
  5
B6
330
1F
100
AcDbEntity
  8
0
  6
Continuous
 62
     1
370
    15
100
AcDbSpline
210
0.0
220
0.0
230
1.0
 70
     8
 71
     3
 72
    22
 73
    18
 74
     0
 42
0.000000001
 43
0.00000001
 40
0.0
 40
0.0
 40
0.0
 40
0.0
 40
0.0712252611239334
 40
0.1423962148232166
 40
0.2135632069159479
 40
0.2847766208629806
 40
0.3560123886563061
 40
0.4271885469176535
 40
0.498352821289419
 40
0.5695556210614745
 40
0.6407979814788038
 40
0.7119805860362043
 40
0.783143387210771
 40
0.8543368082954111
 40
0.9255818453928838
 40
0.9967721364679336
 40
1.0
 40
1.0
 40
1.0
 40
1.0
 10
56.44999999703746
 20
-4.033355562029611
 30
0.0
 10
55.8182985827146
 20
-3.426082183518909
 30
0.0
 10
54.55537741010524
 20
-2.211998456786556
 30
0.0
 10
52.66235406635711
 20
-0.3169905302389609
 30
0.0
 10
50.76943996283062
 20
1.578556208756683
 30
0.0
 10
48.87516867000983
 20
3.440598479854155
 30
0.0
 10
46.9802350478648
 20
5.225388649520643
 30
0.0
 10
45.08706186803867
 20
6.895158822914471
 30
0.0
 10
43.19421901069888
 20
8.411625625043051
 30
0.0
 10
41.30026279822566
 20
9.741480979701526
 30
0.0
 10
39.4051338337774
 20
10.8545109122571
 30
0.0
 10
37.51177272623335
 20
11.7278363272919
 30
0.0
 10
35.61896920389449
 20
12.33846277219776
 30
0.0
 10
33.72528764876679
 20
12.6836375390599
 30
0.0
 10
31.83008946544048
 20
12.71600410566151
 30
0.0
 10
30.53873134265407
 20
12.62521740011304
 30
0.0
 10
29.87906661709463
 20
12.44864554407923
 30
0.0
 10
29.85045387169315
 20
12.44098679658825
 30
0.0
  0
LINE
  5
B7
330
1F
100
AcDbEntity
  8
0
  6
Continuous
 62
     1
370
    15
100
AcDbLine
 10
12.44643197698962
 20
0.0009660696392499
 30
0.0
 11
12.41764888129129
 21
-0.0277554860064627
 31
0.0
  0
SPLINE
  5
B8
330
1F
100
AcDbEntity
  8
0
  6
Continuous
 62
     1
370
    15
100
AcDbSpline
210
0.0
220
0.0
230
1.0
 70
     8
 71
     3
 72
    17
 73
    13
 74
     0
 42
0.000000001
 43
0.00000001
 40
0.0
 40
0.0
 40
0.0
 40
0.0
 40
0.0968208097223956
 40
0.1935369301340182
 40
0.290222397641775
 40
0.3870258577882171
 40
0.4837744025297805
 40
0.5804527992810699
 40
0.6865442655207147
 40
0.7927021604283274
 40
0.8987728612263238
 40
1.0
 40
1.0
 40
1.0
 40
1.0
 10
11.99999999703743
 20
-4.539235441399656
 30
0.0
 10
12.5763826329034
 20
-5.068861021973665
 30
0.0
 10
13.72852468013371
 20
-6.127539515560267
 30
0.0
 10
15.45499106182979
 20
-7.580652662136034
 30
0.0
 10
17.18076271178231
 20
-8.900109034917227
 30
0.0
 10
18.90870216859408
 20
-10.05237534212469
 30
0.0
 10
20.63561104845132
 20
-11.02031870248823
 30
0.0
 10
22.41679456220622
 20
-11.80913281434851
 30
0.0
 10
24.25512233861186
 20
-12.38111868198004
 30
0.0
 10
26.15025033219801
 20
-12.68953288759188
 30
0.0
 10
28.01507380438882
 20
-12.73787278946488
 30
0.0
 10
29.24826511611204
 20
-12.53709697691047
 30
0.0
 10
29.85045387169306
 20
-12.43905465730966
 30
0.0
  0
SPLINE
  5
B9
330
1F
100
AcDbEntity
  8
외형선
  6
Continuous
370
    15
100
AcDbSpline
210
0.0
220
0.0
230
1.0
 70
    24
 71
     3
 72
    24
 73
    20
 74
     0
 42
0.000000001
 43
0.00000001
 40
0.0
 40
0.0
 40
0.0
 40
0.0
 40
0.1250000000000007
 40
0.1250000000000007
 40
0.1875000000000009
 40
0.1875000000000009
 40
0.2500000000000012
 40
0.2500000000000012
 40
0.375000000000001
 40
0.375000000000001
 40
0.5000000000000008
 40
0.5000000000000008
 40
0.6250000000000006
 40
0.6250000000000006
 40
0.7500000000000003
 40
0.7500000000000003
 40
0.8750000000000001
 40
0.8750000000000001
 40
1.0
 40
1.0
 40
1.0
 40
1.0
 10
11.99999999703743
 20
0.4464435501927658
 30
0.0
 10
11.99999999703743
 20
0.4645670212360141
 30
0.0
 10
11.99999999703743
 20
0.4356245862202657
 30
0.0
 10
11.99999999703742
 20
0.3593749929420281
 30
0.0
 10
11.99999999703746
 20
0.3283511878742574
 30
0.0
 10
11.99999999703743
 20
0.2595358858438814
 30
0.0
 10
11.99999999703742
 20
0.2183163698836685
 30
0.0
 10
11.99999999703741
 20
0.0659081939698867
 30
0.0
 10
11.99999999703746
 20
-0.073323866201147
 30
0.0
 10
11.99999999703746
 20
-0.4588511092041768
 30
0.0
 10
11.99999999703742
 20
-0.7066974638810359
 30
0.0
 10
11.99999999703743
 20
-1.314526216289123
 30
0.0
 10
11.99999999703746
 20
-1.675546858654644
 30
0.0
 10
11.99999999703743
 20
-2.438709048604293
 30
0.0
 10
11.99999999703746
 20
-2.837961925702935
 30
0.0
 10
11.99999999703743
 20
-3.547864750128558
 30
0.0
 10
11.99999999703743
 20
-3.855117961041838
 30
0.0
 10
11.99999999703743
 20
-4.309146852897359
 30
0.0
 10
11.99999999703747
 20
-4.457165108979465
 30
0.0
 10
11.99999999703746
 20
-4.539235441399645
 30
0.0
  0
SPLINE
  5
BA
330
1F
100
AcDbEntity
  8
0
  6
Continuous
 62
     1
370
    15
100
AcDbSpline
210
0.0
220
0.0
230
1.0
 70
     8
 71
     3
 72
    19
 73
    15
 74
     0
 42
0.000000001
 43
0.00000001
 40
0.0
 40
0.0
 40
0.0
 40
0.0
 40
0.0276947058817109
 40
0.1205396854567951
 40
0.2133485154633458
 40
0.3061869598003698
 40
0.3991017208340034
 40
0.4919583401362529
 40
0.576576164736851
 40
0.6612553864079058
 40
0.7459826728199367
 40
0.8306066861043616
 40
0.9152575283612355
 40
0.9999999999999999
 40
0.9999999999999999
 40
0.9999999999999999
 40
0.9999999999999999
 10
32.39485778752429
 20
-12.66949285428522
 30
0.0
 10
32.20650414574236
 20
-12.67798827576225
 30
0.0
 10
31.38670527039021
 20
-12.71496413089637
 30
0.0
 10
29.93650577408954
 20
-12.49511301821556
 30
0.0
 10
28.04369618321567
 20
-12.0084633488521
 30
0.0
 10
26.15024814323766
 20
-11.2342785037179
 30
0.0
 10
24.25512292675031
 20
-10.21684918668464
 30
0.0
 10
22.41679442014419
 20
-9.007354604449786
 30
0.0
 10
20.63561108504119
 20
-7.655410766343699
 30
0.0
 10
18.9087021587804
 20
-6.204595496068007
 30
0.0
 10
17.18076271440795
 20
-4.640136603820496
 30
0.0
 10
15.45499106112975
 20
-2.98851729921651
 30
0.0
 10
13.72852468030892
 20
-1.281550656543899
 30
0.0
 10
12.57638263296182
 20
-0.1297621964650522
 30
0.0
 10
11.99999999703741
 20
0.4464435501928209
 30
0.0
  0
LINE
  5
BB
330
1F
100
AcDbEntity
  8
0
  6
Continuous
 62
     1
370
    15
100
AcDbLine
 10
56.44999999703744
 20
-11.36684165051762
 30
0.0
 11
56.44999999703744
 21
-8.41071229869161
 31
0.0
  0
LINE
  5
BC
330
1F
100
AcDbEntity
  8
0
  6
Continuous
 62
     1
370
    15
100
AcDbLine
 10
56.44999999703744
 20
-12.69903393036071
 30
0.0
 11
56.44999999703744
 21
-12.67505187819123
 31
0.0
  0
LINE
  5
BD
330
1F
100
AcDbEntity
  8
외형선
  6
Continuous
370
    15
100
AcDbLine
 10
11.9999999970374
 20
9.290696012778945
 30
0.0
 11
11.99999999703743
 21
11.86168148816102
 31
0.0
  0
LINE
  5
BE
330
1F
100
AcDbEntity
  8
외형선
  6
Continuous
370
    15
100
AcDbLine
 10
11.9999999970374
 20
0.4464435501928123
 30
0.0
 11
11.99999999703746
 21
5.177351095390836
 31
0.0
  0
SPLINE
  5
BF
330
1F
100
AcDbEntity
  8
0
  6
Continuous
 62
     1
370
    15
100
AcDbSpline
210
0.0
220
0.0
230
1.0
 70
     8
 71
     3
 72
    18
 73
    14
 74
     0
 42
0.000000001
 43
0.00000001
 40
0.0
 40
0.0
 40
0.0
 40
0.0
 40
0.0120072031449162
 40
0.1107850377423892
 40
0.209645793644651
 40
0.3084516524986859
 40
0.4072040508810044
 40
0.505972940158629
 40
0.6048245476864051
 40
0.7036451354932056
 40
0.8024013051704022
 40
0.901162972242912
 40
1.0
 40
1.0
 40
1.0
 40
1.0
 10
37.28151426356414
 20
12.68591131097687
 30
0.0
 10
37.35821538804695
 20
12.69078771102374
 30
0.0
 10
38.06590200483478
 20
12.73578005076515
 30
0.0
 10
39.40513141054667
 20
12.55252536437495
 30
0.0
 10
41.30026344736849
 20
12.12017977012226
 30
0.0
 10
43.19421883690845
 20
11.39049708418467
 30
0.0
 10
45.08706191460245
 20
10.4155526754169
 30
0.0
 10
46.98023503537546
 20
9.20724712175209
 30
0.0
 10
48.87516867335638
 20
7.795749728509609
 30
0.0
 10
50.76943996193503
 20
6.210860999857656
 30
0.0
 10
52.66235406659594
 20
4.487653716001584
 30
0.0
 10
54.55537741004544
 20
2.665983155078966
 30
0.0
 10
55.81829858269464
 20
1.409537038318024
 30
0.0
 10
56.44999999703743
 20
0.7810743866558855
 30
0.0
  0
LINE
  5
C0
330
1F
100
AcDbEntity
  8
0
  6
Continuous
 62
     1
370
    15
100
AcDbLine
 10
56.44999999703744
 20
-4.033355562029611
 30
0.0
 11
56.44999999703744
 21
0.7810743866558871
 31
0.0
  0
SPLINE
  5
C1
330
1F
100
AcDbEntity
  8
0
  6
Continuous
 62
     1
370
    15
100
AcDbSpline
210
0.0
220
0.0
230
1.0
 70
     8
 71
     3
 72
    16
 73
    12
 74
     0
 42
0.000000001
 43
0.00000001
 40
0.0
 40
0.0
 40
0.0
 40
0.0
 40
0.1139655879547232
 40
0.227844280087895
 40
0.3417166333630156
 40
0.4556632649747253
 40
0.5696456643631423
 40
0.6835326841734098
 40
0.7974006888977092
 40
0.9113303370589851
 40
1.0
 40
1.0
 40
1.0
 40
1.0
 10
56.44999999703746
 20
5.663381423314902
 30
0.0
 10
55.81829858421555
 20
6.216347098521583
 30
0.0
 10
54.55537741460689
 20
7.321856826869029
 30
0.0
 10
52.66235404836669
 20
8.784652160887997
 30
0.0
 10
50.7694400303109
 20
10.06135019447353
 30
0.0
 10
48.87516841786607
 20
11.11236016227094
 30
0.0
 10
46.98023598887725
 20
11.91661699071385
 30
0.0
 10
45.08705835968715
 20
12.45890221557657
 30
0.0
 10
43.19423210496205
 20
12.71590050149357
 30
0.0
 10
41.44054180618521
 20
12.72263624247538
 30
0.0
 10
40.31746864547922
 20
12.51425958931658
 30
0.0
 10
39.82594417742403
 20
12.42306141346968
 30
0.0
  0
LINE
  5
C2
330
1F
100
AcDbEntity
  8
0
  6
Continuous
 62
     1
370
    15
100
AcDbLine
 10
56.44999999703744
 20
0.7810743866558871
 30
0.0
 11
56.44999999703744
 21
5.663381423314902
 31
0.0
  0
SPLINE
  5
C3
330
1F
100
AcDbEntity
  8
0
  6
Continuous
 62
     1
370
    15
100
AcDbSpline
210
0.0
220
0.0
230
1.0
 70
     8
 71
     3
 72
    14
 73
    10
 74
     0
 42
0.000000001
 43
0.00000001
 40
0.0
 40
0.0
 40
0.0
 40
0.0
 40
0.0056791572737089
 40
0.1712901165975902
 40
0.337021240056935
 40
0.5028464340965658
 40
0.6684695056895866
 40
0.8341450859814056
 40
1.0
 40
1.0
 40
1.0
 40
1.0
 10
22.42017706999912
 20
-12.6947665001692
 30
0.0
 10
22.40044920623101
 20
-12.6961855869924
 30
0.0
 10
21.80543344558246
 20
-12.73898692805278
 30
0.0
 10
20.63568776275119
 20
-12.59376675853552
 30
0.0
 10
18.90868159345615
 20
-12.25885806310046
 30
0.0
 10
17.1807682167481
 20
-11.66886428413074
 30
0.0
 10
15.45498959412837
 20
-10.86774624370108
 30
0.0
 10
13.72852504757095
 20
-9.87541381884923
 30
0.0
 10
12.57638275542662
 20
-9.06445988103364
 30
0.0
 10
11.99999999703741
 20
-8.658763578769777
 30
0.0
  0
LINE
  5
C4
330
1F
100
AcDbEntity
  8
외형선
  6
Continuous
370
    15
100
AcDbLine
 10
11.9999999970374
 20
-8.658763578769777
 30
0.0
 11
11.99999999703743
 21
-4.539235441399664
 31
0.0
  0
SPLINE
  5
C5
330
1F
100
AcDbEntity
  8
0
  6
Continuous
 62
     1
370
    15
100
AcDbSpline
210
0.0
220
0.0
230
1.0
 70
     8
 71
     3
 72
    12
 73
     8
 74
     0
 42
0.000000001
 43
0.00000001
 40
0.0
 40
0.0
 40
0.0
 40
0.0
 40
0.1761594935169495
 40
0.3821753344126076
 40
0.5880568798599809
 40
0.7939498859811197
 40
1.0
 40
1.0
 40
1.0
 40
1.0
 10
47.25511381162326
 20
12.68345273560974
 30
0.0
 10
47.79517584529638
 20
12.67059486630532
 30
0.0
 10
48.9668321903615
 20
12.6426999149567
 30
0.0
 10
50.76945495395546
 20
12.25966025046582
 30
0.0
 10
52.66235006967775
 20
11.60916093898409
 30
0.0
 10
54.55537841018779
 20
10.70853871096371
 30
0.0
 10
55.81829891616018
 20
9.913536770274243
 30
0.0
 10
56.44999999703743
 20
9.51588420001499
 30
0.0
  0
LINE
  5
C6
330
1F
100
AcDbEntity
  8
0
  6
Continuous
 62
     1
370
    15
100
AcDbLine
 10
56.44999999703744
 20
5.663381423314902
 30
0.0
 11
56.44999999703744
 21
9.515884200014991
 31
0.0
  0
SPLINE
  5
C7
330
1F
100
AcDbEntity
  8
0
  6
Continuous
 62
     1
370
    15
100
AcDbSpline
210
0.0
220
0.0
230
1.0
 70
     8
 71
     3
 72
    12
 73
     8
 74
     0
 42
0.000000001
 43
0.00000001
 40
0.0
 40
0.0
 40
0.0
 40
0.0
 40
0.2194204194985388
 40
0.4386035865659864
 40
0.6577172864079035
 40
0.8770983873834436
 40
1.0
 40
1.0
 40
1.0
 40
1.0
 10
11.99999999703746
 20
-11.59623350893034
 30
0.0
 10
12.57638199647674
 20
-11.810092319212
 30
0.0
 10
13.72852277154183
 20
-12.23757870093819
 30
0.0
 10
15.45499868556092
 20
-12.59847678774018
 30
0.0
 10
17.18073411715217
 20
-12.73126421626296
 30
0.0
 10
18.65566065048058
 20
-12.67501521513378
 30
0.0
 10
19.55425994426274
 20
-12.48494904462127
 30
0.0
 10
19.87691515855303
 20
-12.41670300726025
 30
0.0
  0
SPLINE
  5
C8
330
1F
100
AcDbEntity
  8
외형선
  6
Continuous
370
    15
100
AcDbSpline
210
0.0
220
0.0
230
1.0
 70
    24
 71
     3
 72
    15
 73
    11
 74
     0
 42
0.000000001
 43
0.00000001
 40
0.0
 40
0.0
 40
0.0
 40
0.0
 40
0.0425763071013603
 40
0.1848241060627928
 40
0.3230629686443904
 40
0.4653107676058198
 40
0.6035496301874201
 40
0.7457974291488514
 40
0.8714084284283823
 40
0.9999999999999999
 40
0.9999999999999999
 40
0.9999999999999999
 40
0.9999999999999999
 10
11.99999999703746
 20
-8.736467774152194
 30
0.0
 10
11.99999999703743
 20
-8.768720756568813
 30
0.0
 10
11.99999999703741
 20
-8.908731223630202
 30
0.0
 10
11.99999999703746
 20
-9.19860670624298
 30
0.0
 10
11.99999999703736
 20
-9.597553097486541
 30
0.0
 10
11.99999999703752
 20
-10.01697124588112
 30
0.0
 10
11.99999999703738
 20
-10.44851670263072
 30
0.0
 10
11.99999999703742
 20
-10.85976671714237
 30
0.0
 10
11.99999999703746
 20
-11.24932860155548
 30
0.0
 10
11.99999999703741
 20
-11.47969816452067
 30
0.0
 10
11.99999999703743
 20
-11.59623350893034
 30
0.0
  0
SPLINE
  5
C9
330
1F
100
AcDbEntity
  8
0
  6
Continuous
 62
     1
370
    15
100
AcDbSpline
210
0.0
220
0.0
230
1.0
 70
     8
 71
     3
 72
    11
 73
     7
 74
     0
 42
0.000000001
 43
0.00000001
 40
0.0
 40
0.0
 40
0.0
 40
0.0
 40
0.2849185732204355
 40
0.5696199033770691
 40
0.8543053861325335
 40
1.0
 40
1.0
 40
1.0
 40
1.0
 10
56.44999999703746
 20
12.04315229026582
 30
0.0
 10
55.81830039211142
 20
12.21863096948083
 30
0.0
 10
54.55538283691607
 20
12.56945452994368
 30
0.0
 10
52.66233237892497
 20
12.732055029812
 30
0.0
 10
51.07789998448326
 20
12.69199590893687
 30
0.0
 10
50.12380713173082
 20
12.48311143705834
 30
0.0
 10
49.80082242387324
 20
12.41239872819458
 30
0.0
  0
LINE
  5
CA
330
1F
100
AcDbEntity
  8
외형선
  6
Continuous
370
    15
100
AcDbLine
 10
12.44569039517276
 20
-12.67656890587349
 30
0.0
 11
11.99999999703741
 21
-12.6912185261787
 31
0.0
  0
LINE
  5
CB
330
1F
100
AcDbEntity
  8
0
  6
Continuous
 62
     1
370
    15
100
AcDbLine
 10
56.44999999703744
 20
9.495064654714174
 30
0.0
 11
56.44999999703744
 21
12.04315229026582
 31
0.0
  0
LINE
  5
CC
330
1F
100
AcDbEntity
  8
외형선
  6
Continuous
370
    15
100
AcDbLine
 10
11.9999999970374
 20
-12.69121852617871
 30
0.0
 11
11.99999999703743
 21
-11.59623350893034
 31
0.0
  0
LINE
  5
CD
330
1F
100
AcDbEntity
  8
0
  6
Continuous
 62
     1
370
    15
100
AcDbLine
 10
56.44999999703744
 20
12.04315229026582
 30
0.0
 11
56.44999999703744
 21
12.70096606963929
 31
0.0
  0
SPLINE
  5
CE
330
1F
100
AcDbEntity
  8
외형선
  6
Continuous
370
    15
100
AcDbSpline
210
0.0
220
0.0
230
1.0
 70
     8
 71
     3
 72
     8
 73
     4
 74
     0
 42
0.000000001
 43
0.00000001
 40
0.0
 40
0.0
 40
0.0
 40
0.0
 40
1.0
 40
1.0
 40
1.0
 40
1.0
 10
11.99999999703746
 20
12.69315066545729
 30
0.0
 10
11.66623894964698
 20
12.68143829064389
 30
0.0
 10
11.33441024597174
 20
12.65661781101696
 30
0.0
 10
11.00035080187678
 20
12.61865144836377
 30
0.0
  0
LINE
  5
CF
330
1F
100
AcDbEntity
  8
외형선
  6
Continuous
370
    15
100
AcDbLine
 10
11.00035080187678
 20
12.18238848508765
 30
0.0
 11
11.00035080187678
 21
12.70096606963929
 31
0.0
  0
SPLINE
  5
D0
330
1F
100
AcDbEntity
  8
외형선
  6
Continuous
370
    15
100
AcDbSpline
210
0.0
220
0.0
230
1.0
 70
     8
 71
     3
 72
     8
 73
     4
 74
     0
 42
0.000000001
 43
0.00000001
 40
0.0
 40
0.0
 40
0.0
 40
0.0
 40
1.0
 40
1.0
 40
1.0
 40
1.0
 10
11.99999999703743
 20
11.86168148816102
 30
0.0
 10
11.66623894964696
 20
11.98105125239604
 30
0.0
 10
11.33441024597171
 20
12.08792044031212
 30
0.0
 10
11.0003508018768
 20
12.18239009195792
 30
0.0
  0
SPLINE
  5
D1
330
1F
100
AcDbEntity
  8
외형선
  6
Continuous
370
    15
100
AcDbSpline
210
0.0
220
0.0
230
1.0
 70
     8
 71
     3
 72
     8
 73
     4
 74
     0
 42
0.000000001
 43
0.00000001
 40
0.0
 40
0.0
 40
0.0
 40
0.0
 40
1.0
 40
1.0
 40
1.0
 40
1.0
 10
11.99999999703746
 20
9.290696012778932
 30
0.0
 10
11.66623894964698
 20
9.518375309381998
 30
0.0
 10
11.33441024597174
 20
9.73600506741776
 30
0.0
 10
11.00035080187678
 20
9.943804817268774
 30
0.0
  0
LINE
  5
D2
330
1F
100
AcDbEntity
  8
외형선
  6
Continuous
370
    15
100
AcDbLine
 10
11.00035080187678
 20
6.074557273630102
 30
0.0
 11
11.00035080187678
 21
9.943805758112973
 31
0.0
  0
SPLINE
  5
D3
330
1F
100
AcDbEntity
  8
외형선
  6
Continuous
370
    15
100
AcDbSpline
210
0.0
220
0.0
230
1.0
 70
     8
 71
     3
 72
     8
 73
     4
 74
     0
 42
0.000000001
 43
0.00000001
 40
0.0
 40
0.0
 40
0.0
 40
0.0
 40
1.0
 40
1.0
 40
1.0
 40
1.0
 10
11.99999999703743
 20
5.177351095390818
 30
0.0
 10
11.66623894964696
 20
5.482261566019568
 30
0.0
 10
11.33441024597171
 20
5.781229086463748
 30
0.0
 10
11.0003508018768
 20
6.074562263042598
 30
0.0
  0
SPLINE
  5
D4
330
1F
100
AcDbEntity
  8
외형선
  6
Continuous
370
    15
100
AcDbSpline
210
0.0
220
0.0
230
1.0
 70
     8
 71
     3
 72
     8
 73
     4
 74
     0
 42
0.000000001
 43
0.00000001
 40
0.0
 40
0.0
 40
0.0
 40
0.0
 40
1.0
 40
1.0
 40
1.0
 40
1.0
 10
11.99999999703746
 20
0.4464435501927945
 30
0.0
 10
11.66623894964698
 20
0.7801430741338229
 30
0.0
 10
11.33441024597174
 20
1.112738509150895
 30
0.0
 10
11.00035080187678
 20
1.444578096301135
 30
0.0
  0
LINE
  5
D5
330
1F
100
AcDbEntity
  8
외형선
  6
Continuous
370
    15
100
AcDbLine
 10
11.00035080187678
 20
-3.591101292815367
 30
0.0
 11
11.00035080187678
 21
1.444579598754205
 31
0.0
  0
SPLINE
  5
D6
330
1F
100
AcDbEntity
  8
외형선
  6
Continuous
370
    15
100
AcDbSpline
210
0.0
220
0.0
230
1.0
 70
     8
 71
     3
 72
     8
 73
     4
 74
     0
 42
0.000000001
 43
0.00000001
 40
0.0
 40
0.0
 40
0.0
 40
0.0
 40
1.0
 40
1.0
 40
1.0
 40
1.0
 10
11.99999999703743
 20
-4.539235441399674
 30
0.0
 10
11.66623894964696
 20
-4.227396682761945
 30
0.0
 10
11.33441024597171
 20
-3.911461948556812
 30
0.0
 10
11.0003508018768
 20
-3.591095843590818
 30
0.0
  0
SPLINE
  5
D7
330
1F
100
AcDbEntity
  8
외형선
  6
Continuous
370
    15
100
AcDbSpline
210
0.0
220
0.0
230
1.0
 70
     8
 71
     3
 72
     8
 73
     4
 74
     0
 42
0.000000001
 43
0.00000001
 40
0.0
 40
0.0
 40
0.0
 40
0.0
 40
1.0
 40
1.0
 40
1.0
 40
1.0
 10
11.99999999703746
 20
-8.658763578769792
 30
0.0
 10
11.66623894964698
 20
-8.414520482858011
 30
0.0
 10
11.33441024597174
 20
-8.161789265909247
 30
0.0
 10
11.00035080187678
 20
-7.900296971080106
 30
0.0
  0
LINE
  5
D8
330
1F
100
AcDbEntity
  8
외형선
  6
Continuous
370
    15
100
AcDbLine
 10
11.00035080187678
 20
-11.15257551529264
 30
0.0
 11
11.00035080187678
 21
-7.900295787134796
 31
0.0
  0
SPLINE
  5
D9
330
1F
100
AcDbEntity
  8
외형선
  6
Continuous
370
    15
100
AcDbSpline
210
0.0
220
0.0
230
1.0
 70
     8
 71
     3
 72
     8
 73
     4
 74
     0
 42
0.000000001
 43
0.00000001
 40
0.0
 40
0.0
 40
0.0
 40
0.0
 40
1.0
 40
1.0
 40
1.0
 40
1.0
 10
11.99999999703743
 20
-11.59623350893035
 30
0.0
 10
11.66623894964696
 20
-11.46013737782003
 30
0.0
 10
11.33441024597171
 20
-11.31230571232657
 30
0.0
 10
11.0003508018768
 20
-11.15257279833787
 30
0.0
  0
SPLINE
  5
DA
330
1F
100
AcDbEntity
  8
외형선
  6
Continuous
370
    15
100
AcDbSpline
210
0.0
220
0.0
230
1.0
 70
     8
 71
     3
 72
     8
 73
     4
 74
     0
 42
0.000000001
 43
0.00000001
 40
0.0
 40
0.0
 40
0.0
 40
0.0
 40
1.0
 40
1.0
 40
1.0
 40
1.0
 10
11.99999999703746
 20
-12.69121852617871
 30
0.0
 10
11.66623894964698
 20
-12.6795061513653
 30
0.0
 10
11.33441024597174
 20
-12.65468567173838
 30
0.0
 10
11.00035080187678
 20
-12.61671930908518
 30
0.0
  0
LINE
  5
DB
330
1F
100
AcDbEntity
  8
외형선
  6
Continuous
370
    15
100
AcDbLine
 10
11.00035080187678
 20
-12.69903393036071
 30
0.0
 11
11.00035080187678
 21
-12.61671913718674
 31
0.0
  0
LINE
  5
DC
330
1F
100
AcDbEntity
  8
외형선
  6
Continuous
370
    15
100
AcDbLine
 10
-48.96000000296256
 20
0.000966069639292
 30
0.0
 11
-48.96000000296256
 21
12.7009660696393
 31
0.0
  0
LINE
  5
DD
330
1F
100
AcDbEntity
  8
외형선
  6
Continuous
370
    15
100
AcDbLine
 10
-48.96000000296256
 20
-12.69903393036072
 30
0.0
 11
-48.96000000296256
 21
0.000966069639292
 31
0.0
  0
LINE
  5
DE
330
1F
100
AcDbEntity
  8
외형선
  6
Continuous
370
    15
100
AcDbLine
 10
-51.50000000296257
 20
0.000966069639292
 30
0.0
 11
-51.50000000296257
 21
10.1609660696393
 31
0.0
  0
LINE
  5
DF
330
1F
100
AcDbEntity
  8
외형선
  6
Continuous
370
    15
100
AcDbLine
 10
-51.50000000296257
 20
-10.15903393036072
 30
0.0
 11
-51.50000000296257
 21
0.000966069639292
 31
0.0
  0
SPLINE
  5
E0
330
1F
100
AcDbEntity
  8
외형선
  6
Continuous
370
    15
100
AcDbSpline
210
0.0
220
0.0
230
1.0
 70
    24
 71
     3
 72
    16
 73
    12
 74
     0
 42
0.000000001
 43
0.00000001
 40
0.0
 40
0.0
 40
0.0
 40
0.0
 40
0.0977319757382969
 40
0.2149596369120184
 40
0.3321872980857435
 40
0.4494149592594664
 40
0.5666426204331845
 40
0.6838702816069097
 40
0.8010979427806109
 40
0.918325603954355
 40
1.0
 40
1.0
 40
1.0
 40
1.0
 10
11.99999999703743
 20
-4.539235441399664
 30
0.0
 10
11.99999999703746
 20
-4.457962890235283
 30
0.0
 10
11.99999999703752
 20
-4.279205447164754
 30
0.0
 10
11.99999999703737
 20
-3.7271700827276
 30
0.0
 10
11.9999999970374
 20
-2.97615495534836
 30
0.0
 10
11.99999999703752
 20
-2.120003379863057
 30
0.0
 10
11.99999999703741
 20
-1.262156960888529
 30
0.0
 10
11.99999999703746
 20
-0.4948895946065868
 30
0.0
 10
11.99999999703741
 20
0.0844450322169827
 30
0.0
 10
11.99999999703741
 20
0.4125859108103752
 30
0.0
 10
11.99999999703742
 20
0.4269156610478785
 30
0.0
 10
11.99999999703742
 20
0.4327998319433162
 30
0.0
  0
SPLINE
  5
E1
330
1F
100
AcDbEntity
  8
외형선
  6
Continuous
370
    15
100
AcDbSpline
210
0.0
220
0.0
230
1.0
 70
    24
 71
     3
 72
    13
 73
     9
 74
     0
 42
0.000000001
 43
0.00000001
 40
0.0
 40
0.0
 40
0.0
 40
0.0
 40
0.1152192539531664
 40
0.2962800919211833
 40
0.4773409298892109
 40
0.6584017678572015
 40
0.8394626058252588
 40
1.0
 40
1.0
 40
1.0
 40
1.0
 10
11.99999999703743
 20
5.255055290773242
 30
0.0
 10
11.99999999703747
 20
5.350032549711792
 30
0.0
 10
11.99999999703752
 20
5.59426144413055
 30
0.0
 10
11.99999999703741
 20
6.23738496560333
 30
0.0
 10
11.99999999703746
 20
7.062848663945171
 30
0.0
 10
11.99999999703741
 20
7.930057378828248
 30
0.0
 10
11.99999999703741
 20
8.716704300886716
 30
0.0
 10
11.99999999703742
 20
9.107185564853046
 30
0.0
 10
11.99999999703743
 20
9.290696012778925
 30
0.0
  0
SPLINE
  5
E2
330
1F
100
AcDbEntity
  8
외형선
  6
Continuous
370
    15
100
AcDbSpline
210
0.0
220
0.0
230
1.0
 70
    24
 71
     3
 72
    11
 73
     7
 74
     0
 42
0.000000001
 43
0.00000001
 40
0.0
 40
0.0
 40
0.0
 40
0.0
 40
0.2326732585159193
 40
0.5117604426994018
 40
0.7908476268828938
 40
1.0
 40
1.0
 40
1.0
 40
1.0
 10
11.99999999703743
 20
-11.59623350893035
 30
0.0
 10
11.9999999970375
 20
-11.3799692401834
 30
0.0
 10
11.99999999703754
 20
-10.90430006092347
 30
0.0
 10
11.9999999970373
 20
-10.08230149363111
 30
0.0
 10
11.99999999703742
 20
-9.299970330367504
 30
0.0
 10
11.99999999703746
 20
-8.905458852703712
 30
0.0
 10
11.99999999703747
 20
-8.736457774152193
 30
0.0
  0
SPLINE
  5
E3
330
1F
100
AcDbEntity
  8
외형선
  6
Continuous
370
    15
100
AcDbSpline
210
0.0
220
0.0
230
1.0
 70
    24
 71
     3
 72
    10
 73
     6
 74
     0
 42
0.000000001
 43
0.00000001
 40
0.0
 40
0.0
 40
0.0
 40
0.0
 40
0.0003822520678845
 40
0.4945920569512194
 40
1.0
 40
1.0
 40
1.0
 40
1.0
 10
11.99999999703742
 20
11.93937568354344
 30
0.0
 10
11.99999999703742
 20
11.9394674545868
 30
0.0
 10
11.99999999704174
 20
12.05820907280412
 30
0.0
 10
11.99999999703558
 20
12.31328352608981
 30
0.0
 10
11.99999999703681
 20
12.56558615231306
 30
0.0
 10
11.99999999703743
 20
12.69315066545729
 30
0.0
  0
LINE
  5
E4
330
1F
100
AcDbEntity
  8
중심선
100
AcDbLine
 10
-54.50000000296257
 20
0.0009660696392833
 30
0.0
 11
59.44999999703744
 21
0.0009660696392938
 31
0.0
  0
LINE
  5
E5
330
1F
100
AcDbEntity
  8
참조1
100
AcDbLine
 10
-2.699999999999973
 20
0.0010749287238892
 30
0.0
 11
-2.699999999999968
 21
-39.99892507127611
 31
0.0
  0
LINE
  5
E6
330
1F
100
AcDbEntity
  8
참조1
100
AcDbLine
 10
-2.699999999999968
 20
-39.99892507127611
 30
0.0
 11
-19.44635681430862
 21
-39.9989250712761
 31
0.0
  0
CIRCLE
  5
E7
330
1F
100
AcDbEntity
  8
해칭선
100
AcDbCircle
 10
0.0
 20
0.0
 30
0.0
 40
3.000000000000001
  0
INSERT
  5
E8
330
1F
100
AcDbEntity
  8
0
  6
Continuous
 62
     7
100
AcDbBlockReference
 66
     1
  2
블럭10
 10
-13.46527293212521
 20
-52.04609937292004
 30
0.0
  0
ATTRIB
  5
E9
330
E8
100
AcDbEntity
  8
FORMAT
 62
     2
100
AcDbText
 10
-23.60690894426183
 20
-49.97073246008785
 30
0.0
 40
4.233333333333333
  1
EM208064 [ 8 FLUTE ]
 41
0.75
  7
SLDTEXTSTYLE0
 11
-23.60690894426183
 21
-52.08739912675452
 31
0.0
100
AcDbAttribute
  2
AUTOATTR0
 70
     0
 74
     1
  0
SEQEND
  5
EA
330
E8
100
AcDbEntity
  8
0
  6
Continuous
 62
     7
  0
HATCH
  5
EB
330
1F
100
AcDbEntity
  8
중심선
100
AcDbHatch
 10
0.0
 20
0.0
 30
0.0
210
0.0
220
0.0
230
1.0
  2
SOLID
 70
     1
 71
     0
 91
        1
 92
        0
 93
        4
 72
     1
 10
-7.750363627744347
 20
-35.7989250712761
 11
-11.19663887158163
 21
-35.7989250712761
 72
     1
 10
-11.19663887158163
 20
-35.7989250712761
 11
-13.32486873078565
 21
-38.3352506518487
 72
     1
 10
-13.32486873078565
 20
-38.3352506518487
 11
-9.878560401835221
 21
-38.33521122254621
 72
     1
 10
-9.878560401835221
 20
-38.33521122254621
 11
-7.750363627744347
 21
-35.7989250712761
 97
        0
 75
     0
 76
     1
 98
        1
 10
3.174999999999975
 20
0.0
  0
HATCH
  5
EC
330
1F
100
AcDbEntity
  8
중심선
100
AcDbHatch
 10
0.0
 20
0.0
 30
0.0
210
0.0
220
0.0
230
1.0
  2
SOLID
 70
     1
 71
     0
 91
        1
 92
        0
 93
        4
 72
     1
 10
-2.737599636708341
 20
-35.7989250712761
 11
-6.183874880545623
 21
-35.7989250712761
 72
     1
 10
-6.183874880545623
 20
-35.7989250712761
 11
-10.71501288890307
 21
-41.19892507127612
 72
     1
 10
-10.71501288890307
 20
-41.19892507127612
 11
-7.268737645065785
 21
-41.19892507127612
 72
     1
 10
-7.268737645065785
 20
-41.19892507127612
 11
-2.737599636708341
 21
-35.7989250712761
 97
        0
 75
     0
 76
     1
 98
        1
 10
3.174999999999975
 20
0.0
  0
HATCH
  5
ED
330
1F
100
AcDbEntity
  8
중심선
100
AcDbHatch
 10
0.0
 20
0.0
 30
0.0
210
0.0
220
0.0
230
1.0
  2
SOLID
 70
     1
 71
     0
 91
        1
 92
        0
 93
        4
 72
     1
 10
2.275164354327499
 20
-35.79892507127613
 11
-1.171110889509616
 21
-35.7989250712761
 72
     1
 10
-1.171110889509616
 20
-35.7989250712761
 11
-8.219547791398867
 21
-44.19892507127612
 72
     1
 10
-8.219547791398867
 20
-44.19892507127612
 11
-4.773272547561584
 21
-44.19892507127612
 72
     1
 10
-4.773272547561584
 20
-44.19892507127612
 11
2.275164354327499
 21
-35.79892507127613
 97
        0
 75
     0
 76
     1
 98
        1
 10
3.174999999999975
 20
0.0
  0
HATCH
  5
EE
330
1F
100
AcDbEntity
  8
중심선
100
AcDbHatch
 10
0.0
 20
0.0
 30
0.0
210
0.0
220
0.0
230
1.0
  2
SOLID
 70
     1
 71
     0
 91
        1
 92
        0
 93
        6
 72
     3
 10
7.075054785339699
 20
-39.99892507132738
 11
3.960054785062283
 21
1.540882976769353E-10
 40
0.3939339440162628
 50
17.09539180608436
 51
320.0019657685082
 73
     0
 72
     1
 10
8.758054441040265
 20
-38.58681907591443
 11
11.06335631474133
 21
-36.65249236586651
 72
     3
 10
7.075054785286852
 20
-39.99892507127625
 11
6.600054785286828
 21
-1.278976924368180E-13
 40
0.6363583540795982
 50
39.99873849337382
 51
368.4976242363724
 73
     1
 72
     1
 10
13.50038727718746
 20
-39.03892507120613
 11
5.755122092122802
 21
-39.03892507120613
 72
     1
 10
5.755122092122802
 20
-39.03892507120613
 11
5.75509704767684
 21
-40.95892507120602
 72
     1
 10
5.75509704767684
 20
-40.95892507120602
 11
10.19647681714888
 21
-40.95892507120599
 97
        0
 75
     0
 76
     1
 98
        1
 10
3.174999999999975
 20
0.0
  0
DIMENSION
  5
EF
330
1F
100
AcDbEntity
  8
치수문자_일반주서
100
AcDbDimension
  2
_D
 10
82.88381559945819
 20
12.70096606963939
 30
0.0
 11
82.88381559945823
 21
0.0009660696393866
 31
0.0
 70
   160
  1
%%c<>
 71
     2
 42
25.4
 52
-270.0
  3
SLDDIMSTYLE0
100
AcDbAlignedDimension
 13
56.44999999703744
 23
-12.69903393036071
 33
0.0
 14
56.44999999703744
 24
12.70096606963929
 34
0.0
 50
90.0000000000002
100
AcDbRotatedDimension
1001
ACAD
1000
DSTYLE
1002
{
1070
   171
1070
     6
1070
   273
1070
     7
1002
}
  0
DIMENSION
  5
104
330
1F
100
AcDbEntity
  8
치수문자_일반주서
100
AcDbDimension
  2
_D_1
 10
11.99999999703743
 20
41.74548275125988
 30
0.0
 11
34.22499999703744
 21
41.74548275125988
 31
0.0
 70
   160
  1
<>
 71
     2
 42
44.45000000000001
  3
SLDDIMSTYLE0
100
AcDbAlignedDimension
 13
56.44999999703744
 23
12.7009660696393
 33
0.0
 14
11.99999999703743
 24
12.69315066545729
 34
0.0
100
AcDbRotatedDimension
1001
ACAD
1000
DSTYLE
1002
{
1070
   171
1070
     6
1070
   273
1070
     7
1002
}
  0
DIMENSION
  5
118
330
1F
100
AcDbEntity
  8
치수문자_일반주서
100
AcDbDimension
  2
_D_2
 10
-51.50000000296256
 20
57.37277559439124
 30
0.0
 11
2.47499999703744
 21
57.37277559439124
 31
0.0
 70
   160
  1
<>
 71
     2
 42
107.95
  3
SLDDIMSTYLE0
100
AcDbAlignedDimension
 13
56.44999999703744
 23
12.7009660696393
 33
0.0
 14
-51.50000000296257
 24
10.1609660696393
 34
0.0
100
AcDbRotatedDimension
1001
ACAD
1000
DSTYLE
1002
{
1070
   171
1070
     6
1070
   273
1070
     7
1002
}
  0
DIMENSION
  5
12B
330
1F
100
AcDbEntity
  8
치수문자_일반주서
100
AcDbDimension
  2
_D_3
 10
-63.86500000296255
 20
-12.69903393036076
 30
0.0
 11
-63.8650000029626
 21
0.0009660696392772
 31
0.0
 70
   160
  1
%%c<>
 71
     2
 42
25.39999999999998
 52
-270.0
  3
SLDDIMSTYLE0
100
AcDbAlignedDimension
 13
-48.96000000296257
 23
12.70096606963928
 33
0.0
 14
-48.96000000296257
 24
-12.6990339303607
 34
0.0
 50
90.0000000000002
100
AcDbRotatedDimension
1001
ACAD
1000
DSTYLE
1002
{
1070
   171
1070
     6
1070
   273
1070
     7
1002
}
  0
LINE
  5
13F
330
1F
100
AcDbEntity
  8
참조1
100
AcDbLine
 10
78.52598381534564
 20
7.441074928723896
 30
0.0
 11
78.52598381534564
 21
-7.438925071276109
 31
0.0
  0
LINE
  5
140
330
1F
100
AcDbEntity
  8
참조1
100
AcDbLine
 10
91.22598381534564
 20
5.441074928723896
 30
0.0
 11
78.52598381534564
 21
5.441074928723896
 31
0.0
  0
SOLID
  5
141
330
1F
100
AcDbEntity
  8
참조1
100
AcDbTrace
 10
78.52598381534564
 20
5.441074928723896
 30
0.0
 11
84.87598381534563
 21
4.425074928723896
 31
0.0
 12
84.87598381534563
 22
6.457074928723896
 32
0.0
 13
84.87598381534563
 23
6.457074928723896
 33
0.0
  0
LINE
  5
142
330
1F
100
AcDbEntity
  8
참조1
100
AcDbLine
 10
91.22598381534564
 20
-5.438925071276109
 30
0.0
 11
78.52598381534564
 21
-5.438925071276109
 31
0.0
  0
SOLID
  5
143
330
1F
100
AcDbEntity
  8
참조1
100
AcDbTrace
 10
78.52598381534564
 20
-5.438925071276109
 30
0.0
 11
84.87598381534563
 21
-6.454925071276109
 31
0.0
 12
84.87598381534563
 22
-4.422925071276109
 32
0.0
 13
84.87598381534563
 23
-4.422925071276109
 33
0.0
  0
MTEXT
  5
144
330
1F
100
AcDbEntity
  8
참조1
100
AcDbMText
 10
87.92347390781592
 20
10.98929157337383
 30
0.0
 40
3.5
 41
0.0
 71
     1
 72
     1
  1
A
  7
SLDTEXTSTYLE0
 73
     1
 44
1.0
  0
MTEXT
  5
145
330
1F
100
AcDbEntity
  8
참조1
100
AcDbMText
 10
87.92347390781592
 20
0.1092915733738259
 30
0.0
 40
3.5
 41
0.0
 71
     1
 72
     1
  1
A
  7
SLDTEXTSTYLE0
 73
     1
 44
1.0
  0
INSERT
  5
14C
330
1F
100
AcDbEntity
  8
해칭선
100
AcDbBlockReference
  2
SW_DOWELSYMBOL_0
 10
0.0
 20
0.0
 30
0.0
  0
ENDSEC
  0
SECTION
  2
OBJECTS
  0
DICTIONARY
  5
C
330
0
100
AcDbDictionary
281
     1
  3
ACAD_GROUP
350
D
  3
ACAD_IMAGE_VARS
350
170
  3
ACAD_LAYOUT
350
1A
  3
ACAD_MLINESTYLE
350
17
  3
ACAD_PLOTSETTINGS
350
19
  3
ACAD_PLOTSTYLENAME
350
E
  3
ACAD_SCALELIST
350
47
  3
APPDATA
350
16E
  3
DWGPROPS
350
1C2
  0
DICTIONARY
  5
197
330
2
100
AcDbDictionary
280
     1
281
     1
  3
ACAD_LAYERSTATES
360
198
  0
DICTIONARY
  5
D
102
{ACAD_REACTORS
330
C
102
}
330
C
100
AcDbDictionary
281
     1
  0
RASTERVARIABLES
  5
170
102
{ACAD_REACTORS
330
C
102
}
330
C
100
AcDbRasterVariables
 90
        0
 70
     1
 71
     1
 72
     1
  0
DICTIONARY
  5
1A
102
{ACAD_REACTORS
330
C
102
}
330
C
100
AcDbDictionary
281
     1
  3
Layout1
350
1E
  3
Layout2
350
26
  3
Model
350
22
  0
DICTIONARY
  5
17
102
{ACAD_REACTORS
330
C
102
}
330
C
100
AcDbDictionary
281
     1
  3
Standard
350
18
  0
DICTIONARY
  5
19
102
{ACAD_REACTORS
330
C
102
}
330
C
100
AcDbDictionary
281
     1
  0
ACDBDICTIONARYWDFLT
  5
E
102
{ACAD_REACTORS
330
C
102
}
330
C
100
AcDbDictionary
281
     1
  3
Normal
350
F
100
AcDbDictionaryWithDefault
340
F
  0
DICTIONARY
  5
47
102
{ACAD_REACTORS
330
C
102
}
330
C
100
AcDbDictionary
281
     1
  3
A0
350
48
  3
A1
350
49
  3
A2
350
4A
  3
A3
350
4B
  3
A4
350
4C
  3
A5
350
4D
  3
A6
350
4E
  3
A7
350
4F
  3
A8
350
50
  3
A9
350
51
  3
B0
350
52
  3
B1
350
53
  3
B2
350
54
  3
B3
350
55
  3
B4
350
56
  3
B5
350
57
  3
B6
350
58
  3
B7
350
59
  3
B8
350
5A
  3
B9
350
5B
  3
C0
350
5C
  3
C1
350
5D
  3
C2
350
5E
  3
C3
350
5F
  3
C4
350
60
  3
C5
350
61
  3
C6
350
62
  3
C7
350
63
  3
C8
350
64
  3
C9
350
65
  3
D0
350
66
  3
D1
350
67
  3
D2
350
68
  0
DICTIONARY
  5
16E
102
{ACAD_REACTORS
330
C
102
}
330
C
100
AcDbDictionary
281
     1
  0
XRECORD
  5
1C2
102
{ACAD_REACTORS
330
C
102
}
330
C
100
AcDbXrecord
280
     1
  1
DWGPROPS COOKIE
  2

  3

  4

  6

  7

  8
12017012
  9

300
=
301
=
302
=
303
=
304
=
305
=
306
=
307
=
308
=
309
=
 40
0.0
 41
2458292.299790602
 42
2458295.43589
  1

 90
        0
  0
DICTIONARY
  5
198
102
{ACAD_REACTORS
330
197
102
}
330
197
100
AcDbDictionary
281
     1
  0
LAYOUT
  5
1E
102
{ACAD_REACTORS
330
1A
102
}
330
1A
100
AcDbPlotSettings
  1

  2
none_device
  4

  6

 40
0.0
 41
0.0
 42
0.0
 43
0.0
 44
0.0
 45
0.0
 46
0.0
 47
0.0
 48
0.0
 49
0.0
140
0.0
141
0.0
142
1.0
143
1.0
 70
   688
 72
     1
 73
     0
 74
     5
  7

 75
    16
147
1.0
148
0.0
149
0.0
100
AcDbLayout
  1
Layout1
 70
     1
 71
     1
 10
0.0
 20
0.0
 11
420.0
 21
297.0
 12
0.0
 22
0.0
 32
0.0
 14
1.000000000000000E+20
 24
1.000000000000000E+20
 34
1.000000000000000E+20
 15
-1.000000000000000E+20
 25
-1.000000000000000E+20
 35
-1.000000000000000E+20
146
0.0
 13
0.0
 23
0.0
 33
0.0
 16
1.0
 26
0.0
 36
0.0
 17
0.0
 27
1.0
 37
0.0
 76
     0
330
1B
  0
LAYOUT
  5
26
102
{ACAD_REACTORS
330
1A
102
}
330
1A
100
AcDbPlotSettings
  1

  2
none_device
  4

  6

 40
0.0
 41
0.0
 42
0.0
 43
0.0
 44
0.0
 45
0.0
 46
0.0
 47
0.0
 48
0.0
 49
0.0
140
0.0
141
0.0
142
1.0
143
1.0
 70
   688
 72
     1
 73
     0
 74
     5
  7

 75
    16
147
1.0
148
0.0
149
0.0
100
AcDbLayout
  1
Layout2
 70
     1
 71
     2
 10
0.0
 20
0.0
 11
0.0
 21
0.0
 12
0.0
 22
0.0
 32
0.0
 14
0.0
 24
0.0
 34
0.0
 15
0.0
 25
0.0
 35
0.0
146
0.0
 13
0.0
 23
0.0
 33
0.0
 16
1.0
 26
0.0
 36
0.0
 17
0.0
 27
1.0
 37
0.0
 76
     0
330
23
  0
LAYOUT
  5
22
102
{ACAD_REACTORS
330
1A
102
}
330
1A
100
AcDbPlotSettings
  1

  2
none_device
  4
ANSI_A_(11.00_x_8.50_Inches)
  6

 40
6.35
 41
19.05
 42
6.35000508
 43
19.05000254
 44
279.4
 45
215.9
 46
124.1385473855182
 47
74.79061570461494
 48
0.0
 49
0.0
140
0.0
141
0.0
142
0.0636622952348631
143
1.0
 70
  1696
 72
     0
 73
     0
 74
     0
  7

 75
     0
147
0.0235690232323232
148
0.0
149
0.0
100
AcDbLayout
  1
Model
 70
     1
 71
     0
 10
0.0
 20
0.0
 11
420.0
 21
297.0
 12
0.0
 22
0.0
 32
0.0
 14
-68.24000000296265
 24
-49.97073246008785
 34
0.0
 15
91.22598381534564
 25
61.74777559439124
 35
0.0
146
0.0
 13
0.0
 23
0.0
 33
0.0
 16
1.0
 26
0.0
 36
0.0
 17
0.0
 27
1.0
 37
0.0
 76
     0
330
1F
331
29
  0
MLINESTYLE
  5
18
102
{ACAD_REACTORS
330
17
102
}
330
17
100
AcDbMlineStyle
  2
Standard
 70
     0
  3

 62
   256
 51
90.0
 52
90.0
 71
     2
 49
0.5
 62
   256
  6
BYLAYER
 49
-0.5
 62
   256
  6
BYLAYER
  0
ACDBPLACEHOLDER
  5
F
102
{ACAD_REACTORS
330
E
102
}
330
E
  0
SCALE
  5
48
102
{ACAD_REACTORS
330
47
102
}
330
47
100
AcDbScale
 70
     0
300
1:1
140
1.0
141
1.0
290
     1
  0
SCALE
  5
49
102
{ACAD_REACTORS
330
47
102
}
330
47
100
AcDbScale
 70
     0
300
1:2
140
1.0
141
2.0
290
     0
  0
SCALE
  5
4A
102
{ACAD_REACTORS
330
47
102
}
330
47
100
AcDbScale
 70
     0
300
1:4
140
1.0
141
4.0
290
     0
  0
SCALE
  5
4B
102
{ACAD_REACTORS
330
47
102
}
330
47
100
AcDbScale
 70
     0
300
1:5
140
1.0
141
5.0
290
     0
  0
SCALE
  5
4C
102
{ACAD_REACTORS
330
47
102
}
330
47
100
AcDbScale
 70
     0
300
1:8
140
1.0
141
8.0
290
     0
  0
SCALE
  5
4D
102
{ACAD_REACTORS
330
47
102
}
330
47
100
AcDbScale
 70
     0
300
1:10
140
1.0
141
10.0
290
     0
  0
SCALE
  5
4E
102
{ACAD_REACTORS
330
47
102
}
330
47
100
AcDbScale
 70
     0
300
1:16
140
1.0
141
16.0
290
     0
  0
SCALE
  5
4F
102
{ACAD_REACTORS
330
47
102
}
330
47
100
AcDbScale
 70
     0
300
1:20
140
1.0
141
20.0
290
     0
  0
SCALE
  5
50
102
{ACAD_REACTORS
330
47
102
}
330
47
100
AcDbScale
 70
     0
300
1:30
140
1.0
141
30.0
290
     0
  0
SCALE
  5
51
102
{ACAD_REACTORS
330
47
102
}
330
47
100
AcDbScale
 70
     0
300
1:40
140
1.0
141
40.0
290
     0
  0
SCALE
  5
52
102
{ACAD_REACTORS
330
47
102
}
330
47
100
AcDbScale
 70
     0
300
1:50
140
1.0
141
50.0
290
     0
  0
SCALE
  5
53
102
{ACAD_REACTORS
330
47
102
}
330
47
100
AcDbScale
 70
     0
300
1:100
140
1.0
141
100.0
290
     0
  0
SCALE
  5
54
102
{ACAD_REACTORS
330
47
102
}
330
47
100
AcDbScale
 70
     0
300
2:1
140
2.0
141
1.0
290
     0
  0
SCALE
  5
55
102
{ACAD_REACTORS
330
47
102
}
330
47
100
AcDbScale
 70
     0
300
4:1
140
4.0
141
1.0
290
     0
  0
SCALE
  5
56
102
{ACAD_REACTORS
330
47
102
}
330
47
100
AcDbScale
 70
     0
300
8:1
140
8.0
141
1.0
290
     0
  0
SCALE
  5
57
102
{ACAD_REACTORS
330
47
102
}
330
47
100
AcDbScale
 70
     0
300
10:1
140
10.0
141
1.0
290
     0
  0
SCALE
  5
58
102
{ACAD_REACTORS
330
47
102
}
330
47
100
AcDbScale
 70
     0
300
100:1
140
100.0
141
1.0
290
     0
  0
SCALE
  5
59
102
{ACAD_REACTORS
330
47
102
}
330
47
100
AcDbScale
 70
     0
300
1/128" = 1'-0"
140
0.0078125
141
12.0
290
     0
  0
SCALE
  5
5A
102
{ACAD_REACTORS
330
47
102
}
330
47
100
AcDbScale
 70
     0
300
1/64" = 1'-0"
140
0.015625
141
12.0
290
     0
  0
SCALE
  5
5B
102
{ACAD_REACTORS
330
47
102
}
330
47
100
AcDbScale
 70
     0
300
1/32" = 1'-0"
140
0.03125
141
12.0
290
     0
  0
SCALE
  5
5C
102
{ACAD_REACTORS
330
47
102
}
330
47
100
AcDbScale
 70
     0
300
1/16" = 1'-0"
140
0.0625
141
12.0
290
     0
  0
SCALE
  5
5D
102
{ACAD_REACTORS
330
47
102
}
330
47
100
AcDbScale
 70
     0
300
3/32" = 1'-0"
140
0.09375
141
12.0
290
     0
  0
SCALE
  5
5E
102
{ACAD_REACTORS
330
47
102
}
330
47
100
AcDbScale
 70
     0
300
1/8" = 1'-0"
140
0.125
141
12.0
290
     0
  0
SCALE
  5
5F
102
{ACAD_REACTORS
330
47
102
}
330
47
100
AcDbScale
 70
     0
300
3/16" = 1'-0"
140
0.1875
141
12.0
290
     0
  0
SCALE
  5
60
102
{ACAD_REACTORS
330
47
102
}
330
47
100
AcDbScale
 70
     0
300
1/4" = 1'-0"
140
0.25
141
12.0
290
     0
  0
SCALE
  5
61
102
{ACAD_REACTORS
330
47
102
}
330
47
100
AcDbScale
 70
     0
300
3/8" = 1'-0"
140
0.375
141
12.0
290
     0
  0
SCALE
  5
62
102
{ACAD_REACTORS
330
47
102
}
330
47
100
AcDbScale
 70
     0
300
1/2" = 1'-0"
140
0.5
141
12.0
290
     0
  0
SCALE
  5
63
102
{ACAD_REACTORS
330
47
102
}
330
47
100
AcDbScale
 70
     0
300
3/4" = 1'-0"
140
0.75
141
12.0
290
     0
  0
SCALE
  5
64
102
{ACAD_REACTORS
330
47
102
}
330
47
100
AcDbScale
 70
     0
300
1" = 1'-0"
140
1.0
141
12.0
290
     0
  0
SCALE
  5
65
102
{ACAD_REACTORS
330
47
102
}
330
47
100
AcDbScale
 70
     0
300
1-1/2" = 1'-0"
140
1.5
141
12.0
290
     0
  0
SCALE
  5
66
102
{ACAD_REACTORS
330
47
102
}
330
47
100
AcDbScale
 70
     0
300
3" = 1'-0"
140
3.0
141
12.0
290
     0
  0
SCALE
  5
67
102
{ACAD_REACTORS
330
47
102
}
330
47
100
AcDbScale
 70
     0
300
6" = 1'-0"
140
6.0
141
12.0
290
     0
  0
SCALE
  5
68
102
{ACAD_REACTORS
330
47
102
}
330
47
100
AcDbScale
 70
     0
300
1'-0" = 1'-0"
140
12.0
141
12.0
290
     0
  0
ENDSEC
  0
EOF
