  0
SECTION
  2
HEADER
  9
$ACADVER
  1
AC1015
  9
$ACADMAINTVER
 70
     6
  9
$DWGCODEPAGE
  3
ANSI_949
  9
$INSBASE
 10
0.0
 20
0.0
 30
0.0
  9
$EXTMIN
 10
1.000000000000000E+20
 20
1.000000000000000E+20
 30
1.000000000000000E+20
  9
$EXTMAX
 10
-1.000000000000000E+20
 20
-1.000000000000000E+20
 30
-1.000000000000000E+20
  9
$LIMMIN
 10
0.0
 20
0.0
  9
$LIMMAX
 10
420.0
 20
297.0
  9
$ORTHOMODE
 70
     0
  9
$REGENMODE
 70
     1
  9
$FILLMODE
 70
     1
  9
$QTEXTMODE
 70
     0
  9
$MIRRTEXT
 70
     1
  9
$LTSCALE
 40
1.0
  9
$ATTMODE
 70
     1
  9
$TEXTSIZE
 40
3.5
  9
$TRACEWID
 40
1.0
  9
$TEXTSTYLE
  7
Standard
  9
$CLAYER
  8
0
  9
$CELTYPE
  6
ByLayer
  9
$CECOLOR
 62
   256
  9
$CELTSCALE
 40
1.0
  9
$DISPSILH
 70
     0
  9
$DIMSCALE
 40
1.0
  9
$DIMASZ
 40
3.302
  9
$DIMEXO
 40
1.0
  9
$DIMDLI
 40
3.75
  9
$DIMRND
 40
0.0
  9
$DIMDLE
 40
0.0
  9
$DIMEXE
 40
1.0
  9
$DIMTP
 40
0.0
  9
$DIMTM
 40
0.0
  9
$DIMTXT
 40
3.5
  9
$DIMCEN
 40
2.5
  9
$DIMTSZ
 40
0.0
  9
$DIMTOL
 70
     0
  9
$DIMLIM
 70
     0
  9
$DIMTIH
 70
     1
  9
$DIMTOH
 70
     1
  9
$DIMSE1
 70
     0
  9
$DIMSE2
 70
     0
  9
$DIMTAD
 70
     1
  9
$DIMZIN
 70
     0
  9
$DIMBLK
  1

  9
$DIMASO
 70
     1
  9
$DIMSHO
 70
     1
  9
$DIMPOST
  1

  9
$DIMAPOST
  1

  9
$DIMALT
 70
     0
  9
$DIMALTD
 70
     3
  9
$DIMALTF
 40
0.0393700787401575
  9
$DIMLFAC
 40
1.0
  9
$DIMTOFL
 70
     1
  9
$DIMTVP
 40
0.0
  9
$DIMTIX
 70
     0
  9
$DIMSOXD
 70
     0
  9
$DIMSAH
 70
     0
  9
$DIMBLK1
  1

  9
$DIMBLK2
  1

  9
$DIMSTYLE
  2
ISO-25
  9
$DIMCLRD
 70
     0
  9
$DIMCLRE
 70
     0
  9
$DIMCLRT
 70
     0
  9
$DIMTFAC
 40
1.0
  9
$DIMGAP
 40
1.524
  9
$DIMJUST
 70
     0
  9
$DIMSD1
 70
     0
  9
$DIMSD2
 70
     0
  9
$DIMTOLJ
 70
     0
  9
$DIMTZIN
 70
     0
  9
$DIMALTZ
 70
     0
  9
$DIMALTTZ
 70
     0
  9
$DIMUPT
 70
     0
  9
$DIMDEC
 70
     2
  9
$DIMTDEC
 70
     2
  9
$DIMALTU
 70
     2
  9
$DIMALTTD
 70
     3
  9
$DIMTXSTY
  7
Standard
  9
$DIMAUNIT
 70
     0
  9
$DIMADEC
 70
     2
  9
$DIMALTRND
 40
0.0
  9
$DIMAZIN
 70
     0
  9
$DIMDSEP
 70
    44
  9
$DIMATFIT
 70
     3
  9
$DIMFRAC
 70
     0
  9
$DIMLDRBLK
  1

  9
$DIMLUNIT
 70
     2
  9
$DIMLWD
 70
    -2
  9
$DIMLWE
 70
    -2
  9
$DIMTMOVE
 70
     0
  9
$LUNITS
 70
     2
  9
$LUPREC
 70
     2
  9
$SKETCHINC
 40
1.0
  9
$FILLETRAD
 40
10.0
  9
$AUNITS
 70
     0
  9
$AUPREC
 70
     2
  9
$MENU
  1
.
  9
$ELEVATION
 40
0.0
  9
$PELEVATION
 40
0.0
  9
$THICKNESS
 40
0.0
  9
$LIMCHECK
 70
     0
  9
$CHAMFERA
 40
0.0
  9
$CHAMFERB
 40
0.0
  9
$CHAMFERC
 40
0.0
  9
$CHAMFERD
 40
0.0
  9
$SKPOLY
 70
     0
  9
$TDCREATE
 40
2458292.674602107
  9
$TDUCREATE
 40
2458292.299602107
  9
$TDUPDATE
 40
2458295.811771204
  9
$TDUUPDATE
 40
2458295.436771204
  9
$TDINDWG
 40
0.0008755671
  9
$TDUSRTIMER
 40
2458295.43589625
  9
$USRTIMER
 70
     1
  9
$ANGBASE
 50
0.0
  9
$ANGDIR
 70
     0
  9
$PDMODE
 70
     0
  9
$PDSIZE
 40
-1.0
  9
$PLINEWID
 40
0.0
  9
$SPLFRAME
 70
     0
  9
$SPLINETYPE
 70
     6
  9
$SPLINESEGS
 70
     8
  9
$HANDSEED
  5
28B
  9
$SURFTAB1
 70
     6
  9
$SURFTAB2
 70
     6
  9
$SURFTYPE
 70
     6
  9
$SURFU
 70
     6
  9
$SURFV
 70
     6
  9
$UCSBASE
  2

  9
$UCSNAME
  2

  9
$UCSORG
 10
0.0
 20
0.0
 30
0.0
  9
$UCSXDIR
 10
1.0
 20
0.0
 30
0.0
  9
$UCSYDIR
 10
0.0
 20
1.0
 30
0.0
  9
$UCSORTHOREF
  2

  9
$UCSORTHOVIEW
 70
     0
  9
$UCSORGTOP
 10
0.0
 20
0.0
 30
0.0
  9
$UCSORGBOTTOM
 10
0.0
 20
0.0
 30
0.0
  9
$UCSORGLEFT
 10
0.0
 20
0.0
 30
0.0
  9
$UCSORGRIGHT
 10
0.0
 20
0.0
 30
0.0
  9
$UCSORGFRONT
 10
0.0
 20
0.0
 30
0.0
  9
$UCSORGBACK
 10
0.0
 20
0.0
 30
0.0
  9
$PUCSBASE
  2

  9
$PUCSNAME
  2

  9
$PUCSORG
 10
0.0
 20
0.0
 30
0.0
  9
$PUCSXDIR
 10
1.0
 20
0.0
 30
0.0
  9
$PUCSYDIR
 10
0.0
 20
1.0
 30
0.0
  9
$PUCSORTHOREF
  2

  9
$PUCSORTHOVIEW
 70
     0
  9
$PUCSORGTOP
 10
0.0
 20
0.0
 30
0.0
  9
$PUCSORGBOTTOM
 10
0.0
 20
0.0
 30
0.0
  9
$PUCSORGLEFT
 10
0.0
 20
0.0
 30
0.0
  9
$PUCSORGRIGHT
 10
0.0
 20
0.0
 30
0.0
  9
$PUCSORGFRONT
 10
0.0
 20
0.0
 30
0.0
  9
$PUCSORGBACK
 10
0.0
 20
0.0
 30
0.0
  9
$USERI1
 70
     0
  9
$USERI2
 70
     0
  9
$USERI3
 70
     0
  9
$USERI4
 70
     0
  9
$USERI5
 70
     0
  9
$USERR1
 40
0.0
  9
$USERR2
 40
0.0
  9
$USERR3
 40
0.0
  9
$USERR4
 40
0.0
  9
$USERR5
 40
0.0
  9
$WORLDVIEW
 70
     1
  9
$SHADEDGE
 70
     3
  9
$SHADEDIF
 70
    70
  9
$TILEMODE
 70
     1
  9
$MAXACTVP
 70
    64
  9
$PINSBASE
 10
0.0
 20
0.0
 30
0.0
  9
$PLIMCHECK
 70
     0
  9
$PEXTMIN
 10
1.000000000000000E+20
 20
1.000000000000000E+20
 30
1.000000000000000E+20
  9
$PEXTMAX
 10
-1.000000000000000E+20
 20
-1.000000000000000E+20
 30
-1.000000000000000E+20
  9
$PLIMMIN
 10
0.0
 20
0.0
  9
$PLIMMAX
 10
0.0
 20
0.0
  9
$UNITMODE
 70
     0
  9
$VISRETAIN
 70
     1
  9
$PLINEGEN
 70
     0
  9
$PSLTSCALE
 70
     1
  9
$TREEDEPTH
 70
  3020
  9
$CMLSTYLE
  2
Standard
  9
$CMLJUST
 70
     0
  9
$CMLSCALE
 40
20.0
  9
$PROXYGRAPHICS
 70
     1
  9
$MEASUREMENT
 70
     1
  9
$CELWEIGHT
370
    -1
  9
$ENDCAPS
280
     0
  9
$JOINSTYLE
280
     0
  9
$LWDISPLAY
290
     1
  9
$INSUNITS
 70
     4
  9
$HYPERLINKBASE
  1

  9
$STYLESHEET
  1

  9
$XEDIT
290
     1
  9
$CEPSNTYPE
380
     0
  9
$PSTYLEMODE
290
     1
  9
$FINGERPRINTGUID
  2
{96F78B21-8B5A-4F31-BCF4-5CEB22D686D0}
  9
$VERSIONGUID
  2
{FAEB1C32-E019-11D5-929B-00C0DF256EC4}
  9
$EXTNAMES
290
     1
  9
$PSVPSCALE
 40
0.0
  9
$OLESTARTUP
290
     0
  0
ENDSEC
  0
SECTION
  2
CLASSES
  0
CLASS
  1
ACDBDICTIONARYWDFLT
  2
AcDbDictionaryWithDefault
  3
ObjectDBX Classes
 90
        0
280
     0
281
     0
  0
CLASS
  1
VISUALSTYLE
  2
AcDbVisualStyle
  3
ObjectDBX Classes
 90
     4095
280
     0
281
     0
  0
CLASS
  1
MATERIAL
  2
AcDbMaterial
  3
ObjectDBX Classes
 90
     1153
280
     0
281
     0
  0
CLASS
  1
SCALE
  2
AcDbScale
  3
ObjectDBX Classes
 90
     1153
280
     0
281
     0
  0
CLASS
  1
SUN
  2
AcDbSun
  3
SCENEOE
 90
     1153
280
     0
281
     0
  0
CLASS
  1
ACDBPLACEHOLDER
  2
AcDbPlaceHolder
  3
ObjectDBX Classes
 90
        0
280
     0
281
     0
  0
CLASS
  1
LAYOUT
  2
AcDbLayout
  3
ObjectDBX Classes
 90
        0
280
     0
281
     0
  0
CLASS
  1
TABLESTYLE
  2
AcDbTableStyle
  3
ObjectDBX Classes
 90
     4095
280
     0
281
     0
  0
CLASS
  1
MLEADERSTYLE
  2
AcDbMLeaderStyle
  3
ACDB_MLEADERSTYLE_CLASS
 90
     4095
280
     0
281
     0
  0
CLASS
  1
RASTERVARIABLES
  2
AcDbRasterVariables
  3
ISM
 90
        0
280
     0
281
     0
  0
ENDSEC
  0
SECTION
  2
TABLES
  0
TABLE
  2
VPORT
  5
8
330
0
100
AcDbSymbolTable
 70
     1
  0
VPORT
  5
29
330
8
100
AcDbSymbolTableRecord
100
AcDbViewportTableRecord
  2
*Active
 70
     0
 10
0.0
 20
0.0
 11
1.0
 21
1.0
 12
20.61039305928455
 22
5.044073759390447
 13
0.0
 23
0.0
 14
10.0
 24
10.0
 15
10.0
 25
10.0
 16
0.0
 26
0.0
 36
1.0
 17
0.0
 27
0.0
 37
0.0
 40
149.2746607527481
 41
1.798434442270058
 42
50.0
 43
0.0
 44
0.0
 50
0.0
 51
0.0
 71
    16
 72
  2000
 73
     1
 74
     3
 75
     0
 76
     0
 77
     0
 78
     0
281
     0
 65
     1
110
0.0
120
0.0
130
0.0
111
1.0
121
0.0
131
0.0
112
0.0
122
1.0
132
0.0
 79
     0
146
0.0
  0
ENDTAB
  0
TABLE
  2
LTYPE
  5
5
330
0
100
AcDbSymbolTable
 70
     6
  0
LTYPE
  5
14
330
5
100
AcDbSymbolTableRecord
100
AcDbLinetypeTableRecord
  2
ByBlock
 70
     0
  3

 72
    65
 73
     0
 40
0.0
  0
LTYPE
  5
15
330
5
100
AcDbSymbolTableRecord
100
AcDbLinetypeTableRecord
  2
ByLayer
 70
     0
  3

 72
    65
 73
     0
 40
0.0
  0
LTYPE
  5
16
330
5
100
AcDbSymbolTableRecord
100
AcDbLinetypeTableRecord
  2
Continuous
 70
     0
  3
Solid line
 72
    65
 73
     0
 40
0.0
  0
LTYPE
  5
6A
330
5
100
AcDbSymbolTableRecord
100
AcDbLinetypeTableRecord
  2
HIDDEN
 70
     0
  3
Hidden __ __ __ __ __ __ __ __ __ __ __ __ __ __
 72
    65
 73
     2
 40
1.905
 49
1.27
 74
     0
 49
-0.635
 74
     0
  0
LTYPE
  5
6B
330
5
100
AcDbSymbolTableRecord
100
AcDbLinetypeTableRecord
  2
PHANTOM
 70
     0
  3
Phantom ______  __  __  ______  __  __  ______
 72
    65
 73
     6
 40
12.7
 49
6.35
 74
     0
 49
-1.27
 74
     0
 49
1.27
 74
     0
 49
-1.27
 74
     0
 49
1.27
 74
     0
 49
-1.27
 74
     0
  0
LTYPE
  5
6C
330
5
100
AcDbSymbolTableRecord
100
AcDbLinetypeTableRecord
  2
CENTER
 70
     0
  3
Center ____ _ ____ _ ____ _ ____ _ ____ _ ____
 72
    65
 73
     4
 40
10.16
 49
6.35
 74
     0
 49
-1.27
 74
     0
 49
1.27
 74
     0
 49
-1.27
 74
     0
  0
LTYPE
  5
6D
330
5
100
AcDbSymbolTableRecord
100
AcDbLinetypeTableRecord
  2
CENTERX2
 70
     0
  3
Center (2x) ________  __  ________  __  _____
 72
    65
 73
     4
 40
20.32
 49
12.7
 74
     0
 49
-2.54
 74
     0
 49
2.54
 74
     0
 49
-2.54
 74
     0
  0
LTYPE
  5
6E
330
5
100
AcDbSymbolTableRecord
100
AcDbLinetypeTableRecord
  2
DOT2
 70
     0
  3
Dot (.5x) ........................................
 72
    65
 73
     2
 40
0.635
 49
0.0
 74
     0
 49
-0.635
 74
     0
  0
ENDTAB
  0
TABLE
  2
LAYER
  5
2
102
{ACAD_XDICTIONARY
360
22B
102
}
330
0
100
AcDbSymbolTable
 70
    18
  0
LAYER
  5
10
330
2
100
AcDbSymbolTableRecord
100
AcDbLayerTableRecord
  2
0
 70
     0
 62
     7
  6
Continuous
370
    -3
390
F
  0
LAYER
  5
6F
330
2
100
AcDbSymbolTableRecord
100
AcDbLayerTableRecord
  2
FORMAT
 70
     0
 62
     2
  6
Continuous
370
    -3
390
F
  0
LAYER
  5
70
330
2
100
AcDbSymbolTableRecord
100
AcDbLayerTableRecord
  2
외형선
 70
     0
 62
     4
  6
Continuous
370
    30
390
F
  0
LAYER
  5
71
330
2
100
AcDbSymbolTableRecord
100
AcDbLayerTableRecord
  2
숨은선
 70
     0
 62
     2
  6
HIDDEN
370
    15
390
F
  0
LAYER
  5
72
330
2
100
AcDbSymbolTableRecord
100
AcDbLayerTableRecord
  2
중심선
 70
     0
 62
     1
  6
CENTERX2
370
    -3
390
F
  0
LAYER
  5
73
330
2
100
AcDbSymbolTableRecord
100
AcDbLayerTableRecord
  2
파단선
 70
     0
 62
     4
  6
Continuous
370
    -3
390
F
  0
LAYER
  5
74
330
2
100
AcDbSymbolTableRecord
100
AcDbLayerTableRecord
  2
해칭선
 70
     0
 62
   100
  6
Continuous
370
    -3
390
F
  0
LAYER
  5
75
330
2
100
AcDbSymbolTableRecord
100
AcDbLayerTableRecord
  2
가는실선
 70
     0
 62
     4
  6
Continuous
370
    -3
390
F
  0
LAYER
  5
76
330
2
100
AcDbSymbolTableRecord
100
AcDbLayerTableRecord
  2
치수_보조선
 70
     0
 62
     4
  6
Continuous
370
    -3
390
F
  0
LAYER
  5
77
330
2
100
AcDbSymbolTableRecord
100
AcDbLayerTableRecord
  2
치수문자_일반주서
 70
     0
 62
     7
  6
Continuous
370
    15
390
F
  0
LAYER
  5
78
330
2
100
AcDbSymbolTableRecord
100
AcDbLayerTableRecord
  2
개별주서
 70
     0
 62
   100
  6
Continuous
370
    30
390
F
  0
LAYER
  5
79
330
2
100
AcDbSymbolTableRecord
100
AcDbLayerTableRecord
  2
중간선
 70
     0
 62
     2
  6
Continuous
370
    15
390
F
  0
LAYER
  5
7A
330
2
100
AcDbSymbolTableRecord
100
AcDbLayerTableRecord
  2
윤곽선
 70
     0
 62
     3
  6
Continuous
370
    40
390
F
  0
LAYER
  5
7B
330
2
100
AcDbSymbolTableRecord
100
AcDbLayerTableRecord
  2
중심마크
 70
     0
 62
   100
  6
Continuous
370
    30
390
F
  0
LAYER
  5
7C
330
2
100
AcDbSymbolTableRecord
100
AcDbLayerTableRecord
  2
가상선
 70
     0
 62
     4
  6
PHANTOM
370
    -3
390
F
  0
LAYER
  5
7D
330
2
100
AcDbSymbolTableRecord
100
AcDbLayerTableRecord
  2
특수지정선
 70
     0
 62
     5
  6
CENTERX2
370
    60
390
F
  0
LAYER
  5
7E
330
2
100
AcDbSymbolTableRecord
100
AcDbLayerTableRecord
  2
참조1
 70
     0
 62
    -4
  6
Continuous
370
    -3
390
F
  0
LAYER
  5
177
330
2
100
AcDbSymbolTableRecord
100
AcDbLayerTableRecord
  2
Defpoints
 70
     0
 62
     7
  6
Continuous
290
     0
370
    -3
390
F
  0
ENDTAB
  0
TABLE
  2
STYLE
  5
3
330
0
100
AcDbSymbolTable
 70
     2
  0
STYLE
  5
11
330
3
100
AcDbSymbolTableRecord
100
AcDbTextStyleTableRecord
  2
Standard
 70
     0
 40
0.0
 41
1.0
 50
0.0
 71
     0
 42
3.5
  3
txt
  4

  0
STYLE
  5
94
330
3
100
AcDbSymbolTableRecord
100
AcDbTextStyleTableRecord
  2
SLDTEXTSTYLE0
 70
     0
 40
0.0
 41
0.75
 50
0.0
 71
     0
 42
3.5
  3
TXT
  4

  0
ENDTAB
  0
TABLE
  2
VIEW
  5
6
330
0
100
AcDbSymbolTable
 70
     0
  0
ENDTAB
  0
TABLE
  2
UCS
  5
7
330
0
100
AcDbSymbolTable
 70
     0
  0
ENDTAB
  0
TABLE
  2
APPID
  5
9
330
0
100
AcDbSymbolTable
 70
     1
  0
APPID
  5
12
330
9
100
AcDbSymbolTableRecord
100
AcDbRegAppTableRecord
  2
ACAD
 70
     0
  0
ENDTAB
  0
TABLE
  2
DIMSTYLE
  5
A
330
0
100
AcDbSymbolTable
 70
     4
100
AcDbDimStyleTable
  0
DIMSTYLE
105
27
330
A
100
AcDbSymbolTableRecord
100
AcDbDimStyleTableRecord
  2
ISO-25
 70
     0
 41
2.5
 42
0.625
 43
3.75
 44
1.25
 73
     0
 74
     0
 77
     1
 78
     8
140
2.5
141
2.5
143
0.03937007874016
147
0.625
171
     3
172
     1
178
     0
271
     2
272
     2
274
     3
278
    44
283
     0
284
     8
340
11
  0
DIMSTYLE
105
F4
102
{ACAD_REACTORS
330
F3
330
130
330
1E2
330
1EF
330
1FC
330
209
330
108
330
11C
102
}
330
A
100
AcDbSymbolTableRecord
100
AcDbDimStyleTableRecord
  2
SLDDIMSTYLE0
 70
     0
 41
3.302
 44
0.0
 45
0.000000001
 73
     0
 74
     0
 77
     1
 78
    12
 79
     3
140
3.5
143
0.0393700787401575
147
0.875
148
0.000000001
170
     1
172
     1
173
     1
178
     0
271
     2
272
     2
276
     2
284
    12
289
     0
340
94
  0
DIMSTYLE
105
109
330
A
100
AcDbSymbolTableRecord
100
AcDbDimStyleTableRecord
  2
SLDDIMSTYLE1
 70
     0
 41
3.302
 44
0.0
 45
0.000000001
 73
     0
 74
     0
 77
     1
 78
     4
 79
     1
140
3.5
143
0.0393700787401575
147
0.875
148
0.000000001
170
     1
173
     1
178
     0
271
     2
272
     2
276
     2
284
    12
340
94
  0
DIMSTYLE
105
11D
330
A
100
AcDbSymbolTableRecord
100
AcDbDimStyleTableRecord
  2
SLDDIMSTYLE2
 70
     0
 41
3.302
 44
0.0
 45
0.000000001
 73
     0
 74
     0
 77
     1
 78
    12
 79
     3
140
3.5
143
0.0393700787401575
147
0.875
148
0.000000001
170
     1
173
     1
178
     0
271
     2
272
     2
276
     2
284
    12
340
94
  0
ENDTAB
  0
TABLE
  2
BLOCK_RECORD
  5
1
330
0
100
AcDbSymbolTable
 70
    13
  0
BLOCK_RECORD
  5
1F
330
1
100
AcDbSymbolTableRecord
100
AcDbBlockTableRecord
  2
*Model_Space
340
22
  0
BLOCK_RECORD
  5
1B
330
1
100
AcDbSymbolTableRecord
100
AcDbBlockTableRecord
  2
*Paper_Space
340
1E
  0
BLOCK_RECORD
  5
23
330
1
100
AcDbSymbolTableRecord
100
AcDbBlockTableRecord
  2
*Paper_Space0
340
26
  0
BLOCK_RECORD
  5
7F
330
1
100
AcDbSymbolTableRecord
100
AcDbBlockTableRecord
  2
블럭10
340
0
102
{BLKREFS
331
EC
102
}
  0
BLOCK_RECORD
  5
F5
330
1
100
AcDbSymbolTableRecord
100
AcDbBlockTableRecord
  2
_D
340
0
  0
BLOCK_RECORD
  5
10A
330
1
100
AcDbSymbolTableRecord
100
AcDbBlockTableRecord
  2
_D_1
340
0
  0
BLOCK_RECORD
  5
11E
330
1
100
AcDbSymbolTableRecord
100
AcDbBlockTableRecord
  2
_D_2
340
0
  0
BLOCK_RECORD
  5
131
330
1
100
AcDbSymbolTableRecord
100
AcDbBlockTableRecord
  2
_D_3
340
0
  0
BLOCK_RECORD
  5
14B
330
1
100
AcDbSymbolTableRecord
100
AcDbBlockTableRecord
  2
SW_DOWELSYMBOL_0
340
0
102
{BLKREFS
331
151
331
216
102
}
  0
BLOCK_RECORD
  5
22F
330
1
100
AcDbSymbolTableRecord
100
AcDbBlockTableRecord
  2
*D8
340
0
  0
BLOCK_RECORD
  5
23B
330
1
100
AcDbSymbolTableRecord
100
AcDbBlockTableRecord
  2
*D9
340
0
  0
BLOCK_RECORD
  5
247
330
1
100
AcDbSymbolTableRecord
100
AcDbBlockTableRecord
  2
*D10
340
0
  0
BLOCK_RECORD
  5
253
330
1
100
AcDbSymbolTableRecord
100
AcDbBlockTableRecord
  2
*D11
340
0
  0
ENDTAB
  0
ENDSEC
  0
SECTION
  2
BLOCKS
  0
BLOCK
  5
20
330
1F
100
AcDbEntity
  8
0
100
AcDbBlockBegin
  2
*Model_Space
 70
     0
 10
0.0
 20
0.0
 30
0.0
  3
*Model_Space
  1
*Model_Space
  0
ENDBLK
  5
21
330
1F
100
AcDbEntity
  8
0
100
AcDbBlockEnd
  0
BLOCK
  5
1C
330
1B
100
AcDbEntity
 67
     1
  8
0
100
AcDbBlockBegin
  2
*Paper_Space
 70
     0
 10
0.0
 20
0.0
 30
0.0
  3
*Paper_Space
  1
*Paper_Space
  0
ENDBLK
  5
1D
330
1B
100
AcDbEntity
 67
     1
  8
0
100
AcDbBlockEnd
  0
BLOCK
  5
24
330
23
100
AcDbEntity
  8
0
100
AcDbBlockBegin
  2
*Paper_Space0
 70
     0
 10
0.0
 20
0.0
 30
0.0
  3
*Paper_Space0
  1
*Paper_Space0
  0
ENDBLK
  5
25
330
23
100
AcDbEntity
  8
0
100
AcDbBlockEnd
  0
BLOCK
  5
80
330
7F
100
AcDbEntity
  8
0
100
AcDbBlockBegin
  2
블럭10
 70
     2
 10
0.0
 20
0.0
 30
0.0
  3
블럭10
  1
블럭10
  0
ELLIPSE
  5
82
330
7F
100
AcDbEntity
  8
중심선
100
AcDbEllipse
 10
20.54032771741204
 20
12.0471743016438
 30
0.0
 11
6.600054785286829
 21
-1.261213355974178E-13
 31
0.0
210
0.0
220
0.0
230
1.0
 40
0.636358354079598
 41
0.9219305317359503
 42
6.513795318482858
  0
ELLIPSE
  5
83
330
7F
100
AcDbEntity
  8
중심선
100
AcDbEllipse
 10
20.54032771746488
 20
12.04717430159265
 30
0.0
 11
3.960054785062283
 21
1.540847449632565E-10
 31
0.0
210
0.0
220
0.0
230
1.0
 40
0.3939339440162632
 41
1.131841032648279
 42
5.62031148352944
  0
LINE
  5
84
330
7F
100
AcDbEntity
  8
중심선
100
AcDbLine
 10
2.268634060543552
 20
16.24717430164393
 30
0.0
 11
5.714909304380834
 21
16.24717430164393
 31
0.0
  0
LINE
  5
85
330
7F
100
AcDbEntity
  8
중심선
100
AcDbLine
 10
5.245725140726316
 20
7.84717430164391
 30
0.0
 11
8.692000384563599
 21
7.84717430164391
 31
0.0
  0
LINE
  5
86
330
7F
100
AcDbEntity
  8
중심선
100
AcDbLine
 10
15.74043728645272
 20
16.24717430164393
 30
0.0
 11
8.692000384563599
 21
7.84717430164391
 31
0.0
  0
LINE
  5
87
330
7F
100
AcDbEntity
  8
중심선
100
AcDbLine
 10
0.1404042013395286
 20
13.71084872107135
 30
0.0
 11
3.58671253028996
 21
13.71088815037384
 31
0.0
  0
LINE
  5
88
330
7F
100
AcDbEntity
  8
중심선
100
AcDbLine
 10
2.750260043222114
 20
10.84717430164391
 30
0.0
 11
6.196535287059397
 21
10.84717430164391
 31
0.0
  0
LINE
  5
89
330
7F
100
AcDbEntity
  8
중심선
100
AcDbLine
 10
12.29416204261559
 20
16.24717430164393
 30
0.0
 11
5.245725140726316
 21
7.84717430164391
 31
0.0
  0
LINE
  5
8A
330
7F
100
AcDbEntity
  8
중심선
100
AcDbLine
 10
10.72767329541681
 20
16.24717430164393
 30
0.0
 11
6.196535287059397
 21
10.84717430164391
 31
0.0
  0
LINE
  5
8B
330
7F
100
AcDbEntity
  8
중심선
100
AcDbLine
 10
7.28139805157953
 20
16.24717430164393
 30
0.0
 11
2.750260043222114
 21
10.84717430164391
 31
0.0
  0
LINE
  5
8C
330
7F
100
AcDbEntity
  8
중심선
100
AcDbLine
 10
5.714909304380834
 20
16.24717430164393
 30
0.0
 11
3.58671253028996
 21
13.71088815037384
 31
0.0
  0
LINE
  5
8D
330
7F
100
AcDbEntity
  8
중심선
100
AcDbLine
 10
2.268634060543552
 20
16.24717430164393
 30
0.0
 11
0.1404042013395286
 21
13.71084872107135
 31
0.0
  0
LINE
  5
8E
330
7F
100
AcDbEntity
  8
중심선
100
AcDbLine
 10
7.28139805157953
 20
16.24717430164393
 30
0.0
 11
10.72767329541681
 21
16.24717430164393
 31
0.0
  0
LINE
  5
8F
330
7F
100
AcDbEntity
  8
중심선
100
AcDbLine
 10
12.29416204261559
 20
16.24717430164393
 30
0.0
 11
15.74043728645272
 21
16.24717430164393
 31
0.0
  0
LINE
  5
90
330
7F
100
AcDbEntity
  8
중심선
100
AcDbLine
 10
19.22036997980202
 20
11.08717430171403
 30
0.0
 11
23.66174974927406
 21
11.08717430171406
 31
0.0
  0
LINE
  5
91
330
7F
100
AcDbEntity
  8
중심선
100
AcDbLine
 10
19.22039502424796
 20
13.00717430171391
 30
0.0
 11
19.22036997980202
 21
11.08717430171403
 31
0.0
  0
LINE
  5
92
330
7F
100
AcDbEntity
  8
중심선
100
AcDbLine
 10
19.22039502424796
 20
13.00717430171391
 30
0.0
 11
26.96566020931264
 21
13.00717430171391
 31
0.0
  0
LINE
  5
93
330
7F
100
AcDbEntity
  8
중심선
100
AcDbLine
 10
22.22332737316547
 20
13.45928029700563
 30
0.0
 11
24.52862924686651
 21
15.39360700705356
 31
0.0
  0
ATTDEF
  5
95
330
7F
100
AcDbEntity
  8
FORMAT
 62
     2
100
AcDbText
 10
3.448148490846466
 20
2.075366912832191
 30
0.0
 40
4.233333333333333
  1
EM208048
 41
0.75
  7
SLDTEXTSTYLE0
 11
3.448148490846466
 21
-0.0412997538344756
 31
0.0
100
AcDbAttributeDefinition
  3

  2
AUTOATTR0
 70
     0
 74
     1
  0
ENDBLK
  5
81
330
7F
100
AcDbEntity
  8
0
100
AcDbBlockEnd
  0
BLOCK
  5
F6
330
F5
100
AcDbEntity
  8
0
100
AcDbBlockBegin
  2
_D
 70
     0
 10
0.0
 20
0.0
 30
0.0
  3
_D
  1
_D
  0
LINE
  5
F8
330
F5
100
AcDbEntity
  8
치수문자_일반주서
 62
     0
370
    -2
100
AcDbLine
 10
50.160326609364
 20
-9.617139012922996
 30
0.0
 11
69.09782660936405
 21
-9.617139012922925
 31
0.0
  0
LINE
  5
F9
330
F5
100
AcDbEntity
  8
치수문자_일반주서
 62
     0
370
    -2
100
AcDbLine
 10
50.160326609364
 20
9.432860987077005
 30
0.0
 11
69.09782660936398
 21
9.432860987077076
 31
0.0
  0
LINE
  5
FA
330
F5
100
AcDbEntity
  8
치수문자_일반주서
 62
     0
370
    -2
100
AcDbLine
 10
69.09782660936403
 20
-6.315139012922925
 30
0.0
 11
69.09782660936399
 21
6.130860987077076
 31
0.0
  0
SOLID
  5
FB
330
F5
100
AcDbEntity
  8
치수문자_일반주서
 62
     0
100
AcDbTrace
 10
68.5474932760307
 20
-6.315139012922927
 30
0.0
 11
69.64815994269736
 21
-6.315139012922923
 31
0.0
 12
69.09782660936405
 22
-9.617139012922925
 32
0.0
 13
69.09782660936405
 23
-9.617139012922925
 33
0.0
  0
SOLID
  5
FC
330
F5
100
AcDbEntity
  8
치수문자_일반주서
 62
     0
100
AcDbTrace
 10
69.64815994269732
 20
6.130860987077078
 30
0.0
 11
68.54749327603066
 21
6.130860987077074
 31
0.0
 12
69.09782660936398
 22
9.432860987077076
 32
0.0
 13
69.09782660936398
 23
9.432860987077076
 33
0.0
  0
MTEXT
  5
FD
330
F5
100
AcDbEntity
  8
치수문자_일반주서
 62
     0
100
AcDbMText
 10
64.72282660936402
 20
-0.0921390129230104
 30
0.0
 40
3.5
 41
0.0
 71
     2
 72
     1
  1
\A1;%%c19.05 [3/4]
  7
SLDTEXTSTYLE0
 11
-3.729883127349607E-15
 21
1.0
 31
0.0
 73
     1
 44
1.0
  0
POINT
  5
FE
330
F5
100
AcDbEntity
  8
Defpoints
 62
     0
100
AcDbPoint
 10
50.097826609364
 20
-9.617139012922996
 30
0.0
  0
POINT
  5
FF
330
F5
100
AcDbEntity
  8
Defpoints
 62
     0
100
AcDbPoint
 10
50.097826609364
 20
9.432860987077005
 30
0.0
  0
POINT
  5
100
330
F5
100
AcDbEntity
  8
Defpoints
 62
     0
100
AcDbPoint
 10
69.09782660936398
 20
9.432860987077076
 30
0.0
  0
ENDBLK
  5
F7
330
F5
100
AcDbEntity
  8
0
100
AcDbBlockEnd
  0
BLOCK
  5
10B
330
10A
100
AcDbEntity
  8
0
100
AcDbBlockBegin
  2
_D_1
 70
     0
 10
0.0
 20
0.0
 30
0.0
  3
_D_1
  1
_D_1
  0
LINE
  5
10D
330
10A
100
AcDbEntity
  8
치수문자_일반주서
 62
     0
370
    -2
100
AcDbLine
 10
50.097826609364
 20
9.495360987077007
 30
0.0
 11
50.097826609364
 21
38.47737766869759
 31
0.0
  0
LINE
  5
10E
330
10A
100
AcDbEntity
  8
치수문자_일반주서
 62
     0
370
    -2
100
AcDbLine
 10
11.997826609364
 20
9.495360987077005
 30
0.0
 11
11.997826609364
 21
38.47737766869759
 31
0.0
  0
LINE
  5
10F
330
10A
100
AcDbEntity
  8
치수문자_일반주서
 62
     0
370
    -2
100
AcDbLine
 10
46.795826609364
 20
38.47737766869759
 30
0.0
 11
15.299826609364
 21
38.47737766869759
 31
0.0
  0
SOLID
  5
110
330
10A
100
AcDbEntity
  8
치수문자_일반주서
 62
     0
100
AcDbTrace
 10
46.795826609364
 20
37.92704433536426
 30
0.0
 11
46.795826609364
 21
39.02771100203093
 31
0.0
 12
50.097826609364
 22
38.47737766869759
 32
0.0
 13
50.097826609364
 23
38.47737766869759
 33
0.0
  0
SOLID
  5
111
330
10A
100
AcDbEntity
  8
치수문자_일반주서
 62
     0
100
AcDbTrace
 10
15.299826609364
 20
39.02771100203093
 30
0.0
 11
15.299826609364
 21
37.92704433536426
 31
0.0
 12
11.997826609364
 22
38.47737766869759
 32
0.0
 13
11.997826609364
 23
38.47737766869759
 33
0.0
  0
MTEXT
  5
112
330
10A
100
AcDbEntity
  8
치수문자_일반주서
 62
     0
100
AcDbMText
 10
31.047826609364
 20
42.85237766869759
 30
0.0
 40
3.5
 41
0.0
 71
     2
 72
     1
  1
\A1;38.1 [1 1/2]
  7
SLDTEXTSTYLE0
 73
     1
 44
1.0
  0
POINT
  5
113
330
10A
100
AcDbEntity
  8
Defpoints
 62
     0
100
AcDbPoint
 10
50.097826609364
 20
9.432860987077007
 30
0.0
  0
POINT
  5
114
330
10A
100
AcDbEntity
  8
Defpoints
 62
     0
100
AcDbPoint
 10
11.997826609364
 20
9.432860987077005
 30
0.0
  0
POINT
  5
115
330
10A
100
AcDbEntity
  8
Defpoints
 62
     0
100
AcDbPoint
 10
11.997826609364
 20
38.47737766869759
 30
0.0
  0
ENDBLK
  5
10C
330
10A
100
AcDbEntity
  8
0
100
AcDbBlockEnd
  0
BLOCK
  5
11F
330
11E
100
AcDbEntity
  8
0
100
AcDbBlockBegin
  2
_D_2
 70
     0
 10
0.0
 20
0.0
 30
0.0
  3
_D_2
  1
_D_2
  0
LINE
  5
121
330
11E
100
AcDbEntity
  8
치수문자_일반주서
 62
     0
370
    -2
100
AcDbLine
 10
50.097826609364
 20
9.495360987077007
 30
0.0
 11
50.097826609364
 21
54.10467051182895
 31
0.0
  0
LINE
  5
122
330
11E
100
AcDbEntity
  8
치수문자_일반주서
 62
     0
370
    -2
100
AcDbLine
 10
-54.67717339063601
 20
7.590360987077011
 30
0.0
 11
-54.67717339063601
 21
54.10467051182895
 31
0.0
  0
LINE
  5
123
330
11E
100
AcDbEntity
  8
치수문자_일반주서
 62
     0
370
    -2
100
AcDbLine
 10
46.795826609364
 20
54.10467051182895
 30
0.0
 11
-51.37517339063601
 21
54.10467051182895
 31
0.0
  0
SOLID
  5
124
330
11E
100
AcDbEntity
  8
치수문자_일반주서
 62
     0
100
AcDbTrace
 10
46.795826609364
 20
53.55433717849562
 30
0.0
 11
46.795826609364
 21
54.65500384516228
 31
0.0
 12
50.097826609364
 22
54.10467051182895
 32
0.0
 13
50.097826609364
 23
54.10467051182895
 33
0.0
  0
SOLID
  5
125
330
11E
100
AcDbEntity
  8
치수문자_일반주서
 62
     0
100
AcDbTrace
 10
-51.37517339063601
 20
54.65500384516228
 30
0.0
 11
-51.37517339063601
 21
53.55433717849562
 31
0.0
 12
-54.67717339063601
 22
54.10467051182895
 32
0.0
 13
-54.67717339063601
 23
54.10467051182895
 33
0.0
  0
MTEXT
  5
126
330
11E
100
AcDbEntity
  8
치수문자_일반주서
 62
     0
100
AcDbMText
 10
-2.289673390636003
 20
58.47967051182895
 30
0.0
 40
3.5
 41
0.0
 71
     2
 72
     1
  1
\A1;104.78 [4 1/8]
  7
SLDTEXTSTYLE0
 73
     1
 44
1.0
  0
POINT
  5
127
330
11E
100
AcDbEntity
  8
Defpoints
 62
     0
100
AcDbPoint
 10
50.097826609364
 20
9.432860987077007
 30
0.0
  0
POINT
  5
128
330
11E
100
AcDbEntity
  8
Defpoints
 62
     0
100
AcDbPoint
 10
-54.67717339063601
 20
7.527860987077011
 30
0.0
  0
POINT
  5
129
330
11E
100
AcDbEntity
  8
Defpoints
 62
     0
100
AcDbPoint
 10
-54.67717339063601
 20
54.10467051182895
 30
0.0
  0
ENDBLK
  5
120
330
11E
100
AcDbEntity
  8
0
100
AcDbBlockEnd
  0
BLOCK
  5
132
330
131
100
AcDbEntity
  8
0
100
AcDbBlockBegin
  2
_D_3
 70
     0
 10
0.0
 20
0.0
 30
0.0
  3
_D_3
  1
_D_3
  0
LINE
  5
134
330
131
100
AcDbEntity
  8
치수문자_일반주서
 62
     0
370
    -2
100
AcDbLine
 10
-52.83467339063602
 20
9.43286098707701
 30
0.0
 11
-67.67717339063606
 21
9.432860987076955
 31
0.0
  0
LINE
  5
135
330
131
100
AcDbEntity
  8
치수문자_일반주서
 62
     0
370
    -2
100
AcDbLine
 10
-52.83467339063602
 20
-9.617139012923001
 30
0.0
 11
-67.67717339063599
 21
-9.617139012923056
 31
0.0
  0
LINE
  5
136
330
131
100
AcDbEntity
  8
치수문자_일반주서
 62
     0
370
    -2
100
AcDbLine
 10
-67.67717339063604
 20
6.130860987076955
 30
0.0
 11
-67.677173390636
 21
-6.315139012923057
 31
0.0
  0
SOLID
  5
137
330
131
100
AcDbEntity
  8
치수문자_일반주서
 62
     0
100
AcDbTrace
 10
-67.12684005730272
 20
6.130860987076957
 30
0.0
 11
-68.22750672396937
 21
6.130860987076954
 31
0.0
 12
-67.67717339063606
 22
9.432860987076955
 32
0.0
 13
-67.67717339063606
 23
9.432860987076955
 33
0.0
  0
SOLID
  5
138
330
131
100
AcDbEntity
  8
치수문자_일반주서
 62
     0
100
AcDbTrace
 10
-68.22750672396933
 20
-6.315139012923058
 30
0.0
 11
-67.12684005730267
 21
-6.315139012923055
 31
0.0
 12
-67.67717339063599
 22
-9.617139012923056
 32
0.0
 13
-67.67717339063599
 23
-9.617139012923056
 33
0.0
  0
MTEXT
  5
139
330
131
100
AcDbEntity
  8
치수문자_일반주서
 62
     0
100
AcDbMText
 10
-72.05217339063603
 20
-0.0921390129230046
 30
0.0
 40
3.5
 41
0.0
 71
     2
 72
     1
  1
\A1;%%c19.05 [3/4]
  7
SLDTEXTSTYLE0
 11
-3.729883127349605E-15
 21
1.0
 31
0.0
 73
     1
 44
1.0
  0
POINT
  5
13A
330
131
100
AcDbEntity
  8
Defpoints
 62
     0
100
AcDbPoint
 10
-52.77217339063602
 20
9.43286098707701
 30
0.0
  0
POINT
  5
13B
330
131
100
AcDbEntity
  8
Defpoints
 62
     0
100
AcDbPoint
 10
-52.77217339063602
 20
-9.617139012923001
 30
0.0
  0
POINT
  5
13C
330
131
100
AcDbEntity
  8
Defpoints
 62
     0
100
AcDbPoint
 10
-67.67717339063599
 20
-9.617139012923056
 30
0.0
  0
ENDBLK
  5
133
330
131
100
AcDbEntity
  8
0
100
AcDbBlockEnd
  0
BLOCK
  5
14C
330
14B
100
AcDbEntity
  8
0
100
AcDbBlockBegin
  2
SW_DOWELSYMBOL_0
 70
     0
 10
0.0
 20
0.0
 30
0.0
  3
SW_DOWELSYMBOL_0
  1
SW_DOWELSYMBOL_0
  0
CIRCLE
  5
14E
330
14B
100
AcDbEntity
  8
해칭선
 62
     0
100
AcDbCircle
 10
0.0
 20
0.0
 30
0.0
 40
3.000000000000001
  0
HATCH
  5
14F
330
14B
100
AcDbEntity
  8
0
  6
Continuous
 62
     0
370
     0
100
AcDbHatch
 10
0.0
 20
0.0
 30
0.0
210
0.0
220
0.0
230
1.0
  2
SOLID
 70
     1
 71
     0
 91
        1
 92
        0
 93
        3
 72
     2
 10
-0.0000000000000069
 20
0.0
 40
3.000000000000001
 50
0.0
 51
90.0
 73
     1
 72
     1
 10
-0.0000000000000069
 20
3.000000000000001
 11
-0.0000000000000069
 21
0.0
 72
     1
 10
-0.0000000000000069
 20
0.0
 11
2.999999999999994
 21
0.0
 97
        0
 75
     0
 76
     1
 98
        1
 10
0.0
 20
0.0
  0
HATCH
  5
150
330
14B
100
AcDbEntity
  8
0
  6
Continuous
 62
     0
370
     0
100
AcDbHatch
 10
0.0
 20
0.0
 30
0.0
210
0.0
220
0.0
230
1.0
  2
SOLID
 70
     1
 71
     0
 91
        1
 92
        0
 93
        3
 72
     2
 10
-0.0000000000000069
 20
0.0
 40
3.000000000000001
 50
180.0
 51
270.0000000000008
 73
     1
 72
     1
 10
-0.0000000000000069
 20
-3.000000000000001
 11
-0.0000000000000069
 21
0.0
 72
     1
 10
-0.0000000000000069
 20
0.0
 11
-3.000000000000008
 21
0.0
 97
        0
 75
     0
 76
     1
 98
        1
 10
0.0
 20
0.0
  0
ENDBLK
  5
14D
330
14B
100
AcDbEntity
  8
0
100
AcDbBlockEnd
  0
BLOCK
  5
230
330
22F
100
AcDbEntity
  8
0
100
AcDbBlockBegin
  2
*D8
 70
     1
 10
0.0
 20
0.0
 30
0.0
  3
*D8
  1
*D8
  0
LINE
  5
232
330
22F
100
AcDbEntity
  8
치수문자_일반주서
 62
     0
370
    -2
100
AcDbLine
 10
124.7525000000001
 20
0.0399529976920763
 30
0.0
 11
151.1238156024209
 21
0.0399529976921755
 31
0.0
  0
LINE
  5
233
330
22F
100
AcDbEntity
  8
치수문자_일반주서
 62
     0
370
    -2
100
AcDbLine
 10
124.7525000000001
 20
25.43995299769208
 30
0.0
 11
151.1238156024208
 21
25.43995299769218
 31
0.0
  0
LINE
  5
234
330
22F
100
AcDbEntity
  8
치수문자_일반주서
 62
     0
370
    -2
100
AcDbLine
 10
151.1238156024209
 20
3.341952997692175
 30
0.0
 11
151.1238156024208
 21
22.13795299769218
 31
0.0
  0
SOLID
  5
235
330
22F
100
AcDbEntity
  8
치수문자_일반주서
 62
     0
100
AcDbTrace
 10
150.5734822690875
 20
3.341952997692173
 30
0.0
 11
151.6741489357542
 21
3.341952997692177
 31
0.0
 12
151.1238156024209
 22
0.0399529976921755
 32
0.0
 13
151.1238156024209
 23
0.0399529976921755
 33
0.0
  0
SOLID
  5
236
330
22F
100
AcDbEntity
  8
치수문자_일반주서
 62
     0
100
AcDbTrace
 10
151.6741489357541
 20
22.13795299769218
 30
0.0
 11
150.5734822690875
 21
22.13795299769217
 31
0.0
 12
151.1238156024208
 22
25.43995299769218
 32
0.0
 13
151.1238156024208
 23
25.43995299769218
 33
0.0
  0
MTEXT
  5
237
330
22F
100
AcDbEntity
  8
치수문자_일반주서
 62
     0
100
AcDbMText
 10
146.7488156024208
 20
12.73995299769216
 30
0.0
 40
3.5
 41
0.0
 71
     2
 72
     1
  1
\A1;%%c25.4 [1]
  7
SLDTEXTSTYLE0
 11
-3.356894814614646E-15
 21
1.0
 31
0.0
 73
     1
 44
1.0
  0
POINT
  5
238
330
22F
100
AcDbEntity
  8
Defpoints
 62
     0
100
AcDbPoint
 10
124.6900000000001
 20
0.0399529976920761
 30
0.0
  0
POINT
  5
239
330
22F
100
AcDbEntity
  8
Defpoints
 62
     0
100
AcDbPoint
 10
124.6900000000001
 20
25.43995299769208
 30
0.0
  0
POINT
  5
23A
330
22F
100
AcDbEntity
  8
Defpoints
 62
     0
100
AcDbPoint
 10
151.1238156024208
 20
25.43995299769218
 30
0.0
  0
ENDBLK
  5
231
330
22F
100
AcDbEntity
  8
0
100
AcDbBlockEnd
  0
BLOCK
  5
23C
330
23B
100
AcDbEntity
  8
0
100
AcDbBlockBegin
  2
*D9
 70
     1
 10
0.0
 20
0.0
 30
0.0
  3
*D9
  1
*D9
  0
LINE
  5
23E
330
23B
100
AcDbEntity
  8
치수문자_일반주서
 62
     0
370
    -2
100
AcDbLine
 10
124.6900000000001
 20
25.50245299769208
 30
0.0
 11
124.6900000000001
 21
54.48446967931267
 31
0.0
  0
LINE
  5
23F
330
23B
100
AcDbEntity
  8
치수문자_일반주서
 62
     0
370
    -2
100
AcDbLine
 10
80.24000000000007
 20
25.49463759351007
 30
0.0
 11
80.24000000000007
 21
54.48446967931267
 31
0.0
  0
LINE
  5
240
330
23B
100
AcDbEntity
  8
치수문자_일반주서
 62
     0
370
    -2
100
AcDbLine
 10
121.3880000000001
 20
54.48446967931267
 30
0.0
 11
83.54200000000006
 21
54.48446967931267
 31
0.0
  0
SOLID
  5
241
330
23B
100
AcDbEntity
  8
치수문자_일반주서
 62
     0
100
AcDbTrace
 10
121.3880000000001
 20
53.93413634597933
 30
0.0
 11
121.3880000000001
 21
55.034803012646
 31
0.0
 12
124.6900000000001
 22
54.48446967931267
 32
0.0
 13
124.6900000000001
 23
54.48446967931267
 33
0.0
  0
SOLID
  5
242
330
23B
100
AcDbEntity
  8
치수문자_일반주서
 62
     0
100
AcDbTrace
 10
83.54200000000006
 20
55.034803012646
 30
0.0
 11
83.54200000000006
 21
53.93413634597933
 31
0.0
 12
80.24000000000007
 22
54.48446967931267
 32
0.0
 13
80.24000000000007
 23
54.48446967931267
 33
0.0
  0
MTEXT
  5
243
330
23B
100
AcDbEntity
  8
치수문자_일반주서
 62
     0
100
AcDbMText
 10
102.4650000000001
 20
58.85946967931267
 30
0.0
 40
3.5
 41
0.0
 71
     2
 72
     1
  1
\A1;44.45 [1 3/4]
  7
SLDTEXTSTYLE0
 73
     1
 44
1.0
  0
POINT
  5
244
330
23B
100
AcDbEntity
  8
Defpoints
 62
     0
100
AcDbPoint
 10
124.6900000000001
 20
25.43995299769208
 30
0.0
  0
POINT
  5
245
330
23B
100
AcDbEntity
  8
Defpoints
 62
     0
100
AcDbPoint
 10
80.24000000000007
 20
25.43213759351007
 30
0.0
  0
POINT
  5
246
330
23B
100
AcDbEntity
  8
Defpoints
 62
     0
100
AcDbPoint
 10
80.24000000000007
 20
54.48446967931267
 30
0.0
  0
ENDBLK
  5
23D
330
23B
100
AcDbEntity
  8
0
100
AcDbBlockEnd
  0
BLOCK
  5
248
330
247
100
AcDbEntity
  8
0
100
AcDbBlockBegin
  2
*D10
 70
     1
 10
0.0
 20
0.0
 30
0.0
  3
*D10
  1
*D10
  0
LINE
  5
24A
330
247
100
AcDbEntity
  8
치수문자_일반주서
 62
     0
370
    -2
100
AcDbLine
 10
124.6900000000001
 20
25.50245299769208
 30
0.0
 11
124.6900000000001
 21
70.11176252244402
 31
0.0
  0
LINE
  5
24B
330
247
100
AcDbEntity
  8
치수문자_일반주서
 62
     0
370
    -2
100
AcDbLine
 10
16.74000000000007
 20
22.96245299769209
 30
0.0
 11
16.74000000000007
 21
70.11176252244402
 31
0.0
  0
LINE
  5
24C
330
247
100
AcDbEntity
  8
치수문자_일반주서
 62
     0
370
    -2
100
AcDbLine
 10
121.3880000000001
 20
70.11176252244402
 30
0.0
 11
20.04200000000007
 21
70.11176252244402
 31
0.0
  0
SOLID
  5
24D
330
247
100
AcDbEntity
  8
치수문자_일반주서
 62
     0
100
AcDbTrace
 10
121.3880000000001
 20
69.5614291891107
 30
0.0
 11
121.3880000000001
 21
70.66209585577735
 31
0.0
 12
124.6900000000001
 22
70.11176252244402
 32
0.0
 13
124.6900000000001
 23
70.11176252244402
 33
0.0
  0
SOLID
  5
24E
330
247
100
AcDbEntity
  8
치수문자_일반주서
 62
     0
100
AcDbTrace
 10
20.04200000000007
 20
70.66209585577735
 30
0.0
 11
20.04200000000007
 21
69.5614291891107
 31
0.0
 12
16.74000000000007
 22
70.11176252244402
 32
0.0
 13
16.74000000000007
 23
70.11176252244402
 33
0.0
  0
MTEXT
  5
24F
330
247
100
AcDbEntity
  8
치수문자_일반주서
 62
     0
100
AcDbMText
 10
70.71500000000006
 20
74.48676252244402
 30
0.0
 40
3.5
 41
0.0
 71
     2
 72
     1
  1
\A1;107.95 [4 1/4]
  7
SLDTEXTSTYLE0
 73
     1
 44
1.0
  0
POINT
  5
250
330
247
100
AcDbEntity
  8
Defpoints
 62
     0
100
AcDbPoint
 10
124.6900000000001
 20
25.43995299769208
 30
0.0
  0
POINT
  5
251
330
247
100
AcDbEntity
  8
Defpoints
 62
     0
100
AcDbPoint
 10
16.74000000000007
 20
22.89995299769209
 30
0.0
  0
POINT
  5
252
330
247
100
AcDbEntity
  8
Defpoints
 62
     0
100
AcDbPoint
 10
16.74000000000007
 20
70.11176252244402
 30
0.0
  0
ENDBLK
  5
249
330
247
100
AcDbEntity
  8
0
100
AcDbBlockEnd
  0
BLOCK
  5
254
330
253
100
AcDbEntity
  8
0
100
AcDbBlockBegin
  2
*D11
 70
     1
 10
0.0
 20
0.0
 30
0.0
  3
*D11
  1
*D11
  0
LINE
  5
256
330
253
100
AcDbEntity
  8
치수문자_일반주서
 62
     0
370
    -2
100
AcDbLine
 10
19.21750000000005
 20
25.43995299769207
 30
0.0
 11
4.374999999999984
 21
25.43995299769201
 31
0.0
  0
LINE
  5
257
330
253
100
AcDbEntity
  8
치수문자_일반주서
 62
     0
370
    -2
100
AcDbLine
 10
19.21750000000005
 20
0.0399529976920883
 30
0.0
 11
4.375000000000073
 21
0.0399529976920316
 31
0.0
  0
LINE
  5
258
330
253
100
AcDbEntity
  8
치수문자_일반주서
 62
     0
370
    -2
100
AcDbLine
 10
4.374999999999996
 20
22.13795299769201
 30
0.0
 11
4.375000000000061
 21
3.341952997692031
 31
0.0
  0
SOLID
  5
259
330
253
100
AcDbEntity
  8
치수문자_일반주서
 62
     0
100
AcDbTrace
 10
4.925333333333329
 20
22.13795299769201
 30
0.0
 11
3.824666666666662
 21
22.13795299769201
 31
0.0
 12
4.374999999999984
 22
25.43995299769201
 32
0.0
 13
4.374999999999984
 23
25.43995299769201
 33
0.0
  0
SOLID
  5
25A
330
253
100
AcDbEntity
  8
치수문자_일반주서
 62
     0
100
AcDbTrace
 10
3.824666666666728
 20
3.341952997692029
 30
0.0
 11
4.925333333333395
 21
3.341952997692033
 31
0.0
 12
4.375000000000073
 22
0.0399529976920316
 32
0.0
 13
4.375000000000073
 23
0.0399529976920316
 33
0.0
  0
MTEXT
  5
25B
330
253
100
AcDbEntity
  8
치수문자_일반주서
 62
     0
100
AcDbMText
 10
0.0000000000000284
 20
12.73995299769205
 30
0.0
 40
3.5
 41
0.0
 71
     2
 72
     1
  1
\A1;%%c25.4 [1]
  7
SLDTEXTSTYLE0
 11
-3.496765431890260E-15
 21
1.0
 31
0.0
 73
     1
 44
1.0
  0
POINT
  5
25C
330
253
100
AcDbEntity
  8
Defpoints
 62
     0
100
AcDbPoint
 10
19.28000000000005
 20
25.43995299769207
 30
0.0
  0
POINT
  5
25D
330
253
100
AcDbEntity
  8
Defpoints
 62
     0
100
AcDbPoint
 10
19.28000000000005
 20
0.0399529976920885
 30
0.0
  0
POINT
  5
25E
330
253
100
AcDbEntity
  8
Defpoints
 62
     0
100
AcDbPoint
 10
4.375000000000071
 20
0.0399529976920328
 30
0.0
  0
ENDBLK
  5
255
330
253
100
AcDbEntity
  8
0
100
AcDbBlockEnd
  0
ENDSEC
  0
SECTION
  2
ENTITIES
  0
LINE
  5
96
330
1F
100
AcDbEntity
  8
0
  6
Continuous
 62
     1
370
    15
100
AcDbLine
 10
29.02993046450741
 20
-0.8823861187342376
 30
0.0
 11
29.19364953979474
 21
-1.044533440932516
 31
0.0
  0
LINE
  5
97
330
1F
100
AcDbEntity
  8
0
  6
Continuous
 62
     1
370
    15
100
AcDbLine
 10
31.15291140113881
 20
0.8086187302760224
 30
0.0
 11
31.1021176874204
 21
0.8603545271209011
 31
0.0
  0
LINE
  5
98
330
1F
100
AcDbEntity
  8
외형선
  6
Continuous
370
    15
100
AcDbLine
 10
14.13957719649721
 20
-0.9533093514084031
 30
0.0
 11
14.23143021922517
 21
-1.044151106375191
 31
0.0
  0
LINE
  5
99
330
1F
100
AcDbEntity
  8
0
  6
Continuous
 62
     1
370
    15
100
AcDbLine
 10
16.28397223502291
 20
0.7184493057576504
 30
0.0
 11
16.1402940360013
 21
0.8603432038097127
 31
0.0
  0
LINE
  5
9A
330
1F
100
AcDbEntity
  8
0
  6
Continuous
 62
     1
370
    15
100
AcDbLine
 10
46.17567674297656
 20
0.7500212507051207
 30
0.0
 11
46.06366104484481
 21
0.8606452070891267
 31
0.0
  0
LINE
  5
9B
330
1F
100
AcDbEntity
  8
0
  6
Continuous
 62
     1
370
    15
100
AcDbLine
 10
44.03747492099875
 20
-0.927869045552824
 30
0.0
 11
44.15558655115235
 21
-1.044634915417028
 31
0.0
  0
LINE
  5
9C
330
1F
100
AcDbEntity
  8
0
  6
Continuous
 62
     1
370
    15
100
AcDbLine
 10
21.57297039262884
 20
-0.9050373293573837
 30
0.0
 11
21.71496647582201
 21
-1.045104459652298
 31
0.0
  0
LINE
  5
9D
330
1F
100
AcDbEntity
  8
0
  6
Continuous
 62
     1
370
    15
100
AcDbLine
 10
23.69504955084109
 20
0.7885943166892698
 30
0.0
 11
23.62250557383777
 21
0.8602284971756565
 31
0.0
  0
LINE
  5
9E
330
1F
100
AcDbEntity
  8
0
  6
Continuous
 62
     1
370
    15
100
AcDbLine
 10
36.5489840470133
 20
-0.9190039119478062
 30
0.0
 11
36.67669878530323
 21
-1.045002360999882
 31
0.0
  0
LINE
  5
9F
330
1F
100
AcDbEntity
  8
0
  6
Continuous
 62
     1
370
    15
100
AcDbLine
 10
38.64048702835489
 20
0.8038676653459756
 30
0.0
 11
38.58410545725743
 21
0.8604620325133026
 31
0.0
  0
LINE
  5
A0
330
1F
100
AcDbEntity
  8
0
  6
Continuous
 62
     1
370
    15
100
AcDbLine
 10
24.57636317936769
 20
-9.617139012922996
 30
0.0
 11
28.24004963116058
 21
-9.617139012922996
 31
0.0
  0
LINE
  5
A1
330
1F
100
AcDbEntity
  8
0
  6
Continuous
 62
     1
370
    15
100
AcDbLine
 10
35.72053827411813
 20
9.432860987077005
 30
0.0
 11
32.05764725709081
 21
9.432860987077005
 31
0.0
  0
LINE
  5
A2
330
1F
100
AcDbEntity
  8
0
  6
Continuous
 62
     1
370
    15
100
AcDbLine
 10
28.24004963116064
 20
9.432860987077005
 30
0.0
 11
24.57636317936777
 21
9.432860987077005
 31
0.0
  0
LINE
  5
A3
330
1F
100
AcDbEntity
  8
0
  6
Continuous
 62
     1
370
    15
100
AcDbLine
 10
32.05764725709076
 20
-9.617139012922996
 30
0.0
 11
35.72053827411804
 21
-9.617139012922996
 31
0.0
  0
LINE
  5
A4
330
1F
100
AcDbEntity
  8
0
  6
Continuous
 62
     1
370
    15
100
AcDbLine
 10
39.53800639290957
 20
-9.617139012922996
 30
0.0
 11
43.20282901420182
 21
-9.617139012922996
 31
0.0
  0
LINE
  5
A5
330
1F
100
AcDbEntity
  8
0
  6
Continuous
 62
     1
370
    15
100
AcDbLine
 10
13.27950196409584
 20
9.432860987077005
 30
0.0
 11
11.997826609364
 21
9.432860987077005
 31
0.0
  0
LINE
  5
A6
330
1F
100
AcDbEntity
  8
0
  6
Continuous
 62
     1
370
    15
100
AcDbLine
 10
47.01824262758876
 20
-9.617139012922996
 30
0.0
 11
50.097826609364
 21
-9.617139012922996
 31
0.0
  0
LINE
  5
A7
330
1F
100
AcDbEntity
  8
0
  6
Continuous
 62
     1
370
    15
100
AcDbLine
 10
20.75884250670555
 20
9.432860987077005
 30
0.0
 11
17.09489216296994
 21
9.432860987077005
 31
0.0
  0
LINE
  5
A8
330
1F
100
AcDbEntity
  8
0
  6
Continuous
 62
     1
370
    15
100
AcDbLine
 10
11.997826609364
 20
-9.617139012922996
 30
0.0
 11
13.27950196409581
 21
-9.617139012922996
 31
0.0
  0
LINE
  5
A9
330
1F
100
AcDbEntity
  8
0
  6
Continuous
 62
     1
370
    15
100
AcDbLine
 10
43.20282901420185
 20
9.432860987077005
 30
0.0
 11
39.53800639290964
 21
9.432860987077005
 31
0.0
  0
LINE
  5
AA
330
1F
100
AcDbEntity
  8
0
  6
Continuous
 62
     1
370
    15
100
AcDbLine
 10
17.09489216296996
 20
-9.617139012922996
 30
0.0
 11
20.75884250670549
 21
-9.617139012922996
 31
0.0
  0
LINE
  5
AB
330
1F
100
AcDbEntity
  8
0
  6
Continuous
 62
     1
370
    15
100
AcDbLine
 10
50.097826609364
 20
9.432860987077005
 30
0.0
 11
47.01824262758875
 21
9.432860987077005
 31
0.0
  0
LINE
  5
AC
330
1F
100
AcDbEntity
  8
외형선
  6
Continuous
370
    15
100
AcDbLine
 10
-52.77217339063601
 20
9.432860987077005
 30
0.0
 11
-54.67717339063601
 21
7.527860987077011
 31
0.0
  0
LINE
  5
AD
330
1F
100
AcDbEntity
  8
외형선
  6
Continuous
370
    15
100
AcDbLine
 10
-54.67717339063601
 20
-7.712139012923003
 30
0.0
 11
-52.77217339063601
 21
-9.617139012922996
 31
0.0
  0
LINE
  5
AE
330
1F
100
AcDbEntity
  8
외형선
  6
Continuous
370
    15
100
AcDbLine
 10
-52.77217339063601
 20
-9.617139012922994
 30
0.0
 11
11.997826609364
 21
-9.617139012922994
 31
0.0
  0
LINE
  5
AF
330
1F
100
AcDbEntity
  8
외형선
  6
Continuous
370
    15
100
AcDbLine
 10
11.997826609364
 20
9.432860987077003
 30
0.0
 11
-52.77217339063601
 21
9.432860987077003
 31
0.0
  0
SPLINE
  5
B0
330
1F
100
AcDbEntity
  8
0
  6
Continuous
 62
     1
370
    15
100
AcDbSpline
210
0.0
220
0.0
230
1.0
 70
     8
 71
     3
 72
    28
 73
    24
 74
     0
 42
0.000000001
 43
0.00000001
 40
0.0
 40
0.0
 40
0.0
 40
0.0
 40
0.0057447259664981
 40
0.0516660371544702
 40
0.0975726542227979
 40
0.1435580852799938
 40
0.1894921267833403
 40
0.2353937912388611
 40
0.286589323859655
 40
0.337807613185692
 40
0.3889707033544312
 40
0.440121037656468
 40
0.4913041887992933
 40
0.5425290783325921
 40
0.5937004437920657
 40
0.6448496758352581
 40
0.6960223605498671
 40
0.7472476841373481
 40
0.7984292459930024
 40
0.8495793082729519
 40
0.9007434469866108
 40
0.9519630382016349
 40
1.0
 40
1.0
 40
1.0
 40
1.0
 10
13.27950196409583
 20
9.420595858811316
 30
0.0
 10
13.34048673262394
 20
9.424563946932462
 30
0.0
 10
13.88896220995846
 20
9.46025153055176
 30
0.0
 10
14.92364116632372
 20
9.31430236786349
 30
0.0
 10
16.38481291482198
 20
8.969569546484596
 30
0.0
 10
17.84846480021461
 20
8.390282928875079
 30
0.0
 10
19.31043693212574
 20
7.616889351796836
 30
0.0
 10
20.82690910917661
 20
6.623928776844468
 30
0.0
 10
22.40109814760098
 20
5.414705405270347
 30
0.0
 10
24.03156353505202
 20
4.00229354715227
 30
0.0
 10
25.6601427184548
 20
2.469564736407333
 30
0.0
 10
27.28827303150941
 20
0.8623292877075023
 30
0.0
 10
28.91754828060562
 20
-0.7729243294174242
 30
0.0
 10
30.54830503523091
 20
-2.387306358005059
 30
0.0
 10
32.17716084999952
 20
-3.935839463717002
 30
0.0
 10
33.8052608609241
 20
-5.371862245190895
 30
0.0
 10
35.43416325078129
 20
-6.653993620514211
 30
0.0
 10
37.06493597044938
 20
-7.743938332803058
 30
0.0
 10
38.69415258810274
 20
-8.610833150078403
 30
0.0
 10
40.32228220766356
 20
-9.230590927770397
 30
0.0
 10
41.95086912345142
 20
-9.577567527188531
 30
0.0
 10
43.54797286200131
 20
-9.668463076603851
 30
0.0
 10
44.60118399540612
 20
-9.500190760238974
 30
0.0
 10
45.11090412415324
 20
-9.418752400880962
 30
0.0
  0
SPLINE
  5
B1
330
1F
100
AcDbEntity
  8
0
  6
Continuous
 62
     1
370
    15
100
AcDbSpline
210
0.0
220
0.0
230
1.0
 70
     8
 71
     3
 72
    28
 73
    24
 74
     0
 42
0.000000001
 43
0.00000001
 40
0.0
 40
0.0
 40
0.0
 40
0.0
 40
0.0056240272830039
 40
0.0567778509292401
 40
0.107972524906472
 40
0.1591931164871023
 40
0.210358254483328
 40
0.2615093157709191
 40
0.3126918772494313
 40
0.3639182013144754
 40
0.4150918854785631
 40
0.4662421165131816
 40
0.5174144813963675
 40
0.568640371398753
 40
0.6198245221954753
 40
0.6709758555104666
 40
0.7221399449412937
 40
0.773359234607509
 40
0.8245557671240217
 40
0.8704583280811592
 40
0.916393266718476
 40
0.9623795959133278
 40
1.0
 40
1.0
 40
1.0
 40
1.0
 10
47.01824262758876
 20
-9.603535198934587
 30
0.0
 10
46.95858195178365
 20
-9.607960270323078
 30
0.0
 10
46.35627247020679
 20
-9.652633958945875
 30
0.0
 10
45.21112579776436
 20
-9.473959322469899
 30
0.0
 10
43.58144153022845
 20
-9.051706959728941
 30
0.0
 10
41.95088196635642
 20
-8.339988724391402
 30
0.0
 10
40.32227876912376
 20
-7.394656697162778
 30
0.0
 10
38.69415350995695
 20
-6.234313253102843
 30
0.0
 10
37.06493572313225
 20
-4.895060674543275
 30
0.0
 10
35.4341633169942
 20
-3.416444644850051
 30
0.0
 10
33.80526084321647
 20
-1.839785332591763
 30
0.0
 10
32.17716085468189
 20
-0.2124173456631611
 30
0.0
 10
30.54830503421198
 20
1.418795339048516
 30
0.0
 10
28.91754827999146
 20
3.004781219863952
 30
0.0
 10
27.28827303497985
 20
4.501370643966116
 30
0.0
 10
25.66014270519386
 20
5.863736478637142
 30
0.0
 10
24.0315635846651
 20
7.052426623864736
 30
0.0
 10
22.40109796223323
 20
8.032124685122433
 30
0.0
 10
20.82690977039971
 20
8.749157563794938
 30
0.0
 10
19.31043474600542
 20
9.214083424506633
 30
0.0
 10
17.84847299901217
 20
9.436542531616954
 30
0.0
 10
16.47278833338346
 20
9.457407751570006
 30
0.0
 10
15.58631130744281
 20
9.29789556964392
 30
0.0
 10
15.18742448791904
 20
9.226120097678047
 30
0.0
  0
SPLINE
  5
B2
330
1F
100
AcDbEntity
  8
0
  6
Continuous
 62
     1
370
    15
100
AcDbSpline
210
0.0
220
0.0
230
1.0
 70
     8
 71
     3
 72
    19
 73
    15
 74
     0
 42
0.000000001
 43
0.00000001
 40
0.0
 40
0.0
 40
0.0
 40
0.0
 40
0.0806559633738177
 40
0.1611902603454809
 40
0.2416987875696224
 40
0.3223455344791525
 40
0.4029021571852596
 40
0.4834019987865332
 40
0.5731859383353979
 40
0.6630097873557197
 40
0.7527368310973727
 40
0.8424415042940526
 40
0.932203729880535
 40
1.0
 40
1.0
 40
1.0
 40
1.0
 10
11.997826609364
 20
1.184031241391097
 30
0.0
 10
12.48611799234346
 20
0.6979452704081229
 30
0.0
 10
13.46196418963114
 20
-0.2734934296653051
 30
0.0
 10
14.92370064529402
 20
-1.735408510077366
 30
0.0
 10
16.38479694984807
 20
-3.156986060489673
 30
0.0
 10
17.8484690710595
 20
-4.50491089754926
 30
0.0
 10
19.31043580720114
 20
-5.750433590695899
 30
0.0
 10
20.82690939559635
 20
-6.905318103342988
 30
0.0
 10
22.40109829687338
 20
-7.921010160541243
 30
0.0
 10
24.03156264640864
 20
-8.743343287434232
 30
0.0
 10
25.6601461191524
 20
-9.31602981314014
 30
0.0
 10
27.28826031581541
 20
-9.610372610711464
 30
0.0
 10
28.78425429413284
 20
-9.656347243536931
 30
0.0
 10
29.73801565336371
 20
-9.478073948236021
 30
0.0
 10
30.14841220132645
 20
-9.401364251122232
 30
0.0
  0
SPLINE
  5
B3
330
1F
100
AcDbEntity
  8
외형선
  6
Continuous
370
    15
100
AcDbSpline
210
0.0
220
0.0
230
1.0
 70
    24
 71
     3
 72
    23
 73
    19
 74
     0
 42
0.000000001
 43
0.00000001
 40
0.0
 40
0.0
 40
0.0
 40
0.0
 40
0.0880118290571619
 40
0.1508940282873791
 40
0.2155998155552163
 40
0.2784820147854185
 40
0.3431878020532401
 40
0.4060700012834456
 40
0.4707757885512698
 40
0.5336579877815116
 40
0.5983637750492967
 40
0.6612459742794852
 40
0.7259517615472897
 40
0.7888339607775096
 40
0.8535397480453504
 40
0.9164219472753596
 40
0.9811277345433749
 40
1.0
 40
1.0
 40
1.0
 40
1.0
 10
11.99782660936403
 20
4.764547018366327
 30
0.0
 10
11.997826609364
 20
4.693330105888135
 30
0.0
 10
11.99782660936395
 20
4.57123053221555
 30
0.0
 10
11.99782660936406
 20
4.319839043564249
 30
0.0
 10
11.99782660936399
 20
4.065355895202961
 30
0.0
 10
11.99782660936402
 20
3.778142575908692
 30
0.0
 10
11.99782660936396
 20
3.472857983392445
 30
0.0
 10
11.99782660936398
 20
3.15228361017472
 30
0.0
 10
11.99782660936409
 20
2.831360187979522
 30
0.0
 10
11.99782660936395
 20
2.513371011740432
 30
0.0
 10
11.99782660936402
 20
2.213040119442717
 30
0.0
 10
11.99782660936391
 20
1.933486710720699
 30
0.0
 10
11.99782660936405
 20
1.687559901912932
 30
0.0
 10
11.99782660936398
 20
1.47815170756113
 30
0.0
 10
11.99782660936396
 20
1.313626899499085
 30
0.0
 10
11.99782660936403
 20
1.200660761403853
 30
0.0
 10
11.99782660936399
 20
1.143201138267193
 30
0.0
 10
11.99782660936398
 20
1.141472522798066
 30
0.0
 10
11.99782660936398
 20
1.141082194369222
 30
0.0
  0
SPLINE
  5
B4
330
1F
100
AcDbEntity
  8
0
  6
Continuous
 62
     1
370
    15
100
AcDbSpline
210
0.0
220
0.0
230
1.0
 70
     8
 71
     3
 72
    20
 73
    16
 74
     0
 42
0.000000001
 43
0.00000001
 40
0.0
 40
0.0
 40
0.0
 40
0.0
 40
0.0752321804876243
 40
0.1565176272734259
 40
0.2377368421210289
 40
0.3189039820575901
 40
0.4000913634496914
 40
0.4813663367957048
 40
0.5626051990057074
 40
0.6354435660080114
 40
0.7083333100424988
 40
0.7813046008188701
 40
0.8541508268004409
 40
0.9270203699251297
 40
1.0
 40
1.0
 40
1.0
 40
1.0
 10
32.05764725709075
 20
-9.607670748838244
 30
0.0
 10
31.55471603360066
 20
-9.588444890575566
 30
0.0
 10
30.50838717177352
 20
-9.548446239757991
 30
0.0
 10
28.91754293968213
 20
-9.144847112993203
 30
0.0
 10
27.28827446280155
 20
-8.490493709313021
 30
0.0
 10
25.66014232851553
 20
-7.584671480658769
 30
0.0
 10
24.03156366371388
 20
-6.461642514538149
 30
0.0
 10
22.40109802330789
 20
-5.152987504397307
 30
0.0
 10
20.82690946049574
 20
-3.746215585461448
 30
0.0
 10
19.31043579060713
 20
-2.295581725227149
 30
0.0
 10
17.84846907551291
 20
-0.8466647959429406
 30
0.0
 10
16.38479694865694
 20
0.6189600918081192
 30
0.0
 10
14.92370064561155
 20
2.06795557829038
 30
0.0
 10
13.46196418955166
 20
3.473771642753575
 30
0.0
 10
12.48611799231697
 20
4.334072108242913
 30
0.0
 10
11.99782660936402
 20
4.7645470183663
 30
0.0
  0
LINE
  5
B5
330
1F
100
AcDbEntity
  8
0
  6
Continuous
 62
     1
370
    15
100
AcDbLine
 10
50.097826609364
 20
-6.400897789171174
 30
0.0
 11
50.097826609364
 21
-3.117880236674673
 31
0.0
  0
SPLINE
  5
B6
330
1F
100
AcDbEntity
  8
0
  6
Continuous
 62
     1
370
    15
100
AcDbSpline
210
0.0
220
0.0
230
1.0
 70
     8
 71
     3
 72
    21
 73
    17
 74
     0
 42
0.000000001
 43
0.00000001
 40
0.0
 40
0.0
 40
0.0
 40
0.0
 40
0.0309848601546034
 40
0.1055864376128209
 40
0.1801100650671294
 40
0.2546014584300781
 40
0.3291270071870008
 40
0.4037292167818025
 40
0.4782676937994071
 40
0.552760296281054
 40
0.6272733990345272
 40
0.7018672602652472
 40
0.7764233770254023
 40
0.8509200024007936
 40
0.9254234623730664
 40
0.9999999999999999
 40
0.9999999999999999
 40
0.9999999999999999
 40
0.9999999999999999
 10
28.24004963116064
 20
9.399039347773565
 30
0.0
 10
28.46578535921171
 20
9.407217568278158
 30
0.0
 10
29.23502011605508
 20
9.435086313361523
 30
0.0
 10
30.54833916655499
 20
9.1896519098604
 30
0.0
 10
32.17715171686962
 20
8.676558194261137
 30
0.0
 10
33.80526329495567
 20
7.89079835076459
 30
0.0
 10
35.43416264964061
 20
6.876312415723881
 30
0.0
 10
37.06493593739385
 20
5.658090606462656
 30
0.0
 10
38.69415332017359
 20
4.27158236565826
 30
0.0
 10
40.32227931394046
 20
2.757791068700256
 30
0.0
 10
41.95087997522828
 20
1.160451415077217
 30
0.0
 10
43.58144895679492
 20
-0.4721797037350182
 30
0.0
 10
45.2110981105491
 20
-2.09533495060028
 30
0.0
 10
46.83931032145154
 20
-3.656600248739654
 30
0.0
 10
48.46767918912281
 20
-5.127137173913868
 30
0.0
 10
49.5542665908734
 20
-5.976172187679605
 30
0.0
 10
50.09782660936398
 20
-6.400897789171175
 30
0.0
  0
SPLINE
  5
B7
330
1F
100
AcDbEntity
  8
0
  6
Continuous
 62
     1
370
    15
100
AcDbSpline
210
0.0
220
0.0
230
1.0
 70
     8
 71
     3
 72
    20
 73
    16
 74
     0
 42
0.000000001
 43
0.00000001
 40
0.0
 40
0.0
 40
0.0
 40
0.0
 40
0.0817084225011926
 40
0.1633367788036544
 40
0.2449576469047669
 40
0.3266436956559348
 40
0.4083710984474792
 40
0.4900100196871903
 40
0.5716264801781857
 40
0.6532932022673389
 40
0.735029751791637
 40
0.8166823092679014
 40
0.89829744501006
 40
0.9799478974461767
 40
1.0
 40
1.0
 40
1.0
 40
1.0
 10
50.09782660936398
 20
-3.117880236674673
 30
0.0
 10
49.55426659086611
 20
-2.594334160463287
 30
0.0
 10
48.46767918910101
 20
-1.547755031580804
 30
0.0
 10
46.83931032153865
 20
0.089100895244474
 30
0.0
 10
45.21109811022222
 20
1.714198499525015
 30
0.0
 10
43.58144895801683
 20
3.288146304423814
 30
0.0
 10
41.95087997066769
 20
4.762394742534943
 30
0.0
 10
40.32227933093804
 20
6.096012980466868
 30
0.0
 10
38.6941532567385
 20
7.248589340452269
 30
0.0
 10
37.06493617438762
 20
8.187426672624085
 30
0.0
 10
35.43416176472758
 20
8.882603176235467
 30
0.0
 10
33.8052665929809
 20
9.32218206170166
 30
0.0
 10
32.17713941210655
 20
9.464999518624976
 30
0.0
 10
30.95845487211314
 20
9.42418878271483
 30
0.0
 10
30.28182031100598
 20
9.251194503388106
 30
0.0
 10
30.14841220132654
 20
9.21708622527624
 30
0.0
  0
SPLINE
  5
B8
330
1F
100
AcDbEntity
  8
0
  6
Continuous
 62
     1
370
    15
100
AcDbSpline
210
0.0
220
0.0
230
1.0
 70
     8
 71
     3
 72
    24
 73
    20
 74
     0
 42
0.000000001
 43
0.00000001
 40
0.0
 40
0.0
 40
0.0
 40
0.0
 40
0.0571126184225956
 40
0.1141390846685829
 40
0.1711473033145726
 40
0.2282533955438646
 40
0.2852956706786056
 40
0.3422977390209617
 40
0.4058738921711733
 40
0.4694783052828241
 40
0.533014170419711
 40
0.5965341949374359
 40
0.6600949723956824
 40
0.7237075818433458
 40
0.7872537234853134
 40
0.8507723791848326
 40
0.9143201591175306
 40
0.9779333075867405
 40
1.0
 40
1.0
 40
1.0
 40
1.0
 10
11.997826609364
 20
7.484716441088065
 30
0.0
 10
12.48611799231954
 20
7.172026527905946
 30
0.0
 10
13.46196418955936
 20
6.547118382185463
 30
0.0
 10
14.92370064558067
 20
5.405184337829997
 30
0.0
 10
16.38479694877268
 20
4.14615358461992
 30
0.0
 10
17.8484690750801
 20
2.786106963516972
 30
0.0
 10
19.31043579221961
 20
1.35780142780095
 30
0.0
 10
20.82690945418929
 20
-0.1607793960676862
 30
0.0
 10
22.40109804989083
 20
-1.733995609062138
 30
0.0
 10
24.03156356486038
 20
-3.314546600161575
 30
0.0
 10
25.66014269685894
 20
-4.801948701328969
 30
0.0
 10
27.28827308811197
 20
-6.151624419656586
 30
0.0
 10
28.91754807557624
 20
-7.324437507680733
 30
0.0
 10
30.54830579902465
 20
-8.285940202859987
 30
0.0
 10
32.17715800386139
 20
-9.007633778703745
 30
0.0
 10
33.8052714800232
 20
-9.473876012835662
 30
0.0
 10
35.43412358166253
 20
-9.647837381612343
 30
0.0
 10
36.71025982435477
 20
-9.61972253646297
 30
0.0
 10
37.44229309306587
 20
-9.441592049890371
 30
0.0
 10
37.63082697467147
 20
-9.395714856187203
 30
0.0
  0
SPLINE
  5
B9
330
1F
100
AcDbEntity
  8
외형선
  6
Continuous
370
    15
100
AcDbSpline
210
0.0
220
0.0
230
1.0
 70
    24
 71
     3
 72
    12
 73
     8
 74
     0
 42
0.000000001
 43
0.00000001
 40
0.0
 40
0.0
 40
0.0
 40
0.0
 40
0.2713906487265001
 40
0.4652923210954955
 40
0.6648171550990252
 40
0.8587188274679738
 40
0.9999999999999999
 40
0.9999999999999999
 40
0.9999999999999999
 40
0.9999999999999999
 10
11.99782660936403
 20
9.135942434028815
 30
0.0
 10
11.997826609364
 20
8.993619713059964
 30
0.0
 10
11.99782660936398
 20
8.749611050657748
 30
0.0
 10
11.99782660936402
 20
8.385133985822142
 30
0.0
 10
11.99782660936402
 20
8.06805113618697
 30
0.0
 10
11.99782660936402
 20
7.786673850326658
 30
0.0
 10
11.99782660936398
 20
7.626565630417148
 30
0.0
 10
11.99782660936398
 20
7.559079249819375
 30
0.0
  0
SPLINE
  5
BA
330
1F
100
AcDbEntity
  8
0
  6
Continuous
 62
     1
370
    15
100
AcDbSpline
210
0.0
220
0.0
230
1.0
 70
     8
 71
     3
 72
    25
 73
    21
 74
     0
 42
0.000000001
 43
0.00000001
 40
0.0
 40
0.0
 40
0.0
 40
0.0
 40
0.0306399729854717
 40
0.0897967953229302
 40
0.1490041984731051
 40
0.208150760407468
 40
0.2672702152066426
 40
0.3264152523156806
 40
0.3856221537760841
 40
0.4447808130480821
 40
0.5039015418632944
 40
0.5630370142016214
 40
0.6222362869911863
 40
0.6814092570592192
 40
0.7344634529598241
 40
0.7875550709944282
 40
0.840706086253284
 40
0.8937660064972914
 40
0.9468429105415919
 40
1.0
 40
1.0
 40
1.0
 40
1.0
 10
39.53800639290957
 20
-9.582394439810441
 30
0.0
 10
39.25681736431133
 20
-9.588609780404648
 30
0.0
 10
38.43273459961496
 20
-9.606825125028644
 30
0.0
 10
37.064930028553
 20
-9.33382434967559
 30
0.0
 10
35.43416484168088
 20
-8.791941975404718
 30
0.0
 10
33.80526043506251
 20
-7.981618092849472
 30
0.0
 10
32.17716096410474
 20
-6.94493869519735
 30
0.0
 10
30.54830500473822
 20
-5.706955614891715
 30
0.0
 10
28.91754828830996
 20
-4.306349603783516
 30
0.0
 10
27.28827303117097
 20
-2.781811471594433
 30
0.0
 10
25.66014271211611
 20
-1.17892707844518
 30
0.0
 10
24.03156356076577
 20
0.4559835042969672
 30
0.0
 10
22.4010980509919
 20
2.073947059128886
 30
0.0
 10
20.82690945392809
 20
3.576000261948051
 30
0.0
 10
19.31043579228646
 20
4.929565187735643
 30
0.0
 10
17.84846907506221
 20
6.11482136328779
 30
0.0
 10
16.38479694877748
 20
7.154111171181389
 30
0.0
 10
14.92370064557941
 20
8.020361102361154
 30
0.0
 10
13.46196418955972
 20
8.710866244729056
 30
0.0
 10
12.48611799231966
 20
8.994179089420868
 30
0.0
 10
11.99782660936403
 20
9.13594243402878
 30
0.0
  0
LINE
  5
BB
330
1F
100
AcDbEntity
  8
0
  6
Continuous
 62
     1
370
    15
100
AcDbLine
 10
50.097826609364
 20
-9.59915247379589
 30
0.0
 11
50.097826609364
 21
-8.617994803040682
 31
0.0
  0
SPLINE
  5
BC
330
1F
100
AcDbEntity
  8
0
  6
Continuous
 62
     1
370
    15
100
AcDbSpline
210
0.0
220
0.0
230
1.0
 70
     8
 71
     3
 72
    26
 73
    22
 74
     0
 42
0.000000001
 43
0.00000001
 40
0.0
 40
0.0
 40
0.0
 40
0.0
 40
0.0004155931282795
 40
0.0559624440608223
 40
0.1115339858843304
 40
0.1670456369477458
 40
0.2225434479710254
 40
0.2780768650730006
 40
0.3336555680824586
 40
0.3891761977875114
 40
0.4446728128664463
 40
0.5001948739555397
 40
0.5557740479112252
 40
0.6113057406459937
 40
0.6668032565269133
 40
0.7223160452553818
 40
0.7778889996207623
 40
0.8334338340885313
 40
0.8889343470537522
 40
0.9444399518420044
 40
1.0
 40
1.0
 40
1.0
 40
1.0
 10
20.75884250670555
 20
9.431934808845734
 30
0.0
 10
20.7629046351463
 20
9.43224311738128
 30
0.0
 10
21.30989788446977
 20
9.473758960642726
 30
0.0
 10
22.40116107161954
 20
9.318493046213003
 30
0.0
 10
24.03154669155909
 20
8.925776525766441
 30
0.0
 10
25.66014722826088
 20
8.239103727213637
 30
0.0
 10
27.28827182233283
 20
7.317519122801909
 30
0.0
 10
28.91754860526499
 20
6.177344676833432
 30
0.0
 10
30.5483049473086
 20
4.855610037412871
 30
0.0
 10
32.17716087726318
 20
3.388361596012658
 30
0.0
 10
33.80526083971051
 20
1.819861044262196
 30
0.0
 10
35.43416330842224
 20
0.1952106756310668
 30
0.0
 10
37.06493576096156
 20
-1.436660848754397
 30
0.0
 10
38.69415336739846
 20
-3.03035452787043
 30
0.0
 10
40.32227930128647
 20
-4.53806232287581
 30
0.0
 10
41.95087997862345
 20
-5.916363290598455
 30
0.0
 10
43.58144895588523
 20
-7.123509989557188
 30
0.0
 10
45.21109811079255
 20
-8.127408366322978
 30
0.0
 10
46.83931032138662
 20
-8.891492043584263
 30
0.0
 10
48.46767918913905
 20
-9.41864823343116
 30
0.0
 10
49.55426659087882
 20
-9.53896473432398
 30
0.0
 10
50.09782660936398
 20
-9.59915247379589
 30
0.0
  0
SPLINE
  5
BD
330
1F
100
AcDbEntity
  8
0
  6
Continuous
 62
     1
370
    15
100
AcDbSpline
210
0.0
220
0.0
230
1.0
 70
     8
 71
     3
 72
    24
 73
    20
 74
     0
 42
0.000000001
 43
0.00000001
 40
0.0
 40
0.0
 40
0.0
 40
0.0
 40
0.05942731702217
 40
0.1187964011323698
 40
0.1781600390021222
 40
0.2375710833819502
 40
0.2970122049507922
 40
0.3563889730408806
 40
0.4157494052136472
 40
0.4751463931273806
 40
0.5345941672024198
 40
0.5939808530577501
 40
0.6533403217280197
 40
0.712725476567521
 40
0.7721727469160228
 40
0.8315715792219044
 40
0.8909323270804774
 40
0.950307878318097
 40
1.0
 40
1.0
 40
1.0
 40
1.0
 10
50.09782660936398
 20
-8.617994803040682
 30
0.0
 10
49.55426659087879
 20
-8.351773639555951
 30
0.0
 10
48.46767918913906
 20
-7.819592183080982
 30
0.0
 10
46.83931032138681
 20
-6.728658436421649
 30
0.0
 10
45.21109811079185
 20
-5.461926830873868
 30
0.0
 10
43.58144895588781
 20
-4.033771687576792
 30
0.0
 10
41.95087997861406
 20
-2.492513577518246
 30
0.0
 10
40.32227930132132
 20
-0.8798758108857169
 30
0.0
 10
38.69415336726856
 20
0.7553488417216169
 30
0.0
 10
37.06493576144687
 20
2.366052048211539
 30
0.0
 10
35.4341633066102
 20
3.904011275650483
 30
0.0
 10
33.80526084646383
 20
5.326436711958375
 30
0.0
 10
32.17716085206682
 20
6.590366574262838
 30
0.0
 10
30.5483050414312
 20
7.659599040820156
 30
0.0
 10
28.91754825371136
 20
8.501422607177552
 30
0.0
 10
27.28827313275674
 20
9.095020152093111
 30
0.0
 10
25.6601423405476
 20
9.412754670372564
 30
0.0
 10
24.12065970853731
 20
9.477747067466582
 30
0.0
 10
23.12295581773953
 20
9.303185699406503
 30
0.0
 10
22.66839378467392
 20
9.22365411584552
 30
0.0
  0
SPLINE
  5
BE
330
1F
100
AcDbEntity
  8
0
  6
Continuous
 62
     1
370
    15
100
AcDbSpline
210
0.0
220
0.0
230
1.0
 70
     8
 71
     3
 72
    16
 73
    12
 74
     0
 42
0.000000001
 43
0.00000001
 40
0.0
 40
0.0
 40
0.0
 40
0.0
 40
0.0432904697548804
 40
0.1729044423385679
 40
0.3024608263731589
 40
0.4186204474103067
 40
0.5348620024176138
 40
0.6512336048027508
 40
0.7674057590156265
 40
0.8836150984458504
 40
1.0
 40
1.0
 40
1.0
 40
1.0
 10
24.5763631793677
 20
-9.586164645555948
 30
0.0
 10
24.39489416861787
 20
-9.59470149036929
 30
0.0
 10
23.67009727260141
 20
-9.628798103322206
 30
0.0
 10
22.40106165334046
 20
-9.403253940493354
 30
0.0
 10
20.82691808872761
 20
-8.930791514283538
 30
0.0
 10
19.3104335844734
 20
-8.229248320375868
 30
0.0
 10
17.84846966757593
 20
-7.366356824494268
 30
0.0
 10
16.38479679029871
 20
-6.332690550457858
 30
0.0
 10
14.92370068782278
 20
-5.149818095035071
 30
0.0
 10
13.46196417897884
 20
-3.852181544020879
 30
0.0
 10
12.48611798879093
 20
-2.918848145502762
 30
0.0
 10
11.99782660936402
 20
-2.451829206237499
 30
0.0
  0
LINE
  5
BF
330
1F
100
AcDbEntity
  8
외형선
  6
Continuous
370
    15
100
AcDbLine
 10
11.99782660936403
 20
-2.451829206237499
 30
0.0
 11
11.997826609364
 21
1.184031241391103
 31
0.0
  0
SPLINE
  5
C0
330
1F
100
AcDbEntity
  8
0
  6
Continuous
 62
     1
370
    15
100
AcDbSpline
210
0.0
220
0.0
230
1.0
 70
     8
 71
     3
 72
    16
 73
    12
 74
     0
 42
0.000000001
 43
0.00000001
 40
0.0
 40
0.0
 40
0.0
 40
0.0
 40
0.0934866554537233
 40
0.2068078611883471
 40
0.3200593236449318
 40
0.4333419527635436
 40
0.5467473593842065
 40
0.6600953829044178
 40
0.7733529613857442
 40
0.8866209305376386
 40
0.9999999999999999
 40
0.9999999999999999
 40
0.9999999999999999
 40
0.9999999999999999
 10
35.72053827411813
 20
9.412688659211751
 30
0.0
 10
36.1687903116743
 20
9.402564943818943
 30
0.0
 10
37.16039755990023
 20
9.380169619935494
 30
0.0
 10
38.69416742407504
 20
9.012320744790076
 30
0.0
 10
40.32227553476906
 20
8.385531074906755
 30
0.0
 10
41.95088098921115
 20
7.503156906751324
 30
0.0
 10
43.58144868512731
 20
6.401869375743712
 30
0.0
 10
45.21109818323661
 20
5.110157761756716
 30
0.0
 10
46.83931030207337
 20
3.666311451144463
 30
0.0
 10
48.4676791939731
 20
2.113805805848468
 30
0.0
 10
49.55426659249066
 20
1.03340661911715
 30
0.0
 10
50.09782660936398
 20
0.4929422248394487
 30
0.0
  0
LINE
  5
C1
330
1F
100
AcDbEntity
  8
0
  6
Continuous
 62
     1
370
    15
100
AcDbLine
 10
50.097826609364
 20
-3.117880236674673
 30
0.0
 11
50.097826609364
 21
0.4929422248394494
 31
0.0
  0
LINE
  5
C2
330
1F
100
AcDbEntity
  8
0
  6
Continuous
 62
     1
370
    15
100
AcDbLine
 10
50.097826609364
 20
-8.617994803040682
 30
0.0
 11
50.097826609364
 21
-6.400897789171174
 31
0.0
  0
LINE
  5
C3
330
1F
100
AcDbEntity
  8
외형선
  6
Continuous
370
    15
100
AcDbLine
 10
11.99782660936403
 20
4.764547018366327
 30
0.0
 11
11.997826609364
 21
7.484716441088071
 31
0.0
  0
LINE
  5
C4
330
1F
100
AcDbEntity
  8
외형선
  6
Continuous
370
    15
100
AcDbLine
 10
11.99782660936403
 20
9.135942434028815
 30
0.0
 11
11.997826609364
 21
9.432860987077005
 31
0.0
  0
LINE
  5
C5
330
1F
100
AcDbEntity
  8
0
  6
Continuous
 62
     1
370
    15
100
AcDbLine
 10
50.097826609364
 20
-9.617139012922996
 30
0.0
 11
50.097826609364
 21
-9.59915247379589
 31
0.0
  0
SPLINE
  5
C6
330
1F
100
AcDbEntity
  8
0
  6
Continuous
 62
     1
370
    15
100
AcDbSpline
210
0.0
220
0.0
230
1.0
 70
     8
 71
     3
 72
    15
 73
    11
 74
     0
 42
0.000000001
 43
0.00000001
 40
0.0
 40
0.0
 40
0.0
 40
0.0
 40
0.1307460895556554
 40
0.2613640608333024
 40
0.3919700498328161
 40
0.5226803379345346
 40
0.6534567988847925
 40
0.7840916756929767
 40
0.9146906118358884
 40
1.0
 40
1.0
 40
1.0
 40
1.0
 10
50.09782660936398
 20
4.15467250233371
 30
0.0
 10
49.55426660107352
 20
4.628860221087473
 30
0.0
 10
48.46767921971325
 20
5.57677100137897
 30
0.0
 10
46.8393101992346
 20
6.800657350789013
 30
0.0
 10
45.21109856898516
 20
7.832327083296656
 30
0.0
 10
43.58144724340263
 20
8.629448384363672
 30
0.0
 10
41.95088637036164
 20
9.175414229167512
 30
0.0
 10
40.32225547891752
 20
9.440141268704759
 30
0.0
 10
38.88270982610115
 20
9.464069000643292
 30
0.0
 10
37.9853790334879
 20
9.282986061965852
 30
0.0
 10
37.63082697467153
 20
9.21143683034121
 30
0.0
  0
LINE
  5
C7
330
1F
100
AcDbEntity
  8
0
  6
Continuous
 62
     1
370
    15
100
AcDbLine
 10
50.097826609364
 20
0.4929422248394494
 30
0.0
 11
50.097826609364
 21
4.15467250233371
 31
0.0
  0
SPLINE
  5
C8
330
1F
100
AcDbEntity
  8
0
  6
Continuous
 62
     1
370
    15
100
AcDbSpline
210
0.0
220
0.0
230
1.0
 70
     8
 71
     3
 72
    15
 73
    11
 74
     0
 42
0.000000001
 43
0.00000001
 40
0.0
 40
0.0
 40
0.0
 40
0.0
 40
0.1371895734292945
 40
0.2741722016915619
 40
0.4111109976006829
 40
0.5482848945350093
 40
0.6853054971497818
 40
0.8222295194842465
 40
0.9749450764285305
 40
1.0
 40
1.0
 40
1.0
 40
1.0
 10
11.997826609364
 20
-5.86421718538593
 30
0.0
 10
12.48611799771375
 20
-6.23896234410276
 30
0.0
 10
13.46196420573392
 20
-6.987887372954172
 30
0.0
 10
14.92370058100474
 20
-7.913328145885814
 30
0.0
 10
16.38479719103353
 20
-8.665035830955729
 30
0.0
 10
17.8484681693255
 20
-9.210029866794235
 30
0.0
 10
19.31043916722508
 20
-9.547682226567135
 30
0.0
 10
20.82689625447752
 20
-9.644842828438728
 30
0.0
 10
21.94666204306006
 20
-9.59926374222743
 30
0.0
 10
22.57923861347319
 20
-9.431567241297543
 30
0.0
 10
22.66839378467385
 20
-9.407932141691518
 30
0.0
  0
SPLINE
  5
C9
330
1F
100
AcDbEntity
  8
외형선
  6
Continuous
370
    15
100
AcDbSpline
210
0.0
220
0.0
230
1.0
 70
    24
 71
     3
 72
    23
 73
    19
 74
     0
 42
0.000000001
 43
0.00000001
 40
0.0
 40
0.0
 40
0.0
 40
0.0
 40
0.0540034648504706
 40
0.1203463537722748
 40
0.1886131909671975
 40
0.2549560798890041
 40
0.3232229170839306
 40
0.3895658060057761
 40
0.4578326432006606
 40
0.5241755321224494
 40
0.5924423693173552
 40
0.6587852582391774
 40
0.7270520954341207
 40
0.79339498435572
 40
0.8616618215508481
 40
0.928004710472653
 40
0.9962715476675774
 40
0.9999999999999999
 40
0.9999999999999999
 40
0.9999999999999999
 40
0.9999999999999999
 10
11.997826609364
 20
-2.347367881057378
 30
0.0
 10
11.997826609364
 20
-2.356127957773465
 30
0.0
 10
11.99782660936399
 20
-2.375649729098057
 30
0.0
 10
11.997826609364
 20
-2.470046190740804
 30
0.0
 10
11.99782660936396
 20
-2.614578728216415
 30
0.0
 10
11.99782660936395
 20
-2.808483683718514
 30
0.0
 10
11.99782660936408
 20
-3.040679730550827
 30
0.0
 10
11.99782660936396
 20
-3.309338232251415
 30
0.0
 10
11.99782660936396
 20
-3.601868523827598
 30
0.0
 10
11.99782660936398
 20
-3.915296039505904
 30
0.0
 10
11.99782660936402
 20
-4.235097524657366
 30
0.0
 10
11.99782660936396
 20
-4.557978841468223
 30
0.0
 10
11.99782660936396
 20
-4.868992330153763
 30
0.0
 10
11.99782660936399
 20
-5.164919472898714
 30
0.0
 10
11.99782660936394
 20
-5.432107044214672
 30
0.0
 10
11.9978266093642
 20
-5.667617312406256
 30
0.0
 10
11.99782660936362
 20
-5.800902960265825
 30
0.0
 10
11.99782660936399
 20
-5.861099747386605
 30
0.0
 10
11.997826609364
 20
-5.864217185385928
 30
0.0
  0
SPLINE
  5
CA
330
1F
100
AcDbEntity
  8
0
  6
Continuous
 62
     1
370
    15
100
AcDbSpline
210
0.0
220
0.0
230
1.0
 70
     8
 71
     3
 72
    10
 73
     6
 74
     0
 42
0.000000001
 43
0.00000001
 40
0.0
 40
0.0
 40
0.0
 40
0.0
 40
0.4589937172815643
 40
0.9172950602877846
 40
1.0
 40
1.0
 40
1.0
 40
1.0
 10
11.997826609364
 20
-9.531260501811888
 30
0.0
 10
12.48612775339501
 20
-9.571486101676063
 30
0.0
 10
13.46199345806158
 20
-9.651876622642353
 30
0.0
 10
14.52462066854623
 20
-9.58034867678521
 30
0.0
 10
15.09953581772865
 20
-9.43293379348801
 30
0.0
 10
15.18742448791903
 20
-9.410398123524038
 30
0.0
  0
SPLINE
  5
CB
330
1F
100
AcDbEntity
  8
0
  6
Continuous
 62
     1
370
    15
100
AcDbSpline
210
0.0
220
0.0
230
1.0
 70
     8
 71
     3
 72
    12
 73
     8
 74
     0
 42
0.000000001
 43
0.00000001
 40
0.0
 40
0.0
 40
0.0
 40
0.0
 40
0.054911720178309
 40
0.2912564846001234
 40
0.5274126598366613
 40
0.7635905009171315
 40
1.0
 40
1.0
 40
1.0
 40
1.0
 10
43.20282901420185
 20
9.408028159615112
 30
0.0
 10
43.32908493661986
 20
9.415589907823227
 30
0.0
 10
43.99875720337845
 20
9.455698070404456
 30
0.0
 10
45.21110375797785
 20
9.25394624917938
 30
0.0
 10
46.83930881587309
 20
8.79137798013252
 30
0.0
 10
48.46767956596258
 20
8.061584069485853
 30
0.0
 10
49.55426671652769
 20
7.383338569653104
 30
0.0
 10
50.09782660936398
 20
7.04404958485878
 30
0.0
  0
LINE
  5
CC
330
1F
100
AcDbEntity
  8
0
  6
Continuous
 62
     1
370
    15
100
AcDbLine
 10
50.097826609364
 20
4.15467250233371
 30
0.0
 11
50.097826609364
 21
7.04404958485878
 31
0.0
  0
SPLINE
  5
CD
330
1F
100
AcDbEntity
  8
0
  6
Continuous
 62
     1
370
    15
100
AcDbSpline
210
0.0
220
0.0
230
1.0
 70
     8
 71
     3
 72
    11
 73
     7
 74
     0
 42
0.000000001
 43
0.00000001
 40
0.0
 40
0.0
 40
0.0
 40
0.0
 40
0.3268407696562233
 40
0.6533612675801631
 40
0.979851812049888
 40
1.0
 40
1.0
 40
1.0
 40
1.0
 10
50.09782660936398
 20
8.939500652546897
 30
0.0
 10
49.55427110510031
 20
9.088118421662974
 30
0.0
 10
48.46769272738006
 20
9.385208329133057
 30
0.0
 10
46.83925623239292
 20
9.45580171260917
 30
0.0
 10
45.72074710501722
 20
9.402742141574992
 30
0.0
 10
45.14440376745049
 20
9.243717590640294
 30
0.0
 10
45.11090412415321
 20
9.234474375034965
 30
0.0
  0
SPLINE
  5
CE
330
1F
100
AcDbEntity
  8
0
  6
Continuous
 62
     1
370
    15
100
AcDbSpline
210
0.0
220
0.0
230
1.0
 70
     8
 71
     3
 72
    11
 73
     7
 74
     0
 42
0.000000001
 43
0.00000001
 40
0.0
 40
0.0
 40
0.0
 40
0.0
 40
0.1393389240436905
 40
0.4260203607241604
 40
0.7127935604575313
 40
1.0
 40
1.0
 40
1.0
 40
1.0
 10
17.09489216296996
 20
-9.589091800070204
 30
0.0
 10
16.85801445445409
 20
-9.594838746165587
 30
0.0
 10
16.13377513997646
 20
-9.612409687418507
 30
0.0
 10
14.92371479018906
 20
-9.397326409574552
 30
0.0
 10
13.46196064670177
 20
-8.977442774948909
 30
0.0
 10
12.48611681077291
 20
-8.516550831120941
 30
0.0
 10
11.99782660936403
 20
-8.285930918596442
 30
0.0
  0
LINE
  5
CF
330
1F
100
AcDbEntity
  8
외형선
  6
Continuous
370
    15
100
AcDbLine
 10
11.99782660936403
 20
-8.285930918596472
 30
0.0
 11
11.997826609364
 21
-5.864217185385928
 31
0.0
  0
LINE
  5
D0
330
1F
100
AcDbEntity
  8
0
  6
Continuous
 62
     1
370
    15
100
AcDbLine
 10
50.097826609364
 20
8.939500652546897
 30
0.0
 11
50.097826609364
 21
9.432860987077005
 31
0.0
  0
SPLINE
  5
D1
330
1F
100
AcDbEntity
  8
외형선
  6
Continuous
370
    15
100
AcDbSpline
210
0.0
220
0.0
230
1.0
 70
    24
 71
     3
 72
    10
 73
     6
 74
     0
 42
0.000000001
 43
0.00000001
 40
0.0
 40
0.0
 40
0.0
 40
0.0
 40
0.4491371633793256
 40
0.9851017763039278
 40
1.0
 40
1.0
 40
1.0
 40
1.0
 10
11.99782660936398
 20
-8.360303727327775
 30
0.0
 10
11.99782660936406
 20
-8.529649307207043
 30
0.0
 10
11.99782660936427
 20
-8.901078449906137
 30
0.0
 10
11.99782660936314
 20
-9.312235745064513
 30
0.0
 10
11.99782660936399
 20
-9.525492908299574
 30
0.0
 10
11.997826609364
 20
-9.531260501811886
 30
0.0
  0
LINE
  5
D2
330
1F
100
AcDbEntity
  8
0
  6
Continuous
 62
     1
370
    15
100
AcDbLine
 10
50.097826609364
 20
7.026340753247561
 30
0.0
 11
50.097826609364
 21
8.939500652546897
 31
0.0
  0
LINE
  5
D3
330
1F
100
AcDbEntity
  8
외형선
  6
Continuous
370
    15
100
AcDbLine
 10
-52.77217339063601
 20
-0.0921390129229961
 30
0.0
 11
-52.77217339063601
 21
9.432860987077005
 31
0.0
  0
LINE
  5
D4
330
1F
100
AcDbEntity
  8
외형선
  6
Continuous
370
    15
100
AcDbLine
 10
-52.77217339063601
 20
-9.617139012922996
 30
0.0
 11
-52.77217339063601
 21
-0.0921390129229961
 31
0.0
  0
LINE
  5
D5
330
1F
100
AcDbEntity
  8
외형선
  6
Continuous
370
    15
100
AcDbLine
 10
-54.67717339063601
 20
-0.0921390129229961
 30
0.0
 11
-54.67717339063601
 21
7.527860987077011
 31
0.0
  0
LINE
  5
D6
330
1F
100
AcDbEntity
  8
외형선
  6
Continuous
370
    15
100
AcDbLine
 10
-54.67717339063601
 20
-7.712139012923003
 30
0.0
 11
-54.67717339063601
 21
-0.0921390129229961
 31
0.0
  0
SPLINE
  5
D7
330
1F
100
AcDbEntity
  8
외형선
  6
Continuous
370
    15
100
AcDbSpline
210
0.0
220
0.0
230
1.0
 70
     8
 71
     3
 72
     8
 73
     4
 74
     0
 42
0.000000001
 43
0.00000001
 40
0.0
 40
0.0
 40
0.0
 40
0.0
 40
1.0
 40
1.0
 40
1.0
 40
1.0
 10
11.997826609364
 20
9.135942434028783
 30
0.0
 10
11.66408550296641
 20
9.218668773051164
 30
0.0
 10
11.33271345832934
 20
9.284233799970991
 30
0.0
 10
10.99817764052518
 20
9.332596276929126
 30
0.0
  0
LINE
  5
D8
330
1F
100
AcDbEntity
  8
외형선
  6
Continuous
370
    15
100
AcDbLine
 10
10.9981776405252
 20
8.04853043698671
 30
0.0
 11
10.9981776405252
 21
9.332596595586462
 31
0.0
  0
SPLINE
  5
D9
330
1F
100
AcDbEntity
  8
외형선
  6
Continuous
370
    15
100
AcDbSpline
210
0.0
220
0.0
230
1.0
 70
     8
 71
     3
 72
     8
 73
     4
 74
     0
 42
0.000000001
 43
0.00000001
 40
0.0
 40
0.0
 40
0.0
 40
0.0
 40
1.0
 40
1.0
 40
1.0
 40
1.0
 10
11.997826609364
 20
7.484716441088072
 30
0.0
 10
11.66408550296642
 20
7.687074740966474
 30
0.0
 10
11.33271345832931
 20
7.875025219524533
 30
0.0
 10
10.9981776405252
 20
8.048532447571485
 30
0.0
  0
SPLINE
  5
DA
330
1F
100
AcDbEntity
  8
외형선
  6
Continuous
370
    15
100
AcDbSpline
210
0.0
220
0.0
230
1.0
 70
     8
 71
     3
 72
     8
 73
     4
 74
     0
 42
0.000000001
 43
0.00000001
 40
0.0
 40
0.0
 40
0.0
 40
0.0
 40
1.0
 40
1.0
 40
1.0
 40
1.0
 10
11.997826609364
 20
4.764547018366316
 30
0.0
 10
11.66408550296641
 20
5.051806086945773
 30
0.0
 10
11.33271345832934
 20
5.329458072368254
 30
0.0
 10
10.99817764052518
 20
5.597478424677191
 30
0.0
  0
LINE
  5
DB
330
1F
100
AcDbEntity
  8
외형선
  6
Continuous
370
    15
100
AcDbLine
 10
10.9981776405252
 20
2.167390319887035
 30
0.0
 11
10.9981776405252
 21
5.597480190647783
 31
0.0
  0
SPLINE
  5
DC
330
1F
100
AcDbEntity
  8
외형선
  6
Continuous
370
    15
100
AcDbSpline
210
0.0
220
0.0
230
1.0
 70
     8
 71
     3
 72
     8
 73
     4
 74
     0
 42
0.000000001
 43
0.00000001
 40
0.0
 40
0.0
 40
0.0
 40
0.0
 40
1.0
 40
1.0
 40
1.0
 40
1.0
 10
11.997826609364
 20
1.184031241391116
 30
0.0
 10
11.66408550296642
 20
1.514949243498186
 30
0.0
 10
11.33271345832931
 20
1.842740001827745
 30
0.0
 10
10.9981776405252
 20
2.16739408194567
 30
0.0
  0
SPLINE
  5
DD
330
1F
100
AcDbEntity
  8
외형선
  6
Continuous
370
    15
100
AcDbSpline
210
0.0
220
0.0
230
1.0
 70
     8
 71
     3
 72
     8
 73
     4
 74
     0
 42
0.000000001
 43
0.00000001
 40
0.0
 40
0.0
 40
0.0
 40
0.0
 40
1.0
 40
1.0
 40
1.0
 40
1.0
 10
11.997826609364
 20
-2.451829206237479
 30
0.0
 10
11.66408550296641
 20
-2.12830987456013
 30
0.0
 10
11.33271345832934
 20
-1.80121569807567
 30
0.0
 10
10.99817764052518
 20
-1.470540157806491
 30
0.0
  0
SPLINE
  5
DE
330
1F
100
AcDbEntity
  8
외형선
  6
Continuous
370
    15
100
AcDbSpline
210
0.0
220
0.0
230
1.0
 70
     8
 71
     3
 72
     8
 73
     4
 74
     0
 42
0.000000001
 43
0.00000001
 40
0.0
 40
0.0
 40
0.0
 40
0.0
 40
1.0
 40
1.0
 40
1.0
 40
1.0
 10
11.997826609364
 20
-5.864217185385928
 30
0.0
 10
11.66408550296642
 20
-5.598586758651105
 30
0.0
 10
11.33271345832931
 20
-5.32297110115894
 30
0.0
 10
10.9981776405252
 20
-5.037348126023363
 30
0.0
  0
SPLINE
  5
DF
330
1F
100
AcDbEntity
  8
외형선
  6
Continuous
370
    15
100
AcDbSpline
210
0.0
220
0.0
230
1.0
 70
     8
 71
     3
 72
     8
 73
     4
 74
     0
 42
0.000000001
 43
0.00000001
 40
0.0
 40
0.0
 40
0.0
 40
0.0
 40
1.0
 40
1.0
 40
1.0
 40
1.0
 10
11.997826609364
 20
-8.285930918596433
 30
0.0
 10
11.66408550296641
 20
-8.115664560627906
 30
0.0
 10
11.33271345832934
 20
-7.930735525492803
 30
0.0
 10
10.99817764052518
 20
-7.731110044008018
 30
0.0
  0
LINE
  5
E0
330
1F
100
AcDbEntity
  8
외형선
  6
Continuous
370
    15
100
AcDbLine
 10
10.9981776405252
 20
-9.345254822971587
 30
0.0
 11
10.9981776405252
 21
-7.731108728686955
 31
0.0
  0
SPLINE
  5
E1
330
1F
100
AcDbEntity
  8
외형선
  6
Continuous
370
    15
100
AcDbSpline
210
0.0
220
0.0
230
1.0
 70
     8
 71
     3
 72
     8
 73
     4
 74
     0
 42
0.000000001
 43
0.00000001
 40
0.0
 40
0.0
 40
0.0
 40
0.0
 40
1.0
 40
1.0
 40
1.0
 40
1.0
 10
11.997826609364
 20
-9.53126050181188
 30
0.0
 10
11.66408550296642
 20
-9.48652035185161
 30
0.0
 10
11.33271345832931
 20
-9.424531709353374
 30
0.0
 10
10.9981776405252
 20
-9.345253904309212
 30
0.0
  0
LINE
  5
E2
330
1F
100
AcDbEntity
  8
외형선
  6
Continuous
370
    15
100
AcDbLine
 10
10.9981776405252
 20
-5.037351435792929
 30
0.0
 11
10.9981776405252
 21
-1.470537979004266
 31
0.0
  0
SPLINE
  5
E3
330
1F
100
AcDbEntity
  8
외형선
  6
Continuous
370
    15
100
AcDbSpline
210
0.0
220
0.0
230
1.0
 70
    24
 71
     3
 72
    16
 73
    12
 74
     0
 42
0.000000001
 43
0.00000001
 40
0.0
 40
0.0
 40
0.0
 40
0.0
 40
0.0991954633386314
 40
0.2270857085358164
 40
0.3549759537330106
 40
0.4828661989301989
 40
0.6107564441273874
 40
0.7386466893245643
 40
0.8665369345217665
 40
0.9944271797189487
 40
1.0
 40
1.0
 40
1.0
 40
1.0
 10
11.99782660936403
 20
1.155035115598457
 30
0.0
 10
11.99782660936402
 20
1.171583588759676
 30
0.0
 10
11.99782660936403
 20
1.20946759702498
 30
0.0
 10
11.99782660936395
 20
1.516758501315958
 30
0.0
 10
11.99782660936406
 20
1.995300374193652
 30
0.0
 10
11.99782660936399
 20
2.597973012988141
 30
0.0
 10
11.997826609364
 20
3.248290906892525
 30
0.0
 10
11.99782660936405
 20
3.875418732679431
 30
0.0
 10
11.99782660936385
 20
4.407258983123969
 30
0.0
 10
11.99782660936419
 20
4.665895911184945
 30
0.0
 10
11.99782660936399
 20
4.760592896106231
 30
0.0
 10
11.99782660936396
 20
4.764547018366443
 30
0.0
  0
SPLINE
  5
E4
330
1F
100
AcDbEntity
  8
외형선
  6
Continuous
370
    15
100
AcDbSpline
210
0.0
220
0.0
230
1.0
 70
    24
 71
     3
 72
    15
 73
    11
 74
     0
 42
0.000000001
 43
0.00000001
 40
0.0
 40
0.0
 40
0.0
 40
0.0
 40
0.0909318906945159
 40
0.2253273598157297
 40
0.3597228289369467
 40
0.4941182980581732
 40
0.6285137671793933
 40
0.7629092363006137
 40
0.8973047054218221
 40
1.0
 40
1.0
 40
1.0
 40
1.0
 10
11.997826609364
 20
-5.864217185385928
 30
0.0
 10
11.99782660936402
 20
-5.780266026580891
 30
0.0
 10
11.99782660936403
 20
-5.572236777188508
 30
0.0
 10
11.99782660936405
 20
-5.092194342396402
 30
0.0
 10
11.99782660936392
 20
-4.469093530083111
 30
0.0
 10
11.99782660936406
 20
-3.817809450926777
 30
0.0
 10
11.99782660936399
 20
-3.213198444101435
 30
0.0
 10
11.99782660936399
 20
-2.731085811897959
 30
0.0
 10
11.99782660936403
 20
-2.420279276900584
 30
0.0
 10
11.99782660936399
 20
-2.379302666373055
 30
0.0
 10
11.99782660936398
 20
-2.361553745987968
 30
0.0
  0
SPLINE
  5
E5
330
1F
100
AcDbEntity
  8
외형선
  6
Continuous
370
    15
100
AcDbSpline
210
0.0
220
0.0
230
1.0
 70
    24
 71
     3
 72
    11
 73
     7
 74
     0
 42
0.000000001
 43
0.00000001
 40
0.0
 40
0.0
 40
0.0
 40
0.0
 40
0.2021737270995341
 40
0.5925808637159243
 40
0.9829880003322526
 40
1.0
 40
1.0
 40
1.0
 40
1.0
 10
11.997826609364
 20
7.559079249819375
 30
0.0
 10
11.99782660936402
 20
7.653383786266019
 30
0.0
 10
11.99782660936403
 20
7.92979489299884
 30
0.0
 10
11.99782660936377
 20
8.48197827383116
 30
0.0
 10
11.99782660936437
 20
8.917855261350049
 30
0.0
 10
11.99782660936398
 20
9.127201089215047
 30
0.0
 10
11.99782660936396
 20
9.135942434029051
 30
0.0
  0
SPLINE
  5
E6
330
1F
100
AcDbEntity
  8
외형선
  6
Continuous
370
    15
100
AcDbSpline
210
0.0
220
0.0
230
1.0
 70
    24
 71
     3
 72
    10
 73
     6
 74
     0
 42
0.000000001
 43
0.00000001
 40
0.0
 40
0.0
 40
0.0
 40
0.0
 40
0.3613254085062846
 40
0.8953569502538831
 40
1.0
 40
1.0
 40
1.0
 40
1.0
 10
11.997826609364
 20
-9.53126050181188
 30
0.0
 10
11.997826609364
 20
-9.389371828827828
 30
0.0
 10
11.99782660936405
 20
-9.03777460779719
 30
0.0
 10
11.99782660936402
 20
-8.617875663741998
 30
0.0
 10
11.99782660936405
 20
-8.396555693801407
 30
0.0
 10
11.99782660936403
 20
-8.360293727327777
 30
0.0
  0
SPLINE
  5
E7
330
1F
100
AcDbEntity
  8
외형선
  6
Continuous
370
    15
100
AcDbSpline
210
0.0
220
0.0
230
1.0
 70
    24
 71
     3
 72
    11
 73
     7
 74
     0
 42
0.000000001
 43
0.00000001
 40
0.0
 40
0.0
 40
0.0
 40
0.0
 40
0.3747543903609724
 40
0.5643469658685215
 40
0.7545631424107537
 40
0.9999999999999999
 40
0.9999999999999999
 40
0.9999999999999999
 40
0.9999999999999999
 10
11.997826609364
 20
-1.368309267237174
 30
0.0
 10
11.99782660936399
 20
-1.353772093461185
 30
0.0
 10
11.99782660936395
 20
-1.331880395528358
 30
0.0
 10
11.99782660936406
 20
-1.319235404565985
 30
0.0
 10
11.99782660936405
 20
-1.314263785804156
 30
0.0
 10
11.99782660936402
 20
-1.318612965376491
 30
0.0
 10
11.997826609364
 20
-1.321063192698913
 30
0.0
  0
LINE
  5
E8
330
1F
100
AcDbEntity
  8
중심선
100
AcDbLine
 10
-57.67717339063602
 20
-0.0921390129230048
 30
0.0
 11
53.09782660936399
 21
-0.0921390129230048
 31
0.0
  0
LINE
  5
E9
330
1F
100
AcDbEntity
  8
참조1
100
AcDbLine
 10
-4.287499999999972
 20
0.0010749287238892
 30
0.0
 11
-4.287499999999967
 21
-39.99892507127611
 31
0.0
  0
LINE
  5
EA
330
1F
100
AcDbEntity
  8
참조1
100
AcDbLine
 10
-4.287499999999967
 20
-39.99892507127611
 30
0.0
 11
-19.44635681430862
 21
-39.9989250712761
 31
0.0
  0
CIRCLE
  5
EB
330
1F
100
AcDbEntity
  8
해칭선
100
AcDbCircle
 10
0.0
 20
0.0
 30
0.0
 40
3.000000000000001
  0
INSERT
  5
EC
330
1F
100
AcDbEntity
  8
0
  6
Continuous
 62
     7
100
AcDbBlockReference
 66
     1
  2
블럭10
 10
-18.22777293212518
 20
-52.04609937292004
 30
0.0
  0
ATTRIB
  5
ED
330
EC
100
AcDbEntity
  8
FORMAT
 62
     2
100
AcDbText
 10
-28.36940894426181
 20
-49.97073246008785
 30
0.0
 40
4.233333333333333
  1
EM208048 [ 8 FLUTE ]
 41
0.75
  7
SLDTEXTSTYLE0
 11
-28.36940894426181
 21
-52.08739912675452
 31
0.0
100
AcDbAttribute
  2
AUTOATTR0
 70
     0
 74
     1
  0
SEQEND
  5
EE
330
EC
100
AcDbEntity
  8
0
  6
Continuous
 62
     7
  0
HATCH
  5
EF
330
1F
100
AcDbEntity
  8
중심선
100
AcDbHatch
 10
0.0
 20
0.0
 30
0.0
210
0.0
220
0.0
230
1.0
  2
SOLID
 70
     1
 71
     0
 91
        1
 92
        0
 93
        4
 72
     1
 10
-12.51286362774434
 20
-35.7989250712761
 11
-15.95913887158162
 21
-35.7989250712761
 72
     1
 10
-15.95913887158162
 20
-35.7989250712761
 11
-18.08736873078565
 21
-38.3352506518487
 72
     1
 10
-18.08736873078565
 20
-38.3352506518487
 11
-14.64106040183522
 21
-38.33521122254621
 72
     1
 10
-14.64106040183522
 20
-38.33521122254621
 11
-12.51286362774434
 21
-35.7989250712761
 97
        0
 75
     0
 76
     1
 98
        1
 10
0.0
 20
0.0
  0
HATCH
  5
F0
330
1F
100
AcDbEntity
  8
중심선
100
AcDbHatch
 10
0.0
 20
0.0
 30
0.0
210
0.0
220
0.0
230
1.0
  2
SOLID
 70
     1
 71
     0
 91
        1
 92
        0
 93
        4
 72
     1
 10
-7.500099636708391
 20
-35.7989250712761
 11
-10.94637488054567
 21
-35.7989250712761
 72
     1
 10
-10.94637488054567
 20
-35.7989250712761
 11
-15.47751288890306
 21
-41.19892507127612
 72
     1
 10
-15.47751288890306
 20
-41.19892507127612
 11
-12.03123764506578
 21
-41.19892507127612
 72
     1
 10
-12.03123764506578
 20
-41.19892507127612
 11
-7.500099636708391
 21
-35.7989250712761
 97
        0
 75
     0
 76
     1
 98
        1
 10
0.0
 20
0.0
  0
HATCH
  5
F1
330
1F
100
AcDbEntity
  8
중심선
100
AcDbHatch
 10
0.0
 20
0.0
 30
0.0
210
0.0
220
0.0
230
1.0
  2
SOLID
 70
     1
 71
     0
 91
        1
 92
        0
 93
        4
 72
     1
 10
-2.487335645672467
 20
-35.7989250712761
 11
-5.933610889509583
 21
-35.7989250712761
 72
     1
 10
-5.933610889509583
 20
-35.7989250712761
 11
-12.98204779139886
 21
-44.19892507127612
 72
     1
 10
-12.98204779139886
 20
-44.19892507127612
 11
-9.535772547561578
 21
-44.19892507127612
 72
     1
 10
-9.535772547561578
 20
-44.19892507127612
 11
-2.487335645672467
 21
-35.7989250712761
 97
        0
 75
     0
 76
     1
 98
        1
 10
0.0
 20
0.0
  0
HATCH
  5
F2
330
1F
100
AcDbEntity
  8
중심선
100
AcDbHatch
 10
0.0
 20
0.0
 30
0.0
210
0.0
220
0.0
230
1.0
  2
SOLID
 70
     1
 71
     0
 91
        1
 92
        0
 93
        6
 72
     3
 10
2.312554785339704
 20
-39.99892507132738
 11
3.960054785062284
 21
1.540850780301639E-10
 40
0.3939339440162633
 50
17.09539180608434
 51
320.0019657685081
 73
     0
 72
     1
 10
3.9955544410403
 20
-38.58681907591441
 11
6.300856314741365
 21
-36.65249236586649
 72
     3
 10
2.312554785286858
 20
-39.99892507127625
 11
6.600054785286829
 21
-1.249000902703301E-13
 40
0.6363583540795982
 50
39.99873849337388
 51
368.4976242363725
 73
     1
 72
     1
 10
8.737887277187466
 20
-39.03892507120613
 11
0.9926220921227804
 21
-39.0389250712061
 72
     1
 10
0.9926220921227802
 20
-39.0389250712061
 11
0.9925970476768464
 21
-40.95892507120602
 72
     1
 10
0.9925970476768464
 20
-40.95892507120602
 11
5.433976817148883
 21
-40.95892507120599
 97
        0
 75
     0
 76
     1
 98
        1
 10
0.0
 20
0.0
  0
DIMENSION
  5
F3
330
1F
100
AcDbEntity
  8
치수문자_일반주서
100
AcDbDimension
  2
_D
 10
69.09782660936398
 20
9.432860987077076
 30
0.0
 11
69.09782660936402
 21
-0.0921390129229941
 31
0.0
 70
   160
  1
%%c<>
 71
     2
 42
19.05
 52
-270.0
  3
SLDDIMSTYLE0
100
AcDbAlignedDimension
 13
50.097826609364
 23
-9.617139012922996
 33
0.0
 14
50.097826609364
 24
9.432860987077005
 34
0.0
 50
90.0000000000002
100
AcDbRotatedDimension
1001
ACAD
1000
DSTYLE
1002
{
1070
   171
1070
     6
1070
   273
1070
     7
1002
}
  0
DIMENSION
  5
108
330
1F
100
AcDbEntity
  8
치수문자_일반주서
100
AcDbDimension
  2
_D_1
 10
11.997826609364
 20
38.47737766869759
 30
0.0
 11
31.047826609364
 21
38.47737766869759
 31
0.0
 70
   160
  1
<>
 71
     2
 42
38.09999999999999
  3
SLDDIMSTYLE0
100
AcDbAlignedDimension
 13
50.097826609364
 23
9.432860987077007
 33
0.0
 14
11.997826609364
 24
9.432860987077005
 34
0.0
100
AcDbRotatedDimension
1001
ACAD
1000
DSTYLE
1002
{
1070
   171
1070
     6
1070
   273
1070
     7
1002
}
  0
DIMENSION
  5
11C
330
1F
100
AcDbEntity
  8
치수문자_일반주서
100
AcDbDimension
  2
_D_2
 10
-54.67717339063601
 20
54.10467051182895
 30
0.0
 11
-2.289673390636003
 21
54.10467051182895
 31
0.0
 70
   160
  1
<>
 71
     2
 42
104.775
  3
SLDDIMSTYLE0
100
AcDbAlignedDimension
 13
50.097826609364
 23
9.432860987077007
 33
0.0
 14
-54.67717339063601
 24
7.527860987077011
 34
0.0
100
AcDbRotatedDimension
1001
ACAD
1000
DSTYLE
1002
{
1070
   171
1070
     6
1070
   273
1070
     7
1002
}
  0
DIMENSION
  5
130
330
1F
100
AcDbEntity
  8
치수문자_일반주서
100
AcDbDimension
  2
_D_3
 10
-67.67717339063599
 20
-9.617139012923056
 30
0.0
 11
-67.67717339063603
 21
-0.0921390129229883
 31
0.0
 70
   160
  1
%%c<>
 71
     2
 42
19.05000000000001
 52
-270.0
  3
SLDDIMSTYLE0
100
AcDbAlignedDimension
 13
-52.77217339063602
 23
9.43286098707701
 33
0.0
 14
-52.77217339063602
 24
-9.617139012923001
 34
0.0
 50
90.0000000000002
100
AcDbRotatedDimension
1001
ACAD
1000
DSTYLE
1002
{
1070
   171
1070
     6
1070
   273
1070
     7
1002
}
  0
LINE
  5
144
330
1F
100
AcDbEntity
  8
참조1
100
AcDbLine
 10
78.52598381534564
 20
7.441074928723896
 30
0.0
 11
78.52598381534564
 21
-7.438925071276109
 31
0.0
  0
LINE
  5
145
330
1F
100
AcDbEntity
  8
참조1
100
AcDbLine
 10
91.22598381534564
 20
5.441074928723896
 30
0.0
 11
78.52598381534564
 21
5.441074928723896
 31
0.0
  0
SOLID
  5
146
330
1F
100
AcDbEntity
  8
참조1
100
AcDbTrace
 10
78.52598381534564
 20
5.441074928723896
 30
0.0
 11
84.87598381534563
 21
4.425074928723896
 31
0.0
 12
84.87598381534563
 22
6.457074928723896
 32
0.0
 13
84.87598381534563
 23
6.457074928723896
 33
0.0
  0
LINE
  5
147
330
1F
100
AcDbEntity
  8
참조1
100
AcDbLine
 10
91.22598381534564
 20
-5.438925071276109
 30
0.0
 11
78.52598381534564
 21
-5.438925071276109
 31
0.0
  0
SOLID
  5
148
330
1F
100
AcDbEntity
  8
참조1
100
AcDbTrace
 10
78.52598381534564
 20
-5.438925071276109
 30
0.0
 11
84.87598381534563
 21
-6.454925071276109
 31
0.0
 12
84.87598381534563
 22
-4.422925071276109
 32
0.0
 13
84.87598381534563
 23
-4.422925071276109
 33
0.0
  0
MTEXT
  5
149
330
1F
100
AcDbEntity
  8
참조1
100
AcDbMText
 10
87.92347390781592
 20
10.98929157337383
 30
0.0
 40
3.5
 41
0.0
 71
     1
 72
     1
  1
A
  7
SLDTEXTSTYLE0
 73
     1
 44
1.0
  0
MTEXT
  5
14A
330
1F
100
AcDbEntity
  8
참조1
100
AcDbMText
 10
87.92347390781592
 20
0.1092915733738259
 30
0.0
 40
3.5
 41
0.0
 71
     1
 72
     1
  1
A
  7
SLDTEXTSTYLE0
 73
     1
 44
1.0
  0
INSERT
  5
151
330
1F
100
AcDbEntity
  8
해칭선
100
AcDbBlockReference
  2
SW_DOWELSYMBOL_0
 10
0.0
 20
0.0
 30
0.0
  0
ENDSEC
  0
SECTION
  2
OBJECTS
  0
DICTIONARY
  5
C
330
0
100
AcDbDictionary
281
     1
  3
ACAD_GROUP
350
D
  3
ACAD_IMAGE_VARS
350
175
  3
ACAD_LAYOUT
350
1A
  3
ACAD_MLINESTYLE
350
17
  3
ACAD_PLOTSETTINGS
350
19
  3
ACAD_PLOTSTYLENAME
350
E
  3
ACAD_SCALELIST
350
47
  3
APPDATA
350
173
  3
DWGPROPS
350
28A
  0
DICTIONARY
  5
22B
330
2
100
AcDbDictionary
280
     1
281
     1
  3
ACAD_LAYERSTATES
360
22C
  0
DICTIONARY
  5
D
102
{ACAD_REACTORS
330
C
102
}
330
C
100
AcDbDictionary
281
     1
  0
RASTERVARIABLES
  5
175
102
{ACAD_REACTORS
330
C
102
}
330
C
100
AcDbRasterVariables
 90
        0
 70
     1
 71
     1
 72
     1
  0
DICTIONARY
  5
1A
102
{ACAD_REACTORS
330
C
102
}
330
C
100
AcDbDictionary
281
     1
  3
Layout1
350
1E
  3
Layout2
350
26
  3
Model
350
22
  0
DICTIONARY
  5
17
102
{ACAD_REACTORS
330
C
102
}
330
C
100
AcDbDictionary
281
     1
  3
Standard
350
18
  0
DICTIONARY
  5
19
102
{ACAD_REACTORS
330
C
102
}
330
C
100
AcDbDictionary
281
     1
  0
ACDBDICTIONARYWDFLT
  5
E
102
{ACAD_REACTORS
330
C
102
}
330
C
100
AcDbDictionary
281
     1
  3
Normal
350
F
100
AcDbDictionaryWithDefault
340
F
  0
DICTIONARY
  5
47
102
{ACAD_REACTORS
330
C
102
}
330
C
100
AcDbDictionary
281
     1
  3
A0
350
48
  3
A1
350
49
  3
A2
350
4A
  3
A3
350
4B
  3
A4
350
4C
  3
A5
350
4D
  3
A6
350
4E
  3
A7
350
4F
  3
A8
350
50
  3
A9
350
51
  3
B0
350
52
  3
B1
350
53
  3
B2
350
54
  3
B3
350
55
  3
B4
350
56
  3
B5
350
57
  3
B6
350
58
  3
B7
350
59
  3
B8
350
5A
  3
B9
350
5B
  3
C0
350
5C
  3
C1
350
5D
  3
C2
350
5E
  3
C3
350
5F
  3
C4
350
60
  3
C5
350
61
  3
C6
350
62
  3
C7
350
63
  3
C8
350
64
  3
C9
350
65
  3
D0
350
66
  3
D1
350
67
  3
D2
350
68
  0
DICTIONARY
  5
173
102
{ACAD_REACTORS
330
C
102
}
330
C
100
AcDbDictionary
281
     1
  0
XRECORD
  5
28A
102
{ACAD_REACTORS
330
C
102
}
330
C
100
AcDbXrecord
280
     1
  1
DWGPROPS COOKIE
  2

  3

  4

  6

  7

  8
12017012
  9

300
=
301
=
302
=
303
=
304
=
305
=
306
=
307
=
308
=
309
=
 40
0.0
 41
2458292.299602107
 42
2458295.436771204
  1

 90
        0
  0
DICTIONARY
  5
22C
102
{ACAD_REACTORS
330
22B
102
}
330
22B
100
AcDbDictionary
281
     1
  0
LAYOUT
  5
1E
102
{ACAD_REACTORS
330
1A
102
}
330
1A
100
AcDbPlotSettings
  1

  2
none_device
  4

  6

 40
0.0
 41
0.0
 42
0.0
 43
0.0
 44
0.0
 45
0.0
 46
0.0
 47
0.0
 48
0.0
 49
0.0
140
0.0
141
0.0
142
1.0
143
1.0
 70
   688
 72
     1
 73
     0
 74
     5
  7

 75
    16
147
1.0
148
0.0
149
0.0
100
AcDbLayout
  1
Layout1
 70
     1
 71
     1
 10
0.0
 20
0.0
 11
420.0
 21
297.0
 12
0.0
 22
0.0
 32
0.0
 14
1.000000000000000E+20
 24
1.000000000000000E+20
 34
1.000000000000000E+20
 15
-1.000000000000000E+20
 25
-1.000000000000000E+20
 35
-1.000000000000000E+20
146
0.0
 13
0.0
 23
0.0
 33
0.0
 16
1.0
 26
0.0
 36
0.0
 17
0.0
 27
1.0
 37
0.0
 76
     0
330
1B
  0
LAYOUT
  5
26
102
{ACAD_REACTORS
330
1A
102
}
330
1A
100
AcDbPlotSettings
  1

  2
none_device
  4

  6

 40
0.0
 41
0.0
 42
0.0
 43
0.0
 44
0.0
 45
0.0
 46
0.0
 47
0.0
 48
0.0
 49
0.0
140
0.0
141
0.0
142
1.0
143
1.0
 70
   688
 72
     1
 73
     0
 74
     5
  7

 75
    16
147
1.0
148
0.0
149
0.0
100
AcDbLayout
  1
Layout2
 70
     1
 71
     2
 10
0.0
 20
0.0
 11
0.0
 21
0.0
 12
0.0
 22
0.0
 32
0.0
 14
0.0
 24
0.0
 34
0.0
 15
0.0
 25
0.0
 35
0.0
146
0.0
 13
0.0
 23
0.0
 33
0.0
 16
1.0
 26
0.0
 36
0.0
 17
0.0
 27
1.0
 37
0.0
 76
     0
330
23
  0
LAYOUT
  5
22
102
{ACAD_REACTORS
330
1A
102
}
330
1A
100
AcDbPlotSettings
  1

  2
none_device
  4
ANSI_A_(11.00_x_8.50_Inches)
  6

 40
6.35
 41
19.05
 42
6.35000508
 43
19.05000254
 44
279.4
 45
215.9
 46
124.6841211921733
 47
77.40032736690613
 48
0.0
 49
0.0
140
0.0
141
0.0
142
0.0634268438554616
143
1.0
 70
  1696
 72
     0
 73
     0
 74
     0
  7

 75
     0
147
0.0235690232323232
148
0.0
149
0.0
100
AcDbLayout
  1
Model
 70
     1
 71
     0
 10
0.0
 20
0.0
 11
420.0
 21
297.0
 12
0.0
 22
0.0
 32
0.0
 14
1.000000000000000E+20
 24
1.000000000000000E+20
 34
1.000000000000000E+20
 15
-1.000000000000000E+20
 25
-1.000000000000000E+20
 35
-1.000000000000000E+20
146
0.0
 13
0.0
 23
0.0
 33
0.0
 16
1.0
 26
0.0
 36
0.0
 17
0.0
 27
1.0
 37
0.0
 76
     0
330
1F
331
29
  0
MLINESTYLE
  5
18
102
{ACAD_REACTORS
330
17
102
}
330
17
100
AcDbMlineStyle
  2
Standard
 70
     0
  3

 62
   256
 51
90.0
 52
90.0
 71
     2
 49
0.5
 62
   256
  6
BYLAYER
 49
-0.5
 62
   256
  6
BYLAYER
  0
ACDBPLACEHOLDER
  5
F
102
{ACAD_REACTORS
330
E
102
}
330
E
  0
SCALE
  5
48
102
{ACAD_REACTORS
330
47
102
}
330
47
100
AcDbScale
 70
     0
300
1:1
140
1.0
141
1.0
290
     1
  0
SCALE
  5
49
102
{ACAD_REACTORS
330
47
102
}
330
47
100
AcDbScale
 70
     0
300
1:2
140
1.0
141
2.0
290
     0
  0
SCALE
  5
4A
102
{ACAD_REACTORS
330
47
102
}
330
47
100
AcDbScale
 70
     0
300
1:4
140
1.0
141
4.0
290
     0
  0
SCALE
  5
4B
102
{ACAD_REACTORS
330
47
102
}
330
47
100
AcDbScale
 70
     0
300
1:5
140
1.0
141
5.0
290
     0
  0
SCALE
  5
4C
102
{ACAD_REACTORS
330
47
102
}
330
47
100
AcDbScale
 70
     0
300
1:8
140
1.0
141
8.0
290
     0
  0
SCALE
  5
4D
102
{ACAD_REACTORS
330
47
102
}
330
47
100
AcDbScale
 70
     0
300
1:10
140
1.0
141
10.0
290
     0
  0
SCALE
  5
4E
102
{ACAD_REACTORS
330
47
102
}
330
47
100
AcDbScale
 70
     0
300
1:16
140
1.0
141
16.0
290
     0
  0
SCALE
  5
4F
102
{ACAD_REACTORS
330
47
102
}
330
47
100
AcDbScale
 70
     0
300
1:20
140
1.0
141
20.0
290
     0
  0
SCALE
  5
50
102
{ACAD_REACTORS
330
47
102
}
330
47
100
AcDbScale
 70
     0
300
1:30
140
1.0
141
30.0
290
     0
  0
SCALE
  5
51
102
{ACAD_REACTORS
330
47
102
}
330
47
100
AcDbScale
 70
     0
300
1:40
140
1.0
141
40.0
290
     0
  0
SCALE
  5
52
102
{ACAD_REACTORS
330
47
102
}
330
47
100
AcDbScale
 70
     0
300
1:50
140
1.0
141
50.0
290
     0
  0
SCALE
  5
53
102
{ACAD_REACTORS
330
47
102
}
330
47
100
AcDbScale
 70
     0
300
1:100
140
1.0
141
100.0
290
     0
  0
SCALE
  5
54
102
{ACAD_REACTORS
330
47
102
}
330
47
100
AcDbScale
 70
     0
300
2:1
140
2.0
141
1.0
290
     0
  0
SCALE
  5
55
102
{ACAD_REACTORS
330
47
102
}
330
47
100
AcDbScale
 70
     0
300
4:1
140
4.0
141
1.0
290
     0
  0
SCALE
  5
56
102
{ACAD_REACTORS
330
47
102
}
330
47
100
AcDbScale
 70
     0
300
8:1
140
8.0
141
1.0
290
     0
  0
SCALE
  5
57
102
{ACAD_REACTORS
330
47
102
}
330
47
100
AcDbScale
 70
     0
300
10:1
140
10.0
141
1.0
290
     0
  0
SCALE
  5
58
102
{ACAD_REACTORS
330
47
102
}
330
47
100
AcDbScale
 70
     0
300
100:1
140
100.0
141
1.0
290
     0
  0
SCALE
  5
59
102
{ACAD_REACTORS
330
47
102
}
330
47
100
AcDbScale
 70
     0
300
1/128" = 1'-0"
140
0.0078125
141
12.0
290
     0
  0
SCALE
  5
5A
102
{ACAD_REACTORS
330
47
102
}
330
47
100
AcDbScale
 70
     0
300
1/64" = 1'-0"
140
0.015625
141
12.0
290
     0
  0
SCALE
  5
5B
102
{ACAD_REACTORS
330
47
102
}
330
47
100
AcDbScale
 70
     0
300
1/32" = 1'-0"
140
0.03125
141
12.0
290
     0
  0
SCALE
  5
5C
102
{ACAD_REACTORS
330
47
102
}
330
47
100
AcDbScale
 70
     0
300
1/16" = 1'-0"
140
0.0625
141
12.0
290
     0
  0
SCALE
  5
5D
102
{ACAD_REACTORS
330
47
102
}
330
47
100
AcDbScale
 70
     0
300
3/32" = 1'-0"
140
0.09375
141
12.0
290
     0
  0
SCALE
  5
5E
102
{ACAD_REACTORS
330
47
102
}
330
47
100
AcDbScale
 70
     0
300
1/8" = 1'-0"
140
0.125
141
12.0
290
     0
  0
SCALE
  5
5F
102
{ACAD_REACTORS
330
47
102
}
330
47
100
AcDbScale
 70
     0
300
3/16" = 1'-0"
140
0.1875
141
12.0
290
     0
  0
SCALE
  5
60
102
{ACAD_REACTORS
330
47
102
}
330
47
100
AcDbScale
 70
     0
300
1/4" = 1'-0"
140
0.25
141
12.0
290
     0
  0
SCALE
  5
61
102
{ACAD_REACTORS
330
47
102
}
330
47
100
AcDbScale
 70
     0
300
3/8" = 1'-0"
140
0.375
141
12.0
290
     0
  0
SCALE
  5
62
102
{ACAD_REACTORS
330
47
102
}
330
47
100
AcDbScale
 70
     0
300
1/2" = 1'-0"
140
0.5
141
12.0
290
     0
  0
SCALE
  5
63
102
{ACAD_REACTORS
330
47
102
}
330
47
100
AcDbScale
 70
     0
300
3/4" = 1'-0"
140
0.75
141
12.0
290
     0
  0
SCALE
  5
64
102
{ACAD_REACTORS
330
47
102
}
330
47
100
AcDbScale
 70
     0
300
1" = 1'-0"
140
1.0
141
12.0
290
     0
  0
SCALE
  5
65
102
{ACAD_REACTORS
330
47
102
}
330
47
100
AcDbScale
 70
     0
300
1-1/2" = 1'-0"
140
1.5
141
12.0
290
     0
  0
SCALE
  5
66
102
{ACAD_REACTORS
330
47
102
}
330
47
100
AcDbScale
 70
     0
300
3" = 1'-0"
140
3.0
141
12.0
290
     0
  0
SCALE
  5
67
102
{ACAD_REACTORS
330
47
102
}
330
47
100
AcDbScale
 70
     0
300
6" = 1'-0"
140
6.0
141
12.0
290
     0
  0
SCALE
  5
68
102
{ACAD_REACTORS
330
47
102
}
330
47
100
AcDbScale
 70
     0
300
1'-0" = 1'-0"
140
12.0
141
12.0
290
     0
  0
ENDSEC
  0
EOF
