  0
SECTION
  2
HEADER
  9
$ACADVER
  1
AC1015
  9
$ACADMAINTVER
 70
     6
  9
$DWGCODEPAGE
  3
ANSI_949
  9
$INSBASE
 10
0.0
 20
0.0
 30
0.0
  9
$EXTMIN
 10
1.000000000000000E+20
 20
1.000000000000000E+20
 30
1.000000000000000E+20
  9
$EXTMAX
 10
-1.000000000000000E+20
 20
-1.000000000000000E+20
 30
-1.000000000000000E+20
  9
$LIMMIN
 10
0.0
 20
0.0
  9
$LIMMAX
 10
420.0
 20
297.0
  9
$ORTHOMODE
 70
     1
  9
$REGENMODE
 70
     1
  9
$FILLMODE
 70
     1
  9
$QTEXTMODE
 70
     0
  9
$MIRRTEXT
 70
     1
  9
$LTSCALE
 40
1.0
  9
$ATTMODE
 70
     1
  9
$TEXTSIZE
 40
3.5
  9
$TRACEWID
 40
1.0
  9
$TEXTSTYLE
  7
Standard
  9
$CLAYER
  8
0
  9
$CELTYPE
  6
ByLayer
  9
$CECOLOR
 62
   256
  9
$CELTSCALE
 40
1.0
  9
$DISPSILH
 70
     0
  9
$DIMSCALE
 40
1.0
  9
$DIMASZ
 40
3.302
  9
$DIMEXO
 40
1.0
  9
$DIMDLI
 40
3.75
  9
$DIMRND
 40
0.0
  9
$DIMDLE
 40
0.0
  9
$DIMEXE
 40
1.0
  9
$DIMTP
 40
0.0
  9
$DIMTM
 40
0.0
  9
$DIMTXT
 40
3.5
  9
$DIMCEN
 40
2.5
  9
$DIMTSZ
 40
0.0
  9
$DIMTOL
 70
     0
  9
$DIMLIM
 70
     0
  9
$DIMTIH
 70
     1
  9
$DIMTOH
 70
     1
  9
$DIMSE1
 70
     0
  9
$DIMSE2
 70
     0
  9
$DIMTAD
 70
     1
  9
$DIMZIN
 70
     0
  9
$DIMBLK
  1

  9
$DIMASO
 70
     1
  9
$DIMSHO
 70
     1
  9
$DIMPOST
  1

  9
$DIMAPOST
  1

  9
$DIMALT
 70
     0
  9
$DIMALTD
 70
     3
  9
$DIMALTF
 40
0.0393700787401575
  9
$DIMLFAC
 40
1.0
  9
$DIMTOFL
 70
     1
  9
$DIMTVP
 40
0.0
  9
$DIMTIX
 70
     0
  9
$DIMSOXD
 70
     0
  9
$DIMSAH
 70
     0
  9
$DIMBLK1
  1

  9
$DIMBLK2
  1

  9
$DIMSTYLE
  2
ISO-25
  9
$DIMCLRD
 70
     0
  9
$DIMCLRE
 70
     0
  9
$DIMCLRT
 70
     0
  9
$DIMTFAC
 40
1.0
  9
$DIMGAP
 40
1.524
  9
$DIMJUST
 70
     0
  9
$DIMSD1
 70
     0
  9
$DIMSD2
 70
     0
  9
$DIMTOLJ
 70
     0
  9
$DIMTZIN
 70
     0
  9
$DIMALTZ
 70
     0
  9
$DIMALTTZ
 70
     0
  9
$DIMUPT
 70
     0
  9
$DIMDEC
 70
     2
  9
$DIMTDEC
 70
     2
  9
$DIMALTU
 70
     2
  9
$DIMALTTD
 70
     3
  9
$DIMTXSTY
  7
Standard
  9
$DIMAUNIT
 70
     0
  9
$DIMADEC
 70
     2
  9
$DIMALTRND
 40
0.0
  9
$DIMAZIN
 70
     0
  9
$DIMDSEP
 70
    44
  9
$DIMATFIT
 70
     3
  9
$DIMFRAC
 70
     0
  9
$DIMLDRBLK
  1

  9
$DIMLUNIT
 70
     2
  9
$DIMLWD
 70
    -2
  9
$DIMLWE
 70
    -2
  9
$DIMTMOVE
 70
     0
  9
$LUNITS
 70
     2
  9
$LUPREC
 70
     2
  9
$SKETCHINC
 40
1.0
  9
$FILLETRAD
 40
10.0
  9
$AUNITS
 70
     0
  9
$AUPREC
 70
     2
  9
$MENU
  1
.
  9
$ELEVATION
 40
0.0
  9
$PELEVATION
 40
0.0
  9
$THICKNESS
 40
0.0
  9
$LIMCHECK
 70
     0
  9
$CHAMFERA
 40
0.0
  9
$CHAMFERB
 40
0.0
  9
$CHAMFERC
 40
0.0
  9
$CHAMFERD
 40
0.0
  9
$SKPOLY
 70
     0
  9
$TDCREATE
 40
2458292.646110868
  9
$TDUCREATE
 40
2458292.271110868
  9
$TDUPDATE
 40
2458296.491127604
  9
$TDUUPDATE
 40
2458296.116127604
  9
$TDINDWG
 40
0.0021744213
  9
$TDUSRTIMER
 40
2458296.114773299
  9
$USRTIMER
 70
     1
  9
$ANGBASE
 50
0.0
  9
$ANGDIR
 70
     0
  9
$PDMODE
 70
     0
  9
$PDSIZE
 40
-1.0
  9
$PLINEWID
 40
0.0
  9
$SPLFRAME
 70
     0
  9
$SPLINETYPE
 70
     6
  9
$SPLINESEGS
 70
     8
  9
$HANDSEED
  5
1B3
  9
$SURFTAB1
 70
     6
  9
$SURFTAB2
 70
     6
  9
$SURFTYPE
 70
     6
  9
$SURFU
 70
     6
  9
$SURFV
 70
     6
  9
$UCSBASE
  2

  9
$UCSNAME
  2

  9
$UCSORG
 10
0.0
 20
0.0
 30
0.0
  9
$UCSXDIR
 10
1.0
 20
0.0
 30
0.0
  9
$UCSYDIR
 10
0.0
 20
1.0
 30
0.0
  9
$UCSORTHOREF
  2

  9
$UCSORTHOVIEW
 70
     0
  9
$UCSORGTOP
 10
0.0
 20
0.0
 30
0.0
  9
$UCSORGBOTTOM
 10
0.0
 20
0.0
 30
0.0
  9
$UCSORGLEFT
 10
0.0
 20
0.0
 30
0.0
  9
$UCSORGRIGHT
 10
0.0
 20
0.0
 30
0.0
  9
$UCSORGFRONT
 10
0.0
 20
0.0
 30
0.0
  9
$UCSORGBACK
 10
0.0
 20
0.0
 30
0.0
  9
$PUCSBASE
  2

  9
$PUCSNAME
  2

  9
$PUCSORG
 10
0.0
 20
0.0
 30
0.0
  9
$PUCSXDIR
 10
1.0
 20
0.0
 30
0.0
  9
$PUCSYDIR
 10
0.0
 20
1.0
 30
0.0
  9
$PUCSORTHOREF
  2

  9
$PUCSORTHOVIEW
 70
     0
  9
$PUCSORGTOP
 10
0.0
 20
0.0
 30
0.0
  9
$PUCSORGBOTTOM
 10
0.0
 20
0.0
 30
0.0
  9
$PUCSORGLEFT
 10
0.0
 20
0.0
 30
0.0
  9
$PUCSORGRIGHT
 10
0.0
 20
0.0
 30
0.0
  9
$PUCSORGFRONT
 10
0.0
 20
0.0
 30
0.0
  9
$PUCSORGBACK
 10
0.0
 20
0.0
 30
0.0
  9
$USERI1
 70
     0
  9
$USERI2
 70
     0
  9
$USERI3
 70
     0
  9
$USERI4
 70
     0
  9
$USERI5
 70
     0
  9
$USERR1
 40
0.0
  9
$USERR2
 40
0.0
  9
$USERR3
 40
0.0
  9
$USERR4
 40
0.0
  9
$USERR5
 40
0.0
  9
$WORLDVIEW
 70
     1
  9
$SHADEDGE
 70
     3
  9
$SHADEDIF
 70
    70
  9
$TILEMODE
 70
     1
  9
$MAXACTVP
 70
    64
  9
$PINSBASE
 10
0.0
 20
0.0
 30
0.0
  9
$PLIMCHECK
 70
     0
  9
$PEXTMIN
 10
1.000000000000000E+20
 20
1.000000000000000E+20
 30
1.000000000000000E+20
  9
$PEXTMAX
 10
-1.000000000000000E+20
 20
-1.000000000000000E+20
 30
-1.000000000000000E+20
  9
$PLIMMIN
 10
0.0
 20
0.0
  9
$PLIMMAX
 10
0.0
 20
0.0
  9
$UNITMODE
 70
     0
  9
$VISRETAIN
 70
     1
  9
$PLINEGEN
 70
     0
  9
$PSLTSCALE
 70
     1
  9
$TREEDEPTH
 70
  3020
  9
$CMLSTYLE
  2
Standard
  9
$CMLJUST
 70
     0
  9
$CMLSCALE
 40
20.0
  9
$PROXYGRAPHICS
 70
     1
  9
$MEASUREMENT
 70
     1
  9
$CELWEIGHT
370
    -1
  9
$ENDCAPS
280
     0
  9
$JOINSTYLE
280
     0
  9
$LWDISPLAY
290
     1
  9
$INSUNITS
 70
     4
  9
$HYPERLINKBASE
  1

  9
$STYLESHEET
  1

  9
$XEDIT
290
     1
  9
$CEPSNTYPE
380
     0
  9
$PSTYLEMODE
290
     1
  9
$FINGERPRINTGUID
  2
{2185A439-BE3F-4A2F-AB2E-C7D9348C3B12}
  9
$VERSIONGUID
  2
{FAEB1C32-E019-11D5-929B-00C0DF256EC4}
  9
$EXTNAMES
290
     1
  9
$PSVPSCALE
 40
0.0
  9
$OLESTARTUP
290
     0
  0
ENDSEC
  0
SECTION
  2
CLASSES
  0
CLASS
  1
ACDBDICTIONARYWDFLT
  2
AcDbDictionaryWithDefault
  3
ObjectDBX Classes
 90
        0
280
     0
281
     0
  0
CLASS
  1
VISUALSTYLE
  2
AcDbVisualStyle
  3
ObjectDBX Classes
 90
     4095
280
     0
281
     0
  0
CLASS
  1
MATERIAL
  2
AcDbMaterial
  3
ObjectDBX Classes
 90
     1153
280
     0
281
     0
  0
CLASS
  1
SCALE
  2
AcDbScale
  3
ObjectDBX Classes
 90
     1153
280
     0
281
     0
  0
CLASS
  1
SUN
  2
AcDbSun
  3
SCENEOE
 90
     1153
280
     0
281
     0
  0
CLASS
  1
ACDBPLACEHOLDER
  2
AcDbPlaceHolder
  3
ObjectDBX Classes
 90
        0
280
     0
281
     0
  0
CLASS
  1
LAYOUT
  2
AcDbLayout
  3
ObjectDBX Classes
 90
        0
280
     0
281
     0
  0
CLASS
  1
TABLESTYLE
  2
AcDbTableStyle
  3
ObjectDBX Classes
 90
     4095
280
     0
281
     0
  0
CLASS
  1
MLEADERSTYLE
  2
AcDbMLeaderStyle
  3
ACDB_MLEADERSTYLE_CLASS
 90
     4095
280
     0
281
     0
  0
CLASS
  1
RASTERVARIABLES
  2
AcDbRasterVariables
  3
ISM
 90
        0
280
     0
281
     0
  0
ENDSEC
  0
SECTION
  2
TABLES
  0
TABLE
  2
VPORT
  5
8
330
0
100
AcDbSymbolTable
 70
     1
  0
VPORT
  5
29
330
8
100
AcDbSymbolTableRecord
100
AcDbViewportTableRecord
  2
*Active
 70
     0
 10
0.0
 20
0.0
 11
1.0
 21
1.0
 12
20.19786739175883
 22
3.679141046242442
 13
0.0
 23
0.0
 14
10.0
 24
10.0
 15
10.0
 25
10.0
 16
0.0
 26
0.0
 36
1.0
 17
0.0
 27
0.0
 37
0.0
 40
132.333488860728
 41
1.571428571428571
 42
50.0
 43
0.0
 44
0.0
 50
0.0
 51
0.0
 71
    16
 72
  2000
 73
     1
 74
     3
 75
     0
 76
     0
 77
     0
 78
     0
281
     0
 65
     1
110
0.0
120
0.0
130
0.0
111
1.0
121
0.0
131
0.0
112
0.0
122
1.0
132
0.0
 79
     0
146
0.0
  0
ENDTAB
  0
TABLE
  2
LTYPE
  5
5
330
0
100
AcDbSymbolTable
 70
     6
  0
LTYPE
  5
14
330
5
100
AcDbSymbolTableRecord
100
AcDbLinetypeTableRecord
  2
ByBlock
 70
     0
  3

 72
    65
 73
     0
 40
0.0
  0
LTYPE
  5
15
330
5
100
AcDbSymbolTableRecord
100
AcDbLinetypeTableRecord
  2
ByLayer
 70
     0
  3

 72
    65
 73
     0
 40
0.0
  0
LTYPE
  5
16
330
5
100
AcDbSymbolTableRecord
100
AcDbLinetypeTableRecord
  2
Continuous
 70
     0
  3
Solid line
 72
    65
 73
     0
 40
0.0
  0
LTYPE
  5
6A
330
5
100
AcDbSymbolTableRecord
100
AcDbLinetypeTableRecord
  2
HIDDEN
 70
     0
  3
Hidden __ __ __ __ __ __ __ __ __ __ __ __ __ __
 72
    65
 73
     2
 40
1.905
 49
1.27
 74
     0
 49
-0.635
 74
     0
  0
LTYPE
  5
6B
330
5
100
AcDbSymbolTableRecord
100
AcDbLinetypeTableRecord
  2
PHANTOM
 70
     0
  3
Phantom ______  __  __  ______  __  __  ______
 72
    65
 73
     6
 40
12.7
 49
6.35
 74
     0
 49
-1.27
 74
     0
 49
1.27
 74
     0
 49
-1.27
 74
     0
 49
1.27
 74
     0
 49
-1.27
 74
     0
  0
LTYPE
  5
6C
330
5
100
AcDbSymbolTableRecord
100
AcDbLinetypeTableRecord
  2
CENTER
 70
     0
  3
Center ____ _ ____ _ ____ _ ____ _ ____ _ ____
 72
    65
 73
     4
 40
10.16
 49
6.35
 74
     0
 49
-1.27
 74
     0
 49
1.27
 74
     0
 49
-1.27
 74
     0
  0
LTYPE
  5
6D
330
5
100
AcDbSymbolTableRecord
100
AcDbLinetypeTableRecord
  2
CENTERX2
 70
     0
  3
Center (2x) ________  __  ________  __  _____
 72
    65
 73
     4
 40
20.32
 49
12.7
 74
     0
 49
-2.54
 74
     0
 49
2.54
 74
     0
 49
-2.54
 74
     0
  0
LTYPE
  5
6E
330
5
100
AcDbSymbolTableRecord
100
AcDbLinetypeTableRecord
  2
DOT2
 70
     0
  3
Dot (.5x) ........................................
 72
    65
 73
     2
 40
0.635
 49
0.0
 74
     0
 49
-0.635
 74
     0
  0
ENDTAB
  0
TABLE
  2
LAYER
  5
2
102
{ACAD_XDICTIONARY
360
183
102
}
330
0
100
AcDbSymbolTable
 70
    18
  0
LAYER
  5
10
330
2
100
AcDbSymbolTableRecord
100
AcDbLayerTableRecord
  2
0
 70
     0
 62
     7
  6
Continuous
370
    -3
390
F
  0
LAYER
  5
6F
330
2
100
AcDbSymbolTableRecord
100
AcDbLayerTableRecord
  2
FORMAT
 70
     0
 62
     2
  6
Continuous
370
    -3
390
F
  0
LAYER
  5
70
330
2
100
AcDbSymbolTableRecord
100
AcDbLayerTableRecord
  2
외형선
 70
     0
 62
     4
  6
Continuous
370
    30
390
F
  0
LAYER
  5
71
330
2
100
AcDbSymbolTableRecord
100
AcDbLayerTableRecord
  2
숨은선
 70
     0
 62
     2
  6
HIDDEN
370
    15
390
F
  0
LAYER
  5
72
330
2
100
AcDbSymbolTableRecord
100
AcDbLayerTableRecord
  2
중심선
 70
     0
 62
     1
  6
CENTERX2
370
    -3
390
F
  0
LAYER
  5
73
330
2
100
AcDbSymbolTableRecord
100
AcDbLayerTableRecord
  2
파단선
 70
     0
 62
     4
  6
Continuous
370
    -3
390
F
  0
LAYER
  5
74
330
2
100
AcDbSymbolTableRecord
100
AcDbLayerTableRecord
  2
해칭선
 70
     0
 62
   100
  6
Continuous
370
    -3
390
F
  0
LAYER
  5
75
330
2
100
AcDbSymbolTableRecord
100
AcDbLayerTableRecord
  2
가는실선
 70
     0
 62
     4
  6
Continuous
370
    -3
390
F
  0
LAYER
  5
76
330
2
100
AcDbSymbolTableRecord
100
AcDbLayerTableRecord
  2
치수_보조선
 70
     0
 62
     4
  6
Continuous
370
    -3
390
F
  0
LAYER
  5
77
330
2
100
AcDbSymbolTableRecord
100
AcDbLayerTableRecord
  2
치수문자_일반주서
 70
     0
 62
     7
  6
Continuous
370
    15
390
F
  0
LAYER
  5
78
330
2
100
AcDbSymbolTableRecord
100
AcDbLayerTableRecord
  2
개별주서
 70
     0
 62
   100
  6
Continuous
370
    30
390
F
  0
LAYER
  5
79
330
2
100
AcDbSymbolTableRecord
100
AcDbLayerTableRecord
  2
중간선
 70
     0
 62
     2
  6
Continuous
370
    15
390
F
  0
LAYER
  5
7A
330
2
100
AcDbSymbolTableRecord
100
AcDbLayerTableRecord
  2
윤곽선
 70
     0
 62
     3
  6
Continuous
370
    40
390
F
  0
LAYER
  5
7B
330
2
100
AcDbSymbolTableRecord
100
AcDbLayerTableRecord
  2
중심마크
 70
     0
 62
   100
  6
Continuous
370
    30
390
F
  0
LAYER
  5
7C
330
2
100
AcDbSymbolTableRecord
100
AcDbLayerTableRecord
  2
가상선
 70
     0
 62
     4
  6
PHANTOM
370
    -3
390
F
  0
LAYER
  5
7D
330
2
100
AcDbSymbolTableRecord
100
AcDbLayerTableRecord
  2
특수지정선
 70
     0
 62
     5
  6
CENTERX2
370
    60
390
F
  0
LAYER
  5
7E
330
2
100
AcDbSymbolTableRecord
100
AcDbLayerTableRecord
  2
참조1
 70
     0
 62
    -4
  6
Continuous
370
    -3
390
F
  0
LAYER
  5
18A
330
2
100
AcDbSymbolTableRecord
100
AcDbLayerTableRecord
  2
Defpoints
 70
     0
 62
     7
  6
Continuous
290
     0
370
    -3
390
F
  0
ENDTAB
  0
TABLE
  2
STYLE
  5
3
330
0
100
AcDbSymbolTable
 70
     2
  0
STYLE
  5
11
330
3
100
AcDbSymbolTableRecord
100
AcDbTextStyleTableRecord
  2
Standard
 70
     0
 40
0.0
 41
1.0
 50
0.0
 71
     0
 42
3.5
  3
txt
  4

  0
STYLE
  5
94
330
3
100
AcDbSymbolTableRecord
100
AcDbTextStyleTableRecord
  2
SLDTEXTSTYLE0
 70
     0
 40
0.0
 41
0.75
 50
0.0
 71
     0
 42
3.5
  3
TXT
  4

  0
ENDTAB
  0
TABLE
  2
VIEW
  5
6
330
0
100
AcDbSymbolTable
 70
     0
  0
ENDTAB
  0
TABLE
  2
UCS
  5
7
330
0
100
AcDbSymbolTable
 70
     0
  0
ENDTAB
  0
TABLE
  2
APPID
  5
9
330
0
100
AcDbSymbolTable
 70
     1
  0
APPID
  5
12
330
9
100
AcDbSymbolTableRecord
100
AcDbRegAppTableRecord
  2
ACAD
 70
     0
  0
ENDTAB
  0
TABLE
  2
DIMSTYLE
  5
A
330
0
100
AcDbSymbolTable
 70
     3
100
AcDbDimStyleTable
  0
DIMSTYLE
105
27
330
A
100
AcDbSymbolTableRecord
100
AcDbDimStyleTableRecord
  2
ISO-25
 70
     0
 41
2.5
 42
0.625
 43
3.75
 44
1.25
 73
     0
 74
     0
 77
     1
 78
     8
140
2.5
141
2.5
143
0.03937007874016
147
0.625
171
     3
172
     1
178
     0
271
     2
272
     2
274
     3
278
    44
283
     0
284
     8
340
11
  0
DIMSTYLE
105
DC
102
{ACAD_REACTORS
330
DB
330
F0
330
104
330
118
102
}
330
A
100
AcDbSymbolTableRecord
100
AcDbDimStyleTableRecord
  2
SLDDIMSTYLE0
 70
     0
 41
3.302
 44
0.0
 45
0.000000001
 73
     0
 74
     0
 77
     1
 78
    12
 79
     3
140
3.5
143
0.0393700787401575
147
0.875
148
0.000000001
170
     1
172
     1
173
     1
178
     0
271
     2
272
     2
276
     2
284
    12
289
     0
340
94
  0
DIMSTYLE
105
105
330
A
100
AcDbSymbolTableRecord
100
AcDbDimStyleTableRecord
  2
SLDDIMSTYLE1
 70
     0
 41
3.302
 44
0.0
 45
0.000000001
 73
     0
 74
     0
 77
     1
 78
    12
 79
     3
140
3.5
143
0.0393700787401575
147
0.875
148
0.000000001
170
     1
173
     1
178
     0
271
     2
272
     2
276
     2
284
    12
340
94
  0
ENDTAB
  0
TABLE
  2
BLOCK_RECORD
  5
1
330
0
100
AcDbSymbolTable
 70
     7
  0
BLOCK_RECORD
  5
1F
330
1
100
AcDbSymbolTableRecord
100
AcDbBlockTableRecord
  2
*Model_Space
340
22
  0
BLOCK_RECORD
  5
1B
330
1
100
AcDbSymbolTableRecord
100
AcDbBlockTableRecord
  2
*Paper_Space
340
1E
  0
BLOCK_RECORD
  5
23
330
1
100
AcDbSymbolTableRecord
100
AcDbBlockTableRecord
  2
*Paper_Space0
340
26
  0
BLOCK_RECORD
  5
7F
330
1
100
AcDbSymbolTableRecord
100
AcDbBlockTableRecord
  2
블럭10
340
0
102
{BLKREFS
331
D4
102
}
  0
BLOCK_RECORD
  5
DD
330
1
100
AcDbSymbolTableRecord
100
AcDbBlockTableRecord
  2
_D
340
0
  0
BLOCK_RECORD
  5
F1
330
1
100
AcDbSymbolTableRecord
100
AcDbBlockTableRecord
  2
_D_1
340
0
  0
BLOCK_RECORD
  5
106
330
1
100
AcDbSymbolTableRecord
100
AcDbBlockTableRecord
  2
_D_2
340
0
  0
BLOCK_RECORD
  5
119
330
1
100
AcDbSymbolTableRecord
100
AcDbBlockTableRecord
  2
_D_3
340
0
  0
BLOCK_RECORD
  5
132
330
1
100
AcDbSymbolTableRecord
100
AcDbBlockTableRecord
  2
SW_DOWELSYMBOL_0
340
0
102
{BLKREFS
331
138
102
}
  0
ENDTAB
  0
ENDSEC
  0
SECTION
  2
BLOCKS
  0
BLOCK
  5
20
330
1F
100
AcDbEntity
  8
0
100
AcDbBlockBegin
  2
*Model_Space
 70
     0
 10
0.0
 20
0.0
 30
0.0
  3
*Model_Space
  1
*Model_Space
  0
ENDBLK
  5
21
330
1F
100
AcDbEntity
  8
0
100
AcDbBlockEnd
  0
BLOCK
  5
1C
330
1B
100
AcDbEntity
 67
     1
  8
0
100
AcDbBlockBegin
  2
*Paper_Space
 70
     0
 10
0.0
 20
0.0
 30
0.0
  3
*Paper_Space
  1
*Paper_Space
  0
ENDBLK
  5
1D
330
1B
100
AcDbEntity
 67
     1
  8
0
100
AcDbBlockEnd
  0
BLOCK
  5
24
330
23
100
AcDbEntity
  8
0
100
AcDbBlockBegin
  2
*Paper_Space0
 70
     0
 10
0.0
 20
0.0
 30
0.0
  3
*Paper_Space0
  1
*Paper_Space0
  0
ENDBLK
  5
25
330
23
100
AcDbEntity
  8
0
100
AcDbBlockEnd
  0
BLOCK
  5
80
330
7F
100
AcDbEntity
  8
0
100
AcDbBlockBegin
  2
블럭10
 70
     2
 10
0.0
 20
0.0
 30
0.0
  3
블럭10
  1
블럭10
  0
ELLIPSE
  5
82
330
7F
100
AcDbEntity
  8
중심선
100
AcDbEllipse
 10
20.54032771741204
 20
12.0471743016438
 30
0.0
 11
6.600054785286829
 21
-1.261213355974178E-13
 31
0.0
210
0.0
220
0.0
230
1.0
 40
0.636358354079598
 41
0.9219305317359503
 42
6.513795318482858
  0
ELLIPSE
  5
83
330
7F
100
AcDbEntity
  8
중심선
100
AcDbEllipse
 10
20.54032771746488
 20
12.04717430159265
 30
0.0
 11
3.960054785062283
 21
1.540847449632565E-10
 31
0.0
210
0.0
220
0.0
230
1.0
 40
0.3939339440162632
 41
1.131841032648279
 42
5.62031148352944
  0
LINE
  5
84
330
7F
100
AcDbEntity
  8
중심선
100
AcDbLine
 10
2.268634060543552
 20
16.24717430164393
 30
0.0
 11
5.714909304380834
 21
16.24717430164393
 31
0.0
  0
LINE
  5
85
330
7F
100
AcDbEntity
  8
중심선
100
AcDbLine
 10
5.245725140726316
 20
7.84717430164391
 30
0.0
 11
8.692000384563599
 21
7.84717430164391
 31
0.0
  0
LINE
  5
86
330
7F
100
AcDbEntity
  8
중심선
100
AcDbLine
 10
15.74043728645272
 20
16.24717430164393
 30
0.0
 11
8.692000384563599
 21
7.84717430164391
 31
0.0
  0
LINE
  5
87
330
7F
100
AcDbEntity
  8
중심선
100
AcDbLine
 10
0.1404042013395286
 20
13.71084872107135
 30
0.0
 11
3.58671253028996
 21
13.71088815037384
 31
0.0
  0
LINE
  5
88
330
7F
100
AcDbEntity
  8
중심선
100
AcDbLine
 10
2.750260043222114
 20
10.84717430164391
 30
0.0
 11
6.196535287059397
 21
10.84717430164391
 31
0.0
  0
LINE
  5
89
330
7F
100
AcDbEntity
  8
중심선
100
AcDbLine
 10
12.29416204261559
 20
16.24717430164393
 30
0.0
 11
5.245725140726316
 21
7.84717430164391
 31
0.0
  0
LINE
  5
8A
330
7F
100
AcDbEntity
  8
중심선
100
AcDbLine
 10
10.72767329541681
 20
16.24717430164393
 30
0.0
 11
6.196535287059397
 21
10.84717430164391
 31
0.0
  0
LINE
  5
8B
330
7F
100
AcDbEntity
  8
중심선
100
AcDbLine
 10
7.28139805157953
 20
16.24717430164393
 30
0.0
 11
2.750260043222114
 21
10.84717430164391
 31
0.0
  0
LINE
  5
8C
330
7F
100
AcDbEntity
  8
중심선
100
AcDbLine
 10
5.714909304380834
 20
16.24717430164393
 30
0.0
 11
3.58671253028996
 21
13.71088815037384
 31
0.0
  0
LINE
  5
8D
330
7F
100
AcDbEntity
  8
중심선
100
AcDbLine
 10
2.268634060543552
 20
16.24717430164393
 30
0.0
 11
0.1404042013395286
 21
13.71084872107135
 31
0.0
  0
LINE
  5
8E
330
7F
100
AcDbEntity
  8
중심선
100
AcDbLine
 10
7.28139805157953
 20
16.24717430164393
 30
0.0
 11
10.72767329541681
 21
16.24717430164393
 31
0.0
  0
LINE
  5
8F
330
7F
100
AcDbEntity
  8
중심선
100
AcDbLine
 10
12.29416204261559
 20
16.24717430164393
 30
0.0
 11
15.74043728645272
 21
16.24717430164393
 31
0.0
  0
LINE
  5
90
330
7F
100
AcDbEntity
  8
중심선
100
AcDbLine
 10
19.22036997980202
 20
11.08717430171403
 30
0.0
 11
23.66174974927406
 21
11.08717430171406
 31
0.0
  0
LINE
  5
91
330
7F
100
AcDbEntity
  8
중심선
100
AcDbLine
 10
19.22039502424796
 20
13.00717430171391
 30
0.0
 11
19.22036997980202
 21
11.08717430171403
 31
0.0
  0
LINE
  5
92
330
7F
100
AcDbEntity
  8
중심선
100
AcDbLine
 10
19.22039502424796
 20
13.00717430171391
 30
0.0
 11
26.96566020931264
 21
13.00717430171391
 31
0.0
  0
LINE
  5
93
330
7F
100
AcDbEntity
  8
중심선
100
AcDbLine
 10
22.22332737316547
 20
13.45928029700563
 30
0.0
 11
24.52862924686651
 21
15.39360700705356
 31
0.0
  0
ATTDEF
  5
95
330
7F
100
AcDbEntity
  8
FORMAT
 62
     2
100
AcDbText
 10
3.448148490846466
 20
2.075366912832191
 30
0.0
 40
4.233333333333333
  1
EM208040
 41
0.75
  7
SLDTEXTSTYLE0
 11
3.448148490846466
 21
-0.0412997538344756
 31
0.0
100
AcDbAttributeDefinition
  3

  2
AUTOATTR0
 70
     0
 74
     1
  0
ENDBLK
  5
81
330
7F
100
AcDbEntity
  8
0
100
AcDbBlockEnd
  0
BLOCK
  5
DE
330
DD
100
AcDbEntity
  8
0
100
AcDbBlockBegin
  2
_D
 70
     0
 10
0.0
 20
0.0
 30
0.0
  3
_D
  1
_D
  0
LINE
  5
E0
330
DD
100
AcDbEntity
  8
치수문자_일반주서
 62
     0
370
    -2
100
AcDbLine
 10
43.81249999999999
 20
7.938574928723904
 30
0.0
 11
61.00632044844887
 21
7.938574928723968
 31
0.0
  0
LINE
  5
E1
330
DD
100
AcDbEntity
  8
치수문자_일반주서
 62
     0
370
    -2
100
AcDbLine
 10
43.81249999999999
 20
-7.9364250712761
 30
0.0
 11
61.00632044844892
 21
-7.936425071276037
 31
0.0
  0
LINE
  5
E2
330
DD
100
AcDbEntity
  8
치수문자_일반주서
 62
     0
370
    -2
100
AcDbLine
 10
61.00632044844888
 20
4.636574928723968
 30
0.0
 11
61.00632044844891
 21
-4.634425071276038
 31
0.0
  0
SOLID
  5
E3
330
DD
100
AcDbEntity
  8
치수문자_일반주서
 62
     0
100
AcDbTrace
 10
61.55665378178222
 20
4.63657492872397
 30
0.0
 11
60.45598711511555
 21
4.636574928723967
 31
0.0
 12
61.00632044844887
 22
7.938574928723968
 32
0.0
 13
61.00632044844887
 23
7.938574928723968
 33
0.0
  0
SOLID
  5
E4
330
DD
100
AcDbEntity
  8
치수문자_일반주서
 62
     0
100
AcDbTrace
 10
60.45598711511558
 20
-4.63442507127604
 30
0.0
 11
61.55665378178225
 21
-4.634425071276036
 31
0.0
 12
61.00632044844892
 22
-7.936425071276037
 32
0.0
 13
61.00632044844892
 23
-7.936425071276037
 33
0.0
  0
MTEXT
  5
E5
330
DD
100
AcDbEntity
  8
치수문자_일반주서
 62
     0
100
AcDbMText
 10
56.63132044844889
 20
1.483211306583871
 30
0.0
 40
3.5
 41
0.0
 71
     2
 72
     1
  1
\A1;%%c15.88 [5/8]
  7
SLDTEXTSTYLE0
 11
-3.580687802255622E-15
 21
1.0
 31
0.0
 73
     1
 44
1.0
  0
POINT
  5
E6
330
DD
100
AcDbEntity
  8
Defpoints
 62
     0
100
AcDbPoint
 10
43.74999999999999
 20
7.938574928723904
 30
0.0
  0
POINT
  5
E7
330
DD
100
AcDbEntity
  8
Defpoints
 62
     0
100
AcDbPoint
 10
43.74999999999999
 20
-7.9364250712761
 30
0.0
  0
POINT
  5
E8
330
DD
100
AcDbEntity
  8
Defpoints
 62
     0
100
AcDbPoint
 10
61.00632044844892
 20
-7.936425071276036
 30
0.0
  0
ENDBLK
  5
DF
330
DD
100
AcDbEntity
  8
0
100
AcDbBlockEnd
  0
BLOCK
  5
F2
330
F1
100
AcDbEntity
  8
0
100
AcDbBlockBegin
  2
_D_1
 70
     0
 10
0.0
 20
0.0
 30
0.0
  3
_D_1
  1
_D_1
  0
LINE
  5
F4
330
F1
100
AcDbEntity
  8
치수문자_일반주서
 62
     0
370
    -2
100
AcDbLine
 10
-46.80000000000001
 20
7.938574928723907
 30
0.0
 11
-61.64250000000005
 21
7.938574928723852
 31
0.0
  0
LINE
  5
F5
330
F1
100
AcDbEntity
  8
치수문자_일반주서
 62
     0
370
    -2
100
AcDbLine
 10
-46.80000000000001
 20
-7.936425071276121
 30
0.0
 11
-61.64249999999999
 21
-7.936425071276176
 31
0.0
  0
LINE
  5
F6
330
F1
100
AcDbEntity
  8
치수문자_일반주서
 62
     0
370
    -2
100
AcDbLine
 10
-61.64250000000003
 20
4.636574928723851
 30
0.0
 11
-61.64250000000001
 21
-4.634425071276176
 31
0.0
  0
SOLID
  5
F7
330
F1
100
AcDbEntity
  8
치수문자_일반주서
 62
     0
100
AcDbTrace
 10
-61.0921666666667
 20
4.636574928723853
 30
0.0
 11
-62.19283333333337
 21
4.636574928723849
 31
0.0
 12
-61.64250000000005
 22
7.938574928723852
 32
0.0
 13
-61.64250000000005
 23
7.938574928723852
 33
0.0
  0
SOLID
  5
F8
330
F1
100
AcDbEntity
  8
치수문자_일반주서
 62
     0
100
AcDbTrace
 10
-62.19283333333334
 20
-4.634425071276178
 30
0.0
 11
-61.09216666666667
 21
-4.634425071276175
 31
0.0
 12
-61.64249999999999
 22
-7.936425071276176
 32
0.0
 13
-61.64249999999999
 23
-7.936425071276176
 33
0.0
  0
MTEXT
  5
F9
330
F1
100
AcDbEntity
  8
치수문자_일반주서
 62
     0
100
AcDbMText
 10
-66.01750000000001
 20
0.0010749287238866
 30
0.0
 40
3.5
 41
0.0
 71
     2
 72
     1
  1
\A1;%%c15.88 [5/8]
  7
SLDTEXTSTYLE0
 11
-3.580687802255617E-15
 21
1.0
 31
0.0
 73
     1
 44
1.0
  0
POINT
  5
FA
330
F1
100
AcDbEntity
  8
Defpoints
 62
     0
100
AcDbPoint
 10
-46.73750000000001
 20
7.938574928723907
 30
0.0
  0
POINT
  5
FB
330
F1
100
AcDbEntity
  8
Defpoints
 62
     0
100
AcDbPoint
 10
-46.73750000000001
 20
-7.936425071276121
 30
0.0
  0
POINT
  5
FC
330
F1
100
AcDbEntity
  8
Defpoints
 62
     0
100
AcDbPoint
 10
-61.64249999999999
 20
-7.936425071276177
 30
0.0
  0
ENDBLK
  5
F3
330
F1
100
AcDbEntity
  8
0
100
AcDbBlockEnd
  0
BLOCK
  5
107
330
106
100
AcDbEntity
  8
0
100
AcDbBlockBegin
  2
_D_2
 70
     0
 10
0.0
 20
0.0
 30
0.0
  3
_D_2
  1
_D_2
  0
LINE
  5
109
330
106
100
AcDbEntity
  8
치수문자_일반주서
 62
     0
370
    -2
100
AcDbLine
 10
43.74999999999999
 20
7.943151426527083
 30
0.0
 11
43.74999999999999
 21
38.48227388971734
 31
0.0
  0
LINE
  5
10A
330
106
100
AcDbEntity
  8
치수문자_일반주서
 62
     0
370
    -2
100
AcDbLine
 10
11.99999999999999
 20
7.982764157963525
 30
0.0
 11
11.99999999999999
 21
38.48227388971734
 31
0.0
  0
LINE
  5
10B
330
106
100
AcDbEntity
  8
치수문자_일반주서
 62
     0
370
    -2
100
AcDbLine
 10
40.44799999999999
 20
38.48227388971734
 30
0.0
 11
15.30199999999999
 21
38.48227388971734
 31
0.0
  0
SOLID
  5
10C
330
106
100
AcDbEntity
  8
치수문자_일반주서
 62
     0
100
AcDbTrace
 10
40.44799999999999
 20
37.93194055638401
 30
0.0
 11
40.44799999999999
 21
39.03260722305068
 31
0.0
 12
43.74999999999999
 22
38.48227388971734
 32
0.0
 13
43.74999999999999
 23
38.48227388971734
 33
0.0
  0
SOLID
  5
10D
330
106
100
AcDbEntity
  8
치수문자_일반주서
 62
     0
100
AcDbTrace
 10
15.30199999999999
 20
39.03260722305068
 30
0.0
 11
15.30199999999999
 21
37.93194055638401
 31
0.0
 12
11.99999999999999
 22
38.48227388971734
 32
0.0
 13
11.99999999999999
 23
38.48227388971734
 33
0.0
  0
MTEXT
  5
10E
330
106
100
AcDbEntity
  8
치수문자_일반주서
 62
     0
100
AcDbMText
 10
27.87499999999999
 20
42.85727388971734
 30
0.0
 40
3.5
 41
0.0
 71
     2
 72
     1
  1
\A1;31.75 [1 1/4]
  7
SLDTEXTSTYLE0
 73
     1
 44
1.0
  0
POINT
  5
10F
330
106
100
AcDbEntity
  8
Defpoints
 62
     0
100
AcDbPoint
 10
43.74999999999999
 20
7.880651426527083
 30
0.0
  0
POINT
  5
110
330
106
100
AcDbEntity
  8
Defpoints
 62
     0
100
AcDbPoint
 10
11.99999999999999
 20
7.920264157963525
 30
0.0
  0
POINT
  5
111
330
106
100
AcDbEntity
  8
Defpoints
 62
     0
100
AcDbPoint
 10
11.99999999999999
 20
38.48227388971734
 30
0.0
  0
ENDBLK
  5
108
330
106
100
AcDbEntity
  8
0
100
AcDbBlockEnd
  0
BLOCK
  5
11A
330
119
100
AcDbEntity
  8
0
100
AcDbBlockBegin
  2
_D_3
 70
     0
 10
0.0
 20
0.0
 30
0.0
  3
_D_3
  1
_D_3
  0
LINE
  5
11C
330
119
100
AcDbEntity
  8
치수문자_일반주서
 62
     0
370
    -2
100
AcDbLine
 10
43.74999999999999
 20
7.943151426527083
 30
0.0
 11
43.74999999999999
 21
50.48227388971736
 31
0.0
  0
LINE
  5
11D
330
119
100
AcDbEntity
  8
치수문자_일반주서
 62
     0
370
    -2
100
AcDbLine
 10
-48.325
 20
6.4135749287239
 30
0.0
 11
-48.325
 21
50.48227388971736
 31
0.0
  0
LINE
  5
11E
330
119
100
AcDbEntity
  8
치수문자_일반주서
 62
     0
370
    -2
100
AcDbLine
 10
40.44799999999999
 20
50.48227388971736
 30
0.0
 11
-45.023
 21
50.48227388971736
 31
0.0
  0
SOLID
  5
11F
330
119
100
AcDbEntity
  8
치수문자_일반주서
 62
     0
100
AcDbTrace
 10
40.44799999999999
 20
49.93194055638403
 30
0.0
 11
40.44799999999999
 21
51.0326072230507
 31
0.0
 12
43.74999999999999
 22
50.48227388971736
 32
0.0
 13
43.74999999999999
 23
50.48227388971736
 33
0.0
  0
SOLID
  5
120
330
119
100
AcDbEntity
  8
치수문자_일반주서
 62
     0
100
AcDbTrace
 10
-45.023
 20
51.0326072230507
 30
0.0
 11
-45.023
 21
49.93194055638403
 31
0.0
 12
-48.325
 22
50.48227388971736
 32
0.0
 13
-48.325
 23
50.48227388971736
 33
0.0
  0
MTEXT
  5
121
330
119
100
AcDbEntity
  8
치수문자_일반주서
 62
     0
100
AcDbMText
 10
-2.287500000000002
 20
54.85727388971736
 30
0.0
 40
3.5
 41
0.0
 71
     2
 72
     1
  1
\A1;92.08 [3 5/8]
  7
SLDTEXTSTYLE0
 73
     1
 44
1.0
  0
POINT
  5
122
330
119
100
AcDbEntity
  8
Defpoints
 62
     0
100
AcDbPoint
 10
43.74999999999999
 20
7.880651426527083
 30
0.0
  0
POINT
  5
123
330
119
100
AcDbEntity
  8
Defpoints
 62
     0
100
AcDbPoint
 10
-48.325
 20
6.3510749287239
 30
0.0
  0
POINT
  5
124
330
119
100
AcDbEntity
  8
Defpoints
 62
     0
100
AcDbPoint
 10
-48.325
 20
50.48227388971736
 30
0.0
  0
ENDBLK
  5
11B
330
119
100
AcDbEntity
  8
0
100
AcDbBlockEnd
  0
BLOCK
  5
133
330
132
100
AcDbEntity
  8
0
100
AcDbBlockBegin
  2
SW_DOWELSYMBOL_0
 70
     0
 10
0.0
 20
0.0
 30
0.0
  3
SW_DOWELSYMBOL_0
  1
SW_DOWELSYMBOL_0
  0
CIRCLE
  5
135
330
132
100
AcDbEntity
  8
해칭선
 62
     0
100
AcDbCircle
 10
0.0
 20
0.0
 30
0.0
 40
3.000000000000001
  0
HATCH
  5
136
330
132
100
AcDbEntity
  8
0
  6
Continuous
 62
     0
370
     0
100
AcDbHatch
 10
0.0
 20
0.0
 30
0.0
210
0.0
220
0.0
230
1.0
  2
SOLID
 70
     1
 71
     0
 91
        1
 92
        0
 93
        3
 72
     2
 10
0.0
 20
0.0
 40
3.000000000000001
 50
0.0
 51
90.0
 73
     1
 72
     1
 10
0.0
 20
3.000000000000001
 11
0.0
 21
0.0
 72
     1
 10
0.0
 20
0.0
 11
3.000000000000001
 21
0.0
 97
        0
 75
     0
 76
     1
 98
        1
 10
0.0
 20
0.0
  0
HATCH
  5
137
330
132
100
AcDbEntity
  8
0
  6
Continuous
 62
     0
370
     0
100
AcDbHatch
 10
0.0
 20
0.0
 30
0.0
210
0.0
220
0.0
230
1.0
  2
SOLID
 70
     1
 71
     0
 91
        1
 92
        0
 93
        3
 72
     2
 10
0.0
 20
0.0
 40
3.000000000000001
 50
180.0
 51
270.0000000000007
 73
     1
 72
     1
 10
0.0
 20
-3.000000000000001
 11
0.0
 21
0.0
 72
     1
 10
0.0
 20
0.0
 11
-3.000000000000001
 21
0.0
 97
        0
 75
     0
 76
     1
 98
        1
 10
0.0
 20
0.0
  0
ENDBLK
  5
134
330
132
100
AcDbEntity
  8
0
100
AcDbBlockEnd
  0
ENDSEC
  0
SECTION
  2
ENTITIES
  0
LINE
  5
96
330
1F
100
AcDbEntity
  8
0
  6
Continuous
 62
     1
370
    15
100
AcDbLine
 10
33.78968435615679
 20
-1.537439595826511
 30
0.0
 11
33.84048972707063
 21
-1.586457817858454
 31
0.0
  0
LINE
  5
97
330
1F
100
AcDbEntity
  8
0
  6
Continuous
 62
     1
370
    15
100
AcDbLine
 10
25.48494932986706
 20
-1.545201706998587
 30
0.0
 11
25.52762113771794
 21
-1.586581703293487
 31
0.0
  0
LINE
  5
98
330
1F
100
AcDbEntity
  8
0
  6
Continuous
 62
     1
370
    15
100
AcDbLine
 10
28.08496102305809
 20
7.938574928723904
 30
0.0
 11
26.16706369757592
 21
7.938574928723904
 31
0.0
  0
LINE
  5
99
330
1F
100
AcDbEntity
  8
0
  6
Continuous
 62
     1
370
    15
100
AcDbLine
 10
26.16706369757588
 20
-7.9364250712761
 30
0.0
 11
28.08496102305805
 21
-7.9364250712761
 31
0.0
  0
LINE
  5
9A
330
1F
100
AcDbEntity
  8
0
  6
Continuous
 62
     1
370
    15
100
AcDbLine
 10
42.789890425819
 20
-7.9364250712761
 30
0.0
 11
43.74999999999999
 21
-7.9364250712761
 31
0.0
  0
LINE
  5
9B
330
1F
100
AcDbEntity
  8
0
  6
Continuous
 62
     1
370
    15
100
AcDbLine
 10
19.77311980429732
 20
7.938574928723904
 30
0.0
 11
17.85461051192043
 21
7.938574928723904
 31
0.0
  0
LINE
  5
9C
330
1F
100
AcDbEntity
  8
0
  6
Continuous
 62
     1
370
    15
100
AcDbLine
 10
34.47760022992141
 20
-7.9364250712761
 30
0.0
 11
36.39732882634721
 21
-7.9364250712761
 31
0.0
  0
LINE
  5
9D
330
1F
100
AcDbEntity
  8
0
  6
Continuous
 62
     1
370
    15
100
AcDbLine
 10
36.39732882634721
 20
7.938574928723904
 30
0.0
 11
34.47760022992147
 21
7.938574928723904
 31
0.0
  0
LINE
  5
9E
330
1F
100
AcDbEntity
  8
0
  6
Continuous
 62
     1
370
    15
100
AcDbLine
 10
17.85461051192043
 20
-7.9364250712761
 30
0.0
 11
19.77311980429725
 21
-7.9364250712761
 31
0.0
  0
LINE
  5
9F
330
1F
100
AcDbEntity
  8
0
  6
Continuous
 62
     1
370
    15
100
AcDbLine
 10
43.74999999999999
 20
7.938574928723904
 30
0.0
 11
42.78989042581901
 21
7.938574928723904
 31
0.0
  0
LINE
  5
A0
330
1F
100
AcDbEntity
  8
외형선
  6
Continuous
370
    15
100
AcDbLine
 10
-46.7375
 20
-7.936425071276099
 30
0.0
 11
11.46114243850924
 21
-7.936425071276099
 31
0.0
  0
LINE
  5
A1
330
1F
100
AcDbEntity
  8
외형선
  6
Continuous
370
    15
100
AcDbLine
 10
11.46114243850925
 20
7.938574928723902
 30
0.0
 11
-46.73749999999999
 21
7.938574928723902
 31
0.0
  0
LINE
  5
A2
330
1F
100
AcDbEntity
  8
외형선
  6
Continuous
370
    15
100
AcDbLine
 10
-46.7375
 20
7.938574928723897
 30
0.0
 11
-48.325
 21
6.3510749287239
 31
0.0
  0
LINE
  5
A3
330
1F
100
AcDbEntity
  8
외형선
  6
Continuous
370
    15
100
AcDbLine
 10
-48.325
 20
-6.348925071276114
 30
0.0
 11
-46.7375
 21
-7.936425071276111
 31
0.0
  0
SPLINE
  5
A4
330
1F
100
AcDbEntity
  8
0
  6
Continuous
 62
     1
370
    15
100
AcDbSpline
210
0.0
220
0.0
230
1.0
 70
     8
 71
     3
 72
    24
 73
    20
 74
     0
 42
0.000000001
 43
0.00000001
 40
0.0
 40
0.0
 40
0.0
 40
0.0
 40
0.0621035784644334
 40
0.12429071385912
 40
0.1863315428291467
 40
0.2485103970998377
 40
0.3106239407499118
 40
0.3726797966076489
 40
0.4334345400083364
 40
0.494029850635051
 40
0.5547011552603041
 40
0.6154039956553783
 40
0.6759899818350932
 40
0.7367405579988726
 40
0.7973507374136948
 40
0.8579935994177483
 40
0.9187218521677775
 40
0.9793037382462709
 40
0.9999999999999999
 40
0.9999999999999999
 40
0.9999999999999999
 40
0.9999999999999999
 10
12.0
 20
3.49402069129186
 30
0.0
 10
12.39899848007782
 20
3.127760947268086
 30
0.0
 10
13.19753227062223
 20
2.394748676990546
 30
0.0
 10
14.39672795964056
 20
1.222165580575724
 30
0.0
 10
15.59297221707475
 20
0.0237046260345108
 30
0.0
 10
16.79195006949311
 20
-1.173167195881873
 30
0.0
 10
17.98962245565708
 20
-2.344459491515351
 30
0.0
 10
19.17677858366059
 20
-3.45519586952281
 30
0.0
 10
20.3576480668582
 20
-4.477115200393868
 30
0.0
 10
21.52599208056004
 20
-5.397285681934992
 30
0.0
 10
22.69582780178055
 20
-6.198617181127673
 30
0.0
 10
23.86631332266541
 20
-6.865426888011968
 30
0.0
 10
25.03446722681141
 20
-7.384783723775371
 30
0.0
 10
26.20591567625817
 20
-7.742610273622254
 30
0.0
 10
27.37453362696027
 20
-7.932899110531338
 30
0.0
 10
28.54378175113633
 20
-7.953606249126216
 30
0.0
 10
29.71484256769038
 20
-7.791572671210101
 30
0.0
 10
30.62582872875917
 20
-7.564111022059678
 30
0.0
 10
31.1486703708083
 20
-7.34053333447793
 30
0.0
 10
31.2818041560655
 20
-7.283602628403808
 30
0.0
  0
SPLINE
  5
A5
330
1F
100
AcDbEntity
  8
외형선
  6
Continuous
370
    15
100
AcDbSpline
210
0.0
220
0.0
230
1.0
 70
    24
 71
     3
 72
    16
 73
    12
 74
     0
 42
0.000000001
 43
0.00000001
 40
0.0
 40
0.0
 40
0.0
 40
0.0
 40
0.108216051599577
 40
0.2190114887483369
 40
0.3378501440500684
 40
0.4601351284062519
 40
0.5789737837079874
 40
0.7012587680641748
 40
0.8200974233659075
 40
0.942382407722093
 40
1.0
 40
1.0
 40
1.0
 40
1.0
 10
11.99999999999999
 20
7.560940419836859
 30
0.0
 10
12.0
 20
7.417767982001775
 30
0.0
 10
12.00000000000002
 20
7.128010517240301
 30
0.0
 10
12.0
 20
6.644068132952874
 30
0.0
 10
11.99999999999996
 20
6.125648379377814
 30
0.0
 10
12.00000000000006
 20
5.590996831819006
 30
0.0
 10
11.99999999999996
 20
5.063839383617387
 30
0.0
 10
11.99999999999997
 20
4.567067602613835
 30
0.0
 10
12.00000000000006
 20
4.11059404599463
 30
0.0
 10
11.99999999999999
 20
3.768121767092818
 30
0.0
 10
12.00000000000001
 20
3.605408222105786
 30
0.0
 10
12.0
 20
3.553295779535138
 30
0.0
  0
SPLINE
  5
A6
330
1F
100
AcDbEntity
  8
0
  6
Continuous
 62
     1
370
    15
100
AcDbSpline
210
0.0
220
0.0
230
1.0
 70
     8
 71
     3
 72
    27
 73
    23
 74
     0
 42
0.000000001
 43
0.00000001
 40
0.0
 40
0.0
 40
0.0
 40
0.0
 40
0.003825275238001
 40
0.0558259224648916
 40
0.1078357029701539
 40
0.1599376678098736
 40
0.2119057738427513
 40
0.263999435535883
 40
0.3160198476881323
 40
0.3680122241951986
 40
0.4201250352679204
 40
0.4720966584328793
 40
0.5241685210034955
 40
0.5762133316888709
 40
0.6281929535128636
 40
0.6803093393077269
 40
0.7335418400753234
 40
0.7868238263492822
 40
0.8401618371130184
 40
0.8933814475771857
 40
0.9467265620208785
 40
1.0
 40
1.0
 40
1.0
 40
1.0
 10
34.47760022992144
 20
-7.930563392187425
 30
0.0
 10
34.44891844796426
 20
-7.932492155626825
 30
0.0
 10
34.03033760447645
 20
-7.960640456473662
 30
0.0
 10
33.22312014711839
 20
-7.854147764891718
 30
0.0
 10
32.05406246408456
 20
-7.599174793841203
 30
0.0
 10
30.88287645877001
 20
-7.161871608351404
 30
0.0
 10
29.71479528899351
 20
-6.572336017196827
 30
0.0
 10
28.54379441265883
 20
-5.841147181888521
 30
0.0
 10
27.37453023860814
 20
-4.982553280824466
 30
0.0
 10
26.20591658637662
 20
-4.014852082679858
 30
0.0
 10
25.03446698345888
 20
-2.96330800105796
 30
0.0
 10
23.86631338793788
 20
-1.843393544702362
 30
0.0
 10
22.69582778428617
 20
-0.6866559590830255
 30
0.0
 10
21.52599208523947
 20
0.4857075504702755
 30
0.0
 10
20.35764806560218
 20
1.649685052351815
 30
0.0
 10
19.17677858400552
 20
2.782976807390832
 30
0.0
 10
17.98962245556375
 20
3.867279782358223
 30
0.0
 10
16.79195006951815
 20
4.87042133743474
 30
0.0
 10
15.59297221706804
 20
5.762858274255331
 30
0.0
 10
14.39672795964234
 20
6.523400260356689
 30
0.0
 10
13.1975322706218
 20
7.145764540456449
 30
0.0
 10
12.39899848007768
 20
7.422610498463039
 30
0.0
 10
11.99999999999999
 20
7.560940419836822
 30
0.0
  0
LINE
  5
A7
330
1F
100
AcDbEntity
  8
0
  6
Continuous
 62
     1
370
    15
100
AcDbLine
 10
43.74999999999999
 20
-3.109777044610659
 30
0.0
 11
43.74999999999999
 21
3.111926902058614
 31
0.0
  0
SPLINE
  5
A8
330
1F
100
AcDbEntity
  8
0
  6
Continuous
 62
     1
370
    15
100
AcDbSpline
210
0.0
220
0.0
230
1.0
 70
     8
 71
     3
 72
    21
 73
    17
 74
     0
 42
0.000000001
 43
0.00000001
 40
0.0
 40
0.0
 40
0.0
 40
0.0
 40
0.0292806135691899
 40
0.1040303383381444
 40
0.1785999020137493
 40
0.2533615410521549
 40
0.3279909038518646
 40
0.4026071612175859
 40
0.477377751880043
 40
0.5519489596606415
 40
0.6266846127368105
 40
0.7013456060666367
 40
0.7759401672389029
 40
0.8507211946619289
 40
0.9253007364991238
 40
0.9999999999999999
 40
0.9999999999999999
 40
0.9999999999999999
 40
0.9999999999999999
 10
28.08496102305809
 20
7.918047119100423
 30
0.0
 10
28.2378020954267
 20
7.923231829368131
 30
0.0
 10
28.78082720768741
 20
7.941652453036427
 30
0.0
 10
29.71485133784039
 20
7.793719099551446
 30
0.0
 10
30.88285918609295
 20
7.478766695373443
 30
0.0
 10
32.05407541763169
 20
6.992286023238258
 30
0.0
 10
33.22308566991014
 20
6.356216491386331
 30
0.0
 10
34.39189048896202
 20
5.581088785634473
 30
0.0
 10
35.5632333905568
 20
4.687657204385947
 30
0.0
 10
36.731336299849
 20
3.688977778328112
 30
0.0
 10
37.9021057205762
 20
2.613583842618404
 30
0.0
 10
39.07163831962394
 20
1.480400947492599
 30
0.0
 10
40.24009726104345
 20
0.3132302355658967
 30
0.0
 10
41.41160616354649
 20
-0.8555521102285806
 30
0.0
 10
42.579834159877
 20
-2.014900190517884
 30
0.0
 10
43.35973622603235
 20
-2.744623013910915
 30
0.0
 10
43.74999999999997
 20
-3.10977704461066
 30
0.0
  0
SPLINE
  5
A9
330
1F
100
AcDbEntity
  8
0
  6
Continuous
 62
     1
370
    15
100
AcDbSpline
210
0.0
220
0.0
230
1.0
 70
     8
 71
     3
 72
    18
 73
    14
 74
     0
 42
0.000000001
 43
0.00000001
 40
0.0
 40
0.0
 40
0.0
 40
0.0
 40
0.0938521031367454
 40
0.1875537880578217
 40
0.2815086193299555
 40
0.3752291745332559
 40
0.4690331950534898
 40
0.5629310180275319
 40
0.6566222320456502
 40
0.7505639505790049
 40
0.8443117648647962
 40
0.9380760448088101
 40
1.0
 40
1.0
 40
1.0
 40
1.0
 10
43.75
 20
3.111926902058612
 30
0.0
 10
43.35973622629357
 20
3.46408303695625
 30
0.0
 10
42.57983416066021
 20
4.167830900673473
 30
0.0
 10
41.41160616041594
 20
5.117576169166861
 30
0.0
 10
40.24009727280666
 20
5.957984273273633
 30
0.0
 10
39.07163827581723
 20
6.670706086107519
 30
0.0
 10
37.90210588431301
 20
7.238000785071347
 30
0.0
 10
36.73133568867743
 20
7.648212621657541
 30
0.0
 10
35.56323566838503
 20
7.893079969429618
 30
0.0
 10
34.39188196951888
 20
7.96791391702905
 30
0.0
 10
33.22311739155104
 20
7.864046235346637
 30
0.0
 10
32.18691744686451
 20
7.641431750489108
 30
0.0
 10
31.53936415203049
 20
7.386964953833353
 30
0.0
 10
31.28180415606555
 20
7.285752485851607
 30
0.0
  0
LINE
  5
AA
330
1F
100
AcDbEntity
  8
0
  6
Continuous
 62
     1
370
    15
100
AcDbLine
 10
43.74999999999999
 20
-7.878501569079271
 30
0.0
 11
43.74999999999999
 21
-4.758002253552581
 31
0.0
  0
SPLINE
  5
AB
330
1F
100
AcDbEntity
  8
0
  6
Continuous
 62
     1
370
    15
100
AcDbSpline
210
0.0
220
0.0
230
1.0
 70
     8
 71
     3
 72
    28
 73
    24
 74
     0
 42
0.000000001
 43
0.00000001
 40
0.0
 40
0.0
 40
0.0
 40
0.0
 40
0.0243778509023528
 40
0.0731072598808293
 40
0.1218977815526212
 40
0.1707136635932136
 40
0.2194355740575865
 40
0.2682898441478824
 40
0.31703121027699
 40
0.3657988590217104
 40
0.4146351771162631
 40
0.4633537903698913
 40
0.512197892426921
 40
0.5609555743066289
 40
0.609704693999051
 40
0.658554644430252
 40
0.7072743318287642
 40
0.7561014564491318
 40
0.804879803537107
 40
0.8536147484321196
 40
0.9024715175233303
 40
0.9511966498200041
 40
1.0
 40
1.0
 40
1.0
 40
1.0
 10
19.77311980429732
 20
7.917006746210641
 30
0.0
 10
19.96815481325348
 20
7.92118261786473
 30
0.0
 10
20.55304948435189
 20
7.93370572892433
 30
0.0
 10
21.52598839497784
 20
7.768071481152765
 30
0.0
 10
22.69582877446361
 20
7.434688016419887
 30
0.0
 10
23.86631312232849
 20
6.931785574272103
 30
0.0
 10
25.03446705786618
 20
6.279207601271033
 30
0.0
 10
26.20591655496195
 20
5.492640351695666
 30
0.0
 10
27.37453028984104
 20
4.584845242972694
 30
0.0
 10
28.54379423888317
 20
3.578160801409988
 30
0.0
 10
29.71479593313828
 20
2.495979669454861
 30
0.0
 10
30.88287406000772
 20
1.355773915668872
 30
0.0
 10
32.05407143569764
 20
0.1904468537684394
 30
0.0
 10
33.22308673579209
 20
-0.9816141886561621
 30
0.0
 10
34.39189020269939
 20
-2.132619216134555
 30
0.0
 10
35.56323346709433
 20
-3.234467840284472
 30
0.0
 10
36.73133627931298
 20
-4.270198484044021
 30
0.0
 10
37.90210572607791
 20
-5.210111171785473
 30
0.0
 10
39.07163831815196
 20
-6.038202141430348
 30
0.0
 10
40.24009726143875
 20
-6.736957984908061
 30
0.0
 10
41.41160616344127
 20
-7.284507540626497
 30
0.0
 10
42.57983415990334
 20
-7.688187391449539
 30
0.0
 10
43.35973622604113
 20
-7.815029600701251
 30
0.0
 10
43.74999999999997
 20
-7.878501569079271
 30
0.0
  0
SPLINE
  5
AC
330
1F
100
AcDbEntity
  8
0
  6
Continuous
 62
     1
370
    15
100
AcDbSpline
210
0.0
220
0.0
230
1.0
 70
     8
 71
     3
 72
    25
 73
    21
 74
     0
 42
0.000000001
 43
0.00000001
 40
0.0
 40
0.0
 40
0.0
 40
0.0
 40
0.0563116396775785
 40
0.1125330278202568
 40
0.1689063047925939
 40
0.2251390151805678
 40
0.281421805094686
 40
0.3377608768586847
 40
0.3939759824174383
 40
0.4503413916937234
 40
0.5065904576409215
 40
0.5628494030493346
 40
0.6192080641917765
 40
0.6754219303507865
 40
0.7317716099850182
 40
0.7880420556389937
 40
0.8442821751539905
 40
0.9006525686595462
 40
0.956870239298018
 40
1.0
 40
1.0
 40
1.0
 40
1.0
 10
43.75
 20
-4.767649595744594
 30
0.0
 10
43.35973622604114
 20
-4.446042695373158
 30
0.0
 10
42.57983415990334
 20
-3.80334433897819
 30
0.0
 10
41.41160616344123
 20
-2.726368469191354
 30
0.0
 10
40.24009726143904
 20
-1.601763279695847
 30
0.0
 10
39.0716383181508
 20
-0.4366980260954654
 30
0.0
 10
37.90210572608238
 20
0.7358204632213264
 30
0.0
 10
36.73133627929658
 20
1.891135800440817
 30
0.0
 10
35.5632334671554
 20
3.009048747792388
 30
0.0
 10
34.39189020247094
 20
4.057648237436912
 30
0.0
 10
33.2230867366426
 20
5.021153259834414
 30
0.0
 10
32.05407143252022
 20
5.875335346515979
 30
0.0
 10
30.88287407187643
 20
6.600673726620043
 30
0.0
 10
29.7147958889277
 20
7.185265428882497
 30
0.0
 10
28.54379440423824
 20
7.612310824456928
 30
0.0
 10
27.37452967387961
 20
7.874987614179095
 30
0.0
 10
26.20591885472659
 20
7.968085985851454
 30
0.0
 10
25.03445846256705
 20
7.88361955042121
 30
0.0
 10
23.95760342702047
 20
7.665295738609328
 30
0.0
 10
23.26899911268959
 20
7.403156420473305
 30
0.0
 10
22.97005490351656
 20
7.289353719092503
 30
0.0
  0
SPLINE
  5
AD
330
1F
100
AcDbEntity
  8
0
  6
Continuous
 62
     1
370
    15
100
AcDbSpline
210
0.0
220
0.0
230
1.0
 70
     8
 71
     3
 72
    17
 73
    13
 74
     0
 42
0.000000001
 43
0.00000001
 40
0.0
 40
0.0
 40
0.0
 40
0.0
 40
0.1091599209204972
 40
0.2184667104776226
 40
0.3275163361459523
 40
0.4368085699099519
 40
0.5459860067112309
 40
0.6550620452516479
 40
0.7618511087669215
 40
0.8683599361117625
 40
0.9750023386720099
 40
1.0
 40
1.0
 40
1.0
 40
1.0
 10
12.0
 20
-4.425168537947783
 30
0.0
 10
12.39899848121024
 20
-4.746903640094692
 30
0.0
 10
13.19753227402104
 20
-5.390806721175243
 30
0.0
 10
14.39672794603736
 20
-6.205272406410977
 30
0.0
 10
15.59297226799827
 20
-6.888284392926024
 30
0.0
 10
16.7919498789778
 20
-7.410713905676221
 30
0.0
 10
17.98962316552856
 20
-7.7663817525138
 30
0.0
 10
19.17677596049009
 20
-7.942960702511439
 30
0.0
 10
20.35765761817128
 20
-7.945916448200384
 30
0.0
 10
21.52595649469828
 20
-7.763506298023436
 30
0.0
 10
22.39710251461271
 20
-7.538391090522952
 30
0.0
 10
22.8786179922928
 20
-7.327290585763983
 30
0.0
 10
22.97005490351651
 20
-7.2872038616447
 30
0.0
  0
SPLINE
  5
AE
330
1F
100
AcDbEntity
  8
외형선
  6
Continuous
370
    15
100
AcDbSpline
210
0.0
220
0.0
230
1.0
 70
    24
 71
     3
 72
    24
 73
    20
 74
     0
 42
0.000000001
 43
0.00000001
 40
0.0
 40
0.0
 40
0.0
 40
0.0
 40
0.1249999999999996
 40
0.1249999999999996
 40
0.1874999999999997
 40
0.1874999999999997
 40
0.2499999999999997
 40
0.2499999999999997
 40
0.3749999999999998
 40
0.3749999999999998
 40
0.4999999999999998
 40
0.4999999999999998
 40
0.6249999999999998
 40
0.6249999999999998
 40
0.7499999999999999
 40
0.7499999999999999
 40
0.875
 40
0.875
 40
1.0
 40
1.0
 40
1.0
 40
1.0
 10
12.00000000000001
 20
1.685952781273949
 30
0.0
 10
12.00000000000003
 20
1.682175469921956
 30
0.0
 10
11.99999999999999
 20
1.636614287004035
 30
0.0
 10
12.00000000000002
 20
1.539312507691212
 30
0.0
 10
12.00000000000002
 20
1.503559842286862
 30
0.0
 10
12.00000000000002
 20
1.414695052157083
 30
0.0
 10
12.00000000000001
 20
1.361598328755436
 30
0.0
 10
11.99999999999999
 20
1.170052717105101
 30
0.0
 10
11.99999999999999
 20
0.9989541248104561
 30
0.0
 10
11.99999999999999
 20
0.538641385847854
 30
0.0
 10
11.99999999999999
 20
0.2480238337374599
 30
0.0
 10
12.0
 20
-0.4546460982829794
 30
0.0
 10
12.0
 20
-0.8676099735643186
 30
0.0
 10
12.0
 20
-1.746747490895971
 30
0.0
 10
12.00000000000002
 20
-2.210653559403823
 30
0.0
 10
12.00000000000001
 20
-3.063713985058323
 30
0.0
 10
12.0
 20
-3.449564033516312
 30
0.0
 10
12.00000000000001
 20
-4.057753476726471
 30
0.0
 10
12.00000000000001
 20
-4.280422105237319
 30
0.0
 10
12.0
 20
-4.425168537947715
 30
0.0
  0
SPLINE
  5
AF
330
1F
100
AcDbEntity
  8
0
  6
Continuous
 62
     1
370
    15
100
AcDbSpline
210
0.0
220
0.0
230
1.0
 70
     8
 71
     3
 72
    19
 73
    15
 74
     0
 42
0.000000001
 43
0.00000001
 40
0.0
 40
0.0
 40
0.0
 40
0.0
 40
0.0799200770331884
 40
0.1623827628643813
 40
0.2450044972323187
 40
0.3275833087323928
 40
0.4100586859298894
 40
0.492751064707789
 40
0.577214368323958
 40
0.6617561899373694
 40
0.746386904866364
 40
0.8308297556088835
 40
0.9154717418527385
 40
1.0
 40
1.0
 40
1.0
 40
1.0
 10
26.16706369757587
 20
-7.933638517659597
 30
0.0
 10
25.78923430281368
 20
-7.919277539151901
 30
0.0
 10
25.02155510015998
 20
-7.890098696311854
 30
0.0
 10
23.86627752802538
 20
-7.630480619233012
 30
0.0
 10
22.69583739548978
 20
-7.21658785321234
 30
0.0
 10
21.52598951443708
 20
-6.64270903175162
 30
0.0
 10
20.35764875561048
 20
-5.924299295662336
 30
0.0
 10
19.1767783945018
 20
-5.073248509527184
 30
0.0
 10
17.98962250684644
 20
-4.099340746510899
 30
0.0
 10
16.7919500557549
 20
-3.025744565769363
 30
0.0
 10
15.59297222074687
 20
-1.884680077678901
 30
0.0
 10
14.3967279586596
 20
-0.6979161990254843
 30
0.0
 10
13.19753227086734
 20
0.503645311228629
 30
0.0
 10
12.39899848015948
 20
1.292026959727927
 30
0.0
 10
11.99999999999999
 20
1.685952781273952
 30
0.0
  0
SPLINE
  5
B0
330
1F
100
AcDbEntity
  8
0
  6
Continuous
 62
     1
370
    15
100
AcDbSpline
210
0.0
220
0.0
230
1.0
 70
     8
 71
     3
 72
    31
 73
    27
 74
     0
 42
0.000000001
 43
0.00000001
 40
0.0
 40
0.0
 40
0.0
 40
0.0
 40
0.0433962589458602
 40
0.0868509051581492
 40
0.1302033164969096
 40
0.1736521760893262
 40
0.2170553984306494
 40
0.2604183101419544
 40
0.3028720405387536
 40
0.3452143637330234
 40
0.3876097894267054
 40
0.4300272514420787
 40
0.4723630589712849
 40
0.5148138774184602
 40
0.5571665905096552
 40
0.5995421412881522
 40
0.6419773607526663
 40
0.6843103032448052
 40
0.7267522864083228
 40
0.7691191767037883
 40
0.8114786270793183
 40
0.8539256920559443
 40
0.8962595679021046
 40
0.9386867989041404
 40
0.9810716457672243
 40
1.0
 40
1.0
 40
1.0
 40
1.0
 10
11.99999999999999
 20
7.920264157963527
 30
0.0
 10
12.39899848007766
 20
7.875739259528738
 30
0.0
 10
13.1975322706218
 20
7.786629556870721
 30
0.0
 10
14.39672795964232
 20
7.428515997597261
 30
0.0
 10
15.59297221706812
 20
6.913052410658402
 30
0.0
 10
16.79195006951779
 20
6.2386648008795
 30
0.0
 10
17.98962245556504
 20
5.422836364163299
 30
0.0
 10
19.17677858400085
 20
4.489434056452491
 30
0.0
 10
20.35764806561924
 20
3.467712270234887
 30
0.0
 10
21.52599208517605
 20
2.375357731604491
 30
0.0
 10
22.69582778452314
 20
1.233478748677323
 30
0.0
 10
23.86631338705382
 20
0.0656981213658034
 30
0.0
 10
25.03446698675495
 20
-1.106794604011271
 30
0.0
 10
26.20591657404955
 20
-2.250885687478657
 30
0.0
 10
27.37453028450156
 20
-3.349620797487306
 30
0.0
 10
28.54379424116523
 20
-4.374708913206002
 30
0.0
 10
29.71479592935832
 20
-5.303424761540498
 30
0.0
 10
30.88287407282724
 20
-6.120101050034266
 30
0.0
 10
32.05407138809043
 20
-6.801257901041845
 30
0.0
 10
33.22308691299654
 20
-7.336596506377161
 30
0.0
 10
34.39188954090376
 20
-7.71277705855898
 30
0.0
 10
35.56323593986374
 20
-7.920633279821129
 30
0.0
 10
36.7313270702577
 20
-7.95962143849852
 30
0.0
 10
37.90214016747462
 20
-7.816943670323782
 30
0.0
 10
38.85614836261602
 20
-7.589925546900308
 30
0.0
 10
39.41980265282487
 20
-7.354526351184201
 30
0.0
 10
39.59381164076234
 20
-7.281854898984883
 30
0.0
  0
SPLINE
  5
B1
330
1F
100
AcDbEntity
  8
0
  6
Continuous
 62
     1
370
    15
100
AcDbSpline
210
0.0
220
0.0
230
1.0
 70
     8
 71
     3
 72
    32
 73
    28
 74
     0
 42
0.000000001
 43
0.00000001
 40
0.0
 40
0.0
 40
0.0
 40
0.0
 40
0.0074735116802622
 40
0.0490022172372425
 40
0.0906431175779638
 40
0.1321801864679505
 40
0.1737542472922238
 40
0.2153698814829527
 40
0.2568939463224664
 40
0.2985290350807357
 40
0.3400781852306429
 40
0.3816346329811504
 40
0.4232647371370702
 40
0.4647878864768297
 40
0.5064113563175496
 40
0.5479762988834213
 40
0.5895188406275075
 40
0.6311576110556296
 40
0.6726835706267368
 40
0.7142896227032012
 40
0.7558740599940494
 40
0.7974064105910943
 40
0.8390480372657232
 40
0.8815814533902856
 40
0.9241544090368298
 40
0.9667721289327049
 40
1.0
 40
1.0
 40
1.0
 40
1.0
 10
42.78989042581901
 20
-7.923730479084233
 30
0.0
 10
42.71978711386323
 20
-7.927734038784698
 30
0.0
 10
42.26013469496365
 20
-7.953984523236698
 30
0.0
 10
41.4116891861357
 20
-7.835186235379897
 30
0.0
 10
40.24007505272641
 20
-7.560729320054395
 30
0.0
 10
39.07164426840321
 20
-7.105773109081507
 30
0.0
 10
37.9021041292301
 20
-6.501273450287855
 30
0.0
 10
36.73133670628336
 20
-5.755886675522882
 30
0.0
 10
35.56323335244684
 20
-4.883249051430137
 30
0.0
 10
34.39189023338108
 20
-3.908132629705777
 30
0.0
 10
33.22308672758322
 20
-2.845748085658337
 30
0.0
 10
32.05407143787839
 20
-1.721777333110073
 30
0.0
 10
30.8828740595124
 20
-0.5631156423391196
 30
0.0
 10
29.71479593294446
 20
0.6120959737141206
 30
0.0
 10
28.5437942401577
 20
1.769966854179661
 30
0.0
 10
27.37453028494667
 20
2.891604987271729
 30
0.0
 10
26.20591657327486
 20
3.951297942144226
 30
0.0
 10
25.03446698941173
 20
4.922439670863274
 30
0.0
 10
23.86631337722473
 20
5.790402660635158
 30
0.0
 10
22.69582782126243
 20
6.53041015072207
 30
0.0
 10
21.52599194822753
 20
7.129636681040776
 30
0.0
 10
20.35764857657842
 20
7.575074132220704
 30
0.0
 10
19.17677665409132
 20
7.857093057897058
 30
0.0
 10
17.98962983228645
 20
7.96852947051721
 30
0.0
 10
16.79192251810732
 20
7.894114753034911
 30
0.0
 10
15.68032938700025
 20
7.67730327026891
 30
0.0
 10
14.96973795096945
 20
7.407572717953847
 30
0.0
 10
14.65842861422212
 20
7.289404055788803
 30
0.0
  0
LINE
  5
B2
330
1F
100
AcDbEntity
  8
0
  6
Continuous
 62
     1
370
    15
100
AcDbLine
 10
43.74999999999999
 20
-4.767649595744595
 30
0.0
 11
43.74999999999999
 21
-3.109777044610659
 31
0.0
  0
LINE
  5
B3
330
1F
100
AcDbEntity
  8
외형선
  6
Continuous
370
    15
100
AcDbLine
 10
11.99999999999999
 20
1.685952781273952
 30
0.0
 11
12.00000000000001
 21
3.494020691291872
 31
0.0
  0
LINE
  5
B4
330
1F
100
AcDbEntity
  8
0
  6
Continuous
 62
     1
370
    15
100
AcDbLine
 10
43.74999999999999
 20
-7.9364250712761
 30
0.0
 11
43.74999999999999
 21
-7.878501569079271
 31
0.0
  0
LINE
  5
B5
330
1F
100
AcDbEntity
  8
외형선
  6
Continuous
370
    15
100
AcDbLine
 10
11.99999999999999
 20
7.560940419836859
 30
0.0
 11
11.99999999999999
 21
7.920264157963527
 31
0.0
  0
SPLINE
  5
B6
330
1F
100
AcDbEntity
  8
0
  6
Continuous
 62
     1
370
    15
100
AcDbSpline
210
0.0
220
0.0
230
1.0
 70
     8
 71
     3
 72
    10
 73
     6
 74
     0
 42
0.000000001
 43
0.00000001
 40
0.0
 40
0.0
 40
0.0
 40
0.0
 40
0.4505078107833269
 40
0.901621754911219
 40
0.9999999999999999
 40
0.9999999999999999
 40
0.9999999999999999
 40
0.9999999999999999
 10
11.99999999999999
 20
-7.918114300515724
 30
0.0
 10
12.39898477403465
 20
-7.871023014892446
 30
0.0
 10
13.19749113405198
 20
-7.776777084925421
 30
0.0
 10
14.08483611385767
 20
-7.540342645634962
 30
0.0
 10
14.57132937246952
 20
-7.325685335152663
 30
0.0
 10
14.65842861422212
 20
-7.287254198340998
 30
0.0
  0
SPLINE
  5
B7
330
1F
100
AcDbEntity
  8
0
  6
Continuous
 62
     1
370
    15
100
AcDbSpline
210
0.0
220
0.0
230
1.0
 70
     8
 71
     3
 72
    14
 73
    10
 74
     0
 42
0.000000001
 43
0.00000001
 40
0.0
 40
0.0
 40
0.0
 40
0.0
 40
0.0454135636545594
 40
0.2046401568656687
 40
0.3637076852051824
 40
0.5226336778024827
 40
0.6819569424464601
 40
0.8408509358913177
 40
1.0
 40
1.0
 40
1.0
 40
1.0
 10
36.39732882634722
 20
7.921017470590586
 30
0.0
 10
36.5085422185861
 20
7.926124921114067
 30
0.0
 10
37.00968602237218
 20
7.949139839834359
 30
0.0
 10
37.90212050350205
 20
7.816675886384971
 30
0.0
 10
39.07163436454861
 20
7.521843529687518
 30
0.0
 10
40.24009832307949
 20
7.050681655396717
 30
0.0
 10
41.4116058809063
 20
6.430185112350019
 30
0.0
 10
42.57983423058981
 20
5.67432341245924
 30
0.0
 10
43.35973624961587
 20
5.071468602883656
 30
0.0
 10
43.74999999999997
 20
4.769799453192436
 30
0.0
  0
LINE
  5
B8
330
1F
100
AcDbEntity
  8
0
  6
Continuous
 62
     1
370
    15
100
AcDbLine
 10
43.74999999999999
 20
3.111926902058614
 30
0.0
 11
43.74999999999999
 21
4.769799453192436
 31
0.0
  0
SPLINE
  5
B9
330
1F
100
AcDbEntity
  8
0
  6
Continuous
 62
     1
370
    15
100
AcDbSpline
210
0.0
220
0.0
230
1.0
 70
     8
 71
     3
 72
    11
 73
     7
 74
     0
 42
0.000000001
 43
0.00000001
 40
0.0
 40
0.0
 40
0.0
 40
0.0
 40
0.2815524615650832
 40
0.5626536746501601
 40
0.8445143164096551
 40
0.9999999999999999
 40
0.9999999999999999
 40
0.9999999999999999
 40
0.9999999999999999
 10
43.75
 20
7.880651426527083
 30
0.0
 10
43.35973388491881
 20
7.911596123295309
 30
0.0
 10
42.57982714028845
 20
7.973435921288163
 30
0.0
 10
41.41163422094964
 20
7.840280094471671
 30
0.0
 10
40.4144253998448
 20
7.617585459128517
 30
0.0
 10
39.8090390397057
 20
7.371495011359933
 30
0.0
 10
39.59381164076234
 20
7.284004756432688
 30
0.0
  0
SPLINE
  5
BA
330
1F
100
AcDbEntity
  8
0
  6
Continuous
 62
     1
370
    15
100
AcDbSpline
210
0.0
220
0.0
230
1.0
 70
     8
 71
     3
 72
    12
 73
     8
 74
     0
 42
0.000000001
 43
0.00000001
 40
0.0
 40
0.0
 40
0.0
 40
0.0
 40
0.1814932665735003
 40
0.3862887660425201
 40
0.5906296582222856
 40
0.7954524328308155
 40
1.0
 40
1.0
 40
1.0
 40
1.0
 10
17.85461051192043
 20
-7.927389998879605
 30
0.0
 10
17.50053477674528
 20
-7.917291480067647
 30
0.0
 10
16.7469229132935
 20
-7.895797876231119
 30
0.0
 10
15.59295070989175
 20
-7.64363986487051
 30
0.0
 10
14.39673370485605
 20
-7.220995788023777
 30
0.0
 10
13.19753083516234
 20
-6.640855846960465
 30
0.0
 10
12.39899800180569
 20
-6.129445820323412
 30
0.0
 10
11.99999999999999
 20
-5.873912709838972
 30
0.0
  0
LINE
  5
BB
330
1F
100
AcDbEntity
  8
0
  6
Continuous
 62
     1
370
    15
100
AcDbLine
 10
43.74999999999999
 20
7.880651426527083
 30
0.0
 11
43.74999999999999
 21
7.938574928723904
 31
0.0
  0
LINE
  5
BC
330
1F
100
AcDbEntity
  8
외형선
  6
Continuous
370
    15
100
AcDbLine
 10
11.99999999999999
 20
-5.87391270983901
 30
0.0
 11
12.00000000000001
 21
-4.425168537947775
 31
0.0
  0
LINE
  5
BD
330
1F
100
AcDbEntity
  8
0
  6
Continuous
 62
     1
370
    15
100
AcDbLine
 10
43.74999999999999
 20
4.759441283034334
 30
0.0
 11
43.74999999999999
 21
7.880651426527083
 31
0.0
  0
SPLINE
  5
BE
330
1F
100
AcDbEntity
  8
외형선
  6
Continuous
370
    15
100
AcDbSpline
210
0.0
220
0.0
230
1.0
 70
    24
 71
     3
 72
    12
 73
     8
 74
     0
 42
0.000000001
 43
0.00000001
 40
0.0
 40
0.0
 40
0.0
 40
0.0
 40
0.1123384519174936
 40
0.3718202648720992
 40
0.6313020778267006
 40
0.8907838907813025
 40
1.0
 40
1.0
 40
1.0
 40
1.0
 10
12.00000000000004
 20
-5.933197798082278
 30
0.0
 10
12.00000000000005
 20
-5.999123004130168
 30
0.0
 10
12.00000000000003
 20
-6.217323692817573
 30
0.0
 10
12.00000000000004
 20
-6.631492600586205
 30
0.0
 10
12.00000000000001
 20
-7.157119247403769
 30
0.0
 10
12.00000000000008
 20
-7.59170484642541
 30
0.0
 10
12.0
 20
-7.843521030081478
 30
0.0
 10
11.99999999999999
 20
-7.918114300515724
 30
0.0
  0
LINE
  5
BF
330
1F
100
AcDbEntity
  8
외형선
  6
Continuous
370
    15
100
AcDbLine
 10
11.46114243850924
 20
7.92291072568615
 30
0.0
 11
11.99999999999998
 21
7.920264157963524
 31
0.0
  0
SPLINE
  5
C0
330
1F
100
AcDbEntity
  8
외형선
  6
Continuous
370
    15
100
AcDbSpline
210
0.0
220
0.0
230
1.0
 70
     8
 71
     3
 72
     8
 73
     4
 74
     0
 42
0.000000001
 43
0.00000001
 40
0.0
 40
0.0
 40
0.0
 40
0.0
 40
1.0
 40
1.0
 40
1.0
 40
1.0
 10
12.00000000000001
 20
7.560940419836816
 30
0.0
 10
11.66517197601528
 20
7.662747929549258
 30
0.0
 10
11.33244306031426
 20
7.744252508972081
 30
0.0
 10
11.00023505678102
 20
7.805095360748061
 30
0.0
  0
LINE
  5
C1
330
1F
100
AcDbEntity
  8
외형선
  6
Continuous
370
    15
100
AcDbLine
 10
11.00023505678103
 20
4.362361359059855
 30
0.0
 11
11.00023505678103
 21
7.805102585532801
 31
0.0
  0
SPLINE
  5
C2
330
1F
100
AcDbEntity
  8
외형선
  6
Continuous
370
    15
100
AcDbSpline
210
0.0
220
0.0
230
1.0
 70
     8
 71
     3
 72
     8
 73
     4
 74
     0
 42
0.000000001
 43
0.00000001
 40
0.0
 40
0.0
 40
0.0
 40
0.0
 40
1.0
 40
1.0
 40
1.0
 40
1.0
 10
11.99999999999998
 20
3.494020691291873
 30
0.0
 10
11.66517197601525
 20
3.793978884103149
 30
0.0
 10
11.33244306031425
 20
4.084023886067254
 30
0.0
 10
11.00023505678101
 20
4.362392545040984
 30
0.0
  0
SPLINE
  5
C3
330
1F
100
AcDbEntity
  8
외형선
  6
Continuous
370
    15
100
AcDbSpline
210
0.0
220
0.0
230
1.0
 70
     8
 71
     3
 72
     8
 73
     4
 74
     0
 42
0.000000001
 43
0.00000001
 40
0.0
 40
0.0
 40
0.0
 40
0.0
 40
1.0
 40
1.0
 40
1.0
 40
1.0
 10
12.00000000000001
 20
1.685952781273935
 30
0.0
 10
11.66517197601528
 20
2.012380729546436
 30
0.0
 10
11.33244306031426
 20
2.333644284112741
 30
0.0
 10
11.00023505678102
 20
2.647745147001455
 30
0.0
  0
SPLINE
  5
C4
330
1F
100
AcDbEntity
  8
외형선
  6
Continuous
370
    15
100
AcDbSpline
210
0.0
220
0.0
230
1.0
 70
     8
 71
     3
 72
     8
 73
     4
 74
     0
 42
0.000000001
 43
0.00000001
 40
0.0
 40
0.0
 40
0.0
 40
0.0
 40
1.0
 40
1.0
 40
1.0
 40
1.0
 10
11.99999999999998
 20
-4.425168537947768
 30
0.0
 10
11.66517197601525
 20
-4.14788677127509
 30
0.0
 10
11.33244306031425
 20
-3.859427037722871
 30
0.0
 10
11.00023505678101
 20
-3.561706971847986
 30
0.0
  0
SPLINE
  5
C5
330
1F
100
AcDbEntity
  8
외형선
  6
Continuous
370
    15
100
AcDbSpline
210
0.0
220
0.0
230
1.0
 70
     8
 71
     3
 72
     8
 73
     4
 74
     0
 42
0.000000001
 43
0.00000001
 40
0.0
 40
0.0
 40
0.0
 40
0.0
 40
1.0
 40
1.0
 40
1.0
 40
1.0
 10
12.00000000000001
 20
-5.873912709838985
 30
0.0
 10
11.66517197601528
 20
-5.649292271278926
 30
0.0
 10
11.33244306031426
 20
-5.409533296135445
 30
0.0
 10
11.00023505678102
 20
-5.156275285022715
 30
0.0
  0
LINE
  5
C6
330
1F
100
AcDbEntity
  8
외형선
  6
Continuous
370
    15
100
AcDbLine
 10
11.00023505678103
 20
-7.923026756035862
 30
0.0
 11
11.00023505678103
 21
-5.156245211431361
 31
0.0
  0
SPLINE
  5
C7
330
1F
100
AcDbEntity
  8
외형선
  6
Continuous
370
    15
100
AcDbSpline
210
0.0
220
0.0
230
1.0
 70
     8
 71
     3
 72
     8
 73
     4
 74
     0
 42
0.000000001
 43
0.00000001
 40
0.0
 40
0.0
 40
0.0
 40
0.0
 40
1.0
 40
1.0
 40
1.0
 40
1.0
 10
11.99999999999998
 20
-7.91811430051572
 30
0.0
 10
11.66517197601525
 20
-7.940790726654318
 30
0.0
 10
11.33244306031425
 20
-7.942375995066205
 30
0.0
 10
11.00023505678101
 20
-7.923024588165053
 30
0.0
  0
LINE
  5
C8
330
1F
100
AcDbEntity
  8
외형선
  6
Continuous
370
    15
100
AcDbLine
 10
-46.7375
 20
0.0010749287238926
 30
0.0
 11
-46.7375
 21
7.938574928723899
 31
0.0
  0
LINE
  5
C9
330
1F
100
AcDbEntity
  8
외형선
  6
Continuous
370
    15
100
AcDbLine
 10
-46.7375
 20
-7.936425071276123
 30
0.0
 11
-46.7375
 21
0.0010749287238926
 31
0.0
  0
LINE
  5
CA
330
1F
100
AcDbEntity
  8
외형선
  6
Continuous
370
    15
100
AcDbLine
 10
11.00023505678103
 20
-3.561740325699926
 30
0.0
 11
11.00023505678103
 21
2.647782445377548
 31
0.0
  0
LINE
  5
CB
330
1F
100
AcDbEntity
  8
외형선
  6
Continuous
370
    15
100
AcDbLine
 10
-48.325
 20
0.0010749287238926
 30
0.0
 11
-48.325
 21
6.3510749287239
 31
0.0
  0
LINE
  5
CC
330
1F
100
AcDbEntity
  8
외형선
  6
Continuous
370
    15
100
AcDbLine
 10
-48.325
 20
-6.348925071276114
 30
0.0
 11
-48.325
 21
0.0010749287238926
 31
0.0
  0
SPLINE
  5
CD
330
1F
100
AcDbEntity
  8
외형선
  6
Continuous
370
    15
100
AcDbSpline
210
0.0
220
0.0
230
1.0
 70
    24
 71
     3
 72
    24
 73
    20
 74
     0
 42
0.000000001
 43
0.00000001
 40
0.0
 40
0.0
 40
0.0
 40
0.0
 40
0.1249999999999999
 40
0.1249999999999999
 40
0.2499999999999999
 40
0.2499999999999999
 40
0.3749999999999998
 40
0.3749999999999998
 40
0.4999999999999998
 40
0.4999999999999998
 40
0.6249999999999998
 40
0.6249999999999998
 40
0.7499999999999997
 40
0.7499999999999997
 40
0.8124999999999997
 40
0.8124999999999997
 40
0.8749999999999996
 40
0.8749999999999996
 40
1.0
 40
1.0
 40
1.0
 40
1.0
 10
12.0
 20
-4.425168537947703
 30
0.0
 10
12.0
 20
-4.280422105237309
 30
0.0
 10
12.00000000000001
 20
-4.057753476726461
 30
0.0
 10
11.99999999999998
 20
-3.449564033516319
 30
0.0
 10
11.99999999999998
 20
-3.063713985058342
 30
0.0
 10
11.99999999999999
 20
-2.210653559403871
 30
0.0
 10
11.99999999999999
 20
-1.746747490896034
 30
0.0
 10
11.99999999999998
 20
-0.8676099735644001
 30
0.0
 10
11.99999999999999
 20
-0.4546460982830625
 30
0.0
 10
11.99999999999999
 20
0.2480238337373777
 30
0.0
 10
12.0
 20
0.5386413858477778
 30
0.0
 10
12.00000000000001
 20
0.9989541248103934
 30
0.0
 10
12.0
 20
1.170052717105047
 30
0.0
 10
11.99999999999999
 20
1.361598328755393
 30
0.0
 10
12.0
 20
1.414695052157045
 30
0.0
 10
11.99999999999999
 20
1.503559842286831
 30
0.0
 10
11.99999999999999
 20
1.539312507691182
 30
0.0
 10
12.0
 20
1.636614287004013
 30
0.0
 10
11.99999999999999
 20
1.682175469921942
 30
0.0
 10
12.0
 20
1.685952781273952
 30
0.0
  0
SPLINE
  5
CE
330
1F
100
AcDbEntity
  8
외형선
  6
Continuous
370
    15
100
AcDbSpline
210
0.0
220
0.0
230
1.0
 70
    24
 71
     3
 72
    16
 73
    12
 74
     0
 42
0.000000001
 43
0.00000001
 40
0.0
 40
0.0
 40
0.0
 40
0.0
 40
0.1004254122640709
 40
0.2211471806605232
 40
0.3418689490569749
 40
0.4625907174534266
 40
0.5833124858498808
 40
0.7040342542463349
 40
0.8247560226427878
 40
0.9454777910392411
 40
1.0
 40
1.0
 40
1.0
 40
1.0
 10
12.00000000000001
 20
3.553295779535139
 30
0.0
 10
12.00000000000001
 20
3.650071642760842
 30
0.0
 10
12.0
 20
3.863182137663034
 30
0.0
 10
11.99999999999997
 20
4.268451097394826
 30
0.0
 10
11.99999999999997
 20
4.740836873335239
 30
0.0
 10
11.99999999999999
 20
5.250431799958908
 30
0.0
 10
11.99999999999998
 20
5.781407266115137
 30
0.0
 10
12.00000000000001
 20
6.318980197155059
 30
0.0
 10
11.99999999999997
 20
6.846926888612474
 30
0.0
 10
12.00000000000004
 20
7.261088468513938
 30
0.0
 10
12.0
 20
7.489787257531669
 30
0.0
 10
11.99999999999999
 20
7.560940419836816
 30
0.0
  0
SPLINE
  5
CF
330
1F
100
AcDbEntity
  8
외형선
  6
Continuous
370
    15
100
AcDbSpline
210
0.0
220
0.0
230
1.0
 70
    24
 71
     3
 72
    12
 73
     8
 74
     0
 42
0.000000001
 43
0.00000001
 40
0.0
 40
0.0
 40
0.0
 40
0.0
 40
0.2322619123631117
 40
0.4645238247262229
 40
0.724621706168223
 40
0.9847195876102222
 40
1.0
 40
1.0
 40
1.0
 40
1.0
 10
11.99999999999999
 20
-7.918114300515722
 30
0.0
 10
12.00000000000001
 20
-7.759296236925359
 30
0.0
 10
12.00000000000001
 20
-7.441660109744632
 30
0.0
 10
11.99999999999999
 20
-6.94357757475064
 30
0.0
 10
11.99999999999998
 20
-6.446210756110305
 30
0.0
 10
12.00000000000008
 20
-6.098309453379249
 30
0.0
 10
12.00000000000001
 20
-5.941868518574774
 30
0.0
 10
12.00000000000001
 20
-5.933187798082277
 30
0.0
  0
LINE
  5
D0
330
1F
100
AcDbEntity
  8
중심선
 48
0.8
100
AcDbLine
 10
-55.325
 20
0.0010749287238921
 30
0.0
 11
46.75000000000001
 21
0.0010749287238997
 31
0.0
  0
LINE
  5
D1
330
1F
100
AcDbEntity
  8
참조1
100
AcDbLine
 10
-5.875000000000005
 20
0.0010749287238892
 30
0.0
 11
-5.875
 21
-39.99892507127611
 31
0.0
  0
LINE
  5
D2
330
1F
100
AcDbEntity
  8
참조1
100
AcDbLine
 10
-5.875
 20
-39.99892507127611
 30
0.0
 11
-13.09635681430868
 21
-39.9989250712761
 31
0.0
  0
CIRCLE
  5
D3
330
1F
100
AcDbEntity
  8
해칭선
100
AcDbCircle
 10
0.0
 20
0.0
 30
0.0
 40
3.000000000000001
  0
INSERT
  5
D4
330
1F
100
AcDbEntity
  8
0
  6
Continuous
 62
     7
100
AcDbBlockReference
 66
     1
  2
블럭10
 10
-19.81527293212521
 20
-52.04609937292004
 30
0.0
  0
ATTRIB
  5
D5
330
D4
100
AcDbEntity
  8
FORMAT
 62
     2
100
AcDbText
 10
-29.95690894426184
 20
-49.97073246008785
 30
0.0
 40
4.233333333333333
  1
EM208040 [ 6 FLUTE ]
 41
0.75
  7
SLDTEXTSTYLE0
 11
-29.95690894426184
 21
-52.08739912675452
 31
0.0
100
AcDbAttribute
  2
AUTOATTR0
 70
     0
 74
     1
  0
SEQEND
  5
D6
330
D4
100
AcDbEntity
  8
0
  6
Continuous
 62
     7
  0
HATCH
  5
D7
330
1F
100
AcDbEntity
  8
중심선
100
AcDbHatch
 10
0.0
 20
0.0
 30
0.0
210
0.0
220
0.0
230
1.0
  2
SOLID
 70
     1
 71
     0
 91
        1
 92
        0
 93
        4
 72
     1
 10
-14.10036362774436
 20
-35.7989250712761
 11
-17.54663887158164
 21
-35.7989250712761
 72
     1
 10
-17.54663887158164
 20
-35.7989250712761
 11
-19.67486873078566
 21
-38.3352506518487
 72
     1
 10
-19.67486873078566
 20
-38.3352506518487
 11
-16.22856040183524
 21
-38.33521122254621
 72
     1
 10
-16.22856040183524
 20
-38.33521122254621
 11
-14.10036362774436
 21
-35.7989250712761
 97
        0
 75
     0
 76
     1
 98
        1
 10
0.0
 20
0.0
  0
HATCH
  5
D8
330
1F
100
AcDbEntity
  8
중심선
100
AcDbHatch
 10
0.0
 20
0.0
 30
0.0
210
0.0
220
0.0
230
1.0
  2
SOLID
 70
     1
 71
     0
 91
        1
 92
        0
 93
        4
 72
     1
 10
-9.08759963670841
 20
-35.79892507127613
 11
-12.53387488054566
 21
-35.7989250712761
 72
     1
 10
-12.53387488054566
 20
-35.7989250712761
 11
-17.06501288890308
 21
-41.19892507127612
 72
     1
 10
-17.06501288890308
 20
-41.19892507127612
 11
-13.6187376450658
 21
-41.19892507127612
 72
     1
 10
-13.6187376450658
 20
-41.19892507127612
 11
-9.08759963670841
 21
-35.79892507127613
 97
        0
 75
     0
 76
     1
 98
        1
 10
0.0
 20
0.0
  0
HATCH
  5
D9
330
1F
100
AcDbEntity
  8
중심선
100
AcDbHatch
 10
0.0
 20
0.0
 30
0.0
210
0.0
220
0.0
230
1.0
  2
SOLID
 70
     1
 71
     0
 91
        1
 92
        0
 93
        4
 72
     1
 10
-4.074835645672542
 20
-35.79892507127613
 11
-7.521110889509602
 21
-35.79892507127608
 72
     1
 10
-7.521110889509602
 20
-35.79892507127608
 11
-14.56954779139888
 21
-44.19892507127612
 72
     1
 10
-14.56954779139888
 20
-44.19892507127612
 11
-11.1232725475616
 21
-44.19892507127612
 72
     1
 10
-11.1232725475616
 20
-44.19892507127612
 11
-4.074835645672542
 21
-35.79892507127613
 97
        0
 75
     0
 76
     1
 98
        1
 10
0.0
 20
0.0
  0
HATCH
  5
DA
330
1F
100
AcDbEntity
  8
중심선
100
AcDbHatch
 10
0.0
 20
0.0
 30
0.0
210
0.0
220
0.0
230
1.0
  2
SOLID
 70
     1
 71
     0
 91
        1
 92
        0
 93
        6
 72
     3
 10
0.7250547853396849
 20
-39.99892507132738
 11
3.960054785062284
 21
1.540850780301639E-10
 40
0.3939339440162633
 50
17.09539180608433
 51
320.0019657685081
 73
     0
 72
     1
 10
2.408054441040253
 20
-38.58681907591443
 11
4.713356314741318
 21
-36.65249236586651
 72
     3
 10
0.7250547852868383
 20
-39.99892507127625
 11
6.600054785286829
 21
-1.249000902703301E-13
 40
0.6363583540795982
 50
39.99873849337382
 51
368.4976242363724
 73
     1
 72
     1
 10
7.150387277187447
 20
-39.03892507120613
 11
-0.5948779078772395
 21
-39.03892507120613
 72
     1
 10
-0.5948779078772393
 20
-39.03892507120613
 11
-0.594902952323173
 21
-40.95892507120602
 72
     1
 10
-0.594902952323173
 20
-40.95892507120602
 11
3.846476817148865
 21
-40.95892507120599
 97
        0
 75
     0
 76
     1
 98
        1
 10
0.0
 20
0.0
  0
DIMENSION
  5
DB
330
1F
100
AcDbEntity
  8
치수문자_일반주서
100
AcDbDimension
  2
_D
 10
61.00632044844892
 20
-7.936425071276037
 30
0.0
 11
61.00632044844889
 21
1.483211306583886
 31
0.0
 70
   160
  1
%%c<>
 71
     2
 42
15.875
 52
-270.0
  3
SLDDIMSTYLE0
100
AcDbAlignedDimension
 13
43.74999999999999
 23
7.938574928723904
 33
0.0
 14
43.74999999999999
 24
-7.9364250712761
 34
0.0
 50
90.0000000000002
100
AcDbRotatedDimension
1001
ACAD
1000
DSTYLE
1002
{
1070
   171
1070
     6
1070
   273
1070
     7
1002
}
  0
DIMENSION
  5
F0
330
1F
100
AcDbEntity
  8
치수문자_일반주서
100
AcDbDimension
  2
_D_1
 10
-61.64249999999999
 20
-7.936425071276176
 30
0.0
 11
-61.64250000000002
 21
0.0010749287239021
 31
0.0
 70
   160
  1
%%c<>
 71
     2
 42
15.87500000000003
 52
-270.0
  3
SLDDIMSTYLE0
100
AcDbAlignedDimension
 13
-46.73750000000001
 23
7.938574928723907
 33
0.0
 14
-46.73750000000001
 24
-7.936425071276121
 34
0.0
 50
90.0000000000002
100
AcDbRotatedDimension
1001
ACAD
1000
DSTYLE
1002
{
1070
   171
1070
     6
1070
   273
1070
     7
1002
}
  0
DIMENSION
  5
104
330
1F
100
AcDbEntity
  8
치수문자_일반주서
100
AcDbDimension
  2
_D_2
 10
11.99999999999999
 20
38.48227388971734
 30
0.0
 11
27.87499999999999
 21
38.48227388971734
 31
0.0
 70
   160
  1
<>
 71
     2
 42
31.74999999999999
  3
SLDDIMSTYLE0
100
AcDbAlignedDimension
 13
43.74999999999999
 23
7.880651426527083
 33
0.0
 14
11.99999999999999
 24
7.920264157963525
 34
0.0
100
AcDbRotatedDimension
1001
ACAD
1000
DSTYLE
1002
{
1070
   171
1070
     6
1070
   273
1070
     7
1002
}
  0
DIMENSION
  5
118
330
1F
100
AcDbEntity
  8
치수문자_일반주서
100
AcDbDimension
  2
_D_3
 10
-48.325
 20
50.48227388971736
 30
0.0
 11
-2.287500000000002
 21
50.48227388971736
 31
0.0
 70
   160
  1
<>
 71
     2
 42
92.07499999999999
  3
SLDDIMSTYLE0
100
AcDbAlignedDimension
 13
43.74999999999999
 23
7.880651426527083
 33
0.0
 14
-48.325
 24
6.3510749287239
 34
0.0
100
AcDbRotatedDimension
1001
ACAD
1000
DSTYLE
1002
{
1070
   171
1070
     4
1070
   273
1070
     7
1002
}
  0
LINE
  5
12B
330
1F
100
AcDbEntity
  8
참조1
100
AcDbLine
 10
84.87598381534559
 20
7.441074928723896
 30
0.0
 11
84.87598381534559
 21
-7.438925071276109
 31
0.0
  0
LINE
  5
12C
330
1F
100
AcDbEntity
  8
참조1
100
AcDbLine
 10
97.5759838153456
 20
5.441074928723896
 30
0.0
 11
84.87598381534559
 21
5.441074928723896
 31
0.0
  0
SOLID
  5
12D
330
1F
100
AcDbEntity
  8
참조1
100
AcDbTrace
 10
84.87598381534559
 20
5.441074928723896
 30
0.0
 11
91.22598381534559
 21
4.425074928723896
 31
0.0
 12
91.22598381534559
 22
6.457074928723896
 32
0.0
 13
91.22598381534559
 23
6.457074928723896
 33
0.0
  0
LINE
  5
12E
330
1F
100
AcDbEntity
  8
참조1
100
AcDbLine
 10
97.5759838153456
 20
-5.438925071276109
 30
0.0
 11
84.87598381534559
 21
-5.438925071276109
 31
0.0
  0
SOLID
  5
12F
330
1F
100
AcDbEntity
  8
참조1
100
AcDbTrace
 10
84.87598381534559
 20
-5.438925071276109
 30
0.0
 11
91.22598381534559
 21
-6.454925071276109
 31
0.0
 12
91.22598381534559
 22
-4.422925071276109
 32
0.0
 13
91.22598381534559
 23
-4.422925071276109
 33
0.0
  0
MTEXT
  5
130
330
1F
100
AcDbEntity
  8
참조1
100
AcDbMText
 10
94.27347390781586
 20
10.98929157337383
 30
0.0
 40
3.5
 41
0.0
 71
     1
 72
     1
  1
A
  7
SLDTEXTSTYLE0
 73
     1
 44
1.0
  0
MTEXT
  5
131
330
1F
100
AcDbEntity
  8
참조1
100
AcDbMText
 10
94.27347390781586
 20
0.1092915733738259
 30
0.0
 40
3.5
 41
0.0
 71
     1
 72
     1
  1
A
  7
SLDTEXTSTYLE0
 73
     1
 44
1.0
  0
INSERT
  5
138
330
1F
100
AcDbEntity
  8
해칭선
100
AcDbBlockReference
  2
SW_DOWELSYMBOL_0
 10
0.0
 20
0.0
 30
0.0
  0
ENDSEC
  0
SECTION
  2
OBJECTS
  0
DICTIONARY
  5
C
330
0
100
AcDbDictionary
281
     1
  3
ACAD_GROUP
350
D
  3
ACAD_IMAGE_VARS
350
15C
  3
ACAD_LAYOUT
350
1A
  3
ACAD_MLINESTYLE
350
17
  3
ACAD_PLOTSETTINGS
350
19
  3
ACAD_PLOTSTYLENAME
350
E
  3
ACAD_SCALELIST
350
47
  3
APPDATA
350
15A
  3
DWGPROPS
350
1B2
  0
DICTIONARY
  5
183
330
2
100
AcDbDictionary
280
     1
281
     1
  3
ACAD_LAYERSTATES
360
184
  0
DICTIONARY
  5
D
102
{ACAD_REACTORS
330
C
102
}
330
C
100
AcDbDictionary
281
     1
  0
RASTERVARIABLES
  5
15C
102
{ACAD_REACTORS
330
C
102
}
330
C
100
AcDbRasterVariables
 90
        0
 70
     1
 71
     1
 72
     1
  0
DICTIONARY
  5
1A
102
{ACAD_REACTORS
330
C
102
}
330
C
100
AcDbDictionary
281
     1
  3
Layout1
350
1E
  3
Layout2
350
26
  3
Model
350
22
  0
DICTIONARY
  5
17
102
{ACAD_REACTORS
330
C
102
}
330
C
100
AcDbDictionary
281
     1
  3
Standard
350
18
  0
DICTIONARY
  5
19
102
{ACAD_REACTORS
330
C
102
}
330
C
100
AcDbDictionary
281
     1
  0
ACDBDICTIONARYWDFLT
  5
E
102
{ACAD_REACTORS
330
C
102
}
330
C
100
AcDbDictionary
281
     1
  3
Normal
350
F
100
AcDbDictionaryWithDefault
340
F
  0
DICTIONARY
  5
47
102
{ACAD_REACTORS
330
C
102
}
330
C
100
AcDbDictionary
281
     1
  3
A0
350
48
  3
A1
350
49
  3
A2
350
4A
  3
A3
350
4B
  3
A4
350
4C
  3
A5
350
4D
  3
A6
350
4E
  3
A7
350
4F
  3
A8
350
50
  3
A9
350
51
  3
B0
350
52
  3
B1
350
53
  3
B2
350
54
  3
B3
350
55
  3
B4
350
56
  3
B5
350
57
  3
B6
350
58
  3
B7
350
59
  3
B8
350
5A
  3
B9
350
5B
  3
C0
350
5C
  3
C1
350
5D
  3
C2
350
5E
  3
C3
350
5F
  3
C4
350
60
  3
C5
350
61
  3
C6
350
62
  3
C7
350
63
  3
C8
350
64
  3
C9
350
65
  3
D0
350
66
  3
D1
350
67
  3
D2
350
68
  0
DICTIONARY
  5
15A
102
{ACAD_REACTORS
330
C
102
}
330
C
100
AcDbDictionary
281
     1
  0
XRECORD
  5
1B2
102
{ACAD_REACTORS
330
C
102
}
330
C
100
AcDbXrecord
280
     1
  1
DWGPROPS COOKIE
  2

  3

  4

  6

  7

  8
12016016
  9

300
=
301
=
302
=
303
=
304
=
305
=
306
=
307
=
308
=
309
=
 40
0.0
 41
2458292.271110868
 42
2458296.116127604
  1

 90
        0
  0
DICTIONARY
  5
184
102
{ACAD_REACTORS
330
183
102
}
330
183
100
AcDbDictionary
281
     1
  0
LAYOUT
  5
1E
102
{ACAD_REACTORS
330
1A
102
}
330
1A
100
AcDbPlotSettings
  1

  2
none_device
  4

  6

 40
0.0
 41
0.0
 42
0.0
 43
0.0
 44
0.0
 45
0.0
 46
0.0
 47
0.0
 48
0.0
 49
0.0
140
0.0
141
0.0
142
1.0
143
1.0
 70
   688
 72
     1
 73
     0
 74
     5
  7

 75
    16
147
1.0
148
0.0
149
0.0
100
AcDbLayout
  1
Layout1
 70
     1
 71
     1
 10
0.0
 20
0.0
 11
420.0
 21
297.0
 12
0.0
 22
0.0
 32
0.0
 14
1.000000000000000E+20
 24
1.000000000000000E+20
 34
1.000000000000000E+20
 15
-1.000000000000000E+20
 25
-1.000000000000000E+20
 35
-1.000000000000000E+20
146
0.0
 13
0.0
 23
0.0
 33
0.0
 16
1.0
 26
0.0
 36
0.0
 17
0.0
 27
1.0
 37
0.0
 76
     0
330
1B
  0
LAYOUT
  5
26
102
{ACAD_REACTORS
330
1A
102
}
330
1A
100
AcDbPlotSettings
  1

  2
none_device
  4

  6

 40
0.0
 41
0.0
 42
0.0
 43
0.0
 44
0.0
 45
0.0
 46
0.0
 47
0.0
 48
0.0
 49
0.0
140
0.0
141
0.0
142
1.0
143
1.0
 70
   688
 72
     1
 73
     0
 74
     5
  7

 75
    16
147
1.0
148
0.0
149
0.0
100
AcDbLayout
  1
Layout2
 70
     1
 71
     2
 10
0.0
 20
0.0
 11
0.0
 21
0.0
 12
0.0
 22
0.0
 32
0.0
 14
0.0
 24
0.0
 34
0.0
 15
0.0
 25
0.0
 35
0.0
146
0.0
 13
0.0
 23
0.0
 33
0.0
 16
1.0
 26
0.0
 36
0.0
 17
0.0
 27
1.0
 37
0.0
 76
     0
330
23
  0
LAYOUT
  5
22
102
{ACAD_REACTORS
330
1A
102
}
330
1A
100
AcDbPlotSettings
  1

  2
none_device
  4
ANSI_A_(11.00_x_8.50_Inches)
  6

 40
6.35
 41
19.05
 42
6.35000508
 43
19.05000254
 44
279.4
 45
215.9
 46
110.4114503925367
 47
80.35176082957267
 48
0.0
 49
0.0
140
0.0
141
0.0
142
0.0637367845413413
143
1.0
 70
  1696
 72
     0
 73
     0
 74
     0
  7

 75
     0
147
0.0235690232323232
148
0.0
149
0.0
100
AcDbLayout
  1
Model
 70
     1
 71
     0
 10
0.0
 20
0.0
 11
420.0
 21
297.0
 12
0.0
 22
0.0
 32
0.0
 14
1.000000000000000E+20
 24
1.000000000000000E+20
 34
1.000000000000000E+20
 15
-1.000000000000000E+20
 25
-1.000000000000000E+20
 35
-1.000000000000000E+20
146
0.0
 13
0.0
 23
0.0
 33
0.0
 16
1.0
 26
0.0
 36
0.0
 17
0.0
 27
1.0
 37
0.0
 76
     0
330
1F
331
29
  0
MLINESTYLE
  5
18
102
{ACAD_REACTORS
330
17
102
}
330
17
100
AcDbMlineStyle
  2
Standard
 70
     0
  3

 62
   256
 51
90.0
 52
90.0
 71
     2
 49
0.5
 62
   256
  6
BYLAYER
 49
-0.5
 62
   256
  6
BYLAYER
  0
ACDBPLACEHOLDER
  5
F
102
{ACAD_REACTORS
330
E
102
}
330
E
  0
SCALE
  5
48
102
{ACAD_REACTORS
330
47
102
}
330
47
100
AcDbScale
 70
     0
300
1:1
140
1.0
141
1.0
290
     1
  0
SCALE
  5
49
102
{ACAD_REACTORS
330
47
102
}
330
47
100
AcDbScale
 70
     0
300
1:2
140
1.0
141
2.0
290
     0
  0
SCALE
  5
4A
102
{ACAD_REACTORS
330
47
102
}
330
47
100
AcDbScale
 70
     0
300
1:4
140
1.0
141
4.0
290
     0
  0
SCALE
  5
4B
102
{ACAD_REACTORS
330
47
102
}
330
47
100
AcDbScale
 70
     0
300
1:5
140
1.0
141
5.0
290
     0
  0
SCALE
  5
4C
102
{ACAD_REACTORS
330
47
102
}
330
47
100
AcDbScale
 70
     0
300
1:8
140
1.0
141
8.0
290
     0
  0
SCALE
  5
4D
102
{ACAD_REACTORS
330
47
102
}
330
47
100
AcDbScale
 70
     0
300
1:10
140
1.0
141
10.0
290
     0
  0
SCALE
  5
4E
102
{ACAD_REACTORS
330
47
102
}
330
47
100
AcDbScale
 70
     0
300
1:16
140
1.0
141
16.0
290
     0
  0
SCALE
  5
4F
102
{ACAD_REACTORS
330
47
102
}
330
47
100
AcDbScale
 70
     0
300
1:20
140
1.0
141
20.0
290
     0
  0
SCALE
  5
50
102
{ACAD_REACTORS
330
47
102
}
330
47
100
AcDbScale
 70
     0
300
1:30
140
1.0
141
30.0
290
     0
  0
SCALE
  5
51
102
{ACAD_REACTORS
330
47
102
}
330
47
100
AcDbScale
 70
     0
300
1:40
140
1.0
141
40.0
290
     0
  0
SCALE
  5
52
102
{ACAD_REACTORS
330
47
102
}
330
47
100
AcDbScale
 70
     0
300
1:50
140
1.0
141
50.0
290
     0
  0
SCALE
  5
53
102
{ACAD_REACTORS
330
47
102
}
330
47
100
AcDbScale
 70
     0
300
1:100
140
1.0
141
100.0
290
     0
  0
SCALE
  5
54
102
{ACAD_REACTORS
330
47
102
}
330
47
100
AcDbScale
 70
     0
300
2:1
140
2.0
141
1.0
290
     0
  0
SCALE
  5
55
102
{ACAD_REACTORS
330
47
102
}
330
47
100
AcDbScale
 70
     0
300
4:1
140
4.0
141
1.0
290
     0
  0
SCALE
  5
56
102
{ACAD_REACTORS
330
47
102
}
330
47
100
AcDbScale
 70
     0
300
8:1
140
8.0
141
1.0
290
     0
  0
SCALE
  5
57
102
{ACAD_REACTORS
330
47
102
}
330
47
100
AcDbScale
 70
     0
300
10:1
140
10.0
141
1.0
290
     0
  0
SCALE
  5
58
102
{ACAD_REACTORS
330
47
102
}
330
47
100
AcDbScale
 70
     0
300
100:1
140
100.0
141
1.0
290
     0
  0
SCALE
  5
59
102
{ACAD_REACTORS
330
47
102
}
330
47
100
AcDbScale
 70
     0
300
1/128" = 1'-0"
140
0.0078125
141
12.0
290
     0
  0
SCALE
  5
5A
102
{ACAD_REACTORS
330
47
102
}
330
47
100
AcDbScale
 70
     0
300
1/64" = 1'-0"
140
0.015625
141
12.0
290
     0
  0
SCALE
  5
5B
102
{ACAD_REACTORS
330
47
102
}
330
47
100
AcDbScale
 70
     0
300
1/32" = 1'-0"
140
0.03125
141
12.0
290
     0
  0
SCALE
  5
5C
102
{ACAD_REACTORS
330
47
102
}
330
47
100
AcDbScale
 70
     0
300
1/16" = 1'-0"
140
0.0625
141
12.0
290
     0
  0
SCALE
  5
5D
102
{ACAD_REACTORS
330
47
102
}
330
47
100
AcDbScale
 70
     0
300
3/32" = 1'-0"
140
0.09375
141
12.0
290
     0
  0
SCALE
  5
5E
102
{ACAD_REACTORS
330
47
102
}
330
47
100
AcDbScale
 70
     0
300
1/8" = 1'-0"
140
0.125
141
12.0
290
     0
  0
SCALE
  5
5F
102
{ACAD_REACTORS
330
47
102
}
330
47
100
AcDbScale
 70
     0
300
3/16" = 1'-0"
140
0.1875
141
12.0
290
     0
  0
SCALE
  5
60
102
{ACAD_REACTORS
330
47
102
}
330
47
100
AcDbScale
 70
     0
300
1/4" = 1'-0"
140
0.25
141
12.0
290
     0
  0
SCALE
  5
61
102
{ACAD_REACTORS
330
47
102
}
330
47
100
AcDbScale
 70
     0
300
3/8" = 1'-0"
140
0.375
141
12.0
290
     0
  0
SCALE
  5
62
102
{ACAD_REACTORS
330
47
102
}
330
47
100
AcDbScale
 70
     0
300
1/2" = 1'-0"
140
0.5
141
12.0
290
     0
  0
SCALE
  5
63
102
{ACAD_REACTORS
330
47
102
}
330
47
100
AcDbScale
 70
     0
300
3/4" = 1'-0"
140
0.75
141
12.0
290
     0
  0
SCALE
  5
64
102
{ACAD_REACTORS
330
47
102
}
330
47
100
AcDbScale
 70
     0
300
1" = 1'-0"
140
1.0
141
12.0
290
     0
  0
SCALE
  5
65
102
{ACAD_REACTORS
330
47
102
}
330
47
100
AcDbScale
 70
     0
300
1-1/2" = 1'-0"
140
1.5
141
12.0
290
     0
  0
SCALE
  5
66
102
{ACAD_REACTORS
330
47
102
}
330
47
100
AcDbScale
 70
     0
300
3" = 1'-0"
140
3.0
141
12.0
290
     0
  0
SCALE
  5
67
102
{ACAD_REACTORS
330
47
102
}
330
47
100
AcDbScale
 70
     0
300
6" = 1'-0"
140
6.0
141
12.0
290
     0
  0
SCALE
  5
68
102
{ACAD_REACTORS
330
47
102
}
330
47
100
AcDbScale
 70
     0
300
1'-0" = 1'-0"
140
12.0
141
12.0
290
     0
  0
ENDSEC
  0
EOF
