  0
SECTION
  2
HEADER
  9
$ACADVER
  1
AC1015
  9
$ACADMAINTVER
 70
     6
  9
$DWGCODEPAGE
  3
ANSI_949
  9
$INSBASE
 10
0.0
 20
0.0
 30
0.0
  9
$EXTMIN
 10
1.000000000000000E+20
 20
1.000000000000000E+20
 30
1.000000000000000E+20
  9
$EXTMAX
 10
-1.000000000000000E+20
 20
-1.000000000000000E+20
 30
-1.000000000000000E+20
  9
$LIMMIN
 10
0.0
 20
0.0
  9
$LIMMAX
 10
420.0
 20
297.0
  9
$ORTHOMODE
 70
     1
  9
$REGENMODE
 70
     1
  9
$FILLMODE
 70
     1
  9
$QTEXTMODE
 70
     0
  9
$MIRRTEXT
 70
     1
  9
$LTSCALE
 40
1.0
  9
$ATTMODE
 70
     1
  9
$TEXTSIZE
 40
3.5
  9
$TRACEWID
 40
1.0
  9
$TEXTSTYLE
  7
Standard
  9
$CLAYER
  8
0
  9
$CELTYPE
  6
ByLayer
  9
$CECOLOR
 62
   256
  9
$CELTSCALE
 40
1.0
  9
$DISPSILH
 70
     0
  9
$DIMSCALE
 40
1.0
  9
$DIMASZ
 40
3.302
  9
$DIMEXO
 40
1.0
  9
$DIMDLI
 40
3.75
  9
$DIMRND
 40
0.0
  9
$DIMDLE
 40
0.0
  9
$DIMEXE
 40
1.0
  9
$DIMTP
 40
0.0
  9
$DIMTM
 40
0.0
  9
$DIMTXT
 40
3.5
  9
$DIMCEN
 40
2.5
  9
$DIMTSZ
 40
0.0
  9
$DIMTOL
 70
     0
  9
$DIMLIM
 70
     0
  9
$DIMTIH
 70
     1
  9
$DIMTOH
 70
     1
  9
$DIMSE1
 70
     0
  9
$DIMSE2
 70
     0
  9
$DIMTAD
 70
     1
  9
$DIMZIN
 70
     0
  9
$DIMBLK
  1

  9
$DIMASO
 70
     1
  9
$DIMSHO
 70
     1
  9
$DIMPOST
  1

  9
$DIMAPOST
  1

  9
$DIMALT
 70
     0
  9
$DIMALTD
 70
     3
  9
$DIMALTF
 40
0.0393700787401575
  9
$DIMLFAC
 40
1.0
  9
$DIMTOFL
 70
     1
  9
$DIMTVP
 40
0.0
  9
$DIMTIX
 70
     0
  9
$DIMSOXD
 70
     0
  9
$DIMSAH
 70
     0
  9
$DIMBLK1
  1

  9
$DIMBLK2
  1

  9
$DIMSTYLE
  2
ISO-25
  9
$DIMCLRD
 70
     0
  9
$DIMCLRE
 70
     0
  9
$DIMCLRT
 70
     0
  9
$DIMTFAC
 40
1.0
  9
$DIMGAP
 40
1.524
  9
$DIMJUST
 70
     0
  9
$DIMSD1
 70
     0
  9
$DIMSD2
 70
     0
  9
$DIMTOLJ
 70
     0
  9
$DIMTZIN
 70
     0
  9
$DIMALTZ
 70
     0
  9
$DIMALTTZ
 70
     0
  9
$DIMUPT
 70
     0
  9
$DIMDEC
 70
     2
  9
$DIMTDEC
 70
     2
  9
$DIMALTU
 70
     2
  9
$DIMALTTD
 70
     3
  9
$DIMTXSTY
  7
Standard
  9
$DIMAUNIT
 70
     0
  9
$DIMADEC
 70
     2
  9
$DIMALTRND
 40
0.0
  9
$DIMAZIN
 70
     0
  9
$DIMDSEP
 70
    44
  9
$DIMATFIT
 70
     3
  9
$DIMFRAC
 70
     0
  9
$DIMLDRBLK
  1

  9
$DIMLUNIT
 70
     2
  9
$DIMLWD
 70
    -2
  9
$DIMLWE
 70
    -2
  9
$DIMTMOVE
 70
     0
  9
$LUNITS
 70
     2
  9
$LUPREC
 70
     2
  9
$SKETCHINC
 40
1.0
  9
$FILLETRAD
 40
10.0
  9
$AUNITS
 70
     0
  9
$AUPREC
 70
     2
  9
$MENU
  1
.
  9
$ELEVATION
 40
0.0
  9
$PELEVATION
 40
0.0
  9
$THICKNESS
 40
0.0
  9
$LIMCHECK
 70
     0
  9
$CHAMFERA
 40
0.0
  9
$CHAMFERB
 40
0.0
  9
$CHAMFERC
 40
0.0
  9
$CHAMFERD
 40
0.0
  9
$SKPOLY
 70
     0
  9
$TDCREATE
 40
2458292.645921643
  9
$TDUCREATE
 40
2458292.270921643
  9
$TDUPDATE
 40
2458295.814710694
  9
$TDUUPDATE
 40
2458295.439710694
  9
$TDINDWG
 40
0.000021169
  9
$TDUSRTIMER
 40
2458295.437744386
  9
$USRTIMER
 70
     1
  9
$ANGBASE
 50
0.0
  9
$ANGDIR
 70
     0
  9
$PDMODE
 70
     0
  9
$PDSIZE
 40
-1.0
  9
$PLINEWID
 40
0.0
  9
$SPLFRAME
 70
     0
  9
$SPLINETYPE
 70
     6
  9
$SPLINESEGS
 70
     8
  9
$HANDSEED
  5
190
  9
$SURFTAB1
 70
     6
  9
$SURFTAB2
 70
     6
  9
$SURFTYPE
 70
     6
  9
$SURFU
 70
     6
  9
$SURFV
 70
     6
  9
$UCSBASE
  2

  9
$UCSNAME
  2

  9
$UCSORG
 10
0.0
 20
0.0
 30
0.0
  9
$UCSXDIR
 10
1.0
 20
0.0
 30
0.0
  9
$UCSYDIR
 10
0.0
 20
1.0
 30
0.0
  9
$UCSORTHOREF
  2

  9
$UCSORTHOVIEW
 70
     0
  9
$UCSORGTOP
 10
0.0
 20
0.0
 30
0.0
  9
$UCSORGBOTTOM
 10
0.0
 20
0.0
 30
0.0
  9
$UCSORGLEFT
 10
0.0
 20
0.0
 30
0.0
  9
$UCSORGRIGHT
 10
0.0
 20
0.0
 30
0.0
  9
$UCSORGFRONT
 10
0.0
 20
0.0
 30
0.0
  9
$UCSORGBACK
 10
0.0
 20
0.0
 30
0.0
  9
$PUCSBASE
  2

  9
$PUCSNAME
  2

  9
$PUCSORG
 10
0.0
 20
0.0
 30
0.0
  9
$PUCSXDIR
 10
1.0
 20
0.0
 30
0.0
  9
$PUCSYDIR
 10
0.0
 20
1.0
 30
0.0
  9
$PUCSORTHOREF
  2

  9
$PUCSORTHOVIEW
 70
     0
  9
$PUCSORGTOP
 10
0.0
 20
0.0
 30
0.0
  9
$PUCSORGBOTTOM
 10
0.0
 20
0.0
 30
0.0
  9
$PUCSORGLEFT
 10
0.0
 20
0.0
 30
0.0
  9
$PUCSORGRIGHT
 10
0.0
 20
0.0
 30
0.0
  9
$PUCSORGFRONT
 10
0.0
 20
0.0
 30
0.0
  9
$PUCSORGBACK
 10
0.0
 20
0.0
 30
0.0
  9
$USERI1
 70
     0
  9
$USERI2
 70
     0
  9
$USERI3
 70
     0
  9
$USERI4
 70
     0
  9
$USERI5
 70
     0
  9
$USERR1
 40
0.0
  9
$USERR2
 40
0.0
  9
$USERR3
 40
0.0
  9
$USERR4
 40
0.0
  9
$USERR5
 40
0.0
  9
$WORLDVIEW
 70
     1
  9
$SHADEDGE
 70
     3
  9
$SHADEDIF
 70
    70
  9
$TILEMODE
 70
     1
  9
$MAXACTVP
 70
    64
  9
$PINSBASE
 10
0.0
 20
0.0
 30
0.0
  9
$PLIMCHECK
 70
     0
  9
$PEXTMIN
 10
1.000000000000000E+20
 20
1.000000000000000E+20
 30
1.000000000000000E+20
  9
$PEXTMAX
 10
-1.000000000000000E+20
 20
-1.000000000000000E+20
 30
-1.000000000000000E+20
  9
$PLIMMIN
 10
0.0
 20
0.0
  9
$PLIMMAX
 10
0.0
 20
0.0
  9
$UNITMODE
 70
     0
  9
$VISRETAIN
 70
     1
  9
$PLINEGEN
 70
     0
  9
$PSLTSCALE
 70
     1
  9
$TREEDEPTH
 70
  3020
  9
$CMLSTYLE
  2
Standard
  9
$CMLJUST
 70
     0
  9
$CMLSCALE
 40
20.0
  9
$PROXYGRAPHICS
 70
     1
  9
$MEASUREMENT
 70
     1
  9
$CELWEIGHT
370
    -1
  9
$ENDCAPS
280
     0
  9
$JOINSTYLE
280
     0
  9
$LWDISPLAY
290
     1
  9
$INSUNITS
 70
     4
  9
$HYPERLINKBASE
  1

  9
$STYLESHEET
  1

  9
$XEDIT
290
     1
  9
$CEPSNTYPE
380
     0
  9
$PSTYLEMODE
290
     1
  9
$FINGERPRINTGUID
  2
{EAD921A2-623C-4054-A757-182A4B351F2F}
  9
$VERSIONGUID
  2
{FAEB1C32-E019-11D5-929B-00C0DF256EC4}
  9
$EXTNAMES
290
     1
  9
$PSVPSCALE
 40
0.0
  9
$OLESTARTUP
290
     0
  0
ENDSEC
  0
SECTION
  2
CLASSES
  0
CLASS
  1
ACDBDICTIONARYWDFLT
  2
AcDbDictionaryWithDefault
  3
ObjectDBX Classes
 90
        0
280
     0
281
     0
  0
CLASS
  1
VISUALSTYLE
  2
AcDbVisualStyle
  3
ObjectDBX Classes
 90
     4095
280
     0
281
     0
  0
CLASS
  1
MATERIAL
  2
AcDbMaterial
  3
ObjectDBX Classes
 90
     1153
280
     0
281
     0
  0
CLASS
  1
SCALE
  2
AcDbScale
  3
ObjectDBX Classes
 90
     1153
280
     0
281
     0
  0
CLASS
  1
SUN
  2
AcDbSun
  3
SCENEOE
 90
     1153
280
     0
281
     0
  0
CLASS
  1
ACDBPLACEHOLDER
  2
AcDbPlaceHolder
  3
ObjectDBX Classes
 90
        0
280
     0
281
     0
  0
CLASS
  1
LAYOUT
  2
AcDbLayout
  3
ObjectDBX Classes
 90
        0
280
     0
281
     0
  0
CLASS
  1
TABLESTYLE
  2
AcDbTableStyle
  3
ObjectDBX Classes
 90
     4095
280
     0
281
     0
  0
CLASS
  1
MLEADERSTYLE
  2
AcDbMLeaderStyle
  3
ACDB_MLEADERSTYLE_CLASS
 90
     4095
280
     0
281
     0
  0
CLASS
  1
RASTERVARIABLES
  2
AcDbRasterVariables
  3
ISM
 90
        0
280
     0
281
     0
  0
ENDSEC
  0
SECTION
  2
TABLES
  0
TABLE
  2
VPORT
  5
8
330
0
100
AcDbSymbolTable
 70
     1
  0
VPORT
  5
29
330
8
100
AcDbSymbolTableRecord
100
AcDbViewportTableRecord
  2
*Active
 70
     0
 10
0.0
 20
0.0
 11
1.0
 21
1.0
 12
22.49458448528965
 22
-6.859198670657449
 13
0.0
 23
0.0
 14
10.0
 24
10.0
 15
10.0
 25
10.0
 16
0.0
 26
0.0
 36
1.0
 17
0.0
 27
0.0
 37
0.0
 40
222.6999457453379
 41
1.798434442270059
 42
50.0
 43
0.0
 44
0.0
 50
0.0
 51
0.0
 71
    16
 72
  2000
 73
     1
 74
     3
 75
     0
 76
     0
 77
     0
 78
     0
281
     0
 65
     1
110
0.0
120
0.0
130
0.0
111
1.0
121
0.0
131
0.0
112
0.0
122
1.0
132
0.0
 79
     0
146
0.0
  0
ENDTAB
  0
TABLE
  2
LTYPE
  5
5
330
0
100
AcDbSymbolTable
 70
     6
  0
LTYPE
  5
14
330
5
100
AcDbSymbolTableRecord
100
AcDbLinetypeTableRecord
  2
ByBlock
 70
     0
  3

 72
    65
 73
     0
 40
0.0
  0
LTYPE
  5
15
330
5
100
AcDbSymbolTableRecord
100
AcDbLinetypeTableRecord
  2
ByLayer
 70
     0
  3

 72
    65
 73
     0
 40
0.0
  0
LTYPE
  5
16
330
5
100
AcDbSymbolTableRecord
100
AcDbLinetypeTableRecord
  2
Continuous
 70
     0
  3
Solid line
 72
    65
 73
     0
 40
0.0
  0
LTYPE
  5
6A
330
5
100
AcDbSymbolTableRecord
100
AcDbLinetypeTableRecord
  2
HIDDEN
 70
     0
  3
Hidden __ __ __ __ __ __ __ __ __ __ __ __ __ __
 72
    65
 73
     2
 40
1.905
 49
1.27
 74
     0
 49
-0.635
 74
     0
  0
LTYPE
  5
6B
330
5
100
AcDbSymbolTableRecord
100
AcDbLinetypeTableRecord
  2
PHANTOM
 70
     0
  3
Phantom ______  __  __  ______  __  __  ______
 72
    65
 73
     6
 40
12.7
 49
6.35
 74
     0
 49
-1.27
 74
     0
 49
1.27
 74
     0
 49
-1.27
 74
     0
 49
1.27
 74
     0
 49
-1.27
 74
     0
  0
LTYPE
  5
6C
330
5
100
AcDbSymbolTableRecord
100
AcDbLinetypeTableRecord
  2
CENTER
 70
     0
  3
Center ____ _ ____ _ ____ _ ____ _ ____ _ ____
 72
    65
 73
     4
 40
10.16
 49
6.35
 74
     0
 49
-1.27
 74
     0
 49
1.27
 74
     0
 49
-1.27
 74
     0
  0
LTYPE
  5
6D
330
5
100
AcDbSymbolTableRecord
100
AcDbLinetypeTableRecord
  2
CENTERX2
 70
     0
  3
Center (2x) ________  __  ________  __  _____
 72
    65
 73
     4
 40
20.32
 49
12.7
 74
     0
 49
-2.54
 74
     0
 49
2.54
 74
     0
 49
-2.54
 74
     0
  0
LTYPE
  5
6E
330
5
100
AcDbSymbolTableRecord
100
AcDbLinetypeTableRecord
  2
DOT2
 70
     0
  3
Dot (.5x) ........................................
 72
    65
 73
     2
 40
0.635
 49
0.0
 74
     0
 49
-0.635
 74
     0
  0
ENDTAB
  0
TABLE
  2
LAYER
  5
2
102
{ACAD_XDICTIONARY
360
184
102
}
330
0
100
AcDbSymbolTable
 70
    18
  0
LAYER
  5
10
330
2
100
AcDbSymbolTableRecord
100
AcDbLayerTableRecord
  2
0
 70
     0
 62
     7
  6
Continuous
370
    -3
390
F
  0
LAYER
  5
6F
330
2
100
AcDbSymbolTableRecord
100
AcDbLayerTableRecord
  2
FORMAT
 70
     0
 62
     2
  6
Continuous
370
    -3
390
F
  0
LAYER
  5
70
330
2
100
AcDbSymbolTableRecord
100
AcDbLayerTableRecord
  2
외형선
 70
     0
 62
     4
  6
Continuous
370
    30
390
F
  0
LAYER
  5
71
330
2
100
AcDbSymbolTableRecord
100
AcDbLayerTableRecord
  2
숨은선
 70
     0
 62
     2
  6
HIDDEN
370
    15
390
F
  0
LAYER
  5
72
330
2
100
AcDbSymbolTableRecord
100
AcDbLayerTableRecord
  2
중심선
 70
     0
 62
     1
  6
CENTERX2
370
    -3
390
F
  0
LAYER
  5
73
330
2
100
AcDbSymbolTableRecord
100
AcDbLayerTableRecord
  2
파단선
 70
     0
 62
     4
  6
Continuous
370
    -3
390
F
  0
LAYER
  5
74
330
2
100
AcDbSymbolTableRecord
100
AcDbLayerTableRecord
  2
해칭선
 70
     0
 62
   100
  6
Continuous
370
    -3
390
F
  0
LAYER
  5
75
330
2
100
AcDbSymbolTableRecord
100
AcDbLayerTableRecord
  2
가는실선
 70
     0
 62
     4
  6
Continuous
370
    -3
390
F
  0
LAYER
  5
76
330
2
100
AcDbSymbolTableRecord
100
AcDbLayerTableRecord
  2
치수_보조선
 70
     0
 62
     4
  6
Continuous
370
    -3
390
F
  0
LAYER
  5
77
330
2
100
AcDbSymbolTableRecord
100
AcDbLayerTableRecord
  2
치수문자_일반주서
 70
     0
 62
     7
  6
Continuous
370
    15
390
F
  0
LAYER
  5
78
330
2
100
AcDbSymbolTableRecord
100
AcDbLayerTableRecord
  2
개별주서
 70
     0
 62
   100
  6
Continuous
370
    30
390
F
  0
LAYER
  5
79
330
2
100
AcDbSymbolTableRecord
100
AcDbLayerTableRecord
  2
중간선
 70
     0
 62
     2
  6
Continuous
370
    15
390
F
  0
LAYER
  5
7A
330
2
100
AcDbSymbolTableRecord
100
AcDbLayerTableRecord
  2
윤곽선
 70
     0
 62
     3
  6
Continuous
370
    40
390
F
  0
LAYER
  5
7B
330
2
100
AcDbSymbolTableRecord
100
AcDbLayerTableRecord
  2
중심마크
 70
     0
 62
   100
  6
Continuous
370
    30
390
F
  0
LAYER
  5
7C
330
2
100
AcDbSymbolTableRecord
100
AcDbLayerTableRecord
  2
가상선
 70
     0
 62
     4
  6
PHANTOM
370
    -3
390
F
  0
LAYER
  5
7D
330
2
100
AcDbSymbolTableRecord
100
AcDbLayerTableRecord
  2
특수지정선
 70
     0
 62
     5
  6
CENTERX2
370
    60
390
F
  0
LAYER
  5
7E
330
2
100
AcDbSymbolTableRecord
100
AcDbLayerTableRecord
  2
참조1
 70
     0
 62
    -4
  6
Continuous
370
    -3
390
F
  0
LAYER
  5
18B
330
2
100
AcDbSymbolTableRecord
100
AcDbLayerTableRecord
  2
Defpoints
 70
     0
 62
     7
  6
Continuous
290
     0
370
    -3
390
F
  0
ENDTAB
  0
TABLE
  2
STYLE
  5
3
330
0
100
AcDbSymbolTable
 70
     2
  0
STYLE
  5
11
330
3
100
AcDbSymbolTableRecord
100
AcDbTextStyleTableRecord
  2
Standard
 70
     0
 40
0.0
 41
1.0
 50
0.0
 71
     0
 42
3.5
  3
txt
  4

  0
STYLE
  5
94
330
3
100
AcDbSymbolTableRecord
100
AcDbTextStyleTableRecord
  2
SLDTEXTSTYLE0
 70
     0
 40
0.0
 41
0.75
 50
0.0
 71
     0
 42
3.5
  3
TXT
  4

  0
ENDTAB
  0
TABLE
  2
VIEW
  5
6
330
0
100
AcDbSymbolTable
 70
     0
  0
ENDTAB
  0
TABLE
  2
UCS
  5
7
330
0
100
AcDbSymbolTable
 70
     0
  0
ENDTAB
  0
TABLE
  2
APPID
  5
9
330
0
100
AcDbSymbolTable
 70
     1
  0
APPID
  5
12
330
9
100
AcDbSymbolTableRecord
100
AcDbRegAppTableRecord
  2
ACAD
 70
     0
  0
ENDTAB
  0
TABLE
  2
DIMSTYLE
  5
A
330
0
100
AcDbSymbolTable
 70
     4
100
AcDbDimStyleTable
  0
DIMSTYLE
105
27
330
A
100
AcDbSymbolTableRecord
100
AcDbDimStyleTableRecord
  2
ISO-25
 70
     0
 41
2.5
 42
0.625
 43
3.75
 44
1.25
 73
     0
 74
     0
 77
     1
 78
     8
140
2.5
141
2.5
143
0.03937007874016
147
0.625
171
     3
172
     1
178
     0
271
     2
272
     2
274
     3
278
    44
283
     0
284
     8
340
11
  0
DIMSTYLE
105
DA
330
A
100
AcDbSymbolTableRecord
100
AcDbDimStyleTableRecord
  2
SLDDIMSTYLE0
 70
     0
 41
3.302
 44
0.0
 45
0.000000001
 73
     0
 74
     0
 77
     1
 78
    12
 79
     3
140
3.5
143
0.0393700787401575
147
0.875
148
0.000000001
170
     1
172
     1
173
     1
178
     0
271
     2
272
     2
276
     2
284
    12
289
     0
340
94
  0
DIMSTYLE
105
EF
102
{ACAD_REACTORS
330
EE
330
103
330
118
330
D9
102
}
330
A
100
AcDbSymbolTableRecord
100
AcDbDimStyleTableRecord
  2
SLDDIMSTYLE1
 70
     0
 41
3.302
 44
0.0
 45
0.000000001
 73
     0
 74
     0
 77
     1
 78
     4
 79
     1
140
3.5
143
0.0393700787401575
147
0.875
148
0.000000001
170
     1
172
     1
173
     1
178
     0
271
     2
272
     2
276
     2
284
    12
289
     0
340
94
  0
DIMSTYLE
105
119
330
A
100
AcDbSymbolTableRecord
100
AcDbDimStyleTableRecord
  2
SLDDIMSTYLE2
 70
     0
 41
3.302
 44
0.0
 45
0.000000001
 73
     0
 74
     0
 77
     1
 78
    12
 79
     3
140
3.5
143
0.0393700787401575
147
0.875
148
0.000000001
170
     1
173
     1
178
     0
271
     2
272
     2
276
     2
284
    12
340
94
  0
ENDTAB
  0
TABLE
  2
BLOCK_RECORD
  5
1
330
0
100
AcDbSymbolTable
 70
     8
  0
BLOCK_RECORD
  5
1F
330
1
100
AcDbSymbolTableRecord
100
AcDbBlockTableRecord
  2
*Model_Space
340
22
  0
BLOCK_RECORD
  5
1B
330
1
100
AcDbSymbolTableRecord
100
AcDbBlockTableRecord
  2
*Paper_Space
340
1E
  0
BLOCK_RECORD
  5
23
330
1
100
AcDbSymbolTableRecord
100
AcDbBlockTableRecord
  2
*Paper_Space0
340
26
  0
BLOCK_RECORD
  5
7F
330
1
100
AcDbSymbolTableRecord
100
AcDbBlockTableRecord
  2
블럭10
340
0
102
{BLKREFS
331
D2
102
}
  0
BLOCK_RECORD
  5
DB
330
1
100
AcDbSymbolTableRecord
100
AcDbBlockTableRecord
  2
_D
340
0
  0
BLOCK_RECORD
  5
F0
330
1
100
AcDbSymbolTableRecord
100
AcDbBlockTableRecord
  2
_D_1
340
0
  0
BLOCK_RECORD
  5
104
330
1
100
AcDbSymbolTableRecord
100
AcDbBlockTableRecord
  2
_D_2
340
0
  0
BLOCK_RECORD
  5
11A
330
1
100
AcDbSymbolTableRecord
100
AcDbBlockTableRecord
  2
_D_3
340
0
  0
BLOCK_RECORD
  5
133
330
1
100
AcDbSymbolTableRecord
100
AcDbBlockTableRecord
  2
SW_DOWELSYMBOL_0
340
0
102
{BLKREFS
331
139
102
}
  0
ENDTAB
  0
ENDSEC
  0
SECTION
  2
BLOCKS
  0
BLOCK
  5
20
330
1F
100
AcDbEntity
  8
0
100
AcDbBlockBegin
  2
*Model_Space
 70
     0
 10
0.0
 20
0.0
 30
0.0
  3
*Model_Space
  1
*Model_Space
  0
ENDBLK
  5
21
330
1F
100
AcDbEntity
  8
0
100
AcDbBlockEnd
  0
BLOCK
  5
1C
330
1B
100
AcDbEntity
 67
     1
  8
0
100
AcDbBlockBegin
  2
*Paper_Space
 70
     0
 10
0.0
 20
0.0
 30
0.0
  3
*Paper_Space
  1
*Paper_Space
  0
ENDBLK
  5
1D
330
1B
100
AcDbEntity
 67
     1
  8
0
100
AcDbBlockEnd
  0
BLOCK
  5
24
330
23
100
AcDbEntity
  8
0
100
AcDbBlockBegin
  2
*Paper_Space0
 70
     0
 10
0.0
 20
0.0
 30
0.0
  3
*Paper_Space0
  1
*Paper_Space0
  0
ENDBLK
  5
25
330
23
100
AcDbEntity
  8
0
100
AcDbBlockEnd
  0
BLOCK
  5
80
330
7F
100
AcDbEntity
  8
0
100
AcDbBlockBegin
  2
블럭10
 70
     2
 10
0.0
 20
0.0
 30
0.0
  3
블럭10
  1
블럭10
  0
ELLIPSE
  5
82
330
7F
100
AcDbEntity
  8
중심선
100
AcDbEllipse
 10
20.54032771741204
 20
12.0471743016438
 30
0.0
 11
6.600054785286829
 21
-1.261213355974178E-13
 31
0.0
210
0.0
220
0.0
230
1.0
 40
0.636358354079598
 41
0.9219305317359503
 42
6.513795318482858
  0
ELLIPSE
  5
83
330
7F
100
AcDbEntity
  8
중심선
100
AcDbEllipse
 10
20.54032771746488
 20
12.04717430159265
 30
0.0
 11
3.960054785062283
 21
1.540847449632565E-10
 31
0.0
210
0.0
220
0.0
230
1.0
 40
0.3939339440162632
 41
1.131841032648279
 42
5.62031148352944
  0
LINE
  5
84
330
7F
100
AcDbEntity
  8
중심선
100
AcDbLine
 10
2.268634060543552
 20
16.24717430164393
 30
0.0
 11
5.714909304380834
 21
16.24717430164393
 31
0.0
  0
LINE
  5
85
330
7F
100
AcDbEntity
  8
중심선
100
AcDbLine
 10
5.245725140726316
 20
7.84717430164391
 30
0.0
 11
8.692000384563599
 21
7.84717430164391
 31
0.0
  0
LINE
  5
86
330
7F
100
AcDbEntity
  8
중심선
100
AcDbLine
 10
15.74043728645272
 20
16.24717430164393
 30
0.0
 11
8.692000384563599
 21
7.84717430164391
 31
0.0
  0
LINE
  5
87
330
7F
100
AcDbEntity
  8
중심선
100
AcDbLine
 10
0.1404042013395286
 20
13.71084872107135
 30
0.0
 11
3.58671253028996
 21
13.71088815037384
 31
0.0
  0
LINE
  5
88
330
7F
100
AcDbEntity
  8
중심선
100
AcDbLine
 10
2.750260043222114
 20
10.84717430164391
 30
0.0
 11
6.196535287059397
 21
10.84717430164391
 31
0.0
  0
LINE
  5
89
330
7F
100
AcDbEntity
  8
중심선
100
AcDbLine
 10
12.29416204261559
 20
16.24717430164393
 30
0.0
 11
5.245725140726316
 21
7.84717430164391
 31
0.0
  0
LINE
  5
8A
330
7F
100
AcDbEntity
  8
중심선
100
AcDbLine
 10
10.72767329541681
 20
16.24717430164393
 30
0.0
 11
6.196535287059397
 21
10.84717430164391
 31
0.0
  0
LINE
  5
8B
330
7F
100
AcDbEntity
  8
중심선
100
AcDbLine
 10
7.28139805157953
 20
16.24717430164393
 30
0.0
 11
2.750260043222114
 21
10.84717430164391
 31
0.0
  0
LINE
  5
8C
330
7F
100
AcDbEntity
  8
중심선
100
AcDbLine
 10
5.714909304380834
 20
16.24717430164393
 30
0.0
 11
3.58671253028996
 21
13.71088815037384
 31
0.0
  0
LINE
  5
8D
330
7F
100
AcDbEntity
  8
중심선
100
AcDbLine
 10
2.268634060543552
 20
16.24717430164393
 30
0.0
 11
0.1404042013395286
 21
13.71084872107135
 31
0.0
  0
LINE
  5
8E
330
7F
100
AcDbEntity
  8
중심선
100
AcDbLine
 10
7.28139805157953
 20
16.24717430164393
 30
0.0
 11
10.72767329541681
 21
16.24717430164393
 31
0.0
  0
LINE
  5
8F
330
7F
100
AcDbEntity
  8
중심선
100
AcDbLine
 10
12.29416204261559
 20
16.24717430164393
 30
0.0
 11
15.74043728645272
 21
16.24717430164393
 31
0.0
  0
LINE
  5
90
330
7F
100
AcDbEntity
  8
중심선
100
AcDbLine
 10
19.22036997980202
 20
11.08717430171403
 30
0.0
 11
23.66174974927406
 21
11.08717430171406
 31
0.0
  0
LINE
  5
91
330
7F
100
AcDbEntity
  8
중심선
100
AcDbLine
 10
19.22039502424796
 20
13.00717430171391
 30
0.0
 11
19.22036997980202
 21
11.08717430171403
 31
0.0
  0
LINE
  5
92
330
7F
100
AcDbEntity
  8
중심선
100
AcDbLine
 10
19.22039502424796
 20
13.00717430171391
 30
0.0
 11
26.96566020931264
 21
13.00717430171391
 31
0.0
  0
LINE
  5
93
330
7F
100
AcDbEntity
  8
중심선
100
AcDbLine
 10
22.22332737316547
 20
13.45928029700563
 30
0.0
 11
24.52862924686651
 21
15.39360700705356
 31
0.0
  0
ATTDEF
  5
95
330
7F
100
AcDbEntity
  8
FORMAT
 62
     2
100
AcDbText
 10
3.448148490846466
 20
2.075366912832191
 30
0.0
 40
4.233333333333333
  1
EM208032
 41
0.75
  7
SLDTEXTSTYLE0
 11
3.448148490846466
 21
-0.0412997538344756
 31
0.0
100
AcDbAttributeDefinition
  3

  2
AUTOATTR0
 70
     0
 74
     1
  0
ENDBLK
  5
81
330
7F
100
AcDbEntity
  8
0
100
AcDbBlockEnd
  0
BLOCK
  5
DC
330
DB
100
AcDbEntity
  8
0
100
AcDbBlockBegin
  2
_D
 70
     0
 10
0.0
 20
0.0
 30
0.0
  3
_D
  1
_D
  0
LINE
  5
DE
330
DB
100
AcDbEntity
  8
치수문자_일반주서
 62
     0
370
    -2
100
AcDbLine
 10
37.46249999999998
 20
6.351074928723904
 30
0.0
 11
50.50315417256924
 21
6.351074928723953
 31
0.0
  0
LINE
  5
DF
330
DB
100
AcDbEntity
  8
치수문자_일반주서
 62
     0
370
    -2
100
AcDbLine
 10
37.46249999999999
 20
-6.302586269518636
 30
0.0
 11
50.50315417256928
 21
-6.302586269518586
 31
0.0
  0
LINE
  5
E0
330
DB
100
AcDbEntity
  8
치수문자_일반주서
 62
     0
370
    -2
100
AcDbLine
 10
50.50315417256925
 20
3.049074928723954
 30
0.0
 11
50.50315417256927
 21
-3.000586269518586
 31
0.0
  0
SOLID
  5
E1
330
DB
100
AcDbEntity
  8
치수문자_일반주서
 62
     0
100
AcDbTrace
 10
51.05348750590259
 20
3.049074928723956
 30
0.0
 11
49.95282083923592
 21
3.049074928723952
 31
0.0
 12
50.50315417256924
 22
6.351074928723953
 32
0.0
 13
50.50315417256924
 23
6.351074928723953
 33
0.0
  0
SOLID
  5
E2
330
DB
100
AcDbEntity
  8
치수문자_일반주서
 62
     0
100
AcDbTrace
 10
49.95282083923593
 20
-3.000586269518588
 30
0.0
 11
51.0534875059026
 21
-3.000586269518585
 31
0.0
 12
50.50315417256928
 22
-6.302586269518586
 32
0.0
 13
50.50315417256928
 23
-6.302586269518586
 33
0.0
  0
MTEXT
  5
E3
330
DB
100
AcDbEntity
  8
치수문자_일반주서
 62
     0
100
AcDbMText
 10
46.12815417256926
 20
0.74817223572918
 30
0.0
 40
3.5
 41
0.0
 71
     2
 72
     1
  1
\A1;%%c12.65 [1/2]
  7
SLDTEXTSTYLE0
 11
-3.369188053772708E-15
 21
1.0
 31
0.0
 73
     1
 44
1.0
  0
POINT
  5
E4
330
DB
100
AcDbEntity
  8
Defpoints
 62
     0
100
AcDbPoint
 10
37.39999999999998
 20
6.351074928723904
 30
0.0
  0
POINT
  5
E5
330
DB
100
AcDbEntity
  8
Defpoints
 62
     0
100
AcDbPoint
 10
37.39999999999999
 20
-6.302586269518636
 30
0.0
  0
POINT
  5
E6
330
DB
100
AcDbEntity
  8
Defpoints
 62
     0
100
AcDbPoint
 10
50.50315417256928
 20
-6.302586269518587
 30
0.0
  0
ENDBLK
  5
DD
330
DB
100
AcDbEntity
  8
0
100
AcDbBlockEnd
  0
BLOCK
  5
F1
330
F0
100
AcDbEntity
  8
0
100
AcDbBlockBegin
  2
_D_1
 70
     0
 10
0.0
 20
0.0
 30
0.0
  3
_D_1
  1
_D_1
  0
LINE
  5
F3
330
F0
100
AcDbEntity
  8
치수문자_일반주서
 62
     0
370
    -2
100
AcDbLine
 10
-43.94250000000002
 20
6.351074928723897
 30
0.0
 11
-58.23500000000006
 21
6.351074928723843
 31
0.0
  0
LINE
  5
F4
330
F0
100
AcDbEntity
  8
치수문자_일반주서
 62
     0
370
    -2
100
AcDbLine
 10
-43.94250000000002
 20
-6.348925071276094
 30
0.0
 11
-58.23500000000001
 21
-6.348925071276147
 31
0.0
  0
LINE
  5
F5
330
F0
100
AcDbEntity
  8
치수문자_일반주서
 62
     0
370
    -2
100
AcDbLine
 10
-58.23500000000004
 20
3.049074928723844
 30
0.0
 11
-58.23500000000003
 21
-3.046925071276148
 31
0.0
  0
SOLID
  5
F6
330
F0
100
AcDbEntity
  8
치수문자_일반주서
 62
     0
100
AcDbTrace
 10
-57.68466666666671
 20
3.049074928723845
 30
0.0
 11
-58.78533333333338
 21
3.049074928723842
 31
0.0
 12
-58.23500000000006
 22
6.351074928723843
 32
0.0
 13
-58.23500000000006
 23
6.351074928723843
 33
0.0
  0
SOLID
  5
F7
330
F0
100
AcDbEntity
  8
치수문자_일반주서
 62
     0
100
AcDbTrace
 10
-58.78533333333336
 20
-3.046925071276149
 30
0.0
 11
-57.68466666666669
 21
-3.046925071276146
 31
0.0
 12
-58.23500000000001
 22
-6.348925071276147
 32
0.0
 13
-58.23500000000001
 23
-6.348925071276147
 33
0.0
  0
MTEXT
  5
F8
330
F0
100
AcDbEntity
  8
치수문자_일반주서
 62
     0
100
AcDbMText
 10
-62.61000000000003
 20
0.001074928723882
 30
0.0
 40
3.5
 41
0.0
 71
     2
 72
     1
  1
\A1;%%c12.70 [1/2]
  7
SLDTEXTSTYLE0
 11
-3.356894814614649E-15
 21
1.0
 31
0.0
 73
     1
 44
1.0
  0
POINT
  5
F9
330
F0
100
AcDbEntity
  8
Defpoints
 62
     0
100
AcDbPoint
 10
-43.88000000000002
 20
6.351074928723897
 30
0.0
  0
POINT
  5
FA
330
F0
100
AcDbEntity
  8
Defpoints
 62
     0
100
AcDbPoint
 10
-43.88000000000002
 20
-6.348925071276094
 30
0.0
  0
POINT
  5
FB
330
F0
100
AcDbEntity
  8
Defpoints
 62
     0
100
AcDbPoint
 10
-58.23500000000001
 20
-6.348925071276147
 30
0.0
  0
ENDBLK
  5
F2
330
F0
100
AcDbEntity
  8
0
100
AcDbBlockEnd
  0
BLOCK
  5
105
330
104
100
AcDbEntity
  8
0
100
AcDbBlockBegin
  2
_D_2
 70
     0
 10
0.0
 20
0.0
 30
0.0
  3
_D_2
  1
_D_2
  0
LINE
  5
107
330
104
100
AcDbEntity
  8
치수문자_일반주서
 62
     0
370
    -2
100
AcDbLine
 10
37.39999999999998
 20
6.413574928723905
 30
0.0
 11
37.39999999999998
 21
36.90635859015671
 31
0.0
  0
LINE
  5
108
330
104
100
AcDbEntity
  8
치수문자_일반주서
 62
     0
370
    -2
100
AcDbLine
 10
12.00000000000001
 20
6.398996650397821
 30
0.0
 11
12.00000000000001
 21
36.90635859015671
 31
0.0
  0
LINE
  5
109
330
104
100
AcDbEntity
  8
치수문자_일반주서
 62
     0
370
    -2
100
AcDbLine
 10
34.09799999999998
 20
36.90635859015671
 30
0.0
 11
15.30200000000001
 21
36.90635859015671
 31
0.0
  0
SOLID
  5
10A
330
104
100
AcDbEntity
  8
치수문자_일반주서
 62
     0
100
AcDbTrace
 10
34.09799999999998
 20
36.35602525682337
 30
0.0
 11
34.09799999999998
 21
37.45669192349004
 31
0.0
 12
37.39999999999998
 22
36.90635859015671
 32
0.0
 13
37.39999999999998
 23
36.90635859015671
 33
0.0
  0
SOLID
  5
10B
330
104
100
AcDbEntity
  8
치수문자_일반주서
 62
     0
100
AcDbTrace
 10
15.30200000000001
 20
37.45669192349004
 30
0.0
 11
15.30200000000001
 21
36.35602525682337
 31
0.0
 12
12.00000000000001
 22
36.90635859015671
 32
0.0
 13
12.00000000000001
 23
36.90635859015671
 33
0.0
  0
MTEXT
  5
10C
330
104
100
AcDbEntity
  8
치수문자_일반주서
 62
     0
100
AcDbMText
 10
24.69999999999999
 20
41.28135859015671
 30
0.0
 40
3.5
 41
0.0
 71
     2
 72
     1
  1
\A1;25.40 [1]
  7
SLDTEXTSTYLE0
 73
     1
 44
1.0
  0
POINT
  5
10D
330
104
100
AcDbEntity
  8
Defpoints
 62
     0
100
AcDbPoint
 10
37.39999999999998
 20
6.351074928723905
 30
0.0
  0
POINT
  5
10E
330
104
100
AcDbEntity
  8
Defpoints
 62
     0
100
AcDbPoint
 10
12.00000000000001
 20
6.336496650397821
 30
0.0
  0
POINT
  5
10F
330
104
100
AcDbEntity
  8
Defpoints
 62
     0
100
AcDbPoint
 10
12.00000000000001
 20
36.90635859015671
 30
0.0
  0
ENDBLK
  5
106
330
104
100
AcDbEntity
  8
0
100
AcDbBlockEnd
  0
BLOCK
  5
11B
330
11A
100
AcDbEntity
  8
0
100
AcDbBlockBegin
  2
_D_3
 70
     0
 10
0.0
 20
0.0
 30
0.0
  3
_D_3
  1
_D_3
  0
LINE
  5
11D
330
11A
100
AcDbEntity
  8
치수문자_일반주서
 62
     0
370
    -2
100
AcDbLine
 10
37.39999999999998
 20
6.413574928723905
 30
0.0
 11
37.39999999999998
 21
48.90635859015674
 31
0.0
  0
LINE
  5
11E
330
11A
100
AcDbEntity
  8
치수문자_일반주서
 62
     0
370
    -2
100
AcDbLine
 10
-45.15000000000002
 20
5.143574928723907
 30
0.0
 11
-45.15000000000002
 21
48.90635859015674
 31
0.0
  0
LINE
  5
11F
330
11A
100
AcDbEntity
  8
치수문자_일반주서
 62
     0
370
    -2
100
AcDbLine
 10
34.09799999999998
 20
48.90635859015674
 30
0.0
 11
-41.84800000000002
 21
48.90635859015674
 31
0.0
  0
SOLID
  5
120
330
11A
100
AcDbEntity
  8
치수문자_일반주서
 62
     0
100
AcDbTrace
 10
34.09799999999998
 20
48.3560252568234
 30
0.0
 11
34.09799999999998
 21
49.45669192349007
 31
0.0
 12
37.39999999999998
 22
48.90635859015674
 32
0.0
 13
37.39999999999998
 23
48.90635859015674
 33
0.0
  0
SOLID
  5
121
330
11A
100
AcDbEntity
  8
치수문자_일반주서
 62
     0
100
AcDbTrace
 10
-41.84800000000002
 20
49.45669192349007
 30
0.0
 11
-41.84800000000002
 21
48.3560252568234
 31
0.0
 12
-45.15000000000002
 22
48.90635859015674
 32
0.0
 13
-45.15000000000002
 23
48.90635859015674
 33
0.0
  0
MTEXT
  5
122
330
11A
100
AcDbEntity
  8
치수문자_일반주서
 62
     0
100
AcDbMText
 10
-3.600000000000016
 20
53.28135859015674
 30
0.0
 40
3.5
 41
0.0
 71
     2
 72
     1
  1
\A1;82.55 [3 1/4]
  7
SLDTEXTSTYLE0
 73
     1
 44
1.0
  0
POINT
  5
123
330
11A
100
AcDbEntity
  8
Defpoints
 62
     0
100
AcDbPoint
 10
37.39999999999998
 20
6.351074928723905
 30
0.0
  0
POINT
  5
124
330
11A
100
AcDbEntity
  8
Defpoints
 62
     0
100
AcDbPoint
 10
-45.15000000000002
 20
5.081074928723907
 30
0.0
  0
POINT
  5
125
330
11A
100
AcDbEntity
  8
Defpoints
 62
     0
100
AcDbPoint
 10
-45.15000000000002
 20
48.90635859015674
 30
0.0
  0
ENDBLK
  5
11C
330
11A
100
AcDbEntity
  8
0
100
AcDbBlockEnd
  0
BLOCK
  5
134
330
133
100
AcDbEntity
  8
0
100
AcDbBlockBegin
  2
SW_DOWELSYMBOL_0
 70
     0
 10
0.0
 20
0.0
 30
0.0
  3
SW_DOWELSYMBOL_0
  1
SW_DOWELSYMBOL_0
  0
CIRCLE
  5
136
330
133
100
AcDbEntity
  8
해칭선
 62
     0
100
AcDbCircle
 10
0.0
 20
0.0
 30
0.0
 40
3.000000000000002
  0
HATCH
  5
137
330
133
100
AcDbEntity
  8
0
  6
Continuous
 62
     0
370
     0
100
AcDbHatch
 10
0.0
 20
0.0
 30
0.0
210
0.0
220
0.0
230
1.0
  2
SOLID
 70
     1
 71
     0
 91
        1
 92
        0
 93
        3
 72
     2
 10
0.0
 20
0.0
 40
3.000000000000002
 50
0.0
 51
90.0
 73
     1
 72
     1
 10
0.0
 20
3.000000000000002
 11
0.0
 21
0.0
 72
     1
 10
0.0
 20
0.0
 11
3.000000000000002
 21
0.0
 97
        0
 75
     0
 76
     1
 98
        1
 10
0.0
 20
0.0
  0
HATCH
  5
138
330
133
100
AcDbEntity
  8
0
  6
Continuous
 62
     0
370
     0
100
AcDbHatch
 10
0.0
 20
0.0
 30
0.0
210
0.0
220
0.0
230
1.0
  2
SOLID
 70
     1
 71
     0
 91
        1
 92
        0
 93
        3
 72
     2
 10
0.0
 20
0.0
 40
3.000000000000002
 50
180.0
 51
270.0000000000008
 73
     1
 72
     1
 10
0.0
 20
-3.000000000000002
 11
0.0
 21
0.0
 72
     1
 10
0.0
 20
0.0
 11
-3.000000000000002
 21
0.0
 97
        0
 75
     0
 76
     1
 98
        1
 10
0.0
 20
0.0
  0
ENDBLK
  5
135
330
133
100
AcDbEntity
  8
0
100
AcDbBlockEnd
  0
ENDSEC
  0
SECTION
  2
ENTITIES
  0
LINE
  5
96
330
1F
100
AcDbEntity
  8
0
  6
Continuous
 62
     1
370
    15
100
AcDbLine
 10
24.86866788363644
 20
6.351074928723904
 30
0.0
 11
23.33225406436782
 21
6.351074928723904
 31
0.0
  0
LINE
  5
97
330
1F
100
AcDbEntity
  8
0
  6
Continuous
 62
     1
370
    15
100
AcDbLine
 10
23.33225406436776
 20
-6.3489250712761
 30
0.0
 11
24.86866788363639
 21
-6.3489250712761
 31
0.0
  0
LINE
  5
98
330
1F
100
AcDbEntity
  8
0
  6
Continuous
 62
     1
370
    15
100
AcDbLine
 10
36.63168265182664
 20
-6.3489250712761
 30
0.0
 11
37.39999999999998
 21
-6.3489250712761
 31
0.0
  0
LINE
  5
99
330
1F
100
AcDbEntity
  8
0
  6
Continuous
 62
     1
370
    15
100
AcDbLine
 10
18.21879958043639
 20
6.351074928723904
 30
0.0
 11
16.68257137725383
 21
6.351074928723904
 31
0.0
  0
LINE
  5
9A
330
1F
100
AcDbEntity
  8
0
  6
Continuous
 62
     1
370
    15
100
AcDbLine
 10
29.98193306947435
 20
-6.3489250712761
 30
0.0
 11
31.51851023172682
 21
-6.3489250712761
 31
0.0
  0
LINE
  5
9B
330
1F
100
AcDbEntity
  8
0
  6
Continuous
 62
     1
370
    15
100
AcDbLine
 10
31.51851023172682
 20
6.351074928723904
 30
0.0
 11
29.98193306947438
 21
6.351074928723904
 31
0.0
  0
LINE
  5
9C
330
1F
100
AcDbEntity
  8
0
  6
Continuous
 62
     1
370
    15
100
AcDbLine
 10
16.68257137725384
 20
-6.3489250712761
 30
0.0
 11
18.21879958043634
 21
-6.3489250712761
 31
0.0
  0
LINE
  5
9D
330
1F
100
AcDbEntity
  8
0
  6
Continuous
 62
     1
370
    15
100
AcDbLine
 10
37.39999999999998
 20
6.351074928723904
 30
0.0
 11
36.63168265182666
 21
6.351074928723904
 31
0.0
  0
LINE
  5
9E
330
1F
100
AcDbEntity
  8
외형선
  6
Continuous
370
    15
100
AcDbLine
 10
-43.88000000000002
 20
-6.348925071276099
 30
0.0
 11
11.56901098452697
 21
-6.348925071276098
 31
0.0
  0
LINE
  5
9F
330
1F
100
AcDbEntity
  8
외형선
  6
Continuous
370
    15
100
AcDbLine
 10
11.56901098452698
 20
6.351074928723902
 30
0.0
 11
-43.88000000000002
 21
6.351074928723902
 31
0.0
  0
LINE
  5
A0
330
1F
100
AcDbEntity
  8
외형선
  6
Continuous
370
    15
100
AcDbLine
 10
-43.88000000000002
 20
6.351074928723903
 30
0.0
 11
-45.15000000000002
 21
5.081074928723907
 31
0.0
  0
LINE
  5
A1
330
1F
100
AcDbEntity
  8
외형선
  6
Continuous
370
    15
100
AcDbLine
 10
-45.15000000000002
 20
-5.078925071276103
 30
0.0
 11
-43.88000000000002
 21
-6.348925071276099
 31
0.0
  0
SPLINE
  5
A2
330
1F
100
AcDbEntity
  8
0
  6
Continuous
 62
     1
370
    15
100
AcDbSpline
210
0.0
220
0.0
230
1.0
 70
     8
 71
     3
 72
    21
 73
    17
 74
     0
 42
0.000000001
 43
0.00000001
 40
0.0
 40
0.0
 40
0.0
 40
0.0
 40
0.0725450113670797
 40
0.1451732724882981
 40
0.2178951163016278
 40
0.2904437302996297
 40
0.3630584207835421
 40
0.4344672028906136
 40
0.5056928400434123
 40
0.5769919268532919
 40
0.6483943501771487
 40
0.7196171594636946
 40
0.7909261366776685
 40
0.8623211004236953
 40
0.933541647201357
 40
1.0
 40
1.0
 40
1.0
 40
1.0
 10
11.99999999999903
 20
2.796363037293998
 30
0.0
 10
12.37276448949853
 20
2.452818754346223
 30
0.0
 10
13.11872123811971
 20
1.765335950769102
 30
0.0
 10
14.23891648412121
 20
0.6559416180948306
 30
0.0
 10
15.36073284077838
 20
-0.4659799066720535
 30
0.0
 10
16.47983017706373
 20
-1.577610878985195
 30
0.0
 10
17.59315239821686
 20
-2.632373659611232
 30
0.0
 10
18.70145010368083
 20
-3.599035715996868
 30
0.0
 10
19.80012696068756
 20
-4.454383733475659
 30
0.0
 10
20.89993197055132
 20
-5.175242006404226
 30
0.0
 10
22.00133213186258
 20
-5.740582791873527
 30
0.0
 10
23.09996102510335
 20
-6.135042624419127
 30
0.0
 10
24.19991525115334
 20
-6.34617197120381
 30
0.0
 10
25.30122069632284
 20
-6.363575607410421
 30
0.0
 10
26.37477915236583
 20
-6.208635960729382
 30
0.0
 10
27.08293108773701
 20
-5.956888560629983
 30
0.0
 10
27.42475987414341
 20
-5.835368722924756
 30
0.0
  0
SPLINE
  5
A3
330
1F
100
AcDbEntity
  8
외형선
  6
Continuous
370
    15
100
AcDbSpline
210
0.0
220
0.0
230
1.0
 70
    24
 71
     3
 72
    16
 73
    12
 74
     0
 42
0.000000001
 43
0.00000001
 40
0.0
 40
0.0
 40
0.0
 40
0.0
 40
0.1086483689974964
 40
0.2198812873264574
 40
0.3393084461280748
 40
0.4621990006255096
 40
0.5816261594271285
 40
0.7045167139245654
 40
0.823943872726183
 40
0.9468344272236179
 40
1.0
 40
1.0
 40
1.0
 40
1.0
 10
11.99999999999999
 20
6.049283409437368
 30
0.0
 10
12.0
 20
5.934847944864001
 30
0.0
 10
12.00000000000004
 20
5.703254801788166
 30
0.0
 10
12.0
 20
5.316357905603219
 30
0.0
 10
11.99999999999996
 20
4.901759507220611
 30
0.0
 10
11.99999999999999
 20
4.474032650948017
 30
0.0
 10
11.99999999999997
 20
4.052305365199374
 30
0.0
 10
11.99999999999994
 20
3.654823355721664
 30
0.0
 10
11.99999999999999
 20
3.289771236914079
 30
0.0
 10
12.0
 20
3.019598875816397
 30
0.0
 10
11.99999999999999
 20
2.892619191014318
 30
0.0
 10
11.99999999999999
 20
2.854273762326299
 30
0.0
  0
SPLINE
  5
A4
330
1F
100
AcDbEntity
  8
0
  6
Continuous
 62
     1
370
    15
100
AcDbSpline
210
0.0
220
0.0
230
1.0
 70
     8
 71
     3
 72
    24
 73
    20
 74
     0
 42
0.000000001
 43
0.00000001
 40
0.0
 40
0.0
 40
0.0
 40
0.0
 40
0.015711335902101
 40
0.0768023716569383
 40
0.1380371342482858
 40
0.199214444884424
 40
0.2603069363206233
 40
0.3215490414235012
 40
0.3827173878751077
 40
0.4438118200757473
 40
0.5050603239527891
 40
0.566220186484308
 40
0.6273170444090223
 40
0.688571002806236
 40
0.7508593810516281
 40
0.8130910793453473
 40
0.875471372974095
 40
0.9377713920181182
 40
1.0
 40
1.0
 40
1.0
 40
1.0
 10
29.98193306947435
 20
-6.33075763932757
 30
0.0
 10
29.88773097441429
 20
-6.336189827591347
 30
0.0
 10
29.42723898565235
 20
-6.362744217653697
 30
0.0
 10
28.60114040006095
 20
-6.220517233743464
 30
0.0
 10
27.49990130467409
 20
-5.901904871887607
 30
0.0
 10
26.3998028551363
 20
-5.391482814355292
 30
0.0
 10
25.30120380091165
 20
-4.722558028233478
 30
0.0
 10
24.19991977702559
 20
-3.913013859133821
 30
0.0
 10
23.09995981474502
 20
-2.985771098985227
 30
0.0
 10
22.00133245693782
 20
-1.967650691646234
 30
0.0
 10
20.89993188349321
 20
-0.8933368308033053
 30
0.0
 10
19.80012698397074
 20
0.2093008257004652
 30
0.0
 10
18.70145009743049
 20
1.306858842786468
 30
0.0
 10
17.59315239992504
 20
2.369126376063339
 30
0.0
 10
16.47983017660334
 20
3.367288490677078
 30
0.0
 10
15.36073284090199
 20
4.268543814074733
 30
0.0
 10
14.23891648408824
 20
5.031839468136366
 30
0.0
 10
13.11872123812797
 20
5.653574170768198
 30
0.0
 10
12.37276448950128
 20
5.917430766154802
 30
0.0
 10
11.99999999999903
 20
6.04928340943763
 30
0.0
  0
SPLINE
  5
A5
330
1F
100
AcDbEntity
  8
0
  6
Continuous
 62
     1
370
    15
100
AcDbSpline
210
0.0
220
0.0
230
1.0
 70
     8
 71
     3
 72
    27
 73
    23
 74
     0
 42
0.000000001
 43
0.00000001
 40
0.0
 40
0.0
 40
0.0
 40
0.0
 40
0.0506913591652933
 40
0.1014408897073348
 40
0.1522558118423754
 40
0.2029496883724681
 40
0.2536897363320843
 40
0.3035871469621463
 40
0.353356583711146
 40
0.4031773439471436
 40
0.4530703113307614
 40
0.5028377720874606
 40
0.5526654433159135
 40
0.6025531982647702
 40
0.6523190780767801
 40
0.702154051520604
 40
0.7520358252672262
 40
0.8018005192827155
 40
0.8516431857016452
 40
0.9015182099613696
 40
0.9512821134039359
 40
0.9999999999999999
 40
0.9999999999999999
 40
0.9999999999999999
 40
0.9999999999999999
 10
11.99999999999902
 20
6.336496650397884
 30
0.0
 10
12.37276448950106
 20
6.292208891145348
 30
0.0
 10
13.11872123812731
 20
6.203582549778722
 30
0.0
 10
14.2389164840908
 20
5.825246188933612
 30
0.0
 10
15.36073284089257
 20
5.2810642853785
 30
0.0
 10
16.47983017663844
 20
4.5677862118755
 30
0.0
 10
17.59315239979475
 20
3.719249397457475
 30
0.0
 10
18.70145009790718
 20
2.764477437519774
 30
0.0
 10
19.80012698219504
 20
1.730365180275975
 30
0.0
 10
20.89993189013279
 20
0.6455102090949786
 30
0.0
 10
22.00133243214558
 20
-0.4569944219927609
 30
0.0
 10
23.09995990705437
 20
-1.548627789137281
 30
0.0
 10
24.19991943185496
 20
-2.592437921561255
 30
0.0
 10
25.30120508945879
 20
-3.557544895737877
 30
0.0
 10
26.39979805668025
 20
-4.418429476592094
 30
0.0
 10
27.49991924896564
 20
-5.145633714661007
 30
0.0
 10
28.60107343026747
 20
-5.718540746109033
 30
0.0
 10
29.69964112539903
 20
-6.121122865133865
 30
0.0
 10
30.79993066667435
 20
-6.340621625146214
 30
0.0
 10
31.90094387814899
 20
-6.367043068358493
 30
0.0
 10
32.99114273904873
 20
-6.21698852470303
 30
0.0
 10
33.71620384840755
 20
-5.964088910139621
 30
0.0
 10
34.07488381235931
 20
-5.838982179873493
 30
0.0
  0
SPLINE
  5
A6
330
1F
100
AcDbEntity
  8
0
  6
Continuous
 62
     1
370
    15
100
AcDbSpline
210
0.0
220
0.0
230
1.0
 70
     8
 71
     3
 72
    29
 73
    25
 74
     0
 42
0.000000001
 43
0.00000001
 40
0.0
 40
0.0
 40
0.0
 40
0.0
 40
0.0147769812610863
 40
0.0635869873530099
 40
0.1124989996460899
 40
0.1613945756546119
 40
0.2102049694713767
 40
0.2591243549562279
 40
0.3080120025981249
 40
0.356823171839908
 40
0.4057491774869804
 40
0.4546292795563127
 40
0.503441611873962
 40
0.5523734841194402
 40
0.6012464238887251
 40
0.6500603068591073
 40
0.6989972916656151
 40
0.7478634528616754
 40
0.7966792739630268
 40
0.8456206168804089
 40
0.8953884516333381
 40
0.945110999632171
 40
0.9949522739213179
 40
1.0
 40
1.0
 40
1.0
 40
1.0
 10
36.63168265182665
 20
-6.328842300231377
 30
0.0
 10
36.52077093804092
 20
-6.334594976353317
 30
0.0
 10
36.04350554687708
 20
-6.359349378984602
 30
0.0
 10
35.20085801098499
 20
-6.210216194679978
 30
0.0
 10
34.0999432489747
 20
-5.882342363388517
 30
0.0
 10
32.99949265931168
 20
-5.364619500381622
 30
0.0
 10
31.90093714471053
 20
-4.68873364401929
 30
0.0
 10
30.79993247137522
 20
-3.873119962231056
 30
0.0
 10
29.69964064283947
 20
-2.941471521996202
 30
0.0
 10
28.60107355983607
 20
-1.919941793414345
 30
0.0
 10
27.49991921421148
 20
-0.8434603064654881
 30
0.0
 10
26.39979806611065
 20
0.2592866664722623
 30
0.0
 10
25.30120508641619
 20
1.355887251542203
 30
0.0
 10
24.19991943457932
 20
2.409224249544286
 30
0.0
 10
23.09995989921511
 20
3.391856824714711
 30
0.0
 10
22.00133246077647
 20
4.273980777067504
 30
0.0
 10
20.8999317832084
 20
5.026135392122661
 30
0.0
 10
19.80012738034947
 20
5.629055951754592
 30
0.0
 10
18.7014486120148
 20
6.064084697820054
 30
0.0
 10
17.5931580010067
 20
6.31706632631949
 30
0.0
 10
16.47980888924194
 20
6.383981619671926
 30
0.0
 10
15.36081224141306
 20
6.234284856992378
 30
0.0
 10
14.57472972060087
 20
6.042430299911119
 30
0.0
 10
14.16296220878987
 20
5.852290641092983
 30
0.0
 10
14.12509506612388
 20
5.834804935250713
 30
0.0
  0
LINE
  5
A7
330
1F
100
AcDbEntity
  8
0
  6
Continuous
 62
     1
370
    15
100
AcDbLine
 10
37.39999999999998
 20
-6.302586269518636
 30
0.0
 11
37.39999999999998
 21
-3.794475761227469
 31
0.0
  0
SPLINE
  5
A8
330
1F
100
AcDbEntity
  8
0
  6
Continuous
 62
     1
370
    15
100
AcDbSpline
210
0.0
220
0.0
230
1.0
 70
     8
 71
     3
 72
    25
 73
    21
 74
     0
 42
0.000000001
 43
0.00000001
 40
0.0
 40
0.0
 40
0.0
 40
0.0
 40
0.0251693991763246
 40
0.0824476878983673
 40
0.1397850434232215
 40
0.1972055001868952
 40
0.2544815147932379
 40
0.31182682399101
 40
0.3692412819055366
 40
0.4265154770457112
 40
0.4838691901641955
 40
0.5412767644760361
 40
0.5985495949153035
 40
0.6559121616692322
 40
0.7133119681805002
 40
0.7705838887709311
 40
0.8279557583136361
 40
0.8853469134533296
 40
0.9426183791048718
 40
1.0
 40
1.0
 40
1.0
 40
1.0
 10
18.21879958043639
 20
6.32760293729041
 30
0.0
 10
18.37987525810393
 20
6.333018718389268
 30
0.0
 10
18.90751269224837
 20
6.350759254293063
 30
0.0
 10
19.8001021581697
 20
6.178899765609078
 30
0.0
 10
20.89993855587339
 20
5.823698241103628
 30
0.0
 10
22.00133065008994
 20
5.284118827391604
 30
0.0
 10
23.0999603845342
 20
4.587800310359254
 30
0.0
 10
24.19991930418422
 20
3.754109923221532
 30
0.0
 10
25.30120512166111
 20
2.809591369922846
 30
0.0
 10
26.39979805523053
 20
1.778455338182999
 30
0.0
 10
27.49991922248682
 20
0.6955782374085427
 30
0.0
 10
28.6010735376351
 20
-0.4070148597825928
 30
0.0
 10
29.69964072321416
 20
-1.500058901556816
 30
0.0
 10
30.79993217140769
 20
-2.546332150440596
 30
0.0
 10
31.90093826373944
 20
-3.515918318759702
 30
0.0
 10
32.99948849047248
 20
-4.382040125628004
 30
0.0
 10
34.09995884085942
 20
-5.116306985511206
 30
0.0
 10
35.20079985389516
 20
-5.693863085485342
 30
0.0
 10
36.29934189172701
 20
-6.115406078218819
 30
0.0
 10
37.03287904375088
 20
-6.24015292141138
 30
0.0
 10
37.39999999999999
 20
-6.302586269518636
 30
0.0
  0
SPLINE
  5
A9
330
1F
100
AcDbEntity
  8
0
  6
Continuous
 62
     1
370
    15
100
AcDbSpline
210
0.0
220
0.0
230
1.0
 70
     8
 71
     3
 72
    23
 73
    19
 74
     0
 42
0.000000001
 43
0.00000001
 40
0.0
 40
0.0
 40
0.0
 40
0.0
 40
0.0662049562334231
 40
0.1322828191054747
 40
0.1984987756249521
 40
0.2646924810806803
 40
0.3307708688456982
 40
0.3969968070224996
 40
0.4631797792379644
 40
0.5292592167555256
 40
0.5954941171555771
 40
0.6616668743485672
 40
0.7277478864114675
 40
0.7939907288774195
 40
0.8601537899134475
 40
0.9262369012143291
 40
0.9924866649477361
 40
1.0
 40
1.0
 40
1.0
 40
1.0
 10
37.39999999999999
 20
-3.813904690850897
 30
0.0
 10
37.0328790437498
 20
-3.509772488030455
 30
0.0
 10
36.29934189172379
 20
-2.90209192363284
 30
0.0
 10
35.20079985390784
 20
-1.870785948076939
 30
0.0
 10
34.09995884081169
 20
-0.7938713186384354
 30
0.0
 10
32.99948849065038
 20
0.3093520141147372
 30
0.0
 10
31.90093826307629
 20
1.40475473449404
 30
0.0
 10
30.7999321738882
 20
2.45579108243523
 30
0.0
 10
29.69964071397029
 20
3.434122238084241
 30
0.0
 10
28.60107357210856
 20
4.311065303798935
 30
0.0
 10
27.49991909353733
 20
5.057010766093855
 30
0.0
 10
26.39979853565659
 20
5.65246323776144
 30
0.0
 10
25.30120332955474
 20
6.079548060879866
 30
0.0
 10
24.19992600756149
 20
6.322579520107067
 30
0.0
 10
23.09993541543532
 20
6.381602942617309
 30
0.0
 10
22.00142381308242
 20
6.231840825688677
 30
0.0
 10
21.22511374115431
 20
6.041158207461084
 30
0.0
 10
20.81639959535712
 20
5.85339299122148
 30
0.0
 10
20.77476893763628
 20
5.834267669699021
 30
0.0
  0
SPLINE
  5
AA
330
1F
100
AcDbEntity
  8
0
  6
Continuous
 62
     1
370
    15
100
AcDbSpline
210
0.0
220
0.0
230
1.0
 70
     8
 71
     3
 72
    15
 73
    11
 74
     0
 42
0.000000001
 43
0.00000001
 40
0.0
 40
0.0
 40
0.0
 40
0.0
 40
0.1275193299700567
 40
0.2551849960239856
 40
0.3830151613587053
 40
0.5105408240189451
 40
0.6381826356610556
 40
0.7637047063958017
 40
0.8889048456646044
 40
1.0
 40
1.0
 40
1.0
 40
1.0
 10
11.99999999999903
 20
-3.53905868438
 30
0.0
 10
12.37276447903632
 20
-3.838316410255568
 30
0.0
 10
13.11872120672108
 20
-4.437175278206297
 30
0.0
 10
14.23891660995136
 20
-5.168215183349737
 30
0.0
 10
15.36073236872973
 20
-5.746023505022048
 30
0.0
 10
16.47983193530118
 20
-6.144120128342078
 30
0.0
 10
17.59314587518027
 20
-6.351297670928274
 30
0.0
 10
18.70147397195385
 20
-6.359695593077113
 30
0.0
 10
19.75845580179976
 20
-6.200166488979955
 30
0.0
 10
20.44975290639961
 20
-5.949819449664193
 30
0.0
 10
20.77476893763624
 20
-5.832117812251216
 30
0.0
  0
SPLINE
  5
AB
330
1F
100
AcDbEntity
  8
외형선
  6
Continuous
370
    15
100
AcDbSpline
210
0.0
220
0.0
230
1.0
 70
    24
 71
     3
 72
    24
 73
    20
 74
     0
 42
0.000000001
 43
0.00000001
 40
0.0
 40
0.0
 40
0.0
 40
0.0
 40
0.125
 40
0.125
 40
0.1875000000000001
 40
0.1875000000000001
 40
0.2500000000000002
 40
0.2500000000000002
 40
0.3750000000000002
 40
0.3750000000000002
 40
0.5000000000000002
 40
0.5000000000000002
 40
0.6250000000000002
 40
0.6250000000000002
 40
0.7500000000000002
 40
0.7500000000000002
 40
0.8750000000000001
 40
0.8750000000000001
 40
1.0
 40
1.0
 40
1.0
 40
1.0
 10
11.99999999999999
 20
1.34999093178618
 30
0.0
 10
11.99999999999999
 20
1.346929709102685
 30
0.0
 10
12.0
 20
1.310445642010615
 30
0.0
 10
12.00000000000001
 20
1.232558149721276
 30
0.0
 10
11.99999999999999
 20
1.203942197403032
 30
0.0
 10
11.99999999999999
 20
1.132821330298851
 30
0.0
 10
11.99999999999998
 20
1.090328970362065
 30
0.0
 10
11.99999999999997
 20
0.9370466431465603
 30
0.0
 10
12.00000000000001
 20
0.8001358665888997
 30
0.0
 10
12.00000000000001
 20
0.431824843184712
 30
0.0
 10
12.0
 20
0.1993019013228156
 30
0.0
 10
12.0
 20
-0.3628785751783187
 30
0.0
 10
12.0
 20
-0.6932650232047177
 30
0.0
 10
11.99999999999999
 20
-1.396581610926921
 30
0.0
 10
11.99999999999998
 20
-1.767697381580773
 30
0.0
 10
12.0
 20
-2.450102459218331
 30
0.0
 10
12.0
 20
-2.758748521303563
 30
0.0
 10
12.00000000000001
 20
-3.245219162293528
 30
0.0
 10
12.0
 20
-3.423307538035326
 30
0.0
 10
12.0
 20
-3.539058684380756
 30
0.0
  0
SPLINE
  5
AC
330
1F
100
AcDbEntity
  8
0
  6
Continuous
 62
     1
370
    15
100
AcDbSpline
210
0.0
220
0.0
230
1.0
 70
     8
 71
     3
 72
    18
 73
    14
 74
     0
 42
0.000000001
 43
0.00000001
 40
0.0
 40
0.0
 40
0.0
 40
0.0
 40
0.0205165415018071
 40
0.1174591486179759
 40
0.2146462315309594
 40
0.3116926613136372
 40
0.4086391174878534
 40
0.5058348554515016
 40
0.6046719763255565
 40
0.7034191593429446
 40
0.8024021284813276
 40
0.9012577205863531
 40
1.0
 40
1.0
 40
1.0
 40
1.0
 10
23.33225406436777
 20
-6.333063670441471
 30
0.0
 10
23.25474373215157
 20
-6.337969456214116
 30
0.0
 10
22.810989718815
 20
-6.366055545680322
 30
0.0
 10
22.00140505434152
 20
-6.230386122594338
 30
0.0
 10
20.89991244124939
 20
-5.921106057809174
 30
0.0
 10
19.80013218369123
 20
-5.418011477586796
 30
0.0
 10
18.70144870156486
 20
-4.756122509501692
 30
0.0
 10
17.59315278140563
 20
-3.94765613882139
 30
0.0
 10
16.47983007377801
 20
-3.012422775708159
 30
0.0
 10
15.36073286850836
 20
-1.976634711299153
 30
0.0
 10
14.23891647672943
 20
-0.8827086758940765
 30
0.0
 10
13.11872123996422
 20
0.2431780340448248
 30
0.0
 10
12.37276449011313
 20
0.9811943712682014
 30
0.0
 10
11.99999999999902
 20
1.349990931787127
 30
0.0
  0
LINE
  5
AD
330
1F
100
AcDbEntity
  8
0
  6
Continuous
 62
     1
370
    15
100
AcDbLine
 10
37.39999999999998
 20
-2.487606649943747
 30
0.0
 11
37.39999999999998
 21
2.48975650739167
 31
0.0
  0
SPLINE
  5
AE
330
1F
100
AcDbEntity
  8
0
  6
Continuous
 62
     1
370
    15
100
AcDbSpline
210
0.0
220
0.0
230
1.0
 70
     8
 71
     3
 72
    19
 73
    15
 74
     0
 42
0.000000001
 43
0.00000001
 40
0.0
 40
0.0
 40
0.0
 40
0.0
 40
0.0345303663321624
 40
0.122197004325937
 40
0.2099853563621597
 40
0.2978561509316789
 40
0.3855207000486023
 40
0.4733226038850995
 40
0.5611815086854283
 40
0.648844665143958
 40
0.7366608082764246
 40
0.8245064708712864
 40
0.9121689309784706
 40
1.0
 40
1.0
 40
1.0
 40
1.0
 10
24.86866788363644
 20
6.328338815196442
 30
0.0
 10
25.01302374974404
 20
6.334088694285549
 30
0.0
 10
25.52387423495288
 20
6.354436523589365
 30
0.0
 10
26.39976261099164
 20
6.190482528157225
 30
0.0
 10
27.49992873595332
 20
5.84430457238135
 30
0.0
 10
28.60107099429647
 20
5.312021248029861
 30
0.0
 10
29.69964140519916
 20
4.622443807589374
 30
0.0
 10
30.79993198840453
 20
3.794723300494776
 30
0.0
 10
31.90093831266383
 20
2.85445800552365
 30
0.0
 10
32.99948847735059
 20
1.826499887819013
 30
0.0
 10
34.09995884437834
 20
0.7453899382420087
 30
0.0
 10
35.20079985295887
 20
-0.3561580453533877
 30
0.0
 10
36.29934189196138
 20
-1.454728989960593
 30
0.0
 10
37.03287904382907
 20
-2.143093643251469
 30
0.0
 10
37.39999999999999
 20
-2.487606649943748
 30
0.0
  0
SPLINE
  5
AF
330
1F
100
AcDbEntity
  8
0
  6
Continuous
 62
     1
370
    15
100
AcDbSpline
210
0.0
220
0.0
230
1.0
 70
     8
 71
     3
 72
    17
 73
    13
 74
     0
 42
0.000000001
 43
0.00000001
 40
0.0
 40
0.0
 40
0.0
 40
0.0
 40
0.1103407847482098
 40
0.2204697487804514
 40
0.3308288672043366
 40
0.4411509007938643
 40
0.5512807396413026
 40
0.6616564940387596
 40
0.7719606390256669
 40
0.88209222744785
 40
0.9924829187745459
 40
1.0
 40
1.0
 40
1.0
 40
1.0
 10
37.39999999999999
 20
2.489756507391672
 30
0.0
 10
37.03287904117247
 20
2.819883988269364
 30
0.0
 10
36.29934188399672
 20
3.479505205761287
 30
0.0
 10
35.20079988477379
 20
4.346959778047033
 30
0.0
 10
34.09995872480317
 20
5.087830574270178
 30
0.0
 10
32.99948892324002
 20
5.6754488971091
 30
0.0
 10
31.90093665018986
 20
6.094664737115705
 30
0.0
 10
30.79993820693718
 20
6.329175016105375
 30
0.0
 10
29.69961823103462
 20
6.379806049690514
 30
0.0
 10
28.60115741811816
 20
6.220350986697474
 30
0.0
 10
27.84181622697008
 20
6.030840890042525
 30
0.0
 10
27.44975529080424
 20
5.849104956283817
 30
0.0
 10
27.42475987414345
 20
5.837518580372562
 30
0.0
  0
LINE
  5
B0
330
1F
100
AcDbEntity
  8
0
  6
Continuous
 62
     1
370
    15
100
AcDbLine
 10
37.39999999999998
 20
-3.813904690850898
 30
0.0
 11
37.39999999999998
 21
-2.487606649943747
 31
0.0
  0
LINE
  5
B1
330
1F
100
AcDbEntity
  8
외형선
  6
Continuous
370
    15
100
AcDbLine
 10
11.99999999999999
 20
1.349990931786187
 30
0.0
 11
11.99999999999999
 21
2.79636303729313
 31
0.0
  0
LINE
  5
B2
330
1F
100
AcDbEntity
  8
0
  6
Continuous
 62
     1
370
    15
100
AcDbLine
 10
37.39999999999998
 20
-6.348925071276101
 30
0.0
 11
37.39999999999998
 21
-6.302586269518636
 31
0.0
  0
LINE
  5
B3
330
1F
100
AcDbEntity
  8
외형선
  6
Continuous
370
    15
100
AcDbLine
 10
11.99999999999999
 20
6.049283409437368
 30
0.0
 11
11.99999999999999
 21
6.336496650397819
 31
0.0
  0
SPLINE
  5
B4
330
1F
100
AcDbEntity
  8
0
  6
Continuous
 62
     1
370
    15
100
AcDbSpline
210
0.0
220
0.0
230
1.0
 70
     8
 71
     3
 72
     9
 73
     5
 74
     0
 42
0.000000001
 43
0.00000001
 40
0.0
 40
0.0
 40
0.0
 40
0.0
 40
0.5264197794355011
 40
1.0
 40
1.0
 40
1.0
 40
1.0
 10
11.99999999999902
 20
-6.334346792950082
 30
0.0
 10
12.37273942294288
 20
-6.293206643886305
 30
0.0
 10
13.0808044263961
 20
-6.215055801780991
 30
0.0
 10
13.78948022507622
 20
-5.955551284387571
 30
0.0
 10
14.12509506612388
 20
-5.832655077802911
 30
0.0
  0
SPLINE
  5
B5
330
1F
100
AcDbEntity
  8
0
  6
Continuous
 62
     1
370
    15
100
AcDbSpline
210
0.0
220
0.0
230
1.0
 70
     8
 71
     3
 72
    13
 73
     9
 74
     0
 42
0.000000001
 43
0.00000001
 40
0.0
 40
0.0
 40
0.0
 40
0.0
 40
0.0650570641236431
 40
0.2518314377877927
 40
0.438931763554945
 40
0.6260949832369701
 40
0.8128678732608806
 40
1.0
 40
1.0
 40
1.0
 40
1.0
 10
31.51851023172682
 20
6.329468779042417
 30
0.0
 10
31.64614305797377
 20
6.335330835031193
 30
0.0
 10
32.14020098351439
 20
6.358022452120472
 30
0.0
 10
32.99944129691502
 20
6.201538249108366
 30
0.0
 10
34.09997149686239
 20
5.864937797511656
 30
0.0
 10
35.20079648655786
 20
5.338203683626301
 30
0.0
 10
36.29934273471667
 20
4.661896286021113
 30
0.0
 10
37.03287932492734
 20
4.098182327355653
 30
0.0
 10
37.39999999999999
 20
3.81605454829873
 30
0.0
  0
LINE
  5
B6
330
1F
100
AcDbEntity
  8
0
  6
Continuous
 62
     1
370
    15
100
AcDbLine
 10
37.39999999999998
 20
2.48975650739167
 30
0.0
 11
37.39999999999998
 21
3.81605454829873
 31
0.0
  0
SPLINE
  5
B7
330
1F
100
AcDbEntity
  8
0
  6
Continuous
 62
     1
370
    15
100
AcDbSpline
210
0.0
220
0.0
230
1.0
 70
     8
 71
     3
 72
    11
 73
     7
 74
     0
 42
0.000000001
 43
0.00000001
 40
0.0
 40
0.0
 40
0.0
 40
0.0
 40
0.3310197597074778
 40
0.6614040622477724
 40
0.9924788225511809
 40
1.0
 40
1.0
 40
1.0
 40
1.0
 10
37.39999999999999
 20
6.30473612696645
 30
0.0
 10
37.03287340388674
 20
6.331797214743896
 30
0.0
 10
36.29932498296142
 20
6.385867441248389
 30
0.0
 10
35.20086739625841
 20
6.206056640386614
 30
0.0
 10
34.45858692348145
 20
6.020475617357183
 30
0.0
 10
34.0832217392045
 20
5.845029200537202
 30
0.0
 10
34.07488381235931
 20
5.841132037321296
 30
0.0
  0
SPLINE
  5
B8
330
1F
100
AcDbEntity
  8
0
  6
Continuous
 62
     1
370
    15
100
AcDbSpline
210
0.0
220
0.0
230
1.0
 70
     8
 71
     3
 72
    12
 73
     8
 74
     0
 42
0.000000001
 43
0.00000001
 40
0.0
 40
0.0
 40
0.0
 40
0.0
 40
0.0433337217727868
 40
0.2822950258175048
 40
0.5218269158498621
 40
0.7610505623347443
 40
1.0
 40
1.0
 40
1.0
 40
1.0
 10
16.68257137725384
 20
-6.334286613225134
 30
0.0
 10
16.614927177257
 20
-6.338895320526222
 30
0.0
 10
16.17426294618458
 20
-6.368918477857775
 30
0.0
 10
15.36080562859873
 20
-6.233019178784723
 30
0.0
 10
14.23889708166717
 20
-5.916427897931899
 30
0.0
 10
13.11872607964749
 20
-5.408583920957055
 30
0.0
 10
12.37276610272404
 20
-4.934915797788297
 30
0.0
 10
11.99999999999902
 20
-4.698217548926606
 30
0.0
  0
LINE
  5
B9
330
1F
100
AcDbEntity
  8
0
  6
Continuous
 62
     1
370
    15
100
AcDbLine
 10
37.39999999999998
 20
6.30473612696645
 30
0.0
 11
37.39999999999998
 21
6.351074928723905
 31
0.0
  0
LINE
  5
BA
330
1F
100
AcDbEntity
  8
외형선
  6
Continuous
370
    15
100
AcDbLine
 10
11.99999999999999
 20
-4.698217548927283
 30
0.0
 11
11.99999999999999
 21
-3.539058684380801
 31
0.0
  0
LINE
  5
BB
330
1F
100
AcDbEntity
  8
0
  6
Continuous
 62
     1
370
    15
100
AcDbLine
 10
37.39999999999998
 20
3.796672571559023
 30
0.0
 11
37.39999999999998
 21
6.30473612696645
 31
0.0
  0
SPLINE
  5
BC
330
1F
100
AcDbEntity
  8
외형선
  6
Continuous
370
    15
100
AcDbSpline
210
0.0
220
0.0
230
1.0
 70
    24
 71
     3
 72
    12
 73
     8
 74
     0
 42
0.000000001
 43
0.00000001
 40
0.0
 40
0.0
 40
0.0
 40
0.0
 40
0.1057410188130897
 40
0.3670156903687488
 40
0.628290361924402
 40
0.8895650334800539
 40
1.0
 40
1.0
 40
1.0
 40
1.0
 10
12.0
 20
-4.756138273960452
 30
0.0
 10
11.99999999999999
 20
-4.805462367202602
 30
0.0
 10
11.99999999999998
 20
-4.976660983749688
 30
0.0
 10
11.99999999999997
 20
-5.304363793353057
 30
0.0
 10
11.99999999999995
 20
-5.724777406360063
 30
0.0
 10
11.99999999999996
 20
-6.072718331193103
 30
0.0
 10
11.99999999999998
 20
-6.274420932244746
 30
0.0
 10
11.99999999999999
 20
-6.334346792950015
 30
0.0
  0
LINE
  5
BD
330
1F
100
AcDbEntity
  8
외형선
  6
Continuous
370
    15
100
AcDbLine
 10
11.56901098452698
 20
6.331826246387958
 30
0.0
 11
11.99999999999904
 21
6.336496650397887
 31
0.0
  0
SPLINE
  5
BE
330
1F
100
AcDbEntity
  8
외형선
  6
Continuous
370
    15
100
AcDbSpline
210
0.0
220
0.0
230
1.0
 70
     8
 71
     3
 72
     8
 73
     4
 74
     0
 42
0.000000001
 43
0.00000001
 40
0.0
 40
0.0
 40
0.0
 40
0.0
 40
1.0
 40
1.0
 40
1.0
 40
1.0
 10
11.99999999999904
 20
6.049283409437629
 30
0.0
 10
11.66676652929527
 20
6.150672610595375
 30
0.0
 10
11.33126339960238
 20
6.227209958780984
 30
0.0
 10
10.99967026856437
 20
6.277609686564047
 30
0.0
  0
LINE
  5
BF
330
1F
100
AcDbEntity
  8
외형선
  6
Continuous
370
    15
100
AcDbLine
 10
10.99967026856437
 20
3.65489404866976
 30
0.0
 11
10.99967026856437
 21
6.277613944964053
 31
0.0
  0
SPLINE
  5
C0
330
1F
100
AcDbEntity
  8
외형선
  6
Continuous
370
    15
100
AcDbSpline
210
0.0
220
0.0
230
1.0
 70
     8
 71
     3
 72
     8
 73
     4
 74
     0
 42
0.000000001
 43
0.00000001
 40
0.0
 40
0.0
 40
0.0
 40
0.0
 40
1.0
 40
1.0
 40
1.0
 40
1.0
 10
11.99999999999904
 20
2.796363037293987
 30
0.0
 10
11.66676652929527
 20
3.095217412011861
 30
0.0
 10
11.33126339960238
 20
3.383149738883358
 30
0.0
 10
10.99967026856436
 20
3.654919464879498
 30
0.0
  0
SPLINE
  5
C1
330
1F
100
AcDbEntity
  8
외형선
  6
Continuous
370
    15
100
AcDbSpline
210
0.0
220
0.0
230
1.0
 70
     8
 71
     3
 72
     8
 73
     4
 74
     0
 42
0.000000001
 43
0.00000001
 40
0.0
 40
0.0
 40
0.0
 40
0.0
 40
1.0
 40
1.0
 40
1.0
 40
1.0
 10
11.99999999999904
 20
1.349990931787123
 30
0.0
 10
11.66676652929527
 20
1.675232153147149
 30
0.0
 10
11.33126339960238
 20
1.995607673152652
 30
0.0
 10
10.99967026856437
 20
2.305250840706178
 30
0.0
  0
SPLINE
  5
C2
330
1F
100
AcDbEntity
  8
외형선
  6
Continuous
370
    15
100
AcDbSpline
210
0.0
220
0.0
230
1.0
 70
     8
 71
     3
 72
     8
 73
     4
 74
     0
 42
0.000000001
 43
0.00000001
 40
0.0
 40
0.0
 40
0.0
 40
0.0
 40
1.0
 40
1.0
 40
1.0
 40
1.0
 10
11.99999999999904
 20
-3.539058684380012
 30
0.0
 10
11.66676652929527
 20
-3.262744848393663
 30
0.0
 10
11.33126339960238
 20
-2.971133914925079
 30
0.0
 10
10.99967026856436
 20
-2.669662203286809
 30
0.0
  0
SPLINE
  5
C3
330
1F
100
AcDbEntity
  8
외형선
  6
Continuous
370
    15
100
AcDbSpline
210
0.0
220
0.0
230
1.0
 70
     8
 71
     3
 72
     8
 73
     4
 74
     0
 42
0.000000001
 43
0.00000001
 40
0.0
 40
0.0
 40
0.0
 40
0.0
 40
1.0
 40
1.0
 40
1.0
 40
1.0
 10
11.99999999999904
 20
-4.698217548926609
 30
0.0
 10
11.66676652929527
 20
-4.474365528724329
 30
0.0
 10
11.33126339960238
 20
-4.230527356904438
 30
0.0
 10
10.99967026856437
 20
-3.971283917133976
 30
0.0
  0
LINE
  5
C4
330
1F
100
AcDbEntity
  8
외형선
  6
Continuous
370
    15
100
AcDbLine
 10
10.99967026856437
 20
-6.323509517124903
 30
0.0
 11
10.99967026856437
 21
-3.971262012648054
 31
0.0
  0
SPLINE
  5
C5
330
1F
100
AcDbEntity
  8
외형선
  6
Continuous
370
    15
100
AcDbSpline
210
0.0
220
0.0
230
1.0
 70
     8
 71
     3
 72
     8
 73
     4
 74
     0
 42
0.000000001
 43
0.00000001
 40
0.0
 40
0.0
 40
0.0
 40
0.0
 40
1.0
 40
1.0
 40
1.0
 40
1.0
 10
11.99999999999904
 20
-6.334346792950083
 30
0.0
 10
11.66676652929527
 20
-6.356887331681609
 30
0.0
 10
11.33126339960238
 20
-6.353208725084523
 30
0.0
 10
10.99967026856436
 20
-6.323506739442394
 30
0.0
  0
LINE
  5
C6
330
1F
100
AcDbEntity
  8
외형선
  6
Continuous
370
    15
100
AcDbLine
 10
-43.88000000000002
 20
0.0010749287239018
 30
0.0
 11
-43.88000000000002
 21
6.351074928723902
 31
0.0
  0
LINE
  5
C7
330
1F
100
AcDbEntity
  8
외형선
  6
Continuous
370
    15
100
AcDbLine
 10
-43.88000000000002
 20
-6.348925071276098
 30
0.0
 11
-43.88000000000002
 21
0.0010749287239018
 31
0.0
  0
LINE
  5
C8
330
1F
100
AcDbEntity
  8
외형선
  6
Continuous
370
    15
100
AcDbLine
 10
10.99967026856437
 20
-2.669690397179057
 30
0.0
 11
10.99967026856437
 21
2.305277003592106
 31
0.0
  0
LINE
  5
C9
330
1F
100
AcDbEntity
  8
외형선
  6
Continuous
370
    15
100
AcDbLine
 10
-45.15000000000002
 20
0.0010749287239018
 30
0.0
 11
-45.15000000000002
 21
5.081074928723907
 31
0.0
  0
LINE
  5
CA
330
1F
100
AcDbEntity
  8
외형선
  6
Continuous
370
    15
100
AcDbLine
 10
-45.15000000000002
 20
-5.078925071276103
 30
0.0
 11
-45.15000000000002
 21
0.0010749287239018
 31
0.0
  0
SPLINE
  5
CB
330
1F
100
AcDbEntity
  8
외형선
  6
Continuous
370
    15
100
AcDbSpline
210
0.0
220
0.0
230
1.0
 70
    24
 71
     3
 72
    24
 73
    20
 74
     0
 42
0.000000001
 43
0.00000001
 40
0.0
 40
0.0
 40
0.0
 40
0.0
 40
0.1249999999999999
 40
0.1249999999999999
 40
0.2499999999999998
 40
0.2499999999999998
 40
0.3749999999999997
 40
0.3749999999999997
 40
0.4999999999999994
 40
0.4999999999999994
 40
0.6249999999999993
 40
0.6249999999999993
 40
0.7499999999999993
 40
0.7499999999999993
 40
0.8124999999999994
 40
0.8124999999999994
 40
0.8749999999999997
 40
0.8749999999999997
 40
1.0
 40
1.0
 40
1.0
 40
1.0
 10
11.99999999999999
 20
-3.539058684380748
 30
0.0
 10
11.99999999999999
 20
-3.423307538035318
 30
0.0
 10
11.99999999999999
 20
-3.245219162293524
 30
0.0
 10
11.99999999999999
 20
-2.758748521303573
 30
0.0
 10
12.0
 20
-2.45010245921835
 30
0.0
 10
11.99999999999999
 20
-1.767697381580811
 30
0.0
 10
12.0
 20
-1.39658161092697
 30
0.0
 10
11.99999999999999
 20
-0.693265023204778
 30
0.0
 10
11.99999999999999
 20
-0.3628785751783823
 30
0.0
 10
12.0
 20
0.1993019013227532
 30
0.0
 10
11.99999999999999
 20
0.4318248431846539
 30
0.0
 10
11.99999999999997
 20
0.8001358665888518
 30
0.0
 10
11.99999999999998
 20
0.9370466431465192
 30
0.0
 10
12.00000000000002
 20
1.090328970362034
 30
0.0
 10
12.00000000000001
 20
1.132821330298822
 30
0.0
 10
12.00000000000001
 20
1.203942197403009
 30
0.0
 10
11.99999999999998
 20
1.232558149721254
 30
0.0
 10
11.99999999999999
 20
1.310445642010599
 30
0.0
 10
12.00000000000001
 20
1.346929709102676
 30
0.0
 10
12.0
 20
1.349990931786183
 30
0.0
  0
SPLINE
  5
CC
330
1F
100
AcDbEntity
  8
외형선
  6
Continuous
370
    15
100
AcDbSpline
210
0.0
220
0.0
230
1.0
 70
    24
 71
     3
 72
    16
 73
    12
 74
     0
 42
0.000000001
 43
0.00000001
 40
0.0
 40
0.0
 40
0.0
 40
0.0
 40
0.0962873638630145
 40
0.2175670779273645
 40
0.3388467919917129
 40
0.4601265060560613
 40
0.5814062201203358
 40
0.7026859341846098
 40
0.8239656482490388
 40
0.9452453623134679
 40
1.0
 40
1.0
 40
1.0
 40
1.0
 10
12.0
 20
2.854273762326299
 30
0.0
 10
12.0
 20
2.928212363929969
 30
0.0
 10
12.00000000000001
 20
3.095281072133801
 30
0.0
 10
11.99999999999998
 20
3.415434391299662
 30
0.0
 10
12.00000000000001
 20
3.793224428815444
 30
0.0
 10
12.00000000000003
 20
4.200905994064195
 30
0.0
 10
11.99999999999998
 20
4.625670879514485
 30
0.0
 10
11.99999999999995
 20
5.055731601712432
 30
0.0
 10
12.0
 20
5.478099330612135
 30
0.0
 10
12.00000000000004
 20
5.809422782782113
 30
0.0
 10
11.99999999999999
 20
5.992376527788521
 30
0.0
 10
11.99999999999997
 20
6.04928340943735
 30
0.0
  0
SPLINE
  5
CD
330
1F
100
AcDbEntity
  8
외형선
  6
Continuous
370
    15
100
AcDbSpline
210
0.0
220
0.0
230
1.0
 70
    24
 71
     3
 72
    12
 73
     8
 74
     0
 42
0.000000001
 43
0.00000001
 40
0.0
 40
0.0
 40
0.0
 40
0.0
 40
0.2339557293321664
 40
0.4679114586643329
 40
0.729882553994878
 40
0.9918536493254222
 40
1.0
 40
1.0
 40
1.0
 40
1.0
 10
12.00000000000001
 20
-6.334346792950018
 30
0.0
 10
11.99999999999998
 20
-6.207285137746687
 30
0.0
 10
11.99999999999995
 20
-5.953161827340024
 30
0.0
 10
11.99999999999999
 20
-5.554628146921904
 30
0.0
 10
11.99999999999986
 20
-5.156873099032005
 30
0.0
 10
12.00000000000022
 20
-4.881851243386508
 30
0.0
 10
11.99999999999999
 20
-4.759808894325065
 30
0.0
 10
11.99999999999999
 20
-4.756128273960453
 30
0.0
  0
LINE
  5
CE
330
1F
100
AcDbEntity
  8
중심선
 48
0.8
100
AcDbLine
 10
-48.15000000000002
 20
0.0010749287238931
 30
0.0
 11
40.39999999999999
 21
0.0010749287238996
 31
0.0
  0
LINE
  5
CF
330
1F
100
AcDbEntity
  8
참조1
100
AcDbLine
 10
-6.150000000000003
 20
0.0010749287238892
 30
0.0
 11
-6.149999999999998
 21
-39.99892507127611
 31
0.0
  0
LINE
  5
D0
330
1F
100
AcDbEntity
  8
참조1
100
AcDbLine
 10
-6.149999999999998
 20
-39.99892507127611
 30
0.0
 11
-13.09635681430868
 21
-39.9989250712761
 31
0.0
  0
CIRCLE
  5
D1
330
1F
100
AcDbEntity
  8
해칭선
100
AcDbCircle
 10
0.0
 20
0.0
 30
0.0
 40
3.000000000000002
  0
INSERT
  5
D2
330
1F
100
AcDbEntity
  8
0
  6
Continuous
 62
     7
100
AcDbBlockReference
 66
     1
  2
블럭10
 10
-20.09027293212521
 20
-52.04609937292004
 30
0.0
  0
ATTRIB
  5
D3
330
D2
100
AcDbEntity
  8
FORMAT
 62
     2
100
AcDbText
 10
-30.23190894426184
 20
-49.97073246008785
 30
0.0
 40
4.233333333333333
  1
EM208032 [ 6 FLUTE ]
 41
0.75
  7
SLDTEXTSTYLE0
 11
-30.23190894426184
 21
-52.08739912675452
 31
0.0
100
AcDbAttribute
  2
AUTOATTR0
 70
     0
 74
     1
  0
SEQEND
  5
D4
330
D2
100
AcDbEntity
  8
0
  6
Continuous
 62
     7
  0
HATCH
  5
D5
330
1F
100
AcDbEntity
  8
중심선
100
AcDbHatch
 10
0.0
 20
0.0
 30
0.0
210
0.0
220
0.0
230
1.0
  2
SOLID
 70
     1
 71
     0
 91
        1
 92
        0
 93
        4
 72
     1
 10
-14.37536362774436
 20
-35.7989250712761
 11
-17.82163887158164
 21
-35.7989250712761
 72
     1
 10
-17.82163887158164
 20
-35.7989250712761
 11
-19.94986873078566
 21
-38.3352506518487
 72
     1
 10
-19.94986873078566
 20
-38.3352506518487
 11
-16.50356040183523
 21
-38.33521122254621
 72
     1
 10
-16.50356040183523
 20
-38.33521122254621
 11
-14.37536362774436
 21
-35.7989250712761
 97
        0
 75
     0
 76
     1
 98
        1
 10
0.0
 20
0.0
  0
HATCH
  5
D6
330
1F
100
AcDbEntity
  8
중심선
100
AcDbHatch
 10
0.0
 20
0.0
 30
0.0
210
0.0
220
0.0
230
1.0
  2
SOLID
 70
     1
 71
     0
 91
        1
 92
        0
 93
        4
 72
     1
 10
-9.36259963670838
 20
-35.79892507127608
 11
-12.80887488054569
 21
-35.79892507127613
 72
     1
 10
-12.80887488054569
 20
-35.79892507127613
 11
-17.34001288890308
 21
-41.19892507127612
 72
     1
 10
-17.34001288890308
 20
-41.19892507127612
 11
-13.8937376450658
 21
-41.19892507127612
 72
     1
 10
-13.8937376450658
 20
-41.19892507127612
 11
-9.36259963670838
 21
-35.79892507127608
 97
        0
 75
     0
 76
     1
 98
        1
 10
0.0
 20
0.0
  0
HATCH
  5
D7
330
1F
100
AcDbEntity
  8
중심선
100
AcDbHatch
 10
0.0
 20
0.0
 30
0.0
210
0.0
220
0.0
230
1.0
  2
SOLID
 70
     1
 71
     0
 91
        1
 92
        0
 93
        4
 72
     1
 10
-4.349835645672512
 20
-35.7989250712761
 11
-7.7961108895096
 21
-35.7989250712761
 72
     1
 10
-7.7961108895096
 20
-35.7989250712761
 11
-14.84454779139888
 21
-44.19892507127612
 72
     1
 10
-14.84454779139888
 20
-44.19892507127612
 11
-11.39827254756159
 21
-44.19892507127612
 72
     1
 10
-11.39827254756159
 20
-44.19892507127612
 11
-4.349835645672512
 21
-35.7989250712761
 97
        0
 75
     0
 76
     1
 98
        1
 10
0.0
 20
0.0
  0
HATCH
  5
D8
330
1F
100
AcDbEntity
  8
중심선
100
AcDbHatch
 10
0.0
 20
0.0
 30
0.0
210
0.0
220
0.0
230
1.0
  2
SOLID
 70
     1
 71
     0
 91
        1
 92
        0
 93
        6
 72
     3
 10
0.4500547853396875
 20
-39.99892507132738
 11
3.960054785062284
 21
1.540850780301639E-10
 40
0.3939339440162633
 50
17.09539180608433
 51
320.0019657685086
 73
     0
 72
     1
 10
2.133054441040283
 20
-38.58681907591443
 11
4.438356314741348
 21
-36.65249236586649
 72
     3
 10
0.4500547852868408
 20
-39.99892507127625
 11
6.600054785286829
 21
-1.249000902703301E-13
 40
0.6363583540795982
 50
39.99873849337387
 51
368.4976242363725
 73
     1
 72
     1
 10
6.87538727718745
 20
-39.03892507120613
 11
-0.8698779078772372
 21
-39.03892507120613
 72
     1
 10
-0.8698779078772367
 20
-39.03892507120613
 11
-0.8699029523231705
 21
-40.95892507120602
 72
     1
 10
-0.8699029523231705
 20
-40.95892507120602
 11
3.571476817148866
 21
-40.95892507120599
 97
        0
 75
     0
 76
     1
 98
        1
 10
0.0
 20
0.0
  0
DIMENSION
  5
D9
330
1F
100
AcDbEntity
  8
치수문자_일반주서
100
AcDbDimension
  2
_D
 10
50.50315417256928
 20
-6.302586269518586
 30
0.0
 11
50.50315417256926
 21
0.7481722357291947
 31
0.0
 70
   160
  1
%%c<>
 71
     2
 42
12.65366119824254
 52
-270.0
  3
SLDDIMSTYLE1
100
AcDbAlignedDimension
 13
37.39999999999998
 23
6.351074928723904
 33
0.0
 14
37.39999999999999
 24
-6.302586269518636
 34
0.0
 50
90.0000000000002
100
AcDbRotatedDimension
1001
ACAD
1000
DSTYLE
1002
{
1070
   171
1070
     6
1070
   273
1070
     7
1002
}
  0
DIMENSION
  5
EE
330
1F
100
AcDbEntity
  8
치수문자_일반주서
100
AcDbDimension
  2
_D_1
 10
-58.23500000000001
 20
-6.348925071276147
 30
0.0
 11
-58.23500000000003
 21
0.0010749287238966
 31
0.0
 70
   160
  1
%%c<>
 71
     2
 42
12.69999999999999
 52
-270.0
  3
SLDDIMSTYLE1
100
AcDbAlignedDimension
 13
-43.88000000000002
 23
6.351074928723897
 33
0.0
 14
-43.88000000000002
 24
-6.348925071276094
 34
0.0
 50
90.0000000000002
100
AcDbRotatedDimension
1001
ACAD
1000
DSTYLE
1002
{
1070
   171
1070
     6
1070
   273
1070
     7
1002
}
  0
DIMENSION
  5
103
330
1F
100
AcDbEntity
  8
치수문자_일반주서
100
AcDbDimension
  2
_D_2
 10
12.00000000000001
 20
36.90635859015671
 30
0.0
 11
24.69999999999999
 21
36.90635859015671
 31
0.0
 70
   160
  1
<>
 71
     2
 42
25.39999999999997
  3
SLDDIMSTYLE1
100
AcDbAlignedDimension
 13
37.39999999999998
 23
6.351074928723905
 33
0.0
 14
12.00000000000001
 24
6.336496650397821
 34
0.0
100
AcDbRotatedDimension
1001
ACAD
1000
DSTYLE
1002
{
1070
   171
1070
     6
1070
   273
1070
     7
1002
}
  0
DIMENSION
  5
118
330
1F
100
AcDbEntity
  8
치수문자_일반주서
100
AcDbDimension
  2
_D_3
 10
-45.15000000000002
 20
48.90635859015674
 30
0.0
 11
-3.600000000000016
 21
48.90635859015674
 31
0.0
 70
   160
  1
<>
 71
     2
 42
82.55
  3
SLDDIMSTYLE1
100
AcDbAlignedDimension
 13
37.39999999999998
 23
6.351074928723905
 33
0.0
 14
-45.15000000000002
 24
5.081074928723907
 34
0.0
 50
-0.000000000000005
100
AcDbRotatedDimension
1001
ACAD
1000
DSTYLE
1002
{
1070
   171
1070
     6
1070
   273
1070
     7
1002
}
  0
LINE
  5
12C
330
1F
100
AcDbEntity
  8
참조1
100
AcDbLine
 10
84.87598381534559
 20
7.441074928723896
 30
0.0
 11
84.87598381534559
 21
-7.438925071276109
 31
0.0
  0
LINE
  5
12D
330
1F
100
AcDbEntity
  8
참조1
100
AcDbLine
 10
97.5759838153456
 20
5.441074928723896
 30
0.0
 11
84.87598381534559
 21
5.441074928723896
 31
0.0
  0
SOLID
  5
12E
330
1F
100
AcDbEntity
  8
참조1
100
AcDbTrace
 10
84.87598381534559
 20
5.441074928723896
 30
0.0
 11
91.22598381534559
 21
4.425074928723896
 31
0.0
 12
91.22598381534559
 22
6.457074928723896
 32
0.0
 13
91.22598381534559
 23
6.457074928723896
 33
0.0
  0
LINE
  5
12F
330
1F
100
AcDbEntity
  8
참조1
100
AcDbLine
 10
97.5759838153456
 20
-5.438925071276109
 30
0.0
 11
84.87598381534559
 21
-5.438925071276109
 31
0.0
  0
SOLID
  5
130
330
1F
100
AcDbEntity
  8
참조1
100
AcDbTrace
 10
84.87598381534559
 20
-5.438925071276109
 30
0.0
 11
91.22598381534559
 21
-6.454925071276109
 31
0.0
 12
91.22598381534559
 22
-4.422925071276109
 32
0.0
 13
91.22598381534559
 23
-4.422925071276109
 33
0.0
  0
MTEXT
  5
131
330
1F
100
AcDbEntity
  8
참조1
100
AcDbMText
 10
94.27347390781586
 20
10.98929157337383
 30
0.0
 40
3.5
 41
0.0
 71
     1
 72
     1
  1
A
  7
SLDTEXTSTYLE0
 73
     1
 44
1.0
  0
MTEXT
  5
132
330
1F
100
AcDbEntity
  8
참조1
100
AcDbMText
 10
94.27347390781586
 20
0.1092915733738259
 30
0.0
 40
3.5
 41
0.0
 71
     1
 72
     1
  1
A
  7
SLDTEXTSTYLE0
 73
     1
 44
1.0
  0
INSERT
  5
139
330
1F
100
AcDbEntity
  8
해칭선
100
AcDbBlockReference
  2
SW_DOWELSYMBOL_0
 10
0.0
 20
0.0
 30
0.0
  0
LINE
  5
18C
330
1F
100
AcDbEntity
  8
0
100
AcDbLine
 10
37.39999999999998
 20
6.351074928723905
 30
0.0
 11
37.39999999999998
 21
-11.37499971981859
 31
0.0
  0
ENDSEC
  0
SECTION
  2
OBJECTS
  0
DICTIONARY
  5
C
330
0
100
AcDbDictionary
281
     1
  3
ACAD_GROUP
350
D
  3
ACAD_IMAGE_VARS
350
15D
  3
ACAD_LAYOUT
350
1A
  3
ACAD_MLINESTYLE
350
17
  3
ACAD_PLOTSETTINGS
350
19
  3
ACAD_PLOTSTYLENAME
350
E
  3
ACAD_SCALELIST
350
47
  3
APPDATA
350
15B
  3
DWGPROPS
350
18F
  0
DICTIONARY
  5
184
330
2
100
AcDbDictionary
280
     1
281
     1
  3
ACAD_LAYERSTATES
360
185
  0
DICTIONARY
  5
D
102
{ACAD_REACTORS
330
C
102
}
330
C
100
AcDbDictionary
281
     1
  0
RASTERVARIABLES
  5
15D
102
{ACAD_REACTORS
330
C
102
}
330
C
100
AcDbRasterVariables
 90
        0
 70
     1
 71
     1
 72
     1
  0
DICTIONARY
  5
1A
102
{ACAD_REACTORS
330
C
102
}
330
C
100
AcDbDictionary
281
     1
  3
Layout1
350
1E
  3
Layout2
350
26
  3
Model
350
22
  0
DICTIONARY
  5
17
102
{ACAD_REACTORS
330
C
102
}
330
C
100
AcDbDictionary
281
     1
  3
Standard
350
18
  0
DICTIONARY
  5
19
102
{ACAD_REACTORS
330
C
102
}
330
C
100
AcDbDictionary
281
     1
  0
ACDBDICTIONARYWDFLT
  5
E
102
{ACAD_REACTORS
330
C
102
}
330
C
100
AcDbDictionary
281
     1
  3
Normal
350
F
100
AcDbDictionaryWithDefault
340
F
  0
DICTIONARY
  5
47
102
{ACAD_REACTORS
330
C
102
}
330
C
100
AcDbDictionary
281
     1
  3
A0
350
48
  3
A1
350
49
  3
A2
350
4A
  3
A3
350
4B
  3
A4
350
4C
  3
A5
350
4D
  3
A6
350
4E
  3
A7
350
4F
  3
A8
350
50
  3
A9
350
51
  3
B0
350
52
  3
B1
350
53
  3
B2
350
54
  3
B3
350
55
  3
B4
350
56
  3
B5
350
57
  3
B6
350
58
  3
B7
350
59
  3
B8
350
5A
  3
B9
350
5B
  3
C0
350
5C
  3
C1
350
5D
  3
C2
350
5E
  3
C3
350
5F
  3
C4
350
60
  3
C5
350
61
  3
C6
350
62
  3
C7
350
63
  3
C8
350
64
  3
C9
350
65
  3
D0
350
66
  3
D1
350
67
  3
D2
350
68
  0
DICTIONARY
  5
15B
102
{ACAD_REACTORS
330
C
102
}
330
C
100
AcDbDictionary
281
     1
  0
XRECORD
  5
18F
102
{ACAD_REACTORS
330
C
102
}
330
C
100
AcDbXrecord
280
     1
  1
DWGPROPS COOKIE
  2

  3

  4

  6

  7

  8
12017012
  9

300
=
301
=
302
=
303
=
304
=
305
=
306
=
307
=
308
=
309
=
 40
0.0
 41
2458292.270921643
 42
2458295.439710694
  1

 90
        0
  0
DICTIONARY
  5
185
102
{ACAD_REACTORS
330
184
102
}
330
184
100
AcDbDictionary
281
     1
  0
LAYOUT
  5
1E
102
{ACAD_REACTORS
330
1A
102
}
330
1A
100
AcDbPlotSettings
  1

  2
none_device
  4

  6

 40
0.0
 41
0.0
 42
0.0
 43
0.0
 44
0.0
 45
0.0
 46
0.0
 47
0.0
 48
0.0
 49
0.0
140
0.0
141
0.0
142
1.0
143
1.0
 70
   688
 72
     1
 73
     0
 74
     5
  7

 75
    16
147
1.0
148
0.0
149
0.0
100
AcDbLayout
  1
Layout1
 70
     1
 71
     1
 10
0.0
 20
0.0
 11
420.0
 21
297.0
 12
0.0
 22
0.0
 32
0.0
 14
1.000000000000000E+20
 24
1.000000000000000E+20
 34
1.000000000000000E+20
 15
-1.000000000000000E+20
 25
-1.000000000000000E+20
 35
-1.000000000000000E+20
146
0.0
 13
0.0
 23
0.0
 33
0.0
 16
1.0
 26
0.0
 36
0.0
 17
0.0
 27
1.0
 37
0.0
 76
     0
330
1B
  0
LAYOUT
  5
26
102
{ACAD_REACTORS
330
1A
102
}
330
1A
100
AcDbPlotSettings
  1

  2
none_device
  4

  6

 40
0.0
 41
0.0
 42
0.0
 43
0.0
 44
0.0
 45
0.0
 46
0.0
 47
0.0
 48
0.0
 49
0.0
140
0.0
141
0.0
142
1.0
143
1.0
 70
   688
 72
     1
 73
     0
 74
     5
  7

 75
    16
147
1.0
148
0.0
149
0.0
100
AcDbLayout
  1
Layout2
 70
     1
 71
     2
 10
0.0
 20
0.0
 11
0.0
 21
0.0
 12
0.0
 22
0.0
 32
0.0
 14
0.0
 24
0.0
 34
0.0
 15
0.0
 25
0.0
 35
0.0
146
0.0
 13
0.0
 23
0.0
 33
0.0
 16
1.0
 26
0.0
 36
0.0
 17
0.0
 27
1.0
 37
0.0
 76
     0
330
23
  0
LAYOUT
  5
22
102
{ACAD_REACTORS
330
1A
102
}
330
1A
100
AcDbPlotSettings
  1

  2
none_device
  4
ANSI_A_(11.00_x_8.50_Inches)
  6

 40
6.35
 41
19.05
 42
6.35000508
 43
19.05000254
 44
279.4
 45
215.9
 46
110.7105230253895
 47
81.64088606198332
 48
0.0
 49
0.0
140
0.0
141
0.0
142
0.063618564837369
143
1.0
 70
  1696
 72
     0
 73
     0
 74
     0
  7

 75
     0
147
0.0235690232323232
148
0.0
149
0.0
100
AcDbLayout
  1
Model
 70
     1
 71
     0
 10
0.0
 20
0.0
 11
420.0
 21
297.0
 12
0.0
 22
0.0
 32
0.0
 14
1.000000000000000E+20
 24
1.000000000000000E+20
 34
1.000000000000000E+20
 15
-1.000000000000000E+20
 25
-1.000000000000000E+20
 35
-1.000000000000000E+20
146
0.0
 13
0.0
 23
0.0
 33
0.0
 16
1.0
 26
0.0
 36
0.0
 17
0.0
 27
1.0
 37
0.0
 76
     0
330
1F
331
29
  0
MLINESTYLE
  5
18
102
{ACAD_REACTORS
330
17
102
}
330
17
100
AcDbMlineStyle
  2
Standard
 70
     0
  3

 62
   256
 51
90.0
 52
90.0
 71
     2
 49
0.5
 62
   256
  6
BYLAYER
 49
-0.5
 62
   256
  6
BYLAYER
  0
ACDBPLACEHOLDER
  5
F
102
{ACAD_REACTORS
330
E
102
}
330
E
  0
SCALE
  5
48
102
{ACAD_REACTORS
330
47
102
}
330
47
100
AcDbScale
 70
     0
300
1:1
140
1.0
141
1.0
290
     1
  0
SCALE
  5
49
102
{ACAD_REACTORS
330
47
102
}
330
47
100
AcDbScale
 70
     0
300
1:2
140
1.0
141
2.0
290
     0
  0
SCALE
  5
4A
102
{ACAD_REACTORS
330
47
102
}
330
47
100
AcDbScale
 70
     0
300
1:4
140
1.0
141
4.0
290
     0
  0
SCALE
  5
4B
102
{ACAD_REACTORS
330
47
102
}
330
47
100
AcDbScale
 70
     0
300
1:5
140
1.0
141
5.0
290
     0
  0
SCALE
  5
4C
102
{ACAD_REACTORS
330
47
102
}
330
47
100
AcDbScale
 70
     0
300
1:8
140
1.0
141
8.0
290
     0
  0
SCALE
  5
4D
102
{ACAD_REACTORS
330
47
102
}
330
47
100
AcDbScale
 70
     0
300
1:10
140
1.0
141
10.0
290
     0
  0
SCALE
  5
4E
102
{ACAD_REACTORS
330
47
102
}
330
47
100
AcDbScale
 70
     0
300
1:16
140
1.0
141
16.0
290
     0
  0
SCALE
  5
4F
102
{ACAD_REACTORS
330
47
102
}
330
47
100
AcDbScale
 70
     0
300
1:20
140
1.0
141
20.0
290
     0
  0
SCALE
  5
50
102
{ACAD_REACTORS
330
47
102
}
330
47
100
AcDbScale
 70
     0
300
1:30
140
1.0
141
30.0
290
     0
  0
SCALE
  5
51
102
{ACAD_REACTORS
330
47
102
}
330
47
100
AcDbScale
 70
     0
300
1:40
140
1.0
141
40.0
290
     0
  0
SCALE
  5
52
102
{ACAD_REACTORS
330
47
102
}
330
47
100
AcDbScale
 70
     0
300
1:50
140
1.0
141
50.0
290
     0
  0
SCALE
  5
53
102
{ACAD_REACTORS
330
47
102
}
330
47
100
AcDbScale
 70
     0
300
1:100
140
1.0
141
100.0
290
     0
  0
SCALE
  5
54
102
{ACAD_REACTORS
330
47
102
}
330
47
100
AcDbScale
 70
     0
300
2:1
140
2.0
141
1.0
290
     0
  0
SCALE
  5
55
102
{ACAD_REACTORS
330
47
102
}
330
47
100
AcDbScale
 70
     0
300
4:1
140
4.0
141
1.0
290
     0
  0
SCALE
  5
56
102
{ACAD_REACTORS
330
47
102
}
330
47
100
AcDbScale
 70
     0
300
8:1
140
8.0
141
1.0
290
     0
  0
SCALE
  5
57
102
{ACAD_REACTORS
330
47
102
}
330
47
100
AcDbScale
 70
     0
300
10:1
140
10.0
141
1.0
290
     0
  0
SCALE
  5
58
102
{ACAD_REACTORS
330
47
102
}
330
47
100
AcDbScale
 70
     0
300
100:1
140
100.0
141
1.0
290
     0
  0
SCALE
  5
59
102
{ACAD_REACTORS
330
47
102
}
330
47
100
AcDbScale
 70
     0
300
1/128" = 1'-0"
140
0.0078125
141
12.0
290
     0
  0
SCALE
  5
5A
102
{ACAD_REACTORS
330
47
102
}
330
47
100
AcDbScale
 70
     0
300
1/64" = 1'-0"
140
0.015625
141
12.0
290
     0
  0
SCALE
  5
5B
102
{ACAD_REACTORS
330
47
102
}
330
47
100
AcDbScale
 70
     0
300
1/32" = 1'-0"
140
0.03125
141
12.0
290
     0
  0
SCALE
  5
5C
102
{ACAD_REACTORS
330
47
102
}
330
47
100
AcDbScale
 70
     0
300
1/16" = 1'-0"
140
0.0625
141
12.0
290
     0
  0
SCALE
  5
5D
102
{ACAD_REACTORS
330
47
102
}
330
47
100
AcDbScale
 70
     0
300
3/32" = 1'-0"
140
0.09375
141
12.0
290
     0
  0
SCALE
  5
5E
102
{ACAD_REACTORS
330
47
102
}
330
47
100
AcDbScale
 70
     0
300
1/8" = 1'-0"
140
0.125
141
12.0
290
     0
  0
SCALE
  5
5F
102
{ACAD_REACTORS
330
47
102
}
330
47
100
AcDbScale
 70
     0
300
3/16" = 1'-0"
140
0.1875
141
12.0
290
     0
  0
SCALE
  5
60
102
{ACAD_REACTORS
330
47
102
}
330
47
100
AcDbScale
 70
     0
300
1/4" = 1'-0"
140
0.25
141
12.0
290
     0
  0
SCALE
  5
61
102
{ACAD_REACTORS
330
47
102
}
330
47
100
AcDbScale
 70
     0
300
3/8" = 1'-0"
140
0.375
141
12.0
290
     0
  0
SCALE
  5
62
102
{ACAD_REACTORS
330
47
102
}
330
47
100
AcDbScale
 70
     0
300
1/2" = 1'-0"
140
0.5
141
12.0
290
     0
  0
SCALE
  5
63
102
{ACAD_REACTORS
330
47
102
}
330
47
100
AcDbScale
 70
     0
300
3/4" = 1'-0"
140
0.75
141
12.0
290
     0
  0
SCALE
  5
64
102
{ACAD_REACTORS
330
47
102
}
330
47
100
AcDbScale
 70
     0
300
1" = 1'-0"
140
1.0
141
12.0
290
     0
  0
SCALE
  5
65
102
{ACAD_REACTORS
330
47
102
}
330
47
100
AcDbScale
 70
     0
300
1-1/2" = 1'-0"
140
1.5
141
12.0
290
     0
  0
SCALE
  5
66
102
{ACAD_REACTORS
330
47
102
}
330
47
100
AcDbScale
 70
     0
300
3" = 1'-0"
140
3.0
141
12.0
290
     0
  0
SCALE
  5
67
102
{ACAD_REACTORS
330
47
102
}
330
47
100
AcDbScale
 70
     0
300
6" = 1'-0"
140
6.0
141
12.0
290
     0
  0
SCALE
  5
68
102
{ACAD_REACTORS
330
47
102
}
330
47
100
AcDbScale
 70
     0
300
1'-0" = 1'-0"
140
12.0
141
12.0
290
     0
  0
ENDSEC
  0
EOF
