  0
SECTION
  2
HEADER
  9
$ACADVER
  1
AC1015
  9
$ACADMAINTVER
 70
     6
  9
$DWGCODEPAGE
  3
ANSI_949
  9
$INSBASE
 10
0.0
 20
0.0
 30
0.0
  9
$EXTMIN
 10
1.000000000000000E+20
 20
1.000000000000000E+20
 30
1.000000000000000E+20
  9
$EXTMAX
 10
-1.000000000000000E+20
 20
-1.000000000000000E+20
 30
-1.000000000000000E+20
  9
$LIMMIN
 10
0.0
 20
0.0
  9
$LIMMAX
 10
420.0
 20
297.0
  9
$ORTHOMODE
 70
     0
  9
$REGENMODE
 70
     1
  9
$FILLMODE
 70
     1
  9
$QTEXTMODE
 70
     0
  9
$MIRRTEXT
 70
     1
  9
$LTSCALE
 40
1.0
  9
$ATTMODE
 70
     1
  9
$TEXTSIZE
 40
3.5
  9
$TRACEWID
 40
1.0
  9
$TEXTSTYLE
  7
Standard
  9
$CLAYER
  8
0
  9
$CELTYPE
  6
ByLayer
  9
$CECOLOR
 62
   256
  9
$CELTSCALE
 40
1.0
  9
$DISPSILH
 70
     0
  9
$DIMSCALE
 40
1.0
  9
$DIMASZ
 40
3.302
  9
$DIMEXO
 40
1.0
  9
$DIMDLI
 40
3.75
  9
$DIMRND
 40
0.0
  9
$DIMDLE
 40
0.0
  9
$DIMEXE
 40
1.0
  9
$DIMTP
 40
0.0
  9
$DIMTM
 40
0.0
  9
$DIMTXT
 40
3.5
  9
$DIMCEN
 40
2.5
  9
$DIMTSZ
 40
0.0
  9
$DIMTOL
 70
     0
  9
$DIMLIM
 70
     0
  9
$DIMTIH
 70
     1
  9
$DIMTOH
 70
     1
  9
$DIMSE1
 70
     0
  9
$DIMSE2
 70
     0
  9
$DIMTAD
 70
     1
  9
$DIMZIN
 70
     0
  9
$DIMBLK
  1

  9
$DIMASO
 70
     1
  9
$DIMSHO
 70
     1
  9
$DIMPOST
  1

  9
$DIMAPOST
  1

  9
$DIMALT
 70
     0
  9
$DIMALTD
 70
     3
  9
$DIMALTF
 40
0.0393700787401575
  9
$DIMLFAC
 40
1.0
  9
$DIMTOFL
 70
     1
  9
$DIMTVP
 40
0.0
  9
$DIMTIX
 70
     0
  9
$DIMSOXD
 70
     0
  9
$DIMSAH
 70
     0
  9
$DIMBLK1
  1

  9
$DIMBLK2
  1

  9
$DIMSTYLE
  2
ISO-25
  9
$DIMCLRD
 70
     0
  9
$DIMCLRE
 70
     0
  9
$DIMCLRT
 70
     0
  9
$DIMTFAC
 40
1.0
  9
$DIMGAP
 40
1.524
  9
$DIMJUST
 70
     0
  9
$DIMSD1
 70
     0
  9
$DIMSD2
 70
     0
  9
$DIMTOLJ
 70
     0
  9
$DIMTZIN
 70
     0
  9
$DIMALTZ
 70
     0
  9
$DIMALTTZ
 70
     0
  9
$DIMUPT
 70
     0
  9
$DIMDEC
 70
     2
  9
$DIMTDEC
 70
     2
  9
$DIMALTU
 70
     2
  9
$DIMALTTD
 70
     3
  9
$DIMTXSTY
  7
Standard
  9
$DIMAUNIT
 70
     0
  9
$DIMADEC
 70
     2
  9
$DIMALTRND
 40
0.0
  9
$DIMAZIN
 70
     0
  9
$DIMDSEP
 70
    44
  9
$DIMATFIT
 70
     3
  9
$DIMFRAC
 70
     0
  9
$DIMLDRBLK
  1

  9
$DIMLUNIT
 70
     2
  9
$DIMLWD
 70
    -2
  9
$DIMLWE
 70
    -2
  9
$DIMTMOVE
 70
     0
  9
$LUNITS
 70
     2
  9
$LUPREC
 70
     2
  9
$SKETCHINC
 40
1.0
  9
$FILLETRAD
 40
10.0
  9
$AUNITS
 70
     0
  9
$AUPREC
 70
     2
  9
$MENU
  1
.
  9
$ELEVATION
 40
0.0
  9
$PELEVATION
 40
0.0
  9
$THICKNESS
 40
0.0
  9
$LIMCHECK
 70
     0
  9
$CHAMFERA
 40
0.0
  9
$CHAMFERB
 40
0.0
  9
$CHAMFERC
 40
0.0
  9
$CHAMFERD
 40
0.0
  9
$SKPOLY
 70
     0
  9
$TDCREATE
 40
2458292.645732604
  9
$TDUCREATE
 40
2458292.270732604
  9
$TDUPDATE
 40
2458295.817389896
  9
$TDUUPDATE
 40
2458295.442389896
  9
$TDINDWG
 40
0.0026735995
  9
$TDUSRTIMER
 40
2458295.439716678
  9
$USRTIMER
 70
     1
  9
$ANGBASE
 50
0.0
  9
$ANGDIR
 70
     0
  9
$PDMODE
 70
     0
  9
$PDSIZE
 40
-1.0
  9
$PLINEWID
 40
0.0
  9
$SPLFRAME
 70
     0
  9
$SPLINETYPE
 70
     6
  9
$SPLINESEGS
 70
     8
  9
$HANDSEED
  5
193
  9
$SURFTAB1
 70
     6
  9
$SURFTAB2
 70
     6
  9
$SURFTYPE
 70
     6
  9
$SURFU
 70
     6
  9
$SURFV
 70
     6
  9
$UCSBASE
  2

  9
$UCSNAME
  2

  9
$UCSORG
 10
0.0
 20
0.0
 30
0.0
  9
$UCSXDIR
 10
1.0
 20
0.0
 30
0.0
  9
$UCSYDIR
 10
0.0
 20
1.0
 30
0.0
  9
$UCSORTHOREF
  2

  9
$UCSORTHOVIEW
 70
     0
  9
$UCSORGTOP
 10
0.0
 20
0.0
 30
0.0
  9
$UCSORGBOTTOM
 10
0.0
 20
0.0
 30
0.0
  9
$UCSORGLEFT
 10
0.0
 20
0.0
 30
0.0
  9
$UCSORGRIGHT
 10
0.0
 20
0.0
 30
0.0
  9
$UCSORGFRONT
 10
0.0
 20
0.0
 30
0.0
  9
$UCSORGBACK
 10
0.0
 20
0.0
 30
0.0
  9
$PUCSBASE
  2

  9
$PUCSNAME
  2

  9
$PUCSORG
 10
0.0
 20
0.0
 30
0.0
  9
$PUCSXDIR
 10
1.0
 20
0.0
 30
0.0
  9
$PUCSYDIR
 10
0.0
 20
1.0
 30
0.0
  9
$PUCSORTHOREF
  2

  9
$PUCSORTHOVIEW
 70
     0
  9
$PUCSORGTOP
 10
0.0
 20
0.0
 30
0.0
  9
$PUCSORGBOTTOM
 10
0.0
 20
0.0
 30
0.0
  9
$PUCSORGLEFT
 10
0.0
 20
0.0
 30
0.0
  9
$PUCSORGRIGHT
 10
0.0
 20
0.0
 30
0.0
  9
$PUCSORGFRONT
 10
0.0
 20
0.0
 30
0.0
  9
$PUCSORGBACK
 10
0.0
 20
0.0
 30
0.0
  9
$USERI1
 70
     0
  9
$USERI2
 70
     0
  9
$USERI3
 70
     0
  9
$USERI4
 70
     0
  9
$USERI5
 70
     0
  9
$USERR1
 40
0.0
  9
$USERR2
 40
0.0
  9
$USERR3
 40
0.0
  9
$USERR4
 40
0.0
  9
$USERR5
 40
0.0
  9
$WORLDVIEW
 70
     1
  9
$SHADEDGE
 70
     3
  9
$SHADEDIF
 70
    70
  9
$TILEMODE
 70
     1
  9
$MAXACTVP
 70
    64
  9
$PINSBASE
 10
0.0
 20
0.0
 30
0.0
  9
$PLIMCHECK
 70
     0
  9
$PEXTMIN
 10
1.000000000000000E+20
 20
1.000000000000000E+20
 30
1.000000000000000E+20
  9
$PEXTMAX
 10
-1.000000000000000E+20
 20
-1.000000000000000E+20
 30
-1.000000000000000E+20
  9
$PLIMMIN
 10
0.0
 20
0.0
  9
$PLIMMAX
 10
0.0
 20
0.0
  9
$UNITMODE
 70
     0
  9
$VISRETAIN
 70
     1
  9
$PLINEGEN
 70
     0
  9
$PSLTSCALE
 70
     1
  9
$TREEDEPTH
 70
  3020
  9
$CMLSTYLE
  2
Standard
  9
$CMLJUST
 70
     0
  9
$CMLSCALE
 40
20.0
  9
$PROXYGRAPHICS
 70
     1
  9
$MEASUREMENT
 70
     1
  9
$CELWEIGHT
370
    -1
  9
$ENDCAPS
280
     0
  9
$JOINSTYLE
280
     0
  9
$LWDISPLAY
290
     1
  9
$INSUNITS
 70
     4
  9
$HYPERLINKBASE
  1

  9
$STYLESHEET
  1

  9
$XEDIT
290
     1
  9
$CEPSNTYPE
380
     0
  9
$PSTYLEMODE
290
     1
  9
$FINGERPRINTGUID
  2
{164179DD-92FC-4C9B-B1C6-329697B5DF3B}
  9
$VERSIONGUID
  2
{FAEB1C32-E019-11D5-929B-00C0DF256EC4}
  9
$EXTNAMES
290
     1
  9
$PSVPSCALE
 40
0.0
  9
$OLESTARTUP
290
     0
  0
ENDSEC
  0
SECTION
  2
CLASSES
  0
CLASS
  1
ACDBDICTIONARYWDFLT
  2
AcDbDictionaryWithDefault
  3
ObjectDBX Classes
 90
        0
280
     0
281
     0
  0
CLASS
  1
VISUALSTYLE
  2
AcDbVisualStyle
  3
ObjectDBX Classes
 90
     4095
280
     0
281
     0
  0
CLASS
  1
MATERIAL
  2
AcDbMaterial
  3
ObjectDBX Classes
 90
     1153
280
     0
281
     0
  0
CLASS
  1
SCALE
  2
AcDbScale
  3
ObjectDBX Classes
 90
     1153
280
     0
281
     0
  0
CLASS
  1
SUN
  2
AcDbSun
  3
SCENEOE
 90
     1153
280
     0
281
     0
  0
CLASS
  1
ACDBPLACEHOLDER
  2
AcDbPlaceHolder
  3
ObjectDBX Classes
 90
        0
280
     0
281
     0
  0
CLASS
  1
LAYOUT
  2
AcDbLayout
  3
ObjectDBX Classes
 90
        0
280
     0
281
     0
  0
CLASS
  1
TABLESTYLE
  2
AcDbTableStyle
  3
ObjectDBX Classes
 90
     4095
280
     0
281
     0
  0
CLASS
  1
MLEADERSTYLE
  2
AcDbMLeaderStyle
  3
ACDB_MLEADERSTYLE_CLASS
 90
     4095
280
     0
281
     0
  0
CLASS
  1
RASTERVARIABLES
  2
AcDbRasterVariables
  3
ISM
 90
        0
280
     0
281
     0
  0
ENDSEC
  0
SECTION
  2
TABLES
  0
TABLE
  2
VPORT
  5
8
330
0
100
AcDbSymbolTable
 70
     1
  0
VPORT
  5
29
330
8
100
AcDbSymbolTableRecord
100
AcDbViewportTableRecord
  2
*Active
 70
     0
 10
0.0
 20
0.0
 11
1.0
 21
1.0
 12
9.282507912327254
 22
39.00194991968066
 13
0.0
 23
0.0
 14
10.0
 24
10.0
 15
10.0
 25
10.0
 16
0.0
 26
0.0
 36
1.0
 17
0.0
 27
0.0
 37
0.0
 40
140.5186732700764
 41
1.798434442270059
 42
50.0
 43
0.0
 44
0.0
 50
0.0
 51
0.0
 71
    16
 72
  2000
 73
     1
 74
     3
 75
     0
 76
     0
 77
     0
 78
     0
281
     0
 65
     1
110
0.0
120
0.0
130
0.0
111
1.0
121
0.0
131
0.0
112
0.0
122
1.0
132
0.0
 79
     0
146
0.0
  0
ENDTAB
  0
TABLE
  2
LTYPE
  5
5
330
0
100
AcDbSymbolTable
 70
     6
  0
LTYPE
  5
14
330
5
100
AcDbSymbolTableRecord
100
AcDbLinetypeTableRecord
  2
ByBlock
 70
     0
  3

 72
    65
 73
     0
 40
0.0
  0
LTYPE
  5
15
330
5
100
AcDbSymbolTableRecord
100
AcDbLinetypeTableRecord
  2
ByLayer
 70
     0
  3

 72
    65
 73
     0
 40
0.0
  0
LTYPE
  5
16
330
5
100
AcDbSymbolTableRecord
100
AcDbLinetypeTableRecord
  2
Continuous
 70
     0
  3
Solid line
 72
    65
 73
     0
 40
0.0
  0
LTYPE
  5
6A
330
5
100
AcDbSymbolTableRecord
100
AcDbLinetypeTableRecord
  2
HIDDEN
 70
     0
  3
Hidden __ __ __ __ __ __ __ __ __ __ __ __ __ __
 72
    65
 73
     2
 40
1.905
 49
1.27
 74
     0
 49
-0.635
 74
     0
  0
LTYPE
  5
6B
330
5
100
AcDbSymbolTableRecord
100
AcDbLinetypeTableRecord
  2
PHANTOM
 70
     0
  3
Phantom ______  __  __  ______  __  __  ______
 72
    65
 73
     6
 40
12.7
 49
6.35
 74
     0
 49
-1.27
 74
     0
 49
1.27
 74
     0
 49
-1.27
 74
     0
 49
1.27
 74
     0
 49
-1.27
 74
     0
  0
LTYPE
  5
6C
330
5
100
AcDbSymbolTableRecord
100
AcDbLinetypeTableRecord
  2
CENTER
 70
     0
  3
Center ____ _ ____ _ ____ _ ____ _ ____ _ ____
 72
    65
 73
     4
 40
10.16
 49
6.35
 74
     0
 49
-1.27
 74
     0
 49
1.27
 74
     0
 49
-1.27
 74
     0
  0
LTYPE
  5
6D
330
5
100
AcDbSymbolTableRecord
100
AcDbLinetypeTableRecord
  2
CENTERX2
 70
     0
  3
Center (2x) ________  __  ________  __  _____
 72
    65
 73
     4
 40
20.32
 49
12.7
 74
     0
 49
-2.54
 74
     0
 49
2.54
 74
     0
 49
-2.54
 74
     0
  0
LTYPE
  5
6E
330
5
100
AcDbSymbolTableRecord
100
AcDbLinetypeTableRecord
  2
DOT2
 70
     0
  3
Dot (.5x) ........................................
 72
    65
 73
     2
 40
0.635
 49
0.0
 74
     0
 49
-0.635
 74
     0
  0
ENDTAB
  0
TABLE
  2
LAYER
  5
2
102
{ACAD_XDICTIONARY
360
18A
102
}
330
0
100
AcDbSymbolTable
 70
    18
  0
LAYER
  5
10
330
2
100
AcDbSymbolTableRecord
100
AcDbLayerTableRecord
  2
0
 70
     0
 62
     7
  6
Continuous
370
    -3
390
F
  0
LAYER
  5
6F
330
2
100
AcDbSymbolTableRecord
100
AcDbLayerTableRecord
  2
FORMAT
 70
     0
 62
     2
  6
Continuous
370
    -3
390
F
  0
LAYER
  5
70
330
2
100
AcDbSymbolTableRecord
100
AcDbLayerTableRecord
  2
외형선
 70
     0
 62
     4
  6
Continuous
370
    30
390
F
  0
LAYER
  5
71
330
2
100
AcDbSymbolTableRecord
100
AcDbLayerTableRecord
  2
숨은선
 70
     0
 62
     2
  6
HIDDEN
370
    15
390
F
  0
LAYER
  5
72
330
2
100
AcDbSymbolTableRecord
100
AcDbLayerTableRecord
  2
중심선
 70
     0
 62
     1
  6
CENTERX2
370
    -3
390
F
  0
LAYER
  5
73
330
2
100
AcDbSymbolTableRecord
100
AcDbLayerTableRecord
  2
파단선
 70
     0
 62
     4
  6
Continuous
370
    -3
390
F
  0
LAYER
  5
74
330
2
100
AcDbSymbolTableRecord
100
AcDbLayerTableRecord
  2
해칭선
 70
     0
 62
   100
  6
Continuous
370
    -3
390
F
  0
LAYER
  5
75
330
2
100
AcDbSymbolTableRecord
100
AcDbLayerTableRecord
  2
가는실선
 70
     0
 62
     4
  6
Continuous
370
    -3
390
F
  0
LAYER
  5
76
330
2
100
AcDbSymbolTableRecord
100
AcDbLayerTableRecord
  2
치수_보조선
 70
     0
 62
     4
  6
Continuous
370
    -3
390
F
  0
LAYER
  5
77
330
2
100
AcDbSymbolTableRecord
100
AcDbLayerTableRecord
  2
치수문자_일반주서
 70
     0
 62
     7
  6
Continuous
370
    15
390
F
  0
LAYER
  5
78
330
2
100
AcDbSymbolTableRecord
100
AcDbLayerTableRecord
  2
개별주서
 70
     0
 62
   100
  6
Continuous
370
    30
390
F
  0
LAYER
  5
79
330
2
100
AcDbSymbolTableRecord
100
AcDbLayerTableRecord
  2
중간선
 70
     0
 62
     2
  6
Continuous
370
    15
390
F
  0
LAYER
  5
7A
330
2
100
AcDbSymbolTableRecord
100
AcDbLayerTableRecord
  2
윤곽선
 70
     0
 62
     3
  6
Continuous
370
    40
390
F
  0
LAYER
  5
7B
330
2
100
AcDbSymbolTableRecord
100
AcDbLayerTableRecord
  2
중심마크
 70
     0
 62
   100
  6
Continuous
370
    30
390
F
  0
LAYER
  5
7C
330
2
100
AcDbSymbolTableRecord
100
AcDbLayerTableRecord
  2
가상선
 70
     0
 62
     4
  6
PHANTOM
370
    -3
390
F
  0
LAYER
  5
7D
330
2
100
AcDbSymbolTableRecord
100
AcDbLayerTableRecord
  2
특수지정선
 70
     0
 62
     5
  6
CENTERX2
370
    60
390
F
  0
LAYER
  5
7E
330
2
100
AcDbSymbolTableRecord
100
AcDbLayerTableRecord
  2
참조1
 70
     0
 62
    -4
  6
Continuous
370
    -3
390
F
  0
LAYER
  5
191
330
2
100
AcDbSymbolTableRecord
100
AcDbLayerTableRecord
  2
Defpoints
 70
     0
 62
     7
  6
Continuous
290
     0
370
    -3
390
F
  0
ENDTAB
  0
TABLE
  2
STYLE
  5
3
330
0
100
AcDbSymbolTable
 70
     2
  0
STYLE
  5
11
330
3
100
AcDbSymbolTableRecord
100
AcDbTextStyleTableRecord
  2
Standard
 70
     0
 40
0.0
 41
1.0
 50
0.0
 71
     0
 42
3.5
  3
txt
  4

  0
STYLE
  5
94
330
3
100
AcDbSymbolTableRecord
100
AcDbTextStyleTableRecord
  2
SLDTEXTSTYLE0
 70
     0
 40
0.0
 41
0.75
 50
0.0
 71
     0
 42
3.5
  3
TXT
  4

  0
ENDTAB
  0
TABLE
  2
VIEW
  5
6
330
0
100
AcDbSymbolTable
 70
     0
  0
ENDTAB
  0
TABLE
  2
UCS
  5
7
330
0
100
AcDbSymbolTable
 70
     0
  0
ENDTAB
  0
TABLE
  2
APPID
  5
9
330
0
100
AcDbSymbolTable
 70
     1
  0
APPID
  5
12
330
9
100
AcDbSymbolTableRecord
100
AcDbRegAppTableRecord
  2
ACAD
 70
     0
  0
ENDTAB
  0
TABLE
  2
DIMSTYLE
  5
A
330
0
100
AcDbSymbolTable
 70
     3
100
AcDbDimStyleTable
  0
DIMSTYLE
105
27
330
A
100
AcDbSymbolTableRecord
100
AcDbDimStyleTableRecord
  2
ISO-25
 70
     0
 41
2.5
 42
0.625
 43
3.75
 44
1.25
 73
     0
 74
     0
 77
     1
 78
     8
140
2.5
141
2.5
143
0.03937007874016
147
0.625
171
     3
172
     1
178
     0
271
     2
272
     2
274
     3
278
    44
283
     0
284
     8
340
11
  0
DIMSTYLE
105
E1
102
{ACAD_REACTORS
330
E0
330
F5
330
109
330
11E
102
}
330
A
100
AcDbSymbolTableRecord
100
AcDbDimStyleTableRecord
  2
SLDDIMSTYLE0
 70
     0
 41
3.302
 44
0.0
 45
0.000000001
 73
     0
 74
     0
 77
     1
 78
    12
 79
     3
140
3.5
143
0.0393700787401575
147
0.875
148
0.000000001
170
     1
172
     1
173
     1
178
     0
271
     2
272
     2
276
     2
284
    12
289
     0
340
94
  0
DIMSTYLE
105
11F
330
A
100
AcDbSymbolTableRecord
100
AcDbDimStyleTableRecord
  2
SLDDIMSTYLE1
 70
     0
 41
3.302
 44
0.0
 45
0.000000001
 73
     0
 74
     0
 77
     1
 78
    12
 79
     3
140
3.5
143
0.0393700787401575
147
0.875
148
0.000000001
170
     1
173
     1
178
     0
271
     2
272
     2
276
     2
284
    12
340
94
  0
ENDTAB
  0
TABLE
  2
BLOCK_RECORD
  5
1
330
0
100
AcDbSymbolTable
 70
     8
  0
BLOCK_RECORD
  5
1F
330
1
100
AcDbSymbolTableRecord
100
AcDbBlockTableRecord
  2
*Model_Space
340
22
  0
BLOCK_RECORD
  5
1B
330
1
100
AcDbSymbolTableRecord
100
AcDbBlockTableRecord
  2
*Paper_Space
340
1E
  0
BLOCK_RECORD
  5
23
330
1
100
AcDbSymbolTableRecord
100
AcDbBlockTableRecord
  2
*Paper_Space0
340
26
  0
BLOCK_RECORD
  5
7F
330
1
100
AcDbSymbolTableRecord
100
AcDbBlockTableRecord
  2
블럭10
340
0
102
{BLKREFS
331
D9
102
}
  0
BLOCK_RECORD
  5
E2
330
1
100
AcDbSymbolTableRecord
100
AcDbBlockTableRecord
  2
_D
340
0
  0
BLOCK_RECORD
  5
F6
330
1
100
AcDbSymbolTableRecord
100
AcDbBlockTableRecord
  2
_D_1
340
0
  0
BLOCK_RECORD
  5
10A
330
1
100
AcDbSymbolTableRecord
100
AcDbBlockTableRecord
  2
_D_2
340
0
  0
BLOCK_RECORD
  5
120
330
1
100
AcDbSymbolTableRecord
100
AcDbBlockTableRecord
  2
_D_3
340
0
  0
BLOCK_RECORD
  5
139
330
1
100
AcDbSymbolTableRecord
100
AcDbBlockTableRecord
  2
SW_DOWELSYMBOL_0
340
0
102
{BLKREFS
331
13F
102
}
  0
ENDTAB
  0
ENDSEC
  0
SECTION
  2
BLOCKS
  0
BLOCK
  5
20
330
1F
100
AcDbEntity
  8
0
100
AcDbBlockBegin
  2
*Model_Space
 70
     0
 10
0.0
 20
0.0
 30
0.0
  3
*Model_Space
  1
*Model_Space
  0
ENDBLK
  5
21
330
1F
100
AcDbEntity
  8
0
100
AcDbBlockEnd
  0
BLOCK
  5
1C
330
1B
100
AcDbEntity
 67
     1
  8
0
100
AcDbBlockBegin
  2
*Paper_Space
 70
     0
 10
0.0
 20
0.0
 30
0.0
  3
*Paper_Space
  1
*Paper_Space
  0
ENDBLK
  5
1D
330
1B
100
AcDbEntity
 67
     1
  8
0
100
AcDbBlockEnd
  0
BLOCK
  5
24
330
23
100
AcDbEntity
  8
0
100
AcDbBlockBegin
  2
*Paper_Space0
 70
     0
 10
0.0
 20
0.0
 30
0.0
  3
*Paper_Space0
  1
*Paper_Space0
  0
ENDBLK
  5
25
330
23
100
AcDbEntity
  8
0
100
AcDbBlockEnd
  0
BLOCK
  5
80
330
7F
100
AcDbEntity
  8
0
100
AcDbBlockBegin
  2
블럭10
 70
     2
 10
0.0
 20
0.0
 30
0.0
  3
블럭10
  1
블럭10
  0
ELLIPSE
  5
82
330
7F
100
AcDbEntity
  8
중심선
100
AcDbEllipse
 10
20.54032771741204
 20
12.0471743016438
 30
0.0
 11
6.600054785286829
 21
-1.261213355974178E-13
 31
0.0
210
0.0
220
0.0
230
1.0
 40
0.636358354079598
 41
0.9219305317359503
 42
6.513795318482858
  0
ELLIPSE
  5
83
330
7F
100
AcDbEntity
  8
중심선
100
AcDbEllipse
 10
20.54032771746488
 20
12.04717430159265
 30
0.0
 11
3.960054785062283
 21
1.540847449632565E-10
 31
0.0
210
0.0
220
0.0
230
1.0
 40
0.3939339440162632
 41
1.131841032648279
 42
5.62031148352944
  0
LINE
  5
84
330
7F
100
AcDbEntity
  8
중심선
100
AcDbLine
 10
2.268634060543552
 20
16.24717430164393
 30
0.0
 11
5.714909304380834
 21
16.24717430164393
 31
0.0
  0
LINE
  5
85
330
7F
100
AcDbEntity
  8
중심선
100
AcDbLine
 10
5.245725140726316
 20
7.84717430164391
 30
0.0
 11
8.692000384563599
 21
7.84717430164391
 31
0.0
  0
LINE
  5
86
330
7F
100
AcDbEntity
  8
중심선
100
AcDbLine
 10
15.74043728645272
 20
16.24717430164393
 30
0.0
 11
8.692000384563599
 21
7.84717430164391
 31
0.0
  0
LINE
  5
87
330
7F
100
AcDbEntity
  8
중심선
100
AcDbLine
 10
0.1404042013395286
 20
13.71084872107135
 30
0.0
 11
3.58671253028996
 21
13.71088815037384
 31
0.0
  0
LINE
  5
88
330
7F
100
AcDbEntity
  8
중심선
100
AcDbLine
 10
2.750260043222114
 20
10.84717430164391
 30
0.0
 11
6.196535287059397
 21
10.84717430164391
 31
0.0
  0
LINE
  5
89
330
7F
100
AcDbEntity
  8
중심선
100
AcDbLine
 10
12.29416204261559
 20
16.24717430164393
 30
0.0
 11
5.245725140726316
 21
7.84717430164391
 31
0.0
  0
LINE
  5
8A
330
7F
100
AcDbEntity
  8
중심선
100
AcDbLine
 10
10.72767329541681
 20
16.24717430164393
 30
0.0
 11
6.196535287059397
 21
10.84717430164391
 31
0.0
  0
LINE
  5
8B
330
7F
100
AcDbEntity
  8
중심선
100
AcDbLine
 10
7.28139805157953
 20
16.24717430164393
 30
0.0
 11
2.750260043222114
 21
10.84717430164391
 31
0.0
  0
LINE
  5
8C
330
7F
100
AcDbEntity
  8
중심선
100
AcDbLine
 10
5.714909304380834
 20
16.24717430164393
 30
0.0
 11
3.58671253028996
 21
13.71088815037384
 31
0.0
  0
LINE
  5
8D
330
7F
100
AcDbEntity
  8
중심선
100
AcDbLine
 10
2.268634060543552
 20
16.24717430164393
 30
0.0
 11
0.1404042013395286
 21
13.71084872107135
 31
0.0
  0
LINE
  5
8E
330
7F
100
AcDbEntity
  8
중심선
100
AcDbLine
 10
7.28139805157953
 20
16.24717430164393
 30
0.0
 11
10.72767329541681
 21
16.24717430164393
 31
0.0
  0
LINE
  5
8F
330
7F
100
AcDbEntity
  8
중심선
100
AcDbLine
 10
12.29416204261559
 20
16.24717430164393
 30
0.0
 11
15.74043728645272
 21
16.24717430164393
 31
0.0
  0
LINE
  5
90
330
7F
100
AcDbEntity
  8
중심선
100
AcDbLine
 10
19.22036997980202
 20
11.08717430171403
 30
0.0
 11
23.66174974927406
 21
11.08717430171406
 31
0.0
  0
LINE
  5
91
330
7F
100
AcDbEntity
  8
중심선
100
AcDbLine
 10
19.22039502424796
 20
13.00717430171391
 30
0.0
 11
19.22036997980202
 21
11.08717430171403
 31
0.0
  0
LINE
  5
92
330
7F
100
AcDbEntity
  8
중심선
100
AcDbLine
 10
19.22039502424796
 20
13.00717430171391
 30
0.0
 11
26.96566020931264
 21
13.00717430171391
 31
0.0
  0
LINE
  5
93
330
7F
100
AcDbEntity
  8
중심선
100
AcDbLine
 10
22.22332737316547
 20
13.45928029700563
 30
0.0
 11
24.52862924686651
 21
15.39360700705356
 31
0.0
  0
ATTDEF
  5
95
330
7F
100
AcDbEntity
  8
FORMAT
 62
     2
100
AcDbText
 10
3.448148490846466
 20
2.075366912832191
 30
0.0
 40
4.233333333333333
  1
EM208024
 41
0.75
  7
SLDTEXTSTYLE0
 11
3.448148490846466
 21
-0.0412997538344756
 31
0.0
100
AcDbAttributeDefinition
  3

  2
AUTOATTR0
 70
     0
 74
     1
  0
ENDBLK
  5
81
330
7F
100
AcDbEntity
  8
0
100
AcDbBlockEnd
  0
BLOCK
  5
E3
330
E2
100
AcDbEntity
  8
0
100
AcDbBlockBegin
  2
_D
 70
     0
 10
0.0
 20
0.0
 30
0.0
  3
_D
  1
_D
  0
LINE
  5
E5
330
E2
100
AcDbEntity
  8
치수문자_일반주서
 62
     0
370
    -2
100
AcDbLine
 10
32.28749999999997
 20
4.791320827405809
 30
0.0
 11
47.25051877782285
 21
4.791320827405865
 31
0.0
  0
LINE
  5
E6
330
E2
100
AcDbEntity
  8
치수문자_일반주서
 62
     0
370
    -2
100
AcDbLine
 10
32.28749999999997
 20
-4.726670969958001
 30
0.0
 11
47.25051877782288
 21
-4.726670969957945
 31
0.0
  0
LINE
  5
E7
330
E2
100
AcDbEntity
  8
치수문자_일반주서
 62
     0
370
    -2
100
AcDbLine
 10
47.25051877782286
 20
1.489320827405866
 30
0.0
 11
47.25051877782287
 21
-1.424670969957945
 31
0.0
  0
SOLID
  5
E8
330
E2
100
AcDbEntity
  8
치수문자_일반주서
 62
     0
100
AcDbTrace
 10
47.8008521111562
 20
1.489320827405868
 30
0.0
 11
46.70018544448953
 21
1.489320827405864
 31
0.0
 12
47.25051877782285
 22
4.791320827405865
 32
0.0
 13
47.25051877782285
 23
4.791320827405865
 33
0.0
  0
SOLID
  5
E9
330
E2
100
AcDbEntity
  8
치수문자_일반주서
 62
     0
100
AcDbTrace
 10
46.70018544448953
 20
-1.424670969957947
 30
0.0
 11
47.8008521111562
 21
-1.424670969957943
 31
0.0
 12
47.25051877782288
 22
-4.726670969957945
 32
0.0
 13
47.25051877782288
 23
-4.726670969957945
 33
0.0
  0
MTEXT
  5
EA
330
E2
100
AcDbEntity
  8
치수문자_일반주서
 62
     0
100
AcDbMText
 10
42.87551877782287
 20
-1.00068236408041
 30
0.0
 40
3.5
 41
0.0
 71
     2
 72
     1
  1
\A1;%%c9.52 [3/8]
  7
SLDTEXTSTYLE0
 11
-3.732629481551447E-15
 21
1.0
 31
0.0
 73
     1
 44
1.0
  0
POINT
  5
EB
330
E2
100
AcDbEntity
  8
Defpoints
 62
     0
100
AcDbPoint
 10
32.22499999999997
 20
4.791320827405809
 30
0.0
  0
POINT
  5
EC
330
E2
100
AcDbEntity
  8
Defpoints
 62
     0
100
AcDbPoint
 10
32.22499999999997
 20
-4.726670969958001
 30
0.0
  0
POINT
  5
ED
330
E2
100
AcDbEntity
  8
Defpoints
 62
     0
100
AcDbPoint
 10
47.25051877782288
 20
-4.726670969957945
 30
0.0
  0
ENDBLK
  5
E4
330
E2
100
AcDbEntity
  8
0
100
AcDbBlockEnd
  0
BLOCK
  5
F7
330
F6
100
AcDbEntity
  8
0
100
AcDbBlockBegin
  2
_D_1
 70
     0
 10
0.0
 20
0.0
 30
0.0
  3
_D_1
  1
_D_1
  0
LINE
  5
F9
330
F6
100
AcDbEntity
  8
치수문자_일반주서
 62
     0
370
    -2
100
AcDbLine
 10
-39.91000000000005
 20
4.763574928723905
 30
0.0
 11
-54.75250000000008
 21
4.763574928723851
 31
0.0
  0
LINE
  5
FA
330
F6
100
AcDbEntity
  8
치수문자_일반주서
 62
     0
370
    -2
100
AcDbLine
 10
-39.91000000000005
 20
-4.761425071276101
 30
0.0
 11
-54.75250000000004
 21
-4.761425071276155
 31
0.0
  0
LINE
  5
FB
330
F6
100
AcDbEntity
  8
치수문자_일반주서
 62
     0
370
    -2
100
AcDbLine
 10
-54.75250000000006
 20
1.461574928723851
 30
0.0
 11
-54.75250000000005
 21
-1.459425071276155
 31
0.0
  0
SOLID
  5
FC
330
F6
100
AcDbEntity
  8
치수문자_일반주서
 62
     0
100
AcDbTrace
 10
-54.20216666666673
 20
1.461574928723853
 30
0.0
 11
-55.3028333333334
 21
1.461574928723849
 31
0.0
 12
-54.75250000000008
 22
4.763574928723851
 32
0.0
 13
-54.75250000000008
 23
4.763574928723851
 33
0.0
  0
SOLID
  5
FD
330
F6
100
AcDbEntity
  8
치수문자_일반주서
 62
     0
100
AcDbTrace
 10
-55.30283333333339
 20
-1.459425071276157
 30
0.0
 11
-54.20216666666672
 21
-1.459425071276153
 31
0.0
 12
-54.75250000000004
 22
-4.761425071276155
 32
0.0
 13
-54.75250000000004
 23
-4.761425071276155
 33
0.0
  0
MTEXT
  5
FE
330
F6
100
AcDbEntity
  8
치수문자_일반주서
 62
     0
100
AcDbMText
 10
-59.12750000000006
 20
0.0010749287238881
 30
0.0
 40
3.5
 41
0.0
 71
     2
 72
     1
  1
\A1;%%c9.53 [3/8]
  7
SLDTEXTSTYLE0
 11
-3.729883127349604E-15
 21
1.0
 31
0.0
 73
     1
 44
1.0
  0
POINT
  5
FF
330
F6
100
AcDbEntity
  8
Defpoints
 62
     0
100
AcDbPoint
 10
-39.84750000000005
 20
4.763574928723905
 30
0.0
  0
POINT
  5
100
330
F6
100
AcDbEntity
  8
Defpoints
 62
     0
100
AcDbPoint
 10
-39.84750000000005
 20
-4.761425071276101
 30
0.0
  0
POINT
  5
101
330
F6
100
AcDbEntity
  8
Defpoints
 62
     0
100
AcDbPoint
 10
-54.75250000000004
 20
-4.761425071276157
 30
0.0
  0
ENDBLK
  5
F8
330
F6
100
AcDbEntity
  8
0
100
AcDbBlockEnd
  0
BLOCK
  5
10B
330
10A
100
AcDbEntity
  8
0
100
AcDbBlockBegin
  2
_D_2
 70
     0
 10
0.0
 20
0.0
 30
0.0
  3
_D_2
  1
_D_2
  0
LINE
  5
10D
330
10A
100
AcDbEntity
  8
치수문자_일반주서
 62
     0
370
    -2
100
AcDbLine
 10
32.22499999999997
 20
4.791320827405809
 30
0.0
 11
32.22499999999997
 21
35.33044329059607
 31
0.0
  0
LINE
  5
10E
330
10A
100
AcDbEntity
  8
치수문자_일반주서
 62
     0
370
    -2
100
AcDbLine
 10
9.999999999999945
 20
4.525575245012345
 30
0.0
 11
9.999999999999945
 21
35.33044329059607
 31
0.0
  0
LINE
  5
10F
330
10A
100
AcDbEntity
  8
치수문자_일반주서
 62
     0
370
    -2
100
AcDbLine
 10
28.92299999999997
 20
35.33044329059607
 30
0.0
 11
13.30199999999994
 21
35.33044329059607
 31
0.0
  0
SOLID
  5
110
330
10A
100
AcDbEntity
  8
치수문자_일반주서
 62
     0
100
AcDbTrace
 10
28.92299999999997
 20
34.78010995726273
 30
0.0
 11
28.92299999999997
 21
35.8807766239294
 31
0.0
 12
32.22499999999997
 22
35.33044329059607
 32
0.0
 13
32.22499999999997
 23
35.33044329059607
 33
0.0
  0
SOLID
  5
111
330
10A
100
AcDbEntity
  8
치수문자_일반주서
 62
     0
100
AcDbTrace
 10
13.30199999999994
 20
35.8807766239294
 30
0.0
 11
13.30199999999994
 21
34.78010995726273
 31
0.0
 12
9.999999999999945
 22
35.33044329059607
 32
0.0
 13
9.999999999999945
 23
35.33044329059607
 33
0.0
  0
MTEXT
  5
112
330
10A
100
AcDbEntity
  8
치수문자_일반주서
 62
     0
100
AcDbMText
 10
21.11249999999995
 20
39.70544329059607
 30
0.0
 40
3.5
 41
0.0
 71
     2
 72
     1
  1
\A1;22.23 [7/8]
  7
SLDTEXTSTYLE0
 73
     1
 44
1.0
  0
POINT
  5
113
330
10A
100
AcDbEntity
  8
Defpoints
 62
     0
100
AcDbPoint
 10
32.22499999999997
 20
4.728820827405809
 30
0.0
  0
POINT
  5
114
330
10A
100
AcDbEntity
  8
Defpoints
 62
     0
100
AcDbPoint
 10
9.999999999999945
 20
4.463075245012345
 30
0.0
  0
POINT
  5
115
330
10A
100
AcDbEntity
  8
Defpoints
 62
     0
100
AcDbPoint
 10
9.999999999999945
 20
35.33044329059607
 30
0.0
  0
ENDBLK
  5
10C
330
10A
100
AcDbEntity
  8
0
100
AcDbBlockEnd
  0
BLOCK
  5
121
330
120
100
AcDbEntity
  8
0
100
AcDbBlockBegin
  2
_D_3
 70
     0
 10
0.0
 20
0.0
 30
0.0
  3
_D_3
  1
_D_3
  0
LINE
  5
123
330
120
100
AcDbEntity
  8
치수문자_일반주서
 62
     0
370
    -2
100
AcDbLine
 10
32.22499999999997
 20
4.791320827405809
 30
0.0
 11
32.22499999999997
 21
47.33044329059609
 31
0.0
  0
LINE
  5
124
330
120
100
AcDbEntity
  8
치수문자_일반주서
 62
     0
370
    -2
100
AcDbLine
 10
-40.80000000000004
 20
3.873574928723905
 30
0.0
 11
-40.80000000000004
 21
47.33044329059609
 31
0.0
  0
LINE
  5
125
330
120
100
AcDbEntity
  8
치수문자_일반주서
 62
     0
370
    -2
100
AcDbLine
 10
28.92299999999997
 20
47.33044329059609
 30
0.0
 11
-37.49800000000004
 21
47.33044329059609
 31
0.0
  0
SOLID
  5
126
330
120
100
AcDbEntity
  8
치수문자_일반주서
 62
     0
100
AcDbTrace
 10
28.92299999999997
 20
46.78010995726275
 30
0.0
 11
28.92299999999997
 21
47.88077662392942
 31
0.0
 12
32.22499999999997
 22
47.33044329059609
 32
0.0
 13
32.22499999999997
 23
47.33044329059609
 33
0.0
  0
SOLID
  5
127
330
120
100
AcDbEntity
  8
치수문자_일반주서
 62
     0
100
AcDbTrace
 10
-37.49800000000004
 20
47.88077662392942
 30
0.0
 11
-37.49800000000004
 21
46.78010995726275
 31
0.0
 12
-40.80000000000004
 22
47.33044329059609
 32
0.0
 13
-40.80000000000004
 23
47.33044329059609
 33
0.0
  0
MTEXT
  5
128
330
120
100
AcDbEntity
  8
치수문자_일반주서
 62
     0
100
AcDbMText
 10
-4.287500000000036
 20
51.70544329059609
 30
0.0
 40
3.5
 41
0.0
 71
     2
 72
     1
  1
\A1;73.03 [2 7/8]
  7
SLDTEXTSTYLE0
 73
     1
 44
1.0
  0
POINT
  5
129
330
120
100
AcDbEntity
  8
Defpoints
 62
     0
100
AcDbPoint
 10
32.22499999999997
 20
4.728820827405809
 30
0.0
  0
POINT
  5
12A
330
120
100
AcDbEntity
  8
Defpoints
 62
     0
100
AcDbPoint
 10
-40.80000000000004
 20
3.811074928723905
 30
0.0
  0
POINT
  5
12B
330
120
100
AcDbEntity
  8
Defpoints
 62
     0
100
AcDbPoint
 10
-40.80000000000004
 20
47.33044329059609
 30
0.0
  0
ENDBLK
  5
122
330
120
100
AcDbEntity
  8
0
100
AcDbBlockEnd
  0
BLOCK
  5
13A
330
139
100
AcDbEntity
  8
0
100
AcDbBlockBegin
  2
SW_DOWELSYMBOL_0
 70
     0
 10
0.0
 20
0.0
 30
0.0
  3
SW_DOWELSYMBOL_0
  1
SW_DOWELSYMBOL_0
  0
CIRCLE
  5
13C
330
139
100
AcDbEntity
  8
해칭선
 62
     0
100
AcDbCircle
 10
0.0
 20
0.0
 30
0.0
 40
3.000000000000001
  0
HATCH
  5
13D
330
139
100
AcDbEntity
  8
0
  6
Continuous
 62
     0
370
     0
100
AcDbHatch
 10
0.0
 20
0.0
 30
0.0
210
0.0
220
0.0
230
1.0
  2
SOLID
 70
     1
 71
     0
 91
        1
 92
        0
 93
        3
 72
     2
 10
0.0
 20
0.0
 40
3.000000000000001
 50
0.0
 51
90.0
 73
     1
 72
     1
 10
0.0
 20
3.000000000000001
 11
0.0
 21
0.0
 72
     1
 10
0.0
 20
0.0
 11
3.000000000000001
 21
0.0
 97
        0
 75
     0
 76
     1
 98
        1
 10
0.0
 20
0.0
  0
HATCH
  5
13E
330
139
100
AcDbEntity
  8
0
  6
Continuous
 62
     0
370
     0
100
AcDbHatch
 10
0.0
 20
0.0
 30
0.0
210
0.0
220
0.0
230
1.0
  2
SOLID
 70
     1
 71
     0
 91
        1
 92
        0
 93
        3
 72
     2
 10
0.0
 20
0.0
 40
3.000000000000001
 50
180.0
 51
270.0000000000008
 73
     1
 72
     1
 10
0.0
 20
-3.000000000000001
 11
0.0
 21
0.0
 72
     1
 10
0.0
 20
0.0
 11
-3.000000000000001
 21
0.0
 97
        0
 75
     0
 76
     1
 98
        1
 10
0.0
 20
0.0
  0
ENDBLK
  5
13B
330
139
100
AcDbEntity
  8
0
100
AcDbBlockEnd
  0
ENDSEC
  0
SECTION
  2
ENTITIES
  0
LINE
  5
96
330
1F
100
AcDbEntity
  8
0
  6
Continuous
 62
     1
370
    15
100
AcDbLine
 10
11.27501694009733
 20
-0.9106130778079903
 30
0.0
 11
11.31740930094105
 21
-0.9513610071040441
 31
0.0
  0
LINE
  5
97
330
1F
100
AcDbEntity
  8
0
  6
Continuous
 62
     1
370
    15
100
AcDbLine
 10
28.22052737154369
 20
0.9289513246074048
 30
0.0
 11
28.19615702998492
 21
0.9537879880135715
 31
0.0
  0
LINE
  5
98
330
1F
100
AcDbEntity
  8
0
  6
Continuous
 62
     1
370
    15
100
AcDbLine
 10
16.68692998647595
 20
-4.761425071276098
 30
0.0
 11
17.83932636552004
 21
-4.761425071276098
 31
0.0
  0
LINE
  5
99
330
1F
100
AcDbEntity
  8
0
  6
Continuous
 62
     1
370
    15
100
AcDbLine
 10
32.22499999999997
 20
4.763574928723902
 30
0.0
 11
31.64878536231778
 21
4.763574928723902
 31
0.0
  0
LINE
  5
9A
330
1F
100
AcDbEntity
  8
0
  6
Continuous
 62
     1
370
    15
100
AcDbLine
 10
22.82601283355113
 20
4.763574928723902
 30
0.0
 11
21.67437740291592
 21
4.763574928723902
 31
0.0
  0
LINE
  5
9B
330
1F
100
AcDbEntity
  8
0
  6
Continuous
 62
     1
370
    15
100
AcDbLine
 10
21.67437740291588
 20
-4.761425071276098
 30
0.0
 11
22.8260128335511
 21
-4.761425071276098
 31
0.0
  0
LINE
  5
9C
330
1F
100
AcDbEntity
  8
0
  6
Continuous
 62
     1
370
    15
100
AcDbLine
 10
26.66223863049352
 20
-4.761425071276098
 30
0.0
 11
27.81364686719579
 21
-4.761425071276098
 31
0.0
  0
LINE
  5
9D
330
1F
100
AcDbEntity
  8
0
  6
Continuous
 62
     1
370
    15
100
AcDbLine
 10
12.85253290159088
 20
4.763574928723902
 30
0.0
 11
11.6999505383854
 21
4.763574928723902
 31
0.0
  0
LINE
  5
9E
330
1F
100
AcDbEntity
  8
0
  6
Continuous
 62
     1
370
    15
100
AcDbLine
 10
31.64878536231778
 20
-4.761425071276098
 30
0.0
 11
32.22499999999997
 21
-4.761425071276098
 31
0.0
  0
LINE
  5
9F
330
1F
100
AcDbEntity
  8
0
  6
Continuous
 62
     1
370
    15
100
AcDbLine
 10
17.83932636552007
 20
4.763574928723902
 30
0.0
 11
16.68692998647595
 21
4.763574928723902
 31
0.0
  0
LINE
  5
A0
330
1F
100
AcDbEntity
  8
0
  6
Continuous
 62
     1
370
    15
100
AcDbLine
 10
11.69995053838543
 20
-4.761425071276098
 30
0.0
 11
12.85253290159088
 21
-4.761425071276098
 31
0.0
  0
LINE
  5
A1
330
1F
100
AcDbEntity
  8
0
  6
Continuous
 62
     1
370
    15
100
AcDbLine
 10
27.8136468671958
 20
4.763574928723902
 30
0.0
 11
26.66223863049354
 21
4.763574928723902
 31
0.0
  0
LINE
  5
A2
330
1F
100
AcDbEntity
  8
외형선
  6
Continuous
370
    15
100
AcDbLine
 10
-39.84750000000004
 20
-4.761425071276097
 30
0.0
 11
9.000237136938786
 21
-4.761425071276097
 31
0.0
  0
LINE
  5
A3
330
1F
100
AcDbEntity
  8
외형선
  6
Continuous
370
    15
100
AcDbLine
 10
9.000237136938786
 20
4.763574928723901
 30
0.0
 11
-39.84750000000004
 21
4.763574928723901
 31
0.0
  0
LINE
  5
A4
330
1F
100
AcDbEntity
  8
외형선
  6
Continuous
370
    15
100
AcDbLine
 10
-39.84750000000004
 20
4.763574928723902
 30
0.0
 11
-40.80000000000004
 21
3.811074928723905
 31
0.0
  0
LINE
  5
A5
330
1F
100
AcDbEntity
  8
외형선
  6
Continuous
370
    15
100
AcDbLine
 10
-40.80000000000004
 20
-3.808925071276102
 30
0.0
 11
-39.84750000000004
 21
-4.761425071276098
 31
0.0
  0
SPLINE
  5
A6
330
1F
100
AcDbEntity
  8
0
  6
Continuous
 62
     1
370
    15
100
AcDbSpline
210
0.0
220
0.0
230
1.0
 70
     8
 71
     3
 72
    24
 73
    20
 74
     0
 42
0.000000001
 43
0.00000001
 40
0.0
 40
0.0
 40
0.0
 40
0.0
 40
0.0651083402225197
 40
0.1303035738725197
 40
0.1955925188103323
 40
0.2607203402619571
 40
0.3258569043164572
 40
0.3822388997982802
 40
0.4384139103574567
 40
0.4946887862149032
 40
0.5510026407027312
 40
0.6071661554149338
 40
0.6635429752314607
 40
0.7197372310365829
 40
0.7759748701792775
 40
0.8323220852770408
 40
0.888480117618707
 40
0.9448406301509544
 40
1.0
 40
1.0
 40
1.0
 40
1.0
 10
9.999999999999869
 20
4.292972319421938
 30
0.0
 10
10.31979989478102
 20
4.137282164563357
 30
0.0
 10
10.95982648848038
 20
3.825694071156204
 30
0.0
 10
11.92115274288004
 20
3.156199029980453
 30
0.0
 10
12.88398123398249
 20
2.372187130225019
 30
0.0
 10
13.84442243775458
 20
1.487105907478941
 30
0.0
 10
14.76098600549636
 20
0.5851551259940014
 30
0.0
 10
15.63615967840033
 20
-0.2891466106265873
 30
0.0
 10
16.46439291608592
 20
-1.114401781247692
 30
0.0
 10
17.29404791395698
 20
-1.903780053712306
 30
0.0
 10
18.12433817601604
 20
-2.635040969701728
 30
0.0
 10
18.95232839799881
 20
-3.289068269332532
 30
0.0
 10
19.78358652353577
 20
-3.840367764075793
 30
0.0
 10
20.61202523459854
 20
-4.277810484866947
 30
0.0
 10
21.44112382759359
 20
-4.584726554313391
 30
0.0
 10
22.27192901755385
 20
-4.753447314454324
 30
0.0
 10
23.09983805010495
 20
-4.775884955173819
 30
0.0
 10
23.92563999620061
 20
-4.664640388912414
 30
0.0
 10
24.47322756099413
 20
-4.473659876251059
 30
0.0
 10
24.74407240378112
 20
-4.379198112959108
 30
0.0
  0
LINE
  5
A7
330
1F
100
AcDbEntity
  8
외형선
  6
Continuous
370
    15
100
AcDbLine
 10
9.999999999999986
 20
4.463075245007577
 30
0.0
 11
9.999999999999986
 21
4.343932014870742
 31
0.0
  0
SPLINE
  5
A8
330
1F
100
AcDbEntity
  8
0
  6
Continuous
 62
     1
370
    15
100
AcDbSpline
210
0.0
220
0.0
230
1.0
 70
     8
 71
     3
 72
    27
 73
    23
 74
     0
 42
0.000000001
 43
0.00000001
 40
0.0
 40
0.0
 40
0.0
 40
0.0
 40
0.0145602044118483
 40
0.0644406086294429
 40
0.1141776676424075
 40
0.1639263478291599
 40
0.2137988216065876
 40
0.2634921240539202
 40
0.3133528311542398
 40
0.3631165763267786
 40
0.4128419323103582
 40
0.4627288361305779
 40
0.5124269898357958
 40
0.5622581766910095
 40
0.6120548720089006
 40
0.6617631981966067
 40
0.711654681876379
 40
0.7692929366900153
 40
0.8269234553207618
 40
0.8846965494264081
 40
0.9423867199826729
 40
1.0
 40
1.0
 40
1.0
 40
1.0
 10
26.66223863049352
 20
-4.746502928864636
 30
0.0
 10
26.58147071585853
 20
-4.750809124744475
 30
0.0
 10
26.22400776893904
 20
-4.769867503014809
 30
0.0
 10
25.58828469798863
 20
-4.658075661103577
 30
0.0
 10
24.75970039469489
 20
-4.410554049117508
 30
0.0
 10
23.9308483702331
 20
-4.018486782227742
 30
0.0
 10
23.09984290661766
 20
-3.509420102027029
 30
0.0
 10
22.27192771327476
 20
-2.890367493677953
 30
0.0
 10
21.44112417681973
 20
-2.187117695250012
 30
0.0
 10
20.61202514119027
 20
-1.41600147522932
 30
0.0
 10
19.7835865486498
 20
-0.6009817671594875
 30
0.0
 10
18.95232839128928
 20
0.2287591806445083
 30
0.0
 10
18.12433817781636
 20
1.055974219911698
 30
0.0
 10
17.29404791347442
 20
1.848034803773105
 30
0.0
 10
16.46439291621485
 20
2.585061530135957
 30
0.0
 10
15.63615967836578
 20
3.245434889882181
 30
0.0
 10
14.76098600550715
 20
3.834640778615532
 30
0.0
 10
13.84442243775118
 20
4.318097280415395
 30
0.0
 10
12.88398123398272
 20
4.649610674001343
 30
0.0
 10
11.92115274287893
 20
4.788622230097738
 30
0.0
 10
10.95982648847925
 20
4.746482836138213
 30
0.0
 10
10.31979989477964
 20
4.557502434630472
 30
0.0
 10
9.999999999998384
 20
4.463075245021752
 30
0.0
  0
LINE
  5
A9
330
1F
100
AcDbEntity
  8
0
  6
Continuous
 62
     1
370
    15
100
AcDbLine
 10
32.22499999999997
 20
-1.865436255276836
 30
0.0
 11
32.22499999999997
 21
1.867586112724728
 31
0.0
  0
SPLINE
  5
AA
330
1F
100
AcDbEntity
  8
0
  6
Continuous
 62
     1
370
    15
100
AcDbSpline
210
0.0
220
0.0
230
1.0
 70
     8
 71
     3
 72
    19
 73
    15
 74
     0
 42
0.000000001
 43
0.00000001
 40
0.0
 40
0.0
 40
0.0
 40
0.0
 40
0.0291213263531425
 40
0.1175302753301042
 40
0.2057197753723597
 40
0.2938886745564113
 40
0.3823116818269962
 40
0.4704056170735499
 40
0.5587715509109069
 40
0.6470135231011485
 40
0.7351462573742472
 40
0.8235867322114576
 40
0.91169447189727
 40
1.0
 40
1.0
 40
1.0
 40
1.0
 10
22.82601283355113
 20
4.747632295956655
 30
0.0
 10
22.91713786539736
 20
4.752041759042963
 30
0.0
 10
23.28490786160143
 20
4.769837837569994
 30
0.0
 10
23.93087903179191
 20
4.6535237320802
 30
0.0
 10
24.75968170379648
 20
4.400403559999591
 30
0.0
 10
25.5883288975967
 20
4.003546486792199
 30
0.0
 10
26.41947311136823
 20
3.490250476401966
 30
0.0
 10
27.24741141741172
 20
2.867625522318925
 30
0.0
 10
28.07799570846651
 20
2.161254625913517
 30
0.0
 10
28.90734836058494
 20
1.388461813183334
 30
0.0
 10
29.73564130162903
 20
0.5718397965964781
 30
0.0
 10
30.56695437638556
 20
-0.2571727678334959
 30
0.0
 10
31.39501651517943
 20
-1.086669641395008
 30
0.0
 10
31.94813212706764
 20
-1.605653428462169
 30
0.0
 10
32.22499999999997
 20
-1.865436255276836
 30
0.0
  0
SPLINE
  5
AB
330
1F
100
AcDbEntity
  8
0
  6
Continuous
 62
     1
370
    15
100
AcDbSpline
210
0.0
220
0.0
230
1.0
 70
     8
 71
     3
 72
    17
 73
    13
 74
     0
 42
0.000000001
 43
0.00000001
 40
0.0
 40
0.0
 40
0.0
 40
0.0
 40
0.1109442689443289
 40
0.2216400427854401
 40
0.3327538545333181
 40
0.4434810307823377
 40
0.5543454500909789
 40
0.665365610887292
 40
0.7760440412680928
 40
0.8871359073184463
 40
0.9979085200162756
 40
1.0
 40
1.0
 40
1.0
 40
1.0
 10
32.22499999999997
 20
1.867586112724728
 30
0.0
 10
31.94813212936923
 20
2.116475082541657
 30
0.0
 10
31.39501652207902
 20
2.613695555883359
 30
0.0
 10
30.56695434881603
 20
3.267736383814454
 30
0.0
 10
29.73564140530611
 20
3.82394320579474
 30
0.0
 10
28.90734797486751
 20
4.265795418856772
 30
0.0
 10
28.0779971510168
 20
4.578090215949922
 30
0.0
 10
27.24740603250788
 20
4.75072447923066
 30
0.0
 10
26.41949316987906
 20
4.783994302531963
 30
0.0
 10
25.58825381070958
 20
4.65724330032521
 30
0.0
 10
25.03062907223783
 20
4.515630955453728
 30
0.0
 10
24.74928596170083
 20
4.383791089682201
 30
0.0
 10
24.74407240378115
 20
4.381347970406914
 30
0.0
  0
SPLINE
  5
AC
330
1F
100
AcDbEntity
  8
0
  6
Continuous
 62
     1
370
    15
100
AcDbSpline
210
0.0
220
0.0
230
1.0
 70
     8
 71
     3
 72
     9
 73
     5
 74
     0
 42
0.000000001
 43
0.00000001
 40
0.0
 40
0.0
 40
0.0
 40
0.0
 40
0.4354064978243663
 40
0.9999999999999999
 40
0.9999999999999999
 40
0.9999999999999999
 40
0.9999999999999999
 10
11.69995053838543
 20
-4.744275783674205
 30
0.0
 10
11.45309830503188
 20
-4.741546646472868
 30
0.0
 10
10.88615170550471
 20
-4.735278625175589
 30
0.0
 10
10.31977347098303
 20
-4.559927495811857
 30
0.0
 10
9.999999999998384
 20
-4.460925387573936
 30
0.0
  0
SPLINE
  5
AD
330
1F
100
AcDbEntity
  8
0
  6
Continuous
 62
     1
370
    15
100
AcDbSpline
210
0.0
220
0.0
230
1.0
 70
     8
 71
     3
 72
    18
 73
    14
 74
     0
 42
0.000000001
 43
0.00000001
 40
0.0
 40
0.0
 40
0.0
 40
0.0
 40
0.0983885501391314
 40
0.196908409390386
 40
0.2955698805719696
 40
0.3939878697949419
 40
0.4924190704132364
 40
0.5776207937323772
 40
0.6625097315255737
 40
0.7475495808897367
 40
0.8326483328601794
 40
0.9175198986897765
 40
1.0
 40
1.0
 40
1.0
 40
1.0
 10
9.999999999999854
 20
0.3593527152394371
 30
0.0
 10
10.31979989441563
 20
0.0385726076284518
 30
0.0
 10
10.9598264873838
 20
-0.6034157199201832
 30
0.0
 10
11.92115274727583
 20
-1.545792035640356
 30
0.0
 10
12.88398121748972
 20
-2.423154546504769
 30
0.0
 10
13.84442249915869
 20
-3.203965565451831
 30
0.0
 10
14.76098578929602
 20
-3.824756791273442
 30
0.0
 10
15.63616036450472
 20
-4.281779256030816
 30
0.0
 10
16.46439035177395
 20
-4.587802713579791
 30
0.0
 10
17.29405751033891
 20
-4.754731557807291
 30
0.0
 10
18.12430237557696
 20
-4.775359684029174
 30
0.0
 10
18.94365392508202
 20
-4.662534669275492
 30
0.0
 10
19.48878089767424
 20
-4.472188929917797
 30
0.0
 10
19.75744943677388
 20
-4.378376085776393
 30
0.0
  0
SPLINE
  5
AE
330
1F
100
AcDbEntity
  8
0
  6
Continuous
 62
     1
370
    15
100
AcDbSpline
210
0.0
220
0.0
230
1.0
 70
     8
 71
     3
 72
    21
 73
    17
 74
     0
 42
0.000000001
 43
0.00000001
 40
0.0
 40
0.0
 40
0.0
 40
0.0
 40
0.0199850920299351
 40
0.0910102332643938
 40
0.1619805836554735
 40
0.2331815026638008
 40
0.3041130286927703
 40
0.3752344258464825
 40
0.4463065950672641
 40
0.5172526397383277
 40
0.5884600953361023
 40
0.6707241044948284
 40
0.75297707221203
 40
0.8354335303057338
 40
0.9177716360369687
 40
1.0
 40
1.0
 40
1.0
 40
1.0
 10
21.67437740291589
 20
-4.746828290871774
 30
0.0
 10
21.59654459941344
 20
-4.751098414840965
 30
0.0
 10
21.24210131780286
 20
-4.770544158594458
 30
0.0
 10
20.61200985394304
 20
-4.660199590974873
 30
0.0
 10
19.78359065882447
 20
-4.414190522284754
 30
0.0
 10
18.95232729320169
 20
-4.025249470074425
 30
0.0
 10
18.12433847245946
 20
-3.515074997250157
 30
0.0
 10
17.29404783449473
 20
-2.899681268474696
 30
0.0
 10
16.46439293731955
 20
-2.196434736248129
 30
0.0
 10
15.63615967271904
 20
-1.42459629094459
 30
0.0
 10
14.7609860072865
 20
-0.5702439785929843
 30
0.0
 10
13.84442243724583
 20
0.3524263902560016
 30
0.0
 10
12.88398123411845
 20
1.305281927114892
 30
0.0
 10
11.92115274284273
 20
2.200672042744673
 30
0.0
 10
10.95982648848828
 20
3.018678209696525
 30
0.0
 10
10.31979989478265
 20
3.455615404739506
 30
0.0
 10
9.99999999999839
 20
3.673938315656469
 30
0.0
  0
SPLINE
  5
AF
330
1F
100
AcDbEntity
  8
외형선
  6
Continuous
370
    15
100
AcDbSpline
210
0.0
220
0.0
230
1.0
 70
    24
 71
     3
 72
    22
 73
    18
 74
     0
 42
0.000000001
 43
0.00000001
 40
0.0
 40
0.0
 40
0.0
 40
0.0
 40
0.0545843199303756
 40
0.1101544061258475
 40
0.1786772234175619
 40
0.2491872070528053
 40
0.3177100243444531
 40
0.3882200079796237
 40
0.4567428252712779
 40
0.5272528089064555
 40
0.5957756261981078
 40
0.6662856098332808
 40
0.7348084271249198
 40
0.8053184107600807
 40
0.8738412280517384
 40
0.9443512116869344
 40
1.0
 40
1.0
 40
1.0
 40
1.0
 10
9.999999999999986
 20
3.673938315646094
 30
0.0
 10
9.999999999999986
 20
3.618607431924523
 30
0.0
 10
9.999999999999979
 20
3.506946415637385
 30
0.0
 10
9.999999999999945
 20
3.292957990956134
 30
0.0
 10
10.0
 20
3.035558945359222
 30
0.0
 10
9.999999999999904
 20
2.736408041068939
 30
0.0
 10
9.999999999999972
 20
2.419185218520637
 30
0.0
 10
9.999999999999966
 20
2.098355199390883
 30
0.0
 10
9.999999999999979
 20
1.777285418689381
 30
0.0
 10
9.999999999999938
 20
1.470823615536091
 30
0.0
 10
9.99999999999993
 20
1.182142994215074
 30
0.0
 10
9.999999999999972
 20
0.9245708993614392
 30
0.0
 10
9.99999999999996
 20
0.7009056571133214
 30
0.0
 10
9.999999999999904
 20
0.5209698002121605
 30
0.0
 10
9.999999999999972
 20
0.3886141294567511
 30
0.0
 10
9.99999999999996
 20
0.3078706229272087
 30
0.0
 10
9.999999999999966
 20
0.2969537218303878
 30
0.0
 10
9.999999999999979
 20
0.2921382634299144
 30
0.0
  0
LINE
  5
B0
330
1F
100
AcDbEntity
  8
0
  6
Continuous
 62
     1
370
    15
100
AcDbLine
 10
32.22499999999997
 20
-4.726670969958001
 30
0.0
 11
32.22499999999997
 21
-2.847489030836756
 31
0.0
  0
SPLINE
  5
B1
330
1F
100
AcDbEntity
  8
0
  6
Continuous
 62
     1
370
    15
100
AcDbSpline
210
0.0
220
0.0
230
1.0
 70
     8
 71
     3
 72
    25
 73
    21
 74
     0
 42
0.000000001
 43
0.00000001
 40
0.0
 40
0.0
 40
0.0
 40
0.0
 40
0.0198217008640153
 40
0.0773809364489732
 40
0.1351587779886008
 40
0.1927495186141275
 40
0.2503847206976055
 40
0.3081322218108822
 40
0.3656858387827799
 40
0.423446967785409
 40
0.4810647219558097
 40
0.538669016755388
 40
0.5964393306077513
 40
0.6539946484461232
 40
0.7117276739246574
 40
0.7693797102638197
 40
0.8269603770697268
 40
0.8847421031872612
 40
0.9423064400220816
 40
1.0
 40
1.0
 40
1.0
 40
1.0
 10
17.83932636552008
 20
4.747284549169204
 30
0.0
 10
17.93444744981493
 20
4.751730434278489
 30
0.0
 10
18.30578584450036
 20
4.769086500514238
 30
0.0
 10
18.95227309997753
 20
4.650804211425492
 30
0.0
 10
19.78360132982636
 20
4.39652775015148
 30
0.0
 10
20.61202119732247
 20
3.998268403808062
 30
0.0
 10
21.44112518218445
 20
3.481805493753303
 30
0.0
 10
22.27192764697346
 20
2.861024947953011
 30
0.0
 10
23.09984217178607
 20
2.150545847117106
 30
0.0
 10
23.93085138643373
 20
1.378730371541809
 30
0.0
 10
24.75968910099377
 20
0.5628566559825776
 30
0.0
 10
25.58832690912718
 20
-0.2703591664676233
 30
0.0
 10
26.4194736425627
 20
-1.092334186041896
 30
0.0
 10
27.24741127480735
 20
-1.885450065530944
 30
0.0
 10
28.07799574666848
 20
-2.618015593142602
 30
0.0
 10
28.9073483503703
 20
-3.272602620707529
 30
0.0
 10
29.73564130437464
 20
-3.829641130124986
 30
0.0
 10
30.56695437565548
 20
-4.265943201792734
 30
0.0
 10
31.39501651536212
 20
-4.585374408332354
 30
0.0
 10
31.94813212712858
 20
-4.679536925503609
 30
0.0
 10
32.22499999999997
 20
-4.726670969958001
 30
0.0
  0
SPLINE
  5
B2
330
1F
100
AcDbEntity
  8
0
  6
Continuous
 62
     1
370
    15
100
AcDbSpline
210
0.0
220
0.0
230
1.0
 70
     8
 71
     3
 72
    23
 73
    19
 74
     0
 42
0.000000001
 43
0.00000001
 40
0.0
 40
0.0
 40
0.0
 40
0.0
 40
0.0665683375318244
 40
0.1329875740234292
 40
0.1996576399516832
 40
0.2660957183907708
 40
0.3326161448628277
 40
0.3992300187208352
 40
0.4656388488585932
 40
0.5322957470169922
 40
0.5987610880527816
 40
0.6652419588624333
 40
0.7318882593011296
 40
0.7982951269346914
 40
0.8649257031584388
 40
0.9314267058262634
 40
0.9978764077017434
 40
1.0
 40
1.0
 40
1.0
 40
1.0
 10
32.22499999999997
 20
-2.860159785957194
 30
0.0
 10
31.94813212712921
 20
-2.630811042143989
 30
0.0
 10
31.39501651536398
 20
-2.172627254236444
 30
0.0
 10
30.56695437564815
 20
-1.393605683577727
 30
0.0
 10
29.73564130440204
 20
-0.582678617617366
 30
0.0
 10
28.90734835026825
 20
0.2513123120285748
 30
0.0
 10
28.07799574705012
 20
1.07576347219247
 30
0.0
 10
27.24741127338275
 20
1.866506384067343
 30
0.0
 10
26.41947364786929
 20
2.604094289135035
 30
0.0
 10
25.58832688926261
 20
3.259221963107212
 30
0.0
 10
24.759689174891
 20
3.818268565274888
 30
0.0
 10
23.93085111025949
 20
4.261159234671158
 30
0.0
 10
23.09984320376656
 20
4.574607020996941
 30
0.0
 10
22.27192380582784
 20
4.749717315030003
 30
0.0
 10
21.4411395611196
 20
4.784494715879254
 30
0.0
 10
20.61196767357467
 20
4.659746993101389
 30
0.0
 10
20.05157250040299
 20
4.517674231787537
 30
0.0
 10
19.76628430212415
 20
4.384645602007582
 30
0.0
 10
19.7574494367739
 20
4.380525943224199
 30
0.0
  0
SPLINE
  5
B3
330
1F
100
AcDbEntity
  8
0
  6
Continuous
 62
     1
370
    15
100
AcDbSpline
210
0.0
220
0.0
230
1.0
 70
     8
 71
     3
 72
    28
 73
    24
 74
     0
 42
0.000000001
 43
0.00000001
 40
0.0
 40
0.0
 40
0.0
 40
0.0
 40
0.0018876335172923
 40
0.0587770578007588
 40
0.1156741187843825
 40
0.1649240275241735
 40
0.2139931340688002
 40
0.2631494733689199
 40
0.3123398606656152
 40
0.3613989255398558
 40
0.4106443133143753
 40
0.4597302306617842
 40
0.508854043535912
 40
0.558073571464839
 40
0.6071278474654987
 40
0.6563589907590328
 40
0.7054679323741718
 40
0.754565402256936
 40
0.803804374009872
 40
0.8528600996982814
 40
0.9020672897096401
 40
0.9512054508083984
 40
1.0
 40
1.0
 40
1.0
 40
1.0
 10
12.85253290159088
 20
4.760474573332741
 30
0.0
 10
12.86316333966164
 20
4.761503499017534
 30
0.0
 10
13.19417349984811
 20
4.793542146294028
 30
0.0
 10
13.84435616675451
 20
4.678115460046879
 30
0.0
 10
14.76100112945524
 20
4.414198724019232
 30
0.0
 10
15.63615589133806
 20
3.992872611417121
 30
0.0
 10
16.46439393133654
 20
3.474815349728361
 30
0.0
 10
17.29404764111078
 20
2.851502446241066
 30
0.0
 10
18.12433825031784
 20
2.143148703418833
 30
0.0
 10
18.95232837282076
 20
1.36684093556231
 30
0.0
 10
19.78358654976619
 20
0.5534244710325741
 30
0.0
 10
20.61202515509874
 20
-0.2801423671133239
 30
0.0
 10
21.44112411995749
 20
-1.104235467903972
 30
0.0
 10
22.27192792694747
 20
-1.893014999796635
 30
0.0
 10
23.09984211065514
 20
-2.628100192607889
 30
0.0
 10
23.93085135001616
 20
-3.279998387410627
 30
0.0
 10
24.75968930703026
 20
-3.834783887987761
 30
0.0
 10
25.58832612044815
 20
-4.273313384260184
 30
0.0
 10
26.41947659589019
 20
-4.581272787265322
 30
0.0
 10
27.24740028386035
 20
-4.752465888588506
 30
0.0
 10
28.07803688725582
 20
-4.776566426191659
 30
0.0
 10
28.90560467805211
 20
-4.666237321216021
 30
0.0
 10
29.45616603624388
 20
-4.475219582163787
 30
0.0
 10
29.73048085093281
 20
-4.380045820128426
 30
0.0
  0
SPLINE
  5
B4
330
1F
100
AcDbEntity
  8
0
  6
Continuous
 62
     1
370
    15
100
AcDbSpline
210
0.0
220
0.0
230
1.0
 70
     8
 71
     3
 72
    29
 73
    25
 74
     0
 42
0.000000001
 43
0.00000001
 40
0.0
 40
0.0
 40
0.0
 40
0.0
 40
0.0150428000457027
 40
0.064101297146985
 40
0.1133450615870799
 40
0.1624174757051
 40
0.2115507136288445
 40
0.2607529735491509
 40
0.3098037843217882
 40
0.3590378227994454
 40
0.4081303735840687
 40
0.4572343949517075
 40
0.5064606057542997
 40
0.5555099669844324
 40
0.604724563586166
 40
0.6538434547228354
 40
0.7029244541295562
 40
0.7521649079859731
 40
0.8012190576098875
 40
0.850404516499002
 40
0.8995559308028263
 40
0.9486201210910475
 40
0.9978650954597771
 40
1.0
 40
1.0
 40
1.0
 40
1.0
 10
31.64878536231779
 20
-4.746091505782919
 30
0.0
 10
31.56410001131717
 20
-4.750467943928953
 30
0.0
 10
31.20323362793154
 20
-4.769117089114164
 30
0.0
 10
30.56701654448193
 20
-4.655402555487718
 30
0.0
 10
29.73562468510107
 20
-4.40683491787967
 30
0.0
 10
28.90735280289488
 20
-4.013109189448663
 30
0.0
 10
28.07799455098762
 20
-3.50115969437146
 30
0.0
 10
27.24741159434225
 20
-2.883811526891049
 30
0.0
 10
26.41947355632301
 20
-2.176249024001823
 30
0.0
 10
25.58832693357705
 20
-1.406612980351102
 30
0.0
 10
24.75968908931868
 20
-0.5915832963045412
 30
0.0
 10
23.93085140874646
 20
0.2411651632205566
 30
0.0
 10
23.09984209414145
 20
1.064058375088281
 30
0.0
 10
22.27192793445138
 20
1.858918291769902
 30
0.0
 10
21.44112410645224
 20
2.593773632200497
 30
0.0
 10
20.6120252014884
 20
3.252114385483514
 30
0.0
 10
19.78358637758031
 20
3.812458098097982
 30
0.0
 10
18.95232901645882
 20
4.255519679622908
 30
0.0
 10
18.12433585596565
 20
4.57219905591423
 30
0.0
 10
17.29405660201047
 20
4.748052243037078
 30
0.0
 10
16.46436054232801
 20
4.78544618948677
 30
0.0
 10
15.6362804504529
 20
4.660348094681933
 30
0.0
 10
15.06948738302592
 20
4.523522152624355
 30
0.0
 10
14.78046259419431
 20
4.385114296081855
 30
0.0
 10
14.76845321723554
 20
4.379363259535842
 30
0.0
  0
LINE
  5
B5
330
1F
100
AcDbEntity
  8
0
  6
Continuous
 62
     1
370
    15
100
AcDbLine
 10
32.22499999999997
 20
4.728820827405809
 30
0.0
 11
32.22499999999997
 21
4.763574928723903
 31
0.0
  0
SPLINE
  5
B6
330
1F
100
AcDbEntity
  8
0
  6
Continuous
 62
     1
370
    15
100
AcDbSpline
210
0.0
220
0.0
230
1.0
 70
     8
 71
     3
 72
    11
 73
     7
 74
     0
 42
0.000000001
 43
0.00000001
 40
0.0
 40
0.0
 40
0.0
 40
0.0
 40
0.3327743773412036
 40
0.6648034002442517
 40
0.9980863167053269
 40
1.0
 40
1.0
 40
1.0
 40
1.0
 10
32.22499999999997
 20
4.728820827405809
 30
0.0
 10
31.94812037236889
 20
4.749194166668917
 30
0.0
 10
31.39498127741155
 20
4.789895212598777
 30
0.0
 10
30.5670951803741
 20
4.65243752558484
 30
0.0
 10
30.01054709004442
 20
4.513824629892106
 30
0.0
 10
29.73207071072099
 20
4.38294289930101
 30
0.0
 10
29.73048085093284
 20
4.382195677576231
 30
0.0
  0
SPLINE
  5
B7
330
1F
100
AcDbEntity
  8
0
  6
Continuous
 62
     1
370
    15
100
AcDbSpline
210
0.0
220
0.0
230
1.0
 70
     8
 71
     3
 72
    15
 73
    11
 74
     0
 42
0.000000001
 43
0.00000001
 40
0.0
 40
0.0
 40
0.0
 40
0.0
 40
0.0333077800231652
 40
0.1571723390203559
 40
0.2814932948371892
 40
0.4251178656364464
 40
0.5687231592047958
 40
0.7126837262187964
 40
0.856437662077368
 40
1.0
 40
1.0
 40
1.0
 40
1.0
 10
16.68692998647596
 20
-4.74725122941522
 30
0.0
 10
16.61267219333819
 20
-4.751447563938071
 30
0.0
 10
16.2622654406265
 20
-4.771249175207564
 30
0.0
 10
15.63622369470306
 20
-4.661982445291127
 30
0.0
 10
14.76096583313398
 20
-4.406007364916985
 30
0.0
 10
13.84442816700662
 20
-3.96397182824787
 30
0.0
 10
12.88397969514154
 20
-3.343421456324811
 30
0.0
 10
11.92115315302456
 20
-2.58683057821418
 30
0.0
 10
10.95982638616356
 20
-1.72674084377776
 30
0.0
 10
10.31979986068958
 20
-1.100815814868302
 30
0.0
 10
9.999999999998384
 20
-0.788062000641398
 30
0.0
  0
LINE
  5
B8
330
1F
100
AcDbEntity
  8
외형선
  6
Continuous
370
    15
100
AcDbLine
 10
9.999999999999986
 20
-0.7880620006375955
 30
0.0
 11
9.999999999999966
 21
0.3593527152393376
 31
0.0
  0
LINE
  5
B9
330
1F
100
AcDbEntity
  8
0
  6
Continuous
 62
     1
370
    15
100
AcDbLine
 10
32.22499999999997
 20
-2.860159785957194
 30
0.0
 11
32.22499999999997
 21
-1.865436255276836
 31
0.0
  0
LINE
  5
BA
330
1F
100
AcDbEntity
  8
외형선
  6
Continuous
370
    15
100
AcDbLine
 10
9.999999999999986
 20
3.673938315646094
 30
0.0
 11
9.999999999999972
 21
4.292972319421897
 31
0.0
  0
LINE
  5
BB
330
1F
100
AcDbEntity
  8
0
  6
Continuous
 62
     1
370
    15
100
AcDbLine
 10
32.22499999999997
 20
-4.761425071276097
 30
0.0
 11
32.22499999999997
 21
-4.726670969958001
 31
0.0
  0
LINE
  5
BC
330
1F
100
AcDbEntity
  8
0
  6
Continuous
 62
     1
370
    15
100
AcDbLine
 10
32.22499999999997
 20
2.854454910849786
 30
0.0
 11
32.22499999999997
 21
4.728820827405809
 31
0.0
  0
SPLINE
  5
BD
330
1F
100
AcDbEntity
  8
0
  6
Continuous
 62
     1
370
    15
100
AcDbSpline
210
0.0
220
0.0
230
1.0
 70
     8
 71
     3
 72
    12
 73
     8
 74
     0
 42
0.000000001
 43
0.00000001
 40
0.0
 40
0.0
 40
0.0
 40
0.0
 40
0.2013166529790033
 40
0.4029019826578951
 40
0.604777070035176
 40
0.8061539594727641
 40
1.0
 40
1.0
 40
1.0
 40
1.0
 10
9.999999999999869
 20
-3.932544675458611
 30
0.0
 10
10.31980071486585
 20
-4.097582941933261
 30
0.0
 10
10.95982894982938
 20
-4.427879734538857
 30
0.0
 10
11.92114287624597
 20
-4.701537986690618
 30
0.0
 10
12.88401825298517
 20
-4.791933605920426
 30
0.0
 10
13.83228178709473
 20
-4.69984864205628
 30
0.0
 10
14.4603855136593
 20
-4.483383590869426
 30
0.0
 10
14.76845321723555
 20
-4.37721340208804
 30
0.0
  0
SPLINE
  5
BE
330
1F
100
AcDbEntity
  8
0
  6
Continuous
 62
     1
370
    15
100
AcDbSpline
210
0.0
220
0.0
230
1.0
 70
     8
 71
     3
 72
    13
 73
     9
 74
     0
 42
0.000000001
 43
0.00000001
 40
0.0
 40
0.0
 40
0.0
 40
0.0
 40
0.0599232480790695
 40
0.2479306777245435
 40
0.435705366198078
 40
0.6241357235219359
 40
0.8118571587873415
 40
1.0
 40
1.0
 40
1.0
 40
1.0
 10
27.8136468671958
 20
4.747895308691736
 30
0.0
 10
27.90182182904815
 20
4.752304719949103
 30
0.0
 10
28.26664314216422
 20
4.770548529429571
 30
0.0
 10
28.90737415536152
 20
4.655713838478219
 30
0.0
 10
29.73563436824312
 20
4.404282974043466
 30
0.0
 10
30.56695622009422
 20
4.009386091612428
 30
0.0
 10
31.3950160537708
 20
3.499894633366761
 30
0.0
 10
31.94813197314985
 20
3.074996766959595
 30
0.0
 10
32.22499999999997
 20
2.862309643405022
 30
0.0
  0
SPLINE
  5
BF
330
1F
100
AcDbEntity
  8
외형선
  6
Continuous
370
    15
100
AcDbSpline
210
0.0
220
0.0
230
1.0
 70
    24
 71
     3
 72
    22
 73
    18
 74
     0
 42
0.000000001
 43
0.00000001
 40
0.0
 40
0.0
 40
0.0
 40
0.0
 40
0.0101953557669386
 40
0.0826911041964291
 40
0.1551868526258472
 40
0.2276826010552652
 40
0.3001783494846902
 40
0.3726740979141153
 40
0.4451698463435368
 40
0.5176655947729584
 40
0.5901613432023668
 40
0.662657091631775
 40
0.7351528400612114
 40
0.8076485884906476
 40
0.8801443369200701
 40
0.9526400853494924
 40
1.0
 40
1.0
 40
1.0
 40
1.0
 10
9.999999999999952
 20
-0.6659484993994884
 30
0.0
 10
9.99999999999996
 20
-0.6655739239109467
 30
0.0
 10
9.999999999999952
 20
-0.6625358680097613
 30
0.0
 10
9.999999999999924
 20
-0.708029280928052
 30
0.0
 10
9.999999999999945
 20
-0.8062128219539672
 30
0.0
 10
9.999999999999979
 20
-0.9585094073517917
 30
0.0
 10
9.999999999999924
 20
-1.155975013641338
 30
0.0
 10
9.99999999999993
 20
-1.393005706123436
 30
0.0
 10
9.999999999999938
 20
-1.663909418743244
 30
0.0
 10
9.999999999999972
 20
-1.95991090997015
 30
0.0
 10
9.99999999999996
 20
-2.27345118336312
 30
0.0
 10
9.999999999999897
 20
-2.595128274293313
 30
0.0
 10
9.999999999999952
 20
-2.915908133252453
 30
0.0
 10
9.999999999999972
 20
-3.227108199643038
 30
0.0
 10
9.999999999999966
 20
-3.518553725875101
 30
0.0
 10
10.0
 20
-3.754834596236473
 30
0.0
 10
9.999999999999972
 20
-3.882212437884091
 30
0.0
 10
9.999999999999972
 20
-3.932544675458665
 30
0.0
  0
LINE
  5
C0
330
1F
100
AcDbEntity
  8
0
  6
Continuous
 62
     1
370
    15
100
AcDbLine
 10
32.22499999999997
 20
1.867586112724728
 30
0.0
 11
32.22499999999997
 21
2.862309643405022
 31
0.0
  0
LINE
  5
C1
330
1F
100
AcDbEntity
  8
외형선
  6
Continuous
370
    15
100
AcDbLine
 10
9.999999999999986
 20
-4.460925387559761
 30
0.0
 11
9.999999999999972
 21
-3.932544675458665
 31
0.0
  0
SPLINE
  5
C2
330
1F
100
AcDbEntity
  8
외형선
  6
Continuous
370
    15
100
AcDbSpline
210
0.0
220
0.0
230
1.0
 70
    24
 71
     3
 72
    22
 73
    18
 74
     0
 42
0.000000001
 43
0.00000001
 40
0.0
 40
0.0
 40
0.0
 40
0.0
 40
0.125
 40
0.125
 40
0.25
 40
0.25
 40
0.375
 40
0.375
 40
0.5
 40
0.5
 40
0.625
 40
0.625
 40
0.75
 40
0.75
 40
0.875
 40
0.875
 40
1.0
 40
1.0
 40
1.0
 40
1.0
 10
9.999999999999979
 20
-3.932544675458587
 30
0.0
 10
9.999999999999966
 20
-3.807143789040506
 30
0.0
 10
9.999999999999979
 20
-3.654688544751724
 30
0.0
 10
9.999999999999972
 20
-3.302173429574077
 30
0.0
 10
9.999999999999972
 20
-3.102117955007829
 30
0.0
 10
9.999999999999966
 20
-2.680494332630265
 30
0.0
 10
9.999999999999972
 20
-2.459479557475428
 30
0.0
 10
9.999999999999979
 20
-2.034169679114303
 30
0.0
 10
9.999999999999972
 20
-1.830502373367021
 30
0.0
 10
9.999999999999972
 20
-1.470115580541677
 30
0.0
 10
9.999999999999972
 20
-1.313503838796624
 30
0.0
 10
9.999999999999972
 20
-1.056691531185602
 30
0.0
 10
9.999999999999972
 20
-0.956189015379681
 30
0.0
 10
9.999999999999972
 20
-0.8042259878859789
 30
0.0
 10
9.999999999999972
 20
-0.7524601328944188
 30
0.0
 10
9.999999999999972
 20
-0.6843069750608503
 30
0.0
 10
9.999999999999972
 20
-0.667772218200674
 30
0.0
 10
9.999999999999979
 20
-0.6625251458687162
 30
0.0
  0
SPLINE
  5
C3
330
1F
100
AcDbEntity
  8
외형선
  6
Continuous
370
    15
100
AcDbSpline
210
0.0
220
0.0
230
1.0
 70
     8
 71
     3
 72
    10
 73
     6
 74
     0
 42
0.000000001
 43
0.00000001
 40
0.0
 40
0.0
 40
0.0
 40
0.0
 40
0.5
 40
0.5
 40
1.0
 40
1.0
 40
1.0
 40
1.0
 10
9.999999999999869
 20
-3.93254467545861
 30
0.0
 10
9.832810414882283
 20
-3.838516663560206
 30
0.0
 10
9.665019762549317
 20
-3.737119212757009
 30
0.0
 10
9.331007830151352
 20
-3.521275620451506
 30
0.0
 10
9.165846982751017
 20
-3.407092407340305
 30
0.0
 10
9.000237136938786
 20
-3.286803786734728
 30
0.0
  0
SPLINE
  5
C4
330
1F
100
AcDbEntity
  8
외형선
  6
Continuous
370
    15
100
AcDbSpline
210
0.0
220
0.0
230
1.0
 70
     8
 71
     3
 72
    10
 73
     6
 74
     0
 42
0.000000001
 43
0.00000001
 40
0.0
 40
0.0
 40
0.0
 40
0.0
 40
0.5
 40
0.5
 40
1.0
 40
1.0
 40
1.0
 40
1.0
 10
9.999999999999876
 20
-0.7880620006428576
 30
0.0
 10
9.83281041488229
 20
-0.6235724853172107
 30
0.0
 10
9.665019762549317
 20
-0.4574309451719054
 30
0.0
 10
9.331007830151378
 20
-0.124590396458231
 30
0.0
 10
9.165846982751058
 20
0.0417510572102406
 30
0.0
 10
9.000237136938779
 20
0.2078631895658761
 30
0.0
  0
LINE
  5
C5
330
1F
100
AcDbEntity
  8
외형선
  6
Continuous
370
    15
100
AcDbLine
 10
9.000237136938786
 20
-4.761425071276097
 30
0.0
 11
9.000237136938786
 21
-4.016076675653497
 31
0.0
  0
SPLINE
  5
C6
330
1F
100
AcDbEntity
  8
외형선
  6
Continuous
370
    15
100
AcDbSpline
210
0.0
220
0.0
230
1.0
 70
     8
 71
     3
 72
     9
 73
     5
 74
     0
 42
0.000000001
 43
0.00000001
 40
0.0
 40
0.0
 40
0.0
 40
0.0
 40
0.637183967011109
 40
1.0
 40
1.0
 40
1.0
 40
1.0
 10
9.000237136938786
 20
-4.626728509660841
 30
0.0
 10
9.166014057323602
 20
-4.584223922084698
 30
0.0
 10
9.42618526213662
 20
-4.517516990057637
 30
0.0
 10
9.687454729300429
 20
-4.412562406163429
 30
0.0
 10
9.78224748091793
 20
-4.374483200390931
 30
0.0
  0
LINE
  5
C7
330
1F
100
AcDbEntity
  8
외형선
  6
Continuous
370
    15
100
AcDbLine
 10
9.999999999999876
 20
4.46307524502227
 30
0.0
 11
9.782247480917889
 21
4.376633057838736
 31
0.0
  0
LINE
  5
C8
330
1F
100
AcDbEntity
  8
외형선
  6
Continuous
370
    15
100
AcDbLine
 10
9.000237136938786
 20
4.628874766941512
 30
0.0
 11
9.000237136938786
 21
4.763574928723901
 31
0.0
  0
SPLINE
  5
C9
330
1F
100
AcDbEntity
  8
외형선
  6
Continuous
370
    15
100
AcDbSpline
210
0.0
220
0.0
230
1.0
 70
     8
 71
     3
 72
    10
 73
     6
 74
     0
 42
0.000000001
 43
0.00000001
 40
0.0
 40
0.0
 40
0.0
 40
0.0
 40
0.5
 40
0.5
 40
1.0
 40
1.0
 40
1.0
 40
1.0
 10
9.999999999999869
 20
4.292972319421939
 30
0.0
 10
9.832810414882283
 20
4.36526686105981
 30
0.0
 10
9.665019762549317
 20
4.429729249233889
 30
0.0
 10
9.331007830151352
 20
4.541942605528477
 30
0.0
 10
9.165846982751017
 20
4.589614397230795
 30
0.0
 10
9.000237136938786
 20
4.628878367108637
 30
0.0
  0
SPLINE
  5
CA
330
1F
100
AcDbEntity
  8
외형선
  6
Continuous
370
    15
100
AcDbSpline
210
0.0
220
0.0
230
1.0
 70
     8
 71
     3
 72
    10
 73
     6
 74
     0
 42
0.000000001
 43
0.00000001
 40
0.0
 40
0.0
 40
0.0
 40
0.0
 40
0.4999999999999998
 40
0.4999999999999998
 40
1.0
 40
1.0
 40
1.0
 40
1.0
 10
9.999999999999876
 20
3.673938315655525
 30
0.0
 10
9.832810414882305
 20
3.780117970528531
 30
0.0
 10
9.665019762549303
 20
3.879647957795215
 30
0.0
 10
9.331007830151364
 20
4.063779935811126
 30
0.0
 10
9.165846982751072
 20
4.148221420466759
 30
0.0
 10
9.000237136938779
 20
4.225025289665653
 30
0.0
  0
SPLINE
  5
CB
330
1F
100
AcDbEntity
  8
외형선
  6
Continuous
370
    15
100
AcDbSpline
210
0.0
220
0.0
230
1.0
 70
     8
 71
     3
 72
    10
 73
     6
 74
     0
 42
0.000000001
 43
0.00000001
 40
0.0
 40
0.0
 40
0.0
 40
0.0
 40
0.5
 40
0.5
 40
1.0
 40
1.0
 40
1.0
 40
1.0
 10
9.999999999999869
 20
0.3593527152394272
 30
0.0
 10
9.832810414882283
 20
0.5256752687757025
 30
0.0
 10
9.665019762549317
 20
0.6915351077529811
 30
0.0
 10
9.331007830151352
 20
1.019592056353072
 30
0.0
 10
9.165846982751017
 20
1.181447061166593
 30
0.0
 10
9.000237136938786
 20
1.340999651650013
 30
0.0
  0
LINE
  5
CC
330
1F
100
AcDbEntity
  8
외형선
  6
Continuous
370
    15
100
AcDbLine
 10
9.000237136938786
 20
-3.286814816073456
 30
0.0
 11
9.000237136938786
 21
0.2078827113994154
 31
0.0
  0
SPLINE
  5
CD
330
1F
100
AcDbEntity
  8
외형선
  6
Continuous
370
    15
100
AcDbSpline
210
0.0
220
0.0
230
1.0
 70
     8
 71
     3
 72
    10
 73
     6
 74
     0
 42
0.000000001
 43
0.00000001
 40
0.0
 40
0.0
 40
0.0
 40
0.0
 40
0.5
 40
0.5
 40
1.0
 40
1.0
 40
1.0
 40
1.0
 10
9.999999999999876
 20
-4.460925387574454
 30
0.0
 10
9.83281041488229
 20
-4.402615527121812
 30
0.0
 10
9.665019762549317
 20
-4.336003974243188
 30
0.0
 10
9.331007830151378
 20
-4.187295403545422
 30
0.0
 10
9.165846982751058
 20
-4.105395434532581
 30
0.0
 10
9.000237136938779
 20
-4.01608717137584
 30
0.0
  0
LINE
  5
CE
330
1F
100
AcDbEntity
  8
외형선
  6
Continuous
370
    15
100
AcDbLine
 10
-39.84750000000004
 20
0.0010749287239018
 30
0.0
 11
-39.84750000000004
 21
4.763574928723901
 31
0.0
  0
LINE
  5
CF
330
1F
100
AcDbEntity
  8
외형선
  6
Continuous
370
    15
100
AcDbLine
 10
-39.84750000000004
 20
-4.761425071276094
 30
0.0
 11
-39.84750000000004
 21
0.0010749287239018
 31
0.0
  0
LINE
  5
D0
330
1F
100
AcDbEntity
  8
외형선
  6
Continuous
370
    15
100
AcDbLine
 10
9.000237136938786
 20
1.340985022144159
 30
0.0
 11
9.000237136938786
 21
4.22503431577685
 31
0.0
  0
LINE
  5
D1
330
1F
100
AcDbEntity
  8
외형선
  6
Continuous
370
    15
100
AcDbLine
 10
-40.80000000000004
 20
0.0010749287239018
 30
0.0
 11
-40.80000000000004
 21
3.811074928723905
 31
0.0
  0
LINE
  5
D2
330
1F
100
AcDbEntity
  8
외형선
  6
Continuous
370
    15
100
AcDbLine
 10
-40.80000000000004
 20
-3.808925071276102
 30
0.0
 11
-40.80000000000004
 21
0.0010749287239018
 31
0.0
  0
SPLINE
  5
D3
330
1F
100
AcDbEntity
  8
외형선
  6
Continuous
370
    15
100
AcDbSpline
210
0.0
220
0.0
230
1.0
 70
    24
 71
     3
 72
    21
 73
    17
 74
     0
 42
0.000000001
 43
0.00000001
 40
0.0
 40
0.0
 40
0.0
 40
0.0
 40
0.0642517604967461
 40
0.133936910393877
 40
0.2036220602910078
 40
0.2733072101881396
 40
0.3429923600852715
 40
0.4126775099824047
 40
0.4823626598795379
 40
0.5520478097766672
 40
0.6217329596737965
 40
0.6914181095709235
 40
0.7611032594680506
 40
0.8307884093651896
 40
0.9004735592623289
 40
1.0
 40
1.0
 40
1.0
 40
1.0
 10
9.999999999999972
 20
0.2906504712801579
 30
0.0
 10
9.999999999999966
 20
0.2982782288879253
 30
0.0
 10
9.999999999999945
 20
0.3141787782163674
 30
0.0
 10
9.99999999999996
 20
0.4054022995100355
 30
0.0
 10
10.00000000000001
 20
0.5441300583475494
 30
0.0
 10
9.999999999999966
 20
0.7318288675370349
 30
0.0
 10
9.99999999999993
 20
0.9597912127305968
 30
0.0
 10
9.999999999999966
 20
1.223538305935004
 30
0.0
 10
10.00000000000001
 20
1.514185921795346
 30
0.0
 10
9.999999999999952
 20
1.824470183285619
 30
0.0
 10
9.999999999999904
 20
2.144985573212625
 30
0.0
 10
9.99999999999996
 20
2.466797168718761
 30
0.0
 10
9.99999999999996
 20
2.781204386660564
 30
0.0
 10
9.999999999999966
 20
3.077650206264509
 30
0.0
 10
9.999999999999945
 20
3.392061728632652
 30
0.0
 10
9.999999999999945
 20
3.569546044522661
 30
0.0
 10
9.999999999999952
 20
3.673938315649146
 30
0.0
  0
LINE
  5
D4
330
1F
100
AcDbEntity
  8
외형선
  6
Continuous
370
    15
100
AcDbLine
 10
9.99999999999996
 20
4.343932014870742
 30
0.0
 11
9.999999999999945
 21
4.463075245012345
 31
0.0
  0
LINE
  5
D5
330
1F
100
AcDbEntity
  8
중심선
 48
0.8
100
AcDbLine
 10
-43.80000000000003
 20
0.0010749287238931
 30
0.0
 11
35.22499999999998
 21
0.0010749287238989
 31
0.0
  0
LINE
  5
D6
330
1F
100
AcDbEntity
  8
참조1
100
AcDbLine
 10
-10.63749999999999
 20
0.0010749287238892
 30
0.0
 11
-10.63749999999999
 21
-39.99892507127611
 31
0.0
  0
LINE
  5
D7
330
1F
100
AcDbEntity
  8
참조1
100
AcDbLine
 10
-10.63749999999999
 20
-39.99892507127611
 30
0.0
 11
-13.09635681430868
 21
-39.9989250712761
 31
0.0
  0
CIRCLE
  5
D8
330
1F
100
AcDbEntity
  8
해칭선
100
AcDbCircle
 10
0.0
 20
0.0
 30
0.0
 40
3.000000000000001
  0
INSERT
  5
D9
330
1F
100
AcDbEntity
  8
0
  6
Continuous
 62
     7
100
AcDbBlockReference
 66
     1
  2
블럭10
 10
-24.5777729321252
 20
-52.04609937292004
 30
0.0
  0
ATTRIB
  5
DA
330
D9
100
AcDbEntity
  8
FORMAT
 62
     2
100
AcDbText
 10
-34.71940894426183
 20
-49.97073246008785
 30
0.0
 40
4.233333333333333
  1
EM208024 [ 6 FLUTE ]
 41
0.75
  7
SLDTEXTSTYLE0
 11
-34.71940894426183
 21
-52.08739912675452
 31
0.0
100
AcDbAttribute
  2
AUTOATTR0
 70
     0
 74
     1
  0
SEQEND
  5
DB
330
D9
100
AcDbEntity
  8
0
  6
Continuous
 62
     7
  0
HATCH
  5
DC
330
1F
100
AcDbEntity
  8
중심선
100
AcDbHatch
 10
0.0
 20
0.0
 30
0.0
210
0.0
220
0.0
230
1.0
  2
SOLID
 70
     1
 71
     0
 91
        1
 92
        0
 93
        4
 72
     1
 10
-18.86286362774436
 20
-35.7989250712761
 11
-22.30913887158164
 21
-35.7989250712761
 72
     1
 10
-22.30913887158164
 20
-35.7989250712761
 11
-24.43736873078567
 21
-38.3352506518487
 72
     1
 10
-24.43736873078567
 20
-38.3352506518487
 11
-20.99106040183524
 21
-38.33521122254621
 72
     1
 10
-20.99106040183524
 20
-38.33521122254621
 11
-18.86286362774436
 21
-35.7989250712761
 97
        0
 75
     0
 76
     1
 98
        1
 10
0.0
 20
0.0
  0
HATCH
  5
DD
330
1F
100
AcDbEntity
  8
중심선
100
AcDbHatch
 10
0.0
 20
0.0
 30
0.0
210
0.0
220
0.0
230
1.0
  2
SOLID
 70
     1
 71
     0
 91
        1
 92
        0
 93
        4
 72
     1
 10
-13.85009963670841
 20
-35.7989250712761
 11
-17.29637488054567
 21
-35.79892507127613
 72
     1
 10
-17.29637488054567
 20
-35.79892507127613
 11
-21.82751288890308
 21
-41.19892507127612
 72
     1
 10
-21.82751288890308
 20
-41.19892507127612
 11
-18.3812376450658
 21
-41.19892507127612
 72
     1
 10
-18.3812376450658
 20
-41.19892507127612
 11
-13.85009963670841
 21
-35.7989250712761
 97
        0
 75
     0
 76
     1
 98
        1
 10
0.0
 20
0.0
  0
HATCH
  5
DE
330
1F
100
AcDbEntity
  8
중심선
100
AcDbHatch
 10
0.0
 20
0.0
 30
0.0
210
0.0
220
0.0
230
1.0
  2
SOLID
 70
     1
 71
     0
 91
        1
 92
        0
 93
        4
 72
     1
 10
-8.837335645672518
 20
-35.7989250712761
 11
-12.28361088950961
 21
-35.7989250712761
 72
     1
 10
-12.28361088950961
 20
-35.7989250712761
 11
-19.33204779139888
 21
-44.19892507127612
 72
     1
 10
-19.33204779139888
 20
-44.19892507127612
 11
-15.8857725475616
 21
-44.19892507127612
 72
     1
 10
-15.8857725475616
 20
-44.19892507127612
 11
-8.837335645672518
 21
-35.7989250712761
 97
        0
 75
     0
 76
     1
 98
        1
 10
0.0
 20
0.0
  0
HATCH
  5
DF
330
1F
100
AcDbEntity
  8
중심선
100
AcDbHatch
 10
0.0
 20
0.0
 30
0.0
210
0.0
220
0.0
230
1.0
  2
SOLID
 70
     1
 71
     0
 91
        1
 92
        0
 93
        6
 72
     3
 10
-4.037445214660318
 20
-39.99892507132738
 11
3.960054785062284
 21
1.540850780301639E-10
 40
0.3939339440162633
 50
17.09539180608433
 51
320.0019657685079
 73
     0
 72
     1
 10
-2.354445558959722
 20
-38.58681907591441
 11
-0.0491436852586844
 21
-36.65249236586649
 72
     3
 10
-4.037445214713165
 20
-39.99892507127625
 11
6.600054785286829
 21
-1.249000902703301E-13
 40
0.6363583540795982
 50
39.99873849337408
 51
368.4976242363725
 73
     1
 72
     1
 10
2.387887277187445
 20
-39.03892507120613
 11
-5.357377907877242
 21
-39.03892507120613
 72
     1
 10
-5.357377907877242
 20
-39.03892507120613
 11
-5.357402952323175
 21
-40.95892507120602
 72
     1
 10
-5.357402952323175
 20
-40.95892507120602
 11
-0.9160231828511387
 21
-40.95892507120599
 97
        0
 75
     0
 76
     1
 98
        1
 10
0.0
 20
0.0
  0
DIMENSION
  5
E0
330
1F
100
AcDbEntity
  8
치수문자_일반주서
100
AcDbDimension
  2
_D
 10
47.25051877782288
 20
-4.726670969957945
 30
0.0
 11
47.25051877782287
 21
-1.000682364080394
 31
0.0
 70
   160
  1
%%c<>
 71
     2
 42
9.517991797363809
 52
-270.0
  3
SLDDIMSTYLE0
100
AcDbAlignedDimension
 13
32.22499999999997
 23
4.791320827405809
 33
0.0
 14
32.22499999999997
 24
-4.726670969958001
 34
0.0
 50
90.0000000000002
100
AcDbRotatedDimension
1001
ACAD
1000
DSTYLE
1002
{
1070
   171
1070
     6
1070
   273
1070
     7
1002
}
  0
DIMENSION
  5
F5
330
1F
100
AcDbEntity
  8
치수문자_일반주서
100
AcDbDimension
  2
_D_1
 10
-54.75250000000004
 20
-4.761425071276155
 30
0.0
 11
-54.75250000000006
 21
0.0010749287239044
 31
0.0
 70
   160
  1
%%c<>
 71
     2
 42
9.525000000000006
 52
-270.0
  3
SLDDIMSTYLE0
100
AcDbAlignedDimension
 13
-39.84750000000005
 23
4.763574928723905
 33
0.0
 14
-39.84750000000005
 24
-4.761425071276101
 34
0.0
 50
90.0000000000002
100
AcDbRotatedDimension
1001
ACAD
1000
DSTYLE
1002
{
1070
   171
1070
     6
1070
   273
1070
     7
1002
}
  0
DIMENSION
  5
109
330
1F
100
AcDbEntity
  8
치수문자_일반주서
100
AcDbDimension
  2
_D_2
 10
9.999999999999945
 20
35.33044329059607
 30
0.0
 11
21.11249999999995
 21
35.33044329059607
 31
0.0
 70
   160
  1
<>
 71
     2
 42
22.22500000000002
  3
SLDDIMSTYLE0
100
AcDbAlignedDimension
 13
32.22499999999997
 23
4.728820827405809
 33
0.0
 14
9.999999999999945
 24
4.463075245012345
 34
0.0
100
AcDbRotatedDimension
1001
ACAD
1000
DSTYLE
1002
{
1070
   171
1070
     6
1070
   273
1070
     7
1002
}
  0
DIMENSION
  5
11E
330
1F
100
AcDbEntity
  8
치수문자_일반주서
100
AcDbDimension
  2
_D_3
 10
-40.80000000000004
 20
47.33044329059609
 30
0.0
 11
-4.287500000000036
 21
47.33044329059609
 31
0.0
 70
   160
  1
<>
 71
     2
 42
73.025
  3
SLDDIMSTYLE0
100
AcDbAlignedDimension
 13
32.22499999999997
 23
4.728820827405809
 33
0.0
 14
-40.80000000000004
 24
3.811074928723905
 34
0.0
 50
0.0000000000000056
100
AcDbRotatedDimension
1001
ACAD
1000
DSTYLE
1002
{
1070
   171
1070
     6
1070
   273
1070
     7
1002
}
  0
LINE
  5
132
330
1F
100
AcDbEntity
  8
참조1
100
AcDbLine
 10
84.87598381534559
 20
7.441074928723896
 30
0.0
 11
84.87598381534559
 21
-7.438925071276109
 31
0.0
  0
LINE
  5
133
330
1F
100
AcDbEntity
  8
참조1
100
AcDbLine
 10
97.5759838153456
 20
5.441074928723896
 30
0.0
 11
84.87598381534559
 21
5.441074928723896
 31
0.0
  0
SOLID
  5
134
330
1F
100
AcDbEntity
  8
참조1
100
AcDbTrace
 10
84.87598381534559
 20
5.441074928723896
 30
0.0
 11
91.22598381534559
 21
4.425074928723896
 31
0.0
 12
91.22598381534559
 22
6.457074928723896
 32
0.0
 13
91.22598381534559
 23
6.457074928723896
 33
0.0
  0
LINE
  5
135
330
1F
100
AcDbEntity
  8
참조1
100
AcDbLine
 10
97.5759838153456
 20
-5.438925071276109
 30
0.0
 11
84.87598381534559
 21
-5.438925071276109
 31
0.0
  0
SOLID
  5
136
330
1F
100
AcDbEntity
  8
참조1
100
AcDbTrace
 10
84.87598381534559
 20
-5.438925071276109
 30
0.0
 11
91.22598381534559
 21
-6.454925071276109
 31
0.0
 12
91.22598381534559
 22
-4.422925071276109
 32
0.0
 13
91.22598381534559
 23
-4.422925071276109
 33
0.0
  0
MTEXT
  5
137
330
1F
100
AcDbEntity
  8
참조1
100
AcDbMText
 10
94.27347390781586
 20
10.98929157337383
 30
0.0
 40
3.5
 41
0.0
 71
     1
 72
     1
  1
A
  7
SLDTEXTSTYLE0
 73
     1
 44
1.0
  0
MTEXT
  5
138
330
1F
100
AcDbEntity
  8
참조1
100
AcDbMText
 10
94.27347390781586
 20
0.1092915733738259
 30
0.0
 40
3.5
 41
0.0
 71
     1
 72
     1
  1
A
  7
SLDTEXTSTYLE0
 73
     1
 44
1.0
  0
INSERT
  5
13F
330
1F
100
AcDbEntity
  8
해칭선
100
AcDbBlockReference
  2
SW_DOWELSYMBOL_0
 10
0.0
 20
0.0
 30
0.0
  0
ENDSEC
  0
SECTION
  2
OBJECTS
  0
DICTIONARY
  5
C
330
0
100
AcDbDictionary
281
     1
  3
ACAD_GROUP
350
D
  3
ACAD_IMAGE_VARS
350
163
  3
ACAD_LAYOUT
350
1A
  3
ACAD_MLINESTYLE
350
17
  3
ACAD_PLOTSETTINGS
350
19
  3
ACAD_PLOTSTYLENAME
350
E
  3
ACAD_SCALELIST
350
47
  3
APPDATA
350
161
  3
DWGPROPS
350
192
  0
DICTIONARY
  5
18A
330
2
100
AcDbDictionary
280
     1
281
     1
  3
ACAD_LAYERSTATES
360
18B
  0
DICTIONARY
  5
D
102
{ACAD_REACTORS
330
C
102
}
330
C
100
AcDbDictionary
281
     1
  0
RASTERVARIABLES
  5
163
102
{ACAD_REACTORS
330
C
102
}
330
C
100
AcDbRasterVariables
 90
        0
 70
     1
 71
     1
 72
     1
  0
DICTIONARY
  5
1A
102
{ACAD_REACTORS
330
C
102
}
330
C
100
AcDbDictionary
281
     1
  3
Layout1
350
1E
  3
Layout2
350
26
  3
Model
350
22
  0
DICTIONARY
  5
17
102
{ACAD_REACTORS
330
C
102
}
330
C
100
AcDbDictionary
281
     1
  3
Standard
350
18
  0
DICTIONARY
  5
19
102
{ACAD_REACTORS
330
C
102
}
330
C
100
AcDbDictionary
281
     1
  0
ACDBDICTIONARYWDFLT
  5
E
102
{ACAD_REACTORS
330
C
102
}
330
C
100
AcDbDictionary
281
     1
  3
Normal
350
F
100
AcDbDictionaryWithDefault
340
F
  0
DICTIONARY
  5
47
102
{ACAD_REACTORS
330
C
102
}
330
C
100
AcDbDictionary
281
     1
  3
A0
350
48
  3
A1
350
49
  3
A2
350
4A
  3
A3
350
4B
  3
A4
350
4C
  3
A5
350
4D
  3
A6
350
4E
  3
A7
350
4F
  3
A8
350
50
  3
A9
350
51
  3
B0
350
52
  3
B1
350
53
  3
B2
350
54
  3
B3
350
55
  3
B4
350
56
  3
B5
350
57
  3
B6
350
58
  3
B7
350
59
  3
B8
350
5A
  3
B9
350
5B
  3
C0
350
5C
  3
C1
350
5D
  3
C2
350
5E
  3
C3
350
5F
  3
C4
350
60
  3
C5
350
61
  3
C6
350
62
  3
C7
350
63
  3
C8
350
64
  3
C9
350
65
  3
D0
350
66
  3
D1
350
67
  3
D2
350
68
  0
DICTIONARY
  5
161
102
{ACAD_REACTORS
330
C
102
}
330
C
100
AcDbDictionary
281
     1
  0
XRECORD
  5
192
102
{ACAD_REACTORS
330
C
102
}
330
C
100
AcDbXrecord
280
     1
  1
DWGPROPS COOKIE
  2

  3

  4

  6

  7

  8
12017012
  9

300
=
301
=
302
=
303
=
304
=
305
=
306
=
307
=
308
=
309
=
 40
0.0
 41
2458292.270732604
 42
2458295.442389896
  1

 90
        0
  0
DICTIONARY
  5
18B
102
{ACAD_REACTORS
330
18A
102
}
330
18A
100
AcDbDictionary
281
     1
  0
LAYOUT
  5
1E
102
{ACAD_REACTORS
330
1A
102
}
330
1A
100
AcDbPlotSettings
  1

  2
none_device
  4

  6

 40
0.0
 41
0.0
 42
0.0
 43
0.0
 44
0.0
 45
0.0
 46
0.0
 47
0.0
 48
0.0
 49
0.0
140
0.0
141
0.0
142
1.0
143
1.0
 70
   688
 72
     1
 73
     0
 74
     5
  7

 75
    16
147
1.0
148
0.0
149
0.0
100
AcDbLayout
  1
Layout1
 70
     1
 71
     1
 10
0.0
 20
0.0
 11
420.0
 21
297.0
 12
0.0
 22
0.0
 32
0.0
 14
1.000000000000000E+20
 24
1.000000000000000E+20
 34
1.000000000000000E+20
 15
-1.000000000000000E+20
 25
-1.000000000000000E+20
 35
-1.000000000000000E+20
146
0.0
 13
0.0
 23
0.0
 33
0.0
 16
1.0
 26
0.0
 36
0.0
 17
0.0
 27
1.0
 37
0.0
 76
     0
330
1B
  0
LAYOUT
  5
26
102
{ACAD_REACTORS
330
1A
102
}
330
1A
100
AcDbPlotSettings
  1

  2
none_device
  4

  6

 40
0.0
 41
0.0
 42
0.0
 43
0.0
 44
0.0
 45
0.0
 46
0.0
 47
0.0
 48
0.0
 49
0.0
140
0.0
141
0.0
142
1.0
143
1.0
 70
   688
 72
     1
 73
     0
 74
     5
  7

 75
    16
147
1.0
148
0.0
149
0.0
100
AcDbLayout
  1
Layout2
 70
     1
 71
     2
 10
0.0
 20
0.0
 11
0.0
 21
0.0
 12
0.0
 22
0.0
 32
0.0
 14
0.0
 24
0.0
 34
0.0
 15
0.0
 25
0.0
 35
0.0
146
0.0
 13
0.0
 23
0.0
 33
0.0
 16
1.0
 26
0.0
 36
0.0
 17
0.0
 27
1.0
 37
0.0
 76
     0
330
23
  0
LAYOUT
  5
22
102
{ACAD_REACTORS
330
1A
102
}
330
1A
100
AcDbPlotSettings
  1

  2
none_device
  4
ANSI_A_(11.00_x_8.50_Inches)
  6

 40
6.35
 41
19.05
 42
6.35000508
 43
19.05000254
 44
279.4
 45
215.9
 46
111.0084882656882
 47
82.92523798006536
 48
0.0
 49
0.0
140
0.0
141
0.0
142
0.0635007828719443
143
1.0
 70
  1696
 72
     0
 73
     0
 74
     0
  7

 75
     0
147
0.0235690232323232
148
0.0
149
0.0
100
AcDbLayout
  1
Model
 70
     1
 71
     0
 10
0.0
 20
0.0
 11
420.0
 21
297.0
 12
0.0
 22
0.0
 32
0.0
 14
1.000000000000000E+20
 24
1.000000000000000E+20
 34
1.000000000000000E+20
 15
-1.000000000000000E+20
 25
-1.000000000000000E+20
 35
-1.000000000000000E+20
146
0.0
 13
0.0
 23
0.0
 33
0.0
 16
1.0
 26
0.0
 36
0.0
 17
0.0
 27
1.0
 37
0.0
 76
     0
330
1F
331
29
  0
MLINESTYLE
  5
18
102
{ACAD_REACTORS
330
17
102
}
330
17
100
AcDbMlineStyle
  2
Standard
 70
     0
  3

 62
   256
 51
90.0
 52
90.0
 71
     2
 49
0.5
 62
   256
  6
BYLAYER
 49
-0.5
 62
   256
  6
BYLAYER
  0
ACDBPLACEHOLDER
  5
F
102
{ACAD_REACTORS
330
E
102
}
330
E
  0
SCALE
  5
48
102
{ACAD_REACTORS
330
47
102
}
330
47
100
AcDbScale
 70
     0
300
1:1
140
1.0
141
1.0
290
     1
  0
SCALE
  5
49
102
{ACAD_REACTORS
330
47
102
}
330
47
100
AcDbScale
 70
     0
300
1:2
140
1.0
141
2.0
290
     0
  0
SCALE
  5
4A
102
{ACAD_REACTORS
330
47
102
}
330
47
100
AcDbScale
 70
     0
300
1:4
140
1.0
141
4.0
290
     0
  0
SCALE
  5
4B
102
{ACAD_REACTORS
330
47
102
}
330
47
100
AcDbScale
 70
     0
300
1:5
140
1.0
141
5.0
290
     0
  0
SCALE
  5
4C
102
{ACAD_REACTORS
330
47
102
}
330
47
100
AcDbScale
 70
     0
300
1:8
140
1.0
141
8.0
290
     0
  0
SCALE
  5
4D
102
{ACAD_REACTORS
330
47
102
}
330
47
100
AcDbScale
 70
     0
300
1:10
140
1.0
141
10.0
290
     0
  0
SCALE
  5
4E
102
{ACAD_REACTORS
330
47
102
}
330
47
100
AcDbScale
 70
     0
300
1:16
140
1.0
141
16.0
290
     0
  0
SCALE
  5
4F
102
{ACAD_REACTORS
330
47
102
}
330
47
100
AcDbScale
 70
     0
300
1:20
140
1.0
141
20.0
290
     0
  0
SCALE
  5
50
102
{ACAD_REACTORS
330
47
102
}
330
47
100
AcDbScale
 70
     0
300
1:30
140
1.0
141
30.0
290
     0
  0
SCALE
  5
51
102
{ACAD_REACTORS
330
47
102
}
330
47
100
AcDbScale
 70
     0
300
1:40
140
1.0
141
40.0
290
     0
  0
SCALE
  5
52
102
{ACAD_REACTORS
330
47
102
}
330
47
100
AcDbScale
 70
     0
300
1:50
140
1.0
141
50.0
290
     0
  0
SCALE
  5
53
102
{ACAD_REACTORS
330
47
102
}
330
47
100
AcDbScale
 70
     0
300
1:100
140
1.0
141
100.0
290
     0
  0
SCALE
  5
54
102
{ACAD_REACTORS
330
47
102
}
330
47
100
AcDbScale
 70
     0
300
2:1
140
2.0
141
1.0
290
     0
  0
SCALE
  5
55
102
{ACAD_REACTORS
330
47
102
}
330
47
100
AcDbScale
 70
     0
300
4:1
140
4.0
141
1.0
290
     0
  0
SCALE
  5
56
102
{ACAD_REACTORS
330
47
102
}
330
47
100
AcDbScale
 70
     0
300
8:1
140
8.0
141
1.0
290
     0
  0
SCALE
  5
57
102
{ACAD_REACTORS
330
47
102
}
330
47
100
AcDbScale
 70
     0
300
10:1
140
10.0
141
1.0
290
     0
  0
SCALE
  5
58
102
{ACAD_REACTORS
330
47
102
}
330
47
100
AcDbScale
 70
     0
300
100:1
140
100.0
141
1.0
290
     0
  0
SCALE
  5
59
102
{ACAD_REACTORS
330
47
102
}
330
47
100
AcDbScale
 70
     0
300
1/128" = 1'-0"
140
0.0078125
141
12.0
290
     0
  0
SCALE
  5
5A
102
{ACAD_REACTORS
330
47
102
}
330
47
100
AcDbScale
 70
     0
300
1/64" = 1'-0"
140
0.015625
141
12.0
290
     0
  0
SCALE
  5
5B
102
{ACAD_REACTORS
330
47
102
}
330
47
100
AcDbScale
 70
     0
300
1/32" = 1'-0"
140
0.03125
141
12.0
290
     0
  0
SCALE
  5
5C
102
{ACAD_REACTORS
330
47
102
}
330
47
100
AcDbScale
 70
     0
300
1/16" = 1'-0"
140
0.0625
141
12.0
290
     0
  0
SCALE
  5
5D
102
{ACAD_REACTORS
330
47
102
}
330
47
100
AcDbScale
 70
     0
300
3/32" = 1'-0"
140
0.09375
141
12.0
290
     0
  0
SCALE
  5
5E
102
{ACAD_REACTORS
330
47
102
}
330
47
100
AcDbScale
 70
     0
300
1/8" = 1'-0"
140
0.125
141
12.0
290
     0
  0
SCALE
  5
5F
102
{ACAD_REACTORS
330
47
102
}
330
47
100
AcDbScale
 70
     0
300
3/16" = 1'-0"
140
0.1875
141
12.0
290
     0
  0
SCALE
  5
60
102
{ACAD_REACTORS
330
47
102
}
330
47
100
AcDbScale
 70
     0
300
1/4" = 1'-0"
140
0.25
141
12.0
290
     0
  0
SCALE
  5
61
102
{ACAD_REACTORS
330
47
102
}
330
47
100
AcDbScale
 70
     0
300
3/8" = 1'-0"
140
0.375
141
12.0
290
     0
  0
SCALE
  5
62
102
{ACAD_REACTORS
330
47
102
}
330
47
100
AcDbScale
 70
     0
300
1/2" = 1'-0"
140
0.5
141
12.0
290
     0
  0
SCALE
  5
63
102
{ACAD_REACTORS
330
47
102
}
330
47
100
AcDbScale
 70
     0
300
3/4" = 1'-0"
140
0.75
141
12.0
290
     0
  0
SCALE
  5
64
102
{ACAD_REACTORS
330
47
102
}
330
47
100
AcDbScale
 70
     0
300
1" = 1'-0"
140
1.0
141
12.0
290
     0
  0
SCALE
  5
65
102
{ACAD_REACTORS
330
47
102
}
330
47
100
AcDbScale
 70
     0
300
1-1/2" = 1'-0"
140
1.5
141
12.0
290
     0
  0
SCALE
  5
66
102
{ACAD_REACTORS
330
47
102
}
330
47
100
AcDbScale
 70
     0
300
3" = 1'-0"
140
3.0
141
12.0
290
     0
  0
SCALE
  5
67
102
{ACAD_REACTORS
330
47
102
}
330
47
100
AcDbScale
 70
     0
300
6" = 1'-0"
140
6.0
141
12.0
290
     0
  0
SCALE
  5
68
102
{ACAD_REACTORS
330
47
102
}
330
47
100
AcDbScale
 70
     0
300
1'-0" = 1'-0"
140
12.0
141
12.0
290
     0
  0
ENDSEC
  0
EOF
