  0
SECTION
  2
HEADER
  9
$ACADVER
  1
AC1015
  9
$ACADMAINTVER
 70
     6
  9
$DWGCODEPAGE
  3
ANSI_949
  9
$INSBASE
 10
0.0
 20
0.0
 30
0.0
  9
$EXTMIN
 10
1.000000000000000E+20
 20
1.000000000000000E+20
 30
1.000000000000000E+20
  9
$EXTMAX
 10
-1.000000000000000E+20
 20
-1.000000000000000E+20
 30
-1.000000000000000E+20
  9
$LIMMIN
 10
0.0
 20
0.0
  9
$LIMMAX
 10
420.0
 20
297.0
  9
$ORTHOMODE
 70
     0
  9
$REGENMODE
 70
     1
  9
$FILLMODE
 70
     1
  9
$QTEXTMODE
 70
     0
  9
$MIRRTEXT
 70
     1
  9
$LTSCALE
 40
1.0
  9
$ATTMODE
 70
     1
  9
$TEXTSIZE
 40
3.5
  9
$TRACEWID
 40
1.0
  9
$TEXTSTYLE
  7
Standard
  9
$CLAYER
  8
0
  9
$CELTYPE
  6
ByLayer
  9
$CECOLOR
 62
   256
  9
$CELTSCALE
 40
1.0
  9
$DISPSILH
 70
     0
  9
$DIMSCALE
 40
1.0
  9
$DIMASZ
 40
3.302
  9
$DIMEXO
 40
1.0
  9
$DIMDLI
 40
3.75
  9
$DIMRND
 40
0.0
  9
$DIMDLE
 40
0.0
  9
$DIMEXE
 40
1.0
  9
$DIMTP
 40
0.0
  9
$DIMTM
 40
0.0
  9
$DIMTXT
 40
3.5
  9
$DIMCEN
 40
2.5
  9
$DIMTSZ
 40
0.0
  9
$DIMTOL
 70
     0
  9
$DIMLIM
 70
     0
  9
$DIMTIH
 70
     1
  9
$DIMTOH
 70
     1
  9
$DIMSE1
 70
     0
  9
$DIMSE2
 70
     0
  9
$DIMTAD
 70
     1
  9
$DIMZIN
 70
     0
  9
$DIMBLK
  1

  9
$DIMASO
 70
     1
  9
$DIMSHO
 70
     1
  9
$DIMPOST
  1

  9
$DIMAPOST
  1

  9
$DIMALT
 70
     0
  9
$DIMALTD
 70
     3
  9
$DIMALTF
 40
0.0393700787401575
  9
$DIMLFAC
 40
1.0
  9
$DIMTOFL
 70
     1
  9
$DIMTVP
 40
0.0
  9
$DIMTIX
 70
     0
  9
$DIMSOXD
 70
     0
  9
$DIMSAH
 70
     0
  9
$DIMBLK1
  1

  9
$DIMBLK2
  1

  9
$DIMSTYLE
  2
ISO-25
  9
$DIMCLRD
 70
     0
  9
$DIMCLRE
 70
     0
  9
$DIMCLRT
 70
     0
  9
$DIMTFAC
 40
1.0
  9
$DIMGAP
 40
1.524
  9
$DIMJUST
 70
     0
  9
$DIMSD1
 70
     0
  9
$DIMSD2
 70
     0
  9
$DIMTOLJ
 70
     0
  9
$DIMTZIN
 70
     0
  9
$DIMALTZ
 70
     0
  9
$DIMALTTZ
 70
     0
  9
$DIMUPT
 70
     0
  9
$DIMDEC
 70
     2
  9
$DIMTDEC
 70
     2
  9
$DIMALTU
 70
     2
  9
$DIMALTTD
 70
     3
  9
$DIMTXSTY
  7
Standard
  9
$DIMAUNIT
 70
     0
  9
$DIMADEC
 70
     2
  9
$DIMALTRND
 40
0.0
  9
$DIMAZIN
 70
     0
  9
$DIMDSEP
 70
    44
  9
$DIMATFIT
 70
     3
  9
$DIMFRAC
 70
     0
  9
$DIMLDRBLK
  1

  9
$DIMLUNIT
 70
     2
  9
$DIMLWD
 70
    -2
  9
$DIMLWE
 70
    -2
  9
$DIMTMOVE
 70
     0
  9
$LUNITS
 70
     2
  9
$LUPREC
 70
     2
  9
$SKETCHINC
 40
1.0
  9
$FILLETRAD
 40
10.0
  9
$AUNITS
 70
     0
  9
$AUPREC
 70
     2
  9
$MENU
  1
.
  9
$ELEVATION
 40
0.0
  9
$PELEVATION
 40
0.0
  9
$THICKNESS
 40
0.0
  9
$LIMCHECK
 70
     0
  9
$CHAMFERA
 40
0.0
  9
$CHAMFERB
 40
0.0
  9
$CHAMFERC
 40
0.0
  9
$CHAMFERD
 40
0.0
  9
$SKPOLY
 70
     0
  9
$TDCREATE
 40
2458292.64554338
  9
$TDUCREATE
 40
2458292.27054338
  9
$TDUPDATE
 40
2458295.818105162
  9
$TDUUPDATE
 40
2458295.443105162
  9
$TDINDWG
 40
0.0007101042
  9
$TDUSRTIMER
 40
2458295.442395451
  9
$USRTIMER
 70
     1
  9
$ANGBASE
 50
0.0
  9
$ANGDIR
 70
     0
  9
$PDMODE
 70
     0
  9
$PDSIZE
 40
-1.0
  9
$PLINEWID
 40
0.0
  9
$SPLFRAME
 70
     0
  9
$SPLINETYPE
 70
     6
  9
$SPLINESEGS
 70
     8
  9
$HANDSEED
  5
19B
  9
$SURFTAB1
 70
     6
  9
$SURFTAB2
 70
     6
  9
$SURFTYPE
 70
     6
  9
$SURFU
 70
     6
  9
$SURFV
 70
     6
  9
$UCSBASE
  2

  9
$UCSNAME
  2

  9
$UCSORG
 10
0.0
 20
0.0
 30
0.0
  9
$UCSXDIR
 10
1.0
 20
0.0
 30
0.0
  9
$UCSYDIR
 10
0.0
 20
1.0
 30
0.0
  9
$UCSORTHOREF
  2

  9
$UCSORTHOVIEW
 70
     0
  9
$UCSORGTOP
 10
0.0
 20
0.0
 30
0.0
  9
$UCSORGBOTTOM
 10
0.0
 20
0.0
 30
0.0
  9
$UCSORGLEFT
 10
0.0
 20
0.0
 30
0.0
  9
$UCSORGRIGHT
 10
0.0
 20
0.0
 30
0.0
  9
$UCSORGFRONT
 10
0.0
 20
0.0
 30
0.0
  9
$UCSORGBACK
 10
0.0
 20
0.0
 30
0.0
  9
$PUCSBASE
  2

  9
$PUCSNAME
  2

  9
$PUCSORG
 10
0.0
 20
0.0
 30
0.0
  9
$PUCSXDIR
 10
1.0
 20
0.0
 30
0.0
  9
$PUCSYDIR
 10
0.0
 20
1.0
 30
0.0
  9
$PUCSORTHOREF
  2

  9
$PUCSORTHOVIEW
 70
     0
  9
$PUCSORGTOP
 10
0.0
 20
0.0
 30
0.0
  9
$PUCSORGBOTTOM
 10
0.0
 20
0.0
 30
0.0
  9
$PUCSORGLEFT
 10
0.0
 20
0.0
 30
0.0
  9
$PUCSORGRIGHT
 10
0.0
 20
0.0
 30
0.0
  9
$PUCSORGFRONT
 10
0.0
 20
0.0
 30
0.0
  9
$PUCSORGBACK
 10
0.0
 20
0.0
 30
0.0
  9
$USERI1
 70
     0
  9
$USERI2
 70
     0
  9
$USERI3
 70
     0
  9
$USERI4
 70
     0
  9
$USERI5
 70
     0
  9
$USERR1
 40
0.0
  9
$USERR2
 40
0.0
  9
$USERR3
 40
0.0
  9
$USERR4
 40
0.0
  9
$USERR5
 40
0.0
  9
$WORLDVIEW
 70
     1
  9
$SHADEDGE
 70
     3
  9
$SHADEDIF
 70
    70
  9
$TILEMODE
 70
     1
  9
$MAXACTVP
 70
    64
  9
$PINSBASE
 10
0.0
 20
0.0
 30
0.0
  9
$PLIMCHECK
 70
     0
  9
$PEXTMIN
 10
1.000000000000000E+20
 20
1.000000000000000E+20
 30
1.000000000000000E+20
  9
$PEXTMAX
 10
-1.000000000000000E+20
 20
-1.000000000000000E+20
 30
-1.000000000000000E+20
  9
$PLIMMIN
 10
0.0
 20
0.0
  9
$PLIMMAX
 10
0.0
 20
0.0
  9
$UNITMODE
 70
     0
  9
$VISRETAIN
 70
     1
  9
$PLINEGEN
 70
     0
  9
$PSLTSCALE
 70
     1
  9
$TREEDEPTH
 70
  3020
  9
$CMLSTYLE
  2
Standard
  9
$CMLJUST
 70
     0
  9
$CMLSCALE
 40
20.0
  9
$PROXYGRAPHICS
 70
     1
  9
$MEASUREMENT
 70
     1
  9
$CELWEIGHT
370
    -1
  9
$ENDCAPS
280
     0
  9
$JOINSTYLE
280
     0
  9
$LWDISPLAY
290
     1
  9
$INSUNITS
 70
     4
  9
$HYPERLINKBASE
  1

  9
$STYLESHEET
  1

  9
$XEDIT
290
     1
  9
$CEPSNTYPE
380
     0
  9
$PSTYLEMODE
290
     1
  9
$FINGERPRINTGUID
  2
{806135F4-C4E7-47AE-9B0E-A69B60243E2D}
  9
$VERSIONGUID
  2
{FAEB1C32-E019-11D5-929B-00C0DF256EC4}
  9
$EXTNAMES
290
     1
  9
$PSVPSCALE
 40
0.0
  9
$OLESTARTUP
290
     0
  0
ENDSEC
  0
SECTION
  2
CLASSES
  0
CLASS
  1
ACDBDICTIONARYWDFLT
  2
AcDbDictionaryWithDefault
  3
ObjectDBX Classes
 90
        0
280
     0
281
     0
  0
CLASS
  1
VISUALSTYLE
  2
AcDbVisualStyle
  3
ObjectDBX Classes
 90
     4095
280
     0
281
     0
  0
CLASS
  1
MATERIAL
  2
AcDbMaterial
  3
ObjectDBX Classes
 90
     1153
280
     0
281
     0
  0
CLASS
  1
SCALE
  2
AcDbScale
  3
ObjectDBX Classes
 90
     1153
280
     0
281
     0
  0
CLASS
  1
SUN
  2
AcDbSun
  3
SCENEOE
 90
     1153
280
     0
281
     0
  0
CLASS
  1
ACDBPLACEHOLDER
  2
AcDbPlaceHolder
  3
ObjectDBX Classes
 90
        0
280
     0
281
     0
  0
CLASS
  1
LAYOUT
  2
AcDbLayout
  3
ObjectDBX Classes
 90
        0
280
     0
281
     0
  0
CLASS
  1
TABLESTYLE
  2
AcDbTableStyle
  3
ObjectDBX Classes
 90
     4095
280
     0
281
     0
  0
CLASS
  1
MLEADERSTYLE
  2
AcDbMLeaderStyle
  3
ACDB_MLEADERSTYLE_CLASS
 90
     4095
280
     0
281
     0
  0
CLASS
  1
RASTERVARIABLES
  2
AcDbRasterVariables
  3
ISM
 90
        0
280
     0
281
     0
  0
ENDSEC
  0
SECTION
  2
TABLES
  0
TABLE
  2
VPORT
  5
8
330
0
100
AcDbSymbolTable
 70
     1
  0
VPORT
  5
29
330
8
100
AcDbSymbolTableRecord
100
AcDbViewportTableRecord
  2
*Active
 70
     0
 10
0.0
 20
0.0
 11
1.0
 21
1.0
 12
-28.1997887445969
 22
-7.320350647679611
 13
0.0
 23
0.0
 14
10.0
 24
10.0
 15
10.0
 25
10.0
 16
0.0
 26
0.0
 36
1.0
 17
0.0
 27
0.0
 37
0.0
 40
89.28897745062824
 41
1.798434442270059
 42
50.0
 43
0.0
 44
0.0
 50
0.0
 51
0.0
 71
    16
 72
  2000
 73
     1
 74
     3
 75
     0
 76
     0
 77
     0
 78
     0
281
     0
 65
     1
110
0.0
120
0.0
130
0.0
111
1.0
121
0.0
131
0.0
112
0.0
122
1.0
132
0.0
 79
     0
146
0.0
  0
ENDTAB
  0
TABLE
  2
LTYPE
  5
5
330
0
100
AcDbSymbolTable
 70
     6
  0
LTYPE
  5
14
330
5
100
AcDbSymbolTableRecord
100
AcDbLinetypeTableRecord
  2
ByBlock
 70
     0
  3

 72
    65
 73
     0
 40
0.0
  0
LTYPE
  5
15
330
5
100
AcDbSymbolTableRecord
100
AcDbLinetypeTableRecord
  2
ByLayer
 70
     0
  3

 72
    65
 73
     0
 40
0.0
  0
LTYPE
  5
16
330
5
100
AcDbSymbolTableRecord
100
AcDbLinetypeTableRecord
  2
Continuous
 70
     0
  3
Solid line
 72
    65
 73
     0
 40
0.0
  0
LTYPE
  5
6A
330
5
100
AcDbSymbolTableRecord
100
AcDbLinetypeTableRecord
  2
HIDDEN
 70
     0
  3
Hidden __ __ __ __ __ __ __ __ __ __ __ __ __ __
 72
    65
 73
     2
 40
1.905
 49
1.27
 74
     0
 49
-0.635
 74
     0
  0
LTYPE
  5
6B
330
5
100
AcDbSymbolTableRecord
100
AcDbLinetypeTableRecord
  2
PHANTOM
 70
     0
  3
Phantom ______  __  __  ______  __  __  ______
 72
    65
 73
     6
 40
12.7
 49
6.35
 74
     0
 49
-1.27
 74
     0
 49
1.27
 74
     0
 49
-1.27
 74
     0
 49
1.27
 74
     0
 49
-1.27
 74
     0
  0
LTYPE
  5
6C
330
5
100
AcDbSymbolTableRecord
100
AcDbLinetypeTableRecord
  2
CENTER
 70
     0
  3
Center ____ _ ____ _ ____ _ ____ _ ____ _ ____
 72
    65
 73
     4
 40
10.16
 49
6.35
 74
     0
 49
-1.27
 74
     0
 49
1.27
 74
     0
 49
-1.27
 74
     0
  0
LTYPE
  5
6D
330
5
100
AcDbSymbolTableRecord
100
AcDbLinetypeTableRecord
  2
CENTERX2
 70
     0
  3
Center (2x) ________  __  ________  __  _____
 72
    65
 73
     4
 40
20.32
 49
12.7
 74
     0
 49
-2.54
 74
     0
 49
2.54
 74
     0
 49
-2.54
 74
     0
  0
LTYPE
  5
6E
330
5
100
AcDbSymbolTableRecord
100
AcDbLinetypeTableRecord
  2
DOT2
 70
     0
  3
Dot (.5x) ........................................
 72
    65
 73
     2
 40
0.635
 49
0.0
 74
     0
 49
-0.635
 74
     0
  0
ENDTAB
  0
TABLE
  2
LAYER
  5
2
102
{ACAD_XDICTIONARY
360
18E
102
}
330
0
100
AcDbSymbolTable
 70
    18
  0
LAYER
  5
10
330
2
100
AcDbSymbolTableRecord
100
AcDbLayerTableRecord
  2
0
 70
     0
 62
     7
  6
Continuous
370
    -3
390
F
  0
LAYER
  5
6F
330
2
100
AcDbSymbolTableRecord
100
AcDbLayerTableRecord
  2
FORMAT
 70
     0
 62
     2
  6
Continuous
370
    -3
390
F
  0
LAYER
  5
70
330
2
100
AcDbSymbolTableRecord
100
AcDbLayerTableRecord
  2
외형선
 70
     0
 62
     4
  6
Continuous
370
    30
390
F
  0
LAYER
  5
71
330
2
100
AcDbSymbolTableRecord
100
AcDbLayerTableRecord
  2
숨은선
 70
     0
 62
     2
  6
HIDDEN
370
    15
390
F
  0
LAYER
  5
72
330
2
100
AcDbSymbolTableRecord
100
AcDbLayerTableRecord
  2
중심선
 70
     0
 62
     1
  6
CENTERX2
370
    -3
390
F
  0
LAYER
  5
73
330
2
100
AcDbSymbolTableRecord
100
AcDbLayerTableRecord
  2
파단선
 70
     0
 62
     4
  6
Continuous
370
    -3
390
F
  0
LAYER
  5
74
330
2
100
AcDbSymbolTableRecord
100
AcDbLayerTableRecord
  2
해칭선
 70
     0
 62
   100
  6
Continuous
370
    -3
390
F
  0
LAYER
  5
75
330
2
100
AcDbSymbolTableRecord
100
AcDbLayerTableRecord
  2
가는실선
 70
     0
 62
     4
  6
Continuous
370
    -3
390
F
  0
LAYER
  5
76
330
2
100
AcDbSymbolTableRecord
100
AcDbLayerTableRecord
  2
치수_보조선
 70
     0
 62
     4
  6
Continuous
370
    -3
390
F
  0
LAYER
  5
77
330
2
100
AcDbSymbolTableRecord
100
AcDbLayerTableRecord
  2
치수문자_일반주서
 70
     0
 62
     7
  6
Continuous
370
    15
390
F
  0
LAYER
  5
78
330
2
100
AcDbSymbolTableRecord
100
AcDbLayerTableRecord
  2
개별주서
 70
     0
 62
   100
  6
Continuous
370
    30
390
F
  0
LAYER
  5
79
330
2
100
AcDbSymbolTableRecord
100
AcDbLayerTableRecord
  2
중간선
 70
     0
 62
     2
  6
Continuous
370
    15
390
F
  0
LAYER
  5
7A
330
2
100
AcDbSymbolTableRecord
100
AcDbLayerTableRecord
  2
윤곽선
 70
     0
 62
     3
  6
Continuous
370
    40
390
F
  0
LAYER
  5
7B
330
2
100
AcDbSymbolTableRecord
100
AcDbLayerTableRecord
  2
중심마크
 70
     0
 62
   100
  6
Continuous
370
    30
390
F
  0
LAYER
  5
7C
330
2
100
AcDbSymbolTableRecord
100
AcDbLayerTableRecord
  2
가상선
 70
     0
 62
     4
  6
PHANTOM
370
    -3
390
F
  0
LAYER
  5
7D
330
2
100
AcDbSymbolTableRecord
100
AcDbLayerTableRecord
  2
특수지정선
 70
     0
 62
     5
  6
CENTERX2
370
    60
390
F
  0
LAYER
  5
7E
330
2
100
AcDbSymbolTableRecord
100
AcDbLayerTableRecord
  2
참조1
 70
     0
 62
    -4
  6
Continuous
370
    -3
390
F
  0
LAYER
  5
195
330
2
100
AcDbSymbolTableRecord
100
AcDbLayerTableRecord
  2
Defpoints
 70
     0
 62
     7
  6
Continuous
290
     0
370
    -3
390
F
  0
ENDTAB
  0
TABLE
  2
STYLE
  5
3
330
0
100
AcDbSymbolTable
 70
     2
  0
STYLE
  5
11
330
3
100
AcDbSymbolTableRecord
100
AcDbTextStyleTableRecord
  2
Standard
 70
     0
 40
0.0
 41
1.0
 50
0.0
 71
     0
 42
3.5
  3
txt
  4

  0
STYLE
  5
94
330
3
100
AcDbSymbolTableRecord
100
AcDbTextStyleTableRecord
  2
SLDTEXTSTYLE0
 70
     0
 40
0.0
 41
0.75
 50
0.0
 71
     0
 42
3.5
  3
TXT
  4

  0
ENDTAB
  0
TABLE
  2
VIEW
  5
6
330
0
100
AcDbSymbolTable
 70
     0
  0
ENDTAB
  0
TABLE
  2
UCS
  5
7
330
0
100
AcDbSymbolTable
 70
     0
  0
ENDTAB
  0
TABLE
  2
APPID
  5
9
330
0
100
AcDbSymbolTable
 70
     3
  0
APPID
  5
12
330
9
100
AcDbSymbolTableRecord
100
AcDbRegAppTableRecord
  2
ACAD
 70
     0
  0
APPID
  5
199
330
9
100
AcDbSymbolTableRecord
100
AcDbRegAppTableRecord
  2
ACAD_DSTYLE_DIMFLIPARROW_SYMBOL
 70
     0
  0
APPID
  5
19A
330
9
100
AcDbSymbolTableRecord
100
AcDbRegAppTableRecord
  2
ACAD_DSTYLE_DIMFLIPARROW_WHICH_SYMBOL
 70
     0
  0
ENDTAB
  0
TABLE
  2
DIMSTYLE
  5
A
330
0
100
AcDbSymbolTable
 70
     3
100
AcDbDimStyleTable
  0
DIMSTYLE
105
27
330
A
100
AcDbSymbolTableRecord
100
AcDbDimStyleTableRecord
  2
ISO-25
 70
     0
 41
2.5
 42
0.625
 43
3.75
 44
1.25
 73
     0
 74
     0
 77
     1
 78
     8
140
2.5
141
2.5
143
0.03937007874016
147
0.625
171
     3
172
     1
178
     0
271
     2
272
     2
274
     3
278
    44
283
     0
284
     8
340
11
  0
DIMSTYLE
105
E5
102
{ACAD_REACTORS
330
E4
330
F9
330
10D
330
122
102
}
330
A
100
AcDbSymbolTableRecord
100
AcDbDimStyleTableRecord
  2
SLDDIMSTYLE0
 70
     0
 41
3.302
 44
0.0
 45
0.000000001
 73
     0
 74
     0
 77
     1
 78
    12
 79
     3
140
3.5
143
0.0393700787401575
147
0.875
148
0.000000001
170
     1
172
     1
173
     1
178
     0
271
     2
272
     2
276
     2
284
    12
289
     0
340
94
  0
DIMSTYLE
105
123
330
A
100
AcDbSymbolTableRecord
100
AcDbDimStyleTableRecord
  2
SLDDIMSTYLE1
 70
     0
 41
3.302
 44
0.0
 45
0.000000001
 73
     0
 74
     0
 77
     1
 78
     4
 79
     1
140
3.5
143
0.0393700787401575
147
0.875
148
0.000000001
170
     1
173
     1
178
     0
271
     2
272
     2
276
     2
284
    12
340
94
  0
ENDTAB
  0
TABLE
  2
BLOCK_RECORD
  5
1
330
0
100
AcDbSymbolTable
 70
     8
  0
BLOCK_RECORD
  5
1F
330
1
100
AcDbSymbolTableRecord
100
AcDbBlockTableRecord
  2
*Model_Space
340
22
  0
BLOCK_RECORD
  5
1B
330
1
100
AcDbSymbolTableRecord
100
AcDbBlockTableRecord
  2
*Paper_Space
340
1E
  0
BLOCK_RECORD
  5
23
330
1
100
AcDbSymbolTableRecord
100
AcDbBlockTableRecord
  2
*Paper_Space0
340
26
  0
BLOCK_RECORD
  5
7F
330
1
100
AcDbSymbolTableRecord
100
AcDbBlockTableRecord
  2
블럭10
340
0
102
{BLKREFS
331
DD
102
}
  0
BLOCK_RECORD
  5
E6
330
1
100
AcDbSymbolTableRecord
100
AcDbBlockTableRecord
  2
_D
340
0
  0
BLOCK_RECORD
  5
FA
330
1
100
AcDbSymbolTableRecord
100
AcDbBlockTableRecord
  2
_D_1
340
0
  0
BLOCK_RECORD
  5
10E
330
1
100
AcDbSymbolTableRecord
100
AcDbBlockTableRecord
  2
_D_2
340
0
  0
BLOCK_RECORD
  5
124
330
1
100
AcDbSymbolTableRecord
100
AcDbBlockTableRecord
  2
_D_3
340
0
  0
BLOCK_RECORD
  5
13D
330
1
100
AcDbSymbolTableRecord
100
AcDbBlockTableRecord
  2
SW_DOWELSYMBOL_0
340
0
102
{BLKREFS
331
143
102
}
  0
ENDTAB
  0
ENDSEC
  0
SECTION
  2
BLOCKS
  0
BLOCK
  5
20
330
1F
100
AcDbEntity
  8
0
100
AcDbBlockBegin
  2
*Model_Space
 70
     0
 10
0.0
 20
0.0
 30
0.0
  3
*Model_Space
  1
*Model_Space
  0
ENDBLK
  5
21
330
1F
100
AcDbEntity
  8
0
100
AcDbBlockEnd
  0
BLOCK
  5
1C
330
1B
100
AcDbEntity
 67
     1
  8
0
100
AcDbBlockBegin
  2
*Paper_Space
 70
     0
 10
0.0
 20
0.0
 30
0.0
  3
*Paper_Space
  1
*Paper_Space
  0
ENDBLK
  5
1D
330
1B
100
AcDbEntity
 67
     1
  8
0
100
AcDbBlockEnd
  0
BLOCK
  5
24
330
23
100
AcDbEntity
  8
0
100
AcDbBlockBegin
  2
*Paper_Space0
 70
     0
 10
0.0
 20
0.0
 30
0.0
  3
*Paper_Space0
  1
*Paper_Space0
  0
ENDBLK
  5
25
330
23
100
AcDbEntity
  8
0
100
AcDbBlockEnd
  0
BLOCK
  5
80
330
7F
100
AcDbEntity
  8
0
100
AcDbBlockBegin
  2
블럭10
 70
     2
 10
0.0
 20
0.0
 30
0.0
  3
블럭10
  1
블럭10
  0
ELLIPSE
  5
82
330
7F
100
AcDbEntity
  8
중심선
100
AcDbEllipse
 10
20.54032771741204
 20
12.0471743016438
 30
0.0
 11
6.600054785286829
 21
-1.261213355974178E-13
 31
0.0
210
0.0
220
0.0
230
1.0
 40
0.636358354079598
 41
0.9219305317359503
 42
6.513795318482858
  0
ELLIPSE
  5
83
330
7F
100
AcDbEntity
  8
중심선
100
AcDbEllipse
 10
20.54032771746488
 20
12.04717430159265
 30
0.0
 11
3.960054785062283
 21
1.540847449632565E-10
 31
0.0
210
0.0
220
0.0
230
1.0
 40
0.3939339440162632
 41
1.131841032648279
 42
5.62031148352944
  0
LINE
  5
84
330
7F
100
AcDbEntity
  8
중심선
100
AcDbLine
 10
2.268634060543552
 20
16.24717430164393
 30
0.0
 11
5.714909304380834
 21
16.24717430164393
 31
0.0
  0
LINE
  5
85
330
7F
100
AcDbEntity
  8
중심선
100
AcDbLine
 10
5.245725140726316
 20
7.84717430164391
 30
0.0
 11
8.692000384563599
 21
7.84717430164391
 31
0.0
  0
LINE
  5
86
330
7F
100
AcDbEntity
  8
중심선
100
AcDbLine
 10
15.74043728645272
 20
16.24717430164393
 30
0.0
 11
8.692000384563599
 21
7.84717430164391
 31
0.0
  0
LINE
  5
87
330
7F
100
AcDbEntity
  8
중심선
100
AcDbLine
 10
0.1404042013395286
 20
13.71084872107135
 30
0.0
 11
3.58671253028996
 21
13.71088815037384
 31
0.0
  0
LINE
  5
88
330
7F
100
AcDbEntity
  8
중심선
100
AcDbLine
 10
2.750260043222114
 20
10.84717430164391
 30
0.0
 11
6.196535287059397
 21
10.84717430164391
 31
0.0
  0
LINE
  5
89
330
7F
100
AcDbEntity
  8
중심선
100
AcDbLine
 10
12.29416204261559
 20
16.24717430164393
 30
0.0
 11
5.245725140726316
 21
7.84717430164391
 31
0.0
  0
LINE
  5
8A
330
7F
100
AcDbEntity
  8
중심선
100
AcDbLine
 10
10.72767329541681
 20
16.24717430164393
 30
0.0
 11
6.196535287059397
 21
10.84717430164391
 31
0.0
  0
LINE
  5
8B
330
7F
100
AcDbEntity
  8
중심선
100
AcDbLine
 10
7.28139805157953
 20
16.24717430164393
 30
0.0
 11
2.750260043222114
 21
10.84717430164391
 31
0.0
  0
LINE
  5
8C
330
7F
100
AcDbEntity
  8
중심선
100
AcDbLine
 10
5.714909304380834
 20
16.24717430164393
 30
0.0
 11
3.58671253028996
 21
13.71088815037384
 31
0.0
  0
LINE
  5
8D
330
7F
100
AcDbEntity
  8
중심선
100
AcDbLine
 10
2.268634060543552
 20
16.24717430164393
 30
0.0
 11
0.1404042013395286
 21
13.71084872107135
 31
0.0
  0
LINE
  5
8E
330
7F
100
AcDbEntity
  8
중심선
100
AcDbLine
 10
7.28139805157953
 20
16.24717430164393
 30
0.0
 11
10.72767329541681
 21
16.24717430164393
 31
0.0
  0
LINE
  5
8F
330
7F
100
AcDbEntity
  8
중심선
100
AcDbLine
 10
12.29416204261559
 20
16.24717430164393
 30
0.0
 11
15.74043728645272
 21
16.24717430164393
 31
0.0
  0
LINE
  5
90
330
7F
100
AcDbEntity
  8
중심선
100
AcDbLine
 10
19.22036997980202
 20
11.08717430171403
 30
0.0
 11
23.66174974927406
 21
11.08717430171406
 31
0.0
  0
LINE
  5
91
330
7F
100
AcDbEntity
  8
중심선
100
AcDbLine
 10
19.22039502424796
 20
13.00717430171391
 30
0.0
 11
19.22036997980202
 21
11.08717430171403
 31
0.0
  0
LINE
  5
92
330
7F
100
AcDbEntity
  8
중심선
100
AcDbLine
 10
19.22039502424796
 20
13.00717430171391
 30
0.0
 11
26.96566020931264
 21
13.00717430171391
 31
0.0
  0
LINE
  5
93
330
7F
100
AcDbEntity
  8
중심선
100
AcDbLine
 10
22.22332737316547
 20
13.45928029700563
 30
0.0
 11
24.52862924686651
 21
15.39360700705356
 31
0.0
  0
ATTDEF
  5
95
330
7F
100
AcDbEntity
  8
FORMAT
 62
     2
100
AcDbText
 10
3.448148490846466
 20
2.075366912832191
 30
0.0
 40
4.233333333333333
  1
EM208020
 41
0.75
  7
SLDTEXTSTYLE0
 11
3.448148490846466
 21
-0.0412997538344756
 31
0.0
100
AcDbAttributeDefinition
  3

  2
AUTOATTR0
 70
     0
 74
     1
  0
ENDBLK
  5
81
330
7F
100
AcDbEntity
  8
0
100
AcDbBlockEnd
  0
BLOCK
  5
E7
330
E6
100
AcDbEntity
  8
0
100
AcDbBlockBegin
  2
_D
 70
     0
 10
0.0
 20
0.0
 30
0.0
  3
_D
  1
_D
  0
LINE
  5
E9
330
E6
100
AcDbEntity
  8
치수문자_일반주서
 62
     0
370
    -2
100
AcDbLine
 10
29.11249999999996
 20
3.940863177625493
 30
0.0
 11
41.93003723787221
 21
3.940863177625538
 31
0.0
  0
LINE
  5
EA
330
E6
100
AcDbEntity
  8
치수문자_일반주서
 62
     0
370
    -2
100
AcDbLine
 10
29.11249999999996
 20
-3.9676750712761
 30
0.0
 11
41.93003723787223
 21
-3.967675071276055
 31
0.0
  0
LINE
  5
EB
330
E6
100
AcDbEntity
  8
치수문자_일반주서
 62
     0
370
    -2
100
AcDbLine
 10
41.93003723787221
 20
3.940863177625538
 30
0.0
 11
41.93003723787209
 21
37.66986317762554
 31
0.0
  0
LINE
  5
EC
330
E6
100
AcDbEntity
  8
치수문자_일반주서
 62
     0
370
    -2
100
AcDbLine
 10
41.93003723787222
 20
0.638863177625538
 30
0.0
 11
41.93003723787222
 21
-0.6656750712760555
 31
0.0
  0
SOLID
  5
ED
330
E6
100
AcDbEntity
  8
치수문자_일반주서
 62
     0
100
AcDbTrace
 10
42.48037057120555
 20
0.63886317762554
 30
0.0
 11
41.37970390453889
 21
0.638863177625536
 31
0.0
 12
41.93003723787221
 22
3.940863177625538
 32
0.0
 13
41.93003723787221
 23
3.940863177625538
 33
0.0
  0
SOLID
  5
EE
330
E6
100
AcDbEntity
  8
치수문자_일반주서
 62
     0
100
AcDbTrace
 10
41.37970390453889
 20
-0.6656750712760575
 30
0.0
 11
42.48037057120555
 21
-0.6656750712760535
 31
0.0
 12
41.93003723787223
 22
-3.967675071276055
 32
0.0
 13
41.93003723787223
 23
-3.967675071276055
 33
0.0
  0
MTEXT
  5
EF
330
E6
100
AcDbEntity
  8
치수문자_일반주서
 62
     0
100
AcDbMText
 10
37.55503723787213
 20
24.10736317762552
 30
0.0
 40
3.5
 41
0.0
 71
     2
 72
     1
  1
\A1;%%c7.91 [5/16]
  7
SLDTEXTSTYLE0
 11
-3.593800590690886E-15
 21
1.0
 31
0.0
 73
     1
 44
1.0
  0
POINT
  5
F0
330
E6
100
AcDbEntity
  8
Defpoints
 62
     0
100
AcDbPoint
 10
29.04999999999996
 20
3.940863177625493
 30
0.0
  0
POINT
  5
F1
330
E6
100
AcDbEntity
  8
Defpoints
 62
     0
100
AcDbPoint
 10
29.04999999999996
 20
-3.9676750712761
 30
0.0
  0
POINT
  5
196
330
E6
100
AcDbEntity
  8
Defpoints
 62
     0
100
AcDbPoint
 10
41.93003723787223
 20
-3.967675071276052
 30
0.0
  0
ENDBLK
  5
E8
330
E6
100
AcDbEntity
  8
0
100
AcDbBlockEnd
  0
BLOCK
  5
FB
330
FA
100
AcDbEntity
  8
0
100
AcDbBlockBegin
  2
_D_1
 70
     0
 10
0.0
 20
0.0
 30
0.0
  3
_D_1
  1
_D_1
  0
LINE
  5
FD
330
FA
100
AcDbEntity
  8
치수문자_일반주서
 62
     0
370
    -2
100
AcDbLine
 10
-33.71875000000003
 20
3.969824928723895
 30
0.0
 11
-48.56125000000006
 21
3.969824928723839
 31
0.0
  0
LINE
  5
FE
330
FA
100
AcDbEntity
  8
치수문자_일반주서
 62
     0
370
    -2
100
AcDbLine
 10
-33.71875000000003
 20
-3.967675071276092
 30
0.0
 11
-48.56125000000003
 21
-3.967675071276147
 31
0.0
  0
LINE
  5
FF
330
FA
100
AcDbEntity
  8
치수문자_일반주서
 62
     0
370
    -2
100
AcDbLine
 10
-48.56125000000004
 20
0.6678249287238396
 30
0.0
 11
-48.56125000000004
 21
-0.6656750712761474
 31
0.0
  0
SOLID
  5
100
330
FA
100
AcDbEntity
  8
치수문자_일반주서
 62
     0
100
AcDbTrace
 10
-48.01091666666671
 20
0.6678249287238416
 30
0.0
 11
-49.11158333333338
 21
0.6678249287238376
 31
0.0
 12
-48.56125000000006
 22
3.969824928723839
 32
0.0
 13
-48.56125000000006
 23
3.969824928723839
 33
0.0
  0
SOLID
  5
101
330
FA
100
AcDbEntity
  8
치수문자_일반주서
 62
     0
100
AcDbTrace
 10
-49.11158333333338
 20
-0.6656750712761494
 30
0.0
 11
-48.01091666666671
 21
-0.6656750712761454
 31
0.0
 12
-48.56125000000003
 22
-3.967675071276147
 32
0.0
 13
-48.56125000000003
 23
-3.967675071276147
 33
0.0
  0
MTEXT
  5
102
330
FA
100
AcDbEntity
  8
치수문자_일반주서
 62
     0
100
AcDbMText
 10
-52.93625000000004
 20
0.0010749287238776
 30
0.0
 40
3.5
 41
0.0
 71
     2
 72
     1
  1
\A1;%%c7.94 [5/16]
  7
SLDTEXTSTYLE0
 11
-3.580687802255629E-15
 21
1.0
 31
0.0
 73
     1
 44
1.0
  0
POINT
  5
103
330
FA
100
AcDbEntity
  8
Defpoints
 62
     0
100
AcDbPoint
 10
-33.65625000000003
 20
3.969824928723895
 30
0.0
  0
POINT
  5
104
330
FA
100
AcDbEntity
  8
Defpoints
 62
     0
100
AcDbPoint
 10
-33.65625000000003
 20
-3.967675071276091
 30
0.0
  0
POINT
  5
105
330
FA
100
AcDbEntity
  8
Defpoints
 62
     0
100
AcDbPoint
 10
-48.56125000000003
 20
-3.967675071276147
 30
0.0
  0
ENDBLK
  5
FC
330
FA
100
AcDbEntity
  8
0
100
AcDbBlockEnd
  0
BLOCK
  5
10F
330
10E
100
AcDbEntity
  8
0
100
AcDbBlockBegin
  2
_D_2
 70
     0
 10
0.0
 20
0.0
 30
0.0
  3
_D_2
  1
_D_2
  0
LINE
  5
111
330
10E
100
AcDbEntity
  8
치수문자_일반주서
 62
     0
370
    -2
100
AcDbLine
 10
29.04999999999997
 20
4.003363177625493
 30
0.0
 11
29.04999999999996
 21
17.07746522706857
 31
0.0
  0
LINE
  5
112
330
10E
100
AcDbEntity
  8
치수문자_일반주서
 62
     0
370
    -2
100
AcDbLine
 10
9.999999999999966
 20
3.836690148314708
 30
0.0
 11
9.999999999999963
 21
17.07746522706857
 31
0.0
  0
LINE
  5
113
330
10E
100
AcDbEntity
  8
치수문자_일반주서
 62
     0
370
    -2
100
AcDbLine
 10
25.74799999999996
 20
17.07746522706857
 30
0.0
 11
13.30199999999996
 21
17.07746522706857
 31
0.0
  0
SOLID
  5
114
330
10E
100
AcDbEntity
  8
치수문자_일반주서
 62
     0
100
AcDbTrace
 10
25.74799999999996
 20
16.52713189373524
 30
0.0
 11
25.74799999999996
 21
17.62779856040191
 31
0.0
 12
29.04999999999996
 22
17.07746522706857
 32
0.0
 13
29.04999999999996
 23
17.07746522706857
 33
0.0
  0
SOLID
  5
115
330
10E
100
AcDbEntity
  8
치수문자_일반주서
 62
     0
100
AcDbTrace
 10
13.30199999999996
 20
17.62779856040191
 30
0.0
 11
13.30199999999996
 21
16.52713189373524
 31
0.0
 12
9.999999999999963
 22
17.07746522706857
 32
0.0
 13
9.999999999999963
 23
17.07746522706857
 33
0.0
  0
MTEXT
  5
116
330
10E
100
AcDbEntity
  8
치수문자_일반주서
 62
     0
100
AcDbMText
 10
19.52499999999996
 20
21.45246522706857
 30
0.0
 40
3.5
 41
0.0
 71
     2
 72
     1
  1
\A1;19.05 [3/4]
  7
SLDTEXTSTYLE0
 73
     1
 44
1.0
  0
POINT
  5
117
330
10E
100
AcDbEntity
  8
Defpoints
 62
     0
100
AcDbPoint
 10
29.04999999999997
 20
3.940863177625494
 30
0.0
  0
POINT
  5
118
330
10E
100
AcDbEntity
  8
Defpoints
 62
     0
100
AcDbPoint
 10
9.999999999999966
 20
3.774190148314708
 30
0.0
  0
POINT
  5
119
330
10E
100
AcDbEntity
  8
Defpoints
 62
     0
100
AcDbPoint
 10
9.999999999999966
 20
17.07746522706857
 30
0.0
  0
ENDBLK
  5
110
330
10E
100
AcDbEntity
  8
0
100
AcDbBlockEnd
  0
BLOCK
  5
125
330
124
100
AcDbEntity
  8
0
100
AcDbBlockBegin
  2
_D_3
 70
     0
 10
0.0
 20
0.0
 30
0.0
  3
_D_3
  1
_D_3
  0
LINE
  5
127
330
124
100
AcDbEntity
  8
치수문자_일반주서
 62
     0
370
    -2
100
AcDbLine
 10
29.04999999999997
 20
4.003363177625493
 30
0.0
 11
29.04999999999996
 21
32.52611829723231
 31
0.0
  0
LINE
  5
128
330
124
100
AcDbEntity
  8
치수문자_일반주서
 62
     0
370
    -2
100
AcDbLine
 10
-34.45000000000004
 20
3.238574928723906
 30
0.0
 11
-34.45000000000005
 21
32.52611829723231
 31
0.0
  0
LINE
  5
129
330
124
100
AcDbEntity
  8
치수문자_일반주서
 62
     0
370
    -2
100
AcDbLine
 10
25.74799999999996
 20
32.52611829723231
 30
0.0
 11
-31.14800000000005
 21
32.52611829723231
 31
0.0
  0
SOLID
  5
12A
330
124
100
AcDbEntity
  8
치수문자_일반주서
 62
     0
100
AcDbTrace
 10
25.74799999999996
 20
31.97578496389897
 30
0.0
 11
25.74799999999996
 21
33.07645163056564
 31
0.0
 12
29.04999999999996
 22
32.52611829723231
 32
0.0
 13
29.04999999999996
 23
32.52611829723231
 33
0.0
  0
SOLID
  5
12B
330
124
100
AcDbEntity
  8
치수문자_일반주서
 62
     0
100
AcDbTrace
 10
-31.14800000000005
 20
33.07645163056564
 30
0.0
 11
-31.14800000000005
 21
31.97578496389897
 31
0.0
 12
-34.45000000000005
 22
32.52611829723231
 32
0.0
 13
-34.45000000000005
 23
32.52611829723231
 33
0.0
  0
MTEXT
  5
12C
330
124
100
AcDbEntity
  8
치수문자_일반주서
 62
     0
100
AcDbMText
 10
-2.094692501345726
 20
36.90111829723231
 30
0.0
 40
3.5
 41
0.0
 71
     2
 72
     1
  1
\A1;63.5 [2 1/2]
  7
SLDTEXTSTYLE0
 73
     1
 44
1.0
  0
POINT
  5
12D
330
124
100
AcDbEntity
  8
Defpoints
 62
     0
100
AcDbPoint
 10
29.04999999999997
 20
3.940863177625494
 30
0.0
  0
POINT
  5
12E
330
124
100
AcDbEntity
  8
Defpoints
 62
     0
100
AcDbPoint
 10
-34.45000000000004
 20
3.176074928723906
 30
0.0
  0
POINT
  5
12F
330
124
100
AcDbEntity
  8
Defpoints
 62
     0
100
AcDbPoint
 10
-34.45000000000004
 20
32.52611829723231
 30
0.0
  0
ENDBLK
  5
126
330
124
100
AcDbEntity
  8
0
100
AcDbBlockEnd
  0
BLOCK
  5
13E
330
13D
100
AcDbEntity
  8
0
100
AcDbBlockBegin
  2
SW_DOWELSYMBOL_0
 70
     0
 10
0.0
 20
0.0
 30
0.0
  3
SW_DOWELSYMBOL_0
  1
SW_DOWELSYMBOL_0
  0
CIRCLE
  5
140
330
13D
100
AcDbEntity
  8
해칭선
 62
     0
100
AcDbCircle
 10
0.0
 20
0.0
 30
0.0
 40
3.000000000000001
  0
HATCH
  5
141
330
13D
100
AcDbEntity
  8
0
  6
Continuous
 62
     0
370
     0
100
AcDbHatch
 10
0.0
 20
0.0
 30
0.0
210
0.0
220
0.0
230
1.0
  2
SOLID
 70
     1
 71
     0
 91
        1
 92
        0
 93
        3
 72
     2
 10
0.0
 20
0.0
 40
3.000000000000001
 50
0.0
 51
90.0
 73
     1
 72
     1
 10
0.0
 20
3.000000000000001
 11
0.0
 21
0.0
 72
     1
 10
0.0
 20
0.0
 11
3.000000000000001
 21
0.0
 97
        0
 75
     0
 76
     1
 98
        1
 10
0.0
 20
0.0
  0
HATCH
  5
142
330
13D
100
AcDbEntity
  8
0
  6
Continuous
 62
     0
370
     0
100
AcDbHatch
 10
0.0
 20
0.0
 30
0.0
210
0.0
220
0.0
230
1.0
  2
SOLID
 70
     1
 71
     0
 91
        1
 92
        0
 93
        3
 72
     2
 10
0.0
 20
0.0
 40
3.000000000000001
 50
180.0
 51
270.0000000000008
 73
     1
 72
     1
 10
0.0
 20
-3.000000000000001
 11
0.0
 21
0.0
 72
     1
 10
0.0
 20
0.0
 11
-3.000000000000003
 21
0.0
 97
        0
 75
     0
 76
     1
 98
        1
 10
0.0
 20
0.0
  0
ENDBLK
  5
13F
330
13D
100
AcDbEntity
  8
0
100
AcDbBlockEnd
  0
ENDSEC
  0
SECTION
  2
ENTITIES
  0
LINE
  5
96
330
1F
100
AcDbEntity
  8
0
  6
Continuous
 62
     1
370
    15
100
AcDbLine
 10
15.74924407550085
 20
-0.7609845976497132
 30
0.0
 11
15.78186823626811
 21
-0.7925399021278561
 31
0.0
  0
LINE
  5
97
330
1F
100
AcDbEntity
  8
0
  6
Continuous
 62
     1
370
    15
100
AcDbLine
 10
17.49997539275862
 20
0.6797688970996191
 30
0.0
 11
17.38153891584475
 21
0.794886523915441
 31
0.0
  0
LINE
  5
98
330
1F
100
AcDbEntity
  8
0
  6
Continuous
 62
     1
370
    15
100
AcDbLine
 10
25.72444099375336
 20
0.7642905449032444
 30
0.0
 11
25.69289889926136
 21
0.7947384532575059
 31
0.0
  0
LINE
  5
99
330
1F
100
AcDbEntity
  8
0
  6
Continuous
 62
     1
370
    15
100
AcDbLine
 10
24.06228593291856
 20
-0.7609507364596022
 30
0.0
 11
24.09546239463447
 21
-0.7928745635909267
 31
0.0
  0
LINE
  5
9A
330
1F
100
AcDbEntity
  8
0
  6
Continuous
 62
     1
370
    15
100
AcDbLine
 10
19.82745370063761
 20
-0.6855487724818639
 30
0.0
 11
19.93900609891672
 21
-0.7926879271520771
 31
0.0
  0
LINE
  5
9B
330
1F
100
AcDbEntity
  8
0
  6
Continuous
 62
     1
370
    15
100
AcDbLine
 10
21.57122013655546
 20
0.7613353964711809
 30
0.0
 11
21.53637601785353
 21
0.7949909484883142
 31
0.0
  0
LINE
  5
9C
330
1F
100
AcDbEntity
  8
0
  6
Continuous
 62
     1
370
    15
100
AcDbLine
 10
24.41395429528264
 20
-3.9676750712761
 30
0.0
 11
25.37436357293759
 21
-3.9676750712761
 31
0.0
  0
LINE
  5
9D
330
1F
100
AcDbEntity
  8
0
  6
Continuous
 62
     1
370
    15
100
AcDbLine
 10
12.90530220019859
 20
3.969824928723904
 30
0.0
 11
11.94585777545309
 21
3.969824928723904
 31
0.0
  0
LINE
  5
9E
330
1F
100
AcDbEntity
  8
0
  6
Continuous
 62
     1
370
    15
100
AcDbLine
 10
16.10260185013082
 20
-3.9676750712761
 30
0.0
 11
17.06099802154073
 21
-3.9676750712761
 31
0.0
  0
LINE
  5
9F
330
1F
100
AcDbEntity
  8
0
  6
Continuous
 62
     1
370
    15
100
AcDbLine
 10
29.04999999999997
 20
3.969824928723904
 30
0.0
 11
28.56978215295036
 21
3.969824928723904
 31
0.0
  0
LINE
  5
A0
330
1F
100
AcDbEntity
  8
0
  6
Continuous
 62
     1
370
    15
100
AcDbLine
 10
21.2172485058023
 20
3.969824928723904
 30
0.0
 11
20.25827505993779
 21
3.969824928723904
 31
0.0
  0
LINE
  5
A1
330
1F
100
AcDbEntity
  8
0
  6
Continuous
 62
     1
370
    15
100
AcDbLine
 10
20.25827505993777
 20
-3.9676750712761
 30
0.0
 11
21.21724850580227
 21
-3.9676750712761
 31
0.0
  0
LINE
  5
A2
330
1F
100
AcDbEntity
  8
0
  6
Continuous
 62
     1
370
    15
100
AcDbLine
 10
28.56978215295036
 20
-3.9676750712761
 30
0.0
 11
29.04999999999997
 21
-3.9676750712761
 31
0.0
  0
LINE
  5
A3
330
1F
100
AcDbEntity
  8
0
  6
Continuous
 62
     1
370
    15
100
AcDbLine
 10
17.06099802154076
 20
3.969824928723904
 30
0.0
 11
16.10260185013082
 21
3.969824928723904
 31
0.0
  0
LINE
  5
A4
330
1F
100
AcDbEntity
  8
0
  6
Continuous
 62
     1
370
    15
100
AcDbLine
 10
11.9458577754531
 20
-3.9676750712761
 30
0.0
 11
12.90530220019858
 21
-3.9676750712761
 31
0.0
  0
LINE
  5
A5
330
1F
100
AcDbEntity
  8
0
  6
Continuous
 62
     1
370
    15
100
AcDbLine
 10
25.37436357293759
 20
3.969824928723904
 30
0.0
 11
24.41395429528267
 21
3.969824928723904
 31
0.0
  0
LINE
  5
A6
330
1F
100
AcDbEntity
  8
외형선
  6
Continuous
370
    15
100
AcDbLine
 10
-33.65625000000004
 20
-3.967675071276098
 30
0.0
 11
8.999730514439182
 21
-3.967675071276098
 31
0.0
  0
LINE
  5
A7
330
1F
100
AcDbEntity
  8
외형선
  6
Continuous
370
    15
100
AcDbLine
 10
8.999730514439182
 20
3.969824928723902
 30
0.0
 11
-33.65625000000004
 21
3.969824928723902
 31
0.0
  0
LINE
  5
A8
330
1F
100
AcDbEntity
  8
외형선
  6
Continuous
370
    15
100
AcDbLine
 10
-33.65625000000004
 20
3.969824928723903
 30
0.0
 11
-34.45000000000004
 21
3.176074928723906
 31
0.0
  0
LINE
  5
A9
330
1F
100
AcDbEntity
  8
외형선
  6
Continuous
370
    15
100
AcDbLine
 10
-34.45000000000004
 20
-3.173925071276102
 30
0.0
 11
-33.65625000000004
 21
-3.967675071276099
 31
0.0
  0
SPLINE
  5
AA
330
1F
100
AcDbEntity
  8
0
  6
Continuous
 62
     1
370
    15
100
AcDbSpline
210
0.0
220
0.0
230
1.0
 70
     8
 71
     3
 72
    25
 73
    21
 74
     0
 42
0.000000001
 43
0.00000001
 40
0.0
 40
0.0
 40
0.0
 40
0.0
 40
0.0627018917902743
 40
0.1252923196682408
 40
0.1878147632069799
 40
0.2504496141568114
 40
0.3131205096376756
 40
0.3689035948126058
 40
0.424818635488685
 40
0.4807289149112528
 40
0.5365127991554193
 40
0.5924894435076445
 40
0.6483270610870668
 40
0.7041410588920494
 40
0.7601292182131043
 40
0.8159232930698622
 40
0.8717966093991059
 40
0.9277461410568745
 40
0.9835259506070069
 40
1.0
 40
1.0
 40
1.0
 40
1.0
 10
10.0000000000083
 20
3.774190148312126
 30
0.0
 10
10.26815218078519
 20
3.676301584818104
 30
0.0
 10
10.80397985351331
 20
3.480698472392392
 30
0.0
 10
11.60629769156139
 20
3.004200350877665
 30
0.0
 10
12.4076303510955
 20
2.416009181935831
 30
0.0
 10
13.21037427385355
 20
1.727025533861788
 30
0.0
 10
13.98504727128451
 20
0.9963850903483707
 30
0.0
 10
14.72858517986975
 20
0.2561480199246712
 30
0.0
 10
15.44511134877205
 20
-0.4619437613015238
 30
0.0
 10
16.16162012902871
 20
-1.165062665992697
 30
0.0
 10
16.87647549243136
 20
-1.832297119065504
 30
0.0
 10
17.593841181308
 20
-2.437265815459792
 30
0.0
 10
18.30938315470227
 20
-2.964905883398395
 30
0.0
 10
19.0246212054335
 20
-3.396166081175619
 30
0.0
 10
19.74212787757351
 20
-3.716141989049461
 30
0.0
 10
20.45711637322317
 20
-3.916013808366643
 30
0.0
 10
21.17310912102655
 20
-3.990435225015211
 30
0.0
 10
21.8901880525766
 20
-3.926928225013641
 30
0.0
 10
22.43653522092819
 20
-3.805226771344385
 30
0.0
 10
22.74546529597394
 20
-3.668906667855314
 30
0.0
 10
22.81590207803275
 20
-3.637825364365287
 30
0.0
  0
SPLINE
  5
AB
330
1F
100
AcDbEntity
  8
0
  6
Continuous
 62
     1
370
    15
100
AcDbSpline
210
0.0
220
0.0
230
1.0
 70
     8
 71
     3
 72
    27
 73
    23
 74
     0
 42
0.000000001
 43
0.00000001
 40
0.0
 40
0.0
 40
0.0
 40
0.0
 40
0.0267402971044669
 40
0.0776438300941736
 40
0.1286201879944381
 40
0.1794403515746406
 40
0.2304151464693417
 40
0.2813205026998709
 40
0.3321536631910004
 40
0.3831636511812463
 40
0.4340149631773002
 40
0.4848877948022401
 40
0.5358872916738483
 40
0.586711167647819
 40
0.6376502004086964
 40
0.6885935710775781
 40
0.7394167190313278
 40
0.7965152495882091
 40
0.853580940503328
 40
0.9105442186804786
 40
0.9675694363885871
 40
1.0
 40
1.0
 40
1.0
 40
1.0
 10
24.41395429528264
 20
-3.951604311133336
 30
0.0
 10
24.28868037150615
 20
-3.954381371616162
 30
0.0
 10
23.92493171101328
 20
-3.96244491748655
 30
0.0
 10
23.3220164786309
 20
-3.834839955206834
 30
0.0
 10
22.60494210142706
 20
-3.58351035215719
 30
0.0
 10
21.89014181066955
 20
-3.207976997616237
 30
0.0
 10
21.17312150909428
 20
-2.731543036854442
 30
0.0
 10
20.45711306135857
 20
-2.165382390048944
 30
0.0
 10
19.74212876798362
 20
-1.527690604362697
 30
0.0
 10
19.02462096731259
 20
-0.8431407247809842
 30
0.0
 10
18.3093832185147
 20
-0.1286972035129471
 30
0.0
 10
17.593841163907
 20
0.5895782673092086
 30
0.0
 10
16.87647549801578
 20
1.286767222773451
 30
0.0
 10
16.16162012405312
 20
1.945132417130097
 30
0.0
 10
15.44511136312567
 20
2.538383452172996
 30
0.0
 10
14.72858512749328
 20
3.049456899302479
 30
0.0
 10
13.98504747609643
 20
3.47932169285138
 30
0.0
 10
13.21037340393831
 20
3.795409542966191
 30
0.0
 10
12.40763358060826
 20
3.971011153612504
 30
0.0
 10
11.60628566052052
 20
3.977952779473589
 30
0.0
 10
10.91981111928222
 20
3.86727244750391
 30
0.0
 10
10.49992741918565
 20
3.696066367750998
 30
0.0
 10
10.34770623409824
 20
3.633998722952775
 30
0.0
  0
LINE
  5
AC
330
1F
100
AcDbEntity
  8
0
  6
Continuous
 62
     1
370
    15
100
AcDbLine
 10
29.04999999999997
 20
-1.55435105794338
 30
0.0
 11
29.04999999999997
 21
1.556500915391258
 31
0.0
  0
LINE
  5
AD
330
1F
100
AcDbEntity
  8
외형선
  6
Continuous
370
    15
100
AcDbLine
 10
10.00000000000829
 20
-3.772040290864334
 30
0.0
 11
10.34770623409827
 21
-3.631848865504972
 31
0.0
  0
SPLINE
  5
AE
330
1F
100
AcDbEntity
  8
0
  6
Continuous
 62
     1
370
    15
100
AcDbSpline
210
0.0
220
0.0
230
1.0
 70
     8
 71
     3
 72
    18
 73
    14
 74
     0
 42
0.000000001
 43
0.00000001
 40
0.0
 40
0.0
 40
0.0
 40
0.0
 40
0.0858907172296242
 40
0.1771525258528893
 40
0.2686948250362242
 40
0.3601063467371193
 40
0.4513928017161275
 40
0.5429960673345209
 40
0.6343118352412244
 40
0.7256708328454113
 40
0.8172530234334118
 40
0.9085208272141658
 40
1.0
 40
1.0
 40
1.0
 40
1.0
 10
21.2172485058023
 20
3.966088277028015
 30
0.0
 10
21.44176044444955
 20
3.956666756062363
 30
0.0
 10
21.90482395466755
 20
3.937234548598327
 30
0.0
 10
22.60495866254812
 20
3.747807525333825
 30
0.0
 10
23.32198702648081
 20
3.444304017678621
 30
0.0
 10
24.0379729366238
 20
3.025880679495033
 30
0.0
 10
24.75296626080868
 20
2.508909142702177
 30
0.0
 10
25.47047870065442
 20
1.912691559701771
 30
0.0
 10
26.18570084681338
 20
1.252341537642149
 30
0.0
 10
26.90126376237041
 20
0.5513866286253922
 30
0.0
 10
27.61861612126872
 20
-0.164425239171021
 30
0.0
 10
28.33346919033113
 20
-0.881553650223389
 30
0.0
 10
28.81097230005648
 20
-1.329912394978452
 30
0.0
 10
29.04999999999998
 20
-1.55435105794338
 30
0.0
  0
SPLINE
  5
AF
330
1F
100
AcDbEntity
  8
0
  6
Continuous
 62
     1
370
    15
100
AcDbSpline
210
0.0
220
0.0
230
1.0
 70
     8
 71
     3
 72
    16
 73
    12
 74
     0
 42
0.000000001
 43
0.00000001
 40
0.0
 40
0.0
 40
0.0
 40
0.0
 40
0.1149388688330842
 40
0.2296121633981661
 40
0.3446804687935844
 40
0.4594683437007344
 40
0.5742019027196054
 40
0.6892966878052138
 40
0.8039934166402419
 40
0.9188472853695707
 40
1.0
 40
1.0
 40
1.0
 40
1.0
 10
29.04999999999998
 20
1.556500915391258
 30
0.0
 10
28.81097230308362
 20
1.771192487739608
 30
0.0
 10
28.33346919940556
 20
2.200079572593789
 30
0.0
 10
27.61861608501694
 20
2.760454939287465
 30
0.0
 10
26.90126389870748
 20
3.23260396878014
 30
0.0
 10
26.18570033935935
 20
3.600398698932557
 30
0.0
 10
25.47048059620561
 20
3.851106624306946
 30
0.0
 10
24.75295917193379
 20
3.977452839643395
 30
0.0
 10
24.03799930336895
 20
3.970777522635724
 30
0.0
 10
23.39227037993317
 20
3.862898668174578
 30
0.0
 10
22.98466369875173
 20
3.705247586688419
 30
0.0
 10
22.81590207803277
 20
3.639975221813089
 30
0.0
  0
SPLINE
  5
B0
330
1F
100
AcDbEntity
  8
0
  6
Continuous
 62
     1
370
    15
100
AcDbSpline
210
0.0
220
0.0
230
1.0
 70
     8
 71
     3
 72
    10
 73
     6
 74
     0
 42
0.000000001
 43
0.00000001
 40
0.0
 40
0.0
 40
0.0
 40
0.0
 40
0.1745572506733238
 40
0.5869114556710778
 40
1.0
 40
1.0
 40
1.0
 40
1.0
 10
11.9458577754531
 20
-3.947911761869861
 30
0.0
 10
11.8327349983932
 20
-3.95246448406361
 30
0.0
 10
11.45238383281467
 20
-3.967772039605947
 30
0.0
 10
10.803984058912
 20
-3.831231792137972
 30
0.0
 10
10.26815358341588
 20
-3.610756452176404
 30
0.0
 10
10.00000000000831
 20
-3.500420711364046
 30
0.0
  0
SPLINE
  5
B1
330
1F
100
AcDbEntity
  8
외형선
  6
Continuous
370
    15
100
AcDbSpline
210
0.0
220
0.0
230
1.0
 70
    24
 71
     3
 72
     9
 73
     5
 74
     0
 42
0.000000001
 43
0.00000001
 40
0.0
 40
0.0
 40
0.0
 40
0.0
 40
0.1618896692454196
 40
1.0
 40
1.0
 40
1.0
 40
1.0
 10
9.999999999999988
 20
-3.544539091491531
 30
0.0
 10
9.999999999999988
 20
-3.55648820265163
 30
0.0
 10
10.00000000000001
 20
-3.630298416828941
 30
0.0
 10
9.99999999999998
 20
-3.707411238440575
 30
0.0
 10
9.999999999999952
 20
-3.77204029086692
 30
0.0
  0
SPLINE
  5
B2
330
1F
100
AcDbEntity
  8
0
  6
Continuous
 62
     1
370
    15
100
AcDbSpline
210
0.0
220
0.0
230
1.0
 70
     8
 71
     3
 72
    19
 73
    15
 74
     0
 42
0.000000001
 43
0.00000001
 40
0.0
 40
0.0
 40
0.0
 40
0.0
 40
0.0928003225552319
 40
0.1854356758133648
 40
0.2779704105984519
 40
0.3706715110817522
 40
0.4634259583463167
 40
0.5459862790887037
 40
0.6287418971773102
 40
0.7114904684950935
 40
0.7940519718793556
 40
0.8768987649046937
 40
0.9595397949300402
 40
1.0
 40
1.0
 40
1.0
 40
1.0
 10
10.0000000000083
 20
0.8218306917102571
 30
0.0
 10
10.26815218069513
 20
0.556752458085225
 30
0.0
 10
10.80397985324331
 20
0.0270672151657803
 30
0.0
 10
11.60629769263869
 20
-0.7778350913610769
 30
0.0
 10
12.40763034705722
 20
-1.548993075804021
 30
0.0
 10
13.21037428896431
 20
-2.256903245336401
 30
0.0
 10
13.98504721747742
 20
-2.850247481405094
 30
0.0
 10
14.72858535644839
 20
-3.320049550998276
 30
0.0
 10
15.44511068548529
 20
-3.66286599253249
 30
0.0
 10
16.16162260234227
 20
-3.886617418021992
 30
0.0
 10
16.87646627152515
 20
-3.986059065527172
 30
0.0
 10
17.59387569298223
 20
-3.949616940471025
 30
0.0
 10
18.18772708819354
 20
-3.832407845269076
 30
0.0
 10
18.54284412070473
 20
-3.684096830892882
 30
0.0
 10
18.65956194200129
 20
-3.635350820739947
 30
0.0
  0
SPLINE
  5
B3
330
1F
100
AcDbEntity
  8
0
  6
Continuous
 62
     1
370
    15
100
AcDbSpline
210
0.0
220
0.0
230
1.0
 70
     8
 71
     3
 72
    21
 73
    17
 74
     0
 42
0.000000001
 43
0.00000001
 40
0.0
 40
0.0
 40
0.0
 40
0.0
 40
0.0503214373702588
 40
0.1202710635578921
 40
0.1900030985067113
 40
0.259764643166385
 40
0.3296998829591981
 40
0.3993942950901261
 40
0.4692466208868762
 40
0.5391048952253789
 40
0.6087983090274631
 40
0.6870971094326062
 40
0.7653508770754232
 40
0.8434642068742023
 40
0.92166247390209
 40
1.0
 40
1.0
 40
1.0
 40
1.0
 10
20.25827505993777
 20
-3.954739712775435
 30
0.0
 10
20.08643176668896
 20
-3.953386589193299
 30
0.0
 10
19.6757166376227
 20
-3.950152547781657
 30
0.0
 10
19.02461599148871
 20
-3.795697775612735
 30
0.0
 10
18.30938455048727
 20
-3.518518163931867
 30
0.0
 10
17.59384080616368
 20
-3.122382741137632
 30
0.0
 10
16.87647559266323
 20
-2.62758176589739
 30
0.0
 10
16.16162010214362
 20
-2.044792609509231
 30
0.0
 10
15.44511135598201
 20
-1.397375274624996
 30
0.0
 10
14.72858517795033
 20
-0.7046762888171902
 30
0.0
 10
13.98504727186939
 20
0.0415962414474547
 30
0.0
 10
13.2103742736893
 20
0.8140239828769928
 30
0.0
 10
12.40763035113941
 20
1.583439221968165
 30
0.0
 10
11.60629769154969
 20
2.286410261794616
 30
0.0
 10
10.80397985351626
 20
2.905704706323468
 30
0.0
 10
10.26815218078618
 20
3.215015664223259
 30
0.0
 10
10.00000000000831
 20
3.369808729457686
 30
0.0
  0
SPLINE
  5
B4
330
1F
100
AcDbEntity
  8
외형선
  6
Continuous
370
    15
100
AcDbSpline
210
0.0
220
0.0
230
1.0
 70
    24
 71
     3
 72
    22
 73
    18
 74
     0
 42
0.000000001
 43
0.00000001
 40
0.0
 40
0.0
 40
0.0
 40
0.0
 40
0.0645929590181647
 40
0.1307111213565046
 40
0.2019650979907791
 40
0.2732190746249558
 40
0.3465394214086115
 40
0.4177933980427874
 40
0.4911137448264411
 40
0.562367721460656
 40
0.6356880682442679
 40
0.7069420448784248
 40
0.7802623916620584
 40
0.8515163682962487
 40
0.9248367150799188
 40
0.996090691713866
 40
1.0
 40
1.0
 40
1.0
 40
1.0
 10
9.999999999999966
 20
3.369808729462116
 30
0.0
 10
9.999999999999952
 20
3.309526699107704
 30
0.0
 10
9.999999999999932
 20
3.187539227020285
 30
0.0
 10
10.00000000000001
 20
2.970379533629468
 30
0.0
 10
9.999999999999947
 20
2.72981535364699
 30
0.0
 10
9.999999999999973
 20
2.467834239347823
 30
0.0
 10
9.999999999999952
 20
2.200520919754941
 30
0.0
 10
9.99999999999998
 20
1.932939520546076
 30
0.0
 10
9.999999999999988
 20
1.677535415567928
 30
0.0
 10
9.999999999999966
 20
1.436917677726059
 30
0.0
 10
9.99999999999996
 20
1.222265167369438
 30
0.0
 10
9.999999999999988
 20
1.035663203059727
 30
0.0
 10
10.00000000000001
 20
0.886221727499226
 30
0.0
 10
9.999999999999883
 20
0.7737254022091596
 30
0.0
 10
9.99999999999998
 20
0.7099224557015843
 30
0.0
 10
10.00000000000006
 20
0.6834090921094388
 30
0.0
 10
9.999999999999973
 20
0.6912482461994177
 30
0.0
 10
9.99999999999998
 20
0.6916559674701527
 30
0.0
  0
LINE
  5
B5
330
1F
100
AcDbEntity
  8
0
  6
Continuous
 62
     1
370
    15
100
AcDbLine
 10
29.04999999999997
 20
-3.938713320177688
 30
0.0
 11
29.04999999999997
 21
-2.383287333510347
 31
0.0
  0
SPLINE
  5
B6
330
1F
100
AcDbEntity
  8
0
  6
Continuous
 62
     1
370
    15
100
AcDbSpline
210
0.0
220
0.0
230
1.0
 70
     8
 71
     3
 72
    24
 73
    20
 74
     0
 42
0.000000001
 43
0.00000001
 40
0.0
 40
0.0
 40
0.0
 40
0.0
 40
0.0444273876711969
 40
0.1041129739724995
 40
0.1637733127767409
 40
0.2236198151862458
 40
0.2832588580810773
 40
0.3429826032599553
 40
0.4027878160365809
 40
0.4624116105517962
 40
0.5222186570950982
 40
0.5819402631912092
 40
0.6415801598336182
 40
0.7014270373889402
 40
0.76108608495553
 40
0.8207733756463641
 40
0.8806064843174123
 40
0.9402341956302848
 40
1.0
 40
1.0
 40
1.0
 40
1.0
 10
17.06099802154076
 20
3.957467000583694
 30
0.0
 10
17.23874457201417
 20
3.95553393058526
 30
0.0
 10
17.65528317473596
 20
3.951003894565062
 30
0.0
 10
18.30940840726823
 20
3.793201338047584
 30
0.0
 10
19.02461418577347
 20
3.513133736014828
 30
0.0
 10
19.74213061493381
 20
3.116153970052635
 30
0.0
 10
20.45711243796581
 20
2.617436978234646
 30
0.0
 10
21.17312215716844
 20
2.034234808095163
 30
0.0
 10
21.89013984287755
 20
1.38626228942773
 30
0.0
 10
22.60494930945057
 20
0.690589419222234
 30
0.0
 10
23.3219895319903
 20
-0.0246757885692523
 30
0.0
 10
24.03797226677461
 20
-0.7402804604222609
 30
0.0
 10
24.75296644090206
 20
-1.433000227223964
 30
0.0
 10
25.47047865249781
 20
-2.076479843243661
 30
0.0
 10
26.18570085970529
 20
-2.654705507054252
 30
0.0
 10
26.90126375890674
 20
-3.146759714296045
 30
0.0
 10
27.6186161221897
 20
-3.533186093660937
 30
0.0
 10
28.33346919010062
 20
-3.815438011282496
 30
0.0
 10
28.81097229997957
 20
-3.897589877685857
 30
0.0
 10
29.04999999999998
 20
-3.938713320177688
 30
0.0
  0
SPLINE
  5
B7
330
1F
100
AcDbEntity
  8
0
  6
Continuous
 62
     1
370
    15
100
AcDbSpline
210
0.0
220
0.0
230
1.0
 70
     8
 71
     3
 72
    22
 73
    18
 74
     0
 42
0.000000001
 43
0.00000001
 40
0.0
 40
0.0
 40
0.0
 40
0.0
 40
0.068960630607832
 40
0.1377619228718941
 40
0.2068002123870469
 40
0.2756702501740508
 40
0.3445076996996096
 40
0.4135618764089931
 40
0.4823772286864321
 40
0.5512868612218434
 40
0.620295079013154
 40
0.6890918518895945
 40
0.7580979537936041
 40
0.8270100545045571
 40
0.895824421687394
 40
0.9648781655356722
 40
1.0
 40
1.0
 40
1.0
 40
1.0
 10
29.04999999999998
 20
-2.383287333510347
 30
0.0
 10
28.81097229998092
 20
-2.185030924797954
 30
0.0
 10
28.33346919010461
 20
-1.78897619262453
 30
0.0
 10
27.61861612217368
 20
-1.113801371252055
 30
0.0
 10
26.90126375896684
 20
-0.4109223414306685
 30
0.0
 10
26.1857008594817
 20
0.308783586665381
 30
0.0
 10
25.47047865333293
 20
1.018513065684137
 30
0.0
 10
24.75296643777894
 20
1.692834330112146
 30
0.0
 10
24.03797227839091
 20
2.314951160834801
 30
0.0
 10
23.32198948854058
 20
2.860699378664439
 30
0.0
 10
22.60494947164895
 20
3.313033948004774
 30
0.0
 10
21.89013923886421
 20
3.659433353729615
 30
0.0
 10
21.17312441793482
 20
3.885352747880265
 30
0.0
 10
20.45710401930597
 20
3.987433345619742
 30
0.0
 10
19.74216203152493
 20
3.953687952798282
 30
0.0
 10
19.14155891691857
 20
3.837590586487789
 30
0.0
 10
18.78109053056497
 20
3.68795046398923
 30
0.0
 10
18.65956194200132
 20
3.637500678187751
 30
0.0
  0
SPLINE
  5
B8
330
1F
100
AcDbEntity
  8
0
  6
Continuous
 62
     1
370
    15
100
AcDbSpline
210
0.0
220
0.0
230
1.0
 70
     8
 71
     3
 72
    28
 73
    24
 74
     0
 42
0.000000001
 43
0.00000001
 40
0.0
 40
0.0
 40
0.0
 40
0.0
 40
0.0216765853516287
 40
0.0787722392058381
 40
0.1295928266193404
 40
0.1805336306909893
 40
0.2314700970731843
 40
0.2822914124702294
 40
0.3332883399168898
 40
0.38415860849845
 40
0.4350073585353144
 40
0.4860147765720549
 40
0.536845376018492
 40
0.5877481675670082
 40
0.6387203942812811
 40
0.6895379974715937
 40
0.7405117871126823
 40
0.7914127555122338
 40
0.8422440826112123
 40
0.8932518203862625
 40
0.9440994698960112
 40
0.994971191135719
 40
1.0
 40
1.0
 40
1.0
 40
1.0
 10
12.90530220019859
 20
3.950726818433508
 30
0.0
 10
13.00697112958036
 20
3.955659787808919
 30
0.0
 10
13.37643380532701
 20
3.973586091114151
 30
0.0
 10
13.98507913301301
 20
3.841926454709522
 30
0.0
 10
14.7285770443724
 20
3.578767180569492
 30
0.0
 10
15.44511353110763
 20
3.201526003477996
 30
0.0
 10
16.16161954464251
 20
2.72301754031558
 30
0.0
 10
16.87647565390667
 20
2.153756490601466
 30
0.0
 10
17.59384112152759
 20
1.51737097275972
 30
0.0
 10
18.30938323231776
 20
0.8299393810577548
 30
0.0
 10
19.02462095439093
 20
0.1151356975444494
 30
0.0
 10
19.74212880589965
 20
-0.6007632289720971
 30
0.0
 10
20.45711292309409
 20
-1.300094128883866
 30
0.0
 10
21.17312202552936
 20
-1.955801913080395
 30
0.0
 10
21.89013988313161
 20
-2.547192274878077
 30
0.0
 10
22.60494927971932
 20
-3.057948541999624
 30
0.0
 10
23.32198961081815
 20
-3.467385407222567
 30
0.0
 10
24.03797198189741
 20
-3.765358546112263
 30
0.0
 10
24.75296750174292
 20
-3.940263302986608
 30
0.0
 10
25.47047468379197
 20
-3.990113408947797
 30
0.0
 10
26.18571562051397
 20
-3.898502346548917
 30
0.0
 10
26.68584582536588
 20
-3.777214676129358
 30
0.0
 10
26.94819886637179
 20
-3.655814919326517
 30
0.0
 10
26.97180013268765
 20
-3.644893803337169
 30
0.0
  0
SPLINE
  5
B9
330
1F
100
AcDbEntity
  8
0
  6
Continuous
 62
     1
370
    15
100
AcDbSpline
210
0.0
220
0.0
230
1.0
 70
     8
 71
     3
 72
    28
 73
    24
 74
     0
 42
0.000000001
 43
0.00000001
 40
0.0
 40
0.0
 40
0.0
 40
0.0
 40
0.0168102545978105
 40
0.0676305520625328
 40
0.1186259083147052
 40
0.1694969848827017
 40
0.2203439900257873
 40
0.2713510814054569
 40
0.3221817643446181
 40
0.3730820877018228
 40
0.424055231377739
 40
0.4748721905821507
 40
0.5258437713510561
 40
0.5767459178341222
 40
0.6275758731299634
 40
0.6785826447753751
 40
0.7294307504316296
 40
0.7803003743598881
 40
0.8312966555481611
 40
0.8821173269122626
 40
0.9330531478022626
 40
0.9839933063267478
 40
1.0
 40
1.0
 40
1.0
 40
1.0
 10
28.56978215295036
 20
-3.953396374224574
 30
0.0
 10
28.4909169815873
 20
-3.957359414031384
 30
0.0
 10
28.17362880211591
 20
-3.973303406338036
 30
0.0
 10
27.61866494077612
 20
-3.86906311616458
 30
0.0
 10
26.90125069441244
 20
-3.643566468240901
 30
0.0
 10
26.18570435454681
 20
-3.290193597093536
 30
0.0
 10
25.47047771281351
 20
-2.831792192674582
 30
0.0
 10
24.75296669220837
 20
-2.282795528973758
 30
0.0
 10
24.03797219881591
 20
-1.657460724654628
 30
0.0
 10
23.32198955256135
 20
-0.9792518131819371
 30
0.0
 10
22.6049492952908
 20
-0.2704546503629821
 30
0.0
 10
21.89013987892433
 20
0.4500188370482016
 30
0.0
 10
21.17312202675376
 20
1.153086986843909
 30
0.0
 10
20.45711292240454
 20
1.819932267729881
 30
0.0
 10
19.74212880743621
 20
2.428745775948636
 30
0.0
 10
19.02462094892113
 20
2.956459880004799
 30
0.0
 10
18.30938325258769
 20
3.39011364766877
 30
0.0
 10
17.5938410457766
 20
3.713340409934011
 30
0.0
 10
16.8764759369767
 20
3.914990284242748
 30
0.0
 10
16.16161849134132
 20
3.992426284548368
 30
0.0
 10
15.44511747256953
 20
3.931546842778098
 30
0.0
 10
14.89193025027469
 20
3.810618749452468
 30
0.0
 10
14.5783326708586
 20
3.672548163380577
 30
0.0
 10
14.50335288875384
 20
3.63953610226064
 30
0.0
  0
LINE
  5
BA
330
1F
100
AcDbEntity
  8
0
  6
Continuous
 62
     1
370
    15
100
AcDbLine
 10
29.04999999999997
 20
3.940863177625494
 30
0.0
 11
29.04999999999997
 21
3.969824928723904
 31
0.0
  0
SPLINE
  5
BB
330
1F
100
AcDbEntity
  8
0
  6
Continuous
 62
     1
370
    15
100
AcDbSpline
210
0.0
220
0.0
230
1.0
 70
     8
 71
     3
 72
    10
 73
     6
 74
     0
 42
0.000000001
 43
0.00000001
 40
0.0
 40
0.0
 40
0.0
 40
0.0
 40
0.3448165652373905
 40
0.6888364077661127
 40
1.0
 40
1.0
 40
1.0
 40
1.0
 10
29.04999999999997
 20
3.940863177625494
 30
0.0
 10
28.81097762260573
 20
3.956734603022372
 30
0.0
 10
28.33348514568078
 20
3.988440781781465
 30
0.0
 10
27.64208841216477
 20
3.885583729730973
 30
0.0
 10
27.18763285431627
 20
3.723853525845204
 30
0.0
 10
26.97180013268765
 20
3.647043660784973
 30
0.0
  0
SPLINE
  5
BC
330
1F
100
AcDbEntity
  8
0
  6
Continuous
 62
     1
370
    15
100
AcDbSpline
210
0.0
220
0.0
230
1.0
 70
     8
 71
     3
 72
    15
 73
    11
 74
     0
 42
0.000000001
 43
0.00000001
 40
0.0
 40
0.0
 40
0.0
 40
0.0
 40
0.1077258428333201
 40
0.2251678324833203
 40
0.3423326674283831
 40
0.4739644174803603
 40
0.6055204608639854
 40
0.736840407665178
 40
0.8683031463872463
 40
1.0
 40
1.0
 40
1.0
 40
1.0
 10
16.10260185013083
 20
-3.962784581395946
 30
0.0
 10
15.88347015137136
 20
-3.954273663693463
 30
0.0
 10
15.42544254777766
 20
-3.936484200727948
 30
0.0
 10
14.72856126010712
 20
-3.751190896807446
 30
0.0
 10
13.98505456012342
 20
-3.437178545774435
 30
0.0
 10
13.21037222691387
 20
-2.980338719676023
 30
0.0
 10
12.40763089813213
 20
-2.385838831219965
 30
0.0
 10
11.60629754562724
 20
-1.693068104799137
 30
0.0
 10
10.80397989008921
 20
-0.9320598719527047
 30
0.0
 10
10.2681521929844
 20
-0.3986360811571362
 30
0.0
 10
10.00000000000831
 20
-0.1316869106302884
 30
0.0
  0
LINE
  5
BD
330
1F
100
AcDbEntity
  8
외형선
  6
Continuous
370
    15
100
AcDbLine
 10
9.999999999999966
 20
-0.1316869106219598
 30
0.0
 11
9.999999999999966
 21
0.8218306917184142
 31
0.0
  0
LINE
  5
BE
330
1F
100
AcDbEntity
  8
0
  6
Continuous
 62
     1
370
    15
100
AcDbLine
 10
29.04999999999997
 20
-2.383287333510347
 30
0.0
 11
29.04999999999997
 21
-1.55435105794338
 31
0.0
  0
LINE
  5
BF
330
1F
100
AcDbEntity
  8
외형선
  6
Continuous
370
    15
100
AcDbLine
 10
9.999999999999966
 20
3.369808729462116
 30
0.0
 11
9.999999999999966
 21
3.774190148314708
 31
0.0
  0
LINE
  5
C0
330
1F
100
AcDbEntity
  8
0
  6
Continuous
 62
     1
370
    15
100
AcDbLine
 10
29.04999999999997
 20
-3.9676750712761
 30
0.0
 11
29.04999999999997
 21
-3.938713320177688
 31
0.0
  0
LINE
  5
C1
330
1F
100
AcDbEntity
  8
0
  6
Continuous
 62
     1
370
    15
100
AcDbLine
 10
29.04999999999997
 20
2.382462694966143
 30
0.0
 11
29.04999999999997
 21
3.940863177625494
 31
0.0
  0
SPLINE
  5
C2
330
1F
100
AcDbEntity
  8
0
  6
Continuous
 62
     1
370
    15
100
AcDbSpline
210
0.0
220
0.0
230
1.0
 70
     8
 71
     3
 72
    13
 73
     9
 74
     0
 42
0.000000001
 43
0.00000001
 40
0.0
 40
0.0
 40
0.0
 40
0.0
 40
0.1784682134081216
 40
0.3566191674047475
 40
0.5345766177730883
 40
0.7128540130307931
 40
0.8912340017330111
 40
1.0
 40
1.0
 40
1.0
 40
1.0
 10
10.0000000000083
 20
-2.951284527877968
 30
0.0
 10
10.26815213506987
 20
-3.118493812400913
 30
0.0
 10
10.80397971644863
 20
-3.452615136810398
 30
0.0
 10
11.60629823843563
 20
-3.780725874286605
 30
0.0
 10
12.40762830112814
 20
-3.964806878129646
 30
0.0
 10
13.21038194456388
 20
-3.979562692490319
 30
0.0
 10
13.90986162652742
 20
-3.869141581100887
 30
0.0
 10
14.34030738367704
 20
-3.701054689934631
 30
0.0
 10
14.50335288875384
 20
-3.637386244812836
 30
0.0
  0
SPLINE
  5
C3
330
1F
100
AcDbEntity
  8
0
  6
Continuous
 62
     1
370
    15
100
AcDbSpline
210
0.0
220
0.0
230
1.0
 70
     8
 71
     3
 72
    13
 73
     9
 74
     0
 42
0.000000001
 43
0.00000001
 40
0.0
 40
0.0
 40
0.0
 40
0.0
 40
0.0262128478202498
 40
0.2207891199768959
 40
0.4154575062730343
 40
0.6106014737284562
 40
0.8050755435925688
 40
1.0
 40
1.0
 40
1.0
 40
1.0
 10
25.37436357293759
 20
3.962313247477875
 30
0.0
 10
25.40651770700868
 20
3.964734457649993
 30
0.0
 10
25.67734989639384
 20
3.985128154162751
 30
0.0
 10
26.18566681222386
 20
3.900250415736943
 30
0.0
 10
26.90127290640488
 20
3.701336114103289
 30
0.0
 10
27.61861368989004
 20
3.369273451254254
 30
0.0
 10
28.33346979894509
 20
2.935100050693822
 30
0.0
 10
28.81097250308416
 20
2.568799367900285
 30
0.0
 10
29.04999999999998
 20
2.385437190958172
 30
0.0
  0
SPLINE
  5
C4
330
1F
100
AcDbEntity
  8
외형선
  6
Continuous
370
    15
100
AcDbSpline
210
0.0
220
0.0
230
1.0
 70
    24
 71
     3
 72
    20
 73
    16
 74
     0
 42
0.000000001
 43
0.00000001
 40
0.0
 40
0.0
 40
0.0
 40
0.0
 40
0.0696227104909573
 40
0.144403464561764
 40
0.2191842186325694
 40
0.2939649727033749
 40
0.368745726774179
 40
0.4435264808449831
 40
0.5183072349157684
 40
0.5930879889865536
 40
0.6678687430573751
 40
0.7426494971281964
 40
0.8174302511989993
 40
0.8922110052698023
 40
0.9999999999999999
 40
0.9999999999999999
 40
0.9999999999999999
 40
0.9999999999999999
 10
9.999999999999966
 20
-0.1381021388193102
 30
0.0
 10
9.999999999999966
 20
-0.1616781226479658
 30
0.0
 10
9.999999999999973
 20
-0.2105767323301062
 30
0.0
 10
9.999999999999966
 20
-0.3365047025971268
 30
0.0
 10
9.999999999999973
 20
-0.5004420086521958
 30
0.0
 10
9.999999999999973
 20
-0.6980572009964656
 30
0.0
 10
9.999999999999966
 20
-0.9237245053641883
 30
0.0
 10
9.99999999999998
 20
-1.170369480032189
 30
0.0
 10
9.999999999999966
 20
-1.431629154530478
 30
0.0
 10
9.999999999999988
 20
-1.699692341169103
 30
0.0
 10
9.999999999999988
 20
-1.967001572618923
 30
0.0
 10
9.99999999999998
 20
-2.226416167776391
 30
0.0
 10
9.99999999999998
 20
-2.469104485292559
 30
0.0
 10
9.99999999999996
 20
-2.725485611648754
 30
0.0
 10
9.99999999999996
 20
-2.867461881807323
 30
0.0
 10
9.99999999999996
 20
-2.951284527872394
 30
0.0
  0
LINE
  5
C5
330
1F
100
AcDbEntity
  8
0
  6
Continuous
 62
     1
370
    15
100
AcDbLine
 10
29.04999999999997
 20
1.556500915391258
 30
0.0
 11
29.04999999999997
 21
2.385437190958172
 31
0.0
  0
LINE
  5
C6
330
1F
100
AcDbEntity
  8
외형선
  6
Continuous
370
    15
100
AcDbLine
 10
9.999999999999966
 20
-3.500420711360147
 30
0.0
 11
9.99999999999996
 21
-2.951284527872394
 31
0.0
  0
SPLINE
  5
C7
330
1F
100
AcDbEntity
  8
외형선
  6
Continuous
370
    15
100
AcDbSpline
210
0.0
220
0.0
230
1.0
 70
    24
 71
     3
 72
    21
 73
    17
 74
     0
 42
0.000000001
 43
0.00000001
 40
0.0
 40
0.0
 40
0.0
 40
0.0
 40
0.0471968319304493
 40
0.1202528827966422
 40
0.1954275640870531
 40
0.2684836149532004
 40
0.343658296243635
 40
0.4167143471098038
 40
0.4918890284002613
 40
0.5649450792661591
 40
0.640119760556862
 40
0.7131758114230223
 40
0.7883504927134697
 40
0.8614065435796213
 40
0.9365812248700596
 40
1.0
 40
1.0
 40
1.0
 40
1.0
 10
9.99999999999996
 20
-2.951284527872397
 30
0.0
 10
9.999999999999952
 20
-2.91602109514838
 30
0.0
 10
9.999999999999947
 20
-2.82617333908252
 30
0.0
 10
10.0
 20
-2.650767586286582
 30
0.0
 10
9.999999999999911
 20
-2.426592245985455
 30
0.0
 10
10.00000000000006
 20
-2.178389755756019
 30
0.0
 10
9.999999999999897
 20
-1.918369032662523
 30
0.0
 10
10.0
 20
-1.649018213584053
 30
0.0
 10
9.999999999999932
 20
-1.382858532902245
 30
0.0
 10
10.00000000000001
 20
-1.122626827124351
 30
0.0
 10
9.99999999999989
 20
-0.8803487060500276
 30
0.0
 10
10.00000000000004
 20
-0.6586235682358813
 30
0.0
 10
9.999999999999918
 20
-0.4673334490004686
 30
0.0
 10
9.99999999999998
 20
-0.309888898882162
 30
0.0
 10
9.99999999999994
 20
-0.1935184804386107
 30
0.0
 10
9.999999999999966
 20
-0.1510980244542907
 30
0.0
 10
9.99999999999998
 20
-0.1316869106220539
 30
0.0
  0
SPLINE
  5
C8
330
1F
100
AcDbEntity
  8
외형선
  6
Continuous
370
    15
100
AcDbSpline
210
0.0
220
0.0
230
1.0
 70
     8
 71
     3
 72
    10
 73
     6
 74
     0
 42
0.000000001
 43
0.00000001
 40
0.0
 40
0.0
 40
0.0
 40
0.0
 40
0.5
 40
0.5
 40
1.0
 40
1.0
 40
1.0
 40
1.0
 10
10.00000000000829
 20
-2.951284527877968
 30
0.0
 10
9.833365843497136
 20
-2.839877332232132
 30
0.0
 10
9.668913697062047
 20
-2.721179813997323
 30
0.0
 10
9.33504071689497
 20
-2.468842631409782
 30
0.0
 10
9.166958757710564
 20
-2.335480455760796
 30
0.0
 10
8.999730514439182
 20
-2.196499987170326
 30
0.0
  0
SPLINE
  5
C9
330
1F
100
AcDbEntity
  8
외형선
  6
Continuous
370
    15
100
AcDbSpline
210
0.0
220
0.0
230
1.0
 70
     8
 71
     3
 72
    10
 73
     6
 74
     0
 42
0.000000001
 43
0.00000001
 40
0.0
 40
0.0
 40
0.0
 40
0.0
 40
0.5
 40
0.5
 40
1.0
 40
1.0
 40
1.0
 40
1.0
 10
10.00000000000831
 20
-0.1316869106302852
 30
0.0
 10
9.833365843497164
 20
0.0349248636987502
 30
0.0
 10
9.66891369706204
 20
0.2011608777523839
 30
0.0
 10
9.33504071689497
 20
0.5333492780084915
 30
0.0
 10
9.166958757710571
 20
0.6988473897383536
 30
0.0
 10
8.999730514439175
 20
0.8617779616847446
 30
0.0
  0
LINE
  5
CA
330
1F
100
AcDbEntity
  8
외형선
  6
Continuous
370
    15
100
AcDbLine
 10
8.999730514439182
 20
-3.967675071276098
 30
0.0
 11
8.999730514439182
 21
-2.923805784043837
 31
0.0
  0
SPLINE
  5
CB
330
1F
100
AcDbEntity
  8
외형선
  6
Continuous
370
    15
100
AcDbSpline
210
0.0
220
0.0
230
1.0
 70
     8
 71
     3
 72
    10
 73
     6
 74
     0
 42
0.000000001
 43
0.00000001
 40
0.0
 40
0.0
 40
0.0
 40
0.0
 40
0.5
 40
0.5
 40
1.0
 40
1.0
 40
1.0
 40
1.0
 10
10.00000000000829
 20
-3.772040290864325
 30
0.0
 10
9.833365843497136
 20
-3.823734382978534
 30
0.0
 10
9.668913697062047
 20
-3.865266479638031
 30
0.0
 10
9.33504071689497
 20
-3.928087067322952
 30
0.0
 10
9.166958757710564
 20
-3.949199623010957
 30
0.0
 10
8.999730514439182
 20
-3.959745161575502
 30
0.0
  0
LINE
  5
CC
330
1F
100
AcDbEntity
  8
외형선
  6
Continuous
370
    15
100
AcDbLine
 10
8.999730514439182
 20
3.96189476612911
 30
0.0
 11
8.999730514439182
 21
3.969824928723902
 31
0.0
  0
SPLINE
  5
CD
330
1F
100
AcDbEntity
  8
외형선
  6
Continuous
370
    15
100
AcDbSpline
210
0.0
220
0.0
230
1.0
 70
     8
 71
     3
 72
    10
 73
     6
 74
     0
 42
0.000000001
 43
0.00000001
 40
0.0
 40
0.0
 40
0.0
 40
0.0
 40
0.5
 40
0.5
 40
1.0
 40
1.0
 40
1.0
 40
1.0
 10
10.00000000000829
 20
3.774190148312121
 30
0.0
 10
9.833365843497136
 20
3.825884240426331
 30
0.0
 10
9.668913697062047
 20
3.86741633708583
 30
0.0
 10
9.33504071689497
 20
3.930236924770754
 30
0.0
 10
9.166958757710564
 20
3.951349480458758
 30
0.0
 10
8.999730514439182
 20
3.961895019023304
 30
0.0
  0
SPLINE
  5
CE
330
1F
100
AcDbEntity
  8
외형선
  6
Continuous
370
    15
100
AcDbSpline
210
0.0
220
0.0
230
1.0
 70
     8
 71
     3
 72
    10
 73
     6
 74
     0
 42
0.000000001
 43
0.00000001
 40
0.0
 40
0.0
 40
0.0
 40
0.0
 40
0.5
 40
0.5
 40
1.0
 40
1.0
 40
1.0
 40
1.0
 10
10.00000000000831
 20
3.369808729457685
 30
0.0
 10
9.833365843497164
 20
3.457944081010952
 30
0.0
 10
9.66891369706204
 20
3.536823761448447
 30
0.0
 10
9.33504071689497
 20
3.676260877908711
 30
0.0
 10
9.166958757710571
 20
3.736546462938518
 30
0.0
 10
8.999730514439175
 20
3.786664907469564
 30
0.0
  0
LINE
  5
CF
330
1F
100
AcDbEntity
  8
외형선
  6
Continuous
370
    15
100
AcDbLine
 10
8.999730514439182
 20
1.764316517350405
 30
0.0
 11
8.999730514439182
 21
3.786667676565208
 31
0.0
  0
SPLINE
  5
D0
330
1F
100
AcDbEntity
  8
외형선
  6
Continuous
370
    15
100
AcDbSpline
210
0.0
220
0.0
230
1.0
 70
     8
 71
     3
 72
    10
 73
     6
 74
     0
 42
0.000000001
 43
0.00000001
 40
0.0
 40
0.0
 40
0.0
 40
0.0
 40
0.5
 40
0.5
 40
1.0
 40
1.0
 40
1.0
 40
1.0
 10
10.00000000000829
 20
0.8218306917102535
 30
0.0
 10
9.833365843497136
 20
0.9849319794703014
 30
0.0
 10
9.668913697062047
 20
1.145161594364608
 30
0.0
 10
9.33504071689497
 20
1.460319364637074
 30
0.0
 10
9.166958757710564
 20
1.614794095974067
 30
0.0
 10
8.999730514439182
 20
1.764320103129083
 30
0.0
  0
LINE
  5
D1
330
1F
100
AcDbEntity
  8
외형선
  6
Continuous
370
    15
100
AcDbLine
 10
8.999730514439182
 20
-2.19650332005481
 30
0.0
 11
8.999730514439182
 21
0.861786963797436
 31
0.0
  0
SPLINE
  5
D2
330
1F
100
AcDbEntity
  8
외형선
  6
Continuous
370
    15
100
AcDbSpline
210
0.0
220
0.0
230
1.0
 70
     8
 71
     3
 72
    10
 73
     6
 74
     0
 42
0.000000001
 43
0.00000001
 40
0.0
 40
0.0
 40
0.0
 40
0.0
 40
0.5
 40
0.5
 40
1.0
 40
1.0
 40
1.0
 40
1.0
 10
10.00000000000831
 20
-3.500420711364043
 30
0.0
 10
9.833365843497164
 20
-3.421944288588272
 30
0.0
 10
9.66891369706204
 20
-3.334587954972132
 30
0.0
 10
9.33504071689497
 20
-3.141836671176285
 30
0.0
 10
9.166958757710571
 20
-3.03662414447623
 30
0.0
 10
8.999730514439175
 20
-2.923812017060884
 30
0.0
  0
LINE
  5
D3
330
1F
100
AcDbEntity
  8
외형선
  6
Continuous
370
    15
100
AcDbLine
 10
-33.65625000000004
 20
0.0010749287239018
 30
0.0
 11
-33.65625000000004
 21
3.969824928723902
 31
0.0
  0
LINE
  5
D4
330
1F
100
AcDbEntity
  8
외형선
  6
Continuous
370
    15
100
AcDbLine
 10
-33.65625000000004
 20
-3.967675071276098
 30
0.0
 11
-33.65625000000004
 21
0.0010749287239018
 31
0.0
  0
LINE
  5
D5
330
1F
100
AcDbEntity
  8
외형선
  6
Continuous
370
    15
100
AcDbLine
 10
-34.45000000000004
 20
0.0010749287239018
 30
0.0
 11
-34.45000000000004
 21
3.176074928723906
 31
0.0
  0
LINE
  5
D6
330
1F
100
AcDbEntity
  8
외형선
  6
Continuous
370
    15
100
AcDbLine
 10
-34.45000000000004
 20
-3.173925071276102
 30
0.0
 11
-34.45000000000004
 21
0.0010749287239018
 31
0.0
  0
SPLINE
  5
D7
330
1F
100
AcDbEntity
  8
외형선
  6
Continuous
370
    15
100
AcDbSpline
210
0.0
220
0.0
230
1.0
 70
    24
 71
     3
 72
    21
 73
    17
 74
     0
 42
0.000000001
 43
0.00000001
 40
0.0
 40
0.0
 40
0.0
 40
0.0
 40
0.01758184779318
 40
0.0898320371838568
 40
0.1620822265745337
 40
0.2343324159652322
 40
0.3065826053559307
 40
0.3788327947466169
 40
0.451082984137303
 40
0.5233331735279925
 40
0.595583362918682
 40
0.6678335523093628
 40
0.7400837417000438
 40
0.8123339310907375
 40
0.8845841204814314
 40
1.0
 40
1.0
 40
1.0
 40
1.0
 10
9.999999999999952
 20
0.6946920816139832
 30
0.0
 10
9.99999999999996
 20
0.6932893901790996
 30
0.0
 10
9.99999999999996
 20
0.6861225308922844
 30
0.0
 10
9.99999999999994
 20
0.7185143481330474
 30
0.0
 10
9.999999999999932
 20
0.7915039850189409
 30
0.0
 10
9.999999999999952
 20
0.9112249544406795
 30
0.0
 10
9.999999999999952
 20
1.067962179015768
 30
0.0
 10
9.999999999999952
 20
1.260018350127329
 30
0.0
 10
9.999999999999932
 20
1.480306319592215
 30
0.0
 10
9.999999999999952
 20
1.723719412580649
 30
0.0
 10
9.999999999999947
 20
1.982549852777218
 30
0.0
 10
9.999999999999947
 20
2.249892197903307
 30
0.0
 10
9.999999999999952
 20
2.518195176689112
 30
0.0
 10
9.99999999999996
 20
2.77886569625555
 30
0.0
 10
9.99999999999996
 20
3.077761031577268
 30
0.0
 10
9.999999999999947
 20
3.258594775312768
 30
0.0
 10
9.99999999999994
 20
3.369808729445091
 30
0.0
  0
SPLINE
  5
D8
330
1F
100
AcDbEntity
  8
외형선
  6
Continuous
370
    15
100
AcDbSpline
210
0.0
220
0.0
230
1.0
 70
    24
 71
     3
 72
     9
 73
     5
 74
     0
 42
0.000000001
 43
0.00000001
 40
0.0
 40
0.0
 40
0.0
 40
0.0
 40
0.7317671697048395
 40
1.0
 40
1.0
 40
1.0
 40
1.0
 10
9.99999999999996
 20
-3.772040290866911
 30
0.0
 10
9.999999999999952
 20
-3.715396917507651
 30
0.0
 10
9.999999999999932
 20
-3.637990638974949
 30
0.0
 10
9.99999999999996
 20
-3.564304210701625
 30
0.0
 10
9.99999999999996
 20
-3.54453909149153
 30
0.0
  0
LINE
  5
D9
330
1F
100
AcDbEntity
  8
중심선
 48
0.8
100
AcDbLine
 10
-37.45000000000002
 20
0.0010749287238931
 30
0.0
 11
32.04999999999998
 21
0.0010749287238978
 31
0.0
  0
LINE
  5
DA
330
1F
100
AcDbEntity
  8
참조1
100
AcDbLine
 10
-15.4
 20
0.0010749287238892
 30
0.0
 11
-15.39999999999999
 21
-39.99892507127611
 31
0.0
  0
LINE
  5
DB
330
1F
100
AcDbEntity
  8
참조1
100
AcDbLine
 10
-15.39999999999999
 20
-39.99892507127611
 30
0.0
 11
-13.09635681430868
 21
-39.9989250712761
 31
0.0
  0
CIRCLE
  5
DC
330
1F
100
AcDbEntity
  8
해칭선
100
AcDbCircle
 10
0.0
 20
0.0
 30
0.0
 40
3.000000000000001
  0
INSERT
  5
DD
330
1F
100
AcDbEntity
  8
0
  6
Continuous
 62
     7
100
AcDbBlockReference
 66
     1
  2
블럭10
 10
-29.3402729321252
 20
-52.04609937292004
 30
0.0
  0
ATTRIB
  5
DE
330
DD
100
AcDbEntity
  8
FORMAT
 62
     2
100
AcDbText
 10
-39.48190894426183
 20
-49.97073246008785
 30
0.0
 40
4.233333333333333
  1
EM208020 [ 6 FLUTE ]
 41
0.75
  7
SLDTEXTSTYLE0
 11
-39.48190894426183
 21
-52.08739912675452
 31
0.0
100
AcDbAttribute
  2
AUTOATTR0
 70
     0
 74
     1
  0
SEQEND
  5
DF
330
DD
100
AcDbEntity
  8
0
  6
Continuous
 62
     7
  0
HATCH
  5
E0
330
1F
100
AcDbEntity
  8
중심선
100
AcDbHatch
 10
0.0
 20
0.0
 30
0.0
210
0.0
220
0.0
230
1.0
  2
SOLID
 70
     1
 71
     0
 91
        1
 92
        0
 93
        4
 72
     1
 10
-23.62536362774437
 20
-35.7989250712761
 11
-27.07163887158165
 21
-35.7989250712761
 72
     1
 10
-27.07163887158165
 20
-35.7989250712761
 11
-29.1998687307857
 21
-38.33525065184867
 72
     1
 10
-29.1998687307857
 20
-38.33525065184867
 11
-25.75356040183524
 21
-38.33521122254619
 72
     1
 10
-25.75356040183524
 20
-38.33521122254619
 11
-23.62536362774437
 21
-35.7989250712761
 97
        0
 75
     0
 76
     1
 98
        1
 10
0.0
 20
0.0
  0
HATCH
  5
E1
330
1F
100
AcDbEntity
  8
중심선
100
AcDbHatch
 10
0.0
 20
0.0
 30
0.0
210
0.0
220
0.0
230
1.0
  2
SOLID
 70
     1
 71
     0
 91
        1
 92
        0
 93
        4
 72
     1
 10
-18.61259963670844
 20
-35.7989250712761
 11
-22.05887488054567
 21
-35.7989250712761
 72
     1
 10
-22.05887488054567
 20
-35.7989250712761
 11
-26.59001288890309
 21
-41.19892507127612
 72
     1
 10
-26.59001288890309
 20
-41.19892507127612
 11
-23.1437376450658
 21
-41.19892507127612
 72
     1
 10
-23.1437376450658
 20
-41.19892507127612
 11
-18.61259963670844
 21
-35.7989250712761
 97
        0
 75
     0
 76
     1
 98
        1
 10
0.0
 20
0.0
  0
HATCH
  5
E2
330
1F
100
AcDbEntity
  8
중심선
100
AcDbHatch
 10
0.0
 20
0.0
 30
0.0
210
0.0
220
0.0
230
1.0
  2
SOLID
 70
     1
 71
     0
 91
        1
 92
        0
 93
        4
 72
     1
 10
-13.59983564567255
 20
-35.7989250712761
 11
-17.04611088950961
 21
-35.7989250712761
 72
     1
 10
-17.04611088950961
 20
-35.7989250712761
 11
-24.09454779139888
 21
-44.19892507127612
 72
     1
 10
-24.09454779139888
 20
-44.19892507127612
 11
-20.6482725475616
 21
-44.19892507127612
 72
     1
 10
-20.6482725475616
 20
-44.19892507127612
 11
-13.59983564567255
 21
-35.7989250712761
 97
        0
 75
     0
 76
     1
 98
        1
 10
0.0
 20
0.0
  0
HATCH
  5
E3
330
1F
100
AcDbEntity
  8
중심선
100
AcDbHatch
 10
0.0
 20
0.0
 30
0.0
210
0.0
220
0.0
230
1.0
  2
SOLID
 70
     1
 71
     0
 91
        1
 92
        0
 93
        6
 72
     3
 10
-8.79994521466032
 20
-39.99892507132738
 11
3.960054785062284
 21
1.540850780301639E-10
 40
0.3939339440162633
 50
17.09539180608433
 51
320.0019657685081
 73
     0
 72
     1
 10
-7.116945558959753
 20
-38.58681907591443
 11
-4.811643685258687
 21
-36.65249236586649
 72
     3
 10
-8.799945214713167
 20
-39.99892507127625
 11
6.600054785286829
 21
-1.249000902703301E-13
 40
0.6363583540795982
 50
39.99873849337408
 51
368.4976242363725
 73
     1
 72
     1
 10
-2.374612722812558
 20
-39.03892507120613
 11
-10.11987790787724
 21
-39.03892507120613
 72
     1
 10
-10.11987790787724
 20
-39.03892507120613
 11
-10.11990295232318
 21
-40.95892507120602
 72
     1
 10
-10.11990295232318
 20
-40.95892507120602
 11
-5.678523182851142
 21
-40.95892507120599
 97
        0
 75
     0
 76
     1
 98
        1
 10
0.0
 20
0.0
  0
DIMENSION
  5
E4
330
1F
100
AcDbEntity
  8
치수문자_일반주서
100
AcDbDimension
  2
_D
 10
41.93003723787223
 20
-3.967675071276055
 30
0.0
 11
41.93003723787213
 21
24.10736317762554
 31
0.0
 70
   160
  1
%%c<>
 71
     2
 42
7.908538248901593
 52
-270.0
  3
SLDDIMSTYLE0
100
AcDbAlignedDimension
 13
29.04999999999996
 23
3.940863177625493
 33
0.0
 14
29.04999999999996
 24
-3.9676750712761
 34
0.0
 50
90.0000000000002
100
AcDbRotatedDimension
1001
ACAD
1000
DSTYLE
1002
{
1070
   171
1070
     6
1070
   273
1070
     7
1002
}
1001
ACAD_DSTYLE_DIMFLIPARROW_SYMBOL
1070
   385
1070
     0
1001
ACAD_DSTYLE_DIMFLIPARROW_WHICH_SYMBOL
1070
   386
1070
     3
  0
DIMENSION
  5
F9
330
1F
100
AcDbEntity
  8
치수문자_일반주서
100
AcDbDimension
  2
_D_1
 10
-48.56125000000003
 20
-3.967675071276147
 30
0.0
 11
-48.56125000000004
 21
0.0010749287238931
 31
0.0
 70
   160
  1
%%c<>
 71
     2
 42
7.937499999999986
 52
-270.0
  3
SLDDIMSTYLE0
100
AcDbAlignedDimension
 13
-33.65625000000003
 23
3.969824928723895
 33
0.0
 14
-33.65625000000003
 24
-3.967675071276091
 34
0.0
 50
90.0000000000002
100
AcDbRotatedDimension
1001
ACAD
1000
DSTYLE
1002
{
1070
   171
1070
     6
1070
   273
1070
     7
1002
}
  0
DIMENSION
  5
10D
330
1F
100
AcDbEntity
  8
치수문자_일반주서
100
AcDbDimension
  2
_D_2
 10
9.999999999999963
 20
17.07746522706857
 30
0.0
 11
19.52499999999996
 21
17.07746522706857
 31
0.0
 70
   160
  1
<>
 71
     2
 42
19.05
  3
SLDDIMSTYLE0
100
AcDbAlignedDimension
 13
29.04999999999997
 23
3.940863177625494
 33
0.0
 14
9.999999999999966
 24
3.774190148314708
 34
0.0
100
AcDbRotatedDimension
1001
ACAD
1000
DSTYLE
1002
{
1070
   171
1070
     6
1070
   273
1070
     7
1002
}
  0
DIMENSION
  5
122
330
1F
100
AcDbEntity
  8
치수문자_일반주서
100
AcDbDimension
  2
_D_3
 10
-34.45000000000005
 20
32.52611829723231
 30
0.0
 11
-2.094692501345726
 21
32.52611829723231
 31
0.0
 70
   160
  1
<>
 71
     2
 42
63.5
  3
SLDDIMSTYLE0
100
AcDbAlignedDimension
 13
29.04999999999997
 23
3.940863177625494
 33
0.0
 14
-34.45000000000004
 24
3.176074928723906
 34
0.0
100
AcDbRotatedDimension
1001
ACAD
1000
DSTYLE
1002
{
1070
   171
1070
     6
1070
   273
1070
     7
1002
}
  0
LINE
  5
136
330
1F
100
AcDbEntity
  8
참조1
100
AcDbLine
 10
84.87598381534559
 20
7.441074928723896
 30
0.0
 11
84.87598381534559
 21
-7.438925071276109
 31
0.0
  0
LINE
  5
137
330
1F
100
AcDbEntity
  8
참조1
100
AcDbLine
 10
97.5759838153456
 20
5.441074928723896
 30
0.0
 11
84.87598381534559
 21
5.441074928723896
 31
0.0
  0
SOLID
  5
138
330
1F
100
AcDbEntity
  8
참조1
100
AcDbTrace
 10
84.87598381534559
 20
5.441074928723896
 30
0.0
 11
91.22598381534559
 21
4.425074928723896
 31
0.0
 12
91.22598381534559
 22
6.457074928723896
 32
0.0
 13
91.22598381534559
 23
6.457074928723896
 33
0.0
  0
LINE
  5
139
330
1F
100
AcDbEntity
  8
참조1
100
AcDbLine
 10
97.5759838153456
 20
-5.438925071276109
 30
0.0
 11
84.87598381534559
 21
-5.438925071276109
 31
0.0
  0
SOLID
  5
13A
330
1F
100
AcDbEntity
  8
참조1
100
AcDbTrace
 10
84.87598381534559
 20
-5.438925071276109
 30
0.0
 11
91.22598381534559
 21
-6.454925071276109
 31
0.0
 12
91.22598381534559
 22
-4.422925071276109
 32
0.0
 13
91.22598381534559
 23
-4.422925071276109
 33
0.0
  0
MTEXT
  5
13B
330
1F
100
AcDbEntity
  8
참조1
100
AcDbMText
 10
94.27347390781586
 20
10.98929157337383
 30
0.0
 40
3.5
 41
0.0
 71
     1
 72
     1
  1
A
  7
SLDTEXTSTYLE0
 73
     1
 44
1.0
  0
MTEXT
  5
13C
330
1F
100
AcDbEntity
  8
참조1
100
AcDbMText
 10
94.27347390781586
 20
0.1092915733738259
 30
0.0
 40
3.5
 41
0.0
 71
     1
 72
     1
  1
A
  7
SLDTEXTSTYLE0
 73
     1
 44
1.0
  0
INSERT
  5
143
330
1F
100
AcDbEntity
  8
해칭선
100
AcDbBlockReference
  2
SW_DOWELSYMBOL_0
 10
0.0
 20
0.0
 30
0.0
  0
ENDSEC
  0
SECTION
  2
OBJECTS
  0
DICTIONARY
  5
C
330
0
100
AcDbDictionary
281
     1
  3
ACAD_GROUP
350
D
  3
ACAD_IMAGE_VARS
350
167
  3
ACAD_LAYOUT
350
1A
  3
ACAD_MLINESTYLE
350
17
  3
ACAD_PLOTSETTINGS
350
19
  3
ACAD_PLOTSTYLENAME
350
E
  3
ACAD_SCALELIST
350
47
  3
APPDATA
350
165
  3
DWGPROPS
350
198
  0
DICTIONARY
  5
18E
330
2
100
AcDbDictionary
280
     1
281
     1
  3
ACAD_LAYERSTATES
360
18F
  0
DICTIONARY
  5
D
102
{ACAD_REACTORS
330
C
102
}
330
C
100
AcDbDictionary
281
     1
  0
RASTERVARIABLES
  5
167
102
{ACAD_REACTORS
330
C
102
}
330
C
100
AcDbRasterVariables
 90
        0
 70
     1
 71
     1
 72
     1
  0
DICTIONARY
  5
1A
102
{ACAD_REACTORS
330
C
102
}
330
C
100
AcDbDictionary
281
     1
  3
Layout1
350
1E
  3
Layout2
350
26
  3
Model
350
22
  0
DICTIONARY
  5
17
102
{ACAD_REACTORS
330
C
102
}
330
C
100
AcDbDictionary
281
     1
  3
Standard
350
18
  0
DICTIONARY
  5
19
102
{ACAD_REACTORS
330
C
102
}
330
C
100
AcDbDictionary
281
     1
  0
ACDBDICTIONARYWDFLT
  5
E
102
{ACAD_REACTORS
330
C
102
}
330
C
100
AcDbDictionary
281
     1
  3
Normal
350
F
100
AcDbDictionaryWithDefault
340
F
  0
DICTIONARY
  5
47
102
{ACAD_REACTORS
330
C
102
}
330
C
100
AcDbDictionary
281
     1
  3
A0
350
48
  3
A1
350
49
  3
A2
350
4A
  3
A3
350
4B
  3
A4
350
4C
  3
A5
350
4D
  3
A6
350
4E
  3
A7
350
4F
  3
A8
350
50
  3
A9
350
51
  3
B0
350
52
  3
B1
350
53
  3
B2
350
54
  3
B3
350
55
  3
B4
350
56
  3
B5
350
57
  3
B6
350
58
  3
B7
350
59
  3
B8
350
5A
  3
B9
350
5B
  3
C0
350
5C
  3
C1
350
5D
  3
C2
350
5E
  3
C3
350
5F
  3
C4
350
60
  3
C5
350
61
  3
C6
350
62
  3
C7
350
63
  3
C8
350
64
  3
C9
350
65
  3
D0
350
66
  3
D1
350
67
  3
D2
350
68
  0
DICTIONARY
  5
165
102
{ACAD_REACTORS
330
C
102
}
330
C
100
AcDbDictionary
281
     1
  0
XRECORD
  5
198
102
{ACAD_REACTORS
330
C
102
}
330
C
100
AcDbXrecord
280
     1
  1
DWGPROPS COOKIE
  2

  3

  4

  6

  7

  8
12017012
  9

300
=
301
=
302
=
303
=
304
=
305
=
306
=
307
=
308
=
309
=
 40
0.0
 41
2458292.27054338
 42
2458295.443105162
  1

 90
        0
  0
DICTIONARY
  5
18F
102
{ACAD_REACTORS
330
18E
102
}
330
18E
100
AcDbDictionary
281
     1
  0
LAYOUT
  5
1E
102
{ACAD_REACTORS
330
1A
102
}
330
1A
100
AcDbPlotSettings
  1

  2
none_device
  4

  6

 40
0.0
 41
0.0
 42
0.0
 43
0.0
 44
0.0
 45
0.0
 46
0.0
 47
0.0
 48
0.0
 49
0.0
140
0.0
141
0.0
142
1.0
143
1.0
 70
   688
 72
     1
 73
     0
 74
     5
  7

 75
    16
147
1.0
148
0.0
149
0.0
100
AcDbLayout
  1
Layout1
 70
     1
 71
     1
 10
0.0
 20
0.0
 11
420.0
 21
297.0
 12
0.0
 22
0.0
 32
0.0
 14
1.000000000000000E+20
 24
1.000000000000000E+20
 34
1.000000000000000E+20
 15
-1.000000000000000E+20
 25
-1.000000000000000E+20
 35
-1.000000000000000E+20
146
0.0
 13
0.0
 23
0.0
 33
0.0
 16
1.0
 26
0.0
 36
0.0
 17
0.0
 27
1.0
 37
0.0
 76
     0
330
1B
  0
LAYOUT
  5
26
102
{ACAD_REACTORS
330
1A
102
}
330
1A
100
AcDbPlotSettings
  1

  2
none_device
  4

  6

 40
0.0
 41
0.0
 42
0.0
 43
0.0
 44
0.0
 45
0.0
 46
0.0
 47
0.0
 48
0.0
 49
0.0
140
0.0
141
0.0
142
1.0
143
1.0
 70
   688
 72
     1
 73
     0
 74
     5
  7

 75
    16
147
1.0
148
0.0
149
0.0
100
AcDbLayout
  1
Layout2
 70
     1
 71
     2
 10
0.0
 20
0.0
 11
0.0
 21
0.0
 12
0.0
 22
0.0
 32
0.0
 14
0.0
 24
0.0
 34
0.0
 15
0.0
 25
0.0
 35
0.0
146
0.0
 13
0.0
 23
0.0
 33
0.0
 16
1.0
 26
0.0
 36
0.0
 17
0.0
 27
1.0
 37
0.0
 76
     0
330
23
  0
LAYOUT
  5
22
102
{ACAD_REACTORS
330
1A
102
}
330
1A
100
AcDbPlotSettings
  1

  2
none_device
  4
ANSI_A_(11.00_x_8.50_Inches)
  6

 40
6.35
 41
19.05
 42
6.35000508
 43
19.05000254
 44
279.4
 45
215.9
 46
111.157057533916
 47
83.56563222345136
 48
0.0
 49
0.0
140
0.0
141
0.0
142
0.063442055282122
143
1.0
 70
  1696
 72
     0
 73
     0
 74
     0
  7

 75
     0
147
0.0235690232323232
148
0.0
149
0.0
100
AcDbLayout
  1
Model
 70
     1
 71
     0
 10
0.0
 20
0.0
 11
420.0
 21
297.0
 12
0.0
 22
0.0
 32
0.0
 14
1.000000000000000E+20
 24
1.000000000000000E+20
 34
1.000000000000000E+20
 15
-1.000000000000000E+20
 25
-1.000000000000000E+20
 35
-1.000000000000000E+20
146
0.0
 13
0.0
 23
0.0
 33
0.0
 16
1.0
 26
0.0
 36
0.0
 17
0.0
 27
1.0
 37
0.0
 76
     0
330
1F
331
29
  0
MLINESTYLE
  5
18
102
{ACAD_REACTORS
330
17
102
}
330
17
100
AcDbMlineStyle
  2
Standard
 70
     0
  3

 62
   256
 51
90.0
 52
90.0
 71
     2
 49
0.5
 62
   256
  6
BYLAYER
 49
-0.5
 62
   256
  6
BYLAYER
  0
ACDBPLACEHOLDER
  5
F
102
{ACAD_REACTORS
330
E
102
}
330
E
  0
SCALE
  5
48
102
{ACAD_REACTORS
330
47
102
}
330
47
100
AcDbScale
 70
     0
300
1:1
140
1.0
141
1.0
290
     1
  0
SCALE
  5
49
102
{ACAD_REACTORS
330
47
102
}
330
47
100
AcDbScale
 70
     0
300
1:2
140
1.0
141
2.0
290
     0
  0
SCALE
  5
4A
102
{ACAD_REACTORS
330
47
102
}
330
47
100
AcDbScale
 70
     0
300
1:4
140
1.0
141
4.0
290
     0
  0
SCALE
  5
4B
102
{ACAD_REACTORS
330
47
102
}
330
47
100
AcDbScale
 70
     0
300
1:5
140
1.0
141
5.0
290
     0
  0
SCALE
  5
4C
102
{ACAD_REACTORS
330
47
102
}
330
47
100
AcDbScale
 70
     0
300
1:8
140
1.0
141
8.0
290
     0
  0
SCALE
  5
4D
102
{ACAD_REACTORS
330
47
102
}
330
47
100
AcDbScale
 70
     0
300
1:10
140
1.0
141
10.0
290
     0
  0
SCALE
  5
4E
102
{ACAD_REACTORS
330
47
102
}
330
47
100
AcDbScale
 70
     0
300
1:16
140
1.0
141
16.0
290
     0
  0
SCALE
  5
4F
102
{ACAD_REACTORS
330
47
102
}
330
47
100
AcDbScale
 70
     0
300
1:20
140
1.0
141
20.0
290
     0
  0
SCALE
  5
50
102
{ACAD_REACTORS
330
47
102
}
330
47
100
AcDbScale
 70
     0
300
1:30
140
1.0
141
30.0
290
     0
  0
SCALE
  5
51
102
{ACAD_REACTORS
330
47
102
}
330
47
100
AcDbScale
 70
     0
300
1:40
140
1.0
141
40.0
290
     0
  0
SCALE
  5
52
102
{ACAD_REACTORS
330
47
102
}
330
47
100
AcDbScale
 70
     0
300
1:50
140
1.0
141
50.0
290
     0
  0
SCALE
  5
53
102
{ACAD_REACTORS
330
47
102
}
330
47
100
AcDbScale
 70
     0
300
1:100
140
1.0
141
100.0
290
     0
  0
SCALE
  5
54
102
{ACAD_REACTORS
330
47
102
}
330
47
100
AcDbScale
 70
     0
300
2:1
140
2.0
141
1.0
290
     0
  0
SCALE
  5
55
102
{ACAD_REACTORS
330
47
102
}
330
47
100
AcDbScale
 70
     0
300
4:1
140
4.0
141
1.0
290
     0
  0
SCALE
  5
56
102
{ACAD_REACTORS
330
47
102
}
330
47
100
AcDbScale
 70
     0
300
8:1
140
8.0
141
1.0
290
     0
  0
SCALE
  5
57
102
{ACAD_REACTORS
330
47
102
}
330
47
100
AcDbScale
 70
     0
300
10:1
140
10.0
141
1.0
290
     0
  0
SCALE
  5
58
102
{ACAD_REACTORS
330
47
102
}
330
47
100
AcDbScale
 70
     0
300
100:1
140
100.0
141
1.0
290
     0
  0
SCALE
  5
59
102
{ACAD_REACTORS
330
47
102
}
330
47
100
AcDbScale
 70
     0
300
1/128" = 1'-0"
140
0.0078125
141
12.0
290
     0
  0
SCALE
  5
5A
102
{ACAD_REACTORS
330
47
102
}
330
47
100
AcDbScale
 70
     0
300
1/64" = 1'-0"
140
0.015625
141
12.0
290
     0
  0
SCALE
  5
5B
102
{ACAD_REACTORS
330
47
102
}
330
47
100
AcDbScale
 70
     0
300
1/32" = 1'-0"
140
0.03125
141
12.0
290
     0
  0
SCALE
  5
5C
102
{ACAD_REACTORS
330
47
102
}
330
47
100
AcDbScale
 70
     0
300
1/16" = 1'-0"
140
0.0625
141
12.0
290
     0
  0
SCALE
  5
5D
102
{ACAD_REACTORS
330
47
102
}
330
47
100
AcDbScale
 70
     0
300
3/32" = 1'-0"
140
0.09375
141
12.0
290
     0
  0
SCALE
  5
5E
102
{ACAD_REACTORS
330
47
102
}
330
47
100
AcDbScale
 70
     0
300
1/8" = 1'-0"
140
0.125
141
12.0
290
     0
  0
SCALE
  5
5F
102
{ACAD_REACTORS
330
47
102
}
330
47
100
AcDbScale
 70
     0
300
3/16" = 1'-0"
140
0.1875
141
12.0
290
     0
  0
SCALE
  5
60
102
{ACAD_REACTORS
330
47
102
}
330
47
100
AcDbScale
 70
     0
300
1/4" = 1'-0"
140
0.25
141
12.0
290
     0
  0
SCALE
  5
61
102
{ACAD_REACTORS
330
47
102
}
330
47
100
AcDbScale
 70
     0
300
3/8" = 1'-0"
140
0.375
141
12.0
290
     0
  0
SCALE
  5
62
102
{ACAD_REACTORS
330
47
102
}
330
47
100
AcDbScale
 70
     0
300
1/2" = 1'-0"
140
0.5
141
12.0
290
     0
  0
SCALE
  5
63
102
{ACAD_REACTORS
330
47
102
}
330
47
100
AcDbScale
 70
     0
300
3/4" = 1'-0"
140
0.75
141
12.0
290
     0
  0
SCALE
  5
64
102
{ACAD_REACTORS
330
47
102
}
330
47
100
AcDbScale
 70
     0
300
1" = 1'-0"
140
1.0
141
12.0
290
     0
  0
SCALE
  5
65
102
{ACAD_REACTORS
330
47
102
}
330
47
100
AcDbScale
 70
     0
300
1-1/2" = 1'-0"
140
1.5
141
12.0
290
     0
  0
SCALE
  5
66
102
{ACAD_REACTORS
330
47
102
}
330
47
100
AcDbScale
 70
     0
300
3" = 1'-0"
140
3.0
141
12.0
290
     0
  0
SCALE
  5
67
102
{ACAD_REACTORS
330
47
102
}
330
47
100
AcDbScale
 70
     0
300
6" = 1'-0"
140
6.0
141
12.0
290
     0
  0
SCALE
  5
68
102
{ACAD_REACTORS
330
47
102
}
330
47
100
AcDbScale
 70
     0
300
1'-0" = 1'-0"
140
12.0
141
12.0
290
     0
  0
ENDSEC
  0
EOF
