  0
SECTION
  2
HEADER
  9
$ACADVER
  1
AC1015
  9
$ACADMAINTVER
 70
     6
  9
$DWGCODEPAGE
  3
ANSI_949
  9
$INSBASE
 10
0.0
 20
0.0
 30
0.0
  9
$EXTMIN
 10
-72.29957927627738
 20
-49.97180738881174
 30
0.0
  9
$EXTMAX
 10
111.8634838153456
 20
54.33255922524384
 30
0.0
  9
$LIMMIN
 10
0.0
 20
0.0
  9
$LIMMAX
 10
420.0
 20
297.0
  9
$ORTHOMODE
 70
     1
  9
$REGENMODE
 70
     1
  9
$FILLMODE
 70
     1
  9
$QTEXTMODE
 70
     0
  9
$MIRRTEXT
 70
     1
  9
$LTSCALE
 40
1.0
  9
$ATTMODE
 70
     1
  9
$TEXTSIZE
 40
3.5
  9
$TRACEWID
 40
1.0
  9
$TEXTSTYLE
  7
Standard
  9
$CLAYER
  8
0
  9
$CELTYPE
  6
ByLayer
  9
$CECOLOR
 62
   256
  9
$CELTSCALE
 40
1.0
  9
$DISPSILH
 70
     0
  9
$DIMSCALE
 40
1.0
  9
$DIMASZ
 40
3.302
  9
$DIMEXO
 40
1.0
  9
$DIMDLI
 40
3.75
  9
$DIMRND
 40
0.0
  9
$DIMDLE
 40
0.0
  9
$DIMEXE
 40
1.0
  9
$DIMTP
 40
0.0
  9
$DIMTM
 40
0.0
  9
$DIMTXT
 40
3.5
  9
$DIMCEN
 40
2.5
  9
$DIMTSZ
 40
0.0
  9
$DIMTOL
 70
     0
  9
$DIMLIM
 70
     0
  9
$DIMTIH
 70
     1
  9
$DIMTOH
 70
     1
  9
$DIMSE1
 70
     0
  9
$DIMSE2
 70
     0
  9
$DIMTAD
 70
     1
  9
$DIMZIN
 70
     0
  9
$DIMBLK
  1

  9
$DIMASO
 70
     1
  9
$DIMSHO
 70
     1
  9
$DIMPOST
  1

  9
$DIMAPOST
  1

  9
$DIMALT
 70
     0
  9
$DIMALTD
 70
     3
  9
$DIMALTF
 40
0.0393700787401575
  9
$DIMLFAC
 40
1.0
  9
$DIMTOFL
 70
     1
  9
$DIMTVP
 40
0.0
  9
$DIMTIX
 70
     0
  9
$DIMSOXD
 70
     0
  9
$DIMSAH
 70
     0
  9
$DIMBLK1
  1

  9
$DIMBLK2
  1

  9
$DIMSTYLE
  2
ISO-25
  9
$DIMCLRD
 70
     0
  9
$DIMCLRE
 70
     0
  9
$DIMCLRT
 70
     0
  9
$DIMTFAC
 40
1.0
  9
$DIMGAP
 40
1.524
  9
$DIMJUST
 70
     0
  9
$DIMSD1
 70
     0
  9
$DIMSD2
 70
     0
  9
$DIMTOLJ
 70
     0
  9
$DIMTZIN
 70
     0
  9
$DIMALTZ
 70
     0
  9
$DIMALTTZ
 70
     0
  9
$DIMUPT
 70
     0
  9
$DIMDEC
 70
     2
  9
$DIMTDEC
 70
     2
  9
$DIMALTU
 70
     2
  9
$DIMALTTD
 70
     3
  9
$DIMTXSTY
  7
Standard
  9
$DIMAUNIT
 70
     0
  9
$DIMADEC
 70
     2
  9
$DIMALTRND
 40
0.0
  9
$DIMAZIN
 70
     0
  9
$DIMDSEP
 70
    44
  9
$DIMATFIT
 70
     3
  9
$DIMFRAC
 70
     0
  9
$DIMLDRBLK
  1

  9
$DIMLUNIT
 70
     2
  9
$DIMLWD
 70
    -2
  9
$DIMLWE
 70
    -2
  9
$DIMTMOVE
 70
     0
  9
$LUNITS
 70
     2
  9
$LUPREC
 70
     2
  9
$SKETCHINC
 40
1.0
  9
$FILLETRAD
 40
10.0
  9
$AUNITS
 70
     0
  9
$AUPREC
 70
     2
  9
$MENU
  1
.
  9
$ELEVATION
 40
0.0
  9
$PELEVATION
 40
0.0
  9
$THICKNESS
 40
0.0
  9
$LIMCHECK
 70
     0
  9
$CHAMFERA
 40
0.0
  9
$CHAMFERB
 40
0.0
  9
$CHAMFERC
 40
0.0
  9
$CHAMFERD
 40
0.0
  9
$SKPOLY
 70
     0
  9
$TDCREATE
 40
2458289.705939954
  9
$TDUCREATE
 40
2458289.330939954
  9
$TDUPDATE
 40
2459697.386009526
  9
$TDUUPDATE
 40
2459697.011009526
  9
$TDINDWG
 40
0.0013141667
  9
$TDUSRTIMER
 40
0.0001961111
  9
$USRTIMER
 70
     1
  9
$ANGBASE
 50
0.0
  9
$ANGDIR
 70
     0
  9
$PDMODE
 70
     0
  9
$PDSIZE
 40
-1.0
  9
$PLINEWID
 40
0.0
  9
$SPLFRAME
 70
     0
  9
$SPLINETYPE
 70
     6
  9
$SPLINESEGS
 70
     8
  9
$HANDSEED
  5
1A1
  9
$SURFTAB1
 70
     6
  9
$SURFTAB2
 70
     6
  9
$SURFTYPE
 70
     6
  9
$SURFU
 70
     6
  9
$SURFV
 70
     6
  9
$UCSBASE
  2

  9
$UCSNAME
  2

  9
$UCSORG
 10
0.0
 20
0.0
 30
0.0
  9
$UCSXDIR
 10
1.0
 20
0.0
 30
0.0
  9
$UCSYDIR
 10
0.0
 20
1.0
 30
0.0
  9
$UCSORTHOREF
  2

  9
$UCSORTHOVIEW
 70
     0
  9
$UCSORGTOP
 10
0.0
 20
0.0
 30
0.0
  9
$UCSORGBOTTOM
 10
0.0
 20
0.0
 30
0.0
  9
$UCSORGLEFT
 10
0.0
 20
0.0
 30
0.0
  9
$UCSORGRIGHT
 10
0.0
 20
0.0
 30
0.0
  9
$UCSORGFRONT
 10
0.0
 20
0.0
 30
0.0
  9
$UCSORGBACK
 10
0.0
 20
0.0
 30
0.0
  9
$PUCSBASE
  2

  9
$PUCSNAME
  2

  9
$PUCSORG
 10
0.0
 20
0.0
 30
0.0
  9
$PUCSXDIR
 10
1.0
 20
0.0
 30
0.0
  9
$PUCSYDIR
 10
0.0
 20
1.0
 30
0.0
  9
$PUCSORTHOREF
  2

  9
$PUCSORTHOVIEW
 70
     0
  9
$PUCSORGTOP
 10
0.0
 20
0.0
 30
0.0
  9
$PUCSORGBOTTOM
 10
0.0
 20
0.0
 30
0.0
  9
$PUCSORGLEFT
 10
0.0
 20
0.0
 30
0.0
  9
$PUCSORGRIGHT
 10
0.0
 20
0.0
 30
0.0
  9
$PUCSORGFRONT
 10
0.0
 20
0.0
 30
0.0
  9
$PUCSORGBACK
 10
0.0
 20
0.0
 30
0.0
  9
$USERI1
 70
     0
  9
$USERI2
 70
     0
  9
$USERI3
 70
     0
  9
$USERI4
 70
     0
  9
$USERI5
 70
     0
  9
$USERR1
 40
0.0
  9
$USERR2
 40
0.0
  9
$USERR3
 40
0.0
  9
$USERR4
 40
0.0
  9
$USERR5
 40
0.0
  9
$WORLDVIEW
 70
     1
  9
$SHADEDGE
 70
     3
  9
$SHADEDIF
 70
    70
  9
$TILEMODE
 70
     1
  9
$MAXACTVP
 70
    64
  9
$PINSBASE
 10
0.0
 20
0.0
 30
0.0
  9
$PLIMCHECK
 70
     0
  9
$PEXTMIN
 10
1.000000000000000E+20
 20
1.000000000000000E+20
 30
1.000000000000000E+20
  9
$PEXTMAX
 10
-1.000000000000000E+20
 20
-1.000000000000000E+20
 30
-1.000000000000000E+20
  9
$PLIMMIN
 10
0.0
 20
0.0
  9
$PLIMMAX
 10
0.0
 20
0.0
  9
$UNITMODE
 70
     0
  9
$VISRETAIN
 70
     1
  9
$PLINEGEN
 70
     0
  9
$PSLTSCALE
 70
     1
  9
$TREEDEPTH
 70
  3020
  9
$CMLSTYLE
  2
Standard
  9
$CMLJUST
 70
     0
  9
$CMLSCALE
 40
20.0
  9
$PROXYGRAPHICS
 70
     1
  9
$MEASUREMENT
 70
     1
  9
$CELWEIGHT
370
    -1
  9
$ENDCAPS
280
     0
  9
$JOINSTYLE
280
     0
  9
$LWDISPLAY
290
     1
  9
$INSUNITS
 70
     4
  9
$HYPERLINKBASE
  1

  9
$STYLESHEET
  1

  9
$XEDIT
290
     1
  9
$CEPSNTYPE
380
     0
  9
$PSTYLEMODE
290
     1
  9
$FINGERPRINTGUID
  2
{4355B75E-64A3-4A31-B06C-4BA5F6C5C212}
  9
$VERSIONGUID
  2
{FAEB1C32-E019-11D5-929B-00C0DF256EC4}
  9
$EXTNAMES
290
     1
  9
$PSVPSCALE
 40
0.0
  9
$OLESTARTUP
290
     0
  0
ENDSEC
  0
SECTION
  2
CLASSES
  0
CLASS
  1
ACDBDICTIONARYWDFLT
  2
AcDbDictionaryWithDefault
  3
ObjectDBX Classes
 90
        0
280
     0
281
     0
  0
CLASS
  1
VISUALSTYLE
  2
AcDbVisualStyle
  3
ObjectDBX Classes
 90
     4095
280
     0
281
     0
  0
CLASS
  1
MATERIAL
  2
AcDbMaterial
  3
ObjectDBX Classes
 90
     1153
280
     0
281
     0
  0
CLASS
  1
SCALE
  2
AcDbScale
  3
ObjectDBX Classes
 90
     1153
280
     0
281
     0
  0
CLASS
  1
SUN
  2
AcDbSun
  3
SCENEOE
 90
     1153
280
     0
281
     0
  0
CLASS
  1
ACDBPLACEHOLDER
  2
AcDbPlaceHolder
  3
ObjectDBX Classes
 90
        0
280
     0
281
     0
  0
CLASS
  1
LAYOUT
  2
AcDbLayout
  3
ObjectDBX Classes
 90
        0
280
     0
281
     0
  0
CLASS
  1
TABLESTYLE
  2
AcDbTableStyle
  3
ObjectDBX Classes
 90
     4095
280
     0
281
     0
  0
CLASS
  1
MLEADERSTYLE
  2
AcDbMLeaderStyle
  3
ACDB_MLEADERSTYLE_CLASS
 90
     4095
280
     0
281
     0
  0
CLASS
  1
RASTERVARIABLES
  2
AcDbRasterVariables
  3
ISM
 90
        0
280
     0
281
     0
  0
ENDSEC
  0
SECTION
  2
TABLES
  0
TABLE
  2
VPORT
  5
8
330
0
100
AcDbSymbolTable
 70
     1
  0
VPORT
  5
29
330
8
100
AcDbSymbolTableRecord
100
AcDbViewportTableRecord
  2
*Active
 70
     0
 10
0.0
 20
0.0
 11
1.0
 21
1.0
 12
19.7819522695341
 22
2.180375918216043
 13
0.0
 23
0.0
 14
10.0
 24
10.0
 15
10.0
 25
10.0
 16
0.0
 26
0.0
 36
1.0
 17
0.0
 27
0.0
 37
0.0
 40
106.3904539463367
 41
2.008253094910592
 42
50.0
 43
0.0
 44
0.0
 50
0.0
 51
0.0
 71
    16
 72
  2000
 73
     1
 74
     3
 75
     0
 76
     0
 77
     0
 78
     0
281
     0
 65
     1
110
0.0
120
0.0
130
0.0
111
1.0
121
0.0
131
0.0
112
0.0
122
1.0
132
0.0
 79
     0
146
0.0
  0
ENDTAB
  0
TABLE
  2
LTYPE
  5
5
330
0
100
AcDbSymbolTable
 70
     6
  0
LTYPE
  5
14
330
5
100
AcDbSymbolTableRecord
100
AcDbLinetypeTableRecord
  2
ByBlock
 70
     0
  3

 72
    65
 73
     0
 40
0.0
  0
LTYPE
  5
15
330
5
100
AcDbSymbolTableRecord
100
AcDbLinetypeTableRecord
  2
ByLayer
 70
     0
  3

 72
    65
 73
     0
 40
0.0
  0
LTYPE
  5
16
330
5
100
AcDbSymbolTableRecord
100
AcDbLinetypeTableRecord
  2
Continuous
 70
     0
  3
Solid line
 72
    65
 73
     0
 40
0.0
  0
LTYPE
  5
6A
330
5
100
AcDbSymbolTableRecord
100
AcDbLinetypeTableRecord
  2
HIDDEN
 70
     0
  3
Hidden __ __ __ __ __ __ __ __ __ __ __ __ __ __
 72
    65
 73
     2
 40
1.905
 49
1.27
 74
     0
 49
-0.635
 74
     0
  0
LTYPE
  5
6B
330
5
100
AcDbSymbolTableRecord
100
AcDbLinetypeTableRecord
  2
PHANTOM
 70
     0
  3
Phantom ______  __  __  ______  __  __  ______
 72
    65
 73
     6
 40
12.7
 49
6.35
 74
     0
 49
-1.27
 74
     0
 49
1.27
 74
     0
 49
-1.27
 74
     0
 49
1.27
 74
     0
 49
-1.27
 74
     0
  0
LTYPE
  5
6C
330
5
100
AcDbSymbolTableRecord
100
AcDbLinetypeTableRecord
  2
CENTER
 70
     0
  3
Center ____ _ ____ _ ____ _ ____ _ ____ _ ____
 72
    65
 73
     4
 40
10.16
 49
6.35
 74
     0
 49
-1.27
 74
     0
 49
1.27
 74
     0
 49
-1.27
 74
     0
  0
LTYPE
  5
6D
330
5
100
AcDbSymbolTableRecord
100
AcDbLinetypeTableRecord
  2
CENTERX2
 70
     0
  3
Center (2x) ________  __  ________  __  _____
 72
    65
 73
     4
 40
20.32
 49
12.7
 74
     0
 49
-2.54
 74
     0
 49
2.54
 74
     0
 49
-2.54
 74
     0
  0
LTYPE
  5
6E
330
5
100
AcDbSymbolTableRecord
100
AcDbLinetypeTableRecord
  2
DOT2
 70
     0
  3
Dot (.5x) ........................................
 72
    65
 73
     2
 40
0.635
 49
0.0
 74
     0
 49
-0.635
 74
     0
  0
ENDTAB
  0
TABLE
  2
LAYER
  5
2
102
{ACAD_XDICTIONARY
360
16E
102
}
330
0
100
AcDbSymbolTable
 70
    18
  0
LAYER
  5
10
330
2
100
AcDbSymbolTableRecord
100
AcDbLayerTableRecord
  2
0
 70
     0
 62
     7
  6
Continuous
370
    -3
390
F
  0
LAYER
  5
6F
330
2
100
AcDbSymbolTableRecord
100
AcDbLayerTableRecord
  2
FORMAT
 70
     0
 62
     2
  6
Continuous
370
    -3
390
F
  0
LAYER
  5
70
330
2
100
AcDbSymbolTableRecord
100
AcDbLayerTableRecord
  2
외형선
 70
     0
 62
     4
  6
Continuous
370
    30
390
F
  0
LAYER
  5
71
330
2
100
AcDbSymbolTableRecord
100
AcDbLayerTableRecord
  2
숨은선
 70
     0
 62
     2
  6
HIDDEN
370
    15
390
F
  0
LAYER
  5
72
330
2
100
AcDbSymbolTableRecord
100
AcDbLayerTableRecord
  2
중심선
 70
     0
 62
     1
  6
CENTERX2
370
    -3
390
F
  0
LAYER
  5
73
330
2
100
AcDbSymbolTableRecord
100
AcDbLayerTableRecord
  2
파단선
 70
     0
 62
     4
  6
Continuous
370
    -3
390
F
  0
LAYER
  5
74
330
2
100
AcDbSymbolTableRecord
100
AcDbLayerTableRecord
  2
해칭선
 70
     0
 62
   100
  6
Continuous
370
    -3
390
F
  0
LAYER
  5
75
330
2
100
AcDbSymbolTableRecord
100
AcDbLayerTableRecord
  2
가는실선
 70
     0
 62
     4
  6
Continuous
370
    -3
390
F
  0
LAYER
  5
76
330
2
100
AcDbSymbolTableRecord
100
AcDbLayerTableRecord
  2
치수_보조선
 70
     0
 62
     4
  6
Continuous
370
    -3
390
F
  0
LAYER
  5
77
330
2
100
AcDbSymbolTableRecord
100
AcDbLayerTableRecord
  2
치수문자_일반주서
 70
     0
 62
     7
  6
Continuous
370
    15
390
F
  0
LAYER
  5
78
330
2
100
AcDbSymbolTableRecord
100
AcDbLayerTableRecord
  2
개별주서
 70
     0
 62
   100
  6
Continuous
370
    30
390
F
  0
LAYER
  5
79
330
2
100
AcDbSymbolTableRecord
100
AcDbLayerTableRecord
  2
중간선
 70
     0
 62
     2
  6
Continuous
370
    15
390
F
  0
LAYER
  5
7A
330
2
100
AcDbSymbolTableRecord
100
AcDbLayerTableRecord
  2
윤곽선
 70
     0
 62
     3
  6
Continuous
370
    40
390
F
  0
LAYER
  5
7B
330
2
100
AcDbSymbolTableRecord
100
AcDbLayerTableRecord
  2
중심마크
 70
     0
 62
   100
  6
Continuous
370
    30
390
F
  0
LAYER
  5
7C
330
2
100
AcDbSymbolTableRecord
100
AcDbLayerTableRecord
  2
가상선
 70
     0
 62
     4
  6
PHANTOM
370
    -3
390
F
  0
LAYER
  5
7D
330
2
100
AcDbSymbolTableRecord
100
AcDbLayerTableRecord
  2
특수지정선
 70
     0
 62
     5
  6
CENTERX2
370
    60
390
F
  0
LAYER
  5
7E
330
2
100
AcDbSymbolTableRecord
100
AcDbLayerTableRecord
  2
참조1
 70
     0
 62
    -4
  6
Continuous
370
    -3
390
F
  0
LAYER
  5
175
330
2
100
AcDbSymbolTableRecord
100
AcDbLayerTableRecord
  2
Defpoints
 70
     0
 62
     7
  6
Continuous
290
     0
370
    -3
390
F
  0
ENDTAB
  0
TABLE
  2
STYLE
  5
3
330
0
100
AcDbSymbolTable
 70
     2
  0
STYLE
  5
11
330
3
100
AcDbSymbolTableRecord
100
AcDbTextStyleTableRecord
  2
Standard
 70
     0
 40
0.0
 41
1.0
 50
0.0
 71
     0
 42
3.5
  3
txt
  4

  0
STYLE
  5
94
330
3
100
AcDbSymbolTableRecord
100
AcDbTextStyleTableRecord
  2
SLDTEXTSTYLE0
 70
     0
 40
0.0
 41
0.75
 50
0.0
 71
     0
 42
3.5
  3
TXT
  4

  0
ENDTAB
  0
TABLE
  2
VIEW
  5
6
330
0
100
AcDbSymbolTable
 70
     0
  0
ENDTAB
  0
TABLE
  2
UCS
  5
7
330
0
100
AcDbSymbolTable
 70
     0
  0
ENDTAB
  0
TABLE
  2
APPID
  5
9
330
0
100
AcDbSymbolTable
 70
     1
  0
APPID
  5
12
330
9
100
AcDbSymbolTableRecord
100
AcDbRegAppTableRecord
  2
ACAD
 70
     0
  0
ENDTAB
  0
TABLE
  2
DIMSTYLE
  5
A
330
0
100
AcDbSymbolTable
 70
     4
100
AcDbDimStyleTable
  0
DIMSTYLE
105
27
330
A
100
AcDbSymbolTableRecord
100
AcDbDimStyleTableRecord
  2
ISO-25
 70
     0
 41
2.5
 42
0.625
 43
3.75
 44
1.25
 73
     0
 74
     0
 77
     1
 78
     8
140
2.5
141
2.5
143
0.03937007874016
147
0.625
171
     3
172
     1
178
     0
271
     2
272
     2
274
     3
278
    44
283
     0
284
     8
340
11
  0
DIMSTYLE
105
C7
102
{ACAD_REACTORS
330
C6
330
DB
330
EF
330
103
102
}
330
A
100
AcDbSymbolTableRecord
100
AcDbDimStyleTableRecord
  2
SLDDIMSTYLE0
 70
     0
 41
3.302
 44
0.0
 45
0.000000001
 73
     0
 74
     0
 77
     1
 78
     4
 79
     1
140
3.5
143
0.0393700787401575
147
0.875
148
0.000000001
170
     1
172
     1
173
     1
178
     0
271
     2
272
     2
276
     2
284
    12
289
     0
340
94
  0
DIMSTYLE
105
DC
330
A
100
AcDbSymbolTableRecord
100
AcDbDimStyleTableRecord
  2
SLDDIMSTYLE1
 70
     0
 41
3.302
 44
0.0
 45
0.000000001
 73
     0
 74
     0
 77
     1
 78
     4
 79
     1
140
3.5
143
0.0393700787401575
147
0.875
148
0.000000001
170
     1
173
     1
178
     0
271
     2
272
     2
276
     2
284
    12
340
94
  0
DIMSTYLE
105
F0
330
A
100
AcDbSymbolTableRecord
100
AcDbDimStyleTableRecord
  2
SLDDIMSTYLE2
 70
     0
 41
3.302
 44
0.0
 45
0.000000001
 73
     0
 74
     0
 77
     1
 78
    12
 79
     3
140
3.5
143
0.0393700787401575
147
0.875
148
0.000000001
170
     1
173
     1
178
     0
271
     2
272
     2
276
     2
284
    12
340
94
  0
ENDTAB
  0
TABLE
  2
BLOCK_RECORD
  5
1
330
0
100
AcDbSymbolTable
 70
     7
  0
BLOCK_RECORD
  5
1F
102
{ACAD_XDICTIONARY
360
19E
102
}
330
1
100
AcDbSymbolTableRecord
100
AcDbBlockTableRecord
  2
*Model_Space
340
22
  0
BLOCK_RECORD
  5
1B
330
1
100
AcDbSymbolTableRecord
100
AcDbBlockTableRecord
  2
*Paper_Space
340
1E
  0
BLOCK_RECORD
  5
23
330
1
100
AcDbSymbolTableRecord
100
AcDbBlockTableRecord
  2
*Paper_Space0
340
26
  0
BLOCK_RECORD
  5
7F
330
1
100
AcDbSymbolTableRecord
100
AcDbBlockTableRecord
  2
블럭10
340
0
102
{BLKREFS
331
BF
102
}
  0
BLOCK_RECORD
  5
C8
330
1
100
AcDbSymbolTableRecord
100
AcDbBlockTableRecord
  2
_D
340
0
  0
BLOCK_RECORD
  5
DD
330
1
100
AcDbSymbolTableRecord
100
AcDbBlockTableRecord
  2
_D_1
340
0
  0
BLOCK_RECORD
  5
F1
330
1
100
AcDbSymbolTableRecord
100
AcDbBlockTableRecord
  2
_D_2
340
0
  0
BLOCK_RECORD
  5
104
330
1
100
AcDbSymbolTableRecord
100
AcDbBlockTableRecord
  2
_D_3
340
0
  0
BLOCK_RECORD
  5
11D
330
1
100
AcDbSymbolTableRecord
100
AcDbBlockTableRecord
  2
SW_DOWELSYMBOL_0
340
0
102
{BLKREFS
331
123
102
}
  0
ENDTAB
  0
ENDSEC
  0
SECTION
  2
BLOCKS
  0
BLOCK
  5
20
330
1F
100
AcDbEntity
  8
0
100
AcDbBlockBegin
  2
*Model_Space
 70
     0
 10
0.0
 20
0.0
 30
0.0
  3
*Model_Space
  1
*Model_Space
  0
ENDBLK
  5
21
330
1F
100
AcDbEntity
  8
0
100
AcDbBlockEnd
  0
BLOCK
  5
1C
330
1B
100
AcDbEntity
 67
     1
  8
0
100
AcDbBlockBegin
  2
*Paper_Space
 70
     0
 10
0.0
 20
0.0
 30
0.0
  3
*Paper_Space
  1
*Paper_Space
  0
ENDBLK
  5
1D
330
1B
100
AcDbEntity
 67
     1
  8
0
100
AcDbBlockEnd
  0
BLOCK
  5
24
330
23
100
AcDbEntity
  8
0
100
AcDbBlockBegin
  2
*Paper_Space0
 70
     0
 10
0.0
 20
0.0
 30
0.0
  3
*Paper_Space0
  1
*Paper_Space0
  0
ENDBLK
  5
25
330
23
100
AcDbEntity
  8
0
100
AcDbBlockEnd
  0
BLOCK
  5
80
330
7F
100
AcDbEntity
  8
0
100
AcDbBlockBegin
  2
블럭10
 70
     2
 10
0.0
 20
0.0
 30
0.0
  3
블럭10
  1
블럭10
  0
ELLIPSE
  5
82
330
7F
100
AcDbEntity
  8
중심선
100
AcDbEllipse
 10
20.54032771741204
 20
12.0471743016438
 30
0.0
 11
6.600054785286829
 21
-1.261213355974178E-13
 31
0.0
210
0.0
220
0.0
230
1.0
 40
0.636358354079598
 41
0.9219305317359503
 42
6.513795318482858
  0
ELLIPSE
  5
83
330
7F
100
AcDbEntity
  8
중심선
100
AcDbEllipse
 10
20.54032771746488
 20
12.04717430159265
 30
0.0
 11
3.960054785062283
 21
1.540847449632565E-10
 31
0.0
210
0.0
220
0.0
230
1.0
 40
0.3939339440162632
 41
1.131841032648279
 42
5.62031148352944
  0
LINE
  5
84
330
7F
100
AcDbEntity
  8
중심선
100
AcDbLine
 10
2.268634060543552
 20
16.24717430164393
 30
0.0
 11
5.714909304380834
 21
16.24717430164393
 31
0.0
  0
LINE
  5
85
330
7F
100
AcDbEntity
  8
중심선
100
AcDbLine
 10
5.245725140726316
 20
7.84717430164391
 30
0.0
 11
8.692000384563599
 21
7.84717430164391
 31
0.0
  0
LINE
  5
86
330
7F
100
AcDbEntity
  8
중심선
100
AcDbLine
 10
15.74043728645272
 20
16.24717430164393
 30
0.0
 11
8.692000384563599
 21
7.84717430164391
 31
0.0
  0
LINE
  5
87
330
7F
100
AcDbEntity
  8
중심선
100
AcDbLine
 10
0.1404042013395286
 20
13.71084872107135
 30
0.0
 11
3.58671253028996
 21
13.71088815037384
 31
0.0
  0
LINE
  5
88
330
7F
100
AcDbEntity
  8
중심선
100
AcDbLine
 10
2.750260043222114
 20
10.84717430164391
 30
0.0
 11
6.196535287059397
 21
10.84717430164391
 31
0.0
  0
LINE
  5
89
330
7F
100
AcDbEntity
  8
중심선
100
AcDbLine
 10
12.29416204261559
 20
16.24717430164393
 30
0.0
 11
5.245725140726316
 21
7.84717430164391
 31
0.0
  0
LINE
  5
8A
330
7F
100
AcDbEntity
  8
중심선
100
AcDbLine
 10
10.72767329541681
 20
16.24717430164393
 30
0.0
 11
6.196535287059397
 21
10.84717430164391
 31
0.0
  0
LINE
  5
8B
330
7F
100
AcDbEntity
  8
중심선
100
AcDbLine
 10
7.28139805157953
 20
16.24717430164393
 30
0.0
 11
2.750260043222114
 21
10.84717430164391
 31
0.0
  0
LINE
  5
8C
330
7F
100
AcDbEntity
  8
중심선
100
AcDbLine
 10
5.714909304380834
 20
16.24717430164393
 30
0.0
 11
3.58671253028996
 21
13.71088815037384
 31
0.0
  0
LINE
  5
8D
330
7F
100
AcDbEntity
  8
중심선
100
AcDbLine
 10
2.268634060543552
 20
16.24717430164393
 30
0.0
 11
0.1404042013395286
 21
13.71084872107135
 31
0.0
  0
LINE
  5
8E
330
7F
100
AcDbEntity
  8
중심선
100
AcDbLine
 10
7.28139805157953
 20
16.24717430164393
 30
0.0
 11
10.72767329541681
 21
16.24717430164393
 31
0.0
  0
LINE
  5
8F
330
7F
100
AcDbEntity
  8
중심선
100
AcDbLine
 10
12.29416204261559
 20
16.24717430164393
 30
0.0
 11
15.74043728645272
 21
16.24717430164393
 31
0.0
  0
LINE
  5
90
330
7F
100
AcDbEntity
  8
중심선
100
AcDbLine
 10
19.22036997980202
 20
11.08717430171403
 30
0.0
 11
23.66174974927406
 21
11.08717430171406
 31
0.0
  0
LINE
  5
91
330
7F
100
AcDbEntity
  8
중심선
100
AcDbLine
 10
19.22039502424796
 20
13.00717430171391
 30
0.0
 11
19.22036997980202
 21
11.08717430171403
 31
0.0
  0
LINE
  5
92
330
7F
100
AcDbEntity
  8
중심선
100
AcDbLine
 10
19.22039502424796
 20
13.00717430171391
 30
0.0
 11
26.96566020931264
 21
13.00717430171391
 31
0.0
  0
LINE
  5
93
330
7F
100
AcDbEntity
  8
중심선
100
AcDbLine
 10
22.22332737316547
 20
13.45928029700563
 30
0.0
 11
24.52862924686651
 21
15.39360700705356
 31
0.0
  0
ATTDEF
  5
95
330
7F
100
AcDbEntity
  8
FORMAT
 62
     2
100
AcDbText
 10
3.448148490846466
 20
2.075366912832191
 30
0.0
 40
4.233333333333333
  1
EM207064
 41
0.75
  7
SLDTEXTSTYLE0
 11
3.448148490846466
 21
-0.0412997538344756
 31
0.0
100
AcDbAttributeDefinition
  3

  2
AUTOATTR0
 70
     0
 74
     1
  0
ENDBLK
  5
81
330
7F
100
AcDbEntity
  8
0
100
AcDbBlockEnd
  0
BLOCK
  5
C9
330
C8
100
AcDbEntity
  8
0
100
AcDbBlockBegin
  2
_D
 70
     0
 10
0.0
 20
0.0
 30
0.0
  3
_D
  1
_D
  0
LINE
  5
CB
330
C8
100
AcDbEntity
  8
치수문자_일반주서
 62
     0
370
    -2
100
AcDbLine
 10
-55.37250000000005
 20
12.69999999999998
 30
0.0
 11
-67.92457927627738
 21
12.69999999999994
 31
0.0
  0
LINE
  5
CC
330
C8
100
AcDbEntity
  8
치수문자_일반주서
 62
     0
370
    -2
100
AcDbLine
 10
-55.37250000000005
 20
-12.69999999999999
 30
0.0
 11
-67.9245792762773
 21
-12.70000000000004
 31
0.0
  0
LINE
  5
CD
330
C8
100
AcDbEntity
  8
치수문자_일반주서
 62
     0
370
    -2
100
AcDbLine
 10
-67.92457927627737
 20
9.39799999999994
 30
0.0
 11
-67.92457927627731
 21
-9.398000000000039
 31
0.0
  0
SOLID
  5
CE
330
C8
100
AcDbEntity
  8
치수문자_일반주서
 62
     0
100
AcDbTrace
 10
-67.37424594294404
 20
9.397999999999941
 30
0.0
 11
-68.4749126096107
 21
9.397999999999938
 31
0.0
 12
-67.92457927627738
 22
12.69999999999994
 32
0.0
 13
-67.92457927627738
 23
12.69999999999994
 33
0.0
  0
SOLID
  5
CF
330
C8
100
AcDbEntity
  8
치수문자_일반주서
 62
     0
100
AcDbTrace
 10
-68.47491260961064
 20
-9.39800000000004
 30
0.0
 11
-67.37424594294399
 21
-9.398000000000037
 31
0.0
 12
-67.9245792762773
 22
-12.70000000000004
 32
0.0
 13
-67.9245792762773
 23
-12.70000000000004
 33
0.0
  0
MTEXT
  5
D0
330
C8
100
AcDbEntity
  8
치수문자_일반주서
 62
     0
100
AcDbMText
 10
-72.29957927627734
 20
-0.0000000000000277
 30
0.0
 40
3.5
 41
0.0
 71
     2
 72
     1
  1
\A1;%%c25.40 [1]
  7
SLDTEXTSTYLE0
 11
-3.356894814614649E-15
 21
1.0
 31
0.0
 73
     1
 44
1.0
  0
POINT
  5
D1
330
C8
100
AcDbEntity
  8
Defpoints
 62
     0
100
AcDbPoint
 10
-55.31000000000005
 20
12.69999999999998
 30
0.0
  0
POINT
  5
D2
330
C8
100
AcDbEntity
  8
Defpoints
 62
     0
100
AcDbPoint
 10
-55.31000000000005
 20
-12.69999999999999
 30
0.0
  0
POINT
  5
D3
330
C8
100
AcDbEntity
  8
Defpoints
 62
     0
100
AcDbPoint
 10
-67.92457927627729
 20
-12.70000000000004
 30
0.0
  0
ENDBLK
  5
CA
330
C8
100
AcDbEntity
  8
0
100
AcDbBlockEnd
  0
BLOCK
  5
DE
330
DD
100
AcDbEntity
  8
0
100
AcDbBlockBegin
  2
_D_1
 70
     0
 10
0.0
 20
0.0
 30
0.0
  3
_D_1
  1
_D_1
  0
LINE
  5
E0
330
DD
100
AcDbEntity
  8
치수문자_일반주서
 62
     0
370
    -2
100
AcDbLine
 10
69.21249999999996
 20
12.7
 30
0.0
 11
81.61317006763169
 21
12.70000000000005
 31
0.0
  0
LINE
  5
E1
330
DD
100
AcDbEntity
  8
치수문자_일반주서
 62
     0
370
    -2
100
AcDbLine
 10
69.21249999999996
 20
-12.69999999999999
 30
0.0
 11
81.61317006763177
 21
-12.69999999999995
 31
0.0
  0
LINE
  5
E2
330
DD
100
AcDbEntity
  8
치수문자_일반주서
 62
     0
370
    -2
100
AcDbLine
 10
81.61317006763169
 20
12.70000000000005
 30
0.0
 11
81.61317006763157
 21
44.47604691240974
 31
0.0
  0
LINE
  5
E3
330
DD
100
AcDbEntity
  8
치수문자_일반주서
 62
     0
370
    -2
100
AcDbLine
 10
81.61317006763169
 20
12.70000000000005
 30
0.0
 11
81.61317006763177
 21
-12.69999999999995
 31
0.0
  0
LINE
  5
E4
330
DD
100
AcDbEntity
  8
치수문자_일반주서
 62
     0
370
    -2
100
AcDbLine
 10
81.61317006763167
 20
16.00200000000005
 30
0.0
 11
81.61317006763166
 21
19.30400000000005
 31
0.0
  0
LINE
  5
E5
330
DD
100
AcDbEntity
  8
치수문자_일반주서
 62
     0
370
    -2
100
AcDbLine
 10
81.61317006763178
 20
-16.00199999999995
 30
0.0
 11
81.6131700676318
 21
-19.30399999999995
 31
0.0
  0
SOLID
  5
E6
330
DD
100
AcDbEntity
  8
치수문자_일반주서
 62
     0
100
AcDbTrace
 10
81.06283673429834
 20
16.00200000000005
 30
0.0
 11
82.163503400965
 21
16.00200000000005
 31
0.0
 12
81.61317006763169
 22
12.70000000000005
 32
0.0
 13
81.61317006763169
 23
12.70000000000005
 33
0.0
  0
SOLID
  5
E7
330
DD
100
AcDbEntity
  8
치수문자_일반주서
 62
     0
100
AcDbTrace
 10
82.16350340096511
 20
-16.00199999999995
 30
0.0
 11
81.06283673429846
 21
-16.00199999999996
 31
0.0
 12
81.61317006763177
 22
-12.69999999999995
 32
0.0
 13
81.61317006763177
 23
-12.69999999999995
 33
0.0
  0
MTEXT
  5
E8
330
DD
100
AcDbEntity
  8
치수문자_일반주서
 62
     0
100
AcDbMText
 10
77.23817006763161
 20
33.31979691240973
 30
0.0
 40
3.5
 41
0.0
 71
     2
 72
     1
  1
\A1;%%c25.40 [1]
  7
SLDTEXTSTYLE0
 11
-3.356894814614647E-15
 21
1.0
 31
0.0
 73
     1
 44
1.0
  0
POINT
  5
E9
330
DD
100
AcDbEntity
  8
Defpoints
 62
     0
100
AcDbPoint
 10
69.14999999999996
 20
12.7
 30
0.0
  0
POINT
  5
178
330
DD
100
AcDbEntity
  8
Defpoints
 62
     0
100
AcDbPoint
 10
69.14999999999996
 20
-12.69999999999999
 30
0.0
  0
POINT
  5
179
330
DD
100
AcDbEntity
  8
Defpoints
 62
     0
100
AcDbPoint
 10
81.61317006763177
 20
-12.69999999999995
 30
0.0
  0
ENDBLK
  5
DF
330
DD
100
AcDbEntity
  8
0
100
AcDbBlockEnd
  0
BLOCK
  5
F2
330
F1
100
AcDbEntity
  8
0
100
AcDbBlockBegin
  2
_D_2
 70
     0
 10
0.0
 20
0.0
 30
0.0
  3
_D_2
  1
_D_2
  0
LINE
  5
F4
330
F1
100
AcDbEntity
  8
치수문자_일반주서
 62
     0
370
    -2
100
AcDbLine
 10
69.14999999999996
 20
12.7625
 30
0.0
 11
69.14999999999996
 21
34.15956963252849
 31
0.0
  0
LINE
  5
F5
330
F1
100
AcDbEntity
  8
치수문자_일반주서
 62
     0
370
    -2
100
AcDbLine
 10
11.99999999999996
 20
12.69157108643756
 30
0.0
 11
11.99999999999996
 21
34.15956963252849
 31
0.0
  0
LINE
  5
F6
330
F1
100
AcDbEntity
  8
치수문자_일반주서
 62
     0
370
    -2
100
AcDbLine
 10
65.84799999999996
 20
34.15956963252849
 30
0.0
 11
15.30199999999996
 21
34.15956963252849
 31
0.0
  0
SOLID
  5
F7
330
F1
100
AcDbEntity
  8
치수문자_일반주서
 62
     0
100
AcDbTrace
 10
65.84799999999996
 20
33.60923629919515
 30
0.0
 11
65.84799999999996
 21
34.70990296586182
 31
0.0
 12
69.14999999999996
 22
34.15956963252849
 32
0.0
 13
69.14999999999996
 23
34.15956963252849
 33
0.0
  0
SOLID
  5
F8
330
F1
100
AcDbEntity
  8
치수문자_일반주서
 62
     0
100
AcDbTrace
 10
15.30199999999996
 20
34.70990296586182
 30
0.0
 11
15.30199999999996
 21
33.60923629919515
 31
0.0
 12
11.99999999999996
 22
34.15956963252849
 32
0.0
 13
11.99999999999996
 23
34.15956963252849
 33
0.0
  0
MTEXT
  5
F9
330
F1
100
AcDbEntity
  8
치수문자_일반주서
 62
     0
100
AcDbMText
 10
41.63076910772408
 20
38.53456963252849
 30
0.0
 40
3.5
 41
0.0
 71
     2
 72
     1
  1
\A1;57.15 [2 1/4]
  7
SLDTEXTSTYLE0
 73
     1
 44
1.0
  0
POINT
  5
FA
330
F1
100
AcDbEntity
  8
Defpoints
 62
     0
100
AcDbPoint
 10
69.14999999999996
 20
12.7
 30
0.0
  0
POINT
  5
FB
330
F1
100
AcDbEntity
  8
Defpoints
 62
     0
100
AcDbPoint
 10
11.99999999999996
 20
12.62907108643756
 30
0.0
  0
POINT
  5
FC
330
F1
100
AcDbEntity
  8
Defpoints
 62
     0
100
AcDbPoint
 10
11.99999999999996
 20
34.15956963252849
 30
0.0
  0
ENDBLK
  5
F3
330
F1
100
AcDbEntity
  8
0
100
AcDbBlockEnd
  0
BLOCK
  5
105
330
104
100
AcDbEntity
  8
0
100
AcDbBlockBegin
  2
_D_3
 70
     0
 10
0.0
 20
0.0
 30
0.0
  3
_D_3
  1
_D_3
  0
LINE
  5
107
330
104
100
AcDbEntity
  8
치수문자_일반주서
 62
     0
370
    -2
100
AcDbLine
 10
69.14999999999996
 20
12.7625
 30
0.0
 11
69.14999999999995
 21
49.95755922524383
 31
0.0
  0
LINE
  5
108
330
104
100
AcDbEntity
  8
치수문자_일반주서
 62
     0
370
    -2
100
AcDbLine
 10
-57.85000000000004
 20
10.2225
 30
0.0
 11
-57.85000000000007
 21
49.95755922524383
 31
0.0
  0
LINE
  5
109
330
104
100
AcDbEntity
  8
치수문자_일반주서
 62
     0
370
    -2
100
AcDbLine
 10
65.84799999999996
 20
49.95755922524383
 30
0.0
 11
-54.54800000000007
 21
49.95755922524383
 31
0.0
  0
SOLID
  5
10A
330
104
100
AcDbEntity
  8
치수문자_일반주서
 62
     0
100
AcDbTrace
 10
65.84799999999996
 20
49.4072258919105
 30
0.0
 11
65.84799999999996
 21
50.50789255857717
 31
0.0
 12
69.14999999999995
 22
49.95755922524383
 32
0.0
 13
69.14999999999995
 23
49.95755922524383
 33
0.0
  0
SOLID
  5
10B
330
104
100
AcDbEntity
  8
치수문자_일반주서
 62
     0
100
AcDbTrace
 10
-54.54800000000007
 20
50.50789255857717
 30
0.0
 11
-54.54800000000007
 21
49.4072258919105
 31
0.0
 12
-57.85000000000007
 22
49.95755922524383
 32
0.0
 13
-57.85000000000007
 23
49.95755922524383
 33
0.0
  0
MTEXT
  5
10C
330
104
100
AcDbEntity
  8
치수문자_일반주서
 62
     0
100
AcDbMText
 10
9.815517413966859
 20
54.33255922524383
 30
0.0
 40
3.5
 41
0.0
 71
     2
 72
     1
  1
\A1;127.00 [5]
  7
SLDTEXTSTYLE0
 73
     1
 44
1.0
  0
POINT
  5
10D
330
104
100
AcDbEntity
  8
Defpoints
 62
     0
100
AcDbPoint
 10
69.14999999999996
 20
12.7
 30
0.0
  0
POINT
  5
10E
330
104
100
AcDbEntity
  8
Defpoints
 62
     0
100
AcDbPoint
 10
-57.85000000000004
 20
10.16
 30
0.0
  0
POINT
  5
10F
330
104
100
AcDbEntity
  8
Defpoints
 62
     0
100
AcDbPoint
 10
-57.85000000000004
 20
49.95755922524383
 30
0.0
  0
ENDBLK
  5
106
330
104
100
AcDbEntity
  8
0
100
AcDbBlockEnd
  0
BLOCK
  5
11E
330
11D
100
AcDbEntity
  8
0
100
AcDbBlockBegin
  2
SW_DOWELSYMBOL_0
 70
     0
 10
0.0
 20
0.0
 30
0.0
  3
SW_DOWELSYMBOL_0
  1
SW_DOWELSYMBOL_0
  0
CIRCLE
  5
120
330
11D
100
AcDbEntity
  8
해칭선
 62
     0
100
AcDbCircle
 10
0.0
 20
0.0
 30
0.0
 40
3.000000000000001
  0
HATCH
  5
121
330
11D
100
AcDbEntity
  8
0
  6
Continuous
 62
     0
370
     0
100
AcDbHatch
 10
0.0
 20
0.0
 30
0.0
210
0.0
220
0.0
230
1.0
  2
SOLID
 70
     1
 71
     0
 91
        1
 92
        0
 93
        3
 72
     2
 10
0.0
 20
0.0
 40
3.000000000000001
 50
0.0
 51
90.0
 73
     1
 72
     1
 10
0.0
 20
3.000000000000001
 11
0.0
 21
0.0
 72
     1
 10
0.0
 20
0.0
 11
3.000000000000003
 21
0.0
 97
        0
 75
     0
 76
     1
 98
        1
 10
0.0
 20
0.0
  0
HATCH
  5
122
330
11D
100
AcDbEntity
  8
0
  6
Continuous
 62
     0
370
     0
100
AcDbHatch
 10
0.0
 20
0.0
 30
0.0
210
0.0
220
0.0
230
1.0
  2
SOLID
 70
     1
 71
     0
 91
        1
 92
        0
 93
        3
 72
     2
 10
0.0
 20
0.0
 40
3.000000000000001
 50
180.0
 51
270.0000000000007
 73
     1
 72
     1
 10
0.0
 20
-3.000000000000001
 11
0.0
 21
0.0
 72
     1
 10
0.0
 20
0.0
 11
-3.000000000000003
 21
0.0
 97
        0
 75
     0
 76
     1
 98
        1
 10
0.0
 20
0.0
  0
ENDBLK
  5
11F
330
11D
100
AcDbEntity
  8
0
100
AcDbBlockEnd
  0
ENDSEC
  0
SECTION
  2
ENTITIES
  0
LINE
  5
96
330
1F
100
AcDbEntity
  8
0
  6
Continuous
 62
     1
370
    15
100
AcDbLine
 10
64.42566471500409
 20
3.761184035758392
 30
0.0
 11
64.33537688038109
 21
3.80998613585184
 31
0.0
  0
LINE
  5
97
330
1F
100
AcDbEntity
  8
0
  6
Continuous
 62
     1
370
    15
100
AcDbLine
 10
44.22675199906833
 20
12.69999999999999
 30
0.0
 11
36.48413400738125
 21
12.69999999999999
 31
0.0
  0
LINE
  5
98
330
1F
100
AcDbEntity
  8
0
  6
Continuous
 62
     1
370
    15
100
AcDbLine
 10
36.48413400738107
 20
-12.7
 30
0.0
 11
44.22675199906833
 21
-12.7
 31
0.0
  0
LINE
  5
99
330
1F
100
AcDbEntity
  8
외형선
  6
Continuous
370
    15
100
AcDbLine
 10
-55.31000000000004
 20
-12.7
 30
0.0
 11
11.49985042413538
 21
-12.7
 31
0.0
  0
LINE
  5
9A
330
1F
100
AcDbEntity
  8
외형선
  6
Continuous
370
    15
100
AcDbLine
 10
11.49985042413538
 20
12.69999999999999
 30
0.0
 11
-55.31000000000004
 21
12.69999999999999
 31
0.0
  0
LINE
  5
9B
330
1F
100
AcDbEntity
  8
외형선
  6
Continuous
370
    15
100
AcDbLine
 10
-55.31000000000004
 20
12.69999999999999
 30
0.0
 11
-57.85000000000004
 21
10.16
 31
0.0
  0
LINE
  5
9C
330
1F
100
AcDbEntity
  8
외형선
  6
Continuous
370
    15
100
AcDbLine
 10
-57.85000000000004
 20
-10.16000000000001
 30
0.0
 11
-55.31000000000004
 21
-12.7
 31
0.0
  0
LINE
  5
9D
330
1F
100
AcDbEntity
  8
0
  6
Continuous
 62
     1
370
    15
100
AcDbLine
 10
69.14999999999996
 20
-11.50215313554797
 30
0.0
 11
69.14999999999996
 21
1.088153135548122
 31
0.0
  0
SPLINE
  5
9E
330
1F
100
AcDbEntity
  8
0
  6
Continuous
 62
     1
370
    15
100
AcDbSpline
210
0.0
220
0.0
230
1.0
 70
     8
 71
     3
 72
    64
 73
    60
 74
     0
 42
0.000000001
 43
0.00000001
 40
0.0
 40
0.0
 40
0.0
 40
0.0
 40
0.0625000000000004
 40
0.0625000000000004
 40
0.1250000000000008
 40
0.1250000000000008
 40
0.1875000000000012
 40
0.1875000000000012
 40
0.2187500000000011
 40
0.2187500000000011
 40
0.250000000000001
 40
0.250000000000001
 40
0.2812500000000009
 40
0.2812500000000009
 40
0.3125000000000008
 40
0.3125000000000008
 40
0.3437500000000007
 40
0.3437500000000007
 40
0.3750000000000007
 40
0.3750000000000007
 40
0.4062500000000006
 40
0.4062500000000006
 40
0.4375000000000005
 40
0.4375000000000005
 40
0.4687500000000004
 40
0.4687500000000004
 40
0.5000000000000004
 40
0.5000000000000004
 40
0.5312500000000004
 40
0.5312500000000004
 40
0.5625000000000003
 40
0.5625000000000003
 40
0.5937500000000003
 40
0.5937500000000003
 40
0.6250000000000003
 40
0.6250000000000003
 40
0.6562500000000003
 40
0.6562500000000003
 40
0.6875000000000002
 40
0.6875000000000002
 40
0.7187500000000002
 40
0.7187500000000002
 40
0.7500000000000002
 40
0.7500000000000002
 40
0.7812500000000002
 40
0.7812500000000002
 40
0.8125000000000001
 40
0.8125000000000001
 40
0.8437500000000001
 40
0.8437500000000001
 40
0.8750000000000001
 40
0.8750000000000001
 40
0.9062500000000001
 40
0.9062500000000001
 40
0.9375
 40
0.9375
 40
0.96875
 40
0.96875
 40
1.0
 40
1.0
 40
1.0
 40
1.0
 10
69.14999999999993
 20
-11.50215313554797
 30
0.0
 10
67.96346407829162
 20
-11.21105781105707
 30
0.0
 10
66.76494685714832
 20
-10.86823017705364
 30
0.0
 10
64.39101593823223
 20
-10.09253852492409
 30
0.0
 10
63.19336538660673
 20
-9.657298805814087
 30
0.0
 10
60.8186064951381
 20
-8.708474432997251
 30
0.0
 10
59.62179063796906
 20
-8.19231087171913
 30
0.0
 10
57.84012384443406
 20
-7.369541031490352
 30
0.0
 10
57.24533065531722
 20
-7.08675798506759
 30
0.0
 10
56.05278826801054
 20
-6.505756193047055
 30
0.0
 10
55.4561413929077
 20
-6.20770849853287
 30
0.0
 10
54.26798070108678
 20
-5.599512970343686
 30
0.0
 10
53.67359655718246
 20
-5.288886285000674
 30
0.0
 10
52.48111736780631
 20
-4.656038068890196
 30
0.0
 10
51.88439385782229
 20
-4.334051878425615
 30
0.0
 10
50.69586594052129
 20
-3.682166922265047
 30
0.0
 10
50.10185066036227
 20
-3.351872684967826
 30
0.0
 10
48.90945046316641
 20
-2.683831363500144
 30
0.0
 10
48.31265823670155
 20
-2.34637691085703
 30
0.0
 10
47.12377871405116
 20
-1.667948708248557
 30
0.0
 10
46.53009209993796
 20
-1.326675634910977
 30
0.0
 10
45.33778668568436
 20
-0.6410201045576274
 30
0.0
 10
44.74093366418553
 20
-0.2969753937076791
 30
0.0
 10
43.55171817178176
 20
0.3901478528665221
 30
0.0
 10
42.95832001154993
 20
0.7334262036646626
 30
0.0
 10
41.76612516681591
 20
1.418654342888259
 30
0.0
 10
41.16921927442561
 20
1.760237261109085
 30
0.0
 10
39.97968346264748
 20
2.437975190819052
 30
0.0
 10
39.38653353143553
 20
2.774235565675497
 30
0.0
 10
38.19446503791715
 20
3.441007047691157
 30
0.0
 10
37.59751420112257
 20
3.771140397790823
 30
0.0
 10
36.40767373444805
 20
4.421656552307467
 30
0.0
 10
35.81473179646713
 20
4.742062371975944
 30
0.0
 10
34.62280543028326
 20
5.372834949740523
 30
0.0
 10
34.02581757756486
 20
5.682831874135898
 30
0.0
 10
32.83568813388585
 20
6.289003414033824
 30
0.0
 10
32.24291394418992
 20
6.585136193413614
 30
0.0
 10
31.05114547518688
 20
7.163316465950688
 30
0.0
 10
30.45412853666683
 20
7.445019753302984
 30
0.0
 10
29.26372580660266
 20
7.990888452517105
 30
0.0
 10
28.67107911285999
 20
8.254968232311306
 30
0.0
 10
27.47948430391637
 20
8.765348447646161
 30
0.0
 10
26.88244621100706
 20
9.01134532066613
 30
0.0
 10
25.69178589721689
 20
9.482537953040184
 30
0.0
 10
25.09922644148184
 20
9.707626991554868
 30
0.0
 10
23.90782104781449
 20
10.1367853198635
 30
0.0
 10
23.31076973286667
 20
10.34060262344281
 30
0.0
 10
22.11986754936081
 20
10.72470966038734
 30
0.0
 10
21.52735506984628
 20
10.90489407127909
 30
0.0
 10
20.33615483831647
 20
11.2415478061572
 30
0.0
 10
19.73909823426745
 20
11.39782245303465
 30
0.0
 10
18.54796990571781
 20
11.68472508854776
 30
0.0
 10
17.95546413856816
 20
11.81526968579892
 30
0.0
 10
16.76448480698908
 20
12.05057207297387
 30
0.0
 10
16.16743084701081
 20
12.15519225608147
 30
0.0
 10
14.9760921080598
 20
12.33732913597963
 30
0.0
 10
14.38355278912375
 20
12.41480144602724
 30
0.0
 10
13.19281008556826
 20
12.5425743253166
 30
0.0
 10
12.59576670271542
 20
12.59278777628169
 30
0.0
 10
11.99999999999991
 20
12.62907108643756
 30
0.0
  0
SPLINE
  5
9F
330
1F
100
AcDbEntity
  8
0
  6
Continuous
 62
     1
370
    15
100
AcDbSpline
210
0.0
220
0.0
230
1.0
 70
     8
 71
     3
 72
    20
 73
    16
 74
     0
 42
0.000000001
 43
0.00000001
 40
0.0
 40
0.0
 40
0.0
 40
0.0
 40
0.0778039059194693
 40
0.1556075368070632
 40
0.2334109008002778
 40
0.3112140060439431
 40
0.3890168606899933
 40
0.4654328220553205
 40
0.541847684595849
 40
0.6182615370058583
 40
0.6946744681155698
 40
0.7726453199444818
 40
0.8506160536323625
 40
0.9285866742523299
 40
1.0
 40
1.0
 40
1.0
 40
1.0
 10
69.14999999999996
 20
1.088153135548121
 30
0.0
 10
67.95514897098411
 20
1.772652250226931
 30
0.0
 10
65.56545113667507
 20
3.141648059923572
 30
0.0
 10
61.98091394992522
 20
5.104183168373615
 30
0.0
 10
58.39639082786121
 20
6.933554704092695
 30
0.0
 10
54.81188393525912
 20
8.578668767643268
 30
0.0
 10
51.24867893549461
 20
9.988230459509731
 30
0.0
 10
47.70682124554875
 20
11.12991961216532
 30
0.0
 10
44.18630146437476
 20
11.98027899685257
 30
0.0
 10
40.66583391444202
 20
12.52455170487771
 30
0.0
 10
37.12149730854767
 20
12.74979137069562
 30
0.0
 10
33.55319114724301
 20
12.64466137664404
 30
0.0
 10
29.96098123920757
 20
12.19579809751314
 30
0.0
 10
26.46947237897395
 20
11.46787491179342
 30
0.0
 10
24.17536949585811
 20
10.74739521718663
 30
0.0
 10
23.07866854187852
 20
10.40296830668775
 30
0.0
  0
SPLINE
  5
A0
330
1F
100
AcDbEntity
  8
0
  6
Continuous
 62
     1
370
    15
100
AcDbSpline
210
0.0
220
0.0
230
1.0
 70
     8
 71
     3
 72
    20
 73
    16
 74
     0
 42
0.000000001
 43
0.00000001
 40
0.0
 40
0.0
 40
0.0
 40
0.0
 40
0.0785503147395434
 40
0.1571007598858142
 40
0.2356513437492584
 40
0.3142020746364947
 40
0.3927529608500899
 40
0.4699023534026722
 40
0.5470526371849327
 40
0.6242039019394889
 40
0.7013562372769107
 40
0.7800804695768608
 40
0.8588048786870799
 40
0.9375294696933417
 40
0.9999999999999999
 40
0.9999999999999999
 40
0.9999999999999999
 40
0.9999999999999999
 10
11.99999999999996
 20
-1.340359464362885
 30
0.0
 10
13.19478067275953
 20
-2.022884022258769
 30
0.0
 10
15.58434400181548
 20
-3.387934271156042
 30
0.0
 10
19.16869330369833
 20
-5.336236375796807
 30
0.0
 10
22.75305124795482
 20
-7.145714960218522
 30
0.0
 10
26.33741303760034
 20
-8.765197851152475
 30
0.0
 10
29.9004792483452
 20
-10.14439250778644
 30
0.0
 10
33.44218780825555
 20
-11.25188472286644
 30
0.0
 10
36.96263230397609
 20
-12.06511532562768
 30
0.0
 10
40.48312774684122
 20
-12.57013915646196
 30
0.0
 10
44.02756797935366
 20
-12.75454838478654
 30
0.0
 10
47.59597175620452
 20
-12.6087022507571
 30
0.0
 10
51.18828279044992
 20
-12.11782537805807
 30
0.0
 10
54.53337069432843
 20
-11.39011175141809
 30
0.0
 10
56.681021237321
 20
-10.69749213336221
 30
0.0
 10
57.63123018991502
 20
-10.3910487205983
 30
0.0
  0
SPLINE
  5
A1
330
1F
100
AcDbEntity
  8
외형선
  6
Continuous
370
    15
100
AcDbSpline
210
0.0
220
0.0
230
1.0
 70
    24
 71
     3
 72
    22
 73
    18
 74
     0
 42
0.000000001
 43
0.00000001
 40
0.0
 40
0.0
 40
0.0
 40
0.0
 40
0.023245702618462
 40
0.0964705413893961
 40
0.17181890544529
 40
0.2450437442162228
 40
0.3203921082721159
 40
0.3936169470430489
 40
0.4689653110989422
 40
0.5421901498698753
 40
0.6175385139257689
 40
0.6907633526966975
 40
0.7661117167525862
 40
0.8393365555235232
 40
0.9146849195794216
 40
0.9879097583503548
 40
1.0
 40
1.0
 40
1.0
 40
1.0
 10
11.99999999999993
 20
11.3924521877324
 30
0.0
 10
11.99999999999994
 20
11.29410075477289
 30
0.0
 10
11.99999999999999
 20
10.88593860369677
 30
0.0
 10
11.99999999999999
 20
10.07689704145133
 30
0.0
 10
11.99999999999999
 20
8.926390561033864
 30
0.0
 10
11.99999999999994
 20
7.684031473306669
 30
0.0
 10
11.99999999999987
 20
6.409372583857806
 30
0.0
 10
12.00000000000012
 20
5.11500467775934
 30
0.0
 10
11.99999999999996
 20
3.861016147031158
 30
0.0
 10
12.00000000000005
 20
2.660256468467606
 30
0.0
 10
11.99999999999999
 20
1.568468915900161
 30
0.0
 10
11.9999999999999
 20
0.596402623314485
 30
0.0
 10
12.00000000000009
 20
-0.2090665080613549
 30
0.0
 10
11.99999999999989
 20
-0.8466133247255617
 30
0.0
 10
11.9999999999999
 20
-1.260730408944955
 30
0.0
 10
12.00000000000001
 20
-1.464216479054883
 30
0.0
 10
11.99999999999997
 20
-1.461175810530756
 30
0.0
 10
11.99999999999997
 20
-1.460744908783351
 30
0.0
  0
SPLINE
  5
A2
330
1F
100
AcDbEntity
  8
0
  6
Continuous
 62
     1
370
    15
100
AcDbSpline
210
0.0
220
0.0
230
1.0
 70
     8
 71
     3
 72
    64
 73
    60
 74
     0
 42
0.000000001
 43
0.00000001
 40
0.0
 40
0.0
 40
0.0
 40
0.0
 40
0.0625000000000005
 40
0.0625000000000005
 40
0.125000000000001
 40
0.125000000000001
 40
0.1875000000000016
 40
0.1875000000000016
 40
0.2187500000000015
 40
0.2187500000000015
 40
0.2500000000000014
 40
0.2500000000000014
 40
0.2812500000000014
 40
0.2812500000000014
 40
0.3125000000000013
 40
0.3125000000000013
 40
0.3437500000000013
 40
0.3437500000000013
 40
0.3750000000000013
 40
0.3750000000000013
 40
0.4062500000000013
 40
0.4062500000000013
 40
0.4375000000000013
 40
0.4375000000000013
 40
0.4687500000000012
 40
0.4687500000000012
 40
0.5000000000000012
 40
0.5000000000000012
 40
0.5312500000000011
 40
0.5312500000000011
 40
0.5625000000000011
 40
0.5625000000000011
 40
0.593750000000001
 40
0.593750000000001
 40
0.6250000000000009
 40
0.6250000000000009
 40
0.6562500000000009
 40
0.6562500000000009
 40
0.6875000000000008
 40
0.6875000000000008
 40
0.7187500000000007
 40
0.7187500000000007
 40
0.7500000000000006
 40
0.7500000000000006
 40
0.7812500000000006
 40
0.7812500000000006
 40
0.8125000000000004
 40
0.8125000000000004
 40
0.8437500000000003
 40
0.8437500000000003
 40
0.8750000000000003
 40
0.8750000000000003
 40
0.9062500000000002
 40
0.9062500000000002
 40
0.9375000000000001
 40
0.9375000000000001
 40
0.9687500000000001
 40
0.9687500000000001
 40
1.0
 40
1.0
 40
1.0
 40
1.0
 10
69.14999999999996
 20
-12.69999999999999
 30
0.0
 10
67.96346407829162
 20
-12.59446708215152
 30
0.0
 10
66.76494685714832
 20
-12.47959894336744
 30
0.0
 10
64.39101593823227
 20
-12.14225751637577
 30
0.0
 10
63.19336538660671
 20
-11.91876738912742
 30
0.0
 10
60.81860649513803
 20
-11.37057039680858
 30
0.0
 10
59.62179063796908
 20
-11.04438638957508
 30
0.0
 10
57.84012384443412
 20
-10.48588123069468
 30
0.0
 10
57.24533065531722
 20
-10.28790854043547
 30
0.0
 10
56.05278826801057
 20
-9.869439965093491
 30
0.0
 10
55.45614139290765
 20
-9.649059803087246
 30
0.0
 10
54.2679807010867
 20
-9.188261945048932
 30
0.0
 10
53.67359655718245
 20
-8.947490559449244
 30
0.0
 10
52.48111736780631
 20
-8.446298301418413
 30
0.0
 10
51.88439385782232
 20
-8.186055034644685
 30
0.0
 10
50.69586594052127
 20
-7.648904042279434
 30
0.0
 10
50.10185066036226
 20
-7.371680621375989
 30
0.0
 10
48.90945046316639
 20
-6.800955130795363
 30
0.0
 10
48.31265823670152
 20
-6.5076931194564
 30
0.0
 10
47.12377871405114
 20
-5.908309331917697
 30
0.0
 10
46.53009209993796
 20
-5.601934312123175
 30
0.0
 10
45.33778668568435
 20
-4.976695608096144
 30
0.0
 10
44.74093366418553
 20
-4.658128804122323
 30
0.0
 10
43.55171817178176
 20
-4.01227350601591
 30
0.0
 10
42.9583200115499
 20
-3.68480950164901
 30
0.0
 10
41.76612516681585
 20
-3.02151162827995
 30
0.0
 10
41.1692192744256
 20
-2.686020532581206
 30
0.0
 10
39.97968346264745
 20
-2.010681218366433
 30
0.0
 10
39.38653353143551
 20
-1.670741566713199
 30
0.0
 10
38.1944650379171
 20
-0.9868393006756365
 30
0.0
 10
37.59751420112255
 20
-0.6432503521475484
 30
0.0
 10
36.40767373444803
 20
0.0438063822161824
 30
0.0
 10
35.81473179646713
 20
0.3872834057851948
 30
0.0
 10
34.62280543028327
 20
1.073794178914114
 30
0.0
 10
34.02581757756484
 20
1.416440971488415
 30
0.0
 10
32.8356881338858
 20
2.097137134269567
 30
0.0
 10
32.24291394418993
 20
2.435122533142609
 30
0.0
 10
31.05114547518686
 20
3.106178663267829
 30
0.0
 10
30.45412853666681
 20
3.438867725123553
 30
0.0
 10
29.26372580660259
 20
4.095289911743988
 30
0.0
 10
28.67107911285999
 20
4.418900500942227
 30
0.0
 10
27.47948430391639
 20
5.056847154054195
 30
0.0
 10
26.88244621100705
 20
5.370824714059816
 30
0.0
 10
25.69178589721692
 20
5.985695826978392
 30
0.0
 10
25.09922644148181
 20
6.286426907307542
 30
0.0
 10
23.90782104781443
 20
6.874482352943813
 30
0.0
 10
23.31076973286661
 20
7.161486925307354
 30
0.0
 10
22.11986754936081
 20
7.718621201144741
 30
0.0
 10
21.52735506984627
 20
7.988569301655472
 30
0.0
 10
20.33615483831648
 20
8.511266663295835
 30
0.0
 10
19.73909823426744
 20
8.763746569081038
 30
0.0
 10
18.54796990571781
 20
9.248475921509122
 30
0.0
 10
17.95546413856813
 20
9.48054579701374
 30
0.0
 10
16.76448480698904
 20
9.92414012965875
 30
0.0
 10
16.16743084701076
 20
10.1354523272438
 30
0.0
 10
14.97609210805977
 20
10.53501276860725
 30
0.0
 10
14.3835527891237
 20
10.72310324988064
 30
0.0
 10
13.19281008556828
 20
11.07593322391343
 30
0.0
 10
12.59576670271542
 20
11.24051821001765
 30
0.0
 10
11.9999999999999
 20
11.39245218773241
 30
0.0
  0
LINE
  5
A3
330
1F
100
AcDbEntity
  8
0
  6
Continuous
 62
     1
370
    15
100
AcDbLine
 10
69.14999999999996
 20
-12.69999999999999
 30
0.0
 11
69.14999999999996
 21
-11.50215313554797
 31
0.0
  0
LINE
  5
A4
330
1F
100
AcDbEntity
  8
외형선
  6
Continuous
370
    15
100
AcDbLine
 10
11.99999999999993
 20
11.3924521877324
 30
0.0
 11
11.99999999999996
 21
12.62907108643756
 31
0.0
  0
SPLINE
  5
A5
330
1F
100
AcDbEntity
  8
0
  6
Continuous
 62
     1
370
    15
100
AcDbSpline
210
0.0
220
0.0
230
1.0
 70
     8
 71
     3
 72
    14
 73
    10
 74
     0
 42
0.000000001
 43
0.00000001
 40
0.0
 40
0.0
 40
0.0
 40
0.0
 40
0.1351838492332474
 40
0.279319010786386
 40
0.423454505369849
 40
0.5675903422884622
 40
0.711726530840226
 40
0.8558630803161347
 40
0.9999999999999999
 40
0.9999999999999999
 40
0.9999999999999999
 40
0.9999999999999999
 10
44.22675199906833
 20
12.69015447375448
 30
0.0
 10
45.34982383148525
 20
12.66544382221809
 30
0.0
 10
47.6703326426488
 20
12.61438628256242
 30
0.0
 10
51.18828319270364
 20
12.11846972497989
 30
0.0
 10
54.78060607169539
 20
11.31758221993405
 30
0.0
 10
58.37293921261586
 20
10.20872450759349
 30
0.0
 10
61.96528289490236
 20
8.827480048524126
 30
0.0
 10
65.55763723622225
 20
7.221083605101494
 30
0.0
 10
67.95254472020746
 20
5.996548524301673
 30
0.0
 10
69.14999999999993
 20
5.384280197612564
 30
0.0
  0
LINE
  5
A6
330
1F
100
AcDbEntity
  8
0
  6
Continuous
 62
     1
370
    15
100
AcDbLine
 10
69.14999999999996
 20
1.088153135548122
 30
0.0
 11
69.14999999999996
 21
5.384280197612561
 31
0.0
  0
SPLINE
  5
A7
330
1F
100
AcDbEntity
  8
0
  6
Continuous
 62
     1
370
    15
100
AcDbSpline
210
0.0
220
0.0
230
1.0
 70
     8
 71
     3
 72
    14
 73
    10
 74
     0
 42
0.000000001
 43
0.00000001
 40
0.0
 40
0.0
 40
0.0
 40
0.0
 40
0.1197076908296977
 40
0.2664235757411108
 40
0.4131392478950163
 40
0.5598547168416471
 40
0.7065699921352975
 40
0.8532850833341313
 40
1.0
 40
1.0
 40
1.0
 40
1.0
 10
36.48413400738107
 20
-12.67459574626339
 30
0.0
 10
35.50715338905552
 20
-12.66309324682082
 30
0.0
 10
33.33276786745727
 20
-12.63749307852578
 30
0.0
 10
29.96098049504644
 20
-12.19377968121439
 30
0.0
 10
26.36877323881946
 20
-11.4331155985455
 30
0.0
 10
22.7765719812412
 20
-10.35915596752129
 30
0.0
 10
19.18437641980343
 20
-9.00931230702264
 30
0.0
 10
15.59218621131894
 20
-7.429760082646332
 30
0.0
 10
13.19739492896346
 20
-6.218364590472909
 30
0.0
 10
11.99999999999993
 20
-5.612667204656861
 30
0.0
  0
LINE
  5
A8
330
1F
100
AcDbEntity
  8
외형선
  6
Continuous
370
    15
100
AcDbLine
 10
11.99999999999993
 20
-5.612667204656868
 30
0.0
 11
11.99999999999996
 21
-1.340359464362881
 31
0.0
  0
SPLINE
  5
A9
330
1F
100
AcDbEntity
  8
0
  6
Continuous
 62
     1
370
    15
100
AcDbSpline
210
0.0
220
0.0
230
1.0
 70
     8
 71
     3
 72
    11
 73
     7
 74
     0
 42
0.000000001
 43
0.00000001
 40
0.0
 40
0.0
 40
0.0
 40
0.0
 40
0.3111920594117686
 40
0.6223830187793333
 40
0.9335729106502146
 40
1.0
 40
1.0
 40
1.0
 40
1.0
 10
69.14999999999996
 20
12.7
 30
0.0
 10
67.95514896744683
 20
12.56299897935633
 30
0.0
 10
65.56545112606327
 20
12.38240343244706
 30
0.0
 10
61.98091399237209
 20
11.67196470197738
 30
0.0
 10
59.33617508651494
 20
11.00129676707267
 30
0.0
 10
57.88628263738359
 20
10.48233921223036
 30
0.0
 10
57.631230189915
 20
10.39104872059828
 30
0.0
  0
LINE
  5
AA
330
1F
100
AcDbEntity
  8
0
  6
Continuous
 62
     1
370
    15
100
AcDbLine
 10
69.14999999999996
 20
5.362463116916945
 30
0.0
 11
69.14999999999996
 21
12.7
 31
0.0
  0
SPLINE
  5
AB
330
1F
100
AcDbEntity
  8
0
  6
Continuous
 62
     1
370
    15
100
AcDbSpline
210
0.0
220
0.0
230
1.0
 70
     8
 71
     3
 72
    11
 73
     7
 74
     0
 42
0.000000001
 43
0.00000001
 40
0.0
 40
0.0
 40
0.0
 40
0.0
 40
0.3235355852364529
 40
0.6470717075963662
 40
0.9706084013090748
 40
1.0
 40
1.0
 40
1.0
 40
1.0
 10
11.99999999999996
 20
-12.62907108643756
 30
0.0
 10
13.19478064958535
 20
-12.52540901072361
 30
0.0
 10
15.58434393229285
 20
-12.31808468719924
 30
0.0
 10
19.16869358178968
 20
-11.56459957381414
 30
0.0
 10
21.66680241781722
 20
-10.91654535235161
 30
0.0
 10
22.97012853783902
 20
-10.44245055904928
 30
0.0
 10
23.07866854187836
 20
-10.40296830668776
 30
0.0
  0
SPLINE
  5
AC
330
1F
100
AcDbEntity
  8
외형선
  6
Continuous
370
    15
100
AcDbSpline
210
0.0
220
0.0
230
1.0
 70
    24
 71
     3
 72
    14
 73
    10
 74
     0
 42
0.000000001
 43
0.00000001
 40
0.0
 40
0.0
 40
0.0
 40
0.0
 40
0.0288729815570747
 40
0.2012689754977759
 40
0.3688063735453283
 40
0.5412023674860517
 40
0.7087397655335952
 40
0.8811357594743072
 40
0.9999999999999999
 40
0.9999999999999999
 40
0.9999999999999999
 40
0.9999999999999999
 10
11.99999999999996
 20
-5.702811211033912
 30
0.0
 10
11.99999999999996
 20
-5.750343020212865
 30
0.0
 10
11.99999999999994
 20
-6.081679723978387
 30
0.0
 10
12.00000000000005
 20
-6.838781168545983
 30
0.0
 10
11.9999999999999
 20
-7.958036504260662
 30
0.0
 10
11.99999999999993
 20
-9.171029101999366
 30
0.0
 10
12.00000000000002
 20
-10.44606334953261
 30
0.0
 10
11.99999999999987
 20
-11.60926299191321
 30
0.0
 10
11.99999999999996
 20
-12.33350541789285
 30
0.0
 10
11.99999999999997
 20
-12.62907108643757
 30
0.0
  0
LINE
  5
AD
330
1F
100
AcDbEntity
  8
외형선
  6
Continuous
370
    15
100
AcDbLine
 10
11.49985042413538
 20
12.6562768806622
 30
0.0
 11
11.49985042413538
 21
12.69999999999999
 31
0.0
  0
SPLINE
  5
AE
330
1F
100
AcDbEntity
  8
외형선
  6
Continuous
370
    15
100
AcDbSpline
210
0.0
220
0.0
230
1.0
 70
     8
 71
     3
 72
     8
 73
     4
 74
     0
 42
0.000000001
 43
0.00000001
 40
0.0
 40
0.0
 40
0.0
 40
0.0
 40
1.0
 40
1.0
 40
1.0
 40
1.0
 10
11.99999999999996
 20
12.62907108643756
 30
0.0
 10
11.83316186162225
 20
12.63923184213773
 30
0.0
 10
11.66642384928176
 20
12.64830181522564
 30
0.0
 10
11.4998504241354
 20
12.65627922040132
 30
0.0
  0
SPLINE
  5
AF
330
1F
100
AcDbEntity
  8
외형선
  6
Continuous
370
    15
100
AcDbSpline
210
0.0
220
0.0
230
1.0
 70
     8
 71
     3
 72
     8
 73
     4
 74
     0
 42
0.000000001
 43
0.00000001
 40
0.0
 40
0.0
 40
0.0
 40
0.0
 40
1.0
 40
1.0
 40
1.0
 40
1.0
 10
11.99999999999996
 20
11.39245218773239
 30
0.0
 10
11.83316186162224
 20
11.43499968473535
 30
0.0
 10
11.66642384928176
 20
11.47655652845964
 30
0.0
 10
11.49985042413538
 20
11.51710818440839
 30
0.0
  0
LINE
  5
B0
330
1F
100
AcDbEntity
  8
외형선
  6
Continuous
370
    15
100
AcDbLine
 10
11.49985042413538
 20
-1.052927119992349
 30
0.0
 11
11.49985042413538
 21
11.51713272577626
 31
0.0
  0
SPLINE
  5
B1
330
1F
100
AcDbEntity
  8
외형선
  6
Continuous
370
    15
100
AcDbSpline
210
0.0
220
0.0
230
1.0
 70
     8
 71
     3
 72
     8
 73
     4
 74
     0
 42
0.000000001
 43
0.00000001
 40
0.0
 40
0.0
 40
0.0
 40
0.0
 40
1.0
 40
1.0
 40
1.0
 40
1.0
 10
11.99999999999996
 20
-1.340359464362885
 30
0.0
 10
11.83316186162225
 20
-1.244623276093156
 30
0.0
 10
11.66642384928176
 20
-1.148790688836536
 30
0.0
 10
11.4998504241354
 20
-1.052898995743618
 30
0.0
  0
SPLINE
  5
B2
330
1F
100
AcDbEntity
  8
외형선
  6
Continuous
370
    15
100
AcDbSpline
210
0.0
220
0.0
230
1.0
 70
     8
 71
     3
 72
     8
 73
     4
 74
     0
 42
0.000000001
 43
0.00000001
 40
0.0
 40
0.0
 40
0.0
 40
0.0
 40
1.0
 40
1.0
 40
1.0
 40
1.0
 10
11.99999999999996
 20
-5.612667204656876
 30
0.0
 10
11.83316186162224
 20
-5.526305354285319
 30
0.0
 10
11.66642384928176
 20
-5.439476914636848
 30
0.0
 10
11.49985042413538
 20
-5.352216276331948
 30
0.0
  0
LINE
  5
B3
330
1F
100
AcDbEntity
  8
외형선
  6
Continuous
370
    15
100
AcDbLine
 10
11.49985042413538
 20
-12.7
 30
0.0
 11
11.49985042413538
 21
-5.352163466940539
 31
0.0
  0
SPLINE
  5
B4
330
1F
100
AcDbEntity
  8
외형선
  6
Continuous
370
    15
100
AcDbSpline
210
0.0
220
0.0
230
1.0
 70
     8
 71
     3
 72
     8
 73
     4
 74
     0
 42
0.000000001
 43
0.00000001
 40
0.0
 40
0.0
 40
0.0
 40
0.0
 40
1.0
 40
1.0
 40
1.0
 40
1.0
 10
11.99999999999996
 20
-12.62907108643756
 30
0.0
 10
11.83316186162225
 20
-12.63923184213773
 30
0.0
 10
11.66642384928176
 20
-12.64830181522565
 30
0.0
 10
11.4998504241354
 20
-12.65627922040133
 30
0.0
  0
LINE
  5
B5
330
1F
100
AcDbEntity
  8
외형선
  6
Continuous
370
    15
100
AcDbLine
 10
-55.31000000000004
 20
-0.0000000000000055
 30
0.0
 11
-55.31000000000004
 21
12.69999999999999
 31
0.0
  0
LINE
  5
B6
330
1F
100
AcDbEntity
  8
외형선
  6
Continuous
370
    15
100
AcDbLine
 10
-55.31000000000004
 20
-12.7
 30
0.0
 11
-55.31000000000004
 21
-0.0000000000000055
 31
0.0
  0
LINE
  5
B7
330
1F
100
AcDbEntity
  8
외형선
  6
Continuous
370
    15
100
AcDbLine
 10
-57.85000000000004
 20
-0.0000000000000055
 30
0.0
 11
-57.85000000000004
 21
10.16
 31
0.0
  0
LINE
  5
B8
330
1F
100
AcDbEntity
  8
외형선
  6
Continuous
370
    15
100
AcDbLine
 10
-57.85000000000004
 20
-10.16000000000001
 30
0.0
 11
-57.85000000000004
 21
-0.0000000000000055
 31
0.0
  0
SPLINE
  5
B9
330
1F
100
AcDbEntity
  8
외형선
  6
Continuous
370
    15
100
AcDbSpline
210
0.0
220
0.0
230
1.0
 70
    24
 71
     3
 72
    21
 73
    17
 74
     0
 42
0.000000001
 43
0.00000001
 40
0.0
 40
0.0
 40
0.0
 40
0.0
 40
0.0325699308895671
 40
0.1059802061095196
 40
0.1815193842840166
 40
0.254929659503969
 40
0.3304688376784654
 40
0.4038791128984184
 40
0.4794182910729151
 40
0.5528285662928673
 40
0.6283677444673632
 40
0.7017780196873109
 40
0.7773171978618026
 40
0.8507274730817609
 40
0.9262666512562634
 40
0.9999999999999999
 40
0.9999999999999999
 40
0.9999999999999999
 40
0.9999999999999999
 10
11.99999999999996
 20
-1.445108212804279
 30
0.0
 10
11.99999999999997
 20
-1.438960273907469
 30
0.0
 10
11.99999999999999
 20
-1.41895532413825
 30
0.0
 10
11.99999999999997
 20
-1.153940993970257
 30
0.0
 10
11.99999999999999
 20
-0.6715965208388763
 30
0.0
 10
11.99999999999987
 20
0.0222813588308684
 30
0.0
 10
11.99999999999997
 20
0.8790101514580173
 30
0.0
 10
11.99999999999983
 20
1.894202538721535
 30
0.0
 10
12.00000000000004
 20
3.01966861895643
 30
0.0
 10
11.99999999999993
 20
4.244108874136641
 30
0.0
 10
11.99999999999993
 20
5.510812204131101
 30
0.0
 10
11.99999999999989
 20
6.80648566065195
 30
0.0
 10
12.00000000000006
 20
8.072099059640449
 30
0.0
 10
11.99999999999994
 20
9.290983415059154
 30
0.0
 10
11.99999999999997
 20
10.42184887208758
 30
0.0
 10
11.99999999999993
 20
11.07153762639261
 30
0.0
 10
11.99999999999991
 20
11.39245218773246
 30
0.0
  0
SPLINE
  5
BA
330
1F
100
AcDbEntity
  8
외형선
  6
Continuous
370
    15
100
AcDbSpline
210
0.0
220
0.0
230
1.0
 70
    24
 71
     3
 72
    13
 73
     9
 74
     0
 42
0.000000001
 43
0.00000001
 40
0.0
 40
0.0
 40
0.0
 40
0.0
 40
0.1693548345844638
 40
0.3437290770319898
 40
0.5113416428032782
 40
0.6838149843368168
 40
0.8514275501081049
 40
1.0
 40
1.0
 40
1.0
 40
1.0
 10
11.99999999999996
 20
-12.62907108643756
 30
0.0
 10
11.99999999999994
 20
-12.20665895960434
 30
0.0
 10
11.99999999999991
 20
-11.3493150825325
 30
0.0
 10
11.99999999999999
 20
-10.05563883659589
 30
0.0
 10
11.99999999999999
 20
-8.78762437116821
 30
0.0
 10
11.99999999999997
 20
-7.604923882107167
 30
0.0
 10
11.99999999999987
 20
-6.548553968657258
 30
0.0
 10
11.99999999999991
 20
-5.973169238479907
 30
0.0
 10
11.99999999999993
 20
-5.702801211033911
 30
0.0
  0
LINE
  5
BB
330
1F
100
AcDbEntity
  8
중심선
100
AcDbLine
 10
-60.85000000000004
 20
-0.0000000000000055
 30
0.0
 11
72.14999999999996
 21
0.0000000000000065
 31
0.0
  0
LINE
  5
BC
330
1F
100
AcDbEntity
  8
참조1
100
AcDbLine
 10
28.50000000000002
 20
0.0010749287238892
 30
0.0
 11
28.50000000000003
 21
-39.99892507127611
 31
0.0
  0
LINE
  5
BD
330
1F
100
AcDbEntity
  8
참조1
100
AcDbLine
 10
28.50000000000003
 20
-39.99892507127611
 30
0.0
 11
1.191143185691355
 21
-39.9989250712761
 31
0.0
  0
CIRCLE
  5
BE
330
1F
100
AcDbEntity
  8
해칭선
100
AcDbCircle
 10
0.0
 20
0.0
 30
0.0
 40
3.000000000000001
  0
INSERT
  5
BF
330
1F
100
AcDbEntity
  8
0
  6
Continuous
 62
     7
100
AcDbBlockReference
 66
     1
  2
블럭10
 10
-8.290272932125244
 20
-52.04717430164393
 30
0.0
  0
ATTRIB
  5
C0
330
BF
100
AcDbEntity
  8
FORMAT
 62
     2
100
AcDbText
 10
-18.43190894426187
 20
-49.97180738881174
 30
0.0
 40
4.233333333333333
  1
EM207064 [ 4 FLUTE ]
 41
0.75
  7
SLDTEXTSTYLE0
 11
-18.43190894426187
 21
-52.08847405547841
 31
0.0
100
AcDbAttribute
  2
AUTOATTR0
 70
     0
 74
     1
  0
SEQEND
  5
C1
330
BF
100
AcDbEntity
  8
0
  6
Continuous
 62
     7
  0
HATCH
  5
C2
330
1F
100
AcDbEntity
  8
중심선
100
AcDbHatch
 10
0.0
 20
0.0
 30
0.0
210
0.0
220
0.0
230
1.0
  2
SOLID
 70
     1
 71
     0
 91
        1
 92
        0
 93
        4
 72
     1
 10
-2.575363627744409
 20
-35.8
 11
-6.021638871581693
 21
-35.8
 72
     1
 10
-6.021638871581693
 20
-35.8
 11
-8.149868730785714
 21
-38.3363255805726
 72
     1
 10
-8.149868730785714
 20
-38.3363255805726
 11
-4.703560401835283
 21
-38.33628615127011
 72
     1
 10
-4.703560401835283
 20
-38.33628615127011
 11
-2.575363627744409
 21
-35.8
 97
        0
 75
     0
 76
     1
 98
        1
 10
-22.85000000000007
 20
-0.0010749287238986
  0
HATCH
  5
C3
330
1F
100
AcDbEntity
  8
중심선
100
AcDbHatch
 10
0.0
 20
0.0
 30
0.0
210
0.0
220
0.0
230
1.0
  2
SOLID
 70
     1
 71
     0
 91
        1
 92
        0
 93
        4
 72
     1
 10
2.437400363291541
 20
-35.8
 11
-1.00887488054574
 21
-35.8
 72
     1
 10
-1.00887488054574
 20
-35.8
 11
-5.540012888903128
 21
-41.20000000000002
 72
     1
 10
-5.540012888903128
 20
-41.20000000000002
 11
-2.093737645065847
 21
-41.20000000000002
 72
     1
 10
-2.093737645065847
 20
-41.20000000000002
 11
2.437400363291541
 21
-35.8
 97
        0
 75
     0
 76
     1
 98
        1
 10
-22.85000000000007
 20
-0.0010749287238986
  0
HATCH
  5
C4
330
1F
100
AcDbEntity
  8
중심선
100
AcDbHatch
 10
0.0
 20
0.0
 30
0.0
210
0.0
220
0.0
230
1.0
  2
SOLID
 70
     1
 71
     0
 91
        1
 92
        0
 93
        4
 72
     1
 10
7.450164354327491
 20
-35.79999999999998
 11
4.003889110490348
 21
-35.8
 72
     1
 10
4.003889110490348
 20
-35.8
 11
-3.044547791398927
 21
-44.20000000000002
 72
     1
 10
-3.044547791398927
 20
-44.20000000000002
 11
0.4017274524383545
 21
-44.20000000000002
 72
     1
 10
0.4017274524383545
 20
-44.20000000000002
 11
7.450164354327491
 21
-35.79999999999998
 97
        0
 75
     0
 76
     1
 98
        1
 10
-22.85000000000007
 20
-0.0010749287238986
  0
HATCH
  5
C5
330
1F
100
AcDbEntity
  8
중심선
100
AcDbHatch
 10
0.0
 20
0.0
 30
0.0
210
0.0
220
0.0
230
1.0
  2
SOLID
 70
     1
 71
     0
 91
        1
 92
        0
 93
        6
 72
     3
 10
12.25005478533964
 20
-40.00000000005127
 11
3.960054785062283
 21
1.540882976769353E-10
 40
0.3939339440162628
 50
17.09539180608436
 51
320.0019657685087
 73
     0
 72
     1
 10
13.93305444104023
 20
-38.58789400463833
 11
16.23835631474127
 21
-36.65356729459038
 72
     3
 10
12.25005478528679
 20
-40.00000000000015
 11
6.600054785286829
 21
-1.278976924368180E-13
 40
0.636358354079598
 50
39.99873849337413
 51
368.4976242363724
 73
     1
 72
     1
 10
18.6753872771874
 20
-39.03999999993002
 11
10.93012209212272
 21
-39.03999999993002
 72
     1
 10
10.93012209212272
 20
-39.03999999993002
 11
10.93009704767678
 21
-40.95999999992991
 72
     1
 10
10.93009704767678
 20
-40.95999999992991
 11
15.37147681714882
 21
-40.95999999992988
 97
        0
 75
     0
 76
     1
 98
        1
 10
-22.85000000000007
 20
-0.0010749287238986
  0
DIMENSION
  5
C6
330
1F
100
AcDbEntity
  8
치수문자_일반주서
100
AcDbDimension
  2
_D
 10
-67.9245792762773
 20
-12.70000000000004
 30
0.0
 11
-67.92457927627734
 21
-0.0000000000000132
 31
0.0
 70
   160
  1
%%c<>
 71
     2
 42
25.39999999999998
 52
-270.0
  3
SLDDIMSTYLE0
100
AcDbAlignedDimension
 13
-55.31000000000005
 23
12.69999999999998
 33
0.0
 14
-55.31000000000005
 24
-12.69999999999999
 34
0.0
 50
90.0000000000002
100
AcDbRotatedDimension
1001
ACAD
1000
DSTYLE
1002
{
1070
   171
1070
     6
1070
   273
1070
     7
1002
}
  0
DIMENSION
  5
DB
330
1F
100
AcDbEntity
  8
치수문자_일반주서
100
AcDbDimension
  2
_D_1
 10
81.61317006763177
 20
-12.69999999999995
 30
0.0
 11
81.61317006763161
 21
33.31979691240974
 31
0.0
 70
   160
  1
%%c<>
 71
     2
 42
25.4
 52
-270.0
  3
SLDDIMSTYLE0
100
AcDbAlignedDimension
 13
69.14999999999996
 23
12.7
 33
0.0
 14
69.14999999999996
 24
-12.69999999999999
 34
0.0
 50
90.0000000000002
100
AcDbRotatedDimension
1001
ACAD
1000
DSTYLE
1002
{
1070
   171
1070
     6
1070
   273
1070
     7
1002
}
  0
DIMENSION
  5
EF
330
1F
100
AcDbEntity
  8
치수문자_일반주서
100
AcDbDimension
  2
_D_2
 10
11.99999999999996
 20
34.15956963252849
 30
0.0
 11
41.63076910772408
 21
34.15956963252849
 31
0.0
 70
   160
  1
<>
 71
     2
 42
57.15000000000001
  3
SLDDIMSTYLE0
100
AcDbAlignedDimension
 13
69.14999999999996
 23
12.7
 33
0.0
 14
11.99999999999996
 24
12.62907108643756
 34
0.0
100
AcDbRotatedDimension
1001
ACAD
1000
DSTYLE
1002
{
1070
   171
1070
     6
1070
   273
1070
     7
1002
}
  0
DIMENSION
  5
103
330
1F
100
AcDbEntity
  8
치수문자_일반주서
100
AcDbDimension
  2
_D_3
 10
-57.85000000000007
 20
49.95755922524383
 30
0.0
 11
9.815517413966859
 21
49.95755922524383
 31
0.0
 70
   160
  1
<>
 71
     2
 42
127.0
  3
SLDDIMSTYLE0
100
AcDbAlignedDimension
 13
69.14999999999996
 23
12.7
 33
0.0
 14
-57.85000000000004
 24
10.16
 34
0.0
 50
0.0000000000000064
100
AcDbRotatedDimension
1001
ACAD
1000
DSTYLE
1002
{
1070
   171
1070
     6
1070
   273
1070
     7
1002
}
  0
LINE
  5
116
330
1F
100
AcDbEntity
  8
참조1
100
AcDbLine
 10
99.16348381534561
 20
7.441074928723896
 30
0.0
 11
99.16348381534561
 21
-7.438925071276109
 31
0.0
  0
LINE
  5
117
330
1F
100
AcDbEntity
  8
참조1
100
AcDbLine
 10
111.8634838153456
 20
5.441074928723896
 30
0.0
 11
99.16348381534561
 21
5.441074928723896
 31
0.0
  0
SOLID
  5
118
330
1F
100
AcDbEntity
  8
참조1
100
AcDbTrace
 10
99.16348381534561
 20
5.441074928723896
 30
0.0
 11
105.5134838153456
 21
4.425074928723896
 31
0.0
 12
105.5134838153456
 22
6.457074928723896
 32
0.0
 13
105.5134838153456
 23
6.457074928723896
 33
0.0
  0
LINE
  5
119
330
1F
100
AcDbEntity
  8
참조1
100
AcDbLine
 10
111.8634838153456
 20
-5.438925071276109
 30
0.0
 11
99.16348381534561
 21
-5.438925071276109
 31
0.0
  0
SOLID
  5
11A
330
1F
100
AcDbEntity
  8
참조1
100
AcDbTrace
 10
99.16348381534561
 20
-5.438925071276109
 30
0.0
 11
105.5134838153456
 21
-6.454925071276109
 31
0.0
 12
105.5134838153456
 22
-4.422925071276109
 32
0.0
 13
105.5134838153456
 23
-4.422925071276109
 33
0.0
  0
MTEXT
  5
11B
330
1F
100
AcDbEntity
  8
참조1
100
AcDbMText
 10
108.5609739078159
 20
10.98929157337383
 30
0.0
 40
3.5
 41
0.0
 71
     1
 72
     1
  1
A
  7
SLDTEXTSTYLE0
 73
     1
 44
1.0
  0
MTEXT
  5
11C
330
1F
100
AcDbEntity
  8
참조1
100
AcDbMText
 10
108.5609739078159
 20
0.1092915733738259
 30
0.0
 40
3.5
 41
0.0
 71
     1
 72
     1
  1
A
  7
SLDTEXTSTYLE0
 73
     1
 44
1.0
  0
INSERT
  5
123
330
1F
100
AcDbEntity
  8
해칭선
100
AcDbBlockReference
  2
SW_DOWELSYMBOL_0
 10
0.0
 20
0.0
 30
0.0
  0
ENDSEC
  0
SECTION
  2
OBJECTS
  0
DICTIONARY
  5
C
330
0
100
AcDbDictionary
281
     1
  3
ACAD_GROUP
350
D
  3
ACAD_IMAGE_VARS
350
147
  3
ACAD_LAYOUT
350
1A
  3
ACAD_MLINESTYLE
350
17
  3
ACAD_PLOTSETTINGS
350
19
  3
ACAD_PLOTSTYLENAME
350
E
  3
ACAD_SCALELIST
350
47
  3
APPDATA
350
145
  3
DWGPROPS
350
1A0
  0
DICTIONARY
  5
16E
330
2
100
AcDbDictionary
280
     1
281
     1
  3
ACAD_LAYERSTATES
360
16F
  0
DICTIONARY
  5
19E
330
1F
100
AcDbDictionary
280
     1
281
     1
  3
DIM_BOUNDING_BOXES_V1
360
19F
  0
DICTIONARY
  5
D
102
{ACAD_REACTORS
330
C
102
}
330
C
100
AcDbDictionary
281
     1
  0
RASTERVARIABLES
  5
147
102
{ACAD_REACTORS
330
C
102
}
330
C
100
AcDbRasterVariables
 90
        0
 70
     1
 71
     1
 72
     1
  0
DICTIONARY
  5
1A
102
{ACAD_REACTORS
330
C
102
}
330
C
100
AcDbDictionary
281
     1
  3
Layout1
350
1E
  3
Layout2
350
26
  3
Model
350
22
  0
DICTIONARY
  5
17
102
{ACAD_REACTORS
330
C
102
}
330
C
100
AcDbDictionary
281
     1
  3
Standard
350
18
  0
DICTIONARY
  5
19
102
{ACAD_REACTORS
330
C
102
}
330
C
100
AcDbDictionary
281
     1
  0
ACDBDICTIONARYWDFLT
  5
E
102
{ACAD_REACTORS
330
C
102
}
330
C
100
AcDbDictionary
281
     1
  3
Normal
350
F
100
AcDbDictionaryWithDefault
340
F
  0
DICTIONARY
  5
47
102
{ACAD_REACTORS
330
C
102
}
330
C
100
AcDbDictionary
281
     1
  3
A0
350
48
  3
A1
350
49
  3
A2
350
4A
  3
A3
350
4B
  3
A4
350
4C
  3
A5
350
4D
  3
A6
350
4E
  3
A7
350
4F
  3
A8
350
50
  3
A9
350
51
  3
B0
350
52
  3
B1
350
53
  3
B2
350
54
  3
B3
350
55
  3
B4
350
56
  3
B5
350
57
  3
B6
350
58
  3
B7
350
59
  3
B8
350
5A
  3
B9
350
5B
  3
C0
350
5C
  3
C1
350
5D
  3
C2
350
5E
  3
C3
350
5F
  3
C4
350
60
  3
C5
350
61
  3
C6
350
62
  3
C7
350
63
  3
C8
350
64
  3
C9
350
65
  3
D0
350
66
  3
D1
350
67
  3
D2
350
68
  0
DICTIONARY
  5
145
102
{ACAD_REACTORS
330
C
102
}
330
C
100
AcDbDictionary
281
     1
  0
XRECORD
  5
1A0
102
{ACAD_REACTORS
330
C
102
}
330
C
100
AcDbXrecord
280
     1
  1
DWGPROPS COOKIE
  2

  3

  4

  6

  7

  8
12017165
  9

300
=
301
=
302
=
303
=
304
=
305
=
306
=
307
=
308
=
309
=
 40
0.0
 41
2458289.330939954
 42
2459697.011009526
  1

 90
        0
  0
DICTIONARY
  5
16F
102
{ACAD_REACTORS
330
16E
102
}
330
16E
100
AcDbDictionary
281
     1
  0
DICTIONARY
  5
19F
102
{ACAD_REACTORS
330
19E
102
}
330
19E
100
AcDbDictionary
281
     1
  0
LAYOUT
  5
1E
102
{ACAD_REACTORS
330
1A
102
}
330
1A
100
AcDbPlotSettings
  1

  2
none_device
  4

  6

 40
0.0
 41
0.0
 42
0.0
 43
0.0
 44
0.0
 45
0.0
 46
0.0
 47
0.0
 48
0.0
 49
0.0
140
0.0
141
0.0
142
1.0
143
1.0
 70
   688
 72
     1
 73
     0
 74
     5
  7

 75
    16
147
1.0
148
0.0
149
0.0
100
AcDbLayout
  1
Layout1
 70
     1
 71
     1
 10
0.0
 20
0.0
 11
420.0
 21
297.0
 12
0.0
 22
0.0
 32
0.0
 14
1.000000000000000E+20
 24
1.000000000000000E+20
 34
1.000000000000000E+20
 15
-1.000000000000000E+20
 25
-1.000000000000000E+20
 35
-1.000000000000000E+20
146
0.0
 13
0.0
 23
0.0
 33
0.0
 16
1.0
 26
0.0
 36
0.0
 17
0.0
 27
1.0
 37
0.0
 76
     0
330
1B
  0
LAYOUT
  5
26
102
{ACAD_REACTORS
330
1A
102
}
330
1A
100
AcDbPlotSettings
  1

  2
none_device
  4

  6

 40
0.0
 41
0.0
 42
0.0
 43
0.0
 44
0.0
 45
0.0
 46
0.0
 47
0.0
 48
0.0
 49
0.0
140
0.0
141
0.0
142
1.0
143
1.0
 70
   688
 72
     1
 73
     0
 74
     5
  7

 75
    16
147
1.0
148
0.0
149
0.0
100
AcDbLayout
  1
Layout2
 70
     1
 71
     2
 10
0.0
 20
0.0
 11
0.0
 21
0.0
 12
0.0
 22
0.0
 32
0.0
 14
0.0
 24
0.0
 34
0.0
 15
0.0
 25
0.0
 35
0.0
146
0.0
 13
0.0
 23
0.0
 33
0.0
 16
1.0
 26
0.0
 36
0.0
 17
0.0
 27
1.0
 37
0.0
 76
     0
330
23
  0
LAYOUT
  5
22
102
{ACAD_REACTORS
330
1A
102
}
330
1A
100
AcDbPlotSettings
  1

  2
none_device
  4
ANSI_A_(11.00_x_8.50_Inches)
  6

 40
6.35
 41
19.05
 42
6.35000508
 43
19.05000254
 44
279.4
 45
215.9
 46
87.17832679199478
 47
65.97604893623789
 48
0.0
 49
0.0
140
0.0
141
0.0
142
0.0649254078458056
143
1.0
 70
  1696
 72
     0
 73
     0
 74
     0
  7

 75
     0
147
0.0235690232323232
148
0.0
149
0.0
100
AcDbLayout
  1
Model
 70
     1
 71
     0
 10
0.0
 20
0.0
 11
420.0
 21
297.0
 12
0.0
 22
0.0
 32
0.0
 14
-72.29957927627738
 24
-49.97180738881174
 34
0.0
 15
111.8634838153456
 25
54.33255922524384
 35
0.0
146
0.0
 13
0.0
 23
0.0
 33
0.0
 16
1.0
 26
0.0
 36
0.0
 17
0.0
 27
1.0
 37
0.0
 76
     0
330
1F
331
29
  0
MLINESTYLE
  5
18
102
{ACAD_REACTORS
330
17
102
}
330
17
100
AcDbMlineStyle
  2
Standard
 70
     0
  3

 62
   256
 51
90.0
 52
90.0
 71
     2
 49
0.5
 62
   256
  6
BYLAYER
 49
-0.5
 62
   256
  6
BYLAYER
  0
ACDBPLACEHOLDER
  5
F
102
{ACAD_REACTORS
330
E
102
}
330
E
  0
SCALE
  5
48
102
{ACAD_REACTORS
330
47
102
}
330
47
100
AcDbScale
 70
     0
300
1:1
140
1.0
141
1.0
290
     1
  0
SCALE
  5
49
102
{ACAD_REACTORS
330
47
102
}
330
47
100
AcDbScale
 70
     0
300
1:2
140
1.0
141
2.0
290
     0
  0
SCALE
  5
4A
102
{ACAD_REACTORS
330
47
102
}
330
47
100
AcDbScale
 70
     0
300
1:4
140
1.0
141
4.0
290
     0
  0
SCALE
  5
4B
102
{ACAD_REACTORS
330
47
102
}
330
47
100
AcDbScale
 70
     0
300
1:5
140
1.0
141
5.0
290
     0
  0
SCALE
  5
4C
102
{ACAD_REACTORS
330
47
102
}
330
47
100
AcDbScale
 70
     0
300
1:8
140
1.0
141
8.0
290
     0
  0
SCALE
  5
4D
102
{ACAD_REACTORS
330
47
102
}
330
47
100
AcDbScale
 70
     0
300
1:10
140
1.0
141
10.0
290
     0
  0
SCALE
  5
4E
102
{ACAD_REACTORS
330
47
102
}
330
47
100
AcDbScale
 70
     0
300
1:16
140
1.0
141
16.0
290
     0
  0
SCALE
  5
4F
102
{ACAD_REACTORS
330
47
102
}
330
47
100
AcDbScale
 70
     0
300
1:20
140
1.0
141
20.0
290
     0
  0
SCALE
  5
50
102
{ACAD_REACTORS
330
47
102
}
330
47
100
AcDbScale
 70
     0
300
1:30
140
1.0
141
30.0
290
     0
  0
SCALE
  5
51
102
{ACAD_REACTORS
330
47
102
}
330
47
100
AcDbScale
 70
     0
300
1:40
140
1.0
141
40.0
290
     0
  0
SCALE
  5
52
102
{ACAD_REACTORS
330
47
102
}
330
47
100
AcDbScale
 70
     0
300
1:50
140
1.0
141
50.0
290
     0
  0
SCALE
  5
53
102
{ACAD_REACTORS
330
47
102
}
330
47
100
AcDbScale
 70
     0
300
1:100
140
1.0
141
100.0
290
     0
  0
SCALE
  5
54
102
{ACAD_REACTORS
330
47
102
}
330
47
100
AcDbScale
 70
     0
300
2:1
140
2.0
141
1.0
290
     0
  0
SCALE
  5
55
102
{ACAD_REACTORS
330
47
102
}
330
47
100
AcDbScale
 70
     0
300
4:1
140
4.0
141
1.0
290
     0
  0
SCALE
  5
56
102
{ACAD_REACTORS
330
47
102
}
330
47
100
AcDbScale
 70
     0
300
8:1
140
8.0
141
1.0
290
     0
  0
SCALE
  5
57
102
{ACAD_REACTORS
330
47
102
}
330
47
100
AcDbScale
 70
     0
300
10:1
140
10.0
141
1.0
290
     0
  0
SCALE
  5
58
102
{ACAD_REACTORS
330
47
102
}
330
47
100
AcDbScale
 70
     0
300
100:1
140
100.0
141
1.0
290
     0
  0
SCALE
  5
59
102
{ACAD_REACTORS
330
47
102
}
330
47
100
AcDbScale
 70
     0
300
1/128" = 1'-0"
140
0.0078125
141
12.0
290
     0
  0
SCALE
  5
5A
102
{ACAD_REACTORS
330
47
102
}
330
47
100
AcDbScale
 70
     0
300
1/64" = 1'-0"
140
0.015625
141
12.0
290
     0
  0
SCALE
  5
5B
102
{ACAD_REACTORS
330
47
102
}
330
47
100
AcDbScale
 70
     0
300
1/32" = 1'-0"
140
0.03125
141
12.0
290
     0
  0
SCALE
  5
5C
102
{ACAD_REACTORS
330
47
102
}
330
47
100
AcDbScale
 70
     0
300
1/16" = 1'-0"
140
0.0625
141
12.0
290
     0
  0
SCALE
  5
5D
102
{ACAD_REACTORS
330
47
102
}
330
47
100
AcDbScale
 70
     0
300
3/32" = 1'-0"
140
0.09375
141
12.0
290
     0
  0
SCALE
  5
5E
102
{ACAD_REACTORS
330
47
102
}
330
47
100
AcDbScale
 70
     0
300
1/8" = 1'-0"
140
0.125
141
12.0
290
     0
  0
SCALE
  5
5F
102
{ACAD_REACTORS
330
47
102
}
330
47
100
AcDbScale
 70
     0
300
3/16" = 1'-0"
140
0.1875
141
12.0
290
     0
  0
SCALE
  5
60
102
{ACAD_REACTORS
330
47
102
}
330
47
100
AcDbScale
 70
     0
300
1/4" = 1'-0"
140
0.25
141
12.0
290
     0
  0
SCALE
  5
61
102
{ACAD_REACTORS
330
47
102
}
330
47
100
AcDbScale
 70
     0
300
3/8" = 1'-0"
140
0.375
141
12.0
290
     0
  0
SCALE
  5
62
102
{ACAD_REACTORS
330
47
102
}
330
47
100
AcDbScale
 70
     0
300
1/2" = 1'-0"
140
0.5
141
12.0
290
     0
  0
SCALE
  5
63
102
{ACAD_REACTORS
330
47
102
}
330
47
100
AcDbScale
 70
     0
300
3/4" = 1'-0"
140
0.75
141
12.0
290
     0
  0
SCALE
  5
64
102
{ACAD_REACTORS
330
47
102
}
330
47
100
AcDbScale
 70
     0
300
1" = 1'-0"
140
1.0
141
12.0
290
     0
  0
SCALE
  5
65
102
{ACAD_REACTORS
330
47
102
}
330
47
100
AcDbScale
 70
     0
300
1-1/2" = 1'-0"
140
1.5
141
12.0
290
     0
  0
SCALE
  5
66
102
{ACAD_REACTORS
330
47
102
}
330
47
100
AcDbScale
 70
     0
300
3" = 1'-0"
140
3.0
141
12.0
290
     0
  0
SCALE
  5
67
102
{ACAD_REACTORS
330
47
102
}
330
47
100
AcDbScale
 70
     0
300
6" = 1'-0"
140
6.0
141
12.0
290
     0
  0
SCALE
  5
68
102
{ACAD_REACTORS
330
47
102
}
330
47
100
AcDbScale
 70
     0
300
1'-0" = 1'-0"
140
12.0
141
12.0
290
     0
  0
ENDSEC
  0
EOF
