  0
SECTION
  2
HEADER
  9
$ACADVER
  1
AC1015
  9
$ACADMAINTVER
 70
     6
  9
$DWGCODEPAGE
  3
ANSI_949
  9
$INSBASE
 10
0.0
 20
0.0
 30
0.0
  9
$EXTMIN
 10
1.000000000000000E+20
 20
1.000000000000000E+20
 30
1.000000000000000E+20
  9
$EXTMAX
 10
-1.000000000000000E+20
 20
-1.000000000000000E+20
 30
-1.000000000000000E+20
  9
$LIMMIN
 10
0.0
 20
0.0
  9
$LIMMAX
 10
420.0
 20
297.0
  9
$ORTHOMODE
 70
     1
  9
$REGENMODE
 70
     1
  9
$FILLMODE
 70
     1
  9
$QTEXTMODE
 70
     0
  9
$MIRRTEXT
 70
     1
  9
$LTSCALE
 40
1.0
  9
$ATTMODE
 70
     1
  9
$TEXTSIZE
 40
3.5
  9
$TRACEWID
 40
1.0
  9
$TEXTSTYLE
  7
Standard
  9
$CLAYER
  8
0
  9
$CELTYPE
  6
ByLayer
  9
$CECOLOR
 62
   256
  9
$CELTSCALE
 40
1.0
  9
$DISPSILH
 70
     0
  9
$DIMSCALE
 40
1.0
  9
$DIMASZ
 40
3.302
  9
$DIMEXO
 40
1.0
  9
$DIMDLI
 40
3.75
  9
$DIMRND
 40
0.0
  9
$DIMDLE
 40
0.0
  9
$DIMEXE
 40
1.0
  9
$DIMTP
 40
0.0
  9
$DIMTM
 40
0.0
  9
$DIMTXT
 40
3.5
  9
$DIMCEN
 40
2.5
  9
$DIMTSZ
 40
0.0
  9
$DIMTOL
 70
     0
  9
$DIMLIM
 70
     0
  9
$DIMTIH
 70
     1
  9
$DIMTOH
 70
     1
  9
$DIMSE1
 70
     0
  9
$DIMSE2
 70
     0
  9
$DIMTAD
 70
     1
  9
$DIMZIN
 70
     0
  9
$DIMBLK
  1

  9
$DIMASO
 70
     1
  9
$DIMSHO
 70
     1
  9
$DIMPOST
  1

  9
$DIMAPOST
  1

  9
$DIMALT
 70
     0
  9
$DIMALTD
 70
     3
  9
$DIMALTF
 40
0.0393700787401575
  9
$DIMLFAC
 40
1.0
  9
$DIMTOFL
 70
     1
  9
$DIMTVP
 40
0.0
  9
$DIMTIX
 70
     0
  9
$DIMSOXD
 70
     0
  9
$DIMSAH
 70
     0
  9
$DIMBLK1
  1

  9
$DIMBLK2
  1

  9
$DIMSTYLE
  2
ISO-25
  9
$DIMCLRD
 70
     0
  9
$DIMCLRE
 70
     0
  9
$DIMCLRT
 70
     0
  9
$DIMTFAC
 40
1.0
  9
$DIMGAP
 40
1.524
  9
$DIMJUST
 70
     0
  9
$DIMSD1
 70
     0
  9
$DIMSD2
 70
     0
  9
$DIMTOLJ
 70
     0
  9
$DIMTZIN
 70
     0
  9
$DIMALTZ
 70
     0
  9
$DIMALTTZ
 70
     0
  9
$DIMUPT
 70
     0
  9
$DIMDEC
 70
     2
  9
$DIMTDEC
 70
     2
  9
$DIMALTU
 70
     2
  9
$DIMALTTD
 70
     3
  9
$DIMTXSTY
  7
Standard
  9
$DIMAUNIT
 70
     0
  9
$DIMADEC
 70
     2
  9
$DIMALTRND
 40
0.0
  9
$DIMAZIN
 70
     0
  9
$DIMDSEP
 70
    44
  9
$DIMATFIT
 70
     3
  9
$DIMFRAC
 70
     0
  9
$DIMLDRBLK
  1

  9
$DIMLUNIT
 70
     2
  9
$DIMLWD
 70
    -2
  9
$DIMLWE
 70
    -2
  9
$DIMTMOVE
 70
     0
  9
$LUNITS
 70
     2
  9
$LUPREC
 70
     2
  9
$SKETCHINC
 40
1.0
  9
$FILLETRAD
 40
10.0
  9
$AUNITS
 70
     0
  9
$AUPREC
 70
     2
  9
$MENU
  1
.
  9
$ELEVATION
 40
0.0
  9
$PELEVATION
 40
0.0
  9
$THICKNESS
 40
0.0
  9
$LIMCHECK
 70
     0
  9
$CHAMFERA
 40
0.0
  9
$CHAMFERB
 40
0.0
  9
$CHAMFERC
 40
0.0
  9
$CHAMFERD
 40
0.0
  9
$SKPOLY
 70
     0
  9
$TDCREATE
 40
2458288.748156065
  9
$TDUCREATE
 40
2458288.373156065
  9
$TDUPDATE
 40
2458294.713663183
  9
$TDUUPDATE
 40
2458294.338663183
  9
$TDINDWG
 40
0.0010742014
  9
$TDUSRTIMER
 40
2458294.337569618
  9
$USRTIMER
 70
     1
  9
$ANGBASE
 50
0.0
  9
$ANGDIR
 70
     0
  9
$PDMODE
 70
     0
  9
$PDSIZE
 40
-1.0
  9
$PLINEWID
 40
0.0
  9
$SPLFRAME
 70
     0
  9
$SPLINETYPE
 70
     6
  9
$SPLINESEGS
 70
     8
  9
$HANDSEED
  5
191
  9
$SURFTAB1
 70
     6
  9
$SURFTAB2
 70
     6
  9
$SURFTYPE
 70
     6
  9
$SURFU
 70
     6
  9
$SURFV
 70
     6
  9
$UCSBASE
  2

  9
$UCSNAME
  2

  9
$UCSORG
 10
0.0
 20
0.0
 30
0.0
  9
$UCSXDIR
 10
1.0
 20
0.0
 30
0.0
  9
$UCSYDIR
 10
0.0
 20
1.0
 30
0.0
  9
$UCSORTHOREF
  2

  9
$UCSORTHOVIEW
 70
     0
  9
$UCSORGTOP
 10
0.0
 20
0.0
 30
0.0
  9
$UCSORGBOTTOM
 10
0.0
 20
0.0
 30
0.0
  9
$UCSORGLEFT
 10
0.0
 20
0.0
 30
0.0
  9
$UCSORGRIGHT
 10
0.0
 20
0.0
 30
0.0
  9
$UCSORGFRONT
 10
0.0
 20
0.0
 30
0.0
  9
$UCSORGBACK
 10
0.0
 20
0.0
 30
0.0
  9
$PUCSBASE
  2

  9
$PUCSNAME
  2

  9
$PUCSORG
 10
0.0
 20
0.0
 30
0.0
  9
$PUCSXDIR
 10
1.0
 20
0.0
 30
0.0
  9
$PUCSYDIR
 10
0.0
 20
1.0
 30
0.0
  9
$PUCSORTHOREF
  2

  9
$PUCSORTHOVIEW
 70
     0
  9
$PUCSORGTOP
 10
0.0
 20
0.0
 30
0.0
  9
$PUCSORGBOTTOM
 10
0.0
 20
0.0
 30
0.0
  9
$PUCSORGLEFT
 10
0.0
 20
0.0
 30
0.0
  9
$PUCSORGRIGHT
 10
0.0
 20
0.0
 30
0.0
  9
$PUCSORGFRONT
 10
0.0
 20
0.0
 30
0.0
  9
$PUCSORGBACK
 10
0.0
 20
0.0
 30
0.0
  9
$USERI1
 70
     0
  9
$USERI2
 70
     0
  9
$USERI3
 70
     0
  9
$USERI4
 70
     0
  9
$USERI5
 70
     0
  9
$USERR1
 40
0.0
  9
$USERR2
 40
0.0
  9
$USERR3
 40
0.0
  9
$USERR4
 40
0.0
  9
$USERR5
 40
0.0
  9
$WORLDVIEW
 70
     1
  9
$SHADEDGE
 70
     3
  9
$SHADEDIF
 70
    70
  9
$TILEMODE
 70
     1
  9
$MAXACTVP
 70
    64
  9
$PINSBASE
 10
0.0
 20
0.0
 30
0.0
  9
$PLIMCHECK
 70
     0
  9
$PEXTMIN
 10
1.000000000000000E+20
 20
1.000000000000000E+20
 30
1.000000000000000E+20
  9
$PEXTMAX
 10
-1.000000000000000E+20
 20
-1.000000000000000E+20
 30
-1.000000000000000E+20
  9
$PLIMMIN
 10
0.0
 20
0.0
  9
$PLIMMAX
 10
0.0
 20
0.0
  9
$UNITMODE
 70
     0
  9
$VISRETAIN
 70
     1
  9
$PLINEGEN
 70
     0
  9
$PSLTSCALE
 70
     1
  9
$TREEDEPTH
 70
  3020
  9
$CMLSTYLE
  2
Standard
  9
$CMLJUST
 70
     0
  9
$CMLSCALE
 40
20.0
  9
$PROXYGRAPHICS
 70
     1
  9
$MEASUREMENT
 70
     1
  9
$CELWEIGHT
370
    -1
  9
$ENDCAPS
280
     0
  9
$JOINSTYLE
280
     0
  9
$LWDISPLAY
290
     1
  9
$INSUNITS
 70
     4
  9
$HYPERLINKBASE
  1

  9
$STYLESHEET
  1

  9
$XEDIT
290
     1
  9
$CEPSNTYPE
380
     0
  9
$PSTYLEMODE
290
     1
  9
$FINGERPRINTGUID
  2
{2C2A69C5-065E-4743-A6B2-54F7CB2A792B}
  9
$VERSIONGUID
  2
{FAEB1C32-E019-11D5-929B-00C0DF256EC4}
  9
$EXTNAMES
290
     1
  9
$PSVPSCALE
 40
0.0
  9
$OLESTARTUP
290
     0
  0
ENDSEC
  0
SECTION
  2
CLASSES
  0
CLASS
  1
ACDBDICTIONARYWDFLT
  2
AcDbDictionaryWithDefault
  3
ObjectDBX Classes
 90
        0
280
     0
281
     0
  0
CLASS
  1
VISUALSTYLE
  2
AcDbVisualStyle
  3
ObjectDBX Classes
 90
     4095
280
     0
281
     0
  0
CLASS
  1
MATERIAL
  2
AcDbMaterial
  3
ObjectDBX Classes
 90
     1153
280
     0
281
     0
  0
CLASS
  1
SCALE
  2
AcDbScale
  3
ObjectDBX Classes
 90
     1153
280
     0
281
     0
  0
CLASS
  1
SUN
  2
AcDbSun
  3
SCENEOE
 90
     1153
280
     0
281
     0
  0
CLASS
  1
ACDBPLACEHOLDER
  2
AcDbPlaceHolder
  3
ObjectDBX Classes
 90
        0
280
     0
281
     0
  0
CLASS
  1
LAYOUT
  2
AcDbLayout
  3
ObjectDBX Classes
 90
        0
280
     0
281
     0
  0
CLASS
  1
TABLESTYLE
  2
AcDbTableStyle
  3
ObjectDBX Classes
 90
     4095
280
     0
281
     0
  0
CLASS
  1
MLEADERSTYLE
  2
AcDbMLeaderStyle
  3
ACDB_MLEADERSTYLE_CLASS
 90
     4095
280
     0
281
     0
  0
CLASS
  1
RASTERVARIABLES
  2
AcDbRasterVariables
  3
ISM
 90
        0
280
     0
281
     0
  0
ENDSEC
  0
SECTION
  2
TABLES
  0
TABLE
  2
VPORT
  5
8
330
0
100
AcDbSymbolTable
 70
     1
  0
VPORT
  5
29
330
8
100
AcDbSymbolTableRecord
100
AcDbViewportTableRecord
  2
*Active
 70
     0
 10
0.0
 20
0.0
 11
1.0
 21
1.0
 12
1.485475089733193
 22
19.29111273941655
 13
0.0
 23
0.0
 14
10.0
 24
10.0
 15
10.0
 25
10.0
 16
0.0
 26
0.0
 36
1.0
 17
0.0
 27
0.0
 37
0.0
 40
130.2965579892899
 41
1.859099804305284
 42
50.0
 43
0.0
 44
0.0
 50
0.0
 51
0.0
 71
    16
 72
  2000
 73
     1
 74
     3
 75
     0
 76
     0
 77
     0
 78
     0
281
     0
 65
     1
110
0.0
120
0.0
130
0.0
111
1.0
121
0.0
131
0.0
112
0.0
122
1.0
132
0.0
 79
     0
146
0.0
  0
ENDTAB
  0
TABLE
  2
LTYPE
  5
5
330
0
100
AcDbSymbolTable
 70
     6
  0
LTYPE
  5
14
330
5
100
AcDbSymbolTableRecord
100
AcDbLinetypeTableRecord
  2
ByBlock
 70
     0
  3

 72
    65
 73
     0
 40
0.0
  0
LTYPE
  5
15
330
5
100
AcDbSymbolTableRecord
100
AcDbLinetypeTableRecord
  2
ByLayer
 70
     0
  3

 72
    65
 73
     0
 40
0.0
  0
LTYPE
  5
16
330
5
100
AcDbSymbolTableRecord
100
AcDbLinetypeTableRecord
  2
Continuous
 70
     0
  3
Solid line
 72
    65
 73
     0
 40
0.0
  0
LTYPE
  5
6A
330
5
100
AcDbSymbolTableRecord
100
AcDbLinetypeTableRecord
  2
HIDDEN
 70
     0
  3
Hidden __ __ __ __ __ __ __ __ __ __ __ __ __ __
 72
    65
 73
     2
 40
1.905
 49
1.27
 74
     0
 49
-0.635
 74
     0
  0
LTYPE
  5
6B
330
5
100
AcDbSymbolTableRecord
100
AcDbLinetypeTableRecord
  2
PHANTOM
 70
     0
  3
Phantom ______  __  __  ______  __  __  ______
 72
    65
 73
     6
 40
12.7
 49
6.35
 74
     0
 49
-1.27
 74
     0
 49
1.27
 74
     0
 49
-1.27
 74
     0
 49
1.27
 74
     0
 49
-1.27
 74
     0
  0
LTYPE
  5
6C
330
5
100
AcDbSymbolTableRecord
100
AcDbLinetypeTableRecord
  2
CENTER
 70
     0
  3
Center ____ _ ____ _ ____ _ ____ _ ____ _ ____
 72
    65
 73
     4
 40
10.16
 49
6.35
 74
     0
 49
-1.27
 74
     0
 49
1.27
 74
     0
 49
-1.27
 74
     0
  0
LTYPE
  5
6D
330
5
100
AcDbSymbolTableRecord
100
AcDbLinetypeTableRecord
  2
CENTERX2
 70
     0
  3
Center (2x) ________  __  ________  __  _____
 72
    65
 73
     4
 40
20.32
 49
12.7
 74
     0
 49
-2.54
 74
     0
 49
2.54
 74
     0
 49
-2.54
 74
     0
  0
LTYPE
  5
6E
330
5
100
AcDbSymbolTableRecord
100
AcDbLinetypeTableRecord
  2
DOT2
 70
     0
  3
Dot (.5x) ........................................
 72
    65
 73
     2
 40
0.635
 49
0.0
 74
     0
 49
-0.635
 74
     0
  0
ENDTAB
  0
TABLE
  2
LAYER
  5
2
102
{ACAD_XDICTIONARY
360
180
102
}
330
0
100
AcDbSymbolTable
 70
    18
  0
LAYER
  5
10
330
2
100
AcDbSymbolTableRecord
100
AcDbLayerTableRecord
  2
0
 70
     0
 62
     7
  6
Continuous
370
    -3
390
F
  0
LAYER
  5
6F
330
2
100
AcDbSymbolTableRecord
100
AcDbLayerTableRecord
  2
FORMAT
 70
     0
 62
     2
  6
Continuous
370
    -3
390
F
  0
LAYER
  5
70
330
2
100
AcDbSymbolTableRecord
100
AcDbLayerTableRecord
  2
외형선
 70
     0
 62
     4
  6
Continuous
370
    30
390
F
  0
LAYER
  5
71
330
2
100
AcDbSymbolTableRecord
100
AcDbLayerTableRecord
  2
숨은선
 70
     0
 62
     2
  6
HIDDEN
370
    15
390
F
  0
LAYER
  5
72
330
2
100
AcDbSymbolTableRecord
100
AcDbLayerTableRecord
  2
중심선
 70
     0
 62
     1
  6
CENTERX2
370
    -3
390
F
  0
LAYER
  5
73
330
2
100
AcDbSymbolTableRecord
100
AcDbLayerTableRecord
  2
파단선
 70
     0
 62
     4
  6
Continuous
370
    -3
390
F
  0
LAYER
  5
74
330
2
100
AcDbSymbolTableRecord
100
AcDbLayerTableRecord
  2
해칭선
 70
     0
 62
   100
  6
Continuous
370
    -3
390
F
  0
LAYER
  5
75
330
2
100
AcDbSymbolTableRecord
100
AcDbLayerTableRecord
  2
가는실선
 70
     0
 62
     4
  6
Continuous
370
    -3
390
F
  0
LAYER
  5
76
330
2
100
AcDbSymbolTableRecord
100
AcDbLayerTableRecord
  2
치수_보조선
 70
     0
 62
     4
  6
Continuous
370
    -3
390
F
  0
LAYER
  5
77
330
2
100
AcDbSymbolTableRecord
100
AcDbLayerTableRecord
  2
치수문자_일반주서
 70
     0
 62
     7
  6
Continuous
370
    15
390
F
  0
LAYER
  5
78
330
2
100
AcDbSymbolTableRecord
100
AcDbLayerTableRecord
  2
개별주서
 70
     0
 62
   100
  6
Continuous
370
    30
390
F
  0
LAYER
  5
79
330
2
100
AcDbSymbolTableRecord
100
AcDbLayerTableRecord
  2
중간선
 70
     0
 62
     2
  6
Continuous
370
    15
390
F
  0
LAYER
  5
7A
330
2
100
AcDbSymbolTableRecord
100
AcDbLayerTableRecord
  2
윤곽선
 70
     0
 62
     3
  6
Continuous
370
    40
390
F
  0
LAYER
  5
7B
330
2
100
AcDbSymbolTableRecord
100
AcDbLayerTableRecord
  2
중심마크
 70
     0
 62
   100
  6
Continuous
370
    30
390
F
  0
LAYER
  5
7C
330
2
100
AcDbSymbolTableRecord
100
AcDbLayerTableRecord
  2
가상선
 70
     0
 62
     4
  6
PHANTOM
370
    -3
390
F
  0
LAYER
  5
7D
330
2
100
AcDbSymbolTableRecord
100
AcDbLayerTableRecord
  2
특수지정선
 70
     0
 62
     5
  6
CENTERX2
370
    60
390
F
  0
LAYER
  5
7E
330
2
100
AcDbSymbolTableRecord
100
AcDbLayerTableRecord
  2
참조1
 70
     0
 62
    -4
  6
Continuous
370
    -3
390
F
  0
LAYER
  5
187
330
2
100
AcDbSymbolTableRecord
100
AcDbLayerTableRecord
  2
Defpoints
 70
     0
 62
     7
  6
Continuous
290
     0
370
    -3
390
F
  0
ENDTAB
  0
TABLE
  2
STYLE
  5
3
330
0
100
AcDbSymbolTable
 70
     2
  0
STYLE
  5
11
330
3
100
AcDbSymbolTableRecord
100
AcDbTextStyleTableRecord
  2
Standard
 70
     0
 40
0.0
 41
1.0
 50
0.0
 71
     0
 42
3.5
  3
txt
  4

  0
STYLE
  5
94
330
3
100
AcDbSymbolTableRecord
100
AcDbTextStyleTableRecord
  2
SLDTEXTSTYLE0
 70
     0
 40
0.0
 41
0.75
 50
0.0
 71
     0
 42
3.5
  3
TXT
  4

  0
ENDTAB
  0
TABLE
  2
VIEW
  5
6
330
0
100
AcDbSymbolTable
 70
     0
  0
ENDTAB
  0
TABLE
  2
UCS
  5
7
330
0
100
AcDbSymbolTable
 70
     0
  0
ENDTAB
  0
TABLE
  2
APPID
  5
9
330
0
100
AcDbSymbolTable
 70
     1
  0
APPID
  5
12
330
9
100
AcDbSymbolTableRecord
100
AcDbRegAppTableRecord
  2
ACAD
 70
     0
  0
ENDTAB
  0
TABLE
  2
DIMSTYLE
  5
A
330
0
100
AcDbSymbolTable
 70
     3
100
AcDbDimStyleTable
  0
DIMSTYLE
105
27
330
A
100
AcDbSymbolTableRecord
100
AcDbDimStyleTableRecord
  2
ISO-25
 70
     0
 41
2.5
 42
0.625
 43
3.75
 44
1.25
 73
     0
 74
     0
 77
     1
 78
     8
140
2.5
141
2.5
143
0.03937007874016
147
0.625
171
     3
172
     1
178
     0
271
     2
272
     2
274
     3
278
    44
283
     0
284
     8
340
11
  0
DIMSTYLE
105
D9
102
{ACAD_REACTORS
330
D8
330
ED
330
101
330
115
102
}
330
A
100
AcDbSymbolTableRecord
100
AcDbDimStyleTableRecord
  2
SLDDIMSTYLE0
 70
     0
 41
3.302
 44
0.0
 45
0.000000001
 73
     0
 74
     0
 77
     1
 78
    12
 79
     3
140
3.5
143
0.0393700787401575
147
0.875
148
0.000000001
170
     1
172
     1
173
     1
178
     0
271
     2
272
     2
276
     2
284
    12
289
     0
340
94
  0
DIMSTYLE
105
EE
330
A
100
AcDbSymbolTableRecord
100
AcDbDimStyleTableRecord
  2
SLDDIMSTYLE1
 70
     0
 41
3.302
 44
0.0
 45
0.000000001
 73
     0
 74
     0
 77
     1
 78
    12
 79
     3
140
3.5
143
0.0393700787401575
147
0.875
148
0.000000001
170
     1
173
     1
178
     0
271
     2
272
     2
276
     2
284
    12
340
94
  0
ENDTAB
  0
TABLE
  2
BLOCK_RECORD
  5
1
330
0
100
AcDbSymbolTable
 70
     8
  0
BLOCK_RECORD
  5
1F
330
1
100
AcDbSymbolTableRecord
100
AcDbBlockTableRecord
  2
*Model_Space
340
22
  0
BLOCK_RECORD
  5
1B
330
1
100
AcDbSymbolTableRecord
100
AcDbBlockTableRecord
  2
*Paper_Space
340
1E
  0
BLOCK_RECORD
  5
23
330
1
100
AcDbSymbolTableRecord
100
AcDbBlockTableRecord
  2
*Paper_Space0
340
26
  0
BLOCK_RECORD
  5
7F
330
1
100
AcDbSymbolTableRecord
100
AcDbBlockTableRecord
  2
블럭10
340
0
102
{BLKREFS
331
D1
102
}
  0
BLOCK_RECORD
  5
DA
330
1
100
AcDbSymbolTableRecord
100
AcDbBlockTableRecord
  2
_D
340
0
  0
BLOCK_RECORD
  5
EF
330
1
100
AcDbSymbolTableRecord
100
AcDbBlockTableRecord
  2
_D_1
340
0
  0
BLOCK_RECORD
  5
102
330
1
100
AcDbSymbolTableRecord
100
AcDbBlockTableRecord
  2
_D_2
340
0
  0
BLOCK_RECORD
  5
116
330
1
100
AcDbSymbolTableRecord
100
AcDbBlockTableRecord
  2
_D_3
340
0
  0
BLOCK_RECORD
  5
12F
330
1
100
AcDbSymbolTableRecord
100
AcDbBlockTableRecord
  2
SW_DOWELSYMBOL_0
340
0
102
{BLKREFS
331
135
102
}
  0
ENDTAB
  0
ENDSEC
  0
SECTION
  2
BLOCKS
  0
BLOCK
  5
20
330
1F
100
AcDbEntity
  8
0
100
AcDbBlockBegin
  2
*Model_Space
 70
     0
 10
0.0
 20
0.0
 30
0.0
  3
*Model_Space
  1
*Model_Space
  0
ENDBLK
  5
21
330
1F
100
AcDbEntity
  8
0
100
AcDbBlockEnd
  0
BLOCK
  5
1C
330
1B
100
AcDbEntity
 67
     1
  8
0
100
AcDbBlockBegin
  2
*Paper_Space
 70
     0
 10
0.0
 20
0.0
 30
0.0
  3
*Paper_Space
  1
*Paper_Space
  0
ENDBLK
  5
1D
330
1B
100
AcDbEntity
 67
     1
  8
0
100
AcDbBlockEnd
  0
BLOCK
  5
24
330
23
100
AcDbEntity
  8
0
100
AcDbBlockBegin
  2
*Paper_Space0
 70
     0
 10
0.0
 20
0.0
 30
0.0
  3
*Paper_Space0
  1
*Paper_Space0
  0
ENDBLK
  5
25
330
23
100
AcDbEntity
  8
0
100
AcDbBlockEnd
  0
BLOCK
  5
80
330
7F
100
AcDbEntity
  8
0
100
AcDbBlockBegin
  2
블럭10
 70
     2
 10
0.0
 20
0.0
 30
0.0
  3
블럭10
  1
블럭10
  0
ELLIPSE
  5
82
330
7F
100
AcDbEntity
  8
중심선
100
AcDbEllipse
 10
20.54032771741204
 20
12.0471743016438
 30
0.0
 11
6.600054785286829
 21
-1.261213355974178E-13
 31
0.0
210
0.0
220
0.0
230
1.0
 40
0.636358354079598
 41
0.9219305317359503
 42
6.513795318482858
  0
ELLIPSE
  5
83
330
7F
100
AcDbEntity
  8
중심선
100
AcDbEllipse
 10
20.54032771746488
 20
12.04717430159265
 30
0.0
 11
3.960054785062283
 21
1.540847449632565E-10
 31
0.0
210
0.0
220
0.0
230
1.0
 40
0.3939339440162632
 41
1.131841032648279
 42
5.62031148352944
  0
LINE
  5
84
330
7F
100
AcDbEntity
  8
중심선
100
AcDbLine
 10
2.268634060543552
 20
16.24717430164393
 30
0.0
 11
5.714909304380834
 21
16.24717430164393
 31
0.0
  0
LINE
  5
85
330
7F
100
AcDbEntity
  8
중심선
100
AcDbLine
 10
5.245725140726316
 20
7.84717430164391
 30
0.0
 11
8.692000384563599
 21
7.84717430164391
 31
0.0
  0
LINE
  5
86
330
7F
100
AcDbEntity
  8
중심선
100
AcDbLine
 10
15.74043728645272
 20
16.24717430164393
 30
0.0
 11
8.692000384563599
 21
7.84717430164391
 31
0.0
  0
LINE
  5
87
330
7F
100
AcDbEntity
  8
중심선
100
AcDbLine
 10
0.1404042013395286
 20
13.71084872107135
 30
0.0
 11
3.58671253028996
 21
13.71088815037384
 31
0.0
  0
LINE
  5
88
330
7F
100
AcDbEntity
  8
중심선
100
AcDbLine
 10
2.750260043222114
 20
10.84717430164391
 30
0.0
 11
6.196535287059397
 21
10.84717430164391
 31
0.0
  0
LINE
  5
89
330
7F
100
AcDbEntity
  8
중심선
100
AcDbLine
 10
12.29416204261559
 20
16.24717430164393
 30
0.0
 11
5.245725140726316
 21
7.84717430164391
 31
0.0
  0
LINE
  5
8A
330
7F
100
AcDbEntity
  8
중심선
100
AcDbLine
 10
10.72767329541681
 20
16.24717430164393
 30
0.0
 11
6.196535287059397
 21
10.84717430164391
 31
0.0
  0
LINE
  5
8B
330
7F
100
AcDbEntity
  8
중심선
100
AcDbLine
 10
7.28139805157953
 20
16.24717430164393
 30
0.0
 11
2.750260043222114
 21
10.84717430164391
 31
0.0
  0
LINE
  5
8C
330
7F
100
AcDbEntity
  8
중심선
100
AcDbLine
 10
5.714909304380834
 20
16.24717430164393
 30
0.0
 11
3.58671253028996
 21
13.71088815037384
 31
0.0
  0
LINE
  5
8D
330
7F
100
AcDbEntity
  8
중심선
100
AcDbLine
 10
2.268634060543552
 20
16.24717430164393
 30
0.0
 11
0.1404042013395286
 21
13.71084872107135
 31
0.0
  0
LINE
  5
8E
330
7F
100
AcDbEntity
  8
중심선
100
AcDbLine
 10
7.28139805157953
 20
16.24717430164393
 30
0.0
 11
10.72767329541681
 21
16.24717430164393
 31
0.0
  0
LINE
  5
8F
330
7F
100
AcDbEntity
  8
중심선
100
AcDbLine
 10
12.29416204261559
 20
16.24717430164393
 30
0.0
 11
15.74043728645272
 21
16.24717430164393
 31
0.0
  0
LINE
  5
90
330
7F
100
AcDbEntity
  8
중심선
100
AcDbLine
 10
19.22036997980202
 20
11.08717430171403
 30
0.0
 11
23.66174974927406
 21
11.08717430171406
 31
0.0
  0
LINE
  5
91
330
7F
100
AcDbEntity
  8
중심선
100
AcDbLine
 10
19.22039502424796
 20
13.00717430171391
 30
0.0
 11
19.22036997980202
 21
11.08717430171403
 31
0.0
  0
LINE
  5
92
330
7F
100
AcDbEntity
  8
중심선
100
AcDbLine
 10
19.22039502424796
 20
13.00717430171391
 30
0.0
 11
26.96566020931264
 21
13.00717430171391
 31
0.0
  0
LINE
  5
93
330
7F
100
AcDbEntity
  8
중심선
100
AcDbLine
 10
22.22332737316547
 20
13.45928029700563
 30
0.0
 11
24.52862924686651
 21
15.39360700705356
 31
0.0
  0
ATTDEF
  5
95
330
7F
100
AcDbEntity
  8
FORMAT
 62
     2
100
AcDbText
 10
3.448148490846466
 20
2.075366912832191
 30
0.0
 40
4.233333333333333
  1
EM206048
 41
0.75
  7
SLDTEXTSTYLE0
 11
3.448148490846466
 21
-0.0412997538344756
 31
0.0
100
AcDbAttributeDefinition
  3

  2
AUTOATTR0
 70
     0
 74
     1
  0
ENDBLK
  5
81
330
7F
100
AcDbEntity
  8
0
100
AcDbBlockEnd
  0
BLOCK
  5
DB
330
DA
100
AcDbEntity
  8
0
100
AcDbBlockBegin
  2
_D
 70
     0
 10
0.0
 20
0.0
 30
0.0
  3
_D
  1
_D
  0
LINE
  5
DD
330
DA
100
AcDbEntity
  8
치수문자_일반주서
 62
     0
370
    -2
100
AcDbLine
 10
-56.91249999999999
 20
9.525
 30
0.0
 11
-70.28000000000002
 21
9.52499999999995
 31
0.0
  0
LINE
  5
DE
330
DA
100
AcDbEntity
  8
치수문자_일반주서
 62
     0
370
    -2
100
AcDbLine
 10
-56.91249999999999
 20
-9.525000000000011
 30
0.0
 11
-70.27999999999994
 21
-9.52500000000006
 31
0.0
  0
LINE
  5
DF
330
DA
100
AcDbEntity
  8
치수문자_일반주서
 62
     0
370
    -2
100
AcDbLine
 10
-70.28
 20
6.222999999999951
 30
0.0
 11
-70.27999999999996
 21
-6.223000000000061
 31
0.0
  0
SOLID
  5
E0
330
DA
100
AcDbEntity
  8
치수문자_일반주서
 62
     0
100
AcDbTrace
 10
-69.72966666666667
 20
6.222999999999953
 30
0.0
 11
-70.83033333333333
 21
6.222999999999949
 31
0.0
 12
-70.28000000000002
 22
9.52499999999995
 32
0.0
 13
-70.28000000000002
 23
9.52499999999995
 33
0.0
  0
SOLID
  5
E1
330
DA
100
AcDbEntity
  8
치수문자_일반주서
 62
     0
100
AcDbTrace
 10
-70.83033333333329
 20
-6.223000000000063
 30
0.0
 11
-69.72966666666663
 21
-6.223000000000059
 31
0.0
 12
-70.27999999999994
 22
-9.52500000000006
 32
0.0
 13
-70.27999999999994
 23
-9.52500000000006
 33
0.0
  0
MTEXT
  5
E2
330
DA
100
AcDbEntity
  8
치수문자_일반주서
 62
     0
100
AcDbMText
 10
-74.65499999999999
 20
-0.000000000000014
 30
0.0
 40
3.5
 41
0.0
 71
     2
 72
     1
  1
\A1;%%c19.05 [3/4]
  7
SLDTEXTSTYLE0
 11
-3.729883127349605E-15
 21
1.0
 31
0.0
 73
     1
 44
1.0
  0
POINT
  5
E3
330
DA
100
AcDbEntity
  8
Defpoints
 62
     0
100
AcDbPoint
 10
-56.84999999999999
 20
9.525
 30
0.0
  0
POINT
  5
E4
330
DA
100
AcDbEntity
  8
Defpoints
 62
     0
100
AcDbPoint
 10
-56.84999999999999
 20
-9.525000000000011
 30
0.0
  0
POINT
  5
E5
330
DA
100
AcDbEntity
  8
Defpoints
 62
     0
100
AcDbPoint
 10
-70.27999999999994
 20
-9.52500000000006
 30
0.0
  0
ENDBLK
  5
DC
330
DA
100
AcDbEntity
  8
0
100
AcDbBlockEnd
  0
BLOCK
  5
F0
330
EF
100
AcDbEntity
  8
0
100
AcDbBlockBegin
  2
_D_1
 70
     0
 10
0.0
 20
0.0
 30
0.0
  3
_D_1
  1
_D_1
  0
LINE
  5
F2
330
EF
100
AcDbEntity
  8
치수문자_일반주서
 62
     0
370
    -2
100
AcDbLine
 10
69.21250000000003
 20
9.525000000000002
 30
0.0
 11
83.90027114422129
 21
9.525000000000059
 31
0.0
  0
LINE
  5
F3
330
EF
100
AcDbEntity
  8
치수문자_일반주서
 62
     0
370
    -2
100
AcDbLine
 10
69.21250000000003
 20
-9.524999999999993
 30
0.0
 11
83.90027114422136
 21
-9.524999999999935
 31
0.0
  0
LINE
  5
F4
330
EF
100
AcDbEntity
  8
치수문자_일반주서
 62
     0
370
    -2
100
AcDbLine
 10
83.90027114422129
 20
9.525000000000059
 30
0.0
 11
83.90027114422114
 21
51.53899390755624
 31
0.0
  0
LINE
  5
F5
330
EF
100
AcDbEntity
  8
치수문자_일반주서
 62
     0
370
    -2
100
AcDbLine
 10
83.90027114422129
 20
9.525000000000059
 30
0.0
 11
83.90027114422136
 21
-9.524999999999935
 31
0.0
  0
LINE
  5
F6
330
EF
100
AcDbEntity
  8
치수문자_일반주서
 62
     0
370
    -2
100
AcDbLine
 10
83.90027114422128
 20
12.82700000000006
 30
0.0
 11
83.90027114422126
 21
16.12900000000006
 31
0.0
  0
LINE
  5
F7
330
EF
100
AcDbEntity
  8
치수문자_일반주서
 62
     0
370
    -2
100
AcDbLine
 10
83.90027114422138
 20
-12.82699999999993
 30
0.0
 11
83.90027114422139
 21
-16.12899999999993
 31
0.0
  0
SOLID
  5
F8
330
EF
100
AcDbEntity
  8
치수문자_일반주서
 62
     0
100
AcDbTrace
 10
83.34993781088795
 20
12.82700000000006
 30
0.0
 11
84.4506044775546
 21
12.82700000000006
 31
0.0
 12
83.90027114422129
 22
9.525000000000059
 32
0.0
 13
83.90027114422129
 23
9.525000000000059
 33
0.0
  0
SOLID
  5
F9
330
EF
100
AcDbEntity
  8
치수문자_일반주서
 62
     0
100
AcDbTrace
 10
84.4506044775547
 20
-12.82699999999993
 30
0.0
 11
83.34993781088805
 21
-12.82699999999994
 31
0.0
 12
83.90027114422136
 22
-9.524999999999935
 32
0.0
 13
83.90027114422136
 23
-9.524999999999935
 33
0.0
  0
MTEXT
  5
FA
330
EF
100
AcDbEntity
  8
치수문자_일반주서
 62
     0
100
AcDbMText
 10
79.5252711442212
 20
37.75774390755623
 30
0.0
 40
3.5
 41
0.0
 71
     2
 72
     1
  1
\A1;%%c19.05 [3/4]
  7
SLDTEXTSTYLE0
 11
-3.729883127349608E-15
 21
1.0
 31
0.0
 73
     1
 44
1.0
  0
POINT
  5
FB
330
EF
100
AcDbEntity
  8
Defpoints
 62
     0
100
AcDbPoint
 10
69.15000000000003
 20
9.525000000000002
 30
0.0
  0
POINT
  5
188
330
EF
100
AcDbEntity
  8
Defpoints
 62
     0
100
AcDbPoint
 10
69.15000000000003
 20
-9.524999999999993
 30
0.0
  0
POINT
  5
189
330
EF
100
AcDbEntity
  8
Defpoints
 62
     0
100
AcDbPoint
 10
83.90027114422136
 20
-9.524999999999938
 30
0.0
  0
ENDBLK
  5
F1
330
EF
100
AcDbEntity
  8
0
100
AcDbBlockEnd
  0
BLOCK
  5
103
330
102
100
AcDbEntity
  8
0
100
AcDbBlockBegin
  2
_D_2
 70
     0
 10
0.0
 20
0.0
 30
0.0
  3
_D_2
  1
_D_2
  0
LINE
  5
105
330
102
100
AcDbEntity
  8
치수문자_일반주서
 62
     0
370
    -2
100
AcDbLine
 10
69.15000000000003
 20
9.587500000000002
 30
0.0
 11
69.15000000000003
 21
24.8093640926959
 31
0.0
  0
LINE
  5
106
330
102
100
AcDbEntity
  8
치수문자_일반주서
 62
     0
370
    -2
100
AcDbLine
 10
12.00000000000002
 20
6.447306818727761
 30
0.0
 11
12.00000000000002
 21
24.8093640926959
 31
0.0
  0
LINE
  5
107
330
102
100
AcDbEntity
  8
치수문자_일반주서
 62
     0
370
    -2
100
AcDbLine
 10
65.84800000000004
 20
24.8093640926959
 30
0.0
 11
15.30200000000002
 21
24.8093640926959
 31
0.0
  0
SOLID
  5
108
330
102
100
AcDbEntity
  8
치수문자_일반주서
 62
     0
100
AcDbTrace
 10
65.84800000000004
 20
24.25903075936256
 30
0.0
 11
65.84800000000004
 21
25.35969742602923
 31
0.0
 12
69.15000000000003
 22
24.8093640926959
 32
0.0
 13
69.15000000000003
 23
24.8093640926959
 33
0.0
  0
SOLID
  5
109
330
102
100
AcDbEntity
  8
치수문자_일반주서
 62
     0
100
AcDbTrace
 10
15.30200000000002
 20
25.35969742602923
 30
0.0
 11
15.30200000000002
 21
24.25903075936256
 31
0.0
 12
12.00000000000002
 22
24.8093640926959
 32
0.0
 13
12.00000000000002
 23
24.8093640926959
 33
0.0
  0
MTEXT
  5
10A
330
102
100
AcDbEntity
  8
치수문자_일반주서
 62
     0
100
AcDbMText
 10
40.87539339400129
 20
29.1843640926959
 30
0.0
 40
3.5
 41
0.0
 71
     2
 72
     1
  1
\A1;57.15 [2 1/4]
  7
SLDTEXTSTYLE0
 73
     1
 44
1.0
  0
POINT
  5
10B
330
102
100
AcDbEntity
  8
Defpoints
 62
     0
100
AcDbPoint
 10
69.15000000000003
 20
9.525000000000002
 30
0.0
  0
POINT
  5
10C
330
102
100
AcDbEntity
  8
Defpoints
 62
     0
100
AcDbPoint
 10
12.00000000000002
 20
6.384806818727761
 30
0.0
  0
POINT
  5
10D
330
102
100
AcDbEntity
  8
Defpoints
 62
     0
100
AcDbPoint
 10
12.00000000000002
 20
24.8093640926959
 30
0.0
  0
ENDBLK
  5
104
330
102
100
AcDbEntity
  8
0
100
AcDbBlockEnd
  0
BLOCK
  5
117
330
116
100
AcDbEntity
  8
0
100
AcDbBlockBegin
  2
_D_3
 70
     0
 10
0.0
 20
0.0
 30
0.0
  3
_D_3
  1
_D_3
  0
LINE
  5
119
330
116
100
AcDbEntity
  8
치수문자_일반주서
 62
     0
370
    -2
100
AcDbLine
 10
69.15000000000003
 20
9.587500000000002
 30
0.0
 11
69.15000000000003
 21
44.52342844013392
 31
0.0
  0
LINE
  5
11A
330
116
100
AcDbEntity
  8
치수문자_일반주서
 62
     0
370
    -2
100
AcDbLine
 10
-57.84999999999999
 20
8.587499999999983
 30
0.0
 11
-57.84999999999999
 21
44.52342844013392
 31
0.0
  0
LINE
  5
11B
330
116
100
AcDbEntity
  8
치수문자_일반주서
 62
     0
370
    -2
100
AcDbLine
 10
65.84800000000004
 20
44.52342844013392
 30
0.0
 11
-54.54799999999999
 21
44.52342844013392
 31
0.0
  0
SOLID
  5
11C
330
116
100
AcDbEntity
  8
치수문자_일반주서
 62
     0
100
AcDbTrace
 10
65.84800000000004
 20
43.97309510680059
 30
0.0
 11
65.84800000000004
 21
45.07376177346725
 31
0.0
 12
69.15000000000003
 22
44.52342844013392
 32
0.0
 13
69.15000000000003
 23
44.52342844013392
 33
0.0
  0
SOLID
  5
11D
330
116
100
AcDbEntity
  8
치수문자_일반주서
 62
     0
100
AcDbTrace
 10
-54.54799999999999
 20
45.07376177346725
 30
0.0
 11
-54.54799999999999
 21
43.97309510680059
 31
0.0
 12
-57.84999999999999
 22
44.52342844013392
 32
0.0
 13
-57.84999999999999
 23
44.52342844013392
 33
0.0
  0
MTEXT
  5
11E
330
116
100
AcDbEntity
  8
치수문자_일반주서
 62
     0
100
AcDbMText
 10
5.65
 20
48.89842844013392
 30
0.0
 40
3.5
 41
0.0
 71
     2
 72
     1
  1
\A1;127 [5]
  7
SLDTEXTSTYLE0
 73
     1
 44
1.0
  0
POINT
  5
11F
330
116
100
AcDbEntity
  8
Defpoints
 62
     0
100
AcDbPoint
 10
69.15000000000003
 20
9.525000000000002
 30
0.0
  0
POINT
  5
120
330
116
100
AcDbEntity
  8
Defpoints
 62
     0
100
AcDbPoint
 10
-57.84999999999999
 20
8.524999999999983
 30
0.0
  0
POINT
  5
121
330
116
100
AcDbEntity
  8
Defpoints
 62
     0
100
AcDbPoint
 10
-57.84999999999999
 20
44.52342844013392
 30
0.0
  0
ENDBLK
  5
118
330
116
100
AcDbEntity
  8
0
100
AcDbBlockEnd
  0
BLOCK
  5
130
330
12F
100
AcDbEntity
  8
0
100
AcDbBlockBegin
  2
SW_DOWELSYMBOL_0
 70
     0
 10
0.0
 20
0.0
 30
0.0
  3
SW_DOWELSYMBOL_0
  1
SW_DOWELSYMBOL_0
  0
CIRCLE
  5
132
330
12F
100
AcDbEntity
  8
해칭선
 62
     0
100
AcDbCircle
 10
0.0
 20
0.0
 30
0.0
 40
3.000000000000002
  0
HATCH
  5
133
330
12F
100
AcDbEntity
  8
0
  6
Continuous
 62
     0
370
     0
100
AcDbHatch
 10
0.0
 20
0.0
 30
0.0
210
0.0
220
0.0
230
1.0
  2
SOLID
 70
     1
 71
     0
 91
        1
 92
        0
 93
        3
 72
     2
 10
-0.0000000000000234
 20
0.0
 40
3.000000000000002
 50
0.0
 51
90.0
 73
     1
 72
     1
 10
-0.0000000000000234
 20
3.000000000000002
 11
-0.0000000000000234
 21
0.0
 72
     1
 10
-0.0000000000000234
 20
0.0
 11
2.999999999999979
 21
0.0
 97
        0
 75
     0
 76
     1
 98
        1
 10
0.0
 20
0.0
  0
HATCH
  5
134
330
12F
100
AcDbEntity
  8
0
  6
Continuous
 62
     0
370
     0
100
AcDbHatch
 10
0.0
 20
0.0
 30
0.0
210
0.0
220
0.0
230
1.0
  2
SOLID
 70
     1
 71
     0
 91
        1
 92
        0
 93
        3
 72
     2
 10
-0.0000000000000234
 20
0.0
 40
3.000000000000002
 50
180.0
 51
270.0000000000008
 73
     1
 72
     1
 10
-0.0000000000000234
 20
-3.000000000000002
 11
-0.0000000000000234
 21
0.0
 72
     1
 10
-0.0000000000000234
 20
0.0
 11
-3.000000000000026
 21
0.0
 97
        0
 75
     0
 76
     1
 98
        1
 10
0.0
 20
0.0
  0
ENDBLK
  5
131
330
12F
100
AcDbEntity
  8
0
100
AcDbBlockEnd
  0
ENDSEC
  0
SECTION
  2
ENTITIES
  0
LINE
  5
96
330
1F
100
AcDbEntity
  8
외형선
  6
Continuous
370
    15
100
AcDbLine
 10
8.949886478109834
 20
9.524999999999995
 30
0.0
 11
-56.84999999999999
 21
9.524999999999991
 31
0.0
  0
LINE
  5
97
330
1F
100
AcDbEntity
  8
외형선
  6
Continuous
370
    15
100
AcDbLine
 10
-56.84999999999999
 20
-9.52500000000001
 30
0.0
 11
8.949886478109834
 21
-9.525000000000006
 31
0.0
  0
LINE
  5
98
330
1F
100
AcDbEntity
  8
외형선
  6
Continuous
370
    15
100
AcDbLine
 10
-56.84999999999999
 20
9.524999999999984
 30
0.0
 11
-57.84999999999999
 21
8.524999999999983
 31
0.0
  0
LINE
  5
99
330
1F
100
AcDbEntity
  8
외형선
  6
Continuous
370
    15
100
AcDbLine
 10
-57.84999999999999
 20
-8.525
 30
0.0
 11
-56.84999999999999
 21
-9.525000000000002
 31
0.0
  0
SPLINE
  5
9A
330
1F
100
AcDbEntity
  8
외형선
  6
Continuous
370
    15
100
AcDbSpline
210
0.0
220
0.0
230
1.0
 70
     8
 71
     3
 72
     9
 73
     5
 74
     0
 42
0.000000001
 43
0.00000001
 40
0.0
 40
0.0
 40
0.0
 40
0.0
 40
0.4572596906876644
 40
0.9999999999999999
 40
0.9999999999999999
 40
0.9999999999999999
 40
0.9999999999999999
 10
12.00000000000002
 20
6.384661480246034
 30
0.0
 10
11.53299665575942
 20
6.359295967906106
 30
0.0
 10
10.5116878595734
 20
6.303823087054131
 30
0.0
 10
9.499313957428598
 20
6.284231166267649
 30
0.0
 10
8.949857832638788
 20
6.27359784111997
 30
0.0
  0
LINE
  5
9B
330
1F
100
AcDbEntity
  8
0
  6
Continuous
 62
     1
370
    15
100
AcDbLine
 10
39.20447331926101
 20
2.682055600332213
 30
0.0
 11
39.10162428638247
 21
2.738593649333048
 31
0.0
  0
SPLINE
  5
9C
330
1F
100
AcDbEntity
  8
0
  6
Continuous
 62
     1
370
    15
100
AcDbSpline
210
0.0
220
0.0
230
1.0
 70
     8
 71
     3
 72
     9
 73
     5
 74
     0
 42
0.000000001
 43
0.00000001
 40
0.0
 40
0.0
 40
0.0
 40
0.0
 40
0.5188580511752552
 40
0.9999999999999999
 40
0.9999999999999999
 40
0.9999999999999999
 40
0.9999999999999999
 10
44.47356549099504
 20
2.440714640509888
 30
0.0
 10
44.0169882819765
 20
2.658378706353646
 30
0.0
 10
43.13702273458959
 20
3.077884706791976
 30
0.0
 10
42.25478090156613
 20
3.540107491443651
 30
0.0
 10
41.83029734669051
 20
3.762502262842158
 30
0.0
  0
LINE
  5
9D
330
1F
100
AcDbEntity
  8
0
  6
Continuous
 62
     1
370
    15
100
AcDbLine
 10
22.61659829432396
 20
9.525
 30
0.0
 11
17.9982689249753
 21
9.525
 31
0.0
  0
SPLINE
  5
9E
330
1F
100
AcDbEntity
  8
0
  6
Continuous
 62
     1
370
    15
100
AcDbSpline
210
0.0
220
0.0
230
1.0
 70
     8
 71
     3
 72
    18
 73
    14
 74
     0
 42
0.000000001
 43
0.00000001
 40
0.0
 40
0.0
 40
0.0
 40
0.0
 40
0.1284918497851783
 40
0.2310799061106253
 40
0.3146232031370119
 40
0.393576199590798
 40
0.4679485185991106
 40
0.5334896876668793
 40
0.636461188461831
 40
0.772557081811362
 40
0.8964822798618366
 40
0.9859272010710394
 40
1.0
 40
1.0
 40
1.0
 40
1.0
 10
41.32507843181931
 20
7.568937656860738
 30
0.0
 10
40.99900852777741
 20
7.552364369722438
 30
0.0
 10
40.41260399754862
 20
7.522558949049718
 30
0.0
 10
39.59540018340755
 20
7.49146969911522
 30
0.0
 10
38.89755343548009
 20
7.47055826259767
 30
0.0
 10
38.27915041387733
 20
7.4560147024342
 30
0.0
 10
37.71206228408971
 20
7.446527040606854
 30
0.0
 10
37.08204227589034
 20
7.439777347129448
 30
0.0
 10
36.29166340156395
 20
7.43711515307789
 30
0.0
 10
35.35038677915971
 20
7.443534229918692
 30
0.0
 10
34.44407792396038
 20
7.460642672114512
 30
0.0
 10
33.85408187131375
 20
7.47569278388131
 30
0.0
 10
33.58558517571284
 20
7.48517235339876
 30
0.0
 10
33.54908417853825
 20
7.48646106102847
 30
0.0
  0
SPLINE
  5
9F
330
1F
100
AcDbEntity
  8
0
  6
Continuous
 62
     1
370
    15
100
AcDbSpline
210
0.0
220
0.0
230
1.0
 70
     8
 71
     3
 72
    28
 73
    24
 74
     0
 42
0.000000001
 43
0.00000001
 40
0.0
 40
0.0
 40
0.0
 40
0.0
 40
0.0711543692532133
 40
0.1231454392129796
 40
0.1573708590672114
 40
0.1917575994840423
 40
0.2336727126249921
 40
0.2766618231318386
 40
0.3117111940835301
 40
0.3641152746349807
 40
0.4254882538756802
 40
0.5000363999291537
 40
0.552026827637364
 40
0.5919677624154406
 40
0.6359193906375373
 40
0.6866218547288653
 40
0.7429619955783462
 40
0.7781001743175805
 40
0.8062448592282254
 40
0.8301085199837583
 40
0.8685228736417093
 40
0.9252114282330258
 40
0.9999999999999999
 40
0.9999999999999999
 40
0.9999999999999999
 40
0.9999999999999999
 10
26.99750881319499
 20
-7.92613053104844
 30
0.0
 10
27.33587386821549
 20
-7.893190422614537
 30
0.0
 10
27.92147547992454
 20
-7.836181637864006
 30
0.0
 10
28.67086395092255
 20
-7.771544152570725
 30
0.0
 10
29.25039357595847
 20
-7.724820787984832
 30
0.0
 10
29.78064749443895
 20
-7.684629250945413
 30
0.0
 10
30.35108491155129
 20
-7.644707337358156
 30
0.0
 10
30.92372394127645
 20
-7.608310546611935
 30
0.0
 10
31.54663392092332
 20
-7.57238411363243
 30
0.0
 10
32.25751961907598
 20
-7.536076181893601
 30
0.0
 10
33.15688613790012
 20
-7.497936969153445
 30
0.0
 10
34.05439374982439
 20
-7.469620885260747
 30
0.0
 10
34.8495222978452
 20
-7.452452149049893
 30
0.0
 10
35.49861073978362
 20
-7.443163102666612
 30
0.0
 10
36.14120860946603
 20
-7.438280180460946
 30
0.0
 10
36.86224093039763
 20
-7.438278873167068
 30
0.0
 10
37.54154175156403
 20
-7.444072966111923
 30
0.0
 10
38.11250688720926
 20
-7.45310584372093
 30
0.0
 10
38.52708218891507
 20
-7.461772068899968
 30
0.0
 10
38.95365194682292
 20
-7.472377183115197
 30
0.0
 10
39.52207662565603
 20
-7.489412844927207
 30
0.0
 10
40.33503322001497
 20
-7.519297319290222
 30
0.0
 10
40.96610421531817
 20
-7.550938881578803
 30
0.0
 10
41.32507843181931
 20
-7.568937656860752
 30
0.0
  0
SPLINE
  5
A0
330
1F
100
AcDbEntity
  8
0
  6
Continuous
 62
     1
370
    15
100
AcDbSpline
210
0.0
220
0.0
230
1.0
 70
     8
 71
     3
 72
    18
 73
    14
 74
     0
 42
0.000000001
 43
0.00000001
 40
0.0
 40
0.0
 40
0.0
 40
0.0
 40
0.1320915728068529
 40
0.253052376541222
 40
0.3597568894201789
 40
0.4387415030626592
 40
0.5071321810021877
 40
0.5892028268400145
 40
0.6647422001969857
 40
0.7550401529577859
 40
0.8612303893966622
 40
0.9716496197224059
 40
0.9999999999999999
 40
0.9999999999999999
 40
0.9999999999999999
 40
0.9999999999999999
 10
48.97069998428965
 20
-7.16407919789962
 30
0.0
 10
49.26700564365571
 20
-7.117824459818793
 30
0.0
 10
49.83464860294451
 20
-7.029212664615477
 30
0.0
 10
50.71546624592339
 20
-6.907262709334946
 30
0.0
 10
51.46221101142109
 20
-6.80969435858001
 30
0.0
 10
52.07844318490168
 20
-6.73516604836388
 30
0.0
 10
52.59157273875129
 20
-6.677925206932726
 30
0.0
 10
53.12748071508541
 20
-6.620804006982349
 30
0.0
 10
53.71723094344444
 20
-6.562876833762186
 30
0.0
 10
54.36448789308841
 20
-6.504482530720098
 30
0.0
 10
55.09477636317579
 20
-6.446845022207192
 30
0.0
 10
55.67760624823009
 20
-6.40605749647646
 30
0.0
 10
56.00769391212683
 20
-6.387311347105569
 30
0.0
 10
56.07513022441254
 20
-6.38348154271904
 30
0.0
  0
SPLINE
  5
A1
330
1F
100
AcDbEntity
  8
0
  6
Continuous
 62
     1
370
    15
100
AcDbSpline
210
0.0
220
0.0
230
1.0
 70
     8
 71
     3
 72
     9
 73
     5
 74
     0
 42
0.000000001
 43
0.00000001
 40
0.0
 40
0.0
 40
0.0
 40
0.0
 40
0.4992671628815508
 40
1.0
 40
1.0
 40
1.0
 40
1.0
 10
13.78209187052502
 20
6.514647908457635
 30
0.0
 10
13.48501634088531
 20
6.490061485624359
 30
0.0
 10
12.88999317147613
 20
6.440816462796556
 30
0.0
 10
12.2969541245096
 20
6.403398088811787
 30
0.0
 10
12.00000000000002
 20
6.384661480246034
 30
0.0
  0
SPLINE
  5
A2
330
1F
100
AcDbEntity
  8
0
  6
Continuous
 62
     1
370
    15
100
AcDbSpline
210
0.0
220
0.0
230
1.0
 70
     8
 71
     3
 72
    32
 73
    28
 74
     0
 42
0.000000001
 43
0.00000001
 40
0.0
 40
0.0
 40
0.0
 40
0.0
 40
0.0719578488684505
 40
0.1252142957643471
 40
0.1594378403790422
 40
0.1811589556191648
 40
0.2054334032173537
 40
0.2346077613866892
 40
0.26728330512844
 40
0.2957075282859771
 40
0.319207948401811
 40
0.339646895388506
 40
0.3818552087756019
 40
0.4331983718255403
 40
0.4812068973608725
 40
0.522387820257882
 40
0.5579797011384177
 40
0.6098350951928392
 40
0.6699457147418166
 40
0.7193949257700799
 40
0.7590881999892626
 40
0.792378717038971
 40
0.8194240418909743
 40
0.8533584944822822
 40
0.8977210871604958
 40
0.9466853882757056
 40
1.0
 40
1.0
 40
1.0
 40
1.0
 10
65.61142192978613
 20
6.514649047067008
 30
0.0
 10
65.20804759121157
 20
6.482019735681791
 30
0.0
 10
64.50613342162103
 20
6.425241270085292
 30
0.0
 10
63.63048509561147
 20
6.371858866989
 30
0.0
 10
63.03910460474864
 20
6.341884367538267
 30
0.0
 10
62.66851804539068
 20
6.321550501470569
 30
0.0
 10
62.24817739738783
 20
6.304033365642117
 30
0.0
 10
61.75687412862002
 20
6.290100342596466
 30
0.0
 10
61.23660000003041
 20
6.279923161417063
 30
0.0
 10
60.75141293232656
 20
6.272694517099827
 30
0.0
 10
60.33835797067405
 20
6.268998606266061
 30
0.0
 10
59.85887390146706
 20
6.267400509868962
 30
0.0
 10
59.22301820380047
 20
6.270452631133943
 30
0.0
 10
58.43380471012623
 20
6.283765138110102
 30
0.0
 10
57.65018454498179
 20
6.306964719586778
 30
0.0
 10
56.95476154484042
 20
6.335587866290997
 30
0.0
 10
56.23788664743488
 20
6.372116504921424
 30
0.0
 10
55.41545105978637
 20
6.422966420688169
 30
0.0
 10
54.51545690257122
 20
6.491075257763989
 30
0.0
 10
53.68342761747711
 20
6.565567142784618
 30
0.0
 10
53.00076555805759
 20
6.633760474294473
 30
0.0
 10
52.45043417561177
 20
6.69358013846197
 30
0.0
 10
51.9554883020739
 20
6.749440983974953
 30
0.0
 10
51.34927059102728
 20
6.824322932884689
 30
0.0
 10
50.62537377575315
 20
6.919287234854585
 30
0.0
 10
49.78693050928871
 20
7.036601190923056
 30
0.0
 10
49.2503839469728
 20
7.120398456915077
 30
0.0
 10
48.97069998428965
 20
7.164079197899609
 30
0.0
  0
LINE
  5
A3
330
1F
100
AcDbEntity
  8
0
  6
Continuous
 62
     1
370
    15
100
AcDbLine
 10
17.9982689249753
 20
-9.525000000000011
 30
0.0
 11
22.61659829432395
 21
-9.525000000000011
 31
0.0
  0
SPLINE
  5
A4
330
1F
100
AcDbEntity
  8
외형선
  6
Continuous
370
    15
100
AcDbSpline
210
0.0
220
0.0
230
1.0
 70
     8
 71
     3
 72
    10
 73
     6
 74
     0
 42
0.000000001
 43
0.00000001
 40
0.0
 40
0.0
 40
0.0
 40
0.0
 40
0.5
 40
0.5
 40
1.0
 40
1.0
 40
1.0
 40
1.0
 10
8.949886478109832
 20
8.127967727171011
 30
0.0
 10
9.45854010342724
 20
8.28101902922798
 30
0.0
 10
9.968794875000576
 20
8.422625245052426
 30
0.0
 10
10.98597455171742
 20
8.68113767002879
 30
0.0
 10
11.49134358755733
 20
8.79796382074037
 30
0.0
 10
12.00000000000002
 20
8.902358043836225
 30
0.0
  0
SPLINE
  5
A5
330
1F
100
AcDbEntity
  8
외형선
  6
Continuous
370
    15
100
AcDbSpline
210
0.0
220
0.0
230
1.0
 70
     8
 71
     3
 72
    10
 73
     6
 74
     0
 42
0.000000001
 43
0.00000001
 40
0.0
 40
0.0
 40
0.0
 40
0.0
 40
0.5
 40
0.5
 40
1.0
 40
1.0
 40
1.0
 40
1.0
 10
12.00000000000033
 20
-7.620606299964347
 30
0.0
 10
11.49132377195243
 20
-7.444490853308168
 30
0.0
 10
10.98593505530812
 20
-7.257919376086819
 30
0.0
 10
9.968715493325103
 20
-6.863867944945123
 30
0.0
 10
9.458440776605807
 20
-6.656546386300476
 30
0.0
 10
8.949767585159439
 20
-6.440254931804016
 30
0.0
  0
LINE
  5
A6
330
1F
100
AcDbEntity
  8
외형선
  6
Continuous
370
    15
100
AcDbLine
 10
12.00000000000002
 20
-7.620606299964237
 30
0.0
 11
12.00000000000002
 21
-8.902358043836234
 31
0.0
  0
SPLINE
  5
A7
330
1F
100
AcDbEntity
  8
외형선
  6
Continuous
370
    15
100
AcDbSpline
210
0.0
220
0.0
230
1.0
 70
     8
 71
     3
 72
    10
 73
     6
 74
     0
 42
0.000000001
 43
0.00000001
 40
0.0
 40
0.0
 40
0.0
 40
0.0
 40
0.5
 40
0.5
 40
1.0
 40
1.0
 40
1.0
 40
1.0
 10
8.949886478109832
 20
-8.127967727171024
 30
0.0
 10
9.45854010342724
 20
-8.281019029227993
 30
0.0
 10
9.968794875000576
 20
-8.422625245052439
 30
0.0
 10
10.98597455171742
 20
-8.6811376700288
 30
0.0
 10
11.49134358755733
 20
-8.797963820740382
 30
0.0
 10
12.00000000000002
 20
-8.902358043836236
 30
0.0
  0
LINE
  5
A8
330
1F
100
AcDbEntity
  8
외형선
  6
Continuous
370
    15
100
AcDbLine
 10
8.949886478109834
 20
-9.525000000000006
 30
0.0
 11
8.949886478109834
 21
-8.127967523692273
 31
0.0
  0
LINE
  5
A9
330
1F
100
AcDbEntity
  8
외형선
  6
Continuous
370
    15
100
AcDbLine
 10
-56.84999999999999
 20
9.524999999999984
 30
0.0
 11
-56.84999999999999
 21
-9.52500000000001
 31
0.0
  0
LINE
  5
AA
330
1F
100
AcDbEntity
  8
외형선
  6
Continuous
370
    15
100
AcDbLine
 10
8.949886478109834
 20
-6.439954165091515
 30
0.0
 11
8.949886478109834
 21
9.524999999999995
 31
0.0
  0
LINE
  5
AB
330
1F
100
AcDbEntity
  8
외형선
  6
Continuous
370
    15
100
AcDbLine
 10
-57.84999999999999
 20
8.524999999999983
 30
0.0
 11
-57.84999999999999
 21
-8.525
 31
0.0
  0
SPLINE
  5
AC
330
1F
100
AcDbEntity
  8
외형선
  6
Continuous
370
    15
100
AcDbSpline
210
0.0
220
0.0
230
1.0
 70
     8
 71
     3
 72
    10
 73
     6
 74
     0
 42
0.000000001
 43
0.00000001
 40
0.0
 40
0.0
 40
0.0
 40
0.0
 40
0.5
 40
0.5
 40
1.0
 40
1.0
 40
1.0
 40
1.0
 10
12.00000000000037
 20
-6.172994589677354
 30
0.0
 10
11.49132377195246
 20
-6.011535823477606
 30
0.0
 10
10.98593505530815
 20
-5.841647734983631
 30
0.0
 10
9.96871549332512
 20
-5.485015892200021
 30
0.0
 10
9.458440776605812
 20
-5.298419914551334
 30
0.0
 10
8.949767585159439
 20
-5.104737397884183
 30
0.0
  0
SPLINE
  5
AD
330
1F
100
AcDbEntity
  8
외형선
  6
Continuous
370
    15
100
AcDbSpline
210
0.0
220
0.0
230
1.0
 70
     8
 71
     3
 72
    10
 73
     6
 74
     0
 42
0.000000001
 43
0.00000001
 40
0.0
 40
0.0
 40
0.0
 40
0.0
 40
0.5
 40
0.5
 40
1.0
 40
1.0
 40
1.0
 40
1.0
 10
12.00000000000002
 20
2.414783289840309
 30
0.0
 10
11.49133635128546
 20
2.637526935496989
 30
0.0
 10
10.98596012840203
 20
2.856357680263996
 30
0.0
 10
9.968765886365304
 20
3.286193456412631
 30
0.0
 10
9.458503831212639
 20
3.496960191536267
 30
0.0
 10
8.949843060720386
 20
3.702226038813961
 30
0.0
  0
SPLINE
  5
AE
330
1F
100
AcDbEntity
  8
외형선
  6
Continuous
370
    15
100
AcDbSpline
210
0.0
220
0.0
230
1.0
 70
    24
 71
     3
 72
    14
 73
    10
 74
     0
 42
0.000000001
 43
0.00000001
 40
0.0
 40
0.0
 40
0.0
 40
0.0
 40
0.25
 40
0.25
 40
0.5
 40
0.5
 40
0.75
 40
0.75
 40
1.0
 40
1.0
 40
1.0
 40
1.0
 10
12.00000000000002
 20
2.41478328984031
 30
0.0
 10
12.00000000000002
 20
1.695824075894376
 30
0.0
 10
12.00000000000002
 20
0.9437685730183288
 30
0.0
 10
12.00000000000002
 20
-0.5783142104225438
 30
0.0
 10
12.00000000000002
 20
-1.347950511454459
 30
0.0
 10
12.00000000000002
 20
-2.848877468996347
 30
0.0
 10
12.00000000000002
 20
-3.579734703363267
 30
0.0
 10
12.00000000000002
 20
-4.952161637281777
 30
0.0
 10
12.00000000000002
 20
-5.593458202569381
 30
0.0
 10
12.00000000000002
 20
-6.172994589677243
 30
0.0
  0
SPLINE
  5
AF
330
1F
100
AcDbEntity
  8
외형선
  6
Continuous
370
    15
100
AcDbSpline
210
0.0
220
0.0
230
1.0
 70
    24
 71
     3
 72
    13
 73
     9
 74
     0
 42
0.000000001
 43
0.00000001
 40
0.0
 40
0.0
 40
0.0
 40
0.0
 40
0.0592117081439207
 40
0.250308391503733
 40
0.4360194418233171
 40
0.6271161251831293
 40
0.8109488675255558
 40
1.0
 40
1.0
 40
1.0
 40
1.0
 10
12.00000000000002
 20
6.353227001939019
 30
0.0
 10
12.00000000000002
 20
6.361047717929703
 30
0.0
 10
12.00000000000002
 20
6.394108592229719
 30
0.0
 10
12.00000000000002
 20
6.149413243216692
 30
0.0
 10
12.00000000000002
 20
5.618733548961394
 30
0.0
 10
12.00000000000002
 20
4.796880617289326
 30
0.0
 10
12.00000000000002
 20
3.738827418064245
 30
0.0
 10
12.00000000000002
 20
2.860229896011811
 30
0.0
 10
12.00000000000002
 20
2.414783289840312
 30
0.0
  0
SPLINE
  5
B0
330
1F
100
AcDbEntity
  8
외형선
  6
Continuous
370
    15
100
AcDbSpline
210
0.0
220
0.0
230
1.0
 70
    24
 71
     3
 72
     8
 73
     4
 74
     0
 42
0.000000001
 43
0.00000001
 40
0.0
 40
0.0
 40
0.0
 40
0.0
 40
1.0
 40
1.0
 40
1.0
 40
1.0
 10
12.00000000000005
 20
-6.17299458967725
 30
0.0
 10
12.00000000000005
 20
-6.640271302887001
 30
0.0
 10
12.00000000000005
 20
-7.125842105465264
 30
0.0
 10
12.00000000000005
 20
-7.620606299955002
 30
0.0
  0
SPLINE
  5
B1
330
1F
100
AcDbEntity
  8
외형선
  6
Continuous
370
    15
100
AcDbSpline
210
0.0
220
0.0
230
1.0
 70
    24
 71
     3
 72
    10
 73
     6
 74
     0
 42
0.000000001
 43
0.00000001
 40
0.0
 40
0.0
 40
0.0
 40
0.0
 40
0.3765581843067625
 40
0.6880783617434668
 40
0.9999999999999999
 40
0.9999999999999999
 40
0.9999999999999999
 40
0.9999999999999999
 10
8.949886478109834
 20
-6.595950859089374
 30
0.0
 10
8.949886478109834
 20
-6.596764229258661
 30
0.0
 10
8.949886478109832
 20
-6.598250486726688
 30
0.0
 10
8.949886478109834
 20
-6.383651579831875
 30
0.0
 10
8.949886478109834
 20
-6.202413045232309
 30
0.0
 10
8.949886478109834
 20
-6.111735424314872
 30
0.0
  0
SPLINE
  5
B2
330
1F
100
AcDbEntity
  8
외형선
  6
Continuous
370
    15
100
AcDbSpline
210
0.0
220
0.0
230
1.0
 70
    24
 71
     3
 72
    12
 73
     8
 74
     0
 42
0.000000001
 43
0.00000001
 40
0.0
 40
0.0
 40
0.0
 40
0.0
 40
0.1964836844273277
 40
0.4239437637874603
 40
0.6580002008582768
 40
0.8564062551139902
 40
1.0
 40
1.0
 40
1.0
 40
1.0
 10
12.00000000000002
 20
8.902358043836223
 30
0.0
 10
12.00000000000002
 20
8.721069518134403
 30
0.0
 10
12.00000000000002
 20
8.329911645960362
 30
0.0
 10
12.00000000000002
 20
7.743918219552634
 30
0.0
 10
12.00000000000002
 20
7.196747870702835
 30
0.0
 10
12.00000000000002
 20
6.756465737639764
 30
0.0
 10
12.00000000000002
 20
6.534794234204397
 30
0.0
 10
12.00000000000002
 20
6.441722128920482
 30
0.0
  0
SPLINE
  5
B3
330
1F
100
AcDbEntity
  8
0
  6
Continuous
 62
     1
370
    15
100
AcDbSpline
210
0.0
220
0.0
230
1.0
 70
     8
 71
     3
 72
    70
 73
    66
 74
     0
 42
0.000000001
 43
0.00000001
 40
0.0
 40
0.0
 40
0.0
 40
0.0
 40
0.03125
 40
0.03125
 40
0.0625000000000002
 40
0.0625000000000002
 40
0.0937500000000003
 40
0.0937500000000003
 40
0.1250000000000004
 40
0.1250000000000004
 40
0.1562500000000006
 40
0.1562500000000006
 40
0.1875000000000008
 40
0.1875000000000008
 40
0.2187500000000009
 40
0.2187500000000009
 40
0.250000000000001
 40
0.250000000000001
 40
0.281250000000001
 40
0.281250000000001
 40
0.3125000000000011
 40
0.3125000000000011
 40
0.3437500000000011
 40
0.3437500000000011
 40
0.3750000000000011
 40
0.3750000000000011
 40
0.4062500000000011
 40
0.4062500000000011
 40
0.4375000000000012
 40
0.4375000000000012
 40
0.4687500000000012
 40
0.4687500000000012
 40
0.5000000000000012
 40
0.5000000000000012
 40
0.5312500000000012
 40
0.5312500000000012
 40
0.5625000000000011
 40
0.5625000000000011
 40
0.5937500000000011
 40
0.5937500000000011
 40
0.625000000000001
 40
0.625000000000001
 40
0.6562500000000009
 40
0.6562500000000009
 40
0.6875000000000009
 40
0.6875000000000009
 40
0.7187500000000008
 40
0.7187500000000008
 40
0.7500000000000007
 40
0.7500000000000007
 40
0.7812500000000006
 40
0.7812500000000006
 40
0.8125000000000004
 40
0.8125000000000004
 40
0.8437500000000004
 40
0.8437500000000004
 40
0.8750000000000003
 40
0.8750000000000003
 40
0.9062500000000002
 40
0.9062500000000002
 40
0.9375000000000002
 40
0.9375000000000002
 40
0.9687500000000001
 40
0.9687500000000001
 40
1.0
 40
1.0
 40
1.0
 40
1.0
 10
12.00000000000002
 20
8.902358043836227
 30
0.0
 10
12.59565620880771
 20
9.02460769139711
 30
0.0
 10
13.19350324967252
 20
9.129561777605984
 30
0.0
 10
14.38309533610373
 20
9.303089273062913
 30
0.0
 10
14.97605423064745
 20
9.371792751693674
 30
0.0
 10
16.16903471808538
 20
9.472584014053204
 30
0.0
 10
16.76580550097331
 20
9.504514567049561
 30
0.0
 10
17.95170265709102
 20
9.53114568517217
 30
0.0
 10
18.54900213105297
 20
9.525899522658543
 30
0.0
 10
19.74185098877302
 20
9.478159175035124
 30
0.0
 10
20.3344271699625
 20
9.435784866725331
 30
0.0
 10
21.52452185639765
 20
9.314309696324932
 30
0.0
 10
22.12239638949109
 20
9.235117918769529
 30
0.0
 10
23.31331457961482
 20
9.041189873265543
 30
0.0
 10
23.90539386530114
 20
8.926591482250121
 30
0.0
 10
25.09790086810169
 20
8.662452445828922
 30
0.0
 10
25.69544366325849
 20
8.513044223383172
 30
0.0
 10
26.882641842537
 20
8.182318237120299
 30
0.0
 10
27.47792443002083
 20
8.00050806829309
 30
0.0
 10
28.67104642929135
 20
7.606045374029386
 30
0.0
 10
29.26491381745814
 20
7.393853260726022
 30
0.0
 10
30.45348377403733
 20
6.941404078339064
 30
0.0
 10
31.05122985885179
 20
6.700717748410995
 30
0.0
 10
32.24316644361603
 20
6.194566789880586
 30
0.0
 10
32.83500243531739
 20
5.929500137258467
 30
0.0
 10
34.02672687217861
 20
5.376072554608542
 30
0.0
 10
34.6245172526982
 20
5.087982946151352
 30
0.0
 10
35.81347396834315
 20
4.494151194397106
 30
0.0
 10
36.40697998081858
 20
4.188052413403992
 30
0.0
 10
37.60006550856772
 20
3.559640503705013
 30
0.0
 10
38.19585887691015
 20
3.237980352743842
 30
0.0
 10
39.38259841864433
 20
2.584185134367802
 30
0.0
 10
39.9800602266408
 20
2.250847946252661
 30
0.0
 10
41.17270661766823
 20
1.577089773406722
 30
0.0
 10
41.76493584012709
 20
1.237246330797193
 30
0.0
 10
42.95556930592493
 20
0.5528883199627721
 30
0.0
 10
43.55345140465897
 20
0.2084667739967752
 30
0.0
 10
44.7438606386499
 20
-0.478820624496848
 30
0.0
 10
45.33622516077742
 20
-0.8216554147424292
 30
0.0
 10
46.52896463547859
 20
-1.504313983534474
 30
0.0
 10
47.12636018954164
 20
-1.843555105349623
 30
0.0
 10
48.31274547571919
 20
-2.51195093554364
 30
0.0
 10
48.90894406475416
 20
-2.842461106139311
 30
0.0
 10
50.10199106024717
 20
-3.491193684919017
 30
0.0
 10
50.69524969901024
 20
-3.808777881581452
 30
0.0
 10
51.88448473037143
 20
-4.428352728284643
 30
0.0
 10
52.48230260021646
 20
-4.730632969426398
 30
0.0
 10
53.67385708261144
 20
-5.314843519449704
 30
0.0
 10
54.26571618324536
 20
-5.596514168064857
 30
0.0
 10
55.45780032262417
 20
-6.138231959275274
 30
0.0
 10
56.05550760204144
 20
-6.397838626244158
 30
0.0
 10
57.24377703513809
 20
-6.890073959150522
 30
0.0
 10
57.8379378990019
 20
-7.123235768848679
 30
0.0
 10
59.03107595076018
 20
-7.561428865265504
 30
0.0
 10
59.62599930372648
 20
-7.765950753335312
 30
0.0
 10
60.81352964289578
 20
-8.143704783128275
 30
0.0
 10
61.4111273927413
 20
-8.317432219500006
 30
0.0
 10
62.60351886519412
 20
-8.631411759395917
 30
0.0
 10
63.19550904914163
 20
-8.771496622722898
 30
0.0
 10
64.38662913733958
 20
-9.017471257405182
 30
0.0
 10
64.98449234739297
 20
-9.123188984220478
 30
0.0
 10
66.17434050110374
 20
-9.298268931198688
 30
0.0
 10
66.76709816009509
 20
-9.367743398711898
 30
0.0
 10
67.96001764116224
 20
-9.470110334459015
 30
0.0
 10
68.55723957173609
 20
-9.502841920432129
 30
0.0
 10
69.15000000000003
 20
-9.524999999999993
 30
0.0
  0
SPLINE
  5
B4
330
1F
100
AcDbEntity
  8
0
  6
Continuous
 62
     1
370
    15
100
AcDbSpline
210
0.0
220
0.0
230
1.0
 70
     8
 71
     3
 72
    19
 73
    15
 74
     0
 42
0.000000001
 43
0.00000001
 40
0.0
 40
0.0
 40
0.0
 40
0.0
 40
0.0129596261389341
 40
0.1078929233639744
 40
0.2028259415634449
 40
0.297758689888389
 40
0.3926911774971485
 40
0.4876234135551153
 40
0.5825554072344891
 40
0.6774871677140287
 40
0.7721019237717713
 40
0.8667163432260659
 40
0.961330444423585
 40
1.0
 40
1.0
 40
1.0
 40
1.0
 10
45.48038629485826
 20
-0.9024324118885675
 30
0.0
 10
45.34341749674749
 20
-0.8483645130152674
 30
0.0
 10
44.2031095990201
 20
-0.3982324176099392
 30
0.0
 10
42.05946645618248
 20
0.4795727328624208
 30
0.0
 10
39.04945974664743
 20
1.682000690445986
 30
0.0
 10
36.03946256053952
 20
2.832402431121015
 30
0.0
 10
33.0294745017725
 20
3.887779438479923
 30
0.0
 10
30.01949512407884
 20
4.814308714286047
 30
0.0
 10
27.0095246854515
 20
5.581209784307391
 30
0.0
 10
24.00290868607668
 20
6.161272655239451
 30
0.0
 10
20.99965624230824
 20
6.540459928915671
 30
0.0
 10
17.99976064178554
 20
6.690444737667019
 30
0.0
 10
15.59114220906994
 20
6.673059929618501
 30
0.0
 10
14.18248903350454
 20
6.529717484310146
 30
0.0
 10
13.77379682338
 20
6.488129574813392
 30
0.0
  0
SPLINE
  5
B5
330
1F
100
AcDbEntity
  8
외형선
  6
Continuous
370
    15
100
AcDbSpline
210
0.0
220
0.0
230
1.0
 70
    24
 71
     3
 72
    12
 73
     8
 74
     0
 42
0.000000001
 43
0.00000001
 40
0.0
 40
0.0
 40
0.0
 40
0.0
 40
0.1964836844273289
 40
0.4239437637874612
 40
0.6580002008582776
 40
0.8564062551139905
 40
1.0
 40
1.0
 40
1.0
 40
1.0
 10
12.00000000000002
 20
8.902358043836221
 30
0.0
 10
12.00000000000002
 20
8.721069518134401
 30
0.0
 10
12.00000000000002
 20
8.329911645960355
 30
0.0
 10
12.00000000000002
 20
7.743918219552634
 30
0.0
 10
12.00000000000002
 20
7.196747870702833
 30
0.0
 10
12.00000000000002
 20
6.756465737639766
 30
0.0
 10
12.00000000000002
 20
6.534794234204397
 30
0.0
 10
12.00000000000002
 20
6.44172212892048
 30
0.0
  0
SPLINE
  5
B6
330
1F
100
AcDbEntity
  8
0
  6
Continuous
 62
     1
370
    15
100
AcDbSpline
210
0.0
220
0.0
230
1.0
 70
     8
 71
     3
 72
    24
 73
    20
 74
     0
 42
0.000000001
 43
0.00000001
 40
0.0
 40
0.0
 40
0.0
 40
0.0
 40
0.0641926796025142
 40
0.1283848093016191
 40
0.1925764120619441
 40
0.2567675108833766
 40
0.3209581287995391
 40
0.3851482888762663
 40
0.4456744408205814
 40
0.5061956744244548
 40
0.5667132271401868
 40
0.6272283399010381
 40
0.6877422559497238
 40
0.7482562196622571
 40
0.808771475369505
 40
0.8692892661788375
 40
0.9298108327982418
 40
0.9903374123652726
 40
1.0
 40
1.0
 40
1.0
 40
1.0
 10
69.15000000000002
 20
-9.038661779433852
 30
0.0
 10
68.15425814041137
 20
-8.82873136714685
 30
0.0
 10
66.16278295120736
 20
-8.408872340931314
 30
0.0
 10
63.17558895361838
 20
-7.424997864142074
 30
0.0
 10
60.1884247433945
 20
-6.219603454200173
 30
0.0
 10
57.20128594991071
 20
-4.80519256011832
 30
0.0
 10
54.21418450459152
 20
-3.235234253804967
 30
0.0
 10
51.28389795898462
 20
-1.590937316631666
 30
0.0
 10
48.41067095896096
 20
0.068748020739507
 30
0.0
 10
45.5944351098162
 20
1.693707624754912
 30
0.0
 10
42.77841025462324
 20
3.26935738048692
 30
0.0
 10
39.96252014726956
 20
4.749989608677265
 30
0.0
 10
37.14669721457609
 20
6.09240717300199
 30
0.0
 10
34.33087163245197
 20
7.258222945109719
 30
0.0
 10
31.51497350992526
 20
8.211247985466489
 30
0.0
 10
28.6989354903404
 20
8.932393028439698
 30
0.0
 10
25.88268057585251
 20
9.368535569674961
 30
0.0
 10
23.85521955422047
 20
9.554573217295607
 30
0.0
 10
22.76647961495986
 20
9.512582029356881
 30
0.0
 10
22.61659829432396
 20
9.50680131490307
 30
0.0
  0
SPLINE
  5
B7
330
1F
100
AcDbEntity
  8
0
  6
Continuous
 62
     1
370
    15
100
AcDbSpline
210
0.0
220
0.0
230
1.0
 70
     8
 71
     3
 72
    16
 73
    12
 74
     0
 42
0.000000001
 43
0.00000001
 40
0.0
 40
0.0
 40
0.0
 40
0.0
 40
0.1217148999287695
 40
0.2434293665357015
 40
0.3651434110051768
 40
0.4868570445328483
 40
0.60857027832535
 40
0.7302831235999987
 40
0.8519955915844982
 40
0.9737076935166433
 40
1.0
 40
1.0
 40
1.0
 40
1.0
 10
69.15000000000002
 20
-7.514960818107261
 30
0.0
 10
68.14662976769023
 20
-7.307620723129604
 30
0.0
 10
66.13989287520711
 20
-6.89294127133364
 30
0.0
 10
63.12979482916748
 20
-5.975255317362514
 30
0.0
 10
60.1197086552905
 20
-4.8771701474454
 30
0.0
 10
57.10963418152227
 20
-3.61224220802576
 30
0.0
 10
54.09957105990547
 20
-2.229240765974692
 30
0.0
 10
51.08951894539282
 20
-0.7698529993589961
 30
0.0
 10
48.07947765532092
 20
0.707368178353181
 30
0.0
 10
45.85604437055261
 20
1.80225373883427
 30
0.0
 10
44.63595853718736
 20
2.35896427786619
 30
0.0
 10
44.41921586708538
 20
2.457861359861545
 30
0.0
  0
LINE
  5
B8
330
1F
100
AcDbEntity
  8
0
  6
Continuous
 62
     1
370
    15
100
AcDbLine
 10
69.14999999999972
 20
-9.038661779433857
 30
0.0
 11
69.15000000000002
 21
-7.51496081810726
 31
0.0
  0
LINE
  5
B9
330
1F
100
AcDbEntity
  8
0
  6
Continuous
 62
     1
370
    15
100
AcDbLine
 10
69.15000000000003
 20
-9.525
 30
0.0
 11
69.14999999999998
 21
-9.038661779433838
 31
0.0
  0
SPLINE
  5
BA
330
1F
100
AcDbEntity
  8
0
  6
Continuous
 62
     1
370
    15
100
AcDbSpline
210
0.0
220
0.0
230
1.0
 70
     8
 71
     3
 72
    12
 73
     8
 74
     0
 42
0.000000001
 43
0.00000001
 40
0.0
 40
0.0
 40
0.0
 40
0.0
 40
0.4999999999999988
 40
0.4999999999999988
 40
0.7499999999999993
 40
0.7499999999999993
 40
1.0
 40
1.0
 40
1.0
 40
1.0
 10
69.15000000000002
 20
-2.545489060932366
 30
0.0
 10
68.29179496967376
 20
-1.87079826115645
 30
0.0
 10
67.44573740577398
 20
-1.172677160324453
 30
0.0
 10
66.19492402574463
 20
-0.0902502097417943
 30
0.0
 10
65.78107042667418
 20
0.2765076356954127
 30
0.0
 10
64.9599884191866
 20
1.022802140366343
 30
0.0
 10
64.55138535338719
 20
1.40365785235442
 30
0.0
 10
64.15
 20
1.788486169330844
 30
0.0
  0
LINE
  5
BB
330
1F
100
AcDbEntity
  8
0
  6
Continuous
 62
     1
370
    15
100
AcDbLine
 10
64.15000000000002
 20
2.937719435296588
 30
0.0
 11
69.15000000000002
 21
0.0000000000000016
 31
0.0
  0
LINE
  5
BC
330
1F
100
AcDbEntity
  8
0
  6
Continuous
 62
     1
370
    15
100
AcDbLine
 10
69.15000000000002
 20
0.0000000000000016
 30
0.0
 11
69.15000000000002
 21
-2.545489060932367
 31
0.0
  0
SPLINE
  5
BD
330
1F
100
AcDbEntity
  8
0
  6
Continuous
 62
     1
370
    15
100
AcDbSpline
210
0.0
220
0.0
230
1.0
 70
     8
 71
     3
 72
    15
 73
    11
 74
     0
 42
0.000000001
 43
0.00000001
 40
0.0
 40
0.0
 40
0.0
 40
0.0
 40
0.1467613640622041
 40
0.2935086189388464
 40
0.4402359499174952
 40
0.5720913027052063
 40
0.703946240976958
 40
0.8358007770803639
 40
0.9676549233738337
 40
1.0
 40
1.0
 40
1.0
 40
1.0
 10
64.15000000000002
 20
2.273962504588726
 30
0.0
 10
63.03314593321444
 20
2.757216654435613
 30
0.0
 10
60.79954517055373
 20
3.723678495563693
 30
0.0
 10
57.44940660143535
 20
4.995180557138085
 30
0.0
 10
54.21272720824734
 20
6.032411755087082
 30
0.0
 10
51.08954860314563
 20
6.809234919969831
 30
0.0
 10
48.07950209901365
 20
7.337780188916614
 30
0.0
 10
45.06947736235588
 20
7.602408018734169
 30
0.0
 10
42.81666701538885
 20
7.668068747253872
 30
0.0
 10
41.56719993069795
 20
7.565746385393295
 30
0.0
 10
41.32107142973677
 20
7.545590232543713
 30
0.0
  0
SPLINE
  5
BE
330
1F
100
AcDbEntity
  8
0
  6
Continuous
 62
     1
370
    15
100
AcDbSpline
210
0.0
220
0.0
230
1.0
 70
    24
 71
     3
 72
     8
 73
     4
 74
     0
 42
0.000000001
 43
0.00000001
 40
0.0
 40
0.0
 40
0.0
 40
0.0
 40
1.0
 40
1.0
 40
1.0
 40
1.0
 10
64.15
 20
1.788486169330768
 30
0.0
 10
64.15
 20
1.951691093477685
 30
0.0
 10
64.15000000000003
 20
2.113595766767037
 30
0.0
 10
64.15000000000003
 20
2.273962504588732
 30
0.0
  0
SPLINE
  5
BF
330
1F
100
AcDbEntity
  8
0
  6
Continuous
 62
     1
370
    15
100
AcDbSpline
210
0.0
220
0.0
230
1.0
 70
    24
 71
     3
 72
    10
 73
     6
 74
     0
 42
0.000000001
 43
0.00000001
 40
0.0
 40
0.0
 40
0.0
 40
0.0
 40
0.5
 40
0.5
 40
1.0
 40
1.0
 40
1.0
 40
1.0
 10
69.15000000000002
 20
-7.51496081810726
 30
0.0
 10
69.15000000000003
 20
-6.938880480261245
 30
0.0
 10
69.15000000000003
 20
-6.210980884209117
 30
0.0
 10
69.15
 20
-4.51868437591023
 30
0.0
 10
69.15000000000002
 20
-3.555753395063728
 30
0.0
 10
69.15
 20
-2.545489060932672
 30
0.0
  0
SPLINE
  5
C0
330
1F
100
AcDbEntity
  8
0
  6
Continuous
 62
     1
370
    15
100
AcDbSpline
210
0.0
220
0.0
230
1.0
 70
     8
 71
     3
 72
    12
 73
     8
 74
     0
 42
0.000000001
 43
0.00000001
 40
0.0
 40
0.0
 40
0.0
 40
0.0
 40
0.1999082666193761
 40
0.3999321887117628
 40
0.5999554267708945
 40
0.7999780180925452
 40
1.0
 40
1.0
 40
1.0
 40
1.0
 10
26.99765359140181
 20
-7.925595182947282
 30
0.0
 10
25.99826582409229
 20
-8.000516201517142
 30
0.0
 10
23.99891210095257
 20
-8.150401583666989
 30
0.0
 10
20.99960539622824
 20
-8.036803584993951
 30
0.0
 10
17.99972657385575
 20
-7.673264724421921
 30
0.0
 10
14.99985936855712
 20
-7.066264045715652
 30
0.0
 10
12.99995210732233
 20
-6.470750772628546
 30
0.0
 10
12.00000000000004
 20
-6.172994589677248
 30
0.0
  0
SPLINE
  5
C1
330
1F
100
AcDbEntity
  8
0
  6
Continuous
 62
     1
370
    15
100
AcDbSpline
210
0.0
220
0.0
230
1.0
 70
     8
 71
     3
 72
    20
 73
    16
 74
     0
 42
0.000000001
 43
0.00000001
 40
0.0
 40
0.0
 40
0.0
 40
0.0
 40
0.0243532953802073
 40
0.1057489774058627
 40
0.1871444187962957
 40
0.2685396271869916
 40
0.3499346102196958
 40
0.4313293755422089
 40
0.5127239308081843
 40
0.5941182836769239
 40
0.6755124418131724
 40
0.756634737714247
 40
0.8377567524947152
 40
0.9188785014782838
 40
1.0
 40
1.0
 40
1.0
 40
1.0
 10
48.98009079249211
 20
-7.137839766319003
 30
0.0
 10
48.67989422812166
 20
-7.192246128870929
 30
0.0
 10
47.37635484228853
 20
-7.428494123830777
 30
0.0
 10
45.06947684003389
 20
-7.604183959657106
 30
0.0
 10
42.05945963543878
 20
-7.645872310315284
 30
0.0
 10
39.04945228406793
 20
-7.416378023102643
 30
0.0
 10
36.03945433607336
 20
-6.945358425275018
 30
0.0
 10
33.02946555509632
 20
-6.242541844560613
 30
0.0
 10
30.01948541488036
 20
-5.332850688585028
 30
0.0
 10
27.00951433375594
 20
-4.246021092380264
 30
0.0
 10
24.0028980994991
 20
-3.019747845751983
 30
0.0
 10
20.99964787306769
 20
-1.694626989423585
 30
0.0
 10
17.99975493514553
 20
-0.3166394468083262
 30
0.0
 10
14.99987358359033
 20
1.077503707884493
 30
0.0
 10
12.99995683207773
 20
1.969023887947671
 30
0.0
 10
12.00000000000002
 20
2.414783289840311
 30
0.0
  0
SPLINE
  5
C2
330
1F
100
AcDbEntity
  8
외형선
  6
Continuous
370
    15
100
AcDbSpline
210
0.0
220
0.0
230
1.0
 70
    24
 71
     3
 72
    14
 73
    10
 74
     0
 42
0.000000001
 43
0.00000001
 40
0.0
 40
0.0
 40
0.0
 40
0.0
 40
0.25
 40
0.25
 40
0.5
 40
0.5
 40
0.75
 40
0.75
 40
1.0
 40
1.0
 40
1.0
 40
1.0
 10
12.00000000000002
 20
2.41478328984031
 30
0.0
 10
12.00000000000002
 20
1.695824075894376
 30
0.0
 10
12.00000000000002
 20
0.9437685730183288
 30
0.0
 10
12.00000000000002
 20
-0.5783142104225438
 30
0.0
 10
12.00000000000002
 20
-1.347950511454459
 30
0.0
 10
12.00000000000002
 20
-2.848877468996347
 30
0.0
 10
12.00000000000002
 20
-3.579734703363267
 30
0.0
 10
12.00000000000002
 20
-4.952161637281777
 30
0.0
 10
12.00000000000002
 20
-5.593458202569381
 30
0.0
 10
12.00000000000002
 20
-6.172994589677243
 30
0.0
  0
SPLINE
  5
C3
330
1F
100
AcDbEntity
  8
외형선
  6
Continuous
370
    15
100
AcDbSpline
210
0.0
220
0.0
230
1.0
 70
    24
 71
     3
 72
    13
 73
     9
 74
     0
 42
0.000000001
 43
0.00000001
 40
0.0
 40
0.0
 40
0.0
 40
0.0
 40
0.0597297910547748
 40
0.2507212393401005
 40
0.4363300204006385
 40
0.6273214686859641
 40
0.8110529761351767
 40
0.9999999999999999
 40
0.9999999999999999
 40
0.9999999999999999
 40
0.9999999999999999
 10
12.00000000000002
 20
6.353099038057925
 30
0.0
 10
12.00000000000002
 20
6.361014853760995
 30
0.0
 10
12.00000000000002
 20
6.394242211305942
 30
0.0
 10
12.00000000000002
 20
6.149477490722644
 30
0.0
 10
12.00000000000002
 20
5.618715976723813
 30
0.0
 10
12.00000000000002
 20
4.796885154633066
 30
0.0
 10
12.00000000000002
 20
3.738826265017337
 30
0.0
 10
12.00000000000002
 20
2.860229508093597
 30
0.0
 10
12.00000000000002
 20
2.414783289840312
 30
0.0
  0
SPLINE
  5
C4
330
1F
100
AcDbEntity
  8
0
  6
Continuous
 62
     1
370
    15
100
AcDbSpline
210
0.0
220
0.0
230
1.0
 70
    24
 71
     3
 72
    10
 73
     6
 74
     0
 42
0.000000001
 43
0.00000001
 40
0.0
 40
0.0
 40
0.0
 40
0.0
 40
0.5
 40
0.5
 40
1.0
 40
1.0
 40
1.0
 40
1.0
 10
64.15000000000003
 20
2.273962504588732
 30
0.0
 10
64.15000000000003
 20
2.801767246870171
 30
0.0
 10
64.15000000000003
 20
3.304266617507629
 30
0.0
 10
64.15000000000002
 20
4.2210955016316
 30
0.0
 10
64.15
 20
4.635160569708959
 30
0.0
 10
64.15
 20
4.989159483222098
 30
0.0
  0
SPLINE
  5
C5
330
1F
100
AcDbEntity
  8
0
  6
Continuous
 62
     1
370
    15
100
AcDbSpline
210
0.0
220
0.0
230
1.0
 70
     8
 71
     3
 72
     9
 73
     5
 74
     0
 42
0.000000001
 43
0.00000001
 40
0.0
 40
0.0
 40
0.0
 40
0.0
 40
0.849396871566323
 40
0.9999999999999999
 40
0.9999999999999999
 40
0.9999999999999999
 40
0.9999999999999999
 10
69.15000000000002
 20
6.667499999999995
 30
0.0
 10
68.14663121476251
 20
6.661424547767788
 30
0.0
 10
66.965359162998
 20
6.654271881640109
 30
0.0
 10
65.78408778828482
 20
6.518994928021605
 30
0.0
 10
65.60618462372386
 20
6.498621795601681
 30
0.0
  0
SPLINE
  5
C6
330
1F
100
AcDbEntity
  8
0
  6
Continuous
 62
     1
370
    15
100
AcDbSpline
210
0.0
220
0.0
230
1.0
 70
     8
 71
     3
 72
    10
 73
     6
 74
     0
 42
0.000000001
 43
0.00000001
 40
0.0
 40
0.0
 40
0.0
 40
0.0
 40
0.5000000000000001
 40
0.5000000000000001
 40
1.0
 40
1.0
 40
1.0
 40
1.0
 10
69.15000000000002
 20
6.667500000000002
 30
0.0
 10
68.3070541751478
 20
6.438941566832865
 30
0.0
 10
67.46842461786648
 20
6.186028406994865
 30
0.0
 10
65.80034462458525
 20
5.628489846077762
 30
0.0
 10
64.9717415413576
 20
5.324646660889368
 30
0.0
 10
64.15
 20
4.989159483222099
 30
0.0
  0
SPLINE
  5
C7
330
1F
100
AcDbEntity
  8
0
  6
Continuous
 62
     1
370
    15
100
AcDbSpline
210
0.0
220
0.0
230
1.0
 70
     8
 71
     3
 72
    15
 73
    11
 74
     0
 42
0.000000001
 43
0.00000001
 40
0.0
 40
0.0
 40
0.0
 40
0.0
 40
0.0942295641761402
 40
0.2249361918390587
 40
0.3556509745154794
 40
0.4863765841812887
 40
0.6147896213077974
 40
0.7432127481217906
 40
0.8716151475906924
 40
1.0
 40
1.0
 40
1.0
 40
1.0
 10
33.54513041053654
 20
-7.487794724298388
 30
0.0
 10
32.86842424211373
 20
-7.726083812097029
 30
0.0
 10
31.25305320808772
 20
-8.294905714595028
 30
0.0
 10
28.69893409181769
 20
-8.92328872497659
 30
0.0
 10
25.88268456773228
 20
-9.385735175006587
 30
0.0
 10
23.08285923859172
 20
-9.566197846653917
 30
0.0
 10
20.29943732792868
 20
-9.476353735605977
 30
0.0
 10
17.53261497628656
 20
-9.116647188250955
 30
0.0
 10
14.76613029031339
 20
-8.516713245237844
 30
0.0
 10
12.92200142511122
 20
-7.919295007248742
 30
0.0
 10
11.99999999999757
 20
-7.620606299963393
 30
0.0
  0
SPLINE
  5
C8
330
1F
100
AcDbEntity
  8
외형선
  6
Continuous
370
    15
100
AcDbSpline
210
0.0
220
0.0
230
1.0
 70
    24
 71
     3
 72
     8
 73
     4
 74
     0
 42
0.000000001
 43
0.00000001
 40
0.0
 40
0.0
 40
0.0
 40
0.0
 40
1.0
 40
1.0
 40
1.0
 40
1.0
 10
12.00000000000005
 20
-6.17299458967725
 30
0.0
 10
12.00000000000005
 20
-6.640271302886998
 30
0.0
 10
12.00000000000005
 20
-7.12584210546526
 30
0.0
 10
12.00000000000005
 20
-7.620606299954995
 30
0.0
  0
SPLINE
  5
C9
330
1F
100
AcDbEntity
  8
0
  6
Continuous
 62
     1
370
    15
100
AcDbSpline
210
0.0
220
0.0
230
1.0
 70
     8
 71
     3
 72
     9
 73
     5
 74
     0
 42
0.000000001
 43
0.00000001
 40
0.0
 40
0.0
 40
0.0
 40
0.0
 40
0.5002300465597682
 40
1.0
 40
1.0
 40
1.0
 40
1.0
 10
12.00000000000002
 20
-8.90235804383624
 30
0.0
 10
13.00016646039967
 20
-9.083510081611918
 30
0.0
 10
14.99957946503241
 20
-9.445647540210247
 30
0.0
 10
16.99901241344185
 20
-9.497589235800964
 30
0.0
 10
17.9982689249753
 20
-9.523548134587942
 30
0.0
  0
SPLINE
  5
CA
330
1F
100
AcDbEntity
  8
0
  6
Continuous
 62
     1
370
    15
100
AcDbSpline
210
0.0
220
0.0
230
1.0
 70
     8
 71
     3
 72
    14
 73
    10
 74
     0
 42
0.000000001
 43
0.00000001
 40
0.0
 40
0.0
 40
0.0
 40
0.0
 40
0.0667989230884336
 40
0.2821507221664999
 40
0.4990843608981453
 40
0.6235476567666738
 40
0.7483144126211189
 40
0.8740007813041527
 40
0.9999999999999999
 40
0.9999999999999999
 40
0.9999999999999999
 40
0.9999999999999999
 10
56.07573363998912
 20
6.384002929451975
 30
0.0
 10
56.36689166465745
 20
6.51369669170698
 30
0.0
 10
57.59670860071768
 20
7.061507748964515
 30
0.0
 10
59.77193107124329
 20
7.839504790454408
 30
0.0
 10
62.19917488858374
 20
8.552182168579018
 30
0.0
 10
64.22964245354038
 20
8.996670676152421
 30
0.0
 10
65.86406464787058
 20
9.265287381318322
 30
0.0
 10
67.50403792041594
 20
9.450544344129623
 30
0.0
 10
68.60089150345769
 20
9.494796189453924
 30
0.0
 10
69.15000000000003
 20
9.525000000000002
 30
0.0
  0
LINE
  5
CB
330
1F
100
AcDbEntity
  8
0
  6
Continuous
 62
     1
370
    15
100
AcDbLine
 10
69.15000000000002
 20
0.0000000000000016
 30
0.0
 11
69.15000000000002
 21
6.667500000000001
 31
0.0
  0
SPLINE
  5
CC
330
1F
100
AcDbEntity
  8
0
  6
Continuous
 62
     1
370
    15
100
AcDbSpline
210
0.0
220
0.0
230
1.0
 70
    24
 71
     3
 72
    10
 73
     6
 74
     0
 42
0.000000001
 43
0.00000001
 40
0.0
 40
0.0
 40
0.0
 40
0.0
 40
0.5
 40
0.5
 40
1.0
 40
1.0
 40
1.0
 40
1.0
 10
69.15000000000002
 20
6.667499999999994
 30
0.0
 10
69.15000000000003
 20
7.071667246089658
 30
0.0
 10
69.15
 20
7.541347015959287
 30
0.0
 10
69.15
 20
8.526733908152142
 30
0.0
 10
69.15000000000002
 20
9.039924476009022
 30
0.0
 10
69.15000000000003
 20
9.525000000000007
 30
0.0
  0
LINE
  5
CD
330
1F
100
AcDbEntity
  8
중심선
100
AcDbLine
 10
-60.84999999999997
 20
-0.0000000000000099
 30
0.0
 11
72.15000000000003
 21
0.0000000000000064
 31
0.0
  0
LINE
  5
CE
330
1F
100
AcDbEntity
  8
참조1
100
AcDbLine
 10
-0.3876846714922222
 20
0.0010749287238892
 30
0.0
 11
-0.387684671492217
 21
-39.99892507127611
 31
0.0
  0
LINE
  5
CF
330
1F
100
AcDbEntity
  8
참조1
100
AcDbLine
 10
-0.387684671492217
 20
-39.99892507127611
 30
0.0
 11
-15.54395731641845
 21
-39.9989250712761
 31
0.0
  0
CIRCLE
  5
D0
330
1F
100
AcDbEntity
  8
해칭선
100
AcDbCircle
 10
0.0
 20
0.0
 30
0.0
 40
3.000000000000002
  0
INSERT
  5
D1
330
1F
100
AcDbEntity
  8
0
  6
Continuous
 62
     7
100
AcDbBlockReference
 66
     1
  2
블럭10
 10
-8.29027293212517
 20
-52.04717430164394
 30
0.0
  0
ATTRIB
  5
D2
330
D1
100
AcDbEntity
  8
FORMAT
 62
     2
100
AcDbText
 10
-18.4319089442618
 20
-49.97180738881175
 30
0.0
 40
4.233333333333333
  1
EM206048 [ 2 FLUTE ]
 41
0.75
  7
SLDTEXTSTYLE0
 11
-18.4319089442618
 21
-52.08847405547842
 31
0.0
100
AcDbAttribute
  2
AUTOATTR0
 70
     0
 74
     1
  0
SEQEND
  5
D3
330
D1
100
AcDbEntity
  8
0
  6
Continuous
 62
     7
  0
HATCH
  5
D4
330
1F
100
AcDbEntity
  8
중심선
100
AcDbHatch
 10
0.0
 20
0.0
 30
0.0
210
0.0
220
0.0
230
1.0
  2
SOLID
 70
     1
 71
     0
 91
        1
 92
        0
 93
        4
 72
     1
 10
-2.575363627744334
 20
-35.8
 11
-6.021638871581617
 21
-35.8
 72
     1
 10
-6.021638871581617
 20
-35.8
 11
-8.149868730785666
 21
-38.33632558057261
 72
     1
 10
-8.149868730785666
 20
-38.33632558057261
 11
-4.703560401835208
 21
-38.33628615127012
 72
     1
 10
-4.703560401835208
 20
-38.33628615127012
 11
-2.575363627744334
 21
-35.8
 97
        0
 75
     0
 76
     1
 98
        1
 10
6.037684671492258
 20
-0.0010749287238987
  0
HATCH
  5
D5
330
1F
100
AcDbEntity
  8
중심선
100
AcDbHatch
 10
0.0
 20
0.0
 30
0.0
210
0.0
220
0.0
230
1.0
  2
SOLID
 70
     1
 71
     0
 91
        1
 92
        0
 93
        4
 72
     1
 10
2.437400363291645
 20
-35.8
 11
-1.008874880545665
 21
-35.8
 72
     1
 10
-1.008874880545665
 20
-35.8
 11
-5.540012888903053
 21
-41.20000000000002
 72
     1
 10
-5.540012888903053
 20
-41.20000000000002
 11
-2.093737645065771
 21
-41.20000000000002
 72
     1
 10
-2.093737645065771
 20
-41.20000000000002
 11
2.437400363291645
 21
-35.8
 97
        0
 75
     0
 76
     1
 98
        1
 10
6.037684671492258
 20
-0.0010749287238987
  0
HATCH
  5
D6
330
1F
100
AcDbEntity
  8
중심선
100
AcDbHatch
 10
0.0
 20
0.0
 30
0.0
210
0.0
220
0.0
230
1.0
  2
SOLID
 70
     1
 71
     0
 91
        1
 92
        0
 93
        4
 72
     1
 10
7.450164354327512
 20
-35.8
 11
4.003889110490396
 21
-35.8
 72
     1
 10
4.003889110490396
 20
-35.8
 11
-3.044547791398852
 21
-44.20000000000002
 72
     1
 10
-3.044547791398852
 20
-44.20000000000002
 11
0.40172745243843
 21
-44.20000000000002
 72
     1
 10
0.40172745243843
 20
-44.20000000000002
 11
7.450164354327513
 21
-35.8
 97
        0
 75
     0
 76
     1
 98
        1
 10
6.037684671492258
 20
-0.0010749287238987
  0
HATCH
  5
D7
330
1F
100
AcDbEntity
  8
중심선
100
AcDbHatch
 10
0.0
 20
0.0
 30
0.0
210
0.0
220
0.0
230
1.0
  2
SOLID
 70
     1
 71
     0
 91
        1
 92
        0
 93
        6
 72
     3
 10
12.25005478533971
 20
-40.00000000005128
 11
3.960054785062285
 21
1.540882976769353E-10
 40
0.3939339440162626
 50
17.09539180608438
 51
320.0019657685079
 73
     0
 72
     1
 10
13.93305444104031
 20
-38.58789400463831
 11
16.23835631474137
 21
-36.65356729459036
 72
     3
 10
12.25005478528687
 20
-40.00000000000016
 11
6.600054785286828
 21
-1.278976924368180E-13
 40
0.6363583540795982
 50
39.99873849337411
 51
368.4976242363725
 73
     1
 72
     1
 10
18.67538727718748
 20
-39.03999999993003
 11
10.93012209212279
 21
-39.03999999993
 72
     1
 10
10.93012209212279
 20
-39.03999999993
 11
10.93009704767685
 21
-40.95999999992992
 72
     1
 10
10.93009704767685
 20
-40.95999999992992
 11
15.37147681714889
 21
-40.95999999992989
 97
        0
 75
     0
 76
     1
 98
        1
 10
6.037684671492258
 20
-0.0010749287238987
  0
DIMENSION
  5
D8
330
1F
100
AcDbEntity
  8
치수문자_일반주서
100
AcDbDimension
  2
_D
 10
-70.27999999999994
 20
-9.52500000000006
 30
0.0
 11
-70.27999999999999
 21
0.0000000000000023
 31
0.0
 70
   160
  1
%%c<>
 71
     2
 42
19.05000000000001
 52
-270.0
  3
SLDDIMSTYLE0
100
AcDbAlignedDimension
 13
-56.84999999999999
 23
9.525
 33
0.0
 14
-56.84999999999999
 24
-9.525000000000011
 34
0.0
 50
90.0000000000002
100
AcDbRotatedDimension
1001
ACAD
1000
DSTYLE
1002
{
1070
   273
1070
     7
1002
}
  0
DIMENSION
  5
ED
330
1F
100
AcDbEntity
  8
치수문자_일반주서
100
AcDbDimension
  2
_D_1
 10
83.90027114422136
 20
-9.524999999999935
 30
0.0
 11
83.9002711442212
 21
37.75774390755624
 31
0.0
 70
   160
  1
%%c<>
 71
     2
 42
19.05
 52
-270.0
  3
SLDDIMSTYLE0
100
AcDbAlignedDimension
 13
69.15000000000003
 23
9.525000000000002
 33
0.0
 14
69.15000000000003
 24
-9.524999999999993
 34
0.0
 50
90.0000000000002
100
AcDbRotatedDimension
1001
ACAD
1000
DSTYLE
1002
{
1070
   273
1070
     7
1002
}
  0
DIMENSION
  5
101
330
1F
100
AcDbEntity
  8
치수문자_일반주서
100
AcDbDimension
  2
_D_2
 10
12.00000000000002
 20
24.8093640926959
 30
0.0
 11
40.87539339400129
 21
24.8093640926959
 31
0.0
 70
   160
  1
<>
 71
     2
 42
57.15000000000001
  3
SLDDIMSTYLE0
100
AcDbAlignedDimension
 13
69.15000000000003
 23
9.525000000000002
 33
0.0
 14
12.00000000000002
 24
6.384806818727761
 34
0.0
 50
0.0000000000000285
100
AcDbRotatedDimension
1001
ACAD
1000
DSTYLE
1002
{
1070
   273
1070
     7
1002
}
  0
DIMENSION
  5
115
330
1F
100
AcDbEntity
  8
치수문자_일반주서
100
AcDbDimension
  2
_D_3
 10
-57.84999999999999
 20
44.52342844013392
 30
0.0
 11
5.65
 21
44.52342844013392
 31
0.0
 70
   160
  1
<>
 71
     2
 42
127.0
  3
SLDDIMSTYLE0
100
AcDbAlignedDimension
 13
69.15000000000003
 23
9.525000000000002
 33
0.0
 14
-57.84999999999999
 24
8.524999999999983
 34
0.0
 50
0.0000000000000064
100
AcDbRotatedDimension
1001
ACAD
1000
DSTYLE
1002
{
1070
   273
1070
     7
1002
}
  0
LINE
  5
128
330
1F
100
AcDbEntity
  8
참조1
100
AcDbLine
 10
82.42838331323583
 20
7.441074928723896
 30
0.0
 11
82.42838331323583
 21
-7.438925071276109
 31
0.0
  0
LINE
  5
129
330
1F
100
AcDbEntity
  8
참조1
100
AcDbLine
 10
95.12838331323583
 20
5.441074928723896
 30
0.0
 11
82.42838331323583
 21
5.441074928723896
 31
0.0
  0
SOLID
  5
12A
330
1F
100
AcDbEntity
  8
참조1
100
AcDbTrace
 10
82.42838331323583
 20
5.441074928723896
 30
0.0
 11
88.77838331323582
 21
4.425074928723896
 31
0.0
 12
88.77838331323582
 22
6.457074928723896
 32
0.0
 13
88.77838331323582
 23
6.457074928723896
 33
0.0
  0
LINE
  5
12B
330
1F
100
AcDbEntity
  8
참조1
100
AcDbLine
 10
95.12838331323583
 20
-5.438925071276109
 30
0.0
 11
82.42838331323583
 21
-5.438925071276109
 31
0.0
  0
SOLID
  5
12C
330
1F
100
AcDbEntity
  8
참조1
100
AcDbTrace
 10
82.42838331323583
 20
-5.438925071276109
 30
0.0
 11
88.77838331323582
 21
-6.454925071276109
 31
0.0
 12
88.77838331323582
 22
-4.422925071276109
 32
0.0
 13
88.77838331323582
 23
-4.422925071276109
 33
0.0
  0
MTEXT
  5
12D
330
1F
100
AcDbEntity
  8
참조1
100
AcDbMText
 10
91.82587340570609
 20
10.98929157337383
 30
0.0
 40
3.5
 41
0.0
 71
     1
 72
     1
  1
A
  7
SLDTEXTSTYLE0
 73
     1
 44
1.0
  0
MTEXT
  5
12E
330
1F
100
AcDbEntity
  8
참조1
100
AcDbMText
 10
91.82587340570609
 20
0.1092915733738259
 30
0.0
 40
3.5
 41
0.0
 71
     1
 72
     1
  1
A
  7
SLDTEXTSTYLE0
 73
     1
 44
1.0
  0
INSERT
  5
135
330
1F
100
AcDbEntity
  8
해칭선
100
AcDbBlockReference
  2
SW_DOWELSYMBOL_0
 10
0.0
 20
0.0
 30
0.0
  0
ENDSEC
  0
SECTION
  2
OBJECTS
  0
DICTIONARY
  5
C
330
0
100
AcDbDictionary
281
     1
  3
ACAD_GROUP
350
D
  3
ACAD_IMAGE_VARS
350
159
  3
ACAD_LAYOUT
350
1A
  3
ACAD_MLINESTYLE
350
17
  3
ACAD_PLOTSETTINGS
350
19
  3
ACAD_PLOTSTYLENAME
350
E
  3
ACAD_SCALELIST
350
47
  3
APPDATA
350
157
  3
DWGPROPS
350
190
  0
DICTIONARY
  5
180
330
2
100
AcDbDictionary
280
     1
281
     1
  3
ACAD_LAYERSTATES
360
181
  0
DICTIONARY
  5
D
102
{ACAD_REACTORS
330
C
102
}
330
C
100
AcDbDictionary
281
     1
  0
RASTERVARIABLES
  5
159
102
{ACAD_REACTORS
330
C
102
}
330
C
100
AcDbRasterVariables
 90
        0
 70
     1
 71
     1
 72
     1
  0
DICTIONARY
  5
1A
102
{ACAD_REACTORS
330
C
102
}
330
C
100
AcDbDictionary
281
     1
  3
Layout1
350
1E
  3
Layout2
350
26
  3
Model
350
22
  0
DICTIONARY
  5
17
102
{ACAD_REACTORS
330
C
102
}
330
C
100
AcDbDictionary
281
     1
  3
Standard
350
18
  0
DICTIONARY
  5
19
102
{ACAD_REACTORS
330
C
102
}
330
C
100
AcDbDictionary
281
     1
  0
ACDBDICTIONARYWDFLT
  5
E
102
{ACAD_REACTORS
330
C
102
}
330
C
100
AcDbDictionary
281
     1
  3
Normal
350
F
100
AcDbDictionaryWithDefault
340
F
  0
DICTIONARY
  5
47
102
{ACAD_REACTORS
330
C
102
}
330
C
100
AcDbDictionary
281
     1
  3
A0
350
48
  3
A1
350
49
  3
A2
350
4A
  3
A3
350
4B
  3
A4
350
4C
  3
A5
350
4D
  3
A6
350
4E
  3
A7
350
4F
  3
A8
350
50
  3
A9
350
51
  3
B0
350
52
  3
B1
350
53
  3
B2
350
54
  3
B3
350
55
  3
B4
350
56
  3
B5
350
57
  3
B6
350
58
  3
B7
350
59
  3
B8
350
5A
  3
B9
350
5B
  3
C0
350
5C
  3
C1
350
5D
  3
C2
350
5E
  3
C3
350
5F
  3
C4
350
60
  3
C5
350
61
  3
C6
350
62
  3
C7
350
63
  3
C8
350
64
  3
C9
350
65
  3
D0
350
66
  3
D1
350
67
  3
D2
350
68
  0
DICTIONARY
  5
157
102
{ACAD_REACTORS
330
C
102
}
330
C
100
AcDbDictionary
281
     1
  0
XRECORD
  5
190
102
{ACAD_REACTORS
330
C
102
}
330
C
100
AcDbXrecord
280
     1
  1
DWGPROPS COOKIE
  2

  3

  4

  6

  7

  8
12017012
  9

300
=
301
=
302
=
303
=
304
=
305
=
306
=
307
=
308
=
309
=
 40
0.0
 41
2458288.373156065
 42
2458294.338663183
  1

 90
        0
  0
DICTIONARY
  5
181
102
{ACAD_REACTORS
330
180
102
}
330
180
100
AcDbDictionary
281
     1
  0
LAYOUT
  5
1E
102
{ACAD_REACTORS
330
1A
102
}
330
1A
100
AcDbPlotSettings
  1

  2
none_device
  4

  6

 40
0.0
 41
0.0
 42
0.0
 43
0.0
 44
0.0
 45
0.0
 46
0.0
 47
0.0
 48
0.0
 49
0.0
140
0.0
141
0.0
142
1.0
143
1.0
 70
   688
 72
     1
 73
     0
 74
     5
  7

 75
    16
147
1.0
148
0.0
149
0.0
100
AcDbLayout
  1
Layout1
 70
     1
 71
     1
 10
0.0
 20
0.0
 11
420.0
 21
297.0
 12
0.0
 22
0.0
 32
0.0
 14
1.000000000000000E+20
 24
1.000000000000000E+20
 34
1.000000000000000E+20
 15
-1.000000000000000E+20
 25
-1.000000000000000E+20
 35
-1.000000000000000E+20
146
0.0
 13
0.0
 23
0.0
 33
0.0
 16
1.0
 26
0.0
 36
0.0
 17
0.0
 27
1.0
 37
0.0
 76
     0
330
1B
  0
LAYOUT
  5
26
102
{ACAD_REACTORS
330
1A
102
}
330
1A
100
AcDbPlotSettings
  1

  2
none_device
  4

  6

 40
0.0
 41
0.0
 42
0.0
 43
0.0
 44
0.0
 45
0.0
 46
0.0
 47
0.0
 48
0.0
 49
0.0
140
0.0
141
0.0
142
1.0
143
1.0
 70
   688
 72
     1
 73
     0
 74
     5
  7

 75
    16
147
1.0
148
0.0
149
0.0
100
AcDbLayout
  1
Layout2
 70
     1
 71
     2
 10
0.0
 20
0.0
 11
0.0
 21
0.0
 12
0.0
 22
0.0
 32
0.0
 14
0.0
 24
0.0
 34
0.0
 15
0.0
 25
0.0
 35
0.0
146
0.0
 13
0.0
 23
0.0
 33
0.0
 16
1.0
 26
0.0
 36
0.0
 17
0.0
 27
1.0
 37
0.0
 76
     0
330
23
  0
LAYOUT
  5
22
102
{ACAD_REACTORS
330
1A
102
}
330
1A
100
AcDbPlotSettings
  1

  2
none_device
  4
ANSI_A_(11.00_x_8.50_Inches)
  6

 40
6.35
 41
19.05
 42
6.35000508
 43
19.05000254
 44
279.4
 45
215.9
 46
78.53335653584794
 47
42.51637482227601
 48
0.0
 49
0.0
140
0.0
141
0.0
142
0.0377320991798249
143
1.0
 70
  1696
 72
     0
 73
     0
 74
     0
  7

 75
     0
147
0.0235690232323232
148
0.0
149
0.0
100
AcDbLayout
  1
Model
 70
     1
 71
     0
 10
0.0
 20
0.0
 11
420.0
 21
297.0
 12
0.0
 22
0.0
 32
0.0
 14
1.000000000000000E+20
 24
1.000000000000000E+20
 34
1.000000000000000E+20
 15
-1.000000000000000E+20
 25
-1.000000000000000E+20
 35
-1.000000000000000E+20
146
0.0
 13
0.0
 23
0.0
 33
0.0
 16
1.0
 26
0.0
 36
0.0
 17
0.0
 27
1.0
 37
0.0
 76
     0
330
1F
331
29
  0
MLINESTYLE
  5
18
102
{ACAD_REACTORS
330
17
102
}
330
17
100
AcDbMlineStyle
  2
Standard
 70
     0
  3

 62
   256
 51
90.0
 52
90.0
 71
     2
 49
0.5
 62
   256
  6
BYLAYER
 49
-0.5
 62
   256
  6
BYLAYER
  0
ACDBPLACEHOLDER
  5
F
102
{ACAD_REACTORS
330
E
102
}
330
E
  0
SCALE
  5
48
102
{ACAD_REACTORS
330
47
102
}
330
47
100
AcDbScale
 70
     0
300
1:1
140
1.0
141
1.0
290
     1
  0
SCALE
  5
49
102
{ACAD_REACTORS
330
47
102
}
330
47
100
AcDbScale
 70
     0
300
1:2
140
1.0
141
2.0
290
     0
  0
SCALE
  5
4A
102
{ACAD_REACTORS
330
47
102
}
330
47
100
AcDbScale
 70
     0
300
1:4
140
1.0
141
4.0
290
     0
  0
SCALE
  5
4B
102
{ACAD_REACTORS
330
47
102
}
330
47
100
AcDbScale
 70
     0
300
1:5
140
1.0
141
5.0
290
     0
  0
SCALE
  5
4C
102
{ACAD_REACTORS
330
47
102
}
330
47
100
AcDbScale
 70
     0
300
1:8
140
1.0
141
8.0
290
     0
  0
SCALE
  5
4D
102
{ACAD_REACTORS
330
47
102
}
330
47
100
AcDbScale
 70
     0
300
1:10
140
1.0
141
10.0
290
     0
  0
SCALE
  5
4E
102
{ACAD_REACTORS
330
47
102
}
330
47
100
AcDbScale
 70
     0
300
1:16
140
1.0
141
16.0
290
     0
  0
SCALE
  5
4F
102
{ACAD_REACTORS
330
47
102
}
330
47
100
AcDbScale
 70
     0
300
1:20
140
1.0
141
20.0
290
     0
  0
SCALE
  5
50
102
{ACAD_REACTORS
330
47
102
}
330
47
100
AcDbScale
 70
     0
300
1:30
140
1.0
141
30.0
290
     0
  0
SCALE
  5
51
102
{ACAD_REACTORS
330
47
102
}
330
47
100
AcDbScale
 70
     0
300
1:40
140
1.0
141
40.0
290
     0
  0
SCALE
  5
52
102
{ACAD_REACTORS
330
47
102
}
330
47
100
AcDbScale
 70
     0
300
1:50
140
1.0
141
50.0
290
     0
  0
SCALE
  5
53
102
{ACAD_REACTORS
330
47
102
}
330
47
100
AcDbScale
 70
     0
300
1:100
140
1.0
141
100.0
290
     0
  0
SCALE
  5
54
102
{ACAD_REACTORS
330
47
102
}
330
47
100
AcDbScale
 70
     0
300
2:1
140
2.0
141
1.0
290
     0
  0
SCALE
  5
55
102
{ACAD_REACTORS
330
47
102
}
330
47
100
AcDbScale
 70
     0
300
4:1
140
4.0
141
1.0
290
     0
  0
SCALE
  5
56
102
{ACAD_REACTORS
330
47
102
}
330
47
100
AcDbScale
 70
     0
300
8:1
140
8.0
141
1.0
290
     0
  0
SCALE
  5
57
102
{ACAD_REACTORS
330
47
102
}
330
47
100
AcDbScale
 70
     0
300
10:1
140
10.0
141
1.0
290
     0
  0
SCALE
  5
58
102
{ACAD_REACTORS
330
47
102
}
330
47
100
AcDbScale
 70
     0
300
100:1
140
100.0
141
1.0
290
     0
  0
SCALE
  5
59
102
{ACAD_REACTORS
330
47
102
}
330
47
100
AcDbScale
 70
     0
300
1/128" = 1'-0"
140
0.0078125
141
12.0
290
     0
  0
SCALE
  5
5A
102
{ACAD_REACTORS
330
47
102
}
330
47
100
AcDbScale
 70
     0
300
1/64" = 1'-0"
140
0.015625
141
12.0
290
     0
  0
SCALE
  5
5B
102
{ACAD_REACTORS
330
47
102
}
330
47
100
AcDbScale
 70
     0
300
1/32" = 1'-0"
140
0.03125
141
12.0
290
     0
  0
SCALE
  5
5C
102
{ACAD_REACTORS
330
47
102
}
330
47
100
AcDbScale
 70
     0
300
1/16" = 1'-0"
140
0.0625
141
12.0
290
     0
  0
SCALE
  5
5D
102
{ACAD_REACTORS
330
47
102
}
330
47
100
AcDbScale
 70
     0
300
3/32" = 1'-0"
140
0.09375
141
12.0
290
     0
  0
SCALE
  5
5E
102
{ACAD_REACTORS
330
47
102
}
330
47
100
AcDbScale
 70
     0
300
1/8" = 1'-0"
140
0.125
141
12.0
290
     0
  0
SCALE
  5
5F
102
{ACAD_REACTORS
330
47
102
}
330
47
100
AcDbScale
 70
     0
300
3/16" = 1'-0"
140
0.1875
141
12.0
290
     0
  0
SCALE
  5
60
102
{ACAD_REACTORS
330
47
102
}
330
47
100
AcDbScale
 70
     0
300
1/4" = 1'-0"
140
0.25
141
12.0
290
     0
  0
SCALE
  5
61
102
{ACAD_REACTORS
330
47
102
}
330
47
100
AcDbScale
 70
     0
300
3/8" = 1'-0"
140
0.375
141
12.0
290
     0
  0
SCALE
  5
62
102
{ACAD_REACTORS
330
47
102
}
330
47
100
AcDbScale
 70
     0
300
1/2" = 1'-0"
140
0.5
141
12.0
290
     0
  0
SCALE
  5
63
102
{ACAD_REACTORS
330
47
102
}
330
47
100
AcDbScale
 70
     0
300
3/4" = 1'-0"
140
0.75
141
12.0
290
     0
  0
SCALE
  5
64
102
{ACAD_REACTORS
330
47
102
}
330
47
100
AcDbScale
 70
     0
300
1" = 1'-0"
140
1.0
141
12.0
290
     0
  0
SCALE
  5
65
102
{ACAD_REACTORS
330
47
102
}
330
47
100
AcDbScale
 70
     0
300
1-1/2" = 1'-0"
140
1.5
141
12.0
290
     0
  0
SCALE
  5
66
102
{ACAD_REACTORS
330
47
102
}
330
47
100
AcDbScale
 70
     0
300
3" = 1'-0"
140
3.0
141
12.0
290
     0
  0
SCALE
  5
67
102
{ACAD_REACTORS
330
47
102
}
330
47
100
AcDbScale
 70
     0
300
6" = 1'-0"
140
6.0
141
12.0
290
     0
  0
SCALE
  5
68
102
{ACAD_REACTORS
330
47
102
}
330
47
100
AcDbScale
 70
     0
300
1'-0" = 1'-0"
140
12.0
141
12.0
290
     0
  0
ENDSEC
  0
EOF
