  0
SECTION
  2
HEADER
  9
$ACADVER
  1
AC1015
  9
$ACADMAINTVER
 70
     6
  9
$DWGCODEPAGE
  3
ANSI_949
  9
$INSBASE
 10
0.0
 20
0.0
 30
0.0
  9
$EXTMIN
 10
-48.82595115004672
 20
-50.27945175439431
 30
0.0
  9
$EXTMAX
 10
86.47533967234195
 20
41.20829655748183
 30
0.0
  9
$LIMMIN
 10
0.0
 20
0.0
  9
$LIMMAX
 10
420.0
 20
297.0
  9
$ORTHOMODE
 70
     0
  9
$REGENMODE
 70
     1
  9
$FILLMODE
 70
     1
  9
$QTEXTMODE
 70
     0
  9
$MIRRTEXT
 70
     1
  9
$LTSCALE
 40
1.0
  9
$ATTMODE
 70
     1
  9
$TEXTSIZE
 40
3.5
  9
$TRACEWID
 40
1.0
  9
$TEXTSTYLE
  7
Standard
  9
$CLAYER
  8
0
  9
$CELTYPE
  6
ByLayer
  9
$CECOLOR
 62
   256
  9
$CELTSCALE
 40
1.0
  9
$DISPSILH
 70
     0
  9
$DIMSCALE
 40
1.0
  9
$DIMASZ
 40
3.302
  9
$DIMEXO
 40
1.0
  9
$DIMDLI
 40
3.75
  9
$DIMRND
 40
0.0
  9
$DIMDLE
 40
0.0
  9
$DIMEXE
 40
1.0
  9
$DIMTP
 40
0.0
  9
$DIMTM
 40
0.0
  9
$DIMTXT
 40
3.5
  9
$DIMCEN
 40
2.5
  9
$DIMTSZ
 40
0.0
  9
$DIMTOL
 70
     0
  9
$DIMLIM
 70
     0
  9
$DIMTIH
 70
     1
  9
$DIMTOH
 70
     1
  9
$DIMSE1
 70
     0
  9
$DIMSE2
 70
     0
  9
$DIMTAD
 70
     1
  9
$DIMZIN
 70
     0
  9
$DIMBLK
  1

  9
$DIMASO
 70
     1
  9
$DIMSHO
 70
     1
  9
$DIMPOST
  1

  9
$DIMAPOST
  1

  9
$DIMALT
 70
     0
  9
$DIMALTD
 70
     3
  9
$DIMALTF
 40
0.0393700787401575
  9
$DIMLFAC
 40
1.0
  9
$DIMTOFL
 70
     1
  9
$DIMTVP
 40
0.0
  9
$DIMTIX
 70
     0
  9
$DIMSOXD
 70
     0
  9
$DIMSAH
 70
     0
  9
$DIMBLK1
  1

  9
$DIMBLK2
  1

  9
$DIMSTYLE
  2
ISO-25
  9
$DIMCLRD
 70
     0
  9
$DIMCLRE
 70
     0
  9
$DIMCLRT
 70
     0
  9
$DIMTFAC
 40
1.0
  9
$DIMGAP
 40
1.524
  9
$DIMJUST
 70
     0
  9
$DIMSD1
 70
     0
  9
$DIMSD2
 70
     0
  9
$DIMTOLJ
 70
     0
  9
$DIMTZIN
 70
     0
  9
$DIMALTZ
 70
     0
  9
$DIMALTTZ
 70
     0
  9
$DIMUPT
 70
     0
  9
$DIMDEC
 70
     2
  9
$DIMTDEC
 70
     2
  9
$DIMALTU
 70
     2
  9
$DIMALTTD
 70
     3
  9
$DIMTXSTY
  7
Standard
  9
$DIMAUNIT
 70
     0
  9
$DIMADEC
 70
     2
  9
$DIMALTRND
 40
0.0
  9
$DIMAZIN
 70
     0
  9
$DIMDSEP
 70
    44
  9
$DIMATFIT
 70
     3
  9
$DIMFRAC
 70
     0
  9
$DIMLDRBLK
  1

  9
$DIMLUNIT
 70
     2
  9
$DIMLWD
 70
    -2
  9
$DIMLWE
 70
    -2
  9
$DIMTMOVE
 70
     0
  9
$LUNITS
 70
     2
  9
$LUPREC
 70
     2
  9
$SKETCHINC
 40
1.0
  9
$FILLETRAD
 40
10.0
  9
$AUNITS
 70
     0
  9
$AUPREC
 70
     2
  9
$MENU
  1
.
  9
$ELEVATION
 40
0.0
  9
$PELEVATION
 40
0.0
  9
$THICKNESS
 40
0.0
  9
$LIMCHECK
 70
     0
  9
$CHAMFERA
 40
0.0
  9
$CHAMFERB
 40
0.0
  9
$CHAMFERC
 40
0.0
  9
$CHAMFERD
 40
0.0
  9
$SKPOLY
 70
     0
  9
$TDCREATE
 40
2458299.350775197
  9
$TDUCREATE
 40
2458298.975775197
  9
$TDUPDATE
 40
2459698.401668194
  9
$TDUUPDATE
 40
2459698.026668194
  9
$TDINDWG
 40
0.0076352894
  9
$TDUSRTIMER
 40
0.0140682176
  9
$USRTIMER
 70
     1
  9
$ANGBASE
 50
0.0
  9
$ANGDIR
 70
     0
  9
$PDMODE
 70
     0
  9
$PDSIZE
 40
-1.0
  9
$PLINEWID
 40
0.0
  9
$SPLFRAME
 70
     0
  9
$SPLINETYPE
 70
     6
  9
$SPLINESEGS
 70
     8
  9
$HANDSEED
  5
25A
  9
$SURFTAB1
 70
     6
  9
$SURFTAB2
 70
     6
  9
$SURFTYPE
 70
     6
  9
$SURFU
 70
     6
  9
$SURFV
 70
     6
  9
$UCSBASE
  2

  9
$UCSNAME
  2

  9
$UCSORG
 10
0.0
 20
0.0
 30
0.0
  9
$UCSXDIR
 10
1.0
 20
0.0
 30
0.0
  9
$UCSYDIR
 10
0.0
 20
1.0
 30
0.0
  9
$UCSORTHOREF
  2

  9
$UCSORTHOVIEW
 70
     0
  9
$UCSORGTOP
 10
0.0
 20
0.0
 30
0.0
  9
$UCSORGBOTTOM
 10
0.0
 20
0.0
 30
0.0
  9
$UCSORGLEFT
 10
0.0
 20
0.0
 30
0.0
  9
$UCSORGRIGHT
 10
0.0
 20
0.0
 30
0.0
  9
$UCSORGFRONT
 10
0.0
 20
0.0
 30
0.0
  9
$UCSORGBACK
 10
0.0
 20
0.0
 30
0.0
  9
$PUCSBASE
  2

  9
$PUCSNAME
  2

  9
$PUCSORG
 10
0.0
 20
0.0
 30
0.0
  9
$PUCSXDIR
 10
1.0
 20
0.0
 30
0.0
  9
$PUCSYDIR
 10
0.0
 20
1.0
 30
0.0
  9
$PUCSORTHOREF
  2

  9
$PUCSORTHOVIEW
 70
     0
  9
$PUCSORGTOP
 10
0.0
 20
0.0
 30
0.0
  9
$PUCSORGBOTTOM
 10
0.0
 20
0.0
 30
0.0
  9
$PUCSORGLEFT
 10
0.0
 20
0.0
 30
0.0
  9
$PUCSORGRIGHT
 10
0.0
 20
0.0
 30
0.0
  9
$PUCSORGFRONT
 10
0.0
 20
0.0
 30
0.0
  9
$PUCSORGBACK
 10
0.0
 20
0.0
 30
0.0
  9
$USERI1
 70
     0
  9
$USERI2
 70
     0
  9
$USERI3
 70
     0
  9
$USERI4
 70
     0
  9
$USERI5
 70
     0
  9
$USERR1
 40
0.0
  9
$USERR2
 40
0.0
  9
$USERR3
 40
0.0
  9
$USERR4
 40
0.0
  9
$USERR5
 40
0.0
  9
$WORLDVIEW
 70
     1
  9
$SHADEDGE
 70
     3
  9
$SHADEDIF
 70
    70
  9
$TILEMODE
 70
     1
  9
$MAXACTVP
 70
    64
  9
$PINSBASE
 10
0.0
 20
0.0
 30
0.0
  9
$PLIMCHECK
 70
     0
  9
$PEXTMIN
 10
1.000000000000000E+20
 20
1.000000000000000E+20
 30
1.000000000000000E+20
  9
$PEXTMAX
 10
-1.000000000000000E+20
 20
-1.000000000000000E+20
 30
-1.000000000000000E+20
  9
$PLIMMIN
 10
0.0
 20
0.0
  9
$PLIMMAX
 10
0.0
 20
0.0
  9
$UNITMODE
 70
     0
  9
$VISRETAIN
 70
     1
  9
$PLINEGEN
 70
     0
  9
$PSLTSCALE
 70
     1
  9
$TREEDEPTH
 70
  3020
  9
$CMLSTYLE
  2
Standard
  9
$CMLJUST
 70
     0
  9
$CMLSCALE
 40
20.0
  9
$PROXYGRAPHICS
 70
     1
  9
$MEASUREMENT
 70
     1
  9
$CELWEIGHT
370
    -1
  9
$ENDCAPS
280
     0
  9
$JOINSTYLE
280
     0
  9
$LWDISPLAY
290
     1
  9
$INSUNITS
 70
     4
  9
$HYPERLINKBASE
  1

  9
$STYLESHEET
  1

  9
$XEDIT
290
     1
  9
$CEPSNTYPE
380
     0
  9
$PSTYLEMODE
290
     1
  9
$FINGERPRINTGUID
  2
{1A6A1EE9-921D-4A5C-A70C-D96141007529}
  9
$VERSIONGUID
  2
{FAEB1C32-E019-11D5-929B-00C0DF256EC4}
  9
$EXTNAMES
290
     1
  9
$PSVPSCALE
 40
0.0
  9
$OLESTARTUP
290
     0
  0
ENDSEC
  0
SECTION
  2
CLASSES
  0
CLASS
  1
ACDBDICTIONARYWDFLT
  2
AcDbDictionaryWithDefault
  3
ObjectDBX Classes
 90
        0
280
     0
281
     0
  0
CLASS
  1
VISUALSTYLE
  2
AcDbVisualStyle
  3
ObjectDBX Classes
 90
     4095
280
     0
281
     0
  0
CLASS
  1
MATERIAL
  2
AcDbMaterial
  3
ObjectDBX Classes
 90
     1153
280
     0
281
     0
  0
CLASS
  1
SCALE
  2
AcDbScale
  3
ObjectDBX Classes
 90
     1153
280
     0
281
     0
  0
CLASS
  1
SUN
  2
AcDbSun
  3
SCENEOE
 90
     1153
280
     0
281
     0
  0
CLASS
  1
ACDBPLACEHOLDER
  2
AcDbPlaceHolder
  3
ObjectDBX Classes
 90
        0
280
     0
281
     0
  0
CLASS
  1
LAYOUT
  2
AcDbLayout
  3
ObjectDBX Classes
 90
        0
280
     0
281
     0
  0
CLASS
  1
TABLESTYLE
  2
AcDbTableStyle
  3
ObjectDBX Classes
 90
     4095
280
     0
281
     0
  0
CLASS
  1
MLEADERSTYLE
  2
AcDbMLeaderStyle
  3
ACDB_MLEADERSTYLE_CLASS
 90
     4095
280
     0
281
     0
  0
CLASS
  1
RASTERVARIABLES
  2
AcDbRasterVariables
  3
ISM
 90
        0
280
     0
281
     0
  0
CLASS
  1
DICTIONARYVAR
  2
AcDbDictionaryVar
  3
ObjectDBX Classes
 90
        0
280
     0
281
     0
  0
ENDSEC
  0
SECTION
  2
TABLES
  0
TABLE
  2
VPORT
  5
8
330
0
100
AcDbSymbolTable
 70
     1
  0
VPORT
  5
29
330
8
100
AcDbSymbolTableRecord
100
AcDbViewportTableRecord
  2
*Active
 70
     0
 10
0.0
 20
0.0
 11
1.0
 21
1.0
 12
-2.044640145392464
 22
-3.19169873702851
 13
0.0
 23
0.0
 14
10.0
 24
10.0
 15
10.0
 25
10.0
 16
0.0
 26
0.0
 36
1.0
 17
0.0
 27
0.0
 37
0.0
 40
102.0227426284772
 41
1.925764192139738
 42
50.0
 43
0.0
 44
0.0
 50
0.0
 51
0.0
 71
    16
 72
  2000
 73
     1
 74
     3
 75
     0
 76
     0
 77
     0
 78
     0
281
     0
 65
     1
110
0.0
120
0.0
130
0.0
111
1.0
121
0.0
131
0.0
112
0.0
122
1.0
132
0.0
 79
     0
146
0.0
  0
ENDTAB
  0
TABLE
  2
LTYPE
  5
5
330
0
100
AcDbSymbolTable
 70
     6
  0
LTYPE
  5
14
330
5
100
AcDbSymbolTableRecord
100
AcDbLinetypeTableRecord
  2
ByBlock
 70
     0
  3

 72
    65
 73
     0
 40
0.0
  0
LTYPE
  5
15
330
5
100
AcDbSymbolTableRecord
100
AcDbLinetypeTableRecord
  2
ByLayer
 70
     0
  3

 72
    65
 73
     0
 40
0.0
  0
LTYPE
  5
16
330
5
100
AcDbSymbolTableRecord
100
AcDbLinetypeTableRecord
  2
Continuous
 70
     0
  3
Solid line
 72
    65
 73
     0
 40
0.0
  0
LTYPE
  5
6A
330
5
100
AcDbSymbolTableRecord
100
AcDbLinetypeTableRecord
  2
HIDDEN
 70
     0
  3
Hidden __ __ __ __ __ __ __ __ __ __ __ __ __ __
 72
    65
 73
     2
 40
1.905
 49
1.27
 74
     0
 49
-0.635
 74
     0
  0
LTYPE
  5
6B
330
5
100
AcDbSymbolTableRecord
100
AcDbLinetypeTableRecord
  2
PHANTOM
 70
     0
  3
Phantom ______  __  __  ______  __  __  ______
 72
    65
 73
     6
 40
12.7
 49
6.35
 74
     0
 49
-1.27
 74
     0
 49
1.27
 74
     0
 49
-1.27
 74
     0
 49
1.27
 74
     0
 49
-1.27
 74
     0
  0
LTYPE
  5
6C
330
5
100
AcDbSymbolTableRecord
100
AcDbLinetypeTableRecord
  2
CENTER
 70
     0
  3
Center ____ _ ____ _ ____ _ ____ _ ____ _ ____
 72
    65
 73
     4
 40
10.16
 49
6.35
 74
     0
 49
-1.27
 74
     0
 49
1.27
 74
     0
 49
-1.27
 74
     0
  0
LTYPE
  5
6D
330
5
100
AcDbSymbolTableRecord
100
AcDbLinetypeTableRecord
  2
CENTERX2
 70
     0
  3
Center (2x) ________  __  ________  __  _____
 72
    65
 73
     4
 40
20.32
 49
12.7
 74
     0
 49
-2.54
 74
     0
 49
2.54
 74
     0
 49
-2.54
 74
     0
  0
LTYPE
  5
6E
330
5
100
AcDbSymbolTableRecord
100
AcDbLinetypeTableRecord
  2
DOT2
 70
     0
  3
Dot (.5x) ........................................
 72
    65
 73
     2
 40
0.635
 49
0.0
 74
     0
 49
-0.635
 74
     0
  0
ENDTAB
  0
TABLE
  2
LAYER
  5
2
330
0
100
AcDbSymbolTable
 70
    18
  0
LAYER
  5
10
330
2
100
AcDbSymbolTableRecord
100
AcDbLayerTableRecord
  2
0
 70
     0
 62
     7
  6
Continuous
370
    -3
390
F
  0
LAYER
  5
6F
330
2
100
AcDbSymbolTableRecord
100
AcDbLayerTableRecord
  2
FORMAT
 70
     0
 62
     2
  6
Continuous
370
    -3
390
F
  0
LAYER
  5
70
330
2
100
AcDbSymbolTableRecord
100
AcDbLayerTableRecord
  2
외형선
 70
     0
 62
     4
  6
Continuous
370
    30
390
F
  0
LAYER
  5
71
330
2
100
AcDbSymbolTableRecord
100
AcDbLayerTableRecord
  2
숨은선
 70
     0
 62
     2
  6
HIDDEN
370
    15
390
F
  0
LAYER
  5
72
330
2
100
AcDbSymbolTableRecord
100
AcDbLayerTableRecord
  2
중심선
 70
     0
 62
     1
  6
CENTERX2
370
    -3
390
F
  0
LAYER
  5
73
330
2
100
AcDbSymbolTableRecord
100
AcDbLayerTableRecord
  2
파단선
 70
     0
 62
     4
  6
Continuous
370
    -3
390
F
  0
LAYER
  5
74
330
2
100
AcDbSymbolTableRecord
100
AcDbLayerTableRecord
  2
해칭선
 70
     0
 62
   100
  6
Continuous
370
    -3
390
F
  0
LAYER
  5
75
330
2
100
AcDbSymbolTableRecord
100
AcDbLayerTableRecord
  2
가는실선
 70
     0
 62
     4
  6
Continuous
370
    -3
390
F
  0
LAYER
  5
76
330
2
100
AcDbSymbolTableRecord
100
AcDbLayerTableRecord
  2
치수_보조선
 70
     0
 62
     4
  6
Continuous
370
    -3
390
F
  0
LAYER
  5
77
330
2
100
AcDbSymbolTableRecord
100
AcDbLayerTableRecord
  2
치수문자_일반주서
 70
     0
 62
     7
  6
Continuous
370
    15
390
F
  0
LAYER
  5
78
330
2
100
AcDbSymbolTableRecord
100
AcDbLayerTableRecord
  2
개별주서
 70
     0
 62
   100
  6
Continuous
370
    30
390
F
  0
LAYER
  5
79
330
2
100
AcDbSymbolTableRecord
100
AcDbLayerTableRecord
  2
중간선
 70
     0
 62
     2
  6
Continuous
370
    15
390
F
  0
LAYER
  5
7A
330
2
100
AcDbSymbolTableRecord
100
AcDbLayerTableRecord
  2
윤곽선
 70
     0
 62
     3
  6
Continuous
370
    40
390
F
  0
LAYER
  5
7B
330
2
100
AcDbSymbolTableRecord
100
AcDbLayerTableRecord
  2
중심마크
 70
     0
 62
   100
  6
Continuous
370
    30
390
F
  0
LAYER
  5
7C
330
2
100
AcDbSymbolTableRecord
100
AcDbLayerTableRecord
  2
가상선
 70
     0
 62
     4
  6
PHANTOM
370
    -3
390
F
  0
LAYER
  5
7D
330
2
100
AcDbSymbolTableRecord
100
AcDbLayerTableRecord
  2
특수지정선
 70
     0
 62
     5
  6
CENTERX2
370
    60
390
F
  0
LAYER
  5
7E
330
2
100
AcDbSymbolTableRecord
100
AcDbLayerTableRecord
  2
참조1
 70
     0
 62
    -4
  6
Continuous
370
    -3
390
F
  0
LAYER
  5
227
330
2
100
AcDbSymbolTableRecord
100
AcDbLayerTableRecord
  2
Defpoints
 70
     0
 62
     7
  6
Continuous
290
     0
370
    -3
390
F
  0
ENDTAB
  0
TABLE
  2
STYLE
  5
3
330
0
100
AcDbSymbolTable
 70
     2
  0
STYLE
  5
11
330
3
100
AcDbSymbolTableRecord
100
AcDbTextStyleTableRecord
  2
Standard
 70
     0
 40
0.0
 41
1.0
 50
0.0
 71
     0
 42
3.5
  3
txt
  4

  0
STYLE
  5
94
330
3
100
AcDbSymbolTableRecord
100
AcDbTextStyleTableRecord
  2
SLDTEXTSTYLE0
 70
     0
 40
0.0
 41
0.75
 50
0.0
 71
     0
 42
3.5
  3
TXT
  4

  0
ENDTAB
  0
TABLE
  2
VIEW
  5
6
330
0
100
AcDbSymbolTable
 70
     0
  0
ENDTAB
  0
TABLE
  2
UCS
  5
7
330
0
100
AcDbSymbolTable
 70
     0
  0
ENDTAB
  0
TABLE
  2
APPID
  5
9
330
0
100
AcDbSymbolTable
 70
     2
  0
APPID
  5
12
330
9
100
AcDbSymbolTableRecord
100
AcDbRegAppTableRecord
  2
ACAD
 70
     0
  0
APPID
  5
24C
330
9
100
AcDbSymbolTableRecord
100
AcDbRegAppTableRecord
  2
PE_URL
 70
     0
  0
ENDTAB
  0
TABLE
  2
DIMSTYLE
  5
A
330
0
100
AcDbSymbolTable
 70
     4
100
AcDbDimStyleTable
  0
DIMSTYLE
105
27
330
A
100
AcDbSymbolTableRecord
100
AcDbDimStyleTableRecord
  2
ISO-25
 70
     0
 41
2.5
 42
0.625
 43
3.75
 44
1.25
 73
     0
 74
     0
 77
     1
 78
     8
140
2.5
141
2.5
143
0.03937007874016
147
0.625
171
     3
172
     1
178
     0
271
     2
272
     2
274
     3
278
    44
283
     0
284
     8
340
11
  0
DIMSTYLE
105
1A6
102
{ACAD_REACTORS
330
1CD
102
}
330
A
100
AcDbSymbolTableRecord
100
AcDbDimStyleTableRecord
  2
SLDDIMSTYLE0
 70
     0
 41
3.302
 44
0.0
 45
0.000000001
 73
     0
 74
     0
 77
     1
 78
    12
 79
     3
140
3.5
143
0.0393700787401575
147
0.875
148
0.000000001
170
     1
173
     1
178
     0
271
     2
272
     2
276
     2
284
    12
340
94
  0
DIMSTYLE
105
1B9
102
{ACAD_REACTORS
330
1B8
330
1A5
102
}
330
A
100
AcDbSymbolTableRecord
100
AcDbDimStyleTableRecord
  2
SLDDIMSTYLE1
 70
     0
 41
3.302
 44
0.0
 45
0.000000001
 73
     0
 74
     0
 77
     1
 78
    12
 79
     3
140
3.5
143
0.0393700787401575
147
0.875
148
0.000000001
170
     1
172
     1
173
     1
178
     0
271
     2
272
     2
276
     2
284
    12
289
     0
340
94
  0
DIMSTYLE
105
1E2
102
{ACAD_REACTORS
330
1E1
102
}
330
A
100
AcDbSymbolTableRecord
100
AcDbDimStyleTableRecord
  2
SLDDIMSTYLE2
 70
     0
 41
3.302
 44
0.0
 45
0.000000001
 73
     0
 74
     0
 77
     1
 78
     4
 79
     1
140
3.5
143
0.0393700787401575
147
0.875
148
0.000000001
170
     1
173
     1
178
     0
271
     2
272
     2
276
     2
284
    12
340
94
  0
ENDTAB
  0
TABLE
  2
BLOCK_RECORD
  5
1
330
0
100
AcDbSymbolTable
 70
     7
  0
BLOCK_RECORD
  5
1F
102
{ACAD_XDICTIONARY
360
257
102
}
330
1
100
AcDbSymbolTableRecord
100
AcDbBlockTableRecord
  2
*Model_Space
340
22
  0
BLOCK_RECORD
  5
1B
330
1
100
AcDbSymbolTableRecord
100
AcDbBlockTableRecord
  2
*Paper_Space
340
1E
  0
BLOCK_RECORD
  5
23
330
1
100
AcDbSymbolTableRecord
100
AcDbBlockTableRecord
  2
*Paper_Space0
340
26
  0
BLOCK_RECORD
  5
7F
330
1
100
AcDbSymbolTableRecord
100
AcDbBlockTableRecord
  2
블럭10
340
0
102
{BLKREFS
331
19D
102
}
  0
BLOCK_RECORD
  5
1A7
330
1
100
AcDbSymbolTableRecord
100
AcDbBlockTableRecord
  2
_D
340
0
  0
BLOCK_RECORD
  5
1BA
330
1
100
AcDbSymbolTableRecord
100
AcDbBlockTableRecord
  2
_D_1
340
0
  0
BLOCK_RECORD
  5
1CE
330
1
100
AcDbSymbolTableRecord
100
AcDbBlockTableRecord
  2
_D_2
340
0
  0
BLOCK_RECORD
  5
1E3
330
1
100
AcDbSymbolTableRecord
100
AcDbBlockTableRecord
  2
_D_3
340
0
  0
BLOCK_RECORD
  5
1FC
330
1
100
AcDbSymbolTableRecord
100
AcDbBlockTableRecord
  2
SW_DOWELSYMBOL_0
340
0
102
{BLKREFS
331
202
102
}
  0
ENDTAB
  0
ENDSEC
  0
SECTION
  2
BLOCKS
  0
BLOCK
  5
20
330
1F
100
AcDbEntity
  8
0
100
AcDbBlockBegin
  2
*Model_Space
 70
     0
 10
0.0
 20
0.0
 30
0.0
  3
*Model_Space
  1
*Model_Space
  0
ENDBLK
  5
21
330
1F
100
AcDbEntity
  8
0
100
AcDbBlockEnd
  0
BLOCK
  5
1C
330
1B
100
AcDbEntity
 67
     1
  8
0
100
AcDbBlockBegin
  2
*Paper_Space
 70
     0
 10
0.0
 20
0.0
 30
0.0
  3
*Paper_Space
  1
*Paper_Space
  0
ENDBLK
  5
1D
330
1B
100
AcDbEntity
 67
     1
  8
0
100
AcDbBlockEnd
  0
BLOCK
  5
24
330
23
100
AcDbEntity
  8
0
100
AcDbBlockBegin
  2
*Paper_Space0
 70
     0
 10
0.0
 20
0.0
 30
0.0
  3
*Paper_Space0
  1
*Paper_Space0
  0
ENDBLK
  5
25
330
23
100
AcDbEntity
  8
0
100
AcDbBlockEnd
  0
BLOCK
  5
80
330
7F
100
AcDbEntity
  8
0
100
AcDbBlockBegin
  2
블럭10
 70
     2
 10
0.0
 20
0.0
 30
0.0
  3
블럭10
  1
블럭10
  0
ELLIPSE
  5
82
330
7F
100
AcDbEntity
  8
중심선
100
AcDbEllipse
 10
20.54032771741204
 20
12.0471743016438
 30
0.0
 11
6.600054785286829
 21
-1.261213355974178E-13
 31
0.0
210
0.0
220
0.0
230
1.0
 40
0.636358354079598
 41
0.9219305317359503
 42
6.513795318482858
  0
ELLIPSE
  5
83
330
7F
100
AcDbEntity
  8
중심선
100
AcDbEllipse
 10
20.54032771746488
 20
12.04717430159265
 30
0.0
 11
3.960054785062283
 21
1.540847449632565E-10
 31
0.0
210
0.0
220
0.0
230
1.0
 40
0.3939339440162632
 41
1.131841032648279
 42
5.62031148352944
  0
LINE
  5
84
330
7F
100
AcDbEntity
  8
중심선
100
AcDbLine
 10
2.268634060543552
 20
16.24717430164393
 30
0.0
 11
5.714909304380834
 21
16.24717430164393
 31
0.0
  0
LINE
  5
85
330
7F
100
AcDbEntity
  8
중심선
100
AcDbLine
 10
5.245725140726316
 20
7.84717430164391
 30
0.0
 11
8.692000384563599
 21
7.84717430164391
 31
0.0
  0
LINE
  5
86
330
7F
100
AcDbEntity
  8
중심선
100
AcDbLine
 10
15.74043728645272
 20
16.24717430164393
 30
0.0
 11
8.692000384563599
 21
7.84717430164391
 31
0.0
  0
LINE
  5
87
330
7F
100
AcDbEntity
  8
중심선
100
AcDbLine
 10
0.1404042013395286
 20
13.71084872107135
 30
0.0
 11
3.58671253028996
 21
13.71088815037384
 31
0.0
  0
LINE
  5
88
330
7F
100
AcDbEntity
  8
중심선
100
AcDbLine
 10
2.750260043222114
 20
10.84717430164391
 30
0.0
 11
6.196535287059397
 21
10.84717430164391
 31
0.0
  0
LINE
  5
89
330
7F
100
AcDbEntity
  8
중심선
100
AcDbLine
 10
12.29416204261559
 20
16.24717430164393
 30
0.0
 11
5.245725140726316
 21
7.84717430164391
 31
0.0
  0
LINE
  5
8A
330
7F
100
AcDbEntity
  8
중심선
100
AcDbLine
 10
10.72767329541681
 20
16.24717430164393
 30
0.0
 11
6.196535287059397
 21
10.84717430164391
 31
0.0
  0
LINE
  5
8B
330
7F
100
AcDbEntity
  8
중심선
100
AcDbLine
 10
7.28139805157953
 20
16.24717430164393
 30
0.0
 11
2.750260043222114
 21
10.84717430164391
 31
0.0
  0
LINE
  5
8C
330
7F
100
AcDbEntity
  8
중심선
100
AcDbLine
 10
5.714909304380834
 20
16.24717430164393
 30
0.0
 11
3.58671253028996
 21
13.71088815037384
 31
0.0
  0
LINE
  5
8D
330
7F
100
AcDbEntity
  8
중심선
100
AcDbLine
 10
2.268634060543552
 20
16.24717430164393
 30
0.0
 11
0.1404042013395286
 21
13.71084872107135
 31
0.0
  0
LINE
  5
8E
330
7F
100
AcDbEntity
  8
중심선
100
AcDbLine
 10
7.28139805157953
 20
16.24717430164393
 30
0.0
 11
10.72767329541681
 21
16.24717430164393
 31
0.0
  0
LINE
  5
8F
330
7F
100
AcDbEntity
  8
중심선
100
AcDbLine
 10
12.29416204261559
 20
16.24717430164393
 30
0.0
 11
15.74043728645272
 21
16.24717430164393
 31
0.0
  0
LINE
  5
90
330
7F
100
AcDbEntity
  8
중심선
100
AcDbLine
 10
19.22036997980202
 20
11.08717430171403
 30
0.0
 11
23.66174974927406
 21
11.08717430171406
 31
0.0
  0
LINE
  5
91
330
7F
100
AcDbEntity
  8
중심선
100
AcDbLine
 10
19.22039502424796
 20
13.00717430171391
 30
0.0
 11
19.22036997980202
 21
11.08717430171403
 31
0.0
  0
LINE
  5
92
330
7F
100
AcDbEntity
  8
중심선
100
AcDbLine
 10
19.22039502424796
 20
13.00717430171391
 30
0.0
 11
26.96566020931264
 21
13.00717430171391
 31
0.0
  0
LINE
  5
93
330
7F
100
AcDbEntity
  8
중심선
100
AcDbLine
 10
22.22332737316547
 20
13.45928029700563
 30
0.0
 11
24.52862924686651
 21
15.39360700705356
 31
0.0
  0
ATTDEF
  5
95
330
7F
100
AcDbEntity
  8
FORMAT
 62
     2
100
AcDbText
 10
-10.14163601213663
 20
2.075366912832191
 30
0.0
 40
4.233333333333333
  1
EM156020 [ 3 FLUTE ]
 41
0.75
  7
SLDTEXTSTYLE0
 11
-10.14163601213663
 21
-0.0412997538344756
 31
0.0
100
AcDbAttributeDefinition
  3

  2
AUTOATTR0
 70
     0
 74
     1
  0
ENDBLK
  5
81
330
7F
100
AcDbEntity
  8
0
100
AcDbBlockEnd
  0
BLOCK
  5
1A8
330
1A7
100
AcDbEntity
  8
0
100
AcDbBlockBegin
  2
_D
 70
     0
 10
0.0
 20
0.0
 30
0.0
  3
_D
  1
_D
  0
LINE
  5
1AA
330
1A7
100
AcDbEntity
  8
치수문자_일반주서
 62
     0
370
    -2
100
AcDbLine
 10
10.06154884995337
 20
3.977976215350166
 30
0.0
 11
46.31905889570022
 21
3.977976215350299
 31
0.0
  0
LINE
  5
1AB
330
1A7
100
AcDbEntity
  8
치수문자_일반주서
 62
     0
370
    -2
100
AcDbLine
 10
21.11205612294135
 20
-3.95952378464984
 30
0.0
 11
46.31905889570025
 21
-3.959523784649743
 31
0.0
  0
LINE
  5
1AC
330
1A7
100
AcDbEntity
  8
치수문자_일반주서
 62
     0
370
    -2
100
AcDbLine
 10
46.31905889570022
 20
3.977976215350299
 30
0.0
 11
46.3190588957001
 21
38.58197621535029
 31
0.0
  0
LINE
  5
1AD
330
1A7
100
AcDbEntity
  8
치수문자_일반주서
 62
     0
370
    -2
100
AcDbLine
 10
46.31905889570022
 20
3.977976215350299
 30
0.0
 11
46.31905889570025
 21
-3.959523784649743
 31
0.0
  0
LINE
  5
1AE
330
1A7
100
AcDbEntity
  8
치수문자_일반주서
 62
     0
370
    -2
100
AcDbLine
 10
46.31905889570021
 20
7.279976215350299
 30
0.0
 11
46.31905889570019
 21
10.5819762153503
 31
0.0
  0
LINE
  5
1AF
330
1A7
100
AcDbEntity
  8
치수문자_일반주서
 62
     0
370
    -2
100
AcDbLine
 10
46.31905889570027
 20
-7.261523784649743
 30
0.0
 11
46.31905889570028
 21
-10.56352378464974
 31
0.0
  0
SOLID
  5
1B0
330
1A7
100
AcDbEntity
  8
치수문자_일반주서
 62
     0
100
AcDbTrace
 10
45.76872556236687
 20
7.279976215350297
 30
0.0
 11
46.86939222903354
 21
7.279976215350301
 31
0.0
 12
46.31905889570022
 22
3.977976215350299
 32
0.0
 13
46.31905889570022
 23
3.977976215350299
 33
0.0
  0
SOLID
  5
1B1
330
1A7
100
AcDbEntity
  8
치수문자_일반주서
 62
     0
100
AcDbTrace
 10
46.8693922290336
 20
-7.261523784649741
 30
0.0
 11
45.76872556236693
 21
-7.261523784649745
 31
0.0
 12
46.31905889570025
 22
-3.959523784649743
 32
0.0
 13
46.31905889570025
 23
-3.959523784649743
 33
0.0
  0
MTEXT
  5
1B2
330
1A7
100
AcDbEntity
  8
치수문자_일반주서
 62
     0
100
AcDbMText
 10
41.94405889570015
 20
24.58197621535028
 30
0.0
 40
3.5
 41
0.0
 71
     2
 72
     1
  1
\A1;%%c7.94 [5/16]
  7
SLDTEXTSTYLE0
 11
-3.580687802255602E-15
 21
1.0
 31
0.0
 73
     1
 44
1.0
  0
POINT
  5
1B3
330
1A7
100
AcDbEntity
  8
Defpoints
 62
     0
100
AcDbPoint
 10
9.999048849953374
 20
3.977976215350165
 30
0.0
  0
POINT
  5
1B4
330
1A7
100
AcDbEntity
  8
Defpoints
 62
     0
100
AcDbPoint
 10
21.04955612294135
 20
-3.95952378464984
 30
0.0
  0
POINT
  5
24D
330
1A7
100
AcDbEntity
  8
Defpoints
 62
     0
100
AcDbPoint
 10
46.31905889570025
 20
-3.959523784649746
 30
0.0
  0
ENDBLK
  5
1A9
330
1A7
100
AcDbEntity
  8
0
100
AcDbBlockEnd
  0
BLOCK
  5
1BB
330
1BA
100
AcDbEntity
  8
0
100
AcDbBlockBegin
  2
_D_1
 70
     0
 10
0.0
 20
0.0
 30
0.0
  3
_D_1
  1
_D_1
  0
LINE
  5
1BD
330
1BA
100
AcDbEntity
  8
치수문자_일반주서
 62
     0
370
    -2
100
AcDbLine
 10
-33.70345115004665
 20
3.977976215350153
 30
0.0
 11
-44.45095115004669
 21
3.977976215350113
 31
0.0
  0
LINE
  5
1BE
330
1BA
100
AcDbEntity
  8
치수문자_일반주서
 62
     0
370
    -2
100
AcDbLine
 10
-33.70345115004665
 20
-3.959523784649833
 30
0.0
 11
-44.45095115004666
 21
-3.959523784649873
 31
0.0
  0
LINE
  5
1BF
330
1BA
100
AcDbEntity
  8
치수문자_일반주서
 62
     0
370
    -2
100
AcDbLine
 10
-44.45095115004668
 20
0.6759762153501132
 30
0.0
 11
-44.45095115004668
 21
-0.6575237846498729
 31
0.0
  0
SOLID
  5
1C0
330
1BA
100
AcDbEntity
  8
치수문자_일반주서
 62
     0
100
AcDbTrace
 10
-43.90061781671334
 20
0.6759762153501152
 30
0.0
 11
-45.00128448338001
 21
0.6759762153501112
 31
0.0
 12
-44.45095115004669
 22
3.977976215350113
 32
0.0
 13
-44.45095115004669
 23
3.977976215350113
 33
0.0
  0
SOLID
  5
1C1
330
1BA
100
AcDbEntity
  8
치수문자_일반주서
 62
     0
100
AcDbTrace
 10
-45.00128448338001
 20
-0.6575237846498749
 30
0.0
 11
-43.90061781671334
 21
-0.6575237846498709
 31
0.0
 12
-44.45095115004666
 22
-3.959523784649873
 32
0.0
 13
-44.45095115004666
 23
-3.959523784649873
 33
0.0
  0
MTEXT
  5
1C2
330
1BA
100
AcDbEntity
  8
치수문자_일반주서
 62
     0
100
AcDbMText
 10
-48.82595115004668
 20
-0.6266140019127491
 30
0.0
 40
3.5
 41
0.0
 71
     2
 72
     1
  1
\A1;%%c7.94 [5/16]
  7
SLDTEXTSTYLE0
 11
-3.580687802255629E-15
 21
1.0
 31
0.0
 73
     1
 44
1.0
  0
POINT
  5
1C3
330
1BA
100
AcDbEntity
  8
Defpoints
 62
     0
100
AcDbPoint
 10
-33.64095115004665
 20
3.977976215350153
 30
0.0
  0
POINT
  5
1C4
330
1BA
100
AcDbEntity
  8
Defpoints
 62
     0
100
AcDbPoint
 10
-33.64095115004665
 20
-3.959523784649833
 30
0.0
  0
POINT
  5
1C5
330
1BA
100
AcDbEntity
  8
Defpoints
 62
     0
100
AcDbPoint
 10
-44.45095115004666
 20
-3.959523784649873
 30
0.0
  0
ENDBLK
  5
1BC
330
1BA
100
AcDbEntity
  8
0
100
AcDbBlockEnd
  0
BLOCK
  5
1CF
330
1CE
100
AcDbEntity
  8
0
100
AcDbBlockBegin
  2
_D_2
 70
     0
 10
0.0
 20
0.0
 30
0.0
  3
_D_2
  1
_D_2
  0
LINE
  5
1D1
330
1CE
100
AcDbEntity
  8
치수문자_일반주서
 62
     0
370
    -2
100
AcDbLine
 10
29.04904884995336
 20
2.641507574843286
 30
0.0
 11
29.04904884995337
 21
19.90672273747143
 31
0.0
  0
LINE
  5
1D2
330
1CE
100
AcDbEntity
  8
치수문자_일반주서
 62
     0
370
    -2
100
AcDbLine
 10
9.99904884995336
 20
4.04047621535016
 30
0.0
 11
9.999048849953363
 21
19.90672273747143
 31
0.0
  0
LINE
  5
1D3
330
1CE
100
AcDbEntity
  8
치수문자_일반주서
 62
     0
370
    -2
100
AcDbLine
 10
25.74704884995337
 20
19.90672273747143
 30
0.0
 11
13.30104884995336
 21
19.90672273747143
 31
0.0
  0
SOLID
  5
1D4
330
1CE
100
AcDbEntity
  8
치수문자_일반주서
 62
     0
100
AcDbTrace
 10
25.74704884995337
 20
19.3563894041381
 30
0.0
 11
25.74704884995337
 21
20.45705607080476
 31
0.0
 12
29.04904884995337
 22
19.90672273747143
 32
0.0
 13
29.04904884995337
 23
19.90672273747143
 33
0.0
  0
SOLID
  5
1D5
330
1CE
100
AcDbEntity
  8
치수문자_일반주서
 62
     0
100
AcDbTrace
 10
13.30104884995336
 20
20.45705607080476
 30
0.0
 11
13.30104884995336
 21
19.3563894041381
 31
0.0
 12
9.999048849953363
 22
19.90672273747143
 32
0.0
 13
9.999048849953363
 23
19.90672273747143
 33
0.0
  0
MTEXT
  5
1D6
330
1CE
100
AcDbEntity
  8
치수문자_일반주서
 62
     0
100
AcDbMText
 10
19.52404884995335
 20
24.28172273747143
 30
0.0
 40
3.5
 41
0.0
 71
     2
 72
     1
  1
\A1;19.05 [3/4]
  7
SLDTEXTSTYLE0
 73
     1
 44
1.0
  0
POINT
  5
1D7
330
1CE
100
AcDbEntity
  8
Defpoints
 62
     0
100
AcDbPoint
 10
29.04904884995336
 20
2.579007574843286
 30
0.0
  0
POINT
  5
1D8
330
1CE
100
AcDbEntity
  8
Defpoints
 62
     0
100
AcDbPoint
 10
9.99904884995336
 20
3.97797621535016
 30
0.0
  0
POINT
  5
1D9
330
1CE
100
AcDbEntity
  8
Defpoints
 62
     0
100
AcDbPoint
 10
9.99904884995336
 20
19.90672273747143
 30
0.0
  0
ENDBLK
  5
1D0
330
1CE
100
AcDbEntity
  8
0
100
AcDbBlockEnd
  0
BLOCK
  5
1E4
330
1E3
100
AcDbEntity
  8
0
100
AcDbBlockBegin
  2
_D_3
 70
     0
 10
0.0
 20
0.0
 30
0.0
  3
_D_3
  1
_D_3
  0
LINE
  5
1E6
330
1E3
100
AcDbEntity
  8
치수문자_일반주서
 62
     0
370
    -2
100
AcDbLine
 10
29.04904884995336
 20
2.898416393857842
 30
0.0
 11
29.04904884995336
 21
36.83329655748183
 31
0.0
  0
LINE
  5
1E7
330
1E3
100
AcDbEntity
  8
치수문자_일반주서
 62
     0
370
    -2
100
AcDbLine
 10
-34.45095115004665
 20
3.230476215350155
 30
0.0
 11
-34.45095115004665
 21
36.83329655748183
 31
0.0
  0
LINE
  5
1E8
330
1E3
100
AcDbEntity
  8
치수문자_일반주서
 62
     0
370
    -2
100
AcDbLine
 10
25.74704884995336
 20
36.83329655748183
 30
0.0
 11
-31.14895115004665
 21
36.83329655748183
 31
0.0
  0
SOLID
  5
1E9
330
1E3
100
AcDbEntity
  8
치수문자_일반주서
 62
     0
100
AcDbTrace
 10
25.74704884995336
 20
36.2829632241485
 30
0.0
 11
25.74704884995336
 21
37.38362989081516
 31
0.0
 12
29.04904884995336
 22
36.83329655748183
 32
0.0
 13
29.04904884995336
 23
36.83329655748183
 33
0.0
  0
SOLID
  5
1EA
330
1E3
100
AcDbEntity
  8
치수문자_일반주서
 62
     0
100
AcDbTrace
 10
-31.14895115004665
 20
37.38362989081516
 30
0.0
 11
-31.14895115004665
 21
36.2829632241485
 31
0.0
 12
-34.45095115004665
 22
36.83329655748183
 32
0.0
 13
-34.45095115004665
 23
36.83329655748183
 33
0.0
  0
MTEXT
  5
1EB
330
1E3
100
AcDbEntity
  8
치수문자_일반주서
 62
     0
100
AcDbMText
 10
0.0753355756508669
 20
41.20829655748183
 30
0.0
 40
3.5
 41
0.0
 71
     2
 72
     1
  1
\A1;63.50 [2 1/2]
  7
SLDTEXTSTYLE0
 73
     1
 44
1.0
  0
POINT
  5
1EC
330
1E3
100
AcDbEntity
  8
Defpoints
 62
     0
100
AcDbPoint
 10
29.04904884995336
 20
2.835916393857842
 30
0.0
  0
POINT
  5
1ED
330
1E3
100
AcDbEntity
  8
Defpoints
 62
     0
100
AcDbPoint
 10
-34.45095115004665
 20
3.167976215350155
 30
0.0
  0
POINT
  5
1EE
330
1E3
100
AcDbEntity
  8
Defpoints
 62
     0
100
AcDbPoint
 10
-34.45095115004665
 20
36.83329655748183
 30
0.0
  0
ENDBLK
  5
1E5
330
1E3
100
AcDbEntity
  8
0
100
AcDbBlockEnd
  0
BLOCK
  5
1FD
330
1FC
100
AcDbEntity
  8
0
100
AcDbBlockBegin
  2
SW_DOWELSYMBOL_0
 70
     0
 10
0.0
 20
0.0
 30
0.0
  3
SW_DOWELSYMBOL_0
  1
SW_DOWELSYMBOL_0
  0
CIRCLE
  5
1FF
330
1FC
100
AcDbEntity
  8
해칭선
 62
     0
100
AcDbCircle
 10
0.0
 20
0.0
 30
0.0
 40
3.000000000000004
  0
HATCH
  5
200
330
1FC
100
AcDbEntity
  8
0
  6
Continuous
 62
     0
370
     0
100
AcDbHatch
 10
0.0
 20
0.0
 30
0.0
210
0.0
220
0.0
230
1.0
  2
SOLID
 70
     1
 71
     0
 91
        1
 92
        0
 93
        3
 72
     2
 10
0.0000000000000104
 20
-0.0000000000000035
 40
3.000000000000004
 50
0.0
 51
90.0
 73
     1
 72
     1
 10
0.0000000000000104
 20
3.000000000000001
 11
0.0000000000000104
 21
-0.0000000000000036
 72
     1
 10
0.0000000000000104
 20
-0.0000000000000035
 11
3.000000000000015
 21
-0.0000000000000035
 97
        0
 75
     0
 76
     1
 98
        1
 10
0.0
 20
0.0
  0
HATCH
  5
201
330
1FC
100
AcDbEntity
  8
0
  6
Continuous
 62
     0
370
     0
100
AcDbHatch
 10
0.0
 20
0.0
 30
0.0
210
0.0
220
0.0
230
1.0
  2
SOLID
 70
     1
 71
     0
 91
        1
 92
        0
 93
        3
 72
     2
 10
0.0000000000000104
 20
-0.0000000000000035
 40
3.000000000000004
 50
180.0
 51
270.0000000000007
 73
     1
 72
     1
 10
0.0000000000000104
 20
-3.000000000000008
 11
0.0000000000000104
 21
-0.0000000000000036
 72
     1
 10
0.0000000000000104
 20
-0.0000000000000035
 11
-2.999999999999994
 21
-0.0000000000000035
 97
        0
 75
     0
 76
     1
 98
        1
 10
0.0
 20
0.0
  0
ENDBLK
  5
1FE
330
1FC
100
AcDbEntity
  8
0
100
AcDbBlockEnd
  0
ENDSEC
  0
SECTION
  2
ENTITIES
  0
LINE
  5
96
330
1F
100
AcDbEntity
  8
외형선
  6
Continuous
370
    15
100
AcDbLine
 10
9.99904884995336
 20
3.97797621535016
 30
0.0
 11
-33.64095115004663
 21
3.977976215350155
 31
0.0
  0
LINE
  5
97
330
1F
100
AcDbEntity
  8
외형선
  6
Continuous
370
    15
100
AcDbLine
 10
-33.64095115004663
 20
-3.959523784649845
 30
0.0
 11
6.978969473142518
 21
-3.95952378464984
 31
0.0
  0
LINE
  5
98
330
1F
100
AcDbEntity
  8
외형선
  6
Continuous
370
    15
100
AcDbLine
 10
-33.64095115004663
 20
3.977976215350154
 30
0.0
 11
-34.45095115004665
 21
3.167976215350155
 31
0.0
  0
LINE
  5
99
330
1F
100
AcDbEntity
  8
외형선
  6
Continuous
370
    15
100
AcDbLine
 10
-34.45095115004665
 20
-3.149523784649846
 30
0.0
 11
-33.64095115004663
 21
-3.959523784649846
 31
0.0
  0
LINE
  5
9A
330
1F
100
AcDbEntity
  8
외형선
  6
Continuous
 62
     1
370
    15
100
AcDbLine
 10
16.30514514955847
 20
-3.861889274557071
 30
0.0
 11
16.31041895899444
 21
-3.863092560776661
 31
0.0
  0
SPLINE
  5
9B
330
1F
100
AcDbEntity
  8
외형선
  6
Continuous
 62
     1
370
    15
100
AcDbSpline
210
0.0
220
0.0
230
1.0
 70
     8
 71
     3
 72
     9
 73
     5
 74
     0
 42
0.000000001
 43
0.00000001
 40
0.0
 40
0.0
 40
0.0
 40
0.0
 40
0.493196734538258
 40
0.9999999999999999
 40
0.9999999999999999
 40
0.9999999999999999
 40
0.9999999999999999
 10
16.25854951870154
 20
-3.847448841998566
 30
0.0
 10
16.26713573539871
 20
-3.850990681339469
 30
0.0
 10
16.28454504915907
 20
-3.858172073860692
 30
0.0
 10
16.29821644267911
 20
-3.860639018804059
 30
0.0
 10
16.30514514955847
 20
-3.861889274557071
 30
0.0
  0
SPLINE
  5
9C
330
1F
100
AcDbEntity
  8
외형선
  6
Continuous
 62
     1
370
    15
100
AcDbSpline
210
0.0
220
0.0
230
1.0
 70
     8
 71
     3
 72
     9
 73
     5
 74
     0
 42
0.000000001
 43
0.00000001
 40
0.0
 40
0.0
 40
0.0
 40
0.0
 40
0.3911795834839602
 40
1.0
 40
1.0
 40
1.0
 40
1.0
 10
12.96593867236111
 20
3.828944147314017
 30
0.0
 10
12.93785982173966
 20
3.833553894851596
 30
0.0
 10
12.86607987256295
 20
3.845338118088714
 30
0.0
 10
12.81248711492382
 20
3.876312634065344
 30
0.0
 10
12.77985874989573
 20
3.895170551783619
 30
0.0
  0
LINE
  5
9D
330
1F
100
AcDbEntity
  8
외형선
  6
Continuous
 62
     1
370
    15
100
AcDbLine
 10
16.94766234704798
 20
-3.95952378464984
 30
0.0
 11
17.58646788275431
 21
-3.95952378464984
 31
0.0
  0
LINE
  5
9E
330
1F
100
AcDbEntity
  8
외형선
  6
Continuous
 62
     1
370
    15
100
AcDbLine
 10
12.57371685454433
 20
3.97797621535016
 30
0.0
 11
11.51261056709543
 21
3.97797621535016
 31
0.0
  0
SPLINE
  5
9F
330
1F
100
AcDbEntity
  8
외형선
  6
Continuous
 62
     1
370
    15
100
AcDbSpline
210
0.0
220
0.0
230
1.0
 70
     8
 71
     3
 72
     9
 73
     5
 74
     0
 42
0.000000001
 43
0.00000001
 40
0.0
 40
0.0
 40
0.0
 40
0.0
 40
0.4984635980133234
 40
1.0
 40
1.0
 40
1.0
 40
1.0
 10
12.77594439173989
 20
3.900862388928575
 30
0.0
 10
12.75099620859246
 20
3.918041266605593
 30
0.0
 10
12.70094604796516
 20
3.952504922016916
 30
0.0
 10
12.6424206698038
 20
3.960336444438127
 30
0.0
 10
12.61306806221585
 20
3.96426423801534
 30
0.0
  0
SPLINE
  5
A0
330
1F
100
AcDbEntity
  8
외형선
  6
Continuous
 62
     1
370
    15
100
AcDbSpline
210
0.0
220
0.0
230
1.0
 70
     8
 71
     3
 72
     9
 73
     5
 74
     0
 42
0.000000001
 43
0.00000001
 40
0.0
 40
0.0
 40
0.0
 40
0.0
 40
0.5015177624662801
 40
1.0
 40
1.0
 40
1.0
 40
1.0
 10
17.57344048722277
 20
-3.956191080252501
 30
0.0
 10
17.60287674494243
 20
-3.954506825997997
 30
0.0
 10
17.66157109222718
 20
-3.951148511735663
 30
0.0
 10
17.71179572145341
 20
-3.920930440231543
 30
0.0
 10
17.73683180700941
 20
-3.905867268334215
 30
0.0
  0
SPLINE
  5
A1
330
1F
100
AcDbEntity
  8
외형선
  6
Continuous
 62
     1
370
    15
100
AcDbSpline
210
0.0
220
0.0
230
1.0
 70
     8
 71
     3
 72
    11
 73
     7
 74
     0
 42
0.000000001
 43
0.00000001
 40
0.0
 40
0.0
 40
0.0
 40
0.0
 40
0.2445890891032881
 40
0.4999545939308497
 40
0.7553380456063221
 40
1.0
 40
1.0
 40
1.0
 40
1.0
 10
17.74565832451172
 20
-3.905767447600426
 30
0.0
 10
17.7890409681055
 20
-3.876727624840199
 30
0.0
 10
17.87771766272459
 20
-3.817368506045733
 30
0.0
 10
18.04256335171711
 20
-3.789773055768532
 30
0.0
 10
18.20740299886267
 20
-3.814368608312696
 30
0.0
 10
18.29601837578089
 20
-3.87145869298817
 30
0.0
 10
18.33937606098907
 20
-3.899391699718503
 30
0.0
  0
SPLINE
  5
A2
330
1F
100
AcDbEntity
  8
외형선
  6
Continuous
 62
     1
370
    15
100
AcDbSpline
210
0.0
220
0.0
230
1.0
 70
     8
 71
     3
 72
     9
 73
     5
 74
     0
 42
0.000000001
 43
0.00000001
 40
0.0
 40
0.0
 40
0.0
 40
0.0
 40
0.5014239233015525
 40
1.0
 40
1.0
 40
1.0
 40
1.0
 10
11.51915634515523
 20
3.977162147858162
 30
0.0
 10
11.48954472584972
 20
3.975118118189135
 30
0.0
 10
11.43048966698746
 20
3.971041667956032
 30
0.0
 10
11.3799037041761
 20
3.939910721775552
 30
0.0
 10
11.3546827533016
 20
3.924389576764978
 30
0.0
  0
SPLINE
  5
A3
330
1F
100
AcDbEntity
  8
외형선
  6
Continuous
 62
     1
370
    15
100
AcDbSpline
210
0.0
220
0.0
230
1.0
 70
     8
 71
     3
 72
    11
 73
     7
 74
     0
 42
0.000000001
 43
0.00000001
 40
0.0
 40
0.0
 40
0.0
 40
0.0
 40
0.2452693132053482
 40
0.5001105830694661
 40
0.7549053752849417
 40
1.0
 40
1.0
 40
1.0
 40
1.0
 10
11.34670336959501
 20
3.922077750089485
 30
0.0
 10
11.30381395421509
 20
3.893698361591429
 30
0.0
 10
11.21636130776356
 20
3.835832041734956
 30
0.0
 10
11.05229695115634
 20
3.809032058840385
 30
0.0
 10
10.88822110565393
 20
3.834456272068992
 30
0.0
 10
10.80064942131145
 20
3.891349532791128
 30
0.0
 10
10.75771322705998
 20
3.919244166910669
 30
0.0
  0
SPLINE
  5
A4
330
1F
100
AcDbEntity
  8
외형선
  6
Continuous
 62
     1
370
    15
100
AcDbSpline
210
0.0
220
0.0
230
1.0
 70
     8
 71
     3
 72
     9
 73
     5
 74
     0
 42
0.000000001
 43
0.00000001
 40
0.0
 40
0.0
 40
0.0
 40
0.0
 40
0.4983143196026083
 40
1.0
 40
1.0
 40
1.0
 40
1.0
 10
18.34076394905279
 20
-3.900348067423342
 30
0.0
 10
18.36683319079334
 20
-3.917205282340401
 30
0.0
 10
18.41914804652807
 20
-3.951033760178448
 30
0.0
 10
18.47981729254045
 20
-3.95661207510055
 30
0.0
 10
18.51025418450536
 20
-3.959410635817715
 30
0.0
  0
LINE
  5
A5
330
1F
100
AcDbEntity
  8
외형선
  6
Continuous
 62
     1
370
    15
100
AcDbLine
 10
18.51258397881731
 20
-3.95952378464984
 30
0.0
 11
19.58647305371974
 21
-3.95952378464984
 31
0.0
  0
SPLINE
  5
A6
330
1F
100
AcDbEntity
  8
외형선
  6
Continuous
 62
     1
370
    15
100
AcDbSpline
210
0.0
220
0.0
230
1.0
 70
     8
 71
     3
 72
     9
 73
     5
 74
     0
 42
0.000000001
 43
0.00000001
 40
0.0
 40
0.0
 40
0.0
 40
0.0
 40
0.4974001239959356
 40
1.0
 40
1.0
 40
1.0
 40
1.0
 10
10.76050504027251
 20
3.917284849932653
 30
0.0
 10
10.73338401504714
 20
3.93496299967668
 30
0.0
 10
10.67885844515485
 20
3.970504104093799
 30
0.0
 10
10.61620075758695
 20
3.97543053999282
 30
0.0
 10
10.58470901158461
 20
3.97790656606481
 30
0.0
  0
LINE
  5
A7
330
1F
100
AcDbEntity
  8
외형선
  6
Continuous
370
    15
100
AcDbLine
 10
10.58579977237161
 20
3.97797621535016
 30
0.0
 11
9.999048849953363
 21
3.97797621535016
 31
0.0
  0
SPLINE
  5
A8
330
1F
100
AcDbEntity
  8
외형선
  6
Continuous
 62
     1
370
    15
100
AcDbSpline
210
0.0
220
0.0
230
1.0
 70
     8
 71
     3
 72
     9
 73
     5
 74
     0
 42
0.000000001
 43
0.00000001
 40
0.0
 40
0.0
 40
0.0
 40
0.0
 40
0.5026999111944545
 40
1.0
 40
1.0
 40
1.0
 40
1.0
 10
19.58669480496107
 20
-3.959523640104375
 30
0.0
 10
19.61842234839347
 20
-3.956720373543799
 30
0.0
 10
19.68153662935089
 20
-3.951143952107966
 30
0.0
 10
19.73654371422191
 20
-3.914340053801249
 30
0.0
 10
19.76389874241321
 20
-3.896037471904929
 30
0.0
  0
SPLINE
  5
A9
330
1F
100
AcDbEntity
  8
외형선
  6
Continuous
 62
     1
370
    15
100
AcDbSpline
210
0.0
220
0.0
230
1.0
 70
     8
 71
     3
 72
    11
 73
     7
 74
     0
 42
0.000000001
 43
0.00000001
 40
0.0
 40
0.0
 40
0.0
 40
0.0
 40
0.2133609075290344
 40
0.4536779317191003
 40
0.7188669995282361
 40
1.0
 40
1.0
 40
1.0
 40
1.0
 10
19.763224218066
 20
-3.896629223864929
 30
0.0
 10
19.79527485331201
 20
-3.875160941455312
 30
0.0
 10
19.8634254160233
 20
-3.829512063814355
 30
0.0
 10
20.01129747398512
 20
-3.792253682881758
 30
0.0
 10
20.18675244386183
 20
-3.805145512388755
 30
0.0
 10
20.28629545253478
 20
-3.866451966019031
 30
0.0
 10
20.33751949477835
 20
-3.897999780500691
 30
0.0
  0
SPLINE
  5
AA
330
1F
100
AcDbEntity
  8
외형선
  6
Continuous
 62
     1
370
    15
100
AcDbSpline
210
0.0
220
0.0
230
1.0
 70
     8
 71
     3
 72
     9
 73
     5
 74
     0
 42
0.000000001
 43
0.00000001
 40
0.0
 40
0.0
 40
0.0
 40
0.0
 40
0.4982873999318973
 40
1.0
 40
1.0
 40
1.0
 40
1.0
 10
20.33756324057589
 20
-3.898034059140527
 30
0.0
 10
20.36457890304158
 20
-3.915772673457413
 30
0.0
 10
20.41879593214846
 20
-3.95137183634877
 30
0.0
 10
20.48131390226896
 20
-3.956800270442256
 30
0.0
 10
20.51267995560911
 20
-3.959523784225597
 30
0.0
  0
LINE
  5
AB
330
1F
100
AcDbEntity
  8
외형선
  6
Continuous
 62
     1
370
    15
100
AcDbLine
 10
20.51266376710748
 20
-3.95952378464984
 30
0.0
 11
21.58644847877521
 21
-3.95952378464984
 31
0.0
  0
SPLINE
  5
AC
330
1F
100
AcDbEntity
  8
외형선
  6
Continuous
 62
     1
370
    15
100
AcDbSpline
210
0.0
220
0.0
230
1.0
 70
     8
 71
     3
 72
     9
 73
     5
 74
     0
 42
0.000000001
 43
0.00000001
 40
0.0
 40
0.0
 40
0.0
 40
0.0
 40
0.5026911437641757
 40
1.0
 40
1.0
 40
1.0
 40
1.0
 10
21.58330929044148
 20
-3.959313774626438
 30
0.0
 10
21.61513354935371
 20
-3.957003414765846
 30
0.0
 10
21.67844132651871
 20
-3.952407431945676
 30
0.0
 10
21.73364291194845
 20
-3.916323781161729
 30
0.0
 10
21.76109514926092
 20
-3.898379062061551
 30
0.0
  0
SPLINE
  5
AD
330
1F
100
AcDbEntity
  8
외형선
  6
Continuous
 62
     1
370
    15
100
AcDbSpline
210
0.0
220
0.0
230
1.0
 70
     8
 71
     3
 72
    11
 73
     7
 74
     0
 42
0.000000001
 43
0.00000001
 40
0.0
 40
0.0
 40
0.0
 40
0.0
 40
0.2187164123866894
 40
0.4605882625324355
 40
0.7243489350503085
 40
1.0
 40
1.0
 40
1.0
 40
1.0
 10
21.76202798762946
 20
-3.897634407466619
 30
0.0
 10
21.79394415762178
 20
-3.876006548509421
 30
0.0
 10
21.8611554524809
 20
-3.83046109597255
 30
0.0
 10
22.01026876148294
 20
-3.792214966690721
 30
0.0
 10
22.18672781264969
 20
-3.804786423366134
 30
0.0
 10
22.28881818096527
 20
-3.868127441226336
 30
0.0
 10
22.34098856731876
 20
-3.900496071375419
 30
0.0
  0
SPLINE
  5
AE
330
1F
100
AcDbEntity
  8
외형선
  6
Continuous
 62
     1
370
    15
100
AcDbSpline
210
0.0
220
0.0
230
1.0
 70
     8
 71
     3
 72
     9
 73
     5
 74
     0
 42
0.000000001
 43
0.00000001
 40
0.0
 40
0.0
 40
0.0
 40
0.0
 40
0.4984686245259429
 40
1.0
 40
1.0
 40
1.0
 40
1.0
 10
22.34799933890587
 20
-3.904164257904313
 30
0.0
 10
22.37346378394604
 20
-3.92018078576768
 30
0.0
 10
22.424549135736
 20
-3.952312252173614
 30
0.0
 10
22.48406156896539
 20
-3.957095441053987
 30
0.0
 10
22.51390892146073
 20
-3.959494360352314
 30
0.0
  0
LINE
  5
AF
330
1F
100
AcDbEntity
  8
외형선
  6
Continuous
 62
     1
370
    15
100
AcDbLine
 10
22.51264536217168
 20
-3.95952378464984
 30
0.0
 11
23.58636994020815
 21
-3.95952378464984
 31
0.0
  0
LINE
  5
B0
330
1F
100
AcDbEntity
  8
외형선
  6
Continuous
 62
     1
370
    15
100
AcDbLine
 10
29.04904884995336
 20
2.877976215350154
 30
0.0
 11
28.22577749335566
 21
3.701247571947854
 31
0.0
  0
SPLINE
  5
B1
330
1F
100
AcDbEntity
  8
외형선
  6
Continuous
 62
     1
370
    15
100
AcDbSpline
210
0.0
220
0.0
230
1.0
 70
     8
 71
     3
 72
     9
 73
     5
 74
     0
 42
0.000000001
 43
0.00000001
 40
0.0
 40
0.0
 40
0.0
 40
0.0
 40
0.5016477431660915
 40
1.0
 40
1.0
 40
1.0
 40
1.0
 10
23.60588512100707
 20
-3.952275252501215
 30
0.0
 10
23.63538065455167
 20
-3.948634813938452
 30
0.0
 10
23.69417795593776
 20
-3.941377852031702
 30
0.0
 10
23.74453715757464
 20
-3.907272117392097
 30
0.0
 10
23.76963377936272
 20
-3.89027544756347
 30
0.0
  0
LINE
  5
B2
330
1F
100
AcDbEntity
  8
외형선
  6
Continuous
 62
     1
370
    15
100
AcDbLine
 10
23.7732536938855
 20
-3.885960427536038
 30
0.0
 11
23.95294936742167
 21
-3.814656277678052
 31
0.0
  0
LINE
  5
B3
330
1F
100
AcDbEntity
  8
외형선
  6
Continuous
 62
     1
370
    15
100
AcDbLine
 10
24.00840634484455
 20
-3.806839039118807
 30
0.0
 11
24.09770448647286
 21
-3.816850002547887
 31
0.0
  0
LINE
  5
B4
330
1F
100
AcDbEntity
  8
외형선
  6
Continuous
370
    15
100
AcDbLine
 10
9.99904884995336
 20
3.97797621535016
 30
0.0
 11
9.999048849953363
 21
3.649132778398211
 31
0.0
  0
SPLINE
  5
B5
330
1F
100
AcDbEntity
  8
외형선
  6
Continuous
370
    15
100
AcDbSpline
210
0.0
220
0.0
230
1.0
 70
     8
 71
     3
 72
    10
 73
     6
 74
     0
 42
0.000000001
 43
0.00000001
 40
0.0
 40
0.0
 40
0.0
 40
0.0
 40
0.5
 40
0.5
 40
1.0
 40
1.0
 40
1.0
 40
1.0
 10
9.999048849951983
 20
3.649132778398412
 30
0.0
 10
9.495036958593355
 20
3.722153435382815
 30
0.0
 10
8.989391215232198
 20
3.783562016170791
 30
0.0
 10
7.988720507156553
 20
3.881595430982535
 30
0.0
 10
7.482951535736484
 20
3.918568278560161
 30
0.0
 10
6.978969473142518
 20
3.942879276971262
 30
0.0
  0
SPLINE
  5
B6
330
1F
100
AcDbEntity
  8
외형선
  6
Continuous
370
    15
100
AcDbSpline
210
0.0
220
0.0
230
1.0
 70
     8
 71
     3
 72
    10
 73
     6
 74
     0
 42
0.000000001
 43
0.00000001
 40
0.0
 40
0.0
 40
0.0
 40
0.0
 40
0.5
 40
0.5
 40
1.0
 40
1.0
 40
1.0
 40
1.0
 10
9.999048849951983
 20
-1.105168189314672
 30
0.0
 10
9.495036958593355
 20
-0.9293282933876924
 30
0.0
 10
8.989391215232194
 20
-0.7497236446140996
 30
0.0
 10
7.988720507156549
 20
-0.3880935437753151
 30
0.0
 10
7.482951535736484
 20
-0.204778610442784
 30
0.0
 10
6.978969473142518
 20
-0.0215770151590624
 30
0.0
  0
LINE
  5
B7
330
1F
100
AcDbEntity
  8
외형선
  6
Continuous
370
    15
100
AcDbLine
 10
9.99904884995336
 20
-1.10516818931515
 30
0.0
 11
9.999048849953363
 21
-3.180596615103559
 31
0.0
  0
SPLINE
  5
B8
330
1F
100
AcDbEntity
  8
외형선
  6
Continuous
370
    15
100
AcDbSpline
210
0.0
220
0.0
230
1.0
 70
     8
 71
     3
 72
    10
 73
     6
 74
     0
 42
0.000000001
 43
0.00000001
 40
0.0
 40
0.0
 40
0.0
 40
0.0
 40
0.5
 40
0.5
 40
1.0
 40
1.0
 40
1.0
 40
1.0
 10
9.999048849951986
 20
-3.180596615103263
 30
0.0
 10
9.495036958593355
 20
-3.071588506016847
 30
0.0
 10
8.989391215232198
 20
-2.952221231754004
 30
0.0
 10
7.988720507156553
 20
-2.696277631032827
 30
0.0
 10
7.482951535736484
 20
-2.558787731216536
 30
0.0
 10
6.978969473142518
 20
-2.413684315370761
 30
0.0
  0
LINE
  5
B9
330
1F
100
AcDbEntity
  8
외형선
  6
Continuous
370
    15
100
AcDbLine
 10
6.978969473142518
 20
-2.413657244607383
 30
0.0
 11
6.978969473142518
 21
-3.95952378464984
 31
0.0
  0
SPLINE
  5
BA
330
1F
100
AcDbEntity
  8
외형선
  6
Continuous
370
    15
100
AcDbSpline
210
0.0
220
0.0
230
1.0
 70
     8
 71
     3
 72
     9
 73
     5
 74
     0
 42
0.000000001
 43
0.00000001
 40
0.0
 40
0.0
 40
0.0
 40
0.0
 40
0.3603835925499995
 40
1.0
 40
1.0
 40
1.0
 40
1.0
 10
9.057902859720683
 20
-2.960717023635814
 30
0.0
 10
8.808175343453547
 20
-3.023105832824896
 30
0.0
 10
8.115226159779233
 20
-3.196223617537655
 30
0.0
 10
7.422224625106946
 20
-3.328012581695405
 30
0.0
 10
6.978969473142518
 20
-3.41230696549154
 30
0.0
  0
LINE
  5
BB
330
1F
100
AcDbEntity
  8
외형선
  6
Continuous
370
    15
100
AcDbLine
 10
-33.64095115004663
 20
3.977976215350155
 30
0.0
 11
-33.64095115004663
 21
-3.959523784649845
 31
0.0
  0
LINE
  5
BC
330
1F
100
AcDbEntity
  8
외형선
  6
Continuous
370
    15
100
AcDbLine
 10
6.978969473142518
 20
3.942883812315445
 30
0.0
 11
6.978969473142518
 21
-0.0215759311745948
 31
0.0
  0
SPLINE
  5
BD
330
1F
100
AcDbEntity
  8
외형선
  6
Continuous
370
    15
100
AcDbSpline
210
0.0
220
0.0
230
1.0
 70
    24
 71
     3
 72
    16
 73
    12
 74
     0
 42
0.000000001
 43
0.00000001
 40
0.0
 40
0.0
 40
0.0
 40
0.0
 40
0.25
 40
0.25
 40
0.5
 40
0.5
 40
0.75
 40
0.75
 40
0.875
 40
0.875
 40
1.0
 40
1.0
 40
1.0
 40
1.0
 10
9.99904884995336
 20
3.649132778398155
 30
0.0
 10
9.99904884995336
 20
3.342904116248159
 30
0.0
 10
9.99904884995336
 20
2.989814246198504
 30
0.0
 10
9.99904884995336
 20
2.19307595877151
 30
0.0
 10
9.99904884995336
 20
1.748054905332525
 30
0.0
 10
9.99904884995336
 20
0.825259199158349
 30
0.0
 10
9.99904884995336
 20
0.3479556104905417
 30
0.0
 10
9.99904884995336
 20
-0.2880447079397388
 30
0.0
 10
9.99904884995336
 20
-0.4861026012443552
 30
0.0
 10
9.99904884995336
 20
-0.8349719905165377
 30
0.0
 10
9.99904884995336
 20
-0.9856129629685905
 30
0.0
 10
9.99904884995336
 20
-1.105168189315127
 30
0.0
  0
LINE
  5
BE
330
1F
100
AcDbEntity
  8
외형선
  6
Continuous
370
    15
100
AcDbLine
 10
-34.45095115004665
 20
3.167976215350155
 30
0.0
 11
-34.45095115004665
 21
-3.149523784649846
 31
0.0
  0
SPLINE
  5
BF
330
1F
100
AcDbEntity
  8
외형선
  6
Continuous
 62
     1
370
    15
100
AcDbSpline
210
0.0
220
0.0
230
1.0
 70
     8
 71
     3
 72
     8
 73
     4
 74
     0
 42
0.000000001
 43
0.00000001
 40
0.0
 40
0.0
 40
0.0
 40
0.0
 40
1.0
 40
1.0
 40
1.0
 40
1.0
 10
27.80113153933441
 20
0.705970855890811
 30
0.0
 10
27.84695747589246
 20
0.6911432077388672
 30
0.0
 10
27.90299151153398
 20
0.6719418205700849
 30
0.0
 10
27.96057373177118
 20
0.6512972313124394
 30
0.0
  0
SPLINE
  5
C0
330
1F
100
AcDbEntity
  8
외형선
  6
Continuous
 62
     1
370
    15
100
AcDbSpline
210
0.0
220
0.0
230
1.0
 70
     8
 71
     3
 72
    12
 73
     8
 74
     0
 42
0.000000001
 43
0.00000001
 40
0.0
 40
0.0
 40
0.0
 40
0.0
 40
0.5000000000000001
 40
0.5000000000000001
 40
0.7500000000000002
 40
0.7500000000000002
 40
1.0
 40
1.0
 40
1.0
 40
1.0
 10
27.94928928866118
 20
0.6553333705361759
 30
0.0
 10
27.95062705590389
 20
0.2533167770609833
 30
0.0
 10
27.95701026516534
 20
-0.1587960338055351
 30
0.0
 10
27.9710743417465
 20
-0.759226376123843
 30
0.0
 10
27.97656411247466
 20
-0.9574159079904073
 30
0.0
 10
27.98865587060175
 20
-1.340462933539201
 30
0.0
 10
27.99527363108602
 20
-1.52615404822744
 30
0.0
 10
28.00238218328668
 20
-1.705943619892416
 30
0.0
  0
SPLINE
  5
C1
330
1F
100
AcDbEntity
  8
외형선
  6
Continuous
 62
     1
370
    15
100
AcDbSpline
210
0.0
220
0.0
230
1.0
 70
     8
 71
     3
 72
    12
 73
     8
 74
     0
 42
0.000000001
 43
0.00000001
 40
0.0
 40
0.0
 40
0.0
 40
0.0
 40
0.5000000000000002
 40
0.5000000000000002
 40
0.7500000000000002
 40
0.7500000000000002
 40
1.0
 40
1.0
 40
1.0
 40
1.0
 10
28.00238218328666
 20
-1.705943619892104
 30
0.0
 10
27.96995960573981
 20
-1.339118863008094
 30
0.0
 10
27.93532383322431
 20
-0.9354385711434268
 30
0.0
 10
27.88379426540933
 20
-0.317313334974735
 30
0.0
 10
27.86669809906542
 20
-0.1093384981014049
 30
0.0
 10
27.83329751372505
 20
0.3026409478353982
 30
0.0
 10
27.81737043274662
 20
0.5050848400766011
 30
0.0
 10
27.80113153319206
 20
0.7059709318698716
 30
0.0
  0
SPLINE
  5
C2
330
1F
100
AcDbEntity
  8
외형선
  6
Continuous
 62
     1
370
    15
100
AcDbSpline
210
0.0
220
0.0
230
1.0
 70
     8
 71
     3
 72
     8
 73
     4
 74
     0
 42
0.000000001
 43
0.00000001
 40
0.0
 40
0.0
 40
0.0
 40
0.0
 40
1.0
 40
1.0
 40
1.0
 40
1.0
 10
27.37925677548867
 20
-1.640797787566239
 30
0.0
 10
27.33341162332472
 20
-1.636027670713223
 30
0.0
 10
27.27735784552079
 20
-1.623060670715681
 30
0.0
 10
27.21976272399452
 20
-1.603904523341904
 30
0.0
  0
SPLINE
  5
C3
330
1F
100
AcDbEntity
  8
외형선
  6
Continuous
 62
     1
370
    15
100
AcDbSpline
210
0.0
220
0.0
230
1.0
 70
     8
 71
     3
 72
    10
 73
     6
 74
     0
 42
0.000000001
 43
0.00000001
 40
0.0
 40
0.0
 40
0.0
 40
0.0
 40
0.5
 40
0.5
 40
1.0
 40
1.0
 40
1.0
 40
1.0
 10
27.2197613539397
 20
-1.603888702580356
 30
0.0
 10
27.18431817656588
 20
-1.1999120861728
 30
0.0
 10
27.14887499919208
 20
-0.765710770282221
 30
0.0
 10
27.07798864444446
 20
0.1154385733369331
 30
0.0
 10
27.04254546707065
 20
0.5622043279361552
 30
0.0
 10
27.00710228969684
 20
0.9906196378915274
 30
0.0
  0
SPLINE
  5
C4
330
1F
100
AcDbEntity
  8
외형선
  6
Continuous
 62
     1
370
    15
100
AcDbSpline
210
0.0
220
0.0
230
1.0
 70
     8
 71
     3
 72
     8
 73
     4
 74
     0
 42
0.000000001
 43
0.00000001
 40
0.0
 40
0.0
 40
0.0
 40
0.0
 40
1.0
 40
1.0
 40
1.0
 40
1.0
 10
27.00710252243139
 20
0.9906168137318428
 30
0.0
 10
27.06298128556924
 20
0.9708791127277298
 30
0.0
 10
27.11918814666243
 20
0.94868612181793
 30
0.0
 10
27.16547533411697
 20
0.9290610964792937
 30
0.0
  0
SPLINE
  5
C5
330
1F
100
AcDbEntity
  8
외형선
  6
Continuous
 62
     1
370
    15
100
AcDbSpline
210
0.0
220
0.0
230
1.0
 70
     8
 71
     3
 72
    12
 73
     8
 74
     0
 42
0.000000001
 43
0.00000001
 40
0.0
 40
0.0
 40
0.0
 40
0.0
 40
0.4999999999999998
 40
0.4999999999999998
 40
0.7499999999999999
 40
0.7499999999999999
 40
1.0
 40
1.0
 40
1.0
 40
1.0
 10
27.37925677548469
 20
-1.640797787516381
 30
0.0
 10
27.34451877490267
 20
-1.246329024666614
 30
0.0
 10
27.30742607677822
 20
-0.811719556876573
 30
0.0
 10
27.25281814040828
 20
-0.1521875531767994
 30
0.0
 10
27.23479751832567
 20
0.0687355992658639
 30
0.0
 10
27.19985542616594
 20
0.5034653437601391
 30
0.0
 10
27.18312300773285
 20
0.7165441812378107
 30
0.0
 10
27.16547535993644
 20
0.9290607855423322
 30
0.0
  0
SPLINE
  5
C6
330
1F
100
AcDbEntity
  8
외형선
  6
Continuous
 62
     1
370
    15
100
AcDbSpline
210
0.0
220
0.0
230
1.0
 70
     8
 71
     3
 72
     8
 73
     4
 74
     0
 42
0.000000001
 43
0.00000001
 40
0.0
 40
0.0
 40
0.0
 40
0.0
 40
1.0
 40
1.0
 40
1.0
 40
1.0
 10
26.11358117229437
 20
-1.227852380256591
 30
0.0
 10
26.05768397516172
 20
-1.208536929040037
 30
0.0
 10
26.00146247981895
 20
-1.185569114882664
 30
0.0
 10
25.95516431172093
 20
-1.163875544127905
 30
0.0
  0
SPLINE
  5
C7
330
1F
100
AcDbEntity
  8
외형선
  6
Continuous
 62
     1
370
    15
100
AcDbSpline
210
0.0
220
0.0
230
1.0
 70
     8
 71
     3
 72
    12
 73
     8
 74
     0
 42
0.000000001
 43
0.00000001
 40
0.0
 40
0.0
 40
0.0
 40
0.0
 40
0.5
 40
0.5
 40
0.75
 40
0.75
 40
1.0
 40
1.0
 40
1.0
 40
1.0
 10
25.95516422139393
 20
-1.16387449258084
 30
0.0
 10
25.91908322008909
 20
-0.7438427473379114
 30
0.0
 10
25.88181501724961
 20
-0.2966217555416131
 30
0.0
 10
25.82876440324918
 20
0.3590316225267547
 30
0.0
 10
25.81200063597295
 20
0.5731944509308151
 30
0.0
 10
25.77719970557017
 20
0.9995623427385986
 30
0.0
 10
25.75923284408937
 20
1.211418618373092
 30
0.0
 10
25.7410635764019
 20
1.417306170974873
 30
0.0
  0
SPLINE
  5
C8
330
1F
100
AcDbEntity
  8
외형선
  6
Continuous
 62
     1
370
    15
100
AcDbSpline
210
0.0
220
0.0
230
1.0
 70
     8
 71
     3
 72
     8
 73
     4
 74
     0
 42
0.000000001
 43
0.00000001
 40
0.0
 40
0.0
 40
0.0
 40
0.0
 40
1.0
 40
1.0
 40
1.0
 40
1.0
 10
25.7410634779256
 20
1.417307286878064
 30
0.0
 10
25.78695964683209
 20
1.409836050596961
 30
0.0
 10
25.84305861300134
 20
1.395135557052383
 30
0.0
 10
25.90069997538263
 20
1.375467784404864
 30
0.0
  0
SPLINE
  5
C9
330
1F
100
AcDbEntity
  8
외형선
  6
Continuous
 62
     1
370
    15
100
AcDbSpline
210
0.0
220
0.0
230
1.0
 70
     8
 71
     3
 72
    12
 73
     8
 74
     0
 42
0.000000001
 43
0.00000001
 40
0.0
 40
0.0
 40
0.0
 40
0.0
 40
0.5000000000000002
 40
0.5000000000000002
 40
0.7500000000000001
 40
0.7500000000000001
 40
1.0
 40
1.0
 40
1.0
 40
1.0
 10
26.11358064543507
 20
-1.227846177873349
 30
0.0
 10
26.07779014092276
 20
-0.806507014234426
 30
0.0
 10
26.04070782073962
 20
-0.3565592633009835
 30
0.0
 10
25.98771432170021
 20
0.3056096510497226
 30
0.0
 10
25.97091855471811
 20
0.5223582428297482
 30
0.0
 10
25.93651818785806
 20
0.9525864422388467
 30
0.0
 10
25.918727636002
 20
1.16679609684229
 30
0.0
 10
25.90069959613128
 20
1.375472174280939
 30
0.0
  0
SPLINE
  5
CA
330
1F
100
AcDbEntity
  8
외형선
  6
Continuous
 62
     1
370
    15
100
AcDbSpline
210
0.0
220
0.0
230
1.0
 70
     8
 71
     3
 72
    10
 73
     6
 74
     0
 42
0.000000001
 43
0.00000001
 40
0.0
 40
0.0
 40
0.0
 40
0.0
 40
0.5
 40
0.5
 40
1.0
 40
1.0
 40
1.0
 40
1.0
 10
28.00767530058997
 20
-1.840444329004017
 30
0.0
 10
27.91392015694494
 20
-1.786741103061704
 30
0.0
 10
27.80075206373801
 20
-1.742195609762049
 30
0.0
 10
27.57580245507519
 20
-1.673441127683621
 30
0.0
 10
27.46846095462115
 20
-1.650079343808043
 30
0.0
 10
27.37925677548907
 20
-1.640797787566107
 30
0.0
  0
SPLINE
  5
CB
330
1F
100
AcDbEntity
  8
외형선
  6
Continuous
 62
     1
370
    15
100
AcDbSpline
210
0.0
220
0.0
230
1.0
 70
     8
 71
     3
 72
    10
 73
     6
 74
     0
 42
0.000000001
 43
0.00000001
 40
0.0
 40
0.0
 40
0.0
 40
0.0
 40
0.5
 40
0.5
 40
1.0
 40
1.0
 40
1.0
 40
1.0
 10
27.16547533411584
 20
0.9290610964792426
 30
0.0
 10
27.25955948578042
 20
0.889170924664512
 30
0.0
 10
27.37391130827301
 20
0.8492650094625943
 30
0.0
 10
27.60159262248153
 20
0.7717011312496121
 30
0.0
 10
27.71077366847346
 20
0.7352074589480445
 30
0.0
 10
27.80113153933394
 20
0.705970855890745
 30
0.0
  0
SPLINE
  5
CC
330
1F
100
AcDbEntity
  8
외형선
  6
Continuous
 62
     1
370
    15
100
AcDbSpline
210
0.0
220
0.0
230
1.0
 70
     8
 71
     3
 72
     8
 73
     4
 74
     0
 42
0.000000001
 43
0.00000001
 40
0.0
 40
0.0
 40
0.0
 40
0.0
 40
0.000153987268785
 40
0.000153987268785
 40
0.000153987268785
 40
0.000153987268785
 10
28.00238218328669
 20
-1.705943619892416
 30
0.0
 10
28.004173315883
 20
-1.75124496300641
 30
0.0
 10
28.00593412808881
 20
-1.79609720307056
 30
0.0
 10
28.00767530058997
 20
-1.84044432900402
 30
0.0
  0
SPLINE
  5
CD
330
1F
100
AcDbEntity
  8
외형선
  6
Continuous
 62
     1
370
    15
100
AcDbSpline
210
0.0
220
0.0
230
1.0
 70
     8
 71
     3
 72
    10
 73
     6
 74
     0
 42
0.000000001
 43
0.00000001
 40
0.0
 40
0.0
 40
0.0
 40
0.0
 40
0.5
 40
0.5
 40
1.0
 40
1.0
 40
1.0
 40
1.0
 10
27.94916906898901
 20
0.6553810854234458
 30
0.0
 10
28.1329777231564
 20
0.5824231032667623
 30
0.0
 10
28.31626426642941
 20
0.5314142473484869
 30
0.0
 10
28.68294720120654
 20
0.4766662061026491
 30
0.0
 10
28.86649926501109
 20
0.4725569193183198
 30
0.0
 10
29.04904884995336
 20
0.4986638489953312
 30
0.0
  0
LINE
  5
CE
330
1F
100
AcDbEntity
  8
외형선
  6
Continuous
 62
     1
370
    15
100
AcDbLine
 10
29.04904884995336
 20
0.4986638489953339
 30
0.0
 11
29.04904884995336
 21
-1.827984298208543
 31
0.0
  0
SPLINE
  5
CF
330
1F
100
AcDbEntity
  8
외형선
  6
Continuous
 62
     1
370
    15
100
AcDbSpline
210
0.0
220
0.0
230
1.0
 70
     8
 71
     3
 72
     8
 73
     4
 74
     0
 42
0.000000001
 43
0.00000001
 40
0.0
 40
0.0
 40
0.0
 40
0.0
 40
1.0
 40
1.0
 40
1.0
 40
1.0
 10
29.04904884995336
 20
-1.827984298208543
 30
0.0
 10
28.72087737109397
 20
-1.824822569782594
 30
0.0
 10
28.36791307448807
 20
-1.829093728700247
 30
0.0
 10
28.00767530058995
 20
-1.840444329004014
 30
0.0
  0
SPLINE
  5
D0
330
1F
100
AcDbEntity
  8
외형선
  6
Continuous
 62
     1
370
    15
100
AcDbSpline
210
0.0
220
0.0
230
1.0
 70
     8
 71
     3
 72
     8
 73
     4
 74
     0
 42
0.000000001
 43
0.00000001
 40
0.0
 40
0.0
 40
0.0
 40
0.0
 40
1.0
 40
1.0
 40
1.0
 40
1.0
 10
25.31903741116099
 20
-0.9444501156393116
 30
0.0
 10
25.27313551026672
 20
-0.9321661476619757
 30
0.0
 10
25.21703064714397
 20
-0.9144654706951868
 30
0.0
 10
25.15938541291249
 20
-0.894053863427015
 30
0.0
  0
SPLINE
  5
D1
330
1F
100
AcDbEntity
  8
외형선
  6
Continuous
 62
     1
370
    15
100
AcDbSpline
210
0.0
220
0.0
230
1.0
 70
     8
 71
     3
 72
    10
 73
     6
 74
     0
 42
0.000000001
 43
0.00000001
 40
0.0
 40
0.0
 40
0.0
 40
0.0
 40
0.5
 40
0.5
 40
1.0
 40
1.0
 40
1.0
 40
1.0
 10
25.1593848662452
 20
-0.8940473250815423
 30
0.0
 10
25.12388863310447
 20
-0.4635007001921436
 30
0.0
 10
25.08839239996373
 20
-0.0160715312224409
 30
0.0
 10
25.01739993368225
 20
0.8633950762918884
 30
0.0
 10
24.98190370054152
 20
1.29525058319759
 30
0.0
 10
24.94640746740078
 20
1.695505384375464
 30
0.0
  0
SPLINE
  5
D2
330
1F
100
AcDbEntity
  8
외형선
  6
Continuous
 62
     1
370
    15
100
AcDbSpline
210
0.0
220
0.0
230
1.0
 70
     8
 71
     3
 72
     8
 73
     4
 74
     0
 42
0.000000001
 43
0.00000001
 40
0.0
 40
0.0
 40
0.0
 40
0.0
 40
1.0
 40
1.0
 40
1.0
 40
1.0
 10
24.94640746853553
 20
1.695505371776008
 30
0.0
 10
25.00231572948975
 20
1.677082819807754
 30
0.0
 10
25.05855260373894
 20
1.652891555143275
 30
0.0
 10
25.10486637926348
 20
1.627636197779228
 30
0.0
  0
SPLINE
  5
D3
330
1F
100
AcDbEntity
  8
외형선
  6
Continuous
 62
     1
370
    15
100
AcDbSpline
210
0.0
220
0.0
230
1.0
 70
     8
 71
     3
 72
    12
 73
     8
 74
     0
 42
0.000000001
 43
0.00000001
 40
0.0
 40
0.0
 40
0.0
 40
0.0
 40
0.4999999999999998
 40
0.4999999999999998
 40
0.7499999999999999
 40
0.7499999999999999
 40
1.0
 40
1.0
 40
1.0
 40
1.0
 10
25.31903741115528
 20
-0.9444501155671937
 30
0.0
 10
25.2826414313679
 20
-0.5162516436337033
 30
0.0
 10
25.24561159196353
 20
-0.0672397592694662
 30
0.0
 10
25.19365605290244
 20
0.5815271468746437
 30
0.0
 10
25.17680393669493
 20
0.7942695172480404
 30
0.0
 10
25.14131476462042
 20
1.217656658995522
 30
0.0
 10
25.1231240355967
 20
1.426408506460367
 30
0.0
 10
25.10486653772498
 20
1.627634451274282
 30
0.0
  0
SPLINE
  5
D4
330
1F
100
AcDbEntity
  8
외형선
  6
Continuous
 62
     1
370
    15
100
AcDbSpline
210
0.0
220
0.0
230
1.0
 70
     8
 71
     3
 72
     8
 73
     4
 74
     0
 42
0.000000001
 43
0.00000001
 40
0.0
 40
0.0
 40
0.0
 40
0.0
 40
1.0
 40
1.0
 40
1.0
 40
1.0
 10
27.00710146225823
 20
0.990617188210081
 30
0.0
 10
26.63862281481716
 20
1.120772561002726
 30
0.0
 10
26.27088650940525
 20
1.249156672268918
 30
0.0
 10
25.90069997161458
 20
1.375467785689739
 30
0.0
  0
SPLINE
  5
D5
330
1F
100
AcDbEntity
  8
외형선
  6
Continuous
 62
     1
370
    15
100
AcDbSpline
210
0.0
220
0.0
230
1.0
 70
     8
 71
     3
 72
     8
 73
     4
 74
     0
 42
0.000000001
 43
0.00000001
 40
0.0
 40
0.0
 40
0.0
 40
0.0
 40
1.0
 40
1.0
 40
1.0
 40
1.0
 10
27.21975646591786
 20
-1.603902441903201
 30
0.0
 10
26.85034863332541
 20
-1.481037297116708
 30
0.0
 10
26.48352346865417
 20
-1.355687119788679
 30
0.0
 10
26.11357438803754
 20
-1.227850035935226
 30
0.0
  0
SPLINE
  5
D6
330
1F
100
AcDbEntity
  8
외형선
  6
Continuous
 62
     1
370
    15
100
AcDbSpline
210
0.0
220
0.0
230
1.0
 70
     8
 71
     3
 72
    12
 73
     8
 74
     0
 42
0.000000001
 43
0.00000001
 40
0.0
 40
0.0
 40
0.0
 40
0.0
 40
0.2499999999999999
 40
0.2499999999999999
 40
0.4999999999999999
 40
0.4999999999999999
 40
1.0
 40
1.0
 40
1.0
 40
1.0
 10
21.99212927542032
 20
0.2510600858125118
 30
0.0
 10
21.97469054570735
 20
0.4705924000505483
 30
0.0
 10
21.958073264209
 20
0.6856167723910147
 30
0.0
 10
21.92309615030202
 20
1.11467623172059
 30
0.0
 10
21.9051005723211
 20
1.327125238737014
 30
0.0
 10
21.85069262791875
 20
1.94436031205888
 30
0.0
 10
21.81390400475969
 20
2.327856210383271
 30
0.0
 10
21.77956776176356
 20
2.65413067239375
 30
0.0
  0
SPLINE
  5
D7
330
1F
100
AcDbEntity
  8
외형선
  6
Continuous
 62
     1
370
    15
100
AcDbSpline
210
0.0
220
0.0
230
1.0
 70
     8
 71
     3
 72
     8
 73
     4
 74
     0
 42
0.000000001
 43
0.00000001
 40
0.0
 40
0.0
 40
0.0
 40
0.0
 40
1.0
 40
1.0
 40
1.0
 40
1.0
 10
22.88552636076686
 20
2.34049599461624
 30
0.0
 10
22.51559358769044
 20
2.449357802866805
 30
0.0
 10
22.14876139018674
 20
2.553907888132228
 30
0.0
 10
21.77956774140443
 20
2.654130699385979
 30
0.0
  0
SPLINE
  5
D8
330
1F
100
AcDbEntity
  8
외형선
  6
Continuous
 62
     1
370
    15
100
AcDbSpline
210
0.0
220
0.0
230
1.0
 70
     8
 71
     3
 72
    10
 73
     6
 74
     0
 42
0.000000001
 43
0.00000001
 40
0.0
 40
0.0
 40
0.0
 40
0.0
 40
0.5
 40
0.5
 40
1.0
 40
1.0
 40
1.0
 40
1.0
 10
23.09834855154895
 20
-0.151733862029567
 30
0.0
 10
23.06287818642108
 20
0.2900333638905833
 30
0.0
 10
23.02740782129321
 20
0.7347332278338029
 30
0.0
 10
22.95646709103747
 20
1.581145535950488
 30
0.0
 10
22.9209967259096
 20
1.982682917308665
 30
0.0
 10
22.88552636078173
 20
2.340495994651402
 30
0.0
  0
SPLINE
  5
D9
330
1F
100
AcDbEntity
  8
외형선
  6
Continuous
 62
     1
370
    15
100
AcDbSpline
210
0.0
220
0.0
230
1.0
 70
     8
 71
     3
 72
     8
 73
     4
 74
     0
 42
0.000000001
 43
0.00000001
 40
0.0
 40
0.0
 40
0.0
 40
0.0
 40
1.0
 40
1.0
 40
1.0
 40
1.0
 10
23.09834809974779
 20
-0.1517350663540624
 30
0.0
 10
22.72823798602207
 20
-0.0173499053328914
 30
0.0
 10
22.36033397015412
 20
0.1170444705173479
 30
0.0
 10
21.99212891614336
 20
0.2510597890103088
 30
0.0
  0
SPLINE
  5
DA
330
1F
100
AcDbEntity
  8
외형선
  6
Continuous
 62
     1
370
    15
100
AcDbSpline
210
0.0
220
0.0
230
1.0
 70
     8
 71
     3
 72
    12
 73
     8
 74
     0
 42
0.000000001
 43
0.00000001
 40
0.0
 40
0.0
 40
0.0
 40
0.0
 40
0.25
 40
0.25
 40
0.5
 40
0.5
 40
1.0
 40
1.0
 40
1.0
 40
1.0
 10
24.05257459276133
 20
-0.4972609363566243
 30
0.0
 10
24.03443582281253
 20
-0.2763846955900394
 30
0.0
 10
24.01640672336475
 20
-0.0535635112558092
 30
0.0
 10
23.98130591306487
 20
0.386635429651905
 30
0.0
 10
23.96466504681849
 20
0.6022293178914188
 30
0.0
 10
23.91265229696899
 20
1.246612007566532
 30
0.0
 10
23.87574901363098
 20
1.669953764165335
 30
0.0
 10
23.83961684857357
 20
2.051351050074822
 30
0.0
  0
SPLINE
  5
DB
330
1F
100
AcDbEntity
  8
외형선
  6
Continuous
 62
     1
370
    15
100
AcDbSpline
210
0.0
220
0.0
230
1.0
 70
     8
 71
     3
 72
     8
 73
     4
 74
     0
 42
0.000000001
 43
0.00000001
 40
0.0
 40
0.0
 40
0.0
 40
0.0
 40
1.0
 40
1.0
 40
1.0
 40
1.0
 10
24.94640746335306
 20
1.695505373483712
 30
0.0
 10
24.57675891290866
 20
1.817309727849329
 30
0.0
 10
24.20975041719921
 20
1.935924732365442
 30
0.0
 10
23.83961593582237
 20
2.05134987046233
 30
0.0
  0
SPLINE
  5
DC
330
1F
100
AcDbEntity
  8
외형선
  6
Continuous
 62
     1
370
    15
100
AcDbSpline
210
0.0
220
0.0
230
1.0
 70
     8
 71
     3
 72
     8
 73
     4
 74
     0
 42
0.000000001
 43
0.00000001
 40
0.0
 40
0.0
 40
0.0
 40
0.0
 40
1.0
 40
1.0
 40
1.0
 40
1.0
 10
25.15938293423397
 20
-0.8940529857510696
 30
0.0
 10
24.78918117685389
 20
-0.7629681969310961
 30
0.0
 10
24.42209374347779
 20
-0.6306961480939456
 30
0.0
 10
24.0525745977781
 20
-0.497261146235345
 30
0.0
  0
SPLINE
  5
DD
330
1F
100
AcDbEntity
  8
외형선
  6
Continuous
 62
     1
370
    15
100
AcDbSpline
210
0.0
220
0.0
230
1.0
 70
     8
 71
     3
 72
     8
 73
     4
 74
     0
 42
0.000000001
 43
0.00000001
 40
0.0
 40
0.0
 40
0.0
 40
0.0
 40
1.0
 40
1.0
 40
1.0
 40
1.0
 10
24.05257461037038
 20
-0.4972611507824706
 30
0.0
 10
23.99666802966539
 20
-0.4770730366169445
 30
0.0
 10
23.94043251131219
 20
-0.4566165198316675
 30
0.0
 10
23.89411977381597
 20
-0.4410206039342692
 30
0.0
  0
SPLINE
  5
DE
330
1F
100
AcDbEntity
  8
외형선
  6
Continuous
 62
     1
370
    15
100
AcDbSpline
210
0.0
220
0.0
230
1.0
 70
     8
 71
     3
 72
    12
 73
     8
 74
     0
 42
0.000000001
 43
0.00000001
 40
0.0
 40
0.0
 40
0.0
 40
0.0
 40
0.25
 40
0.25
 40
0.5
 40
0.5
 40
1.0
 40
1.0
 40
1.0
 40
1.0
 10
23.89411977381601
 20
-0.4410206039162652
 30
0.0
 10
23.87589864560523
 20
-0.2216348890682533
 30
0.0
 10
23.8578181085567
 20
-0.000669429365137
 30
0.0
 10
23.82268176329597
 20
0.4351002956288209
 30
0.0
 10
23.8059887002213
 20
0.6484417184139604
 30
0.0
 10
23.75340942633587
 20
1.286832927884672
 30
0.0
 10
23.71622590063767
 20
1.704521077389773
 30
0.0
 10
23.67997808715937
 20
2.078808946270011
 30
0.0
  0
SPLINE
  5
DF
330
1F
100
AcDbEntity
  8
외형선
  6
Continuous
 62
     1
370
    15
100
AcDbSpline
210
0.0
220
0.0
230
1.0
 70
     8
 71
     3
 72
     8
 73
     4
 74
     0
 42
0.000000001
 43
0.00000001
 40
0.0
 40
0.0
 40
0.0
 40
0.0
 40
1.0
 40
1.0
 40
1.0
 40
1.0
 10
23.67997808715227
 20
2.078808946348489
 30
0.0
 10
23.72587528918702
 20
2.078983168922501
 30
0.0
 10
23.78197599743433
 20
2.069324683940432
 30
0.0
 10
23.83961699151333
 20
2.051349541250275
 30
0.0
  0
SPLINE
  5
E0
330
1F
100
AcDbEntity
  8
외형선
  6
Continuous
 62
     1
370
    15
100
AcDbSpline
210
0.0
220
0.0
230
1.0
 70
     8
 71
     3
 72
    10
 73
     6
 74
     0
 42
0.000000001
 43
0.00000001
 40
0.0
 40
0.0
 40
0.0
 40
0.0
 40
0.5
 40
0.5
 40
1.0
 40
1.0
 40
1.0
 40
1.0
 10
25.9551643117225
 20
-1.163875544127834
 30
0.0
 10
25.8610067332504
 20
-1.119756863527776
 30
0.0
 10
25.7465634087932
 20
-1.078146788701547
 30
0.0
 10
25.51872360607469
 20
-1.002056867284691
 30
0.0
 10
25.40948786767352
 20
-0.9686558781388456
 30
0.0
 10
25.31903741116139
 20
-0.9444501156392332
 30
0.0
  0
SPLINE
  5
E1
330
1F
100
AcDbEntity
  8
외형선
  6
Continuous
 62
     1
370
    15
100
AcDbSpline
210
0.0
220
0.0
230
1.0
 70
     8
 71
     3
 72
    10
 73
     6
 74
     0
 42
0.000000001
 43
0.00000001
 40
0.0
 40
0.0
 40
0.0
 40
0.0
 40
0.5
 40
0.5
 40
1.0
 40
1.0
 40
1.0
 40
1.0
 10
25.10486637926234
 20
1.627636197778258
 30
0.0
 10
25.19903699885671
 20
1.576284032593569
 30
0.0
 10
25.31348796400536
 20
1.532001645966324
 30
0.0
 10
25.54134318161909
 20
1.459427277372965
 30
0.0
 10
25.65060172655811
 20
1.432033159101289
 30
0.0
 10
25.74106347792512
 20
1.417307286877941
 30
0.0
  0
SPLINE
  5
E2
330
1F
100
AcDbEntity
  8
외형선
  6
Continuous
 62
     1
370
    15
100
AcDbSpline
210
0.0
220
0.0
230
1.0
 70
     8
 71
     3
 72
    12
 73
     8
 74
     0
 42
0.000000001
 43
0.00000001
 40
0.0
 40
0.0
 40
0.0
 40
0.0
 40
0.4999999999999997
 40
0.4999999999999997
 40
0.7499999999999998
 40
0.7499999999999998
 40
1.0
 40
1.0
 40
1.0
 40
1.0
 10
19.93321256349883
 20
0.9900939278228281
 30
0.0
 10
19.8979811843013
 20
1.417642420226634
 30
0.0
 10
19.86090283655131
 20
1.833727678515464
 30
0.0
 10
19.80708051137689
 20
2.388563890944281
 30
0.0
 10
19.78944422396362
 20
2.562082353935942
 30
0.0
 10
19.75546567538369
 20
2.880405993980378
 30
0.0
 10
19.73824469384741
 20
3.028052656976469
 30
0.0
 10
19.72043088897247
 20
3.162515187766543
 30
0.0
  0
SPLINE
  5
E3
330
1F
100
AcDbEntity
  8
외형선
  6
Continuous
 62
     1
370
    15
100
AcDbSpline
210
0.0
220
0.0
230
1.0
 70
     8
 71
     3
 72
     8
 73
     4
 74
     0
 42
0.000000001
 43
0.00000001
 40
0.0
 40
0.0
 40
0.0
 40
0.0
 40
1.0
 40
1.0
 40
1.0
 40
1.0
 10
20.82644807208289
 20
2.902047968455644
 30
0.0
 10
20.45641323170678
 20
2.99410564808115
 30
0.0
 10
20.08849466199456
 20
3.081008620601698
 30
0.0
 10
19.72043024561788
 20
3.162514348154213
 30
0.0
  0
SPLINE
  5
E4
330
1F
100
AcDbEntity
  8
외형선
  6
Continuous
 62
     1
370
    15
100
AcDbSpline
210
0.0
220
0.0
230
1.0
 70
     8
 71
     3
 72
    10
 73
     6
 74
     0
 42
0.000000001
 43
0.00000001
 40
0.0
 40
0.0
 40
0.0
 40
0.0
 40
0.5000000000000001
 40
0.5000000000000001
 40
1.0
 40
1.0
 40
1.0
 40
1.0
 10
21.03888562682643
 20
0.5957891408950176
 30
0.0
 10
21.00347940558088
 20
1.033036323331777
 30
0.0
 10
20.96807318433533
 20
1.459174588475348
 30
0.0
 10
20.89726074184423
 20
2.242425643310312
 30
0.0
 10
20.86185452059867
 20
2.599376475623913
 30
0.0
 10
20.82644829935312
 20
2.902048616041589
 30
0.0
  0
SPLINE
  5
E5
330
1F
100
AcDbEntity
  8
외형선
  6
Continuous
 62
     1
370
    15
100
AcDbSpline
210
0.0
220
0.0
230
1.0
 70
     8
 71
     3
 72
     8
 73
     4
 74
     0
 42
0.000000001
 43
0.00000001
 40
0.0
 40
0.0
 40
0.0
 40
0.0
 40
1.0
 40
1.0
 40
1.0
 40
1.0
 10
21.03888561710896
 20
0.5957891014058713
 30
0.0
 10
20.66933499965394
 20
0.7285745415582562
 30
0.0
 10
20.29983341485162
 20
0.8603434407423386
 30
0.0
 10
19.93321248732021
 20
0.9900938991612488
 30
0.0
  0
SPLINE
  5
E6
330
1F
100
AcDbEntity
  8
외형선
  6
Continuous
 62
     1
370
    15
100
AcDbSpline
210
0.0
220
0.0
230
1.0
 70
     8
 71
     3
 72
     8
 73
     4
 74
     0
 42
0.000000001
 43
0.00000001
 40
0.0
 40
0.0
 40
0.0
 40
0.0
 40
1.0
 40
1.0
 40
1.0
 40
1.0
 10
23.25796591758984
 20
-0.2138001257566512
 30
0.0
 10
23.21207671017279
 20
-0.1944537131830506
 30
0.0
 10
23.15598423835829
 20
-0.1726624645939792
 30
0.0
 10
23.09834866556444
 20
-0.151735271799003
 30
0.0
  0
SPLINE
  5
E7
330
1F
100
AcDbEntity
  8
외형선
  6
Continuous
 62
     1
370
    15
100
AcDbSpline
210
0.0
220
0.0
230
1.0
 70
     8
 71
     3
 72
     8
 73
     4
 74
     0
 42
0.000000001
 43
0.00000001
 40
0.0
 40
0.0
 40
0.0
 40
0.0
 40
1.0
 40
1.0
 40
1.0
 40
1.0
 10
22.88552636078578
 20
2.340495994610672
 30
0.0
 10
22.94141744971005
 20
2.324048668371373
 30
0.0
 10
22.99763147211534
 20
2.298722780786426
 30
0.0
 10
23.04392241732234
 20
2.26874614766081
 30
0.0
  0
SPLINE
  5
E8
330
1F
100
AcDbEntity
  8
외형선
  6
Continuous
 62
     1
370
    15
100
AcDbSpline
210
0.0
220
0.0
230
1.0
 70
     8
 71
     3
 72
    12
 73
     8
 74
     0
 42
0.000000001
 43
0.00000001
 40
0.0
 40
0.0
 40
0.0
 40
0.0
 40
0.2500000000000001
 40
0.2500000000000001
 40
0.5000000000000001
 40
0.5000000000000001
 40
1.0
 40
1.0
 40
1.0
 40
1.0
 10
23.25796591758869
 20
-0.2138001257378011
 30
0.0
 10
23.23988214319105
 20
0.0061631155085986
 30
0.0
 10
23.22207320760399
 20
0.2260562909040348
 30
0.0
 10
23.18771154641096
 20
0.6566516232522858
 30
0.0
 10
23.17061964730203
 20
0.8696448953179844
 30
0.0
 10
23.11707498583206
 20
1.502618542914649
 30
0.0
 10
23.07975842063654
 20
1.909978671846964
 30
0.0
 10
23.04392253803359
 20
2.268744939163112
 30
0.0
  0
SPLINE
  5
E9
330
1F
100
AcDbEntity
  8
외형선
  6
Continuous
 62
     1
370
    15
100
AcDbSpline
210
0.0
220
0.0
230
1.0
 70
     8
 71
     3
 72
     9
 73
     5
 74
     0
 42
0.000000001
 43
0.00000001
 40
0.0
 40
0.0
 40
0.0
 40
0.0
 40
0.7664814048531282
 40
1.0
 40
1.0
 40
1.0
 40
1.0
 10
28.15119291839187
 20
-1.836604580496825
 30
0.0
 10
28.06223169912153
 20
-1.862835735732842
 30
0.0
 10
27.94616727967566
 20
-1.897058555842932
 30
0.0
 10
27.82353055104056
 20
-1.944900026028032
 30
0.0
 10
27.79489259445628
 20
-1.956071898935417
 30
0.0
  0
SPLINE
  5
EA
330
1F
100
AcDbEntity
  8
외형선
  6
Continuous
 62
     1
370
    15
100
AcDbSpline
210
0.0
220
0.0
230
1.0
 70
     8
 71
     3
 72
     8
 73
     4
 74
     0
 42
0.000000001
 43
0.00000001
 40
0.0
 40
0.0
 40
0.0
 40
0.0
 40
1.0
 40
1.0
 40
1.0
 40
1.0
 10
29.04904884995336
 20
-2.310937477305561
 30
0.0
 10
28.62832341281505
 20
-2.203281068563211
 30
0.0
 10
28.21041675446346
 20
-2.084414169306083
 30
0.0
 10
27.79489259445625
 20
-1.956071898935408
 30
0.0
  0
LINE
  5
EB
330
1F
100
AcDbEntity
  8
외형선
  6
Continuous
 62
     1
370
    15
100
AcDbLine
 10
29.04904884995336
 20
-2.683478104688041
 30
0.0
 11
29.04904884995336
 21
-2.310937477305558
 31
0.0
  0
SPLINE
  5
EC
330
1F
100
AcDbEntity
  8
외형선
  6
Continuous
 62
     1
370
    15
100
AcDbSpline
210
0.0
220
0.0
230
1.0
 70
     8
 71
     3
 72
     8
 73
     4
 74
     0
 42
0.000000001
 43
0.00000001
 40
0.0
 40
0.0
 40
0.0
 40
0.0
 40
1.0
 40
1.0
 40
1.0
 40
1.0
 10
28.10539135528273
 20
-3.547442365928903
 30
0.0
 10
28.42044278608658
 20
-3.233535944861023
 30
0.0
 10
28.73570736311309
 20
-2.943191190761166
 30
0.0
 10
29.04904884995336
 20
-2.683478104688048
 30
0.0
  0
SPLINE
  5
ED
330
1F
100
AcDbEntity
  8
외형선
  6
Continuous
 62
     1
370
    15
100
AcDbSpline
210
0.0
220
0.0
230
1.0
 70
     8
 71
     3
 72
     8
 73
     4
 74
     0
 42
0.000000001
 43
0.00000001
 40
0.0
 40
0.0
 40
0.0
 40
0.0
 40
1.0
 40
1.0
 40
1.0
 40
1.0
 10
27.85093919575991
 20
-3.669806503745304
 30
0.0
 10
27.92625143889848
 20
-3.608972700690621
 30
0.0
 10
28.01517712340529
 20
-3.568069848048382
 30
0.0
 10
28.10539135528246
 20
-3.547442365928985
 30
0.0
  0
SPLINE
  5
EE
330
1F
100
AcDbEntity
  8
외형선
  6
Continuous
 62
     1
370
    15
100
AcDbSpline
210
0.0
220
0.0
230
1.0
 70
     8
 71
     3
 72
     8
 73
     4
 74
     0
 42
0.000000001
 43
0.00000001
 40
0.0
 40
0.0
 40
0.0
 40
0.0
 40
1.0
 40
1.0
 40
1.0
 40
1.0
 10
27.69253109806825
 20
-3.736856093977917
 30
0.0
 10
27.74842764426223
 20
-3.730148314909363
 30
0.0
 10
27.80464555451299
 20
-3.707200400637308
 30
0.0
 10
27.85093919576146
 20
-3.669806503748866
 30
0.0
  0
SPLINE
  5
EF
330
1F
100
AcDbEntity
  8
외형선
  6
Continuous
 62
     1
370
    15
100
AcDbSpline
210
0.0
220
0.0
230
1.0
 70
     8
 71
     3
 72
     8
 73
     4
 74
     0
 42
0.000000001
 43
0.00000001
 40
0.0
 40
0.0
 40
0.0
 40
0.0
 40
1.0
 40
1.0
 40
1.0
 40
1.0
 10
27.69252862171023
 20
-3.736856391149353
 30
0.0
 10
27.32247937524428
 20
-3.78126355333176
 30
0.0
 10
26.95443050970019
 20
-3.819141965773848
 30
0.0
 10
26.58643286416814
 20
-3.850399436655973
 30
0.0
  0
SPLINE
  5
F0
330
1F
100
AcDbEntity
  8
외형선
  6
Continuous
 62
     1
370
    15
100
AcDbSpline
210
0.0
220
0.0
230
1.0
 70
     8
 71
     3
 72
     8
 73
     4
 74
     0
 42
0.000000001
 43
0.00000001
 40
0.0
 40
0.0
 40
0.0
 40
0.0
 40
1.0
 40
1.0
 40
1.0
 40
1.0
 10
26.4269440209262
 20
-3.813023481876756
 30
0.0
 10
26.47278923717093
 20
-3.842204982594275
 30
0.0
 10
26.52884126828223
 20
-3.855291227826056
 30
0.0
 10
26.5864328647641
 20
-3.850399436608747
 30
0.0
  0
SPLINE
  5
F1
330
1F
100
AcDbEntity
  8
외형선
  6
Continuous
 62
     1
370
    15
100
AcDbSpline
210
0.0
220
0.0
230
1.0
 70
     8
 71
     3
 72
    10
 73
     6
 74
     0
 42
0.000000001
 43
0.00000001
 40
0.0
 40
0.0
 40
0.0
 40
0.0
 40
0.5
 40
0.5
 40
1.0
 40
1.0
 40
1.0
 40
1.0
 10
25.79154164639641
 20
-3.855958736676777
 30
0.0
 10
25.88559101558239
 20
-3.78078421529665
 30
0.0
 10
25.99991946679508
 20
-3.740328412093726
 30
0.0
 10
26.22753956969862
 20
-3.728090402942788
 30
0.0
 10
26.33663398298317
 20
-3.755539132299874
 30
0.0
 10
26.42694402092614
 20
-3.813023481876697
 30
0.0
  0
SPLINE
  5
F2
330
1F
100
AcDbEntity
  8
외형선
  6
Continuous
 62
     1
370
    15
100
AcDbSpline
210
0.0
220
0.0
230
1.0
 70
     8
 71
     3
 72
     8
 73
     4
 74
     0
 42
0.000000001
 43
0.00000001
 40
0.0
 40
0.0
 40
0.0
 40
0.0
 40
1.0
 40
1.0
 40
1.0
 40
1.0
 10
25.63326986856806
 20
-3.916327065629365
 30
0.0
 10
25.68912530489961
 20
-3.913341229408816
 30
0.0
 10
25.74529517874211
 20
-3.892923961451197
 30
0.0
 10
25.79154164639753
 20
-3.85595873668095
 30
0.0
  0
SPLINE
  5
F3
330
1F
100
AcDbEntity
  8
외형선
  6
Continuous
 62
     1
370
    15
100
AcDbSpline
210
0.0
220
0.0
230
1.0
 70
     8
 71
     3
 72
     8
 73
     4
 74
     0
 42
0.000000001
 43
0.00000001
 40
0.0
 40
0.0
 40
0.0
 40
0.0
 40
1.0
 40
1.0
 40
1.0
 40
1.0
 10
25.6332698675714
 20
-3.916327065682639
 30
0.0
 10
25.26373904408223
 20
-3.93608089072049
 30
0.0
 10
24.8941876790859
 20
-3.949079707896529
 30
0.0
 10
24.52744871651328
 20
-3.955274737151356
 30
0.0
  0
SPLINE
  5
F4
330
1F
100
AcDbEntity
  8
외형선
  6
Continuous
 62
     1
370
    15
100
AcDbSpline
210
0.0
220
0.0
230
1.0
 70
     8
 71
     3
 72
     8
 73
     4
 74
     0
 42
0.000000001
 43
0.00000001
 40
0.0
 40
0.0
 40
0.0
 40
0.0
 40
1.0
 40
1.0
 40
1.0
 40
1.0
 10
24.36785388527255
 20
-3.904453920587599
 30
0.0
 10
24.41374197257574
 20
-3.938443598997252
 30
0.0
 10
24.46982329154287
 20
-3.95624816367449
 30
0.0
 10
24.52745188746971
 20
-3.955274683590358
 30
0.0
  0
SPLINE
  5
F5
330
1F
100
AcDbEntity
  8
외형선
  6
Continuous
 62
     1
370
    15
100
AcDbSpline
210
0.0
220
0.0
230
1.0
 70
     8
 71
     3
 72
    10
 73
     6
 74
     0
 42
0.000000001
 43
0.00000001
 40
0.0
 40
0.0
 40
0.0
 40
0.0
 40
0.5
 40
0.5
 40
1.0
 40
1.0
 40
1.0
 40
1.0
 10
23.73177858723258
 20
-3.904592022664481
 30
0.0
 10
23.82595134495729
 20
-3.832902986605724
 30
0.0
 10
23.94040473012554
 20
-3.798128509138323
 30
0.0
 10
24.16822756582149
 20
-3.80094210225911
 30
0.0
 10
24.27743505939592
 20
-3.837479962980145
 30
0.0
 10
24.3678538852725
 20
-3.904453920587545
 30
0.0
  0
SPLINE
  5
F6
330
1F
100
AcDbEntity
  8
외형선
  6
Continuous
 62
     1
370
    15
100
AcDbSpline
210
0.0
220
0.0
230
1.0
 70
     8
 71
     3
 72
     8
 73
     4
 74
     0
 42
0.000000001
 43
0.00000001
 40
0.0
 40
0.0
 40
0.0
 40
0.0
 40
1.0
 40
1.0
 40
1.0
 40
1.0
 10
23.57334718470986
 20
-3.956143801401256
 30
0.0
 10
23.62925227347498
 20
-3.956982055007099
 30
0.0
 10
23.68547772376442
 20
-3.939838566902643
 30
0.0
 10
23.73177858723376
 20
-3.904592022669055
 30
0.0
  0
SPLINE
  5
F7
330
1F
100
AcDbEntity
  8
외형선
  6
Continuous
 62
     1
370
    15
100
AcDbSpline
210
0.0
220
0.0
230
1.0
 70
     8
 71
     3
 72
     8
 73
     4
 74
     0
 42
0.000000001
 43
0.00000001
 40
0.0
 40
0.0
 40
0.0
 40
0.0
 40
1.0
 40
1.0
 40
1.0
 40
1.0
 10
23.57334718450501
 20
-3.956143801398181
 30
0.0
 10
23.20410083174205
 20
-3.950607237668017
 30
0.0
 10
22.83425589790278
 20
-3.938251343057225
 30
0.0
 10
22.46665320708838
 20
-3.91920119661543
 30
0.0
  0
SPLINE
  5
F8
330
1F
100
AcDbEntity
  8
외형선
  6
Continuous
 62
     1
370
    15
100
AcDbSpline
210
0.0
220
0.0
230
1.0
 70
     8
 71
     3
 72
     8
 73
     4
 74
     0
 42
0.000000001
 43
0.00000001
 40
0.0
 40
0.0
 40
0.0
 40
0.0
 40
1.0
 40
1.0
 40
1.0
 40
1.0
 10
22.30697494459303
 20
-3.856707005186334
 30
0.0
 10
22.3528853043911
 20
-3.894306808082388
 30
0.0
 10
22.40899503266442
 20
-3.916213197091677
 30
0.0
 10
22.46665320709208
 20
-3.919201196619308
 30
0.0
  0
SPLINE
  5
F9
330
1F
100
AcDbEntity
  8
외형선
  6
Continuous
 62
     1
370
    15
100
AcDbSpline
210
0.0
220
0.0
230
1.0
 70
     8
 71
     3
 72
    10
 73
     6
 74
     0
 42
0.000000001
 43
0.00000001
 40
0.0
 40
0.0
 40
0.0
 40
0.0
 40
0.5
 40
0.5
 40
1.0
 40
1.0
 40
1.0
 40
1.0
 10
21.67070519815615
 20
-3.813850676181634
 30
0.0
 10
21.76491435260245
 20
-3.748234144926245
 30
0.0
 10
21.87940756397782
 20
-3.720388397154726
 30
0.0
 10
22.10728431385581
 20
-3.738234618818338
 30
0.0
 10
22.21650270771047
 20
-3.782611783774041
 30
0.0
 10
22.30697494459305
 20
-3.856707005186323
 30
0.0
  0
SPLINE
  5
FA
330
1F
100
AcDbEntity
  8
외형선
  6
Continuous
 62
     1
370
    15
100
AcDbSpline
210
0.0
220
0.0
230
1.0
 70
     8
 71
     3
 72
     8
 73
     4
 74
     0
 42
0.000000001
 43
0.00000001
 40
0.0
 40
0.0
 40
0.0
 40
0.0
 40
1.0
 40
1.0
 40
1.0
 40
1.0
 10
21.51226182393075
 20
-3.854721750752853
 30
0.0
 10
21.568170323489
 20
-3.859362794451116
 30
0.0
 10
21.62439892189024
 20
-3.846102926424541
 30
0.0
 10
21.6707051981573
 20
-3.813850676186309
 30
0.0
  0
SPLINE
  5
FB
330
1F
100
AcDbEntity
  8
외형선
  6
Continuous
 62
     1
370
    15
100
AcDbSpline
210
0.0
220
0.0
230
1.0
 70
     8
 71
     3
 72
     8
 73
     4
 74
     0
 42
0.000000001
 43
0.00000001
 40
0.0
 40
0.0
 40
0.0
 40
0.0
 40
1.0
 40
1.0
 40
1.0
 40
1.0
 10
21.51226182391481
 20
-3.854721750751525
 30
0.0
 10
21.14369212039378
 20
-3.824126257876152
 30
0.0
 10
20.77395168051661
 20
-3.78687227533476
 30
0.0
 10
20.40587948222339
 20
-3.743254652489502
 30
0.0
  0
SPLINE
  5
FC
330
1F
100
AcDbEntity
  8
외형선
  6
Continuous
 62
     1
370
    15
100
AcDbSpline
210
0.0
220
0.0
230
1.0
 70
     8
 71
     3
 72
     8
 73
     4
 74
     0
 42
0.000000001
 43
0.00000001
 40
0.0
 40
0.0
 40
0.0
 40
0.0
 40
1.0
 40
1.0
 40
1.0
 40
1.0
 10
20.2463182165848
 20
-3.671356707633912
 30
0.0
 10
20.29218485660061
 20
-3.71121466490807
 30
0.0
 10
20.3482578354213
 20
-3.736426320253628
 30
0.0
 10
20.40587948222524
 20
-3.743254652493289
 30
0.0
  0
SPLINE
  5
FD
330
1F
100
AcDbEntity
  8
외형선
  6
Continuous
 62
     1
370
    15
100
AcDbSpline
210
0.0
220
0.0
230
1.0
 70
     8
 71
     3
 72
    10
 73
     6
 74
     0
 42
0.000000001
 43
0.00000001
 40
0.0
 40
0.0
 40
0.0
 40
0.0
 40
0.5
 40
0.5
 40
1.0
 40
1.0
 40
1.0
 40
1.0
 10
19.61056389693792
 20
-3.58707082730556
 30
0.0
 10
19.70468063985621
 20
-3.529907599870595
 30
0.0
 10
19.81906772920799
 20
-3.509968688845831
 30
0.0
 10
20.0467526396137
 20
-3.542184555316436
 30
0.0
 10
20.15592079928604
 20
-3.592801653346895
 30
0.0
 10
20.24631821658476
 20
-3.671356707633631
 30
0.0
  0
SPLINE
  5
FE
330
1F
100
AcDbEntity
  8
외형선
  6
Continuous
 62
     1
370
    15
100
AcDbSpline
210
0.0
220
0.0
230
1.0
 70
     8
 71
     3
 72
     8
 73
     4
 74
     0
 42
0.000000001
 43
0.00000001
 40
0.0
 40
0.0
 40
0.0
 40
0.0
 40
1.0
 40
1.0
 40
1.0
 40
1.0
 10
19.45225691180677
 20
-3.615806092714633
 30
0.0
 10
19.50812235224394
 20
-3.624084264706813
 30
0.0
 10
19.56430144688898
 20
-3.615169026119811
 30
0.0
 10
19.61056389693903
 20
-3.587070827310002
 30
0.0
  0
SPLINE
  5
FF
330
1F
100
AcDbEntity
  8
외형선
  6
Continuous
 62
     1
370
    15
100
AcDbSpline
210
0.0
220
0.0
230
1.0
 70
     8
 71
     3
 72
     8
 73
     4
 74
     0
 42
0.000000001
 43
0.00000001
 40
0.0
 40
0.0
 40
0.0
 40
0.0
 40
1.0
 40
1.0
 40
1.0
 40
1.0
 10
19.45225706267906
 20
-3.615806115070891
 30
0.0
 10
19.08460359128343
 20
-3.561327021125746
 30
0.0
 10
18.71520822625878
 20
-3.500563225088844
 30
0.0
 10
18.34690200097323
 20
-3.433969801114047
 30
0.0
  0
SPLINE
  5
100
330
1F
100
AcDbEntity
  8
외형선
  6
Continuous
 62
     1
370
    15
100
AcDbSpline
210
0.0
220
0.0
230
1.0
 70
     8
 71
     3
 72
     8
 73
     4
 74
     0
 42
0.000000001
 43
0.00000001
 40
0.0
 40
0.0
 40
0.0
 40
0.0
 40
1.0
 40
1.0
 40
1.0
 40
1.0
 10
18.18739288168703
 20
-3.35525493525547
 30
0.0
 10
18.23324235661494
 20
-3.395942175325832
 30
0.0
 10
18.28929731052077
 20
-3.423554300886776
 30
0.0
 10
18.34690200089181
 20
-3.433969801102664
 30
0.0
  0
SPLINE
  5
101
330
1F
100
AcDbEntity
  8
외형선
  6
Continuous
 62
     1
370
    15
100
AcDbSpline
210
0.0
220
0.0
230
1.0
 70
     8
 71
     3
 72
    10
 73
     6
 74
     0
 42
0.000000001
 43
0.00000001
 40
0.0
 40
0.0
 40
0.0
 40
0.0
 40
0.5
 40
0.5
 40
1.0
 40
1.0
 40
1.0
 40
1.0
 10
17.55149826791759
 20
-3.232599111053116
 30
0.0
 10
17.64563284429317
 20
-3.185946228645927
 30
0.0
 10
17.76001414702746
 20
-3.174646144115938
 30
0.0
 10
17.98775382432574
 20
-3.219982117210426
 30
0.0
 10
18.09698050251042
 20
-3.275022169609207
 30
0.0
 10
18.18739288168696
 20
-3.355254935255423
 30
0.0
  0
SPLINE
  5
102
330
1F
100
AcDbEntity
  8
외형선
  6
Continuous
 62
     1
370
    15
100
AcDbSpline
210
0.0
220
0.0
230
1.0
 70
     8
 71
     3
 72
     8
 73
     4
 74
     0
 42
0.000000001
 43
0.00000001
 40
0.0
 40
0.0
 40
0.0
 40
0.0
 40
1.0
 40
1.0
 40
1.0
 40
1.0
 10
17.39308454976487
 20
-3.248113390115934
 30
0.0
 10
17.44898149044968
 20
-3.259754973380212
 30
0.0
 10
17.50519811335031
 20
-3.255545362579783
 30
0.0
 10
17.55149826791877
 20
-3.232599111057505
 30
0.0
  0
SPLINE
  5
103
330
1F
100
AcDbEntity
  8
외형선
  6
Continuous
 62
     1
370
    15
100
AcDbSpline
210
0.0
220
0.0
230
1.0
 70
     8
 71
     3
 72
     8
 73
     4
 74
     0
 42
0.000000001
 43
0.00000001
 40
0.0
 40
0.0
 40
0.0
 40
0.0
 40
1.0
 40
1.0
 40
1.0
 40
1.0
 10
17.3930845497687
 20
-3.248113390116728
 30
0.0
 10
17.02561622463734
 20
-3.171581239133344
 30
0.0
 10
16.65582513426308
 20
-3.089306849124395
 30
0.0
 10
16.28655074165648
 20
-3.001896367803399
 30
0.0
  0
SPLINE
  5
104
330
1F
100
AcDbEntity
  8
외형선
  6
Continuous
 62
     1
370
    15
100
AcDbSpline
210
0.0
220
0.0
230
1.0
 70
     8
 71
     3
 72
     8
 73
     4
 74
     0
 42
0.000000001
 43
0.00000001
 40
0.0
 40
0.0
 40
0.0
 40
0.0
 40
1.0
 40
1.0
 40
1.0
 40
1.0
 10
16.12689575858926
 20
-2.919125384998289
 30
0.0
 10
16.17279716015586
 20
-2.959215518751857
 30
0.0
 10
16.22890132910982
 20
-2.988250246719653
 30
0.0
 10
16.28655041724759
 20
-3.001896291016028
 30
0.0
  0
SPLINE
  5
105
330
1F
100
AcDbEntity
  8
외형선
  6
Continuous
 62
     1
370
    15
100
AcDbSpline
210
0.0
220
0.0
230
1.0
 70
     8
 71
     3
 72
    10
 73
     6
 74
     0
 42
0.000000001
 43
0.00000001
 40
0.0
 40
0.0
 40
0.0
 40
0.0
 40
0.5
 40
0.5
 40
1.0
 40
1.0
 40
1.0
 40
1.0
 10
15.49063447385928
 20
-2.762527466309827
 30
0.0
 10
15.5848159337686
 20
-2.727991073660178
 30
0.0
 10
15.69927013859333
 20
-2.725671841151584
 30
0.0
 10
15.92712980861103
 20
-2.782582407635035
 30
0.0
 10
16.03641172160569
 20
-2.840096923525818
 30
0.0
 10
16.12689575858921
 20
-2.919125384998251
 30
0.0
  0
SPLINE
  5
106
330
1F
100
AcDbEntity
  8
외형선
  6
Continuous
 62
     1
370
    15
100
AcDbSpline
210
0.0
220
0.0
230
1.0
 70
     8
 71
     3
 72
     8
 73
     4
 74
     0
 42
0.000000001
 43
0.00000001
 40
0.0
 40
0.0
 40
0.0
 40
0.0
 40
1.0
 40
1.0
 40
1.0
 40
1.0
 10
15.33215932743851
 20
-2.764264499073344
 30
0.0
 10
15.3880672304545
 20
-2.778871120633919
 30
0.0
 10
15.4443083126997
 20
-2.779515294844561
 30
0.0
 10
15.49063447386045
 20
-2.762527466313504
 30
0.0
  0
SPLINE
  5
107
330
1F
100
AcDbEntity
  8
외형선
  6
Continuous
 62
     1
370
    15
100
AcDbSpline
210
0.0
220
0.0
230
1.0
 70
     8
 71
     3
 72
     8
 73
     4
 74
     0
 42
0.000000001
 43
0.00000001
 40
0.0
 40
0.0
 40
0.0
 40
0.0
 40
1.0
 40
1.0
 40
1.0
 40
1.0
 10
15.33215991015638
 20
-2.764264651315474
 30
0.0
 10
14.9652257809356
 20
-2.668398639122985
 30
0.0
 10
14.59539381331945
 20
-2.567524062145073
 30
0.0
 10
14.22550316985096
 20
-2.462381455071557
 30
0.0
  0
SPLINE
  5
108
330
1F
100
AcDbEntity
  8
외형선
  6
Continuous
 62
     1
370
    15
100
AcDbSpline
210
0.0
220
0.0
230
1.0
 70
     8
 71
     3
 72
     8
 73
     4
 74
     0
 42
0.000000001
 43
0.00000001
 40
0.0
 40
0.0
 40
0.0
 40
0.0
 40
1.0
 40
1.0
 40
1.0
 40
1.0
 10
14.06589493420666
 20
-2.378534684655303
 30
0.0
 10
14.11177874241381
 20
-2.416582188729145
 30
0.0
 10
14.16786862840794
 20
-2.445998649973842
 30
0.0
 10
14.22550231741836
 20
-2.462381212767445
 30
0.0
  0
SPLINE
  5
109
330
1F
100
AcDbEntity
  8
외형선
  6
Continuous
 62
     1
370
    15
100
AcDbSpline
210
0.0
220
0.0
230
1.0
 70
     8
 71
     3
 72
    10
 73
     6
 74
     0
 42
0.000000001
 43
0.00000001
 40
0.0
 40
0.0
 40
0.0
 40
0.0
 40
0.5
 40
0.5
 40
1.0
 40
1.0
 40
1.0
 40
1.0
 10
13.42995335491061
 20
-2.193754209971694
 30
0.0
 10
13.52407643081982
 20
-2.172521206376425
 30
0.0
 10
13.63847908575227
 20
-2.179237935907066
 30
0.0
 10
13.86625233404168
 20
-2.245631523168361
 30
0.0
 10
13.97546864169053
 20
-2.303551921294424
 30
0.0
 10
14.06589493420659
 20
-2.378534684655272
 30
0.0
  0
SPLINE
  5
10A
330
1F
100
AcDbEntity
  8
외형선
  6
Continuous
 62
     1
370
    15
100
AcDbSpline
210
0.0
220
0.0
230
1.0
 70
     8
 71
     3
 72
     8
 73
     4
 74
     0
 42
0.000000001
 43
0.00000001
 40
0.0
 40
0.0
 40
0.0
 40
0.0
 40
1.0
 40
1.0
 40
1.0
 40
1.0
 10
13.27158062255871
 20
-2.181808446545154
 30
0.0
 10
13.3274588366149
 20
-2.198797329589151
 30
0.0
 10
13.38366494279375
 20
-2.204196304130882
 30
0.0
 10
13.42995335491177
 20
-2.193754209975103
 30
0.0
  0
SPLINE
  5
10B
330
1F
100
AcDbEntity
  8
외형선
  6
Continuous
 62
     1
370
    15
100
AcDbSpline
210
0.0
220
0.0
230
1.0
 70
     8
 71
     3
 72
     8
 73
     4
 74
     0
 42
0.000000001
 43
0.00000001
 40
0.0
 40
0.0
 40
0.0
 40
0.0
 40
1.0
 40
1.0
 40
1.0
 40
1.0
 10
13.2715806226236
 20
-2.181808446564875
 30
0.0
 10
12.90356804176493
 20
-2.069920069305486
 30
0.0
 10
12.53589611484054
 20
-1.954310859889982
 30
0.0
 10
12.16599672379437
 20
-1.83529024764519
 30
0.0
  0
SPLINE
  5
10C
330
1F
100
AcDbEntity
  8
외형선
  6
Continuous
 62
     1
370
    15
100
AcDbSpline
210
0.0
220
0.0
230
1.0
 70
     8
 71
     3
 72
     8
 73
     4
 74
     0
 42
0.000000001
 43
0.00000001
 40
0.0
 40
0.0
 40
0.0
 40
0.0
 40
1.0
 40
1.0
 40
1.0
 40
1.0
 10
12.0065812290487
 20
-1.753386398229202
 30
0.0
 10
12.05239803007495
 20
-1.788021101645241
 30
0.0
 10
12.10842341833827
 20
-1.816765182875278
 30
0.0
 10
12.16599636273715
 20
-1.835290131471726
 30
0.0
  0
SPLINE
  5
10D
330
1F
100
AcDbEntity
  8
외형선
  6
Continuous
 62
     1
370
    15
100
AcDbSpline
210
0.0
220
0.0
230
1.0
 70
     8
 71
     3
 72
    10
 73
     6
 74
     0
 42
0.000000001
 43
0.00000001
 40
0.0
 40
0.0
 40
0.0
 40
0.0
 40
0.5
 40
0.5
 40
1.0
 40
1.0
 40
1.0
 40
1.0
 10
11.37102069713498
 20
-1.547030261039876
 30
0.0
 10
11.46508965683179
 20
-1.539852767002681
 30
0.0
 10
11.57942824496713
 20
-1.555358107995222
 30
0.0
 10
11.80708560182722
 20
-1.628838391977411
 30
0.0
 10
11.91624541520625
 20
-1.685098040024344
 30
0.0
 10
12.00658122904862
 20
-1.75338639822918
 30
0.0
  0
SPLINE
  5
10E
330
1F
100
AcDbEntity
  8
외형선
  6
Continuous
 62
     1
370
    15
100
AcDbSpline
210
0.0
220
0.0
230
1.0
 70
     8
 71
     3
 72
     8
 73
     4
 74
     0
 42
0.000000001
 43
0.00000001
 40
0.0
 40
0.0
 40
0.0
 40
0.0
 40
1.0
 40
1.0
 40
1.0
 40
1.0
 10
11.21266962135328
 20
-1.52181646081364
 30
0.0
 10
11.26854421024082
 20
-1.540584170432897
 30
0.0
 10
11.32474328317869
 20
-1.5505612436725
 30
0.0
 10
11.37102069713614
 20
-1.547030261042634
 30
0.0
  0
SPLINE
  5
10F
330
1F
100
AcDbEntity
  8
외형선
  6
Continuous
 62
     1
370
    15
100
AcDbSpline
210
0.0
220
0.0
230
1.0
 70
     8
 71
     3
 72
     8
 73
     4
 74
     0
 42
0.000000001
 43
0.00000001
 40
0.0
 40
0.0
 40
0.0
 40
0.0
 40
1.0
 40
1.0
 40
1.0
 40
1.0
 10
11.2126699543794
 20
-1.521816572673737
 30
0.0
 10
10.84329628127972
 20
-1.397747691390866
 30
0.0
 10
10.47638225836572
 20
-1.271323413262147
 30
0.0
 10
10.10635223074481
 20
-1.142556499735642
 30
0.0
  0
SPLINE
  5
110
330
1F
100
AcDbEntity
  8
외형선
  6
Continuous
370
    15
100
AcDbSpline
210
0.0
220
0.0
230
1.0
 70
     8
 71
     3
 72
     8
 73
     4
 74
     0
 42
0.000000001
 43
0.00000001
 40
0.0
 40
0.0
 40
0.0
 40
0.0
 40
1.0
 40
1.0
 40
1.0
 40
1.0
 10
9.999048849956829
 20
-1.096019638758092
 30
0.0
 10
10.0328585993391
 20
-1.113828542248265
 30
0.0
 10
10.06914351155636
 20
-1.129608220564572
 30
0.0
 10
10.10635071533981
 20
-1.14255597238921
 30
0.0
  0
SPLINE
  5
111
330
1F
100
AcDbEntity
  8
외형선
  6
Continuous
 62
     1
370
    15
100
AcDbSpline
210
0.0
220
0.0
230
1.0
 70
     8
 71
     3
 72
     8
 73
     4
 74
     0
 42
0.000000001
 43
0.00000001
 40
0.0
 40
0.0
 40
0.0
 40
0.0
 40
1.0
 40
1.0
 40
1.0
 40
1.0
 10
10.73803345218568
 20
3.533583036830233
 30
0.0
 10
10.49268651421897
 20
3.574776613405978
 30
0.0
 10
10.24607674194284
 20
3.613343664538382
 30
0.0
 10
9.999048849951324
 20
3.649132778398504
 30
0.0
  0
SPLINE
  5
112
330
1F
100
AcDbEntity
  8
외형선
  6
Continuous
 62
     1
370
    15
100
AcDbSpline
210
0.0
220
0.0
230
1.0
 70
     8
 71
     3
 72
     8
 73
     4
 74
     0
 42
0.000000001
 43
0.00000001
 40
0.0
 40
0.0
 40
0.0
 40
0.0
 40
1.0
 40
1.0
 40
1.0
 40
1.0
 10
10.89771793774451
 20
3.456041890802904
 30
0.0
 10
10.85179925755429
 20
3.496711762644051
 30
0.0
 10
10.79568847810728
 20
3.523902798943507
 30
0.0
 10
10.73803345169742
 20
3.533583036915594
 30
0.0
  0
SPLINE
  5
113
330
1F
100
AcDbEntity
  8
외형선
  6
Continuous
 62
     1
370
    15
100
AcDbSpline
210
0.0
220
0.0
230
1.0
 70
     8
 71
     3
 72
    10
 73
     6
 74
     0
 42
0.000000001
 43
0.00000001
 40
0.0
 40
0.0
 40
0.0
 40
0.0
 40
0.5
 40
0.5
 40
1.0
 40
1.0
 40
1.0
 40
1.0
 10
11.53397195854301
 20
3.341808938666469
 30
0.0
 10
11.43977329808948
 20
3.292533858404753
 30
0.0
 10
11.32528822172151
 20
3.279174131996623
 30
0.0
 10
11.09740830346582
 20
3.321682664491693
 30
0.0
 10
10.98817639123747
 20
3.37592343584539
 30
0.0
 10
10.89771793774491
 20
3.456041890802622
 30
0.0
  0
SPLINE
  5
114
330
1F
100
AcDbEntity
  8
외형선
  6
Continuous
 62
     1
370
    15
100
AcDbSpline
210
0.0
220
0.0
230
1.0
 70
     8
 71
     3
 72
     8
 73
     4
 74
     0
 42
0.000000001
 43
0.00000001
 40
0.0
 40
0.0
 40
0.0
 40
0.0
 40
1.0
 40
1.0
 40
1.0
 40
1.0
 10
11.69241603141703
 20
3.360473628199576
 30
0.0
 10
11.63650704359899
 20
3.37135715526135
 30
0.0
 10
11.58027739819062
 20
3.366031196653942
 30
0.0
 10
11.53397195854143
 20
3.34180893867023
 30
0.0
  0
SPLINE
  5
115
330
1F
100
AcDbEntity
  8
외형선
  6
Continuous
 62
     1
370
    15
100
AcDbSpline
210
0.0
220
0.0
230
1.0
 70
     8
 71
     3
 72
     8
 73
     4
 74
     0
 42
0.000000001
 43
0.00000001
 40
0.0
 40
0.0
 40
0.0
 40
0.0
 40
1.0
 40
1.0
 40
1.0
 40
1.0
 10
12.7988752218061
 20
3.128107595720434
 30
0.0
 10
12.4313628518133
 20
3.210944406725411
 30
0.0
 10
12.0615967897976
 20
3.288607029789249
 30
0.0
 10
11.69241603233587
 20
3.360473628020713
 30
0.0
  0
SPLINE
  5
116
330
1F
100
AcDbEntity
  8
외형선
  6
Continuous
 62
     1
370
    15
100
AcDbSpline
210
0.0
220
0.0
230
1.0
 70
     8
 71
     3
 72
     8
 73
     4
 74
     0
 42
0.000000001
 43
0.00000001
 40
0.0
 40
0.0
 40
0.0
 40
0.0
 40
1.0
 40
1.0
 40
1.0
 40
1.0
 10
12.9584589714531
 20
3.045887272566626
 30
0.0
 10
12.91258358997248
 20
3.086276617916956
 30
0.0
 10
12.85650425644252
 20
3.115118086144286
 30
0.0
 10
12.79887522152197
 20
3.128107595787535
 30
0.0
  0
SPLINE
  5
117
330
1F
100
AcDbEntity
  8
외형선
  6
Continuous
 62
     1
370
    15
100
AcDbSpline
210
0.0
220
0.0
230
1.0
 70
     8
 71
     3
 72
    10
 73
     6
 74
     0
 42
0.000000001
 43
0.00000001
 40
0.0
 40
0.0
 40
0.0
 40
0.0
 40
0.5
 40
0.5
 40
1.0
 40
1.0
 40
1.0
 40
1.0
 10
13.59426606596999
 20
2.896412610036332
 30
0.0
 10
13.50013724326909
 20
2.858928514583191
 30
0.0
 10
13.38572397911115
 20
2.85452121108897
 30
0.0
 10
13.15798546212991
 20
2.909077009376057
 30
0.0
 10
13.04884972862457
 20
2.966305950514051
 30
0.0
 10
12.9584589714535
 20
3.045887272566381
 30
0.0
  0
SPLINE
  5
118
330
1F
100
AcDbEntity
  8
외형선
  6
Continuous
 62
     1
370
    15
100
AcDbSpline
210
0.0
220
0.0
230
1.0
 70
     8
 71
     3
 72
     8
 73
     4
 74
     0
 42
0.000000001
 43
0.00000001
 40
0.0
 40
0.0
 40
0.0
 40
0.0
 40
1.0
 40
1.0
 40
1.0
 40
1.0
 10
13.75258285953546
 20
2.901460280727255
 30
0.0
 10
13.69671348161631
 20
2.915371580039549
 30
0.0
 10
13.64052998980202
 20
2.914835886643177
 30
0.0
 10
13.59426606596846
 20
2.896412610039718
 30
0.0
  0
SPLINE
  5
119
330
1F
100
AcDbEntity
  8
외형선
  6
Continuous
 62
     1
370
    15
100
AcDbSpline
210
0.0
220
0.0
230
1.0
 70
     8
 71
     3
 72
     8
 73
     4
 74
     0
 42
0.000000001
 43
0.00000001
 40
0.0
 40
0.0
 40
0.0
 40
0.0
 40
1.0
 40
1.0
 40
1.0
 40
1.0
 10
14.85791499526144
 20
2.612005618451947
 30
0.0
 10
14.49020030503893
 20
2.713038019084365
 30
0.0
 10
14.12081262865809
 20
2.809772226827892
 30
0.0
 10
13.75258285956187
 20
2.901460280720673
 30
0.0
  0
SPLINE
  5
11A
330
1F
100
AcDbEntity
  8
외형선
  6
Continuous
 62
     1
370
    15
100
AcDbSpline
210
0.0
220
0.0
230
1.0
 70
     8
 71
     3
 72
     8
 73
     4
 74
     0
 42
0.000000001
 43
0.00000001
 40
0.0
 40
0.0
 40
0.0
 40
0.0
 40
1.0
 40
1.0
 40
1.0
 40
1.0
 10
15.0174109395187
 20
2.528078610744113
 30
0.0
 10
14.97156589668054
 20
2.566729790918215
 30
0.0
 10
14.91551611950191
 20
2.596179272744976
 30
0.0
 10
14.85791489182917
 20
2.612005646873378
 30
0.0
  0
SPLINE
  5
11B
330
1F
100
AcDbEntity
  8
외형선
  6
Continuous
 62
     1
370
    15
100
AcDbSpline
210
0.0
220
0.0
230
1.0
 70
     8
 71
     3
 72
    10
 73
     6
 74
     0
 42
0.000000001
 43
0.00000001
 40
0.0
 40
0.0
 40
0.0
 40
0.0
 40
0.5
 40
0.5
 40
1.0
 40
1.0
 40
1.0
 40
1.0
 10
15.65326103549308
 20
2.348677817453829
 30
0.0
 10
15.55911913392107
 20
2.324347950260406
 30
0.0
 10
15.44471625041363
 20
2.329103845262061
 30
0.0
 10
15.21700911409835
 20
2.393779413715393
 30
0.0
 10
15.10781090990302
 20
2.451863924776749
 30
0.0
 10
15.01741093951911
 20
2.528078610743906
 30
0.0
  0
SPLINE
  5
11C
330
1F
100
AcDbEntity
  8
외형선
  6
Continuous
 62
     1
370
    15
100
AcDbSpline
210
0.0
220
0.0
230
1.0
 70
     8
 71
     3
 72
     8
 73
     4
 74
     0
 42
0.000000001
 43
0.00000001
 40
0.0
 40
0.0
 40
0.0
 40
0.0
 40
1.0
 40
1.0
 40
1.0
 40
1.0
 10
15.81165655014993
 20
2.339858687052091
 30
0.0
 10
15.75576369383875
 20
2.356326316145254
 30
0.0
 10
15.69955245072927
 20
2.360641289259495
 30
0.0
 10
15.65326103549151
 20
2.348677817456939
 30
0.0
  0
SPLINE
  5
11D
330
1F
100
AcDbEntity
  8
외형선
  6
Continuous
 62
     1
370
    15
100
AcDbSpline
210
0.0
220
0.0
230
1.0
 70
     8
 71
     3
 72
     8
 73
     4
 74
     0
 42
0.000000001
 43
0.00000001
 40
0.0
 40
0.0
 40
0.0
 40
0.0
 40
1.0
 40
1.0
 40
1.0
 40
1.0
 10
16.91812166928932
 20
2.002928854344474
 30
0.0
 10
16.54945585543597
 20
2.118830157247551
 30
0.0
 10
16.17968762236042
 20
2.231426239830037
 30
0.0
 10
15.8116565505056
 20
2.3398586869473
 30
0.0
  0
SPLINE
  5
11E
330
1F
100
AcDbEntity
  8
외형선
  6
Continuous
 62
     1
370
    15
100
AcDbSpline
210
0.0
220
0.0
230
1.0
 70
     8
 71
     3
 72
     8
 73
     4
 74
     0
 42
0.000000001
 43
0.00000001
 40
0.0
 40
0.0
 40
0.0
 40
0.0
 40
1.0
 40
1.0
 40
1.0
 40
1.0
 10
17.07777453526918
 20
1.920211649799719
 30
0.0
 10
17.03187339803635
 20
1.955779909163616
 30
0.0
 10
16.97577019668888
 20
1.984805288836987
 30
0.0
 10
16.91812059591808
 20
2.002929191793501
 30
0.0
  0
SPLINE
  5
11F
330
1F
100
AcDbEntity
  8
외형선
  6
Continuous
 62
     1
370
    15
100
AcDbSpline
210
0.0
220
0.0
230
1.0
 70
     8
 71
     3
 72
    10
 73
     6
 74
     0
 42
0.000000001
 43
0.00000001
 40
0.0
 40
0.0
 40
0.0
 40
0.0
 40
0.5
 40
0.5
 40
1.0
 40
1.0
 40
1.0
 40
1.0
 10
17.71405800891646
 20
1.717312771087233
 30
0.0
 10
17.61986202417536
 20
1.707030714915614
 30
0.0
 10
17.50541242809397
 20
1.720805511410453
 30
0.0
 10
17.27755162961396
 20
1.793181231603948
 30
0.0
 10
17.16826589921509
 20
1.850090940443329
 30
0.0
 10
17.07777453526959
 20
1.920211649799532
 30
0.0
  0
SPLINE
  5
120
330
1F
100
AcDbEntity
  8
외형선
  6
Continuous
 62
     1
370
    15
100
AcDbSpline
210
0.0
220
0.0
230
1.0
 70
     8
 71
     3
 72
     8
 73
     4
 74
     0
 42
0.000000001
 43
0.00000001
 40
0.0
 40
0.0
 40
0.0
 40
0.0
 40
1.0
 40
1.0
 40
1.0
 40
1.0
 10
17.87253000399889
 20
1.694888190242127
 30
0.0
 10
17.81661502626272
 20
1.713341710210603
 30
0.0
 10
17.7603780647692
 20
1.722368882743136
 30
0.0
 10
17.71405800891485
 20
1.717312771089897
 30
0.0
  0
SPLINE
  5
121
330
1F
100
AcDbEntity
  8
외형선
  6
Continuous
 62
     1
370
    15
100
AcDbSpline
210
0.0
220
0.0
230
1.0
 70
     8
 71
     3
 72
     8
 73
     4
 74
     0
 42
0.000000001
 43
0.00000001
 40
0.0
 40
0.0
 40
0.0
 40
0.0
 40
1.0
 40
1.0
 40
1.0
 40
1.0
 10
18.97919157132157
 20
1.322525296517894
 30
0.0
 10
18.60988749878859
 20
1.449159343615023
 30
0.0
 10
18.24005362948714
 20
1.573595024465045
 30
0.0
 10
17.87253042804563
 20
1.69488805029407
 30
0.0
  0
SPLINE
  5
122
330
1F
100
AcDbEntity
  8
외형선
  6
Continuous
 62
     1
370
    15
100
AcDbSpline
210
0.0
220
0.0
230
1.0
 70
     8
 71
     3
 72
     8
 73
     4
 74
     0
 42
0.000000001
 43
0.00000001
 40
0.0
 40
0.0
 40
0.0
 40
0.0
 40
1.0
 40
1.0
 40
1.0
 40
1.0
 10
19.13881075380609
 20
1.244008997997283
 30
0.0
 10
19.09292301987348
 20
1.275205452498996
 30
0.0
 10
19.03682987605909
 20
1.302761171596242
 30
0.0
 10
18.97919168233632
 20
1.322525258452618
 30
0.0
  0
SPLINE
  5
123
330
1F
100
AcDbEntity
  8
외형선
  6
Continuous
 62
     1
370
    15
100
AcDbSpline
210
0.0
220
0.0
230
1.0
 70
     8
 71
     3
 72
    10
 73
     6
 74
     0
 42
0.000000001
 43
0.00000001
 40
0.0
 40
0.0
 40
0.0
 40
0.0
 40
0.5
 40
0.5
 40
1.0
 40
1.0
 40
1.0
 40
1.0
 10
19.77481905393634
 20
1.025246322407948
 30
0.0
 10
19.68068308040598
 20
1.029289656620087
 30
0.0
 10
19.56627232038407
 20
1.05140677007492
 30
0.0
 10
19.33848753581108
 20
1.128847032339118
 30
0.0
 10
19.22925327695512
 20
1.182522282122699
 30
0.0
 10
19.1388107538065
 20
1.24400899799718
 30
0.0
  0
SPLINE
  5
124
330
1F
100
AcDbEntity
  8
외형선
  6
Continuous
 62
     1
370
    15
100
AcDbSpline
210
0.0
220
0.0
230
1.0
 70
     8
 71
     3
 72
     8
 73
     4
 74
     0
 42
0.000000001
 43
0.00000001
 40
0.0
 40
0.0
 40
0.0
 40
0.0
 40
1.0
 40
1.0
 40
1.0
 40
1.0
 10
19.93321256821993
 20
0.9900938705301122
 30
0.0
 10
19.87732946986798
 20
1.009871403924207
 30
0.0
 10
19.8211180695188
 20
1.023257684201868
 30
0.0
 10
19.77481905393475
 20
1.025246322409985
 30
0.0
  0
SPLINE
  5
125
330
1F
100
AcDbEntity
  8
외형선
  6
Continuous
 62
     1
370
    15
100
AcDbSpline
210
0.0
220
0.0
230
1.0
 70
     8
 71
     3
 72
     8
 73
     4
 74
     0
 42
0.000000001
 43
0.00000001
 40
0.0
 40
0.0
 40
0.0
 40
0.0
 40
1.0
 40
1.0
 40
1.0
 40
1.0
 10
21.19828491171663
 20
0.5243152953182459
 30
0.0
 10
21.15247522597639
 20
0.5500117837323083
 30
0.0
 10
21.09645484923063
 20
0.5751035566753425
 30
0.0
 10
21.03888563030485
 20
0.595789096665324
 30
0.0
  0
SPLINE
  5
126
330
1F
100
AcDbEntity
  8
외형선
  6
Continuous
 62
     1
370
    15
100
AcDbSpline
210
0.0
220
0.0
230
1.0
 70
     8
 71
     3
 72
    10
 73
     6
 74
     0
 42
0.000000001
 43
0.00000001
 40
0.0
 40
0.0
 40
0.0
 40
0.0
 40
0.5
 40
0.5
 40
1.0
 40
1.0
 40
1.0
 40
1.0
 10
21.83378530758241
 20
0.2975388082678475
 30
0.0
 10
21.73972630652431
 20
0.3157018310773009
 30
0.0
 10
21.62540236549237
 20
0.3453957279526997
 30
0.0
 10
21.39777019873674
 20
0.4251208515530139
 30
0.0
 10
21.28861313195522
 20
0.4736465769606454
 30
0.0
 10
21.19828491171704
 20
0.5243152953182036
 30
0.0
  0
SPLINE
  5
127
330
1F
100
AcDbEntity
  8
외형선
  6
Continuous
 62
     1
370
    15
100
AcDbSpline
210
0.0
220
0.0
230
1.0
 70
     8
 71
     3
 72
     8
 73
     4
 74
     0
 42
0.000000001
 43
0.00000001
 40
0.0
 40
0.0
 40
0.0
 40
0.0
 40
1.0
 40
1.0
 40
1.0
 40
1.0
 10
21.99212931039574
 20
0.2510596455145702
 30
0.0
 10
21.93625997765624
 20
0.2713943649308359
 30
0.0
 10
21.88006325196719
 20
0.2886024241908984
 30
0.0
 10
21.83378530758083
 20
0.2975388082692118
 30
0.0
  0
SPLINE
  5
128
330
1F
100
AcDbEntity
  8
외형선
  6
Continuous
 62
     1
370
    15
100
AcDbSpline
210
0.0
220
0.0
230
1.0
 70
     8
 71
     3
 72
    10
 73
     6
 74
     0
 42
0.000000001
 43
0.00000001
 40
0.0
 40
0.0
 40
0.0
 40
0.0
 40
0.5
 40
0.5
 40
1.0
 40
1.0
 40
1.0
 40
1.0
 10
23.89411977381756
 20
-0.4410206039349335
 30
0.0
 10
23.79995589013251
 20
-0.4093107096398975
 30
0.0
 10
23.685513295827
 20
-0.3729997992620394
 30
0.0
 10
23.45767259452929
 20
-0.2936542469175541
 30
0.0
 10
23.34841913126238
 20
-0.251934259876836
 30
0.0
 10
23.25796591759024
 20
-0.2138001257566359
 30
0.0
  0
SPLINE
  5
129
330
1F
100
AcDbEntity
  8
외형선
  6
Continuous
370
    15
100
AcDbSpline
210
0.0
220
0.0
230
1.0
 70
    24
 71
     3
 72
    16
 73
    12
 74
     0
 42
0.000000001
 43
0.00000001
 40
0.0
 40
0.0
 40
0.0
 40
0.0
 40
0.2500000000000001
 40
0.2500000000000001
 40
0.5000000000000001
 40
0.5000000000000001
 40
0.7500000000000001
 40
0.7500000000000001
 40
0.875
 40
0.875
 40
1.0
 40
1.0
 40
1.0
 40
1.0
 10
9.999048849953363
 20
3.649132778413912
 30
0.0
 10
9.999048849953363
 20
3.343874178069368
 30
0.0
 10
9.999048849953363
 20
2.992061444656094
 30
0.0
 10
9.999048849953363
 20
2.198397785140576
 30
0.0
 10
9.999048849953363
 20
1.755194432239441
 30
0.0
 10
9.999048849953363
 20
0.8356557272463297
 30
0.0
 10
9.999048849953363
 20
0.3597598787213679
 30
0.0
 10
9.999048849953363
 20
-0.2757920702676202
 30
0.0
 10
9.999048849953363
 20
-0.4739816370130578
 30
0.0
 10
9.999048849953363
 20
-0.8238158935157974
 30
0.0
 10
9.999048849953363
 20
-0.9752921405013874
 30
0.0
 10
9.999048849953363
 20
-1.096019638755888
 30
0.0
  0
SPLINE
  5
12A
330
1F
100
AcDbEntity
  8
외형선
  6
Continuous
 62
     1
370
    15
100
AcDbSpline
210
0.0
220
0.0
230
1.0
 70
     8
 71
     3
 72
     8
 73
     4
 74
     0
 42
0.000000001
 43
0.00000001
 40
0.0
 40
0.0
 40
0.0
 40
0.0
 40
1.0
 40
1.0
 40
1.0
 40
1.0
 10
27.48674346248738
 20
3.965107094583529
 30
0.0
 10
27.43083227349721
 20
3.963471398349671
 30
0.0
 10
27.37460050893112
 20
3.944143943337142
 30
0.0
 10
27.32829167142616
 20
3.907627214641859
 30
0.0
  0
SPLINE
  5
12B
330
1F
100
AcDbEntity
  8
외형선
  6
Continuous
 62
     1
370
    15
100
AcDbSpline
210
0.0
220
0.0
230
1.0
 70
     8
 71
     3
 72
     8
 73
     4
 74
     0
 42
0.000000001
 43
0.00000001
 40
0.0
 40
0.0
 40
0.0
 40
0.0
 40
1.0
 40
1.0
 40
1.0
 40
1.0
 10
27.94904884995336
 20
3.975077396663735
 30
0.0
 10
27.79489584081586
 20
3.972937236148038
 30
0.0
 10
27.64072411978922
 20
3.969611852563591
 30
0.0
 10
27.48674069471717
 20
3.965107013611575
 30
0.0
  0
SPLINE
  5
12C
330
1F
100
AcDbEntity
  8
외형선
  6
Continuous
 62
     1
370
    15
100
AcDbSpline
210
0.0
220
0.0
230
1.0
 70
     8
 71
     3
 72
     8
 73
     4
 74
     0
 42
0.000000001
 43
0.00000001
 40
0.0
 40
0.0
 40
0.0
 40
0.0
 40
1.0
 40
1.0
 40
1.0
 40
1.0
 10
29.04904884995336
 20
2.835916393857842
 30
0.0
 10
28.70309906308988
 20
3.226750852057762
 30
0.0
 10
28.32983308788459
 20
3.601691126129723
 30
0.0
 10
27.94904884995335
 20
3.97507739666373
 30
0.0
  0
LINE
  5
12D
330
1F
100
AcDbEntity
  8
외형선
  6
Continuous
 62
     1
370
    15
100
AcDbLine
 10
29.04904884995336
 20
2.579007574843286
 30
0.0
 11
29.04904884995336
 21
2.835916393857842
 31
0.0
  0
SPLINE
  5
12E
330
1F
100
AcDbEntity
  8
외형선
  6
Continuous
 62
     1
370
    15
100
AcDbSpline
210
0.0
220
0.0
230
1.0
 70
     8
 71
     3
 72
    12
 73
     8
 74
     0
 42
0.000000001
 43
0.00000001
 40
0.0
 40
0.0
 40
0.0
 40
0.0
 40
0.5000000000000017
 40
0.5000000000000017
 40
0.7500000000000008
 40
0.7500000000000008
 40
1.0
 40
1.0
 40
1.0
 40
1.0
 10
29.04904884995336
 20
2.579007574843286
 30
0.0
 10
28.90735671555874
 20
2.294215620747445
 30
0.0
 10
28.72497577591543
 20
2.050934215163567
 30
0.0
 10
28.40063715245465
 20
1.748864302413938
 30
0.0
 10
28.28660200954317
 20
1.66099490154754
 30
0.0
 10
28.04814918786715
 20
1.507732289453672
 30
0.0
 10
27.92283337099331
 20
1.442010166166037
 30
0.0
 10
27.79489259445627
 20
1.387676471494327
 30
0.0
  0
SPLINE
  5
12F
330
1F
100
AcDbEntity
  8
외형선
  6
Continuous
 62
     1
370
    15
100
AcDbSpline
210
0.0
220
0.0
230
1.0
 70
     8
 71
     3
 72
     8
 73
     4
 74
     0
 42
0.000000001
 43
0.00000001
 40
0.0
 40
0.0
 40
0.0
 40
0.0
 40
1.0
 40
1.0
 40
1.0
 40
1.0
 10
29.04904884995336
 20
0.7747997263056868
 30
0.0
 10
28.62832341281506
 20
0.9852297718348547
 30
0.0
 10
28.21041675446347
 20
1.18918813217897
 30
0.0
 10
27.79489259445627
 20
1.387676471494337
 30
0.0
  0
LINE
  5
130
330
1F
100
AcDbEntity
  8
외형선
  6
Continuous
 62
     1
370
    15
100
AcDbLine
 10
29.04904884995336
 20
0.4986638489953339
 30
0.0
 11
29.04904884995336
 21
0.7747997263056866
 31
0.0
  0
SPLINE
  5
131
330
1F
100
AcDbEntity
  8
외형선
  6
Continuous
 62
     1
370
    15
100
AcDbSpline
210
0.0
220
0.0
230
1.0
 70
     8
 71
     3
 72
    10
 73
     6
 74
     0
 42
0.000000001
 43
0.00000001
 40
0.0
 40
0.0
 40
0.0
 40
0.0
 40
0.5
 40
0.5
 40
1.0
 40
1.0
 40
1.0
 40
1.0
 10
23.04392241732123
 20
2.268746147659035
 30
0.0
 10
23.13806803332336
 20
2.207780259434333
 30
0.0
 10
23.25249988204142
 20
2.160712804157787
 30
0.0
 10
23.48031897038787
 20
2.095754670966953
 30
0.0
 10
23.58954061728443
 20
2.078465652027533
 30
0.0
 10
23.67997808715178
 20
2.078808946348351
 30
0.0
  0
SPLINE
  5
132
330
1F
100
AcDbEntity
  8
외형선
  6
Continuous
 62
     1
370
    15
100
AcDbSpline
210
0.0
220
0.0
230
1.0
 70
     8
 71
     3
 72
     8
 73
     4
 74
     0
 42
0.000000001
 43
0.00000001
 40
0.0
 40
0.0
 40
0.0
 40
0.0
 40
1.0
 40
1.0
 40
1.0
 40
1.0
 10
21.62011857101166
 20
2.666201492897171
 30
0.0
 10
21.66594757997276
 20
2.674023101892276
 30
0.0
 10
21.72198673279794
 20
2.669761874478701
 30
0.0
 10
21.77956775943737
 20
2.654130694492736
 30
0.0
  0
SPLINE
  5
133
330
1F
100
AcDbEntity
  8
외형선
  6
Continuous
 62
     1
370
    15
100
AcDbSpline
210
0.0
220
0.0
230
1.0
 70
     8
 71
     3
 72
    10
 73
     6
 74
     0
 42
0.000000001
 43
0.00000001
 40
0.0
 40
0.0
 40
0.0
 40
0.0
 40
0.5
 40
0.5
 40
1.0
 40
1.0
 40
1.0
 40
1.0
 10
20.98474625873358
 20
2.828949362848176
 30
0.0
 10
21.07878923439823
 20
2.760573621911707
 30
0.0
 10
21.1931053604964
 20
2.712388501052558
 30
0.0
 10
21.42071254723759
 20
2.657349212004365
 30
0.0
 10
21.52981585407245
 20
2.650789583298187
 30
0.0
 10
21.62011857101119
 20
2.666201492896922
 30
0.0
  0
SPLINE
  5
134
330
1F
100
AcDbEntity
  8
외형선
  6
Continuous
 62
     1
370
    15
100
AcDbSpline
210
0.0
220
0.0
230
1.0
 70
     8
 71
     3
 72
     8
 73
     4
 74
     0
 42
0.000000001
 43
0.00000001
 40
0.0
 40
0.0
 40
0.0
 40
0.0
 40
1.0
 40
1.0
 40
1.0
 40
1.0
 10
20.82644838266078
 20
2.90204789118973
 30
0.0
 10
20.88231082217367
 20
2.888150370871982
 30
0.0
 10
20.93849044654659
 20
2.862580534223027
 30
0.0
 10
20.98474625873466
 20
2.828949362850687
 30
0.0
  0
SPLINE
  5
135
330
1F
100
AcDbEntity
  8
외형선
  6
Continuous
 62
     1
370
    15
100
AcDbSpline
210
0.0
220
0.0
230
1.0
 70
     8
 71
     3
 72
     8
 73
     4
 74
     0
 42
0.000000001
 43
0.00000001
 40
0.0
 40
0.0
 40
0.0
 40
0.0
 40
1.0
 40
1.0
 40
1.0
 40
1.0
 10
19.56082198339262
 20
3.15886815088808
 30
0.0
 10
19.60671244301682
 20
3.174023455318731
 30
0.0
 10
19.66280236989372
 20
3.175275707846571
 30
0.0
 10
19.72043102301136
 20
3.162514176007539
 30
0.0
  0
SPLINE
  5
136
330
1F
100
AcDbEntity
  8
외형선
  6
Continuous
 62
     1
370
    15
100
AcDbSpline
210
0.0
220
0.0
230
1.0
 70
     8
 71
     3
 72
    10
 73
     6
 74
     0
 42
0.000000001
 43
0.00000001
 40
0.0
 40
0.0
 40
0.0
 40
0.0
 40
0.5
 40
0.5
 40
1.0
 40
1.0
 40
1.0
 40
1.0
 10
18.92471455632115
 20
3.289029846963341
 30
0.0
 10
19.01888382558189
 20
3.215557536166287
 30
0.0
 10
19.13333543553986
 20
3.167937871465827
 30
0.0
 10
19.36116983842141
 20
3.124686820930453
 30
0.0
 10
19.47039171267459
 20
3.12900359311878
 30
0.0
 10
19.56082198339216
 20
3.158868150887784
 30
0.0
  0
SPLINE
  5
137
330
1F
100
AcDbEntity
  8
외형선
  6
Continuous
 62
     1
370
    15
100
AcDbSpline
210
0.0
220
0.0
230
1.0
 70
     8
 71
     3
 72
     8
 73
     4
 74
     0
 42
0.000000001
 43
0.00000001
 40
0.0
 40
0.0
 40
0.0
 40
0.0
 40
1.0
 40
1.0
 40
1.0
 40
1.0
 10
18.76627632815395
 20
3.36095291196853
 30
0.0
 10
18.82218313058785
 20
3.350076059052645
 30
0.0
 10
18.87841163632454
 20
3.325156096597158
 30
0.0
 10
18.92471455632228
 20
3.289029846966616
 30
0.0
  0
SPLINE
  5
138
330
1F
100
AcDbEntity
  8
외형선
  6
Continuous
 62
     1
370
    15
100
AcDbSpline
210
0.0
220
0.0
230
1.0
 70
     8
 71
     3
 72
     8
 73
     4
 74
     0
 42
0.000000001
 43
0.00000001
 40
0.0
 40
0.0
 40
0.0
 40
0.0
 40
1.0
 40
1.0
 40
1.0
 40
1.0
 10
18.76627632815316
 20
3.360952911968683
 30
0.0
 10
18.39639230347353
 20
3.432915069653016
 30
0.0
 10
18.02652858099743
 20
3.499096475593972
 30
0.0
 10
17.65952515248022
 20
3.559033794518099
 30
0.0
  0
SPLINE
  5
139
330
1F
100
AcDbEntity
  8
외형선
  6
Continuous
 62
     1
370
    15
100
AcDbSpline
210
0.0
220
0.0
230
1.0
 70
     8
 71
     3
 72
     8
 73
     4
 74
     0
 42
0.000000001
 43
0.00000001
 40
0.0
 40
0.0
 40
0.0
 40
0.0
 40
1.0
 40
1.0
 40
1.0
 40
1.0
 10
17.49984398535864
 20
3.539743585678469
 30
0.0
 10
17.54576141797127
 20
3.561716314814869
 30
0.0
 10
17.60187226672474
 20
3.568449399735583
 30
0.0
 10
17.65952514407043
 20
3.559033795894616
 30
0.0
  0
SPLINE
  5
13A
330
1F
100
AcDbEntity
  8
외형선
  6
Continuous
 62
     1
370
    15
100
AcDbSpline
210
0.0
220
0.0
230
1.0
 70
     8
 71
     3
 72
    10
 73
     6
 74
     0
 42
0.000000001
 43
0.00000001
 40
0.0
 40
0.0
 40
0.0
 40
0.0
 40
0.5
 40
0.5
 40
1.0
 40
1.0
 40
1.0
 40
1.0
 10
16.86362824676626
 20
3.632484158094252
 30
0.0
 10
16.95781936313618
 20
3.55656659304499
 30
0.0
 10
17.07229751549072
 20
3.511222797320288
 30
0.0
 10
17.30016638253184
 20
3.481363356284885
 30
0.0
 10
17.40939126698887
 20
3.496459521928747
 30
0.0
 10
17.49984398535812
 20
3.539743585677943
 30
0.0
  0
SPLINE
  5
13B
330
1F
100
AcDbEntity
  8
외형선
  6
Continuous
 62
     1
370
    15
100
AcDbSpline
210
0.0
220
0.0
230
1.0
 70
     8
 71
     3
 72
     8
 73
     4
 74
     0
 42
0.000000001
 43
0.00000001
 40
0.0
 40
0.0
 40
0.0
 40
0.0
 40
1.0
 40
1.0
 40
1.0
 40
1.0
 10
16.70519774841495
 20
3.700643084007516
 30
0.0
 10
16.76110253446493
 20
3.693182505017567
 30
0.0
 10
16.81732734729647
 20
3.669802449703905
 30
0.0
 10
16.86362824676738
 20
3.632484158098093
 30
0.0
  0
SPLINE
  5
13C
330
1F
100
AcDbEntity
  8
외형선
  6
Continuous
 62
     1
370
    15
100
AcDbSpline
210
0.0
220
0.0
230
1.0
 70
     8
 71
     3
 72
     8
 73
     4
 74
     0
 42
0.000000001
 43
0.00000001
 40
0.0
 40
0.0
 40
0.0
 40
0.0
 40
1.0
 40
1.0
 40
1.0
 40
1.0
 10
16.70519782533577
 20
3.700643073742262
 30
0.0
 10
16.33604503225392
 20
3.749907078065495
 30
0.0
 10
15.96633770014775
 20
3.792853576144799
 30
0.0
 10
15.59891343303517
 20
3.829182730963677
 30
0.0
  0
SPLINE
  5
13D
330
1F
100
AcDbEntity
  8
외형선
  6
Continuous
 62
     1
370
    15
100
AcDbSpline
210
0.0
220
0.0
230
1.0
 70
     8
 71
     3
 72
     8
 73
     4
 74
     0
 42
0.000000001
 43
0.00000001
 40
0.0
 40
0.0
 40
0.0
 40
0.0
 40
1.0
 40
1.0
 40
1.0
 40
1.0
 10
15.43936921379654
 20
3.794832264850762
 30
0.0
 10
15.4852301431512
 20
3.8228531994816
 30
0.0
 10
15.54129655163731
 20
3.834879612621095
 30
0.0
 10
15.59891337630082
 20
3.829182736576657
 30
0.0
  0
SPLINE
  5
13E
330
1F
100
AcDbEntity
  8
외형선
  6
Continuous
 62
     1
370
    15
100
AcDbSpline
210
0.0
220
0.0
230
1.0
 70
     8
 71
     3
 72
    10
 73
     6
 74
     0
 42
0.000000001
 43
0.00000001
 40
0.0
 40
0.0
 40
0.0
 40
0.0
 40
0.5
 40
0.5
 40
1.0
 40
1.0
 40
1.0
 40
1.0
 10
14.80373055506177
 20
3.846731343045497
 30
0.0
 10
14.89783052292049
 20
3.771114746701827
 30
0.0
 10
15.01221462072438
 20
3.729656557632099
 30
0.0
 10
15.23990338508804
 20
3.714273225377004
 30
0.0
 10
15.34901010478238
 20
3.739623032882527
 30
0.0
 10
15.43936921379615
 20
3.794832264850413
 30
0.0
  0
SPLINE
  5
13F
330
1F
100
AcDbEntity
  8
외형선
  6
Continuous
 62
     1
370
    15
100
AcDbSpline
210
0.0
220
0.0
230
1.0
 70
     8
 71
     3
 72
     8
 73
     4
 74
     0
 42
0.000000001
 43
0.00000001
 40
0.0
 40
0.0
 40
0.0
 40
0.0
 40
1.0
 40
1.0
 40
1.0
 40
1.0
 10
14.64545559131773
 20
3.908690713614251
 30
0.0
 10
14.70131206971611
 20
3.9049123424642
 30
0.0
 10
14.75748072872079
 20
3.883896652762197
 30
0.0
 10
14.80373055506283
 20
3.846731343049598
 30
0.0
  0
SPLINE
  5
140
330
1F
100
AcDbEntity
  8
외형선
  6
Continuous
 62
     1
370
    15
100
AcDbSpline
210
0.0
220
0.0
230
1.0
 70
     8
 71
     3
 72
     8
 73
     4
 74
     0
 42
0.000000001
 43
0.00000001
 40
0.0
 40
0.0
 40
0.0
 40
0.0
 40
1.0
 40
1.0
 40
1.0
 40
1.0
 10
14.64545640741425
 20
3.908690658409942
 30
0.0
 10
14.27715584374464
 20
3.933604094020588
 30
0.0
 10
13.9077264724575
 20
3.951866251680493
 30
0.0
 10
13.54000012684431
 20
3.963347569861994
 30
0.0
  0
SPLINE
  5
141
330
1F
100
AcDbEntity
  8
외형선
  6
Continuous
 62
     1
370
    15
100
AcDbSpline
210
0.0
220
0.0
230
1.0
 70
     8
 71
     3
 72
     8
 73
     4
 74
     0
 42
0.000000001
 43
0.00000001
 40
0.0
 40
0.0
 40
0.0
 40
0.0
 40
1.0
 40
1.0
 40
1.0
 40
1.0
 10
13.38045590583682
 20
3.915207608482049
 30
0.0
 10
13.42631756132857
 20
3.948275167528633
 30
0.0
 10
13.48238263030105
 20
3.965146525741435
 30
0.0
 10
13.53999821461757
 20
3.963347629569896
 30
0.0
  0
SPLINE
  5
142
330
1F
100
AcDbEntity
  8
외형선
  6
Continuous
 62
     1
370
    15
100
AcDbSpline
210
0.0
220
0.0
230
1.0
 70
     8
 71
     3
 72
    10
 73
     6
 74
     0
 42
0.000000001
 43
0.00000001
 40
0.0
 40
0.0
 40
0.0
 40
0.0
 40
0.241405604437275
 40
0.6574078200069338
 40
1.0
 40
1.0
 40
1.0
 40
1.0
 10
12.96640184509412
 20
3.831805231698251
 30
0.0
 10
13.00165360542884
 20
3.824611850087037
 30
0.0
 10
13.09765296288813
 20
3.805022473384166
 30
0.0
 10
13.24482035934988
 20
3.834973714615707
 30
0.0
 10
13.33825808161033
 20
3.890245894255364
 30
0.0
 10
13.38045590583634
 20
3.915207608481676
 30
0.0
  0
SPLINE
  5
143
330
1F
100
AcDbEntity
  8
외형선
  6
Continuous
 62
     1
370
    15
100
AcDbSpline
210
0.0
220
0.0
230
1.0
 70
     8
 71
     3
 72
    10
 73
     6
 74
     0
 42
0.000000001
 43
0.00000001
 40
0.0
 40
0.0
 40
0.0
 40
0.0
 40
0.3395273918632946
 40
0.678269015023879
 40
1.0
 40
1.0
 40
1.0
 40
1.0
 10
21.14811611328954
 20
3.102067410026843
 30
0.0
 10
21.09727363442198
 20
3.069358131128809
 30
0.0
 10
20.99570634150455
 20
3.004015272461182
 30
0.0
 10
20.82110337662182
 20
2.949966706812056
 30
0.0
 10
20.7140144298079
 20
2.944461938267672
 30
0.0
 10
20.66184900778428
 20
2.941780442344857
 30
0.0
  0
SPLINE
  5
144
330
1F
100
AcDbEntity
  8
외형선
  6
Continuous
 62
     1
370
    15
100
AcDbSpline
210
0.0
220
0.0
230
1.0
 70
     8
 71
     3
 72
     8
 73
     4
 74
     0
 42
0.000000001
 43
0.00000001
 40
0.0
 40
0.0
 40
0.0
 40
0.0
 40
1.0
 40
1.0
 40
1.0
 40
1.0
 10
21.30654175955775
 20
3.17483670856882
 30
0.0
 10
21.25064000203518
 20
3.162584035598783
 30
0.0
 10
21.19441575116353
 20
3.137266699310126
 30
0.0
 10
21.14811611328835
 20
3.102067410029402
 30
0.0
  0
SPLINE
  5
145
330
1F
100
AcDbEntity
  8
외형선
  6
Continuous
 62
     1
370
    15
100
AcDbSpline
210
0.0
220
0.0
230
1.0
 70
     8
 71
     3
 72
     8
 73
     4
 74
     0
 42
0.000000001
 43
0.00000001
 40
0.0
 40
0.0
 40
0.0
 40
0.0
 40
1.0
 40
1.0
 40
1.0
 40
1.0
 10
22.41284247987297
 20
3.401194523701813
 30
0.0
 10
22.04455422291802
 20
3.331477210621765
 30
0.0
 10
21.67668432658114
 20
3.255965389079638
 30
0.0
 10
21.30654175953138
 20
3.17483670856304
 30
0.0
  0
SPLINE
  5
146
330
1F
100
AcDbEntity
  8
외형선
  6
Continuous
 62
     1
370
    15
100
AcDbSpline
210
0.0
220
0.0
230
1.0
 70
     8
 71
     3
 72
     8
 73
     4
 74
     0
 42
0.000000001
 43
0.00000001
 40
0.0
 40
0.0
 40
0.0
 40
0.0
 40
1.0
 40
1.0
 40
1.0
 40
1.0
 10
22.57237223730188
 20
3.388613067678263
 30
0.0
 10
22.52651236220551
 20
3.407713506990363
 30
0.0
 10
22.47044698088244
 20
3.412099109869811
 30
0.0
 10
22.41284247989899
 20
3.401194523709514
 30
0.0
  0
SPLINE
  5
147
330
1F
100
AcDbEntity
  8
외형선
  6
Continuous
 62
     1
370
    15
100
AcDbSpline
210
0.0
220
0.0
230
1.0
 70
     8
 71
     3
 72
    10
 73
     6
 74
     0
 42
0.000000001
 43
0.00000001
 40
0.0
 40
0.0
 40
0.0
 40
0.0
 40
0.5
 40
0.5
 40
1.0
 40
1.0
 40
1.0
 40
1.0
 10
23.20792246101039
 20
3.497978249217493
 30
0.0
 10
23.11385397380121
 20
3.422841311338248
 30
0.0
 10
22.99949863464822
 20
3.376304949603293
 30
0.0
 10
22.77182878086625
 20
3.340498174165063
 30
0.0
 10
22.66271118244102
 20
3.350987288376595
 30
0.0
 10
22.57237223730234
 20
3.388613067677951
 30
0.0
  0
SPLINE
  5
148
330
1F
100
AcDbEntity
  8
외형선
  6
Continuous
 62
     1
370
    15
100
AcDbSpline
210
0.0
220
0.0
230
1.0
 70
     8
 71
     3
 72
     8
 73
     4
 74
     0
 42
0.000000001
 43
0.00000001
 40
0.0
 40
0.0
 40
0.0
 40
0.0
 40
1.0
 40
1.0
 40
1.0
 40
1.0
 10
23.36618240458218
 20
3.568054613843579
 30
0.0
 10
23.31033079097365
 20
3.55907343964217
 30
0.0
 10
23.25416604733497
 20
3.534915182896266
 30
0.0
 10
23.20792246100927
 20
3.497978249220499
 30
0.0
  0
SPLINE
  5
149
330
1F
100
AcDbEntity
  8
외형선
  6
Continuous
 62
     1
370
    15
100
AcDbSpline
210
0.0
220
0.0
230
1.0
 70
     8
 71
     3
 72
     8
 73
     4
 74
     0
 42
0.000000001
 43
0.00000001
 40
0.0
 40
0.0
 40
0.0
 40
0.0
 40
1.0
 40
1.0
 40
1.0
 40
1.0
 10
24.47174030225991
 20
3.727577953486648
 30
0.0
 10
24.10518143415304
 20
3.680771762152626
 30
0.0
 10
23.73571854533879
 20
3.627477579402198
 30
0.0
 10
23.36618231023699
 20
3.568054598672485
 30
0.0
  0
SPLINE
  5
14A
330
1F
100
AcDbEntity
  8
외형선
  6
Continuous
 62
     1
370
    15
100
AcDbSpline
210
0.0
220
0.0
230
1.0
 70
     8
 71
     3
 72
     8
 73
     4
 74
     0
 42
0.000000001
 43
0.00000001
 40
0.0
 40
0.0
 40
0.0
 40
0.0
 40
1.0
 40
1.0
 40
1.0
 40
1.0
 10
24.63130576714762
 20
3.699677685486556
 30
0.0
 10
24.58542976777936
 20
3.725174312449634
 30
0.0
 10
24.52935640797837
 20
3.734934996329555
 30
0.0
 10
24.47174213560427
 20
3.727578187590951
 30
0.0
  0
SPLINE
  5
14B
330
1F
100
AcDbEntity
  8
외형선
  6
Continuous
 62
     1
370
    15
100
AcDbSpline
210
0.0
220
0.0
230
1.0
 70
     8
 71
     3
 72
    10
 73
     6
 74
     0
 42
0.000000001
 43
0.00000001
 40
0.0
 40
0.0
 40
0.0
 40
0.0
 40
0.5
 40
0.5
 40
1.0
 40
1.0
 40
1.0
 40
1.0
 10
25.26728158919682
 20
3.76966637547276
 30
0.0
 10
25.17312609242349
 20
3.693597674378811
 30
0.0
 10
25.05869135181922
 20
3.650258789268959
 30
0.0
 10
24.83089896134216
 20
3.628459410576097
 30
0.0
 10
24.72170554758726
 20
3.649435957542015
 30
0.0
 10
24.63130576714808
 20
3.699677685486216
 30
0.0
  0
SPLINE
  5
14C
330
1F
100
AcDbEntity
  8
외형선
  6
Continuous
 62
     1
370
    15
100
AcDbSpline
210
0.0
220
0.0
230
1.0
 70
     8
 71
     3
 72
     8
 73
     4
 74
     0
 42
0.000000001
 43
0.00000001
 40
0.0
 40
0.0
 40
0.0
 40
0.0
 40
1.0
 40
1.0
 40
1.0
 40
1.0
 10
25.42569648675537
 20
3.834617102808627
 30
0.0
 10
25.36979650940658
 20
3.829207098038026
 30
0.0
 10
25.31357673797223
 20
3.807068459847621
 30
0.0
 10
25.26728158919563
 20
3.769666375476344
 30
0.0
  0
SPLINE
  5
14D
330
1F
100
AcDbEntity
  8
외형선
  6
Continuous
 62
     1
370
    15
100
AcDbSpline
210
0.0
220
0.0
230
1.0
 70
     8
 71
     3
 72
     8
 73
     4
 74
     0
 42
0.000000001
 43
0.00000001
 40
0.0
 40
0.0
 40
0.0
 40
0.0
 40
1.0
 40
1.0
 40
1.0
 40
1.0
 10
26.53260620243995
 20
3.921986261173056
 30
0.0
 10
26.16502494907357
 20
3.899555679595806
 30
0.0
 10
25.79510759695419
 20
3.870368742852244
 30
0.0
 10
25.4256964865569
 20
3.834617102789416
 30
0.0
  0
SPLINE
  5
14E
330
1F
100
AcDbEntity
  8
외형선
  6
Continuous
 62
     1
370
    15
100
AcDbSpline
210
0.0
220
0.0
230
1.0
 70
     8
 71
     3
 72
     8
 73
     4
 74
     0
 42
0.000000001
 43
0.00000001
 40
0.0
 40
0.0
 40
0.0
 40
0.0
 40
1.0
 40
1.0
 40
1.0
 40
1.0
 10
26.69200509915897
 20
3.879670535492578
 30
0.0
 10
26.64609424878682
 20
3.910672616226742
 30
0.0
 10
26.5899845987197
 20
3.925488135896092
 30
0.0
 10
26.53232618366868
 20
3.921969172565753
 30
0.0
  0
SPLINE
  5
14F
330
1F
100
AcDbEntity
  8
외형선
  6
Continuous
 62
     1
370
    15
100
AcDbSpline
210
0.0
220
0.0
230
1.0
 70
     8
 71
     3
 72
    10
 73
     6
 74
     0
 42
0.000000001
 43
0.00000001
 40
0.0
 40
0.0
 40
0.0
 40
0.0
 40
0.5
 40
0.5
 40
1.0
 40
1.0
 40
1.0
 40
1.0
 10
27.32829167142737
 20
3.907627214637921
 30
0.0
 10
27.23407981659981
 20
3.833336670369671
 30
0.0
 10
27.11958368900261
 20
3.794761068922933
 30
0.0
 10
26.89169894790008
 20
3.787826550999038
 30
0.0
 10
26.782475684758
 20
3.818578737451305
 30
0.0
 10
26.69200509915944
 20
3.879670535492223
 30
0.0
  0
SPLINE
  5
150
330
1F
100
AcDbEntity
  8
외형선
  6
Continuous
 62
     1
370
    15
100
AcDbSpline
210
0.0
220
0.0
230
1.0
 70
     8
 71
     3
 72
    12
 73
     8
 74
     0
 42
0.000000001
 43
0.00000001
 40
0.0
 40
0.0
 40
0.0
 40
0.0
 40
0.2500000000000001
 40
0.2500000000000001
 40
0.5000000000000001
 40
0.5000000000000001
 40
1.0
 40
1.0
 40
1.0
 40
1.0
 10
21.83378530758093
 20
0.2975388082861651
 30
0.0
 10
21.81632902920347
 20
0.514834181120614
 30
0.0
 10
21.79957976730925
 20
0.7279226238708635
 30
0.0
 10
21.764241055602
 20
1.152892904858684
 30
0.0
 10
21.74608765839137
 20
1.362915902318744
 30
0.0
 10
21.69130526720791
 20
1.97172543298418
 30
0.0
 10
21.65440512391654
 20
2.348020143257434
 30
0.0
 10
21.62011857102272
 20
2.666201492789801
 30
0.0
  0
SPLINE
  5
151
330
1F
100
AcDbEntity
  8
외형선
  6
Continuous
 62
     1
370
    15
100
AcDbSpline
210
0.0
220
0.0
230
1.0
 70
     8
 71
     3
 72
    12
 73
     8
 74
     0
 42
0.000000001
 43
0.00000001
 40
0.0
 40
0.0
 40
0.0
 40
0.0
 40
0.5000000000000001
 40
0.5000000000000001
 40
0.75
 40
0.75
 40
1.0
 40
1.0
 40
1.0
 40
1.0
 10
21.19828491171523
 20
0.5243152953409924
 30
0.0
 10
21.16421787517933
 20
0.9528882550172947
 30
0.0
 10
21.12779980018573
 20
1.381530953982592
 30
0.0
 10
21.07293230336398
 20
1.973981152732904
 30
0.0
 10
21.05467910378841
 20
2.162792180726427
 30
0.0
 10
21.01901169108035
 20
2.515544459853429
 30
0.0
 10
21.00199771346925
 20
2.678344426926344
 30
0.0
 10
20.9847462587356
 20
2.828949362830428
 30
0.0
  0
SPLINE
  5
152
330
1F
100
AcDbEntity
  8
외형선
  6
Continuous
 62
     1
370
    15
100
AcDbSpline
210
0.0
220
0.0
230
1.0
 70
     8
 71
     3
 72
    12
 73
     8
 74
     0
 42
0.000000001
 43
0.00000001
 40
0.0
 40
0.0
 40
0.0
 40
0.0
 40
0.4999999999999998
 40
0.4999999999999998
 40
0.7499999999999999
 40
0.7499999999999999
 40
1.0
 40
1.0
 40
1.0
 40
1.0
 10
10.31920615608989
 20
-3.248501222301714
 30
0.0
 10
10.28355584321162
 20
-2.995549847780981
 30
0.0
 10
10.24645272449678
 20
-2.676755099562152
 30
0.0
 10
10.19319446565971
 20
-2.139427022356598
 30
0.0
 10
10.17617838290252
 20
-1.952055886010559
 30
0.0
 10
10.14202713991395
 20
-1.56101317414262
 30
0.0
 10
10.12432757613356
 20
-1.355064031684911
 30
0.0
 10
10.10635085253216
 20
-1.142557594167244
 30
0.0
  0
SPLINE
  5
153
330
1F
100
AcDbEntity
  8
외형선
  6
Continuous
 62
     1
370
    15
100
AcDbSpline
210
0.0
220
0.0
230
1.0
 70
     8
 71
     3
 72
    12
 73
     8
 74
     0
 42
0.000000001
 43
0.00000001
 40
0.0
 40
0.0
 40
0.0
 40
0.0
 40
0.5000000000000001
 40
0.5000000000000001
 40
0.7500000000000002
 40
0.7500000000000002
 40
1.0
 40
1.0
 40
1.0
 40
1.0
 10
11.42526855286476
 20
-3.461564246964133
 30
0.0
 10
11.3907395007084
 20
-3.248959366647614
 30
0.0
 10
11.35387277933705
 20
-2.96632550114882
 30
0.0
 10
11.29954993442697
 20
-2.468018396121638
 30
0.0
 10
11.2816152976566
 20
-2.289893268153751
 30
0.0
 10
11.24681698095761
 20
-1.917860457700058
 30
0.0
 10
11.23019094450315
 20
-1.725032392458163
 30
0.0
 10
11.21266990198713
 20
-1.521819715663424
 30
0.0
  0
SPLINE
  5
154
330
1F
100
AcDbEntity
  8
외형선
  6
Continuous
 62
     1
370
    15
100
AcDbSpline
210
0.0
220
0.0
230
1.0
 70
     8
 71
     3
 72
     8
 73
     4
 74
     0
 42
0.000000001
 43
0.00000001
 40
0.0
 40
0.0
 40
0.0
 40
0.0
 40
1.0
 40
1.0
 40
1.0
 40
1.0
 10
11.42526848590043
 20
-3.461563789292302
 30
0.0
 10
11.05536969369848
 20
-3.396323044900692
 30
0.0
 10
10.68859443954291
 20
-3.325299854748742
 30
0.0
 10
10.31920648212129
 20
-3.248501183618908
 30
0.0
  0
SPLINE
  5
155
330
1F
100
AcDbEntity
  8
외형선
  6
Continuous
 62
     1
370
    15
100
AcDbSpline
210
0.0
220
0.0
230
1.0
 70
     8
 71
     3
 72
    10
 73
     6
 74
     0
 42
0.000000001
 43
0.00000001
 40
0.0
 40
0.0
 40
0.0
 40
0.0
 40
0.5
 40
0.5
 40
1.0
 40
1.0
 40
1.0
 40
1.0
 10
19.77481890814592
 20
1.025248057600268
 30
0.0
 10
19.73925951700062
 20
1.448474583682537
 30
0.0
 10
19.70194674052613
 20
1.858775065948353
 30
0.0
 10
19.63001362804512
 20
2.584642401848815
 30
0.0
 10
19.5967829740497
 20
2.897556602713545
 30
0.0
 10
19.56082198339499
 20
3.158868150867082
 30
0.0
  0
SPLINE
  5
156
330
1F
100
AcDbEntity
  8
외형선
  6
Continuous
 62
     1
370
    15
100
AcDbSpline
210
0.0
220
0.0
230
1.0
 70
     8
 71
     3
 72
     8
 73
     4
 74
     0
 42
0.000000001
 43
0.00000001
 40
0.0
 40
0.0
 40
0.0
 40
0.0
 40
1.0
 40
1.0
 40
1.0
 40
1.0
 10
10.31920614063171
 20
-3.248501112620518
 30
0.0
 10
10.26331306082802
 20
-3.236880499785558
 30
0.0
 10
10.20709380256546
 20
-3.211718004817989
 30
0.0
 10
10.1607961225712
 20
-3.176033504598467
 30
0.0
  0
SPLINE
  5
157
330
1F
100
AcDbEntity
  8
외형선
  6
Continuous
 62
     1
370
    15
100
AcDbSpline
210
0.0
220
0.0
230
1.0
 70
     8
 71
     3
 72
    12
 73
     8
 74
     0
 42
0.000000001
 43
0.00000001
 40
0.0
 40
0.0
 40
0.0
 40
0.0
 40
0.5
 40
0.5
 40
0.75
 40
0.75
 40
1.0
 40
1.0
 40
1.0
 40
1.0
 10
10.16079602973299
 20
-3.176032844197944
 30
0.0
 10
10.13366557889327
 20
-2.983045652677458
 30
0.0
 10
10.10576224383041
 20
-2.753378762146827
 30
0.0
 10
10.06475718820736
 20
-2.370057590413843
 30
0.0
 10
10.05123165213067
 20
-2.235919171947939
 30
0.0
 10
10.02477922370514
 20
-1.958515880769082
 30
0.0
 10
10.01210666049003
 20
-1.816241199014075
 30
0.0
 10
9.999048852118916
 20
-1.6681902809588
 30
0.0
  0
SPLINE
  5
158
330
1F
100
AcDbEntity
  8
외형선
  6
Continuous
370
    15
100
AcDbSpline
210
0.0
220
0.0
230
1.0
 70
    24
 71
     3
 72
     8
 73
     4
 74
     0
 42
0.000000001
 43
0.00000001
 40
0.0
 40
0.0
 40
0.0
 40
0.0
 40
1.0
 40
1.0
 40
1.0
 40
1.0
 10
9.999048849953363
 20
-1.096019638755894
 30
0.0
 10
9.999048849953363
 20
-1.293952344090561
 30
0.0
 10
9.999048849957305
 20
-1.485441638375184
 30
0.0
 10
9.999048849957305
 20
-1.668190256405574
 30
0.0
  0
SPLINE
  5
159
330
1F
100
AcDbEntity
  8
외형선
  6
Continuous
 62
     1
370
    15
100
AcDbSpline
210
0.0
220
0.0
230
1.0
 70
     8
 71
     3
 72
    10
 73
     6
 74
     0
 42
0.000000001
 43
0.00000001
 40
0.0
 40
0.0
 40
0.0
 40
0.0
 40
0.5
 40
0.5
 40
1.0
 40
1.0
 40
1.0
 40
1.0
 10
17.8725300203517
 20
1.694888008657319
 30
0.0
 10
17.83619899843159
 20
2.098314816101624
 30
0.0
 10
17.79993286500625
 20
2.468497573461154
 30
0.0
 10
17.73234990539053
 20
3.091479579516637
 30
0.0
 10
17.69584528479421
 20
3.359778127776495
 30
0.0
 10
17.65952513661252
 20
3.559033836810749
 30
0.0
  0
SPLINE
  5
15A
330
1F
100
AcDbEntity
  8
외형선
  6
Continuous
 62
     1
370
    15
100
AcDbSpline
210
0.0
220
0.0
230
1.0
 70
     8
 71
     3
 72
    10
 73
     6
 74
     0
 42
0.000000001
 43
0.00000001
 40
0.0
 40
0.0
 40
0.0
 40
0.0
 40
0.5
 40
0.5
 40
1.0
 40
1.0
 40
1.0
 40
1.0
 10
18.97919164233565
 20
1.322525724539336
 30
0.0
 10
18.94370575663866
 20
1.739747877890446
 30
0.0
 10
18.90821987094169
 20
2.132210382990289
 30
0.0
 10
18.83724809954773
 20
2.824501997400304
 30
0.0
 10
18.80176221385075
 20
3.124187920823231
 30
0.0
 10
18.76627632815378
 20
3.360952911969616
 30
0.0
  0
SPLINE
  5
15B
330
1F
100
AcDbEntity
  8
외형선
  6
Continuous
 62
     1
370
    15
100
AcDbSpline
210
0.0
220
0.0
230
1.0
 70
     8
 71
     3
 72
    12
 73
     8
 74
     0
 42
0.000000001
 43
0.00000001
 40
0.0
 40
0.0
 40
0.0
 40
0.0
 40
0.5000000000000002
 40
0.5000000000000002
 40
0.7500000000000001
 40
0.7500000000000001
 40
1.0
 40
1.0
 40
1.0
 40
1.0
 10
19.13881075378841
 20
1.244008998206731
 30
0.0
 10
19.1027520551114
 20
1.661717407136206
 30
0.0
 10
19.06547622732146
 20
2.059771121153848
 30
0.0
 10
19.01237224038933
 20
2.578731893992358
 30
0.0
 10
18.99558729068266
 20
2.737700754983178
 30
0.0
 10
18.96082856276972
 20
3.03277904326377
 30
0.0
 10
18.94287644467347
 20
3.168529322689319
 30
0.0
 10
18.92471455632446
 20
3.289029846941396
 30
0.0
  0
SPLINE
  5
15C
330
1F
100
AcDbEntity
  8
외형선
  6
Continuous
 62
     1
370
    15
100
AcDbSpline
210
0.0
220
0.0
230
1.0
 70
     8
 71
     3
 72
     8
 73
     4
 74
     0
 42
0.000000001
 43
0.00000001
 40
0.0
 40
0.0
 40
0.0
 40
0.0
 40
1.0
 40
1.0
 40
1.0
 40
1.0
 10
11.58473384501595
 20
-3.445636140630732
 30
0.0
 10
11.5389002566566
 20
-3.466158593453533
 30
0.0
 10
11.48285591560954
 20
-3.471720748078938
 30
0.0
 10
11.42526847831798
 20
-3.46156378795779
 30
0.0
  0
SPLINE
  5
15D
330
1F
100
AcDbEntity
  8
외형선
  6
Continuous
 62
     1
370
    15
100
AcDbSpline
210
0.0
220
0.0
230
1.0
 70
     8
 71
     3
 72
    12
 73
     8
 74
     0
 42
0.000000001
 43
0.00000001
 40
0.0
 40
0.0
 40
0.0
 40
0.0
 40
0.5
 40
0.5
 40
0.75
 40
0.75
 40
1.0
 40
1.0
 40
1.0
 40
1.0
 10
11.58473343239501
 20
-3.445633697623288
 30
0.0
 10
11.55024177537327
 20
-3.241418505307979
 30
0.0
 10
11.51325023400119
 20
-2.966864502429243
 30
0.0
 10
11.45853687223473
 20
-2.47878974961932
 30
0.0
 10
11.4404397013236
 20
-2.303770700693302
 30
0.0
 10
11.40527216884601
 20
-1.937258678931947
 30
0.0
 10
11.38856426779244
 20
-1.747276267832856
 30
0.0
 10
11.37102071459893
 20
-1.54703046037713
 30
0.0
  0
SPLINE
  5
15E
330
1F
100
AcDbEntity
  8
외형선
  6
Continuous
 62
     1
370
    15
100
AcDbSpline
210
0.0
220
0.0
230
1.0
 70
     8
 71
     3
 72
    12
 73
     8
 74
     0
 42
0.000000001
 43
0.00000001
 40
0.0
 40
0.0
 40
0.0
 40
0.0
 40
0.2500000000000001
 40
0.2500000000000001
 40
0.5000000000000002
 40
0.5000000000000002
 40
1.0
 40
1.0
 40
1.0
 40
1.0
 10
17.7140580089152
 20
1.717312771100968
 30
0.0
 10
17.69578833966936
 20
1.916220377850279
 30
0.0
 10
17.67751494702204
 20
2.106904486079749
 30
0.0
 10
17.64173089912238
 20
2.464127186954807
 30
0.0
 10
17.62448220083355
 20
2.62988744877371
 30
0.0
 10
17.57317362566828
 20
3.087896313879358
 30
0.0
 10
17.53633616331843
 20
3.348674475020877
 30
0.0
 10
17.49984398537427
 20
3.539743585593153
 30
0.0
  0
SPLINE
  5
15F
330
1F
100
AcDbEntity
  8
외형선
  6
Continuous
 62
     1
370
    15
100
AcDbSpline
210
0.0
220
0.0
230
1.0
 70
     8
 71
     3
 72
    10
 73
     6
 74
     0
 42
0.000000001
 43
0.00000001
 40
0.0
 40
0.0
 40
0.0
 40
0.0
 40
0.5
 40
0.5
 40
1.0
 40
1.0
 40
1.0
 40
1.0
 10
12.22010150690204
 20
-3.546905506687295
 30
0.0
 10
12.12606639023453
 20
-3.47138098382777
 30
0.0
 10
12.01175671770639
 20
-3.425373867484646
 30
0.0
 10
11.78415211467523
 20
-3.392433732299833
 30
0.0
 10
11.67504455507268
 20
-3.405198606654515
 30
0.0
 10
11.58473384501594
 20
-3.445636140630738
 30
0.0
  0
SPLINE
  5
160
330
1F
100
AcDbEntity
  8
외형선
  6
Continuous
 62
     1
370
    15
100
AcDbSpline
210
0.0
220
0.0
230
1.0
 70
     8
 71
     3
 72
    14
 73
    10
 74
     0
 42
0.000000001
 43
0.00000001
 40
0.0
 40
0.0
 40
0.0
 40
0.0
 40
0.25
 40
0.25
 40
0.5
 40
0.5
 40
0.75
 40
0.75
 40
1.0
 40
1.0
 40
1.0
 40
1.0
 10
12.22010150690054
 20
-3.546905506679342
 30
0.0
 10
12.20295451478002
 20
-3.456250326370092
 30
0.0
 10
12.18573284512178
 20
-3.349208539663241
 30
0.0
 10
12.14992837109809
 20
-3.101555571094804
 30
0.0
 10
12.13163774146871
 20
-2.961445066997213
 30
0.0
 10
12.09505194724947
 20
-2.653996347406176
 30
0.0
 10
12.0767605112472
 20
-2.486689454059932
 30
0.0
 10
12.04095292407546
 20
-2.132548173097463
 30
0.0
 10
12.02372564496777
 20
-1.946826913312653
 30
0.0
 10
12.00658122905323
 20
-1.753386398281046
 30
0.0
  0
SPLINE
  5
161
330
1F
100
AcDbEntity
  8
외형선
  6
Continuous
 62
     1
370
    15
100
AcDbSpline
210
0.0
220
0.0
230
1.0
 70
     8
 71
     3
 72
    12
 73
     8
 74
     0
 42
0.000000001
 43
0.00000001
 40
0.0
 40
0.0
 40
0.0
 40
0.0
 40
0.2500000000000001
 40
0.2500000000000001
 40
0.5000000000000002
 40
0.5000000000000002
 40
1.0
 40
1.0
 40
1.0
 40
1.0
 10
12.37838557312035
 20
-3.616126539323578
 30
0.0
 10
12.36124046396111
 20
-3.527116759648903
 30
0.0
 10
12.34430780446275
 20
-3.422111225338416
 30
0.0
 10
12.30883620614459
 20
-3.177874514139647
 30
0.0
 10
12.29068649118176
 20
-3.039279587673844
 30
0.0
 10
12.23612696057513
 20
-2.581699309490871
 30
0.0
 10
12.19983448300335
 20
-2.220990549114072
 30
0.0
 10
12.16599645426217
 20
-1.835291174699529
 30
0.0
  0
SPLINE
  5
162
330
1F
100
AcDbEntity
  8
외형선
  6
Continuous
 62
     1
370
    15
100
AcDbSpline
210
0.0
220
0.0
230
1.0
 70
     8
 71
     3
 72
    12
 73
     8
 74
     0
 42
0.000000001
 43
0.00000001
 40
0.0
 40
0.0
 40
0.0
 40
0.0
 40
0.25
 40
0.25
 40
0.5000000000000002
 40
0.5000000000000002
 40
1.0
 40
1.0
 40
1.0
 40
1.0
 10
13.48431556394117
 20
-3.761171697215441
 30
0.0
 10
13.4665654974483
 20
-3.692123469309712
 30
0.0
 10
13.44957037131057
 20
-3.606644505482245
 30
0.0
 10
13.41538112741825
 20
-3.403656343068656
 30
0.0
 10
13.39766561036294
 20
-3.284864598872786
 30
0.0
 10
13.34369976582509
 20
-2.881563440789888
 30
0.0
 10
13.30665603542563
 20
-2.5491759597713
 30
0.0
 10
13.27158063441628
 20
-2.181808570737219
 30
0.0
  0
SPLINE
  5
163
330
1F
100
AcDbEntity
  8
외형선
  6
Continuous
 62
     1
370
    15
100
AcDbSpline
210
0.0
220
0.0
230
1.0
 70
     8
 71
     3
 72
     8
 73
     4
 74
     0
 42
0.000000001
 43
0.00000001
 40
0.0
 40
0.0
 40
0.0
 40
0.0
 40
1.0
 40
1.0
 40
1.0
 40
1.0
 10
13.48431751521965
 20
-3.761170779634549
 30
0.0
 10
13.11512024909926
 20
-3.719205610166965
 30
0.0
 10
12.74830533106147
 20
-3.670858122404678
 30
0.0
 10
12.37838645352515
 20
-3.616125966698941
 30
0.0
  0
SPLINE
  5
164
330
1F
100
AcDbEntity
  8
외형선
  6
Continuous
 62
     1
370
    15
100
AcDbSpline
210
0.0
220
0.0
230
1.0
 70
     8
 71
     3
 72
     8
 73
     4
 74
     0
 42
0.000000001
 43
0.00000001
 40
0.0
 40
0.0
 40
0.0
 40
0.0
 40
1.0
 40
1.0
 40
1.0
 40
1.0
 10
12.37838543375824
 20
-3.616125815817087
 30
0.0
 10
12.32252897811668
 20
-3.607861450189174
 30
0.0
 10
12.26635388153777
 20
-3.584053209052287
 30
0.0
 10
12.22010150690087
 20
-3.546905506690436
 30
0.0
  0
SPLINE
  5
165
330
1F
100
AcDbEntity
  8
외형선
  6
Continuous
 62
     1
370
    15
100
AcDbSpline
210
0.0
220
0.0
230
1.0
 70
     8
 71
     3
 72
     8
 73
     4
 74
     0
 42
0.000000001
 43
0.00000001
 40
0.0
 40
0.0
 40
0.0
 40
0.0
 40
1.0
 40
1.0
 40
1.0
 40
1.0
 10
10.16079612257282
 20
-3.176033504596099
 30
0.0
 10
10.1114389851146
 20
-3.137990890307528
 30
0.0
 10
10.05731272409704
 20
-3.107119204173722
 30
0.0
 10
9.999048849951327
 20
-3.082327210423479
 30
0.0
  0
SPLINE
  5
166
330
1F
100
AcDbEntity
  8
외형선
  6
Continuous
370
    15
100
AcDbSpline
210
0.0
220
0.0
230
1.0
 70
    24
 71
     3
 72
    10
 73
     6
 74
     0
 42
0.000000001
 43
0.00000001
 40
0.0
 40
0.0
 40
0.0
 40
0.0
 40
0.5
 40
0.5
 40
1.0
 40
1.0
 40
1.0
 40
1.0
 10
9.999048849953336
 20
-1.668190256405201
 30
0.0
 10
9.999048849953336
 20
-1.949904922657515
 30
0.0
 10
9.99904884995336
 20
-2.210840100886222
 30
0.0
 10
9.99904884995336
 20
-2.688956021851853
 30
0.0
 10
9.99904884995333
 20
-2.90027433144323
 30
0.0
 10
9.99904884995333
 20
-3.08232721042435
 30
0.0
  0
SPLINE
  5
167
330
1F
100
AcDbEntity
  8
외형선
  6
Continuous
 62
     1
370
    15
100
AcDbSpline
210
0.0
220
0.0
230
1.0
 70
     8
 71
     3
 72
    12
 73
     8
 74
     0
 42
0.000000001
 43
0.00000001
 40
0.0
 40
0.0
 40
0.0
 40
0.0
 40
0.2500000000000001
 40
0.2500000000000001
 40
0.5000000000000001
 40
0.5000000000000001
 40
1.0
 40
1.0
 40
1.0
 40
1.0
 10
17.07777453526843
 20
1.920211649811815
 30
0.0
 10
17.05954844322389
 20
2.112988508959996
 30
0.0
 10
17.04145549728028
 20
2.296094948068545
 30
0.0
 10
17.00628114974634
 20
2.636001749285303
 30
0.0
 10
16.98958391979072
 20
2.791870521584706
 30
0.0
 10
16.93706443249019
 20
3.226063156410031
 30
0.0
 10
16.89989373646861
 20
3.465334597753666
 30
0.0
 10
16.8636284012535
 20
3.632483446054809
 30
0.0
  0
SPLINE
  5
168
330
1F
100
AcDbEntity
  8
외형선
  6
Continuous
 62
     1
370
    15
100
AcDbSpline
210
0.0
220
0.0
230
1.0
 70
     8
 71
     3
 72
    12
 73
     8
 74
     0
 42
0.000000001
 43
0.00000001
 40
0.0
 40
0.0
 40
0.0
 40
0.0
 40
0.2499999999999999
 40
0.2499999999999999
 40
0.4999999999999998
 40
0.4999999999999998
 40
1.0
 40
1.0
 40
1.0
 40
1.0
 10
15.81165655794052
 20
2.339858608533855
 30
0.0
 10
15.79388819212471
 20
2.518938997251121
 30
0.0
 10
15.77683406465678
 20
2.684811550455443
 30
0.0
 10
15.74270524022164
 20
2.991073557344039
 30
0.0
 10
15.72501241802885
 20
3.133137223821925
 30
0.0
 10
15.67108758671353
 20
3.515245165774985
 30
0.0
 10
15.63403374410729
 20
3.709622621055269
 30
0.0
 10
15.59891340949872
 20
3.829182623560532
 30
0.0
  0
SPLINE
  5
169
330
1F
100
AcDbEntity
  8
외형선
  6
Continuous
 62
     1
370
    15
100
AcDbSpline
210
0.0
220
0.0
230
1.0
 70
     8
 71
     3
 72
    10
 73
     6
 74
     0
 42
0.000000001
 43
0.00000001
 40
0.0
 40
0.0
 40
0.0
 40
0.0
 40
0.5
 40
0.5
 40
1.0
 40
1.0
 40
1.0
 40
1.0
 10
16.91812085641157
 20
2.002926422143545
 30
0.0
 10
16.88263367487805
 20
2.385226558034554
 30
0.0
 10
16.84714649334455
 20
2.72999032237612
 30
0.0
 10
16.77617213027752
 20
3.306569936493634
 30
0.0
 10
16.74068494874401
 20
3.538266526365591
 30
0.0
 10
16.7051977672105
 20
3.700642998811651
 30
0.0
  0
SPLINE
  5
16A
330
1F
100
AcDbEntity
  8
외형선
  6
Continuous
 62
     1
370
    15
100
AcDbSpline
210
0.0
220
0.0
230
1.0
 70
     8
 71
     3
 72
     8
 73
     4
 74
     0
 42
0.000000001
 43
0.00000001
 40
0.0
 40
0.0
 40
0.0
 40
0.0
 40
1.0
 40
1.0
 40
1.0
 40
1.0
 10
13.64390490998195
 20
-3.730099735535247
 30
0.0
 10
13.59802306905155
 20
-3.75684420379732
 30
0.0
 10
13.54193950361426
 20
-3.767720443689721
 30
0.0
 10
13.48431526222989
 20
-3.761170523549391
 30
0.0
  0
SPLINE
  5
16B
330
1F
100
AcDbEntity
  8
외형선
  6
Continuous
 62
     1
370
    15
100
AcDbSpline
210
0.0
220
0.0
230
1.0
 70
     8
 71
     3
 72
    10
 73
     6
 74
     0
 42
0.000000001
 43
0.00000001
 40
0.0
 40
0.0
 40
0.0
 40
0.0
 40
0.5
 40
0.5
 40
1.0
 40
1.0
 40
1.0
 40
1.0
 10
13.64390490998113
 20
-3.730099735532278
 30
0.0
 10
13.60805986871624
 20
-3.599804955450455
 30
0.0
 10
13.57480276674682
 20
-3.403662932366491
 30
0.0
 10
13.50265476779951
 20
-2.881080226372993
 30
0.0
 10
13.46536514602119
 20
-2.555555343515587
 30
0.0
 10
13.42995345147609
 20
-2.193755196578305
 30
0.0
  0
SPLINE
  5
16C
330
1F
100
AcDbEntity
  8
외형선
  6
Continuous
 62
     1
370
    15
100
AcDbSpline
210
0.0
220
0.0
230
1.0
 70
     8
 71
     3
 72
    10
 73
     6
 74
     0
 42
0.000000001
 43
0.00000001
 40
0.0
 40
0.0
 40
0.0
 40
0.0
 40
0.5
 40
0.5
 40
1.0
 40
1.0
 40
1.0
 40
1.0
 10
14.27996517757513
 20
-3.791346498437852
 30
0.0
 10
14.18580944537667
 20
-3.715442526016616
 30
0.0
 10
14.07137242351966
 20
-3.672981230067764
 30
0.0
 10
13.84355322763821
 20
-3.654268497501642
 30
0.0
 10
13.73433017874494
 20
-3.677390958348445
 30
0.0
 10
13.64390490998195
 20
-3.730099735535255
 30
0.0
  0
SPLINE
  5
16D
330
1F
100
AcDbEntity
  8
외형선
  6
Continuous
 62
     1
370
    15
100
AcDbSpline
210
0.0
220
0.0
230
1.0
 70
     8
 71
     3
 72
    12
 73
     8
 74
     0
 42
0.000000001
 43
0.00000001
 40
0.0
 40
0.0
 40
0.0
 40
0.0
 40
0.25
 40
0.25
 40
0.5
 40
0.5
 40
1.0
 40
1.0
 40
1.0
 40
1.0
 10
14.27996517757047
 20
-3.791346498424225
 30
0.0
 10
14.2618393347119
 20
-3.738338005318191
 30
0.0
 10
14.2439555200027
 20
-3.667372566885372
 30
0.0
 10
14.20938862293913
 20
-3.494106078040673
 30
0.0
 10
14.19247885638166
 20
-3.391753361311256
 30
0.0
 10
14.13915012336233
 20
-3.033239703506458
 30
0.0
 10
14.10184858024374
 20
-2.727053506123025
 30
0.0
 10
14.06589493425514
 20
-2.378534685125847
 30
0.0
  0
SPLINE
  5
16E
330
1F
100
AcDbEntity
  8
외형선
  6
Continuous
 62
     1
370
    15
100
AcDbSpline
210
0.0
220
0.0
230
1.0
 70
     8
 71
     3
 72
    12
 73
     8
 74
     0
 42
0.000000001
 43
0.00000001
 40
0.0
 40
0.0
 40
0.0
 40
0.0
 40
0.25
 40
0.25
 40
0.5
 40
0.5
 40
1.0
 40
1.0
 40
1.0
 40
1.0
 10
15.65326103549149
 20
2.348677817469555
 30
0.0
 10
15.63545304958741
 20
2.524503796299733
 30
0.0
 10
15.61848551481294
 20
2.686677295451688
 30
0.0
 10
15.58396091263585
 20
2.986922974512769
 30
0.0
 10
15.56608926549041
 20
3.125673596014706
 30
0.0
 10
15.51171858041337
 20
3.497108626375767
 30
0.0
 10
15.47449429409956
 20
3.683360287664586
 30
0.0
 10
15.43936921382334
 20
3.794832264763766
 30
0.0
  0
SPLINE
  5
16F
330
1F
100
AcDbEntity
  8
외형선
  6
Continuous
 62
     1
370
    15
100
AcDbSpline
210
0.0
220
0.0
230
1.0
 70
     8
 71
     3
 72
    12
 73
     8
 74
     0
 42
0.000000001
 43
0.00000001
 40
0.0
 40
0.0
 40
0.0
 40
0.0
 40
0.2500000000000001
 40
0.2500000000000001
 40
0.5000000000000002
 40
0.5000000000000002
 40
1.0
 40
1.0
 40
1.0
 40
1.0
 10
14.43839850963436
 20
-3.854917701831537
 30
0.0
 10
14.42034035821076
 20
-3.804198218899204
 30
0.0
 10
14.4024926635106
 20
-3.735361630051783
 30
0.0
 10
14.36793164450758
 20
-3.56581535957202
 30
0.0
 10
14.35123846541901
 20
-3.465523450578499
 30
0.0
 10
14.29843685131787
 20
-3.112730408468279
 30
0.0
 10
14.26137869714607
 20
-2.809589188356462
 30
0.0
 10
14.22550242626309
 20
-2.462382266145678
 30
0.0
  0
SPLINE
  5
170
330
1F
100
AcDbEntity
  8
외형선
  6
Continuous
 62
     1
370
    15
100
AcDbSpline
210
0.0
220
0.0
230
1.0
 70
     8
 71
     3
 72
    10
 73
     6
 74
     0
 42
0.000000001
 43
0.00000001
 40
0.0
 40
0.0
 40
0.0
 40
0.0
 40
0.5
 40
0.5
 40
1.0
 40
1.0
 40
1.0
 40
1.0
 10
15.54516616843353
 20
-3.926794001800369
 30
0.0
 10
15.50883186810534
 20
-3.869680049284265
 30
0.0
 10
15.47272042158637
 20
-3.736723343315818
 30
0.0
 10
15.40501151764754
 20
-3.348190371056132
 30
0.0
 10
15.36847400199419
 20
-3.082963906821956
 30
0.0
 10
15.33215936435485
 20
-2.76426482305312
 30
0.0
  0
SPLINE
  5
171
330
1F
100
AcDbEntity
  8
외형선
  6
Continuous
 62
     1
370
    15
100
AcDbSpline
210
0.0
220
0.0
230
1.0
 70
     8
 71
     3
 72
     8
 73
     4
 74
     0
 42
0.000000001
 43
0.00000001
 40
0.0
 40
0.0
 40
0.0
 40
0.0
 40
1.0
 40
1.0
 40
1.0
 40
1.0
 10
15.54516625390029
 20
-3.926794095471231
 30
0.0
 10
15.1768232008438
 20
-3.909578921591649
 30
0.0
 10
14.80868790469125
 20
-3.885607659146326
 30
0.0
 10
14.43839907571289
 20
-3.854917589693147
 30
0.0
  0
SPLINE
  5
172
330
1F
100
AcDbEntity
  8
외형선
  6
Continuous
 62
     1
370
    15
100
AcDbSpline
210
0.0
220
0.0
230
1.0
 70
     8
 71
     3
 72
     8
 73
     4
 74
     0
 42
0.000000001
 43
0.00000001
 40
0.0
 40
0.0
 40
0.0
 40
0.0
 40
1.0
 40
1.0
 40
1.0
 40
1.0
 10
14.43839845128228
 20
-3.854917537939423
 30
0.0
 10
14.38249421499586
 20
-3.85028411349682
 30
0.0
 10
14.32626692663687
 20
-3.828672815191624
 30
0.0
 10
14.27996517757391
 20
-3.791346498441512
 30
0.0
  0
SPLINE
  5
173
330
1F
100
AcDbEntity
  8
외형선
  6
Continuous
 62
     1
370
    15
100
AcDbSpline
210
0.0
220
0.0
230
1.0
 70
     8
 71
     3
 72
    12
 73
     8
 74
     0
 42
0.000000001
 43
0.00000001
 40
0.0
 40
0.0
 40
0.0
 40
0.0
 40
0.25
 40
0.25
 40
0.5
 40
0.5
 40
1.0
 40
1.0
 40
1.0
 40
1.0
 10
15.01741093783273
 20
2.528078626846138
 30
0.0
 10
14.99993403438293
 20
2.694955574155169
 30
0.0
 10
14.98319869438087
 20
2.848010065618589
 30
0.0
 10
14.9478977913665
 20
3.131624264144708
 30
0.0
 10
14.92975652699526
 20
3.260692258657571
 30
0.0
 10
14.87498771681949
 20
3.600005383871894
 30
0.0
 10
14.83806517618473
 20
3.760706455770638
 30
0.0
 10
14.80373056448152
 20
3.846731319444426
 30
0.0
  0
SPLINE
  5
174
330
1F
100
AcDbEntity
  8
외형선
  6
Continuous
 62
     1
370
    15
100
AcDbSpline
210
0.0
220
0.0
230
1.0
 70
     8
 71
     3
 72
    12
 73
     8
 74
     0
 42
0.000000001
 43
0.00000001
 40
0.0
 40
0.0
 40
0.0
 40
0.0
 40
0.5000000000000001
 40
0.5000000000000001
 40
0.75
 40
0.75
 40
1.0
 40
1.0
 40
1.0
 40
1.0
 10
13.75258290137872
 20
2.901459916547738
 30
0.0
 10
13.71810855448602
 20
3.201504673406599
 30
0.0
 10
13.68126368141504
 20
3.453886356940471
 30
0.0
 10
13.62691589999193
 20
3.725589755070443
 30
0.0
 10
13.60896365759906
 20
3.798633109512828
 30
0.0
 10
13.57411392362941
 20
3.907982412547552
 30
0.0
 10
13.55749609652886
 20
3.944461042074674
 30
0.0
 10
13.53999844944922
 20
3.963347376099432
 30
0.0
  0
SPLINE
  5
175
330
1F
100
AcDbEntity
  8
외형선
  6
Continuous
 62
     1
370
    15
100
AcDbSpline
210
0.0
220
0.0
230
1.0
 70
     8
 71
     3
 72
    10
 73
     6
 74
     0
 42
0.000000001
 43
0.00000001
 40
0.0
 40
0.0
 40
0.0
 40
0.0
 40
0.5
 40
0.5
 40
1.0
 40
1.0
 40
1.0
 40
1.0
 10
14.85791491681978
 20
2.612005407350467
 30
0.0
 10
14.82250506184083
 20
2.945768938428059
 30
0.0
 10
14.78709520686187
 20
3.230566988742899
 30
0.0
 10
14.71627549690395
 20
3.670947253536716
 30
0.0
 10
14.68086564192499
 20
3.826438394764908
 30
0.0
 10
14.64545578694603
 20
3.908690246173604
 30
0.0
  0
SPLINE
  5
176
330
1F
100
AcDbEntity
  8
외형선
  6
Continuous
 62
     1
370
    15
100
AcDbSpline
210
0.0
220
0.0
230
1.0
 70
     8
 71
     3
 72
     8
 73
     4
 74
     0
 42
0.000000001
 43
0.00000001
 40
0.0
 40
0.0
 40
0.0
 40
0.0
 40
1.0
 40
1.0
 40
1.0
 40
1.0
 10
15.70484045745259
 20
-3.881639725202628
 30
0.0
 10
15.65892721898186
 20
-3.913674049778892
 30
0.0
 10
15.60281517947085
 20
-3.929488421561124
 30
0.0
 10
15.54516622723212
 20
-3.926794094228323
 30
0.0
  0
SPLINE
  5
177
330
1F
100
AcDbEntity
  8
외형선
  6
Continuous
 62
     1
370
    15
100
AcDbSpline
210
0.0
220
0.0
230
1.0
 70
     8
 71
     3
 72
    10
 73
     6
 74
     0
 42
0.000000001
 43
0.00000001
 40
0.0
 40
0.0
 40
0.0
 40
0.0
 40
0.5
 40
0.5
 40
1.0
 40
1.0
 40
1.0
 40
1.0
 10
15.70484045744115
 20
-3.881639725187146
 30
0.0
 10
15.66832379475825
 20
-3.832220818530397
 30
0.0
 10
15.63159688684847
 20
-3.706388426456287
 30
0.0
 10
15.56362004268502
 20
-3.332227746852612
 30
0.0
 10
15.52716471373416
 20
-3.074749007497362
 30
0.0
 10
15.49063447386118
 20
-2.762527466326032
 30
0.0
  0
SPLINE
  5
178
330
1F
100
AcDbEntity
  8
외형선
  6
Continuous
 62
     1
370
    15
100
AcDbSpline
210
0.0
220
0.0
230
1.0
 70
     8
 71
     3
 72
    10
 73
     6
 74
     0
 42
0.000000001
 43
0.00000001
 40
0.0
 40
0.0
 40
0.0
 40
0.0
 40
0.5
 40
0.5
 40
1.0
 40
1.0
 40
1.0
 40
1.0
 10
16.34105199750514
 20
-3.900537524387899
 30
0.0
 10
16.2468691552988
 20
-3.826983529595953
 30
0.0
 10
16.13239885041712
 20
-3.789580023445533
 30
0.0
 10
15.90453018341202
 20
-3.78581838376054
 30
0.0
 10
15.79529632851203
 20
-3.818527367419497
 30
0.0
 10
15.70484045745259
 20
-3.881639725202627
 30
0.0
  0
SPLINE
  5
179
330
1F
100
AcDbEntity
  8
외형선
  6
Continuous
 62
     1
370
    15
100
AcDbSpline
210
0.0
220
0.0
230
1.0
 70
     8
 71
     3
 72
    12
 73
     8
 74
     0
 42
0.000000001
 43
0.00000001
 40
0.0
 40
0.0
 40
0.0
 40
0.0
 40
0.5
 40
0.5
 40
0.7499999999999999
 40
0.7499999999999999
 40
1.0
 40
1.0
 40
1.0
 40
1.0
 10
16.34105172630392
 20
-3.900537347472603
 30
0.0
 10
16.30471713948213
 20
-3.876834672896549
 30
0.0
 10
16.2676110157256
 20
-3.776441545807399
 30
0.0
 10
16.2153641024611
 20
-3.527658304052031
 30
0.0
 10
16.19861728641182
 20
-3.429308363487894
 30
0.0
 10
16.1632832746114
 20
-3.198078267251928
 30
0.0
 10
16.14513972884559
 20
-3.065783630126015
 30
0.0
 10
16.12689575859669
 20
-2.919125385058556
 30
0.0
  0
SPLINE
  5
17A
330
1F
100
AcDbEntity
  8
외형선
  6
Continuous
 62
     1
370
    15
100
AcDbSpline
210
0.0
220
0.0
230
1.0
 70
     8
 71
     3
 72
    12
 73
     8
 74
     0
 42
0.000000001
 43
0.00000001
 40
0.0
 40
0.0
 40
0.0
 40
0.0
 40
0.5000000000000003
 40
0.5000000000000003
 40
0.7500000000000002
 40
0.7500000000000002
 40
1.0
 40
1.0
 40
1.0
 40
1.0
 10
13.59426593292055
 20
2.896413733138398
 30
0.0
 10
13.55942628679404
 20
3.190503429614498
 30
0.0
 10
13.52229551104721
 20
3.43579212119796
 30
0.0
 10
13.46774066327615
 20
3.696212214611322
 30
0.0
 10
13.44975546958708
 20
3.765400569339662
 30
0.0
 10
13.41491486827587
 20
3.867130387632056
 30
0.0
 10
13.39814610736604
 20
3.900026715091666
 30
0.0
 10
13.38045594007039
 20
3.915207579103661
 30
0.0
  0
SPLINE
  5
17B
330
1F
100
AcDbEntity
  8
외형선
  6
Continuous
 62
     1
370
    15
100
AcDbSpline
210
0.0
220
0.0
230
1.0
 70
     8
 71
     3
 72
    12
 73
     8
 74
     0
 42
0.000000001
 43
0.00000001
 40
0.0
 40
0.0
 40
0.0
 40
0.0
 40
0.5000000000000001
 40
0.5000000000000001
 40
0.7500000000000002
 40
0.7500000000000002
 40
1.0
 40
1.0
 40
1.0
 40
1.0
 10
16.49948668644571
 20
-3.956180592825913
 30
0.0
 10
16.46341514417577
 20
-3.937937762595813
 30
0.0
 10
16.42646032944726
 20
-3.842878628992346
 30
0.0
 10
16.37422190769907
 20
-3.60042707415163
 30
0.0
 10
16.35761784348048
 20
-3.504207906484788
 30
0.0
 10
16.32265588201585
 20
-3.277256079023534
 30
0.0
 10
16.30467174748672
 20
-3.146919576165732
 30
0.0
 10
16.28655042692408
 20
-3.001896368446644
 30
0.0
  0
LINE
  5
17C
330
1F
100
AcDbEntity
  8
외형선
  6
Continuous
 62
     1
370
    15
100
AcDbLine
 10
16.49948672827178
 20
-3.956180604770683
 30
0.0
 11
16.94766234704798
 21
-3.958236757484314
 31
0.0
  0
SPLINE
  5
17D
330
1F
100
AcDbEntity
  8
외형선
  6
Continuous
 62
     1
370
    15
100
AcDbSpline
210
0.0
220
0.0
230
1.0
 70
     8
 71
     3
 72
     8
 73
     4
 74
     0
 42
0.000000001
 43
0.00000001
 40
0.0
 40
0.0
 40
0.0
 40
0.0
 40
1.0
 40
1.0
 40
1.0
 40
1.0
 10
16.49948670951107
 20
-3.956180604490984
 30
0.0
 10
16.44358102530028
 20
-3.955347106531506
 30
0.0
 10
16.38735405858015
 20
-3.936698055115048
 30
0.0
 10
16.34105199750393
 20
-3.900537524391846
 30
0.0
  0
LINE
  5
17E
330
1F
100
AcDbEntity
  8
외형선
  6
Continuous
 62
     1
370
    15
100
AcDbLine
 10
12.6132182018099
 20
3.95032594545175
 30
0.0
 11
12.5860490640741
 21
3.977970173137551
 31
0.0
  0
LINE
  5
17F
330
1F
100
AcDbEntity
  8
외형선
  6
Continuous
 62
     1
370
    15
100
AcDbLine
 10
11.34681840808139
 20
3.911663017398005
 30
0.0
 11
11.31979398856408
 21
3.896702187213876
 31
0.0
  0
LINE
  5
180
330
1F
100
AcDbEntity
  8
외형선
  6
Continuous
 62
     1
370
    15
100
AcDbLine
 10
18.51258397881731
 20
-3.954013397041486
 30
0.0
 11
18.51010975985329
 21
-3.956011793190221
 31
0.0
  0
LINE
  5
181
330
1F
100
AcDbEntity
  8
외형선
  6
Continuous
 62
     1
370
    15
100
AcDbLine
 10
29.04904884995336
 20
0.774799726305687
 30
0.0
 11
29.04904884995336
 21
2.579007574843286
 31
0.0
  0
LINE
  5
182
330
1F
100
AcDbEntity
  8
외형선
  6
Continuous
 62
     1
370
    15
100
AcDbLine
 10
29.04904884995336
 20
2.877976215350154
 30
0.0
 11
29.04904884995336
 21
2.835916393857842
 31
0.0
  0
LINE
  5
183
330
1F
100
AcDbEntity
  8
외형선
  6
Continuous
 62
     1
370
    15
100
AcDbLine
 10
29.04904884995336
 20
-1.827984298208543
 30
0.0
 11
29.04904884995336
 21
-2.310937477305562
 31
0.0
  0
SPLINE
  5
184
330
1F
100
AcDbEntity
  8
외형선
  6
Continuous
 62
     1
370
    15
100
AcDbSpline
210
0.0
220
0.0
230
1.0
 70
     8
 71
     3
 72
    11
 73
     7
 74
     0
 42
0.000000001
 43
0.00000001
 40
0.0
 40
0.0
 40
0.0
 40
0.0
 40
0.2957807053499662
 40
0.5921838379190528
 40
0.8849117273896948
 40
0.9999999999999999
 40
0.9999999999999999
 40
0.9999999999999999
 40
0.9999999999999999
 10
12.95845892588455
 20
3.045887627306559
 30
0.0
 10
12.94030427810976
 20
3.177848169684335
 30
0.0
 10
12.90395677876013
 20
3.442046946094346
 30
0.0
 10
12.84868940490329
 20
3.708293512959084
 30
0.0
 10
12.80664947744168
 20
3.860830302357133
 30
0.0
 10
12.78204498771389
 20
3.882902295617122
 30
0.0
 10
12.7751014467645
 20
3.889131150217679
 30
0.0
  0
SPLINE
  5
185
330
1F
100
AcDbEntity
  8
외형선
  6
Continuous
 62
     1
370
    15
100
AcDbSpline
210
0.0
220
0.0
230
1.0
 70
     8
 71
     3
 72
    10
 73
     6
 74
     0
 42
0.000000001
 43
0.00000001
 40
0.0
 40
0.0
 40
0.0
 40
0.0
 40
0.2691554660633296
 40
0.6365188124445298
 40
1.0
 40
1.0
 40
1.0
 40
1.0
 10
17.58646788275431
 20
-3.939962985928964
 30
0.0
 10
17.56891654324487
 20
-3.937125903610883
 30
0.0
 10
17.52740983359208
 20
-3.930416560886677
 30
0.0
 10
17.46220714174818
 20
-3.700925691322102
 30
0.0
 10
17.41604366392665
 20
-3.398515285973946
 30
0.0
 10
17.39308453245462
 20
-3.24811326726691
 30
0.0
  0
SPLINE
  5
186
330
1F
100
AcDbEntity
  8
외형선
  6
Continuous
 62
     1
370
    15
100
AcDbSpline
210
0.0
220
0.0
230
1.0
 70
     8
 71
     3
 72
    11
 73
     7
 74
     0
 42
0.000000001
 43
0.00000001
 40
0.0
 40
0.0
 40
0.0
 40
0.0
 40
0.3476256877143397
 40
0.6911717898293901
 40
0.9353460585275915
 40
1.0
 40
1.0
 40
1.0
 40
1.0
 10
11.69241597601781
 20
3.360473993237597
 30
0.0
 10
11.67114935829832
 20
3.487815719686686
 30
0.0
 10
11.6288656987407
 20
3.741004744837518
 30
0.0
 10
11.57331435287492
 20
3.915876383608723
 30
0.0
 10
11.53528817195141
 20
3.983383246648991
 30
0.0
 10
11.51653631436513
 20
3.972734363977232
 30
0.0
 10
11.51261056709543
 20
3.970504994333099
 30
0.0
  0
SPLINE
  5
187
330
1F
100
AcDbEntity
  8
외형선
  6
Continuous
 62
     1
370
    15
100
AcDbSpline
210
0.0
220
0.0
230
1.0
 70
     8
 71
     3
 72
    11
 73
     7
 74
     0
 42
0.000000001
 43
0.00000001
 40
0.0
 40
0.0
 40
0.0
 40
0.0
 40
0.2865851204674941
 40
0.5731702409349885
 40
0.8597553614024825
 40
1.0
 40
1.0
 40
1.0
 40
1.0
 10
12.79887522158067
 20
3.128107595327012
 30
0.0
 10
12.78113970845512
 20
3.25672799612227
 30
0.0
 10
12.74566868220403
 20
3.513968797712786
 30
0.0
 10
12.69246214282739
 20
3.773408645443802
 30
0.0
 10
12.64831198269601
 20
3.925052178596648
 30
0.0
 10
12.62189733569018
 20
3.944075424685511
 30
0.0
 10
12.6132182018099
 20
3.95032594545175
 30
0.0
  0
SPLINE
  5
188
330
1F
100
AcDbEntity
  8
외형선
  6
Continuous
 62
     1
370
    15
100
AcDbSpline
210
0.0
220
0.0
230
1.0
 70
     8
 71
     3
 72
    11
 73
     7
 74
     0
 42
0.000000001
 43
0.00000001
 40
0.0
 40
0.0
 40
0.0
 40
0.0
 40
0.1737033755121359
 40
0.4515258177876584
 40
0.7264945646993012
 40
1.0
 40
1.0
 40
1.0
 40
1.0
 10
17.74532886302282
 20
-3.892799436091233
 30
0.0
 10
17.73405313447017
 20
-3.895672536395853
 30
0.0
 10
17.70474292365314
 20
-3.903140894226001
 30
0.0
 10
17.65659240029366
 20
-3.788087108973238
 30
0.0
 10
17.60372205036299
 20
-3.573874528484435
 30
0.0
 10
17.56887520531289
 20
-3.346155067470545
 30
0.0
 10
17.55149826792298
 20
-3.232599111090211
 30
0.0
  0
SPLINE
  5
189
330
1F
100
AcDbEntity
  8
외형선
  6
Continuous
 62
     1
370
    15
100
AcDbSpline
210
0.0
220
0.0
230
1.0
 70
     8
 71
     3
 72
    10
 73
     6
 74
     0
 42
0.000000001
 43
0.00000001
 40
0.0
 40
0.0
 40
0.0
 40
0.0
 40
0.2999629129858336
 40
0.6522456766172976
 40
1.0
 40
1.0
 40
1.0
 40
1.0
 10
18.33946643930398
 20
-3.892232864718193
 30
0.0
 10
18.32399728598373
 20
-3.876152965690607
 30
0.0
 10
18.2903608331515
 20
-3.841188494527196
 30
0.0
 10
18.23912896011024
 20
-3.661062129480632
 30
0.0
 10
18.20456372144867
 20
-3.456750193245918
 30
0.0
 10
18.18739290092174
 20
-3.35525505754195
 30
0.0
  0
SPLINE
  5
18A
330
1F
100
AcDbEntity
  8
외형선
  6
Continuous
 62
     1
370
    15
100
AcDbSpline
210
0.0
220
0.0
230
1.0
 70
     8
 71
     3
 72
    11
 73
     7
 74
     0
 42
0.000000001
 43
0.00000001
 40
0.0
 40
0.0
 40
0.0
 40
0.0
 40
0.3232813789033508
 40
0.6426952983998502
 40
0.891182416644575
 40
1.0
 40
1.0
 40
1.0
 40
1.0
 10
11.53397178848491
 20
3.341810020971862
 30
0.0
 10
11.51338914312431
 20
3.460872413391221
 30
0.0
 10
11.47247008540821
 20
3.6975728385247
 30
0.0
 10
11.41751566859111
 20
3.868295401983
 30
0.0
 10
11.37634136443818
 20
3.934969991496583
 30
0.0
 10
11.35371062685733
 20
3.91710409730041
 30
0.0
 10
11.34681840808139
 20
3.911663017398005
 30
0.0
  0
SPLINE
  5
18B
330
1F
100
AcDbEntity
  8
외형선
  6
Continuous
 62
     1
370
    15
100
AcDbSpline
210
0.0
220
0.0
230
1.0
 70
     8
 71
     3
 72
    10
 73
     6
 74
     0
 42
0.000000001
 43
0.00000001
 40
0.0
 40
0.0
 40
0.0
 40
0.0
 40
0.3636128700992234
 40
0.7226913700188342
 40
1.0
 40
1.0
 40
1.0
 40
1.0
 10
10.89771775929866
 20
3.456042915044874
 30
0.0
 10
10.88031576850708
 20
3.546301868879157
 30
0.0
 10
10.84572879538152
 20
3.725694218179568
 30
0.0
 10
10.79979126446721
 20
3.87674974448116
 30
0.0
 10
10.77016925086718
 20
3.897703115794076
 30
0.0
 10
10.7572613216795
 20
3.906833644083008
 30
0.0
  0
SPLINE
  5
18C
330
1F
100
AcDbEntity
  8
외형선
  6
Continuous
 62
     1
370
    15
100
AcDbSpline
210
0.0
220
0.0
230
1.0
 70
     8
 71
     3
 72
    11
 73
     7
 74
     0
 42
0.000000001
 43
0.00000001
 40
0.0
 40
0.0
 40
0.0
 40
0.0
 40
0.0214274794124192
 40
0.3500017872586008
 40
0.6772524480998371
 40
1.0
 40
1.0
 40
1.0
 40
1.0
 10
18.51010975985329
 20
-3.956011793190221
 30
0.0
 10
18.50895162298122
 20
-3.957015840100203
 30
0.0
 10
18.49003432676954
 20
-3.973416192480487
 30
0.0
 10
18.45212890552957
 20
-3.899899708749778
 30
0.0
 10
18.39839653332046
 20
-3.736528056339802
 30
0.0
 10
18.36398741692308
 20
-3.534355883258742
 30
0.0
 10
18.34690204982113
 20
-3.433970108890147
 30
0.0
  0
SPLINE
  5
18D
330
1F
100
AcDbEntity
  8
외형선
  6
Continuous
 62
     1
370
    15
100
AcDbSpline
210
0.0
220
0.0
230
1.0
 70
     8
 71
     3
 72
    10
 73
     6
 74
     0
 42
0.000000001
 43
0.00000001
 40
0.0
 40
0.0
 40
0.0
 40
0.0
 40
0.0533369628923653
 40
0.5286071964041038
 40
1.0
 40
1.0
 40
1.0
 40
1.0
 10
19.58647305371974
 20
-3.951795272481649
 30
0.0
 10
19.58412443258068
 20
-3.954289791534674
 30
0.0
 10
19.56084792847523
 20
-3.979012247623103
 30
0.0
 10
19.51476134808808
 20
-3.886127795877566
 30
0.0
 10
19.47303483462759
 20
-3.70566735957621
 30
0.0
 10
19.45225703155153
 20
-3.615806714688095
 30
0.0
  0
SPLINE
  5
18E
330
1F
100
AcDbEntity
  8
외형선
  6
Continuous
 62
     1
370
    15
100
AcDbSpline
210
0.0
220
0.0
230
1.0
 70
     8
 71
     3
 72
    10
 73
     6
 74
     0
 42
0.000000001
 43
0.00000001
 40
0.0
 40
0.0
 40
0.0
 40
0.0
 40
0.3501386780315114
 40
0.7002773560630228
 40
0.9999999999999999
 40
0.9999999999999999
 40
0.9999999999999999
 40
0.9999999999999999
 10
10.73803345180027
 20
3.533583036328384
 30
0.0
 10
10.72028363582514
 20
3.62517337927928
 30
0.0
 10
10.68478400387487
 20
3.808354065181072
 30
0.0
 10
10.6340903299428
 20
3.953856317539524
 30
0.0
 10
10.60114647198587
 20
3.965694478639821
 30
0.0
 10
10.58595243000407
 20
3.971154358808692
 30
0.0
  0
SPLINE
  5
18F
330
1F
100
AcDbEntity
  8
외형선
  6
Continuous
 62
     1
370
    15
100
AcDbSpline
210
0.0
220
0.0
230
1.0
 70
     8
 71
     3
 72
    10
 73
     6
 74
     0
 42
0.000000001
 43
0.00000001
 40
0.0
 40
0.0
 40
0.0
 40
0.0
 40
0.1811989876478964
 40
0.5920689349330814
 40
0.9999999999999999
 40
0.9999999999999999
 40
0.9999999999999999
 40
0.9999999999999999
 10
19.76226299240342
 20
-3.87929238259753
 30
0.0
 10
19.75326461433276
 20
-3.890783151008037
 30
0.0
 10
19.72386235226947
 20
-3.928329315601359
 30
0.0
 10
19.67195942448894
 20
-3.843587434253928
 30
0.0
 10
19.63098026787867
 20
-3.672372625970423
 30
0.0
 10
19.61056423180959
 20
-3.587072488275571
 30
0.0
  0
SPLINE
  5
190
330
1F
100
AcDbEntity
  8
외형선
  6
Continuous
 62
     1
370
    15
100
AcDbSpline
210
0.0
220
0.0
230
1.0
 70
     8
 71
     3
 72
     9
 73
     5
 74
     0
 42
0.000000001
 43
0.00000001
 40
0.0
 40
0.0
 40
0.0
 40
0.0
 40
0.3864101522125377
 40
1.0
 40
1.0
 40
1.0
 40
1.0
 10
20.33780528590315
 20
-3.88430667291333
 30
0.0
 10
20.32596555602505
 20
-3.876763401650137
 30
0.0
 10
20.295325238191
 20
-3.857241990993609
 30
0.0
 10
20.26495402579407
 20
-3.742043049642097
 30
0.0
 10
20.24631855820232
 20
-3.671358148752947
 30
0.0
  0
SPLINE
  5
191
330
1F
100
AcDbEntity
  8
외형선
  6
Continuous
 62
     1
370
    15
100
AcDbSpline
210
0.0
220
0.0
230
1.0
 70
     8
 71
     3
 72
     9
 73
     5
 74
     0
 42
0.000000001
 43
0.00000001
 40
0.0
 40
0.0
 40
0.0
 40
0.0
 40
0.4897630062068526
 40
1.0
 40
1.0
 40
1.0
 40
1.0
 10
20.51264513007987
 20
-3.957234310868619
 30
0.0
 10
20.49516471099266
 20
-3.94935283947206
 30
0.0
 10
20.45947312370313
 20
-3.933260420696703
 30
0.0
 10
20.42398621334204
 20
-3.807448523227738
 30
0.0
 10
20.40587947888039
 20
-3.743254638879761
 30
0.0
  0
SPLINE
  5
192
330
1F
100
AcDbEntity
  8
외형선
  6
Continuous
 62
     1
370
    15
100
AcDbSpline
210
0.0
220
0.0
230
1.0
 70
     8
 71
     3
 72
     9
 73
     5
 74
     0
 42
0.000000001
 43
0.00000001
 40
0.0
 40
0.0
 40
0.0
 40
0.0
 40
0.115895379016403
 40
1.0
 40
1.0
 40
1.0
 40
1.0
 10
21.58644847877521
 20
-3.950298342562344
 30
0.0
 10
21.5836434363049
 20
-3.953312876653035
 30
0.0
 10
21.55944020668421
 20
-3.979323698795166
 30
0.0
 10
21.5343999970611
 20
-3.91319046823838
 30
0.0
 10
21.51226183202291
 20
-3.854721773502553
 30
0.0
  0
SPLINE
  5
193
330
1F
100
AcDbEntity
  8
외형선
  6
Continuous
 62
     1
370
    15
100
AcDbSpline
210
0.0
220
0.0
230
1.0
 70
     8
 71
     3
 72
     9
 73
     5
 74
     0
 42
0.000000001
 43
0.00000001
 40
0.0
 40
0.0
 40
0.0
 40
0.0
 40
0.2866071460828292
 40
1.0
 40
1.0
 40
1.0
 40
1.0
 10
21.75940900919156
 20
-3.881529276706262
 30
0.0
 10
21.75110292141616
 20
-3.892373613837351
 30
0.0
 10
21.72212217934841
 20
-3.930210552934309
 30
0.0
 10
21.6921133313048
 20
-3.862298641353055
 30
0.0
 10
21.67070523355621
 20
-3.813850768935134
 30
0.0
  0
LINE
  5
194
330
1F
100
AcDbEntity
  8
외형선
  6
Continuous
 62
     1
370
    15
100
AcDbLine
 10
22.34117129024408
 20
-3.887864162706587
 30
0.0
 11
22.3069751867566
 21
-3.8567074696271
 31
0.0
  0
LINE
  5
195
330
1F
100
AcDbEntity
  8
외형선
  6
Continuous
 62
     1
370
    15
100
AcDbLine
 10
22.51384891474187
 20
-3.955680304580193
 30
0.0
 11
22.46665314852997
 21
-3.919201094494441
 31
0.0
  0
LINE
  5
196
330
1F
100
AcDbEntity
  8
외형선
  6
Continuous
 62
     1
370
    15
100
AcDbLine
 10
23.58636994020815
 20
-3.945280781111132
 30
0.0
 11
23.57334712319433
 21
-3.956143770120359
 31
0.0
  0
LINE
  5
197
330
1F
100
AcDbEntity
  8
중심선
100
AcDbLine
 10
-37.45095115004663
 20
0.0092262153501557
 30
0.0
 11
32.04904884995338
 21
0.0092262153501642
 31
0.0
  0
LINE
  5
198
330
1F
100
AcDbEntity
  8
참조1
100
AcDbLine
 10
-2.700951150046629
 20
-0.3076443655825745
 30
0.0
 11
-2.700951150046623
 21
-40.30764436558257
 31
0.0
  0
LINE
  5
199
330
1F
100
AcDbEntity
  8
참조1
100
AcDbLine
 10
-19.72955880524311
 20
-3.959523784649833
 30
0.0
 11
48.41302153834937
 21
-3.959523784649833
 31
0.0
  0
LINE
  5
19A
330
1F
100
AcDbEntity
  8
참조1
100
AcDbLine
 10
48.41302153834937
 20
-3.959523784649833
 30
0.0
 11
48.41302153834937
 21
-6.918022390826684
 31
0.0
  0
LINE
  5
19B
330
1F
100
AcDbEntity
  8
참조1
100
AcDbLine
 10
-2.700951150046623
 20
-40.30764436558257
 30
0.0
 11
-24.19700095731233
 21
-40.30764436558257
 31
0.0
  0
CIRCLE
  5
19C
330
1F
100
AcDbEntity
  8
해칭선
100
AcDbCircle
 10
0.0
 20
0.0
 30
0.0
 40
3.000000000000005
  0
INSERT
  5
19D
330
1F
100
AcDbEntity
  8
0
  6
Continuous
 62
     7
100
AcDbBlockReference
 66
     1
  2
블럭10
 10
-16.64122408217183
 20
-52.3548186672265
 30
0.0
  0
ATTRIB
  5
19E
330
19D
100
AcDbEntity
  8
FORMAT
 62
     2
100
AcDbText
 10
-26.78286009430846
 20
-50.2794517543943
 30
0.0
 40
4.233333333333333
  1
EM156020 [ 3 FLUTE ]
 41
0.75
  7
SLDTEXTSTYLE0
 11
-26.78286009430846
 21
-52.39611842106097
 31
0.0
100
AcDbAttribute
  2
AUTOATTR0
 70
     0
 74
     1
  0
SEQEND
  5
19F
330
19D
100
AcDbEntity
  8
0
  6
Continuous
 62
     7
  0
HATCH
  5
1A0
330
1F
100
AcDbEntity
  8
중심선
100
AcDbHatch
 10
0.0
 20
0.0
 30
0.0
210
0.0
220
0.0
230
1.0
  2
SOLID
 70
     1
 71
     0
 91
        1
 92
        0
 93
        4
 72
     1
 10
-10.92631477779099
 20
-36.10764436558257
 11
-14.37259002162827
 21
-36.10764436558257
 72
     1
 10
-14.37259002162827
 20
-36.10764436558257
 11
-16.50081988083229
 21
-38.64396994615516
 72
     1
 10
-16.50081988083229
 20
-38.64396994615516
 11
-13.05451155188183
 21
-38.64393051685267
 72
     1
 10
-13.05451155188183
 20
-38.64393051685267
 11
-10.92631477779099
 21
-36.10764436558257
 97
        0
 75
     0
 76
     1
 98
        1
 10
-0.0009511500466353
 20
-0.307644365582571
  0
HATCH
  5
1A1
330
1F
100
AcDbEntity
  8
중심선
100
AcDbHatch
 10
0.0
 20
0.0
 30
0.0
210
0.0
220
0.0
230
1.0
  2
SOLID
 70
     1
 71
     0
 91
        1
 92
        0
 93
        4
 72
     1
 10
-5.913550786755034
 20
-36.10764436558259
 11
-9.359826030592288
 21
-36.10764436558259
 72
     1
 10
-9.359826030592288
 20
-36.10764436558259
 11
-13.8909640389497
 21
-41.50764436558259
 72
     1
 10
-13.8909640389497
 20
-41.50764436558259
 11
-10.44468879511242
 21
-41.50764436558259
 72
     1
 10
-10.44468879511242
 20
-41.50764436558259
 11
-5.913550786755034
 21
-36.10764436558259
 97
        0
 75
     0
 76
     1
 98
        1
 10
-0.0009511500466353
 20
-0.307644365582571
  0
HATCH
  5
1A2
330
1F
100
AcDbEntity
  8
중심선
100
AcDbHatch
 10
0.0
 20
0.0
 30
0.0
210
0.0
220
0.0
230
1.0
  2
SOLID
 70
     1
 71
     0
 91
        1
 92
        0
 93
        4
 72
     1
 10
-0.9007867957191384
 20
-36.10764436558257
 11
-4.347062039556282
 21
-36.10764436558257
 72
     1
 10
-4.347062039556282
 20
-36.10764436558257
 11
-11.3954989414455
 21
-44.50764436558259
 72
     1
 10
-11.3954989414455
 20
-44.50764436558259
 11
-7.949223697608221
 21
-44.50764436558259
 72
     1
 10
-7.949223697608221
 20
-44.50764436558259
 11
-0.9007867957191387
 21
-36.10764436558257
 97
        0
 75
     0
 76
     1
 98
        1
 10
-0.0009511500466353
 20
-0.307644365582571
  0
HATCH
  5
1A3
330
1F
100
AcDbEntity
  8
중심선
100
AcDbHatch
 10
0.0
 20
0.0
 30
0.0
210
0.0
220
0.0
230
1.0
  2
SOLID
 70
     1
 71
     0
 91
        1
 92
        0
 93
        6
 72
     3
 10
3.899103635293061
 20
-40.30764436563384
 11
3.960054785062283
 21
1.540882976769353E-10
 40
0.3939339440162628
 50
17.09539180608436
 51
320.0019657685075
 73
     0
 72
     1
 10
5.582103290993656
 20
-38.89553837022084
 11
7.887405164694722
 21
-36.96121166017292
 72
     3
 10
3.899103635240214
 20
-40.30764436558272
 11
6.600054785286829
 21
-1.278976924368180E-13
 40
0.636358354079598
 50
39.99873849337413
 51
368.4976242363724
 73
     1
 72
     1
 10
10.32443612714082
 20
-39.34764436551259
 11
2.579170942076138
 21
-39.34764436551259
 72
     1
 10
2.579170942076137
 20
-39.34764436551259
 11
2.579145897630203
 21
-41.26764436551248
 72
     1
 10
2.579145897630203
 20
-41.26764436551248
 11
7.020525667102239
 21
-41.26764436551245
 97
        0
 75
     0
 76
     1
 98
        1
 10
-0.0009511500466353
 20
-0.307644365582571
  0
DIMENSION
  5
1A5
330
1F
100
AcDbEntity
  8
치수문자_일반주서
100
AcDbDimension
  2
_D
 10
46.31905889570025
 20
-3.959523784649743
 30
0.0
 11
46.31905889570015
 21
24.5819762153503
 31
0.0
 70
   160
  1
%%c<>
 71
     2
 42
7.937500000000044
 52
-270.0
  3
SLDDIMSTYLE1
100
AcDbAlignedDimension
 13
9.999048849953374
 23
3.977976215350165
 33
0.0
 14
21.04955612294135
 24
-3.95952378464984
 34
0.0
 50
90.0000000000002
100
AcDbRotatedDimension
1001
ACAD
1000
DSTYLE
1002
{
1070
   171
1070
     4
1070
   273
1070
     7
1002
}
1001
PE_URL
1000

  0
DIMENSION
  5
1B8
330
1F
100
AcDbEntity
  8
치수문자_일반주서
100
AcDbDimension
  2
_D_1
 10
-44.45095115004666
 20
-3.959523784649873
 30
0.0
 11
-44.45095115004668
 21
-0.6266140019127335
 31
0.0
 70
   160
  1
%%c<>
 71
     2
 42
7.937499999999986
 52
-270.0
  3
SLDDIMSTYLE1
100
AcDbAlignedDimension
 13
-33.64095115004665
 23
3.977976215350153
 33
0.0
 14
-33.64095115004665
 24
-3.959523784649833
 34
0.0
 50
90.0000000000002
100
AcDbRotatedDimension
1001
ACAD
1000
DSTYLE
1002
{
1070
   171
1070
     4
1070
   273
1070
     7
1002
}
  0
DIMENSION
  5
1CD
330
1F
100
AcDbEntity
  8
치수문자_일반주서
100
AcDbDimension
  2
_D_2
 10
9.999048849953363
 20
19.90672273747143
 30
0.0
 11
19.52404884995335
 21
19.90672273747143
 31
0.0
 70
   160
  1
<>
 71
     2
 42
19.05
  3
SLDDIMSTYLE0
100
AcDbAlignedDimension
 13
29.04904884995336
 23
2.579007574843286
 33
0.0
 14
9.99904884995336
 24
3.97797621535016
 34
0.0
 50
0.0000000000000321
100
AcDbRotatedDimension
1001
ACAD
1000
DSTYLE
1002
{
1070
   273
1070
     7
1002
}
  0
DIMENSION
  5
1E1
330
1F
100
AcDbEntity
  8
치수문자_일반주서
100
AcDbDimension
  2
_D_3
 10
-34.45095115004665
 20
36.83329655748183
 30
0.0
 11
0.0753355756508669
 21
36.83329655748183
 31
0.0
 70
   160
  1
<>
 71
     2
 42
63.50000000000001
  3
SLDDIMSTYLE2
100
AcDbAlignedDimension
 13
29.04904884995336
 23
2.835916393857842
 33
0.0
 14
-34.45095115004665
 24
3.167976215350155
 34
0.0
100
AcDbRotatedDimension
1001
ACAD
1000
DSTYLE
1002
{
1070
   273
1070
     7
1002
}
  0
LINE
  5
1F5
330
1F
100
AcDbEntity
  8
참조1
100
AcDbLine
 10
73.77533967234194
 20
7.132355634417431
 30
0.0
 11
73.77533967234194
 21
-7.747644365582573
 31
0.0
  0
LINE
  5
1F6
330
1F
100
AcDbEntity
  8
참조1
100
AcDbLine
 10
86.47533967234195
 20
5.132355634417431
 30
0.0
 11
73.77533967234194
 21
5.132355634417431
 31
0.0
  0
SOLID
  5
1F7
330
1F
100
AcDbEntity
  8
참조1
100
AcDbTrace
 10
73.77533967234194
 20
5.132355634417431
 30
0.0
 11
80.12533967234194
 21
4.116355634417431
 31
0.0
 12
80.12533967234194
 22
6.148355634417431
 32
0.0
 13
80.12533967234194
 23
6.148355634417431
 33
0.0
  0
LINE
  5
1F8
330
1F
100
AcDbEntity
  8
참조1
100
AcDbLine
 10
86.47533967234195
 20
-5.747644365582573
 30
0.0
 11
73.77533967234194
 21
-5.747644365582573
 31
0.0
  0
SOLID
  5
1F9
330
1F
100
AcDbEntity
  8
참조1
100
AcDbTrace
 10
73.77533967234194
 20
-5.747644365582573
 30
0.0
 11
80.12533967234194
 21
-6.763644365582573
 31
0.0
 12
80.12533967234194
 22
-4.731644365582573
 32
0.0
 13
80.12533967234194
 23
-4.731644365582573
 33
0.0
  0
MTEXT
  5
1FA
330
1F
100
AcDbEntity
  8
참조1
100
AcDbMText
 10
83.3754544829045
 20
10.75807320043351
 30
0.0
 40
3.5
 41
0.0
 71
     1
 72
     1
  1
A
  7
SLDTEXTSTYLE0
 73
     1
 44
1.0
  0
MTEXT
  5
1FB
330
1F
100
AcDbEntity
  8
참조1
100
AcDbMText
 10
83.3754544829045
 20
-0.1219267995664974
 30
0.0
 40
3.5
 41
0.0
 71
     1
 72
     1
  1
A
  7
SLDTEXTSTYLE0
 73
     1
 44
1.0
  0
INSERT
  5
202
330
1F
100
AcDbEntity
  8
해칭선
100
AcDbBlockReference
  2
SW_DOWELSYMBOL_0
 10
0.0
 20
0.0
 30
0.0
  0
ENDSEC
  0
SECTION
  2
OBJECTS
  0
DICTIONARY
  5
C
330
0
100
AcDbDictionary
281
     1
  3
ACAD_DETAILVIEWSTYLE
350
255
  3
ACAD_GROUP
350
D
  3
ACAD_IMAGE_VARS
350
226
  3
ACAD_LAYOUT
350
1A
  3
ACAD_MLINESTYLE
350
17
  3
ACAD_PLOTSETTINGS
350
19
  3
ACAD_PLOTSTYLENAME
350
E
  3
ACAD_SCALELIST
350
47
  3
ACAD_SECTIONVIEWSTYLE
350
256
  3
AcDbVariableDictionary
350
250
  3
APPDATA
350
224
  3
DWGPROPS
350
259
  0
DICTIONARY
  5
257
330
1F
100
AcDbDictionary
280
     1
281
     1
  3
DIM_BOUNDING_BOXES_V1
360
258
  0
DICTIONARY
  5
255
102
{ACAD_REACTORS
330
C
102
}
330
C
100
AcDbDictionary
281
     1
  0
DICTIONARY
  5
D
102
{ACAD_REACTORS
330
C
102
}
330
C
100
AcDbDictionary
281
     1
  0
RASTERVARIABLES
  5
226
102
{ACAD_REACTORS
330
C
102
}
330
C
100
AcDbRasterVariables
 90
        0
 70
     1
 71
     1
 72
     1
  0
DICTIONARY
  5
1A
102
{ACAD_REACTORS
330
C
102
}
330
C
100
AcDbDictionary
281
     1
  3
Layout1
350
1E
  3
Layout2
350
26
  3
Model
350
22
  0
DICTIONARY
  5
17
102
{ACAD_REACTORS
330
C
102
}
330
C
100
AcDbDictionary
281
     1
  3
Standard
350
18
  0
DICTIONARY
  5
19
102
{ACAD_REACTORS
330
C
102
}
330
C
100
AcDbDictionary
281
     1
  0
ACDBDICTIONARYWDFLT
  5
E
102
{ACAD_REACTORS
330
C
102
}
330
C
100
AcDbDictionary
281
     1
  3
Normal
350
F
100
AcDbDictionaryWithDefault
340
F
  0
DICTIONARY
  5
47
102
{ACAD_REACTORS
330
C
102
}
330
C
100
AcDbDictionary
281
     1
  3
A0
350
48
  3
A1
350
49
  3
A2
350
4A
  3
A3
350
4B
  3
A4
350
4C
  3
A5
350
4D
  3
A6
350
4E
  3
A7
350
4F
  3
A8
350
50
  3
A9
350
51
  3
B0
350
52
  3
B1
350
53
  3
B2
350
54
  3
B3
350
55
  3
B4
350
56
  3
B5
350
57
  3
B6
350
58
  3
B7
350
59
  3
B8
350
5A
  3
B9
350
5B
  3
C0
350
5C
  3
C1
350
5D
  3
C2
350
5E
  3
C3
350
5F
  3
C4
350
60
  3
C5
350
61
  3
C6
350
62
  3
C7
350
63
  3
C8
350
64
  3
C9
350
65
  3
D0
350
66
  3
D1
350
67
  3
D2
350
68
  0
DICTIONARY
  5
256
102
{ACAD_REACTORS
330
C
102
}
330
C
100
AcDbDictionary
281
     1
  0
DICTIONARY
  5
250
102
{ACAD_REACTORS
330
C
102
}
330
C
100
AcDbDictionary
281
     1
  0
DICTIONARY
  5
224
102
{ACAD_REACTORS
330
C
102
}
330
C
100
AcDbDictionary
281
     1
  0
XRECORD
  5
259
102
{ACAD_REACTORS
330
C
102
}
330
C
100
AcDbXrecord
280
     1
  1
DWGPROPS COOKIE
  2

  3

  4

  6

  7

  8
12017111
  9

300
=
301
=
302
=
303
=
304
=
305
=
306
=
307
=
308
=
309
=
 40
0.0
 41
2458298.975775197
 42
2459698.026668194
  1

 90
        0
  0
DICTIONARY
  5
258
102
{ACAD_REACTORS
330
257
102
}
330
257
100
AcDbDictionary
281
     1
  0
LAYOUT
  5
1E
102
{ACAD_REACTORS
330
1A
102
}
330
1A
100
AcDbPlotSettings
  1

  2
none_device
  4

  6

 40
0.0
 41
0.0
 42
0.0
 43
0.0
 44
0.0
 45
0.0
 46
0.0
 47
0.0
 48
0.0
 49
0.0
140
0.0
141
0.0
142
1.0
143
1.0
 70
   688
 72
     1
 73
     0
 74
     5
  7

 75
    16
147
1.0
148
0.0
149
0.0
100
AcDbLayout
  1
Layout1
 70
     1
 71
     1
 10
0.0
 20
0.0
 11
420.0
 21
297.0
 12
0.0
 22
0.0
 32
0.0
 14
1.000000000000000E+20
 24
1.000000000000000E+20
 34
1.000000000000000E+20
 15
-1.000000000000000E+20
 25
-1.000000000000000E+20
 35
-1.000000000000000E+20
146
0.0
 13
0.0
 23
0.0
 33
0.0
 16
1.0
 26
0.0
 36
0.0
 17
0.0
 27
1.0
 37
0.0
 76
     0
330
1B
  0
LAYOUT
  5
26
102
{ACAD_REACTORS
330
1A
102
}
330
1A
100
AcDbPlotSettings
  1

  2
none_device
  4

  6

 40
0.0
 41
0.0
 42
0.0
 43
0.0
 44
0.0
 45
0.0
 46
0.0
 47
0.0
 48
0.0
 49
0.0
140
0.0
141
0.0
142
1.0
143
1.0
 70
   688
 72
     1
 73
     0
 74
     5
  7

 75
    16
147
1.0
148
0.0
149
0.0
100
AcDbLayout
  1
Layout2
 70
     1
 71
     2
 10
0.0
 20
0.0
 11
0.0
 21
0.0
 12
0.0
 22
0.0
 32
0.0
 14
0.0
 24
0.0
 34
0.0
 15
0.0
 25
0.0
 35
0.0
146
0.0
 13
0.0
 23
0.0
 33
0.0
 16
1.0
 26
0.0
 36
0.0
 17
0.0
 27
1.0
 37
0.0
 76
     0
330
23
  0
LAYOUT
  5
22
102
{ACAD_REACTORS
330
1A
102
}
330
1A
100
AcDbPlotSettings
  1

  2
none_device
  4
ANSI_A_(11.00_x_8.50_Inches)
  6

 40
6.35
 41
19.05
 42
6.35000508
 43
19.05000254
 44
279.4
 45
215.9
 46
102.8694767071461
 47
91.61488967518427
 48
0.0
 49
0.0
140
0.0
141
0.0
142
0.0768421082690618
143
1.0
 70
  1696
 72
     0
 73
     0
 74
     0
  7

 75
     0
147
0.0235690232323232
148
0.0
149
0.0
100
AcDbLayout
  1
Model
 70
     1
 71
     0
 10
0.0
 20
0.0
 11
420.0
 21
297.0
 12
0.0
 22
0.0
 32
0.0
 14
-48.82595115004672
 24
-50.27945175439431
 34
0.0
 15
86.47533967234195
 25
41.20829655748183
 35
0.0
146
0.0
 13
0.0
 23
0.0
 33
0.0
 16
1.0
 26
0.0
 36
0.0
 17
0.0
 27
1.0
 37
0.0
 76
     0
330
1F
331
29
  0
MLINESTYLE
  5
18
102
{ACAD_REACTORS
330
17
102
}
330
17
100
AcDbMlineStyle
  2
Standard
 70
     0
  3

 62
   256
 51
90.0
 52
90.0
 71
     2
 49
0.5
 62
   256
  6
BYLAYER
 49
-0.5
 62
   256
  6
BYLAYER
  0
ACDBPLACEHOLDER
  5
F
102
{ACAD_REACTORS
330
E
102
}
330
E
  0
SCALE
  5
48
102
{ACAD_REACTORS
330
47
102
}
330
47
100
AcDbScale
 70
     0
300
1:1
140
1.0
141
1.0
290
     1
  0
SCALE
  5
49
102
{ACAD_REACTORS
330
47
102
}
330
47
100
AcDbScale
 70
     0
300
1:2
140
1.0
141
2.0
290
     0
  0
SCALE
  5
4A
102
{ACAD_REACTORS
330
47
102
}
330
47
100
AcDbScale
 70
     0
300
1:4
140
1.0
141
4.0
290
     0
  0
SCALE
  5
4B
102
{ACAD_REACTORS
330
47
102
}
330
47
100
AcDbScale
 70
     0
300
1:5
140
1.0
141
5.0
290
     0
  0
SCALE
  5
4C
102
{ACAD_REACTORS
330
47
102
}
330
47
100
AcDbScale
 70
     0
300
1:8
140
1.0
141
8.0
290
     0
  0
SCALE
  5
4D
102
{ACAD_REACTORS
330
47
102
}
330
47
100
AcDbScale
 70
     0
300
1:10
140
1.0
141
10.0
290
     0
  0
SCALE
  5
4E
102
{ACAD_REACTORS
330
47
102
}
330
47
100
AcDbScale
 70
     0
300
1:16
140
1.0
141
16.0
290
     0
  0
SCALE
  5
4F
102
{ACAD_REACTORS
330
47
102
}
330
47
100
AcDbScale
 70
     0
300
1:20
140
1.0
141
20.0
290
     0
  0
SCALE
  5
50
102
{ACAD_REACTORS
330
47
102
}
330
47
100
AcDbScale
 70
     0
300
1:30
140
1.0
141
30.0
290
     0
  0
SCALE
  5
51
102
{ACAD_REACTORS
330
47
102
}
330
47
100
AcDbScale
 70
     0
300
1:40
140
1.0
141
40.0
290
     0
  0
SCALE
  5
52
102
{ACAD_REACTORS
330
47
102
}
330
47
100
AcDbScale
 70
     0
300
1:50
140
1.0
141
50.0
290
     0
  0
SCALE
  5
53
102
{ACAD_REACTORS
330
47
102
}
330
47
100
AcDbScale
 70
     0
300
1:100
140
1.0
141
100.0
290
     0
  0
SCALE
  5
54
102
{ACAD_REACTORS
330
47
102
}
330
47
100
AcDbScale
 70
     0
300
2:1
140
2.0
141
1.0
290
     0
  0
SCALE
  5
55
102
{ACAD_REACTORS
330
47
102
}
330
47
100
AcDbScale
 70
     0
300
4:1
140
4.0
141
1.0
290
     0
  0
SCALE
  5
56
102
{ACAD_REACTORS
330
47
102
}
330
47
100
AcDbScale
 70
     0
300
8:1
140
8.0
141
1.0
290
     0
  0
SCALE
  5
57
102
{ACAD_REACTORS
330
47
102
}
330
47
100
AcDbScale
 70
     0
300
10:1
140
10.0
141
1.0
290
     0
  0
SCALE
  5
58
102
{ACAD_REACTORS
330
47
102
}
330
47
100
AcDbScale
 70
     0
300
100:1
140
100.0
141
1.0
290
     0
  0
SCALE
  5
59
102
{ACAD_REACTORS
330
47
102
}
330
47
100
AcDbScale
 70
     0
300
1/128" = 1'-0"
140
0.0078125
141
12.0
290
     0
  0
SCALE
  5
5A
102
{ACAD_REACTORS
330
47
102
}
330
47
100
AcDbScale
 70
     0
300
1/64" = 1'-0"
140
0.015625
141
12.0
290
     0
  0
SCALE
  5
5B
102
{ACAD_REACTORS
330
47
102
}
330
47
100
AcDbScale
 70
     0
300
1/32" = 1'-0"
140
0.03125
141
12.0
290
     0
  0
SCALE
  5
5C
102
{ACAD_REACTORS
330
47
102
}
330
47
100
AcDbScale
 70
     0
300
1/16" = 1'-0"
140
0.0625
141
12.0
290
     0
  0
SCALE
  5
5D
102
{ACAD_REACTORS
330
47
102
}
330
47
100
AcDbScale
 70
     0
300
3/32" = 1'-0"
140
0.09375
141
12.0
290
     0
  0
SCALE
  5
5E
102
{ACAD_REACTORS
330
47
102
}
330
47
100
AcDbScale
 70
     0
300
1/8" = 1'-0"
140
0.125
141
12.0
290
     0
  0
SCALE
  5
5F
102
{ACAD_REACTORS
330
47
102
}
330
47
100
AcDbScale
 70
     0
300
3/16" = 1'-0"
140
0.1875
141
12.0
290
     0
  0
SCALE
  5
60
102
{ACAD_REACTORS
330
47
102
}
330
47
100
AcDbScale
 70
     0
300
1/4" = 1'-0"
140
0.25
141
12.0
290
     0
  0
SCALE
  5
61
102
{ACAD_REACTORS
330
47
102
}
330
47
100
AcDbScale
 70
     0
300
3/8" = 1'-0"
140
0.375
141
12.0
290
     0
  0
SCALE
  5
62
102
{ACAD_REACTORS
330
47
102
}
330
47
100
AcDbScale
 70
     0
300
1/2" = 1'-0"
140
0.5
141
12.0
290
     0
  0
SCALE
  5
63
102
{ACAD_REACTORS
330
47
102
}
330
47
100
AcDbScale
 70
     0
300
3/4" = 1'-0"
140
0.75
141
12.0
290
     0
  0
SCALE
  5
64
102
{ACAD_REACTORS
330
47
102
}
330
47
100
AcDbScale
 70
     0
300
1" = 1'-0"
140
1.0
141
12.0
290
     0
  0
SCALE
  5
65
102
{ACAD_REACTORS
330
47
102
}
330
47
100
AcDbScale
 70
     0
300
1-1/2" = 1'-0"
140
1.5
141
12.0
290
     0
  0
SCALE
  5
66
102
{ACAD_REACTORS
330
47
102
}
330
47
100
AcDbScale
 70
     0
300
3" = 1'-0"
140
3.0
141
12.0
290
     0
  0
SCALE
  5
67
102
{ACAD_REACTORS
330
47
102
}
330
47
100
AcDbScale
 70
     0
300
6" = 1'-0"
140
6.0
141
12.0
290
     0
  0
SCALE
  5
68
102
{ACAD_REACTORS
330
47
102
}
330
47
100
AcDbScale
 70
     0
300
1'-0" = 1'-0"
140
12.0
141
12.0
290
     0
  0
ENDSEC
  0
EOF
