  0
SECTION
  2
HEADER
  9
$ACADVER
  1
AC1015
  9
$ACADMAINTVER
 70
     6
  9
$DWGCODEPAGE
  3
ANSI_949
  9
$INSBASE
 10
0.0
 20
0.0
 30
0.0
  9
$EXTMIN
 10
-65.94958890213486
 20
-49.97693756585404
 30
0.0
  9
$EXTMAX
 10
111.8634838153456
 20
54.32742904820154
 30
0.0
  9
$LIMMIN
 10
0.0
 20
0.0
  9
$LIMMAX
 10
420.0
 20
297.0
  9
$ORTHOMODE
 70
     0
  9
$REGENMODE
 70
     1
  9
$FILLMODE
 70
     1
  9
$QTEXTMODE
 70
     0
  9
$MIRRTEXT
 70
     1
  9
$LTSCALE
 40
1.0
  9
$ATTMODE
 70
     1
  9
$TEXTSIZE
 40
3.5
  9
$TRACEWID
 40
1.0
  9
$TEXTSTYLE
  7
Standard
  9
$CLAYER
  8
0
  9
$CELTYPE
  6
ByLayer
  9
$CECOLOR
 62
   256
  9
$CELTSCALE
 40
1.0
  9
$DISPSILH
 70
     0
  9
$DIMSCALE
 40
1.0
  9
$DIMASZ
 40
3.302
  9
$DIMEXO
 40
1.0
  9
$DIMDLI
 40
3.75
  9
$DIMRND
 40
0.0
  9
$DIMDLE
 40
0.0
  9
$DIMEXE
 40
1.0
  9
$DIMTP
 40
0.0
  9
$DIMTM
 40
0.0
  9
$DIMTXT
 40
3.5
  9
$DIMCEN
 40
2.5
  9
$DIMTSZ
 40
0.0
  9
$DIMTOL
 70
     0
  9
$DIMLIM
 70
     0
  9
$DIMTIH
 70
     1
  9
$DIMTOH
 70
     1
  9
$DIMSE1
 70
     0
  9
$DIMSE2
 70
     0
  9
$DIMTAD
 70
     1
  9
$DIMZIN
 70
     0
  9
$DIMBLK
  1

  9
$DIMASO
 70
     1
  9
$DIMSHO
 70
     1
  9
$DIMPOST
  1

  9
$DIMAPOST
  1

  9
$DIMALT
 70
     0
  9
$DIMALTD
 70
     3
  9
$DIMALTF
 40
0.0393700787401575
  9
$DIMLFAC
 40
1.0
  9
$DIMTOFL
 70
     1
  9
$DIMTVP
 40
0.0
  9
$DIMTIX
 70
     0
  9
$DIMSOXD
 70
     0
  9
$DIMSAH
 70
     0
  9
$DIMBLK1
  1

  9
$DIMBLK2
  1

  9
$DIMSTYLE
  2
ISO-25
  9
$DIMCLRD
 70
     0
  9
$DIMCLRE
 70
     0
  9
$DIMCLRT
 70
     0
  9
$DIMTFAC
 40
1.0
  9
$DIMGAP
 40
1.524
  9
$DIMJUST
 70
     0
  9
$DIMSD1
 70
     0
  9
$DIMSD2
 70
     0
  9
$DIMTOLJ
 70
     0
  9
$DIMTZIN
 70
     0
  9
$DIMALTZ
 70
     0
  9
$DIMALTTZ
 70
     0
  9
$DIMUPT
 70
     0
  9
$DIMDEC
 70
     2
  9
$DIMTDEC
 70
     2
  9
$DIMALTU
 70
     2
  9
$DIMALTTD
 70
     3
  9
$DIMTXSTY
  7
Standard
  9
$DIMAUNIT
 70
     0
  9
$DIMADEC
 70
     2
  9
$DIMALTRND
 40
0.0
  9
$DIMAZIN
 70
     0
  9
$DIMDSEP
 70
    44
  9
$DIMATFIT
 70
     3
  9
$DIMFRAC
 70
     0
  9
$DIMLDRBLK
  1

  9
$DIMLUNIT
 70
     2
  9
$DIMLWD
 70
    -2
  9
$DIMLWE
 70
    -2
  9
$DIMTMOVE
 70
     0
  9
$LUNITS
 70
     2
  9
$LUPREC
 70
     2
  9
$SKETCHINC
 40
1.0
  9
$FILLETRAD
 40
10.0
  9
$AUNITS
 70
     0
  9
$AUPREC
 70
     2
  9
$MENU
  1
.
  9
$ELEVATION
 40
0.0
  9
$PELEVATION
 40
0.0
  9
$THICKNESS
 40
0.0
  9
$LIMCHECK
 70
     0
  9
$CHAMFERA
 40
0.0
  9
$CHAMFERB
 40
0.0
  9
$CHAMFERC
 40
0.0
  9
$CHAMFERD
 40
0.0
  9
$SKPOLY
 70
     0
  9
$TDCREATE
 40
2458289.704238565
  9
$TDUCREATE
 40
2458289.329238565
  9
$TDUPDATE
 40
2458294.707766655
  9
$TDUUPDATE
 40
2458294.332766655
  9
$TDINDWG
 40
0.001633669
  9
$TDUSRTIMER
 40
2458294.332126366
  9
$USRTIMER
 70
     1
  9
$ANGBASE
 50
0.0
  9
$ANGDIR
 70
     0
  9
$PDMODE
 70
     0
  9
$PDSIZE
 40
-1.0
  9
$PLINEWID
 40
0.0
  9
$SPLFRAME
 70
     0
  9
$SPLINETYPE
 70
     6
  9
$SPLINESEGS
 70
     8
  9
$HANDSEED
  5
19C
  9
$SURFTAB1
 70
     6
  9
$SURFTAB2
 70
     6
  9
$SURFTYPE
 70
     6
  9
$SURFU
 70
     6
  9
$SURFV
 70
     6
  9
$UCSBASE
  2

  9
$UCSNAME
  2

  9
$UCSORG
 10
0.0
 20
0.0
 30
0.0
  9
$UCSXDIR
 10
1.0
 20
0.0
 30
0.0
  9
$UCSYDIR
 10
0.0
 20
1.0
 30
0.0
  9
$UCSORTHOREF
  2

  9
$UCSORTHOVIEW
 70
     0
  9
$UCSORGTOP
 10
0.0
 20
0.0
 30
0.0
  9
$UCSORGBOTTOM
 10
0.0
 20
0.0
 30
0.0
  9
$UCSORGLEFT
 10
0.0
 20
0.0
 30
0.0
  9
$UCSORGRIGHT
 10
0.0
 20
0.0
 30
0.0
  9
$UCSORGFRONT
 10
0.0
 20
0.0
 30
0.0
  9
$UCSORGBACK
 10
0.0
 20
0.0
 30
0.0
  9
$PUCSBASE
  2

  9
$PUCSNAME
  2

  9
$PUCSORG
 10
0.0
 20
0.0
 30
0.0
  9
$PUCSXDIR
 10
1.0
 20
0.0
 30
0.0
  9
$PUCSYDIR
 10
0.0
 20
1.0
 30
0.0
  9
$PUCSORTHOREF
  2

  9
$PUCSORTHOVIEW
 70
     0
  9
$PUCSORGTOP
 10
0.0
 20
0.0
 30
0.0
  9
$PUCSORGBOTTOM
 10
0.0
 20
0.0
 30
0.0
  9
$PUCSORGLEFT
 10
0.0
 20
0.0
 30
0.0
  9
$PUCSORGRIGHT
 10
0.0
 20
0.0
 30
0.0
  9
$PUCSORGFRONT
 10
0.0
 20
0.0
 30
0.0
  9
$PUCSORGBACK
 10
0.0
 20
0.0
 30
0.0
  9
$USERI1
 70
     0
  9
$USERI2
 70
     0
  9
$USERI3
 70
     0
  9
$USERI4
 70
     0
  9
$USERI5
 70
     0
  9
$USERR1
 40
0.0
  9
$USERR2
 40
0.0
  9
$USERR3
 40
0.0
  9
$USERR4
 40
0.0
  9
$USERR5
 40
0.0
  9
$WORLDVIEW
 70
     1
  9
$SHADEDGE
 70
     3
  9
$SHADEDIF
 70
    70
  9
$TILEMODE
 70
     1
  9
$MAXACTVP
 70
    64
  9
$PINSBASE
 10
0.0
 20
0.0
 30
0.0
  9
$PLIMCHECK
 70
     0
  9
$PEXTMIN
 10
1.000000000000000E+20
 20
1.000000000000000E+20
 30
1.000000000000000E+20
  9
$PEXTMAX
 10
-1.000000000000000E+20
 20
-1.000000000000000E+20
 30
-1.000000000000000E+20
  9
$PLIMMIN
 10
0.0
 20
0.0
  9
$PLIMMAX
 10
0.0
 20
0.0
  9
$UNITMODE
 70
     0
  9
$VISRETAIN
 70
     1
  9
$PLINEGEN
 70
     0
  9
$PSLTSCALE
 70
     1
  9
$TREEDEPTH
 70
  3020
  9
$CMLSTYLE
  2
Standard
  9
$CMLJUST
 70
     0
  9
$CMLSCALE
 40
20.0
  9
$PROXYGRAPHICS
 70
     1
  9
$MEASUREMENT
 70
     1
  9
$CELWEIGHT
370
    -1
  9
$ENDCAPS
280
     0
  9
$JOINSTYLE
280
     0
  9
$LWDISPLAY
290
     1
  9
$INSUNITS
 70
     4
  9
$HYPERLINKBASE
  1

  9
$STYLESHEET
  1

  9
$XEDIT
290
     1
  9
$CEPSNTYPE
380
     0
  9
$PSTYLEMODE
290
     1
  9
$FINGERPRINTGUID
  2
{16068869-EBDF-4624-A000-BAE3990FFFE8}
  9
$VERSIONGUID
  2
{FAEB1C32-E019-11D5-929B-00C0DF256EC4}
  9
$EXTNAMES
290
     1
  9
$PSVPSCALE
 40
0.0
  9
$OLESTARTUP
290
     0
  0
ENDSEC
  0
SECTION
  2
CLASSES
  0
CLASS
  1
ACDBDICTIONARYWDFLT
  2
AcDbDictionaryWithDefault
  3
ObjectDBX Classes
 90
        0
280
     0
281
     0
  0
CLASS
  1
VISUALSTYLE
  2
AcDbVisualStyle
  3
ObjectDBX Classes
 90
     4095
280
     0
281
     0
  0
CLASS
  1
MATERIAL
  2
AcDbMaterial
  3
ObjectDBX Classes
 90
     1153
280
     0
281
     0
  0
CLASS
  1
SCALE
  2
AcDbScale
  3
ObjectDBX Classes
 90
     1153
280
     0
281
     0
  0
CLASS
  1
SUN
  2
AcDbSun
  3
SCENEOE
 90
     1153
280
     0
281
     0
  0
CLASS
  1
ACDBPLACEHOLDER
  2
AcDbPlaceHolder
  3
ObjectDBX Classes
 90
        0
280
     0
281
     0
  0
CLASS
  1
LAYOUT
  2
AcDbLayout
  3
ObjectDBX Classes
 90
        0
280
     0
281
     0
  0
CLASS
  1
TABLESTYLE
  2
AcDbTableStyle
  3
ObjectDBX Classes
 90
     4095
280
     0
281
     0
  0
CLASS
  1
MLEADERSTYLE
  2
AcDbMLeaderStyle
  3
ACDB_MLEADERSTYLE_CLASS
 90
     4095
280
     0
281
     0
  0
CLASS
  1
RASTERVARIABLES
  2
AcDbRasterVariables
  3
ISM
 90
        0
280
     0
281
     0
  0
ENDSEC
  0
SECTION
  2
TABLES
  0
TABLE
  2
VPORT
  5
8
330
0
100
AcDbSymbolTable
 70
     1
  0
VPORT
  5
29
330
8
100
AcDbSymbolTableRecord
100
AcDbViewportTableRecord
  2
*Active
 70
     0
 10
0.0
 20
0.0
 11
1.0
 21
1.0
 12
2.015364367744738
 22
-12.57672780772832
 13
0.0
 23
0.0
 14
10.0
 24
10.0
 15
10.0
 25
10.0
 16
0.0
 26
0.0
 36
1.0
 17
0.0
 27
0.0
 37
0.0
 40
134.479822394546
 41
1.859099804305284
 42
50.0
 43
0.0
 44
0.0
 50
0.0
 51
0.0
 71
    16
 72
  2000
 73
     1
 74
     3
 75
     0
 76
     0
 77
     0
 78
     0
281
     0
 65
     1
110
0.0
120
0.0
130
0.0
111
1.0
121
0.0
131
0.0
112
0.0
122
1.0
132
0.0
 79
     0
146
0.0
  0
ENDTAB
  0
TABLE
  2
LTYPE
  5
5
330
0
100
AcDbSymbolTable
 70
     6
  0
LTYPE
  5
14
330
5
100
AcDbSymbolTableRecord
100
AcDbLinetypeTableRecord
  2
ByBlock
 70
     0
  3

 72
    65
 73
     0
 40
0.0
  0
LTYPE
  5
15
330
5
100
AcDbSymbolTableRecord
100
AcDbLinetypeTableRecord
  2
ByLayer
 70
     0
  3

 72
    65
 73
     0
 40
0.0
  0
LTYPE
  5
16
330
5
100
AcDbSymbolTableRecord
100
AcDbLinetypeTableRecord
  2
Continuous
 70
     0
  3
Solid line
 72
    65
 73
     0
 40
0.0
  0
LTYPE
  5
6A
330
5
100
AcDbSymbolTableRecord
100
AcDbLinetypeTableRecord
  2
HIDDEN
 70
     0
  3
Hidden __ __ __ __ __ __ __ __ __ __ __ __ __ __
 72
    65
 73
     2
 40
1.905
 49
1.27
 74
     0
 49
-0.635
 74
     0
  0
LTYPE
  5
6B
330
5
100
AcDbSymbolTableRecord
100
AcDbLinetypeTableRecord
  2
PHANTOM
 70
     0
  3
Phantom ______  __  __  ______  __  __  ______
 72
    65
 73
     6
 40
12.7
 49
6.35
 74
     0
 49
-1.27
 74
     0
 49
1.27
 74
     0
 49
-1.27
 74
     0
 49
1.27
 74
     0
 49
-1.27
 74
     0
  0
LTYPE
  5
6C
330
5
100
AcDbSymbolTableRecord
100
AcDbLinetypeTableRecord
  2
CENTER
 70
     0
  3
Center ____ _ ____ _ ____ _ ____ _ ____ _ ____
 72
    65
 73
     4
 40
10.16
 49
6.35
 74
     0
 49
-1.27
 74
     0
 49
1.27
 74
     0
 49
-1.27
 74
     0
  0
LTYPE
  5
6D
330
5
100
AcDbSymbolTableRecord
100
AcDbLinetypeTableRecord
  2
CENTERX2
 70
     0
  3
Center (2x) ________  __  ________  __  _____
 72
    65
 73
     4
 40
20.32
 49
12.7
 74
     0
 49
-2.54
 74
     0
 49
2.54
 74
     0
 49
-2.54
 74
     0
  0
LTYPE
  5
6E
330
5
100
AcDbSymbolTableRecord
100
AcDbLinetypeTableRecord
  2
DOT2
 70
     0
  3
Dot (.5x) ........................................
 72
    65
 73
     2
 40
0.635
 49
0.0
 74
     0
 49
-0.635
 74
     0
  0
ENDTAB
  0
TABLE
  2
LAYER
  5
2
102
{ACAD_XDICTIONARY
360
16C
102
}
330
0
100
AcDbSymbolTable
 70
    18
  0
LAYER
  5
10
330
2
100
AcDbSymbolTableRecord
100
AcDbLayerTableRecord
  2
0
 70
     0
 62
     7
  6
Continuous
370
    -3
390
F
  0
LAYER
  5
6F
330
2
100
AcDbSymbolTableRecord
100
AcDbLayerTableRecord
  2
FORMAT
 70
     0
 62
     2
  6
Continuous
370
    -3
390
F
  0
LAYER
  5
70
330
2
100
AcDbSymbolTableRecord
100
AcDbLayerTableRecord
  2
외형선
 70
     0
 62
     4
  6
Continuous
370
    30
390
F
  0
LAYER
  5
71
330
2
100
AcDbSymbolTableRecord
100
AcDbLayerTableRecord
  2
숨은선
 70
     0
 62
     2
  6
HIDDEN
370
    15
390
F
  0
LAYER
  5
72
330
2
100
AcDbSymbolTableRecord
100
AcDbLayerTableRecord
  2
중심선
 70
     0
 62
     1
  6
CENTERX2
370
    -3
390
F
  0
LAYER
  5
73
330
2
100
AcDbSymbolTableRecord
100
AcDbLayerTableRecord
  2
파단선
 70
     0
 62
     4
  6
Continuous
370
    -3
390
F
  0
LAYER
  5
74
330
2
100
AcDbSymbolTableRecord
100
AcDbLayerTableRecord
  2
해칭선
 70
     0
 62
   100
  6
Continuous
370
    -3
390
F
  0
LAYER
  5
75
330
2
100
AcDbSymbolTableRecord
100
AcDbLayerTableRecord
  2
가는실선
 70
     0
 62
     4
  6
Continuous
370
    -3
390
F
  0
LAYER
  5
76
330
2
100
AcDbSymbolTableRecord
100
AcDbLayerTableRecord
  2
치수_보조선
 70
     0
 62
     4
  6
Continuous
370
    -3
390
F
  0
LAYER
  5
77
330
2
100
AcDbSymbolTableRecord
100
AcDbLayerTableRecord
  2
치수문자_일반주서
 70
     0
 62
     7
  6
Continuous
370
    15
390
F
  0
LAYER
  5
78
330
2
100
AcDbSymbolTableRecord
100
AcDbLayerTableRecord
  2
개별주서
 70
     0
 62
   100
  6
Continuous
370
    30
390
F
  0
LAYER
  5
79
330
2
100
AcDbSymbolTableRecord
100
AcDbLayerTableRecord
  2
중간선
 70
     0
 62
     2
  6
Continuous
370
    15
390
F
  0
LAYER
  5
7A
330
2
100
AcDbSymbolTableRecord
100
AcDbLayerTableRecord
  2
윤곽선
 70
     0
 62
     3
  6
Continuous
370
    40
390
F
  0
LAYER
  5
7B
330
2
100
AcDbSymbolTableRecord
100
AcDbLayerTableRecord
  2
중심마크
 70
     0
 62
   100
  6
Continuous
370
    30
390
F
  0
LAYER
  5
7C
330
2
100
AcDbSymbolTableRecord
100
AcDbLayerTableRecord
  2
가상선
 70
     0
 62
     4
  6
PHANTOM
370
    -3
390
F
  0
LAYER
  5
7D
330
2
100
AcDbSymbolTableRecord
100
AcDbLayerTableRecord
  2
특수지정선
 70
     0
 62
     5
  6
CENTERX2
370
    60
390
F
  0
LAYER
  5
7E
330
2
100
AcDbSymbolTableRecord
100
AcDbLayerTableRecord
  2
참조1
 70
     0
 62
    -4
  6
Continuous
370
    -3
390
F
  0
LAYER
  5
173
330
2
100
AcDbSymbolTableRecord
100
AcDbLayerTableRecord
  2
Defpoints
 70
     0
 62
     7
  6
Continuous
290
     0
370
    -3
390
F
  0
ENDTAB
  0
TABLE
  2
STYLE
  5
3
330
0
100
AcDbSymbolTable
 70
     2
  0
STYLE
  5
11
330
3
100
AcDbSymbolTableRecord
100
AcDbTextStyleTableRecord
  2
Standard
 70
     0
 40
0.0
 41
1.0
 50
0.0
 71
     0
 42
3.5
  3
txt
  4

  0
STYLE
  5
94
330
3
100
AcDbSymbolTableRecord
100
AcDbTextStyleTableRecord
  2
SLDTEXTSTYLE0
 70
     0
 40
0.0
 41
0.75
 50
0.0
 71
     0
 42
3.5
  3
TXT
  4

  0
ENDTAB
  0
TABLE
  2
VIEW
  5
6
330
0
100
AcDbSymbolTable
 70
     0
  0
ENDTAB
  0
TABLE
  2
UCS
  5
7
330
0
100
AcDbSymbolTable
 70
     0
  0
ENDTAB
  0
TABLE
  2
APPID
  5
9
330
0
100
AcDbSymbolTable
 70
     1
  0
APPID
  5
12
330
9
100
AcDbSymbolTableRecord
100
AcDbRegAppTableRecord
  2
ACAD
 70
     0
  0
ENDTAB
  0
TABLE
  2
DIMSTYLE
  5
A
330
0
100
AcDbSymbolTable
 70
     3
100
AcDbDimStyleTable
  0
DIMSTYLE
105
27
330
A
100
AcDbSymbolTableRecord
100
AcDbDimStyleTableRecord
  2
ISO-25
 70
     0
 41
2.5
 42
0.625
 43
3.75
 44
1.25
 73
     0
 74
     0
 77
     1
 78
     8
140
2.5
141
2.5
143
0.03937007874016
147
0.625
171
     3
172
     1
178
     0
271
     2
272
     2
274
     3
278
    44
283
     0
284
     8
340
11
  0
DIMSTYLE
105
C6
102
{ACAD_REACTORS
330
C5
330
DA
330
EE
330
101
102
}
330
A
100
AcDbSymbolTableRecord
100
AcDbDimStyleTableRecord
  2
SLDDIMSTYLE0
 70
     0
 41
3.302
 44
0.0
 45
0.000000001
 73
     0
 74
     0
 77
     1
 78
     4
 79
     1
140
3.5
143
0.0393700787401575
147
0.875
148
0.000000001
170
     1
172
     1
173
     1
178
     0
271
     2
272
     2
276
     2
284
    12
289
     0
340
94
  0
DIMSTYLE
105
DB
330
A
100
AcDbSymbolTableRecord
100
AcDbDimStyleTableRecord
  2
SLDDIMSTYLE1
 70
     0
 41
3.302
 44
0.0
 45
0.000000001
 73
     0
 74
     0
 77
     1
 78
     4
 79
     1
140
3.5
143
0.0393700787401575
147
0.875
148
0.000000001
170
     1
173
     1
178
     0
271
     2
272
     2
276
     2
284
    12
340
94
  0
ENDTAB
  0
TABLE
  2
BLOCK_RECORD
  5
1
330
0
100
AcDbSymbolTable
 70
     7
  0
BLOCK_RECORD
  5
1F
330
1
100
AcDbSymbolTableRecord
100
AcDbBlockTableRecord
  2
*Model_Space
340
22
  0
BLOCK_RECORD
  5
1B
330
1
100
AcDbSymbolTableRecord
100
AcDbBlockTableRecord
  2
*Paper_Space
340
1E
  0
BLOCK_RECORD
  5
23
330
1
100
AcDbSymbolTableRecord
100
AcDbBlockTableRecord
  2
*Paper_Space0
340
26
  0
BLOCK_RECORD
  5
7F
330
1
100
AcDbSymbolTableRecord
100
AcDbBlockTableRecord
  2
블럭10
340
0
102
{BLKREFS
331
BE
102
}
  0
BLOCK_RECORD
  5
C7
330
1
100
AcDbSymbolTableRecord
100
AcDbBlockTableRecord
  2
_D
340
0
  0
BLOCK_RECORD
  5
DC
330
1
100
AcDbSymbolTableRecord
100
AcDbBlockTableRecord
  2
_D_1
340
0
  0
BLOCK_RECORD
  5
EF
330
1
100
AcDbSymbolTableRecord
100
AcDbBlockTableRecord
  2
_D_2
340
0
  0
BLOCK_RECORD
  5
102
330
1
100
AcDbSymbolTableRecord
100
AcDbBlockTableRecord
  2
_D_3
340
0
  0
BLOCK_RECORD
  5
11B
330
1
100
AcDbSymbolTableRecord
100
AcDbBlockTableRecord
  2
SW_DOWELSYMBOL_0
340
0
102
{BLKREFS
331
121
102
}
  0
ENDTAB
  0
ENDSEC
  0
SECTION
  2
BLOCKS
  0
BLOCK
  5
20
330
1F
100
AcDbEntity
  8
0
100
AcDbBlockBegin
  2
*Model_Space
 70
     0
 10
0.0
 20
0.0
 30
0.0
  3
*Model_Space
  1
*Model_Space
  0
ENDBLK
  5
21
330
1F
100
AcDbEntity
  8
0
100
AcDbBlockEnd
  0
BLOCK
  5
1C
330
1B
100
AcDbEntity
 67
     1
  8
0
100
AcDbBlockBegin
  2
*Paper_Space
 70
     0
 10
0.0
 20
0.0
 30
0.0
  3
*Paper_Space
  1
*Paper_Space
  0
ENDBLK
  5
1D
330
1B
100
AcDbEntity
 67
     1
  8
0
100
AcDbBlockEnd
  0
BLOCK
  5
24
330
23
100
AcDbEntity
  8
0
100
AcDbBlockBegin
  2
*Paper_Space0
 70
     0
 10
0.0
 20
0.0
 30
0.0
  3
*Paper_Space0
  1
*Paper_Space0
  0
ENDBLK
  5
25
330
23
100
AcDbEntity
  8
0
100
AcDbBlockEnd
  0
BLOCK
  5
80
330
7F
100
AcDbEntity
  8
0
100
AcDbBlockBegin
  2
블럭10
 70
     2
 10
0.0
 20
0.0
 30
0.0
  3
블럭10
  1
블럭10
  0
ELLIPSE
  5
82
330
7F
100
AcDbEntity
  8
중심선
100
AcDbEllipse
 10
20.54032771741204
 20
12.0471743016438
 30
0.0
 11
6.600054785286829
 21
-1.261213355974178E-13
 31
0.0
210
0.0
220
0.0
230
1.0
 40
0.636358354079598
 41
0.9219305317359503
 42
6.513795318482858
  0
ELLIPSE
  5
83
330
7F
100
AcDbEntity
  8
중심선
100
AcDbEllipse
 10
20.54032771746488
 20
12.04717430159265
 30
0.0
 11
3.960054785062283
 21
1.540847449632565E-10
 31
0.0
210
0.0
220
0.0
230
1.0
 40
0.3939339440162632
 41
1.131841032648279
 42
5.62031148352944
  0
LINE
  5
84
330
7F
100
AcDbEntity
  8
중심선
100
AcDbLine
 10
2.268634060543552
 20
16.24717430164393
 30
0.0
 11
5.714909304380834
 21
16.24717430164393
 31
0.0
  0
LINE
  5
85
330
7F
100
AcDbEntity
  8
중심선
100
AcDbLine
 10
5.245725140726316
 20
7.84717430164391
 30
0.0
 11
8.692000384563599
 21
7.84717430164391
 31
0.0
  0
LINE
  5
86
330
7F
100
AcDbEntity
  8
중심선
100
AcDbLine
 10
15.74043728645272
 20
16.24717430164393
 30
0.0
 11
8.692000384563599
 21
7.84717430164391
 31
0.0
  0
LINE
  5
87
330
7F
100
AcDbEntity
  8
중심선
100
AcDbLine
 10
0.1404042013395286
 20
13.71084872107135
 30
0.0
 11
3.58671253028996
 21
13.71088815037384
 31
0.0
  0
LINE
  5
88
330
7F
100
AcDbEntity
  8
중심선
100
AcDbLine
 10
2.750260043222114
 20
10.84717430164391
 30
0.0
 11
6.196535287059397
 21
10.84717430164391
 31
0.0
  0
LINE
  5
89
330
7F
100
AcDbEntity
  8
중심선
100
AcDbLine
 10
12.29416204261559
 20
16.24717430164393
 30
0.0
 11
5.245725140726316
 21
7.84717430164391
 31
0.0
  0
LINE
  5
8A
330
7F
100
AcDbEntity
  8
중심선
100
AcDbLine
 10
10.72767329541681
 20
16.24717430164393
 30
0.0
 11
6.196535287059397
 21
10.84717430164391
 31
0.0
  0
LINE
  5
8B
330
7F
100
AcDbEntity
  8
중심선
100
AcDbLine
 10
7.28139805157953
 20
16.24717430164393
 30
0.0
 11
2.750260043222114
 21
10.84717430164391
 31
0.0
  0
LINE
  5
8C
330
7F
100
AcDbEntity
  8
중심선
100
AcDbLine
 10
5.714909304380834
 20
16.24717430164393
 30
0.0
 11
3.58671253028996
 21
13.71088815037384
 31
0.0
  0
LINE
  5
8D
330
7F
100
AcDbEntity
  8
중심선
100
AcDbLine
 10
2.268634060543552
 20
16.24717430164393
 30
0.0
 11
0.1404042013395286
 21
13.71084872107135
 31
0.0
  0
LINE
  5
8E
330
7F
100
AcDbEntity
  8
중심선
100
AcDbLine
 10
7.28139805157953
 20
16.24717430164393
 30
0.0
 11
10.72767329541681
 21
16.24717430164393
 31
0.0
  0
LINE
  5
8F
330
7F
100
AcDbEntity
  8
중심선
100
AcDbLine
 10
12.29416204261559
 20
16.24717430164393
 30
0.0
 11
15.74043728645272
 21
16.24717430164393
 31
0.0
  0
LINE
  5
90
330
7F
100
AcDbEntity
  8
중심선
100
AcDbLine
 10
19.22036997980202
 20
11.08717430171403
 30
0.0
 11
23.66174974927406
 21
11.08717430171406
 31
0.0
  0
LINE
  5
91
330
7F
100
AcDbEntity
  8
중심선
100
AcDbLine
 10
19.22039502424796
 20
13.00717430171391
 30
0.0
 11
19.22036997980202
 21
11.08717430171403
 31
0.0
  0
LINE
  5
92
330
7F
100
AcDbEntity
  8
중심선
100
AcDbLine
 10
19.22039502424796
 20
13.00717430171391
 30
0.0
 11
26.96566020931264
 21
13.00717430171391
 31
0.0
  0
LINE
  5
93
330
7F
100
AcDbEntity
  8
중심선
100
AcDbLine
 10
22.22332737316547
 20
13.45928029700563
 30
0.0
 11
24.52862924686651
 21
15.39360700705356
 31
0.0
  0
ATTDEF
  5
95
330
7F
100
AcDbEntity
  8
FORMAT
 62
     2
100
AcDbText
 10
3.448148490846466
 20
2.075366912832191
 30
0.0
 40
4.233333333333333
  1
EM153064
 41
0.75
  7
SLDTEXTSTYLE0
 11
3.448148490846466
 21
-0.0412997538344756
 31
0.0
100
AcDbAttributeDefinition
  3

  2
AUTOATTR0
 70
     0
 74
     1
  0
ENDBLK
  5
81
330
7F
100
AcDbEntity
  8
0
100
AcDbBlockEnd
  0
BLOCK
  5
C8
330
C7
100
AcDbEntity
  8
0
100
AcDbBlockBegin
  2
_D
 70
     0
 10
0.0
 20
0.0
 30
0.0
  3
_D
  1
_D
  0
LINE
  5
CA
330
C7
100
AcDbEntity
  8
치수문자_일반주서
 62
     0
370
    -2
100
AcDbLine
 10
-49.02250962585754
 20
12.69486982295769
 30
0.0
 11
-61.57458890213486
 21
12.69486982295764
 31
0.0
  0
LINE
  5
CB
330
C7
100
AcDbEntity
  8
치수문자_일반주서
 62
     0
370
    -2
100
AcDbLine
 10
-49.02250962585754
 20
-12.70513017704229
 30
0.0
 11
-61.57458890213478
 21
-12.70513017704234
 31
0.0
  0
LINE
  5
CC
330
C7
100
AcDbEntity
  8
치수문자_일반주서
 62
     0
370
    -2
100
AcDbLine
 10
-61.57458890213485
 20
9.392869822957644
 30
0.0
 11
-61.57458890213479
 21
-9.403130177042337
 31
0.0
  0
SOLID
  5
CD
330
C7
100
AcDbEntity
  8
치수문자_일반주서
 62
     0
100
AcDbTrace
 10
-61.02425556880151
 20
9.392869822957646
 30
0.0
 11
-62.12492223546818
 21
9.392869822957643
 31
0.0
 12
-61.57458890213486
 22
12.69486982295764
 32
0.0
 13
-61.57458890213486
 23
12.69486982295764
 33
0.0
  0
SOLID
  5
CE
330
C7
100
AcDbEntity
  8
치수문자_일반주서
 62
     0
100
AcDbTrace
 10
-62.12492223546813
 20
-9.403130177042339
 30
0.0
 11
-61.02425556880146
 21
-9.403130177042335
 31
0.0
 12
-61.57458890213478
 22
-12.70513017704234
 32
0.0
 13
-61.57458890213478
 23
-12.70513017704234
 33
0.0
  0
MTEXT
  5
CF
330
C7
100
AcDbEntity
  8
치수문자_일반주서
 62
     0
100
AcDbMText
 10
-65.94958890213482
 20
-0.0051301770423176
 30
0.0
 40
3.5
 41
0.0
 71
     2
 72
     1
  1
\A1;%%c25.40 [1]
  7
SLDTEXTSTYLE0
 11
-3.356894814614649E-15
 21
1.0
 31
0.0
 73
     1
 44
1.0
  0
POINT
  5
D0
330
C7
100
AcDbEntity
  8
Defpoints
 62
     0
100
AcDbPoint
 10
-48.96000962585754
 20
12.69486982295769
 30
0.0
  0
POINT
  5
D1
330
C7
100
AcDbEntity
  8
Defpoints
 62
     0
100
AcDbPoint
 10
-48.96000962585754
 20
-12.70513017704229
 30
0.0
  0
POINT
  5
D2
330
C7
100
AcDbEntity
  8
Defpoints
 62
     0
100
AcDbPoint
 10
-61.57458890213478
 20
-12.70513017704234
 30
0.0
  0
ENDBLK
  5
C9
330
C7
100
AcDbEntity
  8
0
100
AcDbBlockEnd
  0
BLOCK
  5
DD
330
DC
100
AcDbEntity
  8
0
100
AcDbBlockBegin
  2
_D_1
 70
     0
 10
0.0
 20
0.0
 30
0.0
  3
_D_1
  1
_D_1
  0
LINE
  5
DF
330
DC
100
AcDbEntity
  8
치수문자_일반주서
 62
     0
370
    -2
100
AcDbLine
 10
50.16249037414248
 20
12.69486982295771
 30
0.0
 11
63.51974216860218
 21
12.69486982295776
 31
0.0
  0
LINE
  5
E0
330
DC
100
AcDbEntity
  8
치수문자_일반주서
 62
     0
370
    -2
100
AcDbLine
 10
50.16249037414248
 20
-12.70513017704229
 30
0.0
 11
63.51974216860226
 21
-12.70513017704224
 31
0.0
  0
LINE
  5
E1
330
DC
100
AcDbEntity
  8
치수문자_일반주서
 62
     0
370
    -2
100
AcDbLine
 10
63.51974216860219
 20
9.39286982295776
 30
0.0
 11
63.51974216860225
 21
-9.403130177042241
 31
0.0
  0
SOLID
  5
E2
330
DC
100
AcDbEntity
  8
치수문자_일반주서
 62
     0
100
AcDbTrace
 10
64.07007550193552
 20
9.392869822957762
 30
0.0
 11
62.96940883526886
 21
9.392869822957758
 31
0.0
 12
63.51974216860218
 22
12.69486982295776
 32
0.0
 13
63.51974216860218
 23
12.69486982295776
 33
0.0
  0
SOLID
  5
E3
330
DC
100
AcDbEntity
  8
치수문자_일반주서
 62
     0
100
AcDbTrace
 10
62.96940883526891
 20
-9.403130177042243
 30
0.0
 11
64.07007550193558
 21
-9.40313017704224
 31
0.0
 12
63.51974216860226
 22
-12.70513017704224
 32
0.0
 13
63.51974216860226
 23
-12.70513017704224
 33
0.0
  0
MTEXT
  5
E4
330
DC
100
AcDbEntity
  8
치수문자_일반주서
 62
     0
100
AcDbMText
 10
59.14474216860222
 20
-0.0051301770422581
 30
0.0
 40
3.5
 41
0.0
 71
     2
 72
     1
  1
\A1;%%c25.40 [1]
  7
SLDTEXTSTYLE0
 11
-3.356894814614647E-15
 21
1.0
 31
0.0
 73
     1
 44
1.0
  0
POINT
  5
E5
330
DC
100
AcDbEntity
  8
Defpoints
 62
     0
100
AcDbPoint
 10
50.09999037414248
 20
12.69486982295771
 30
0.0
  0
POINT
  5
E6
330
DC
100
AcDbEntity
  8
Defpoints
 62
     0
100
AcDbPoint
 10
50.09999037414248
 20
-12.70513017704229
 30
0.0
  0
POINT
  5
E7
330
DC
100
AcDbEntity
  8
Defpoints
 62
     0
100
AcDbPoint
 10
63.51974216860226
 20
-12.70513017704224
 30
0.0
  0
ENDBLK
  5
DE
330
DC
100
AcDbEntity
  8
0
100
AcDbBlockEnd
  0
BLOCK
  5
F0
330
EF
100
AcDbEntity
  8
0
100
AcDbBlockBegin
  2
_D_2
 70
     0
 10
0.0
 20
0.0
 30
0.0
  3
_D_2
  1
_D_2
  0
LINE
  5
F2
330
EF
100
AcDbEntity
  8
치수문자_일반주서
 62
     0
370
    -2
100
AcDbLine
 10
50.09999037414245
 20
12.75736982295771
 30
0.0
 11
50.09999037414245
 21
34.15443945548619
 31
0.0
  0
LINE
  5
F3
330
EF
100
AcDbEntity
  8
치수문자_일반주서
 62
     0
370
    -2
100
AcDbLine
 10
11.99999037414245
 20
12.37178648350756
 30
0.0
 11
11.99999037414246
 21
34.15443945548619
 31
0.0
  0
LINE
  5
F4
330
EF
100
AcDbEntity
  8
치수문자_일반주서
 62
     0
370
    -2
100
AcDbLine
 10
46.79799037414245
 20
34.15443945548619
 30
0.0
 11
15.30199037414246
 21
34.15443945548619
 31
0.0
  0
SOLID
  5
F5
330
EF
100
AcDbEntity
  8
치수문자_일반주서
 62
     0
100
AcDbTrace
 10
46.79799037414245
 20
33.60410612215286
 30
0.0
 11
46.79799037414245
 21
34.70477278881953
 31
0.0
 12
50.09999037414245
 22
34.15443945548619
 32
0.0
 13
50.09999037414245
 23
34.15443945548619
 33
0.0
  0
SOLID
  5
F6
330
EF
100
AcDbEntity
  8
치수문자_일반주서
 62
     0
100
AcDbTrace
 10
15.30199037414246
 20
34.70477278881953
 30
0.0
 11
15.30199037414246
 21
33.60410612215286
 31
0.0
 12
11.99999037414246
 22
34.15443945548619
 32
0.0
 13
11.99999037414246
 23
34.15443945548619
 33
0.0
  0
MTEXT
  5
F7
330
EF
100
AcDbEntity
  8
치수문자_일반주서
 62
     0
100
AcDbMText
 10
31.75383644595854
 20
38.52943945548619
 30
0.0
 40
3.5
 41
0.0
 71
     2
 72
     1
  1
\A1;38.10 [1 1/2]
  7
SLDTEXTSTYLE0
 73
     1
 44
1.0
  0
POINT
  5
F8
330
EF
100
AcDbEntity
  8
Defpoints
 62
     0
100
AcDbPoint
 10
50.09999037414245
 20
12.69486982295771
 30
0.0
  0
POINT
  5
F9
330
EF
100
AcDbEntity
  8
Defpoints
 62
     0
100
AcDbPoint
 10
11.99999037414245
 20
12.30928648350756
 30
0.0
  0
POINT
  5
FA
330
EF
100
AcDbEntity
  8
Defpoints
 62
     0
100
AcDbPoint
 10
11.99999037414245
 20
34.15443945548619
 30
0.0
  0
ENDBLK
  5
F1
330
EF
100
AcDbEntity
  8
0
100
AcDbBlockEnd
  0
BLOCK
  5
103
330
102
100
AcDbEntity
  8
0
100
AcDbBlockBegin
  2
_D_3
 70
     0
 10
0.0
 20
0.0
 30
0.0
  3
_D_3
  1
_D_3
  0
LINE
  5
105
330
102
100
AcDbEntity
  8
치수문자_일반주서
 62
     0
370
    -2
100
AcDbLine
 10
50.09999037414245
 20
12.75736982295771
 30
0.0
 11
50.09999037414245
 21
49.95242904820154
 31
0.0
  0
LINE
  5
106
330
102
100
AcDbEntity
  8
치수문자_일반주서
 62
     0
370
    -2
100
AcDbLine
 10
-51.50000962585753
 20
10.21736982295771
 30
0.0
 11
-51.50000962585753
 21
49.95242904820154
 31
0.0
  0
LINE
  5
107
330
102
100
AcDbEntity
  8
치수문자_일반주서
 62
     0
370
    -2
100
AcDbLine
 10
46.79799037414245
 20
49.95242904820154
 30
0.0
 11
-48.19800962585753
 21
49.95242904820154
 31
0.0
  0
SOLID
  5
108
330
102
100
AcDbEntity
  8
치수문자_일반주서
 62
     0
100
AcDbTrace
 10
46.79799037414245
 20
49.4020957148682
 30
0.0
 11
46.79799037414245
 21
50.50276238153487
 31
0.0
 12
50.09999037414245
 22
49.95242904820154
 32
0.0
 13
50.09999037414245
 23
49.95242904820154
 33
0.0
  0
SOLID
  5
109
330
102
100
AcDbEntity
  8
치수문자_일반주서
 62
     0
100
AcDbTrace
 10
-48.19800962585753
 20
50.50276238153487
 30
0.0
 11
-48.19800962585753
 21
49.4020957148682
 31
0.0
 12
-51.50000962585753
 22
49.95242904820154
 32
0.0
 13
-51.50000962585753
 23
49.95242904820154
 33
0.0
  0
MTEXT
  5
10A
330
102
100
AcDbEntity
  8
치수문자_일반주서
 62
     0
100
AcDbMText
 10
2.632404305315989
 20
54.32742904820154
 30
0.0
 40
3.5
 41
0.0
 71
     2
 72
     1
  1
\A1;101.60 [4]
  7
SLDTEXTSTYLE0
 73
     1
 44
1.0
  0
POINT
  5
10B
330
102
100
AcDbEntity
  8
Defpoints
 62
     0
100
AcDbPoint
 10
50.09999037414245
 20
12.69486982295771
 30
0.0
  0
POINT
  5
10C
330
102
100
AcDbEntity
  8
Defpoints
 62
     0
100
AcDbPoint
 10
-51.50000962585753
 20
10.15486982295771
 30
0.0
  0
POINT
  5
10D
330
102
100
AcDbEntity
  8
Defpoints
 62
     0
100
AcDbPoint
 10
-51.50000962585753
 20
49.95242904820154
 30
0.0
  0
ENDBLK
  5
104
330
102
100
AcDbEntity
  8
0
100
AcDbBlockEnd
  0
BLOCK
  5
11C
330
11B
100
AcDbEntity
  8
0
100
AcDbBlockBegin
  2
SW_DOWELSYMBOL_0
 70
     0
 10
0.0
 20
0.0
 30
0.0
  3
SW_DOWELSYMBOL_0
  1
SW_DOWELSYMBOL_0
  0
CIRCLE
  5
11E
330
11B
100
AcDbEntity
  8
해칭선
 62
     0
100
AcDbCircle
 10
0.0
 20
0.0
 30
0.0
 40
3.000000000000001
  0
HATCH
  5
11F
330
11B
100
AcDbEntity
  8
0
  6
Continuous
 62
     0
370
     0
100
AcDbHatch
 10
0.0
 20
0.0
 30
0.0
210
0.0
220
0.0
230
1.0
  2
SOLID
 70
     1
 71
     0
 91
        1
 92
        0
 93
        3
 72
     2
 10
0.0
 20
0.0
 40
3.000000000000001
 50
0.0
 51
90.0
 73
     1
 72
     1
 10
0.0
 20
3.000000000000001
 11
0.0
 21
0.0
 72
     1
 10
0.0
 20
0.0
 11
3.000000000000003
 21
0.0
 97
        0
 75
     0
 76
     1
 98
        1
 10
0.0
 20
0.0
  0
HATCH
  5
120
330
11B
100
AcDbEntity
  8
0
  6
Continuous
 62
     0
370
     0
100
AcDbHatch
 10
0.0
 20
0.0
 30
0.0
210
0.0
220
0.0
230
1.0
  2
SOLID
 70
     1
 71
     0
 91
        1
 92
        0
 93
        3
 72
     2
 10
0.0
 20
0.0
 40
3.000000000000001
 50
180.0
 51
270.0000000000007
 73
     1
 72
     1
 10
0.0
 20
-3.000000000000001
 11
0.0
 21
0.0
 72
     1
 10
0.0
 20
0.0
 11
-3.000000000000001
 21
0.0
 97
        0
 75
     0
 76
     1
 98
        1
 10
0.0
 20
0.0
  0
ENDBLK
  5
11D
330
11B
100
AcDbEntity
  8
0
100
AcDbBlockEnd
  0
ENDSEC
  0
SECTION
  2
ENTITIES
  0
LINE
  5
96
330
1F
100
AcDbEntity
  8
0
  6
Continuous
 62
     1
370
    15
100
AcDbLine
 10
45.36373791632341
 20
3.762453931552775
 30
0.0
 11
45.28979444516627
 21
3.802419311233872
 31
0.0
  0
LINE
  5
97
330
1F
100
AcDbEntity
  8
0
  6
Continuous
 62
     1
370
    15
100
AcDbLine
 10
25.17800239530855
 20
12.6948698229577
 30
0.0
 11
17.43390312354036
 21
12.6948698229577
 31
0.0
  0
LINE
  5
98
330
1F
100
AcDbEntity
  8
0
  6
Continuous
 62
     1
370
    15
100
AcDbLine
 10
17.43390312354025
 20
-12.70513017704229
 30
0.0
 11
25.17800239530853
 21
-12.70513017704229
 31
0.0
  0
LINE
  5
99
330
1F
100
AcDbEntity
  8
외형선
  6
Continuous
370
    15
100
AcDbLine
 10
-48.96000962585753
 20
-12.70513017704229
 30
0.0
 11
11.49990084111401
 21
-12.70513017704229
 31
0.0
  0
LINE
  5
9A
330
1F
100
AcDbEntity
  8
외형선
  6
Continuous
370
    15
100
AcDbLine
 10
11.49990084111401
 20
12.6948698229577
 30
0.0
 11
-48.96000962585753
 21
12.6948698229577
 31
0.0
  0
LINE
  5
9B
330
1F
100
AcDbEntity
  8
외형선
  6
Continuous
370
    15
100
AcDbLine
 10
-48.96000962585753
 20
12.6948698229577
 30
0.0
 11
-51.50000962585753
 21
10.15486982295771
 31
0.0
  0
LINE
  5
9C
330
1F
100
AcDbEntity
  8
외형선
  6
Continuous
370
    15
100
AcDbLine
 10
-51.50000962585753
 20
-10.1651301770423
 30
0.0
 11
-48.96000962585753
 21
-12.70513017704229
 31
0.0
  0
LINE
  5
9D
330
1F
100
AcDbEntity
  8
0
  6
Continuous
 62
     1
370
    15
100
AcDbLine
 10
50.09999037414246
 20
-11.50728331259026
 30
0.0
 11
50.09999037414246
 21
1.083022958505834
 31
0.0
  0
SPLINE
  5
9E
330
1F
100
AcDbEntity
  8
0
  6
Continuous
 62
     1
370
    15
100
AcDbSpline
210
0.0
220
0.0
230
1.0
 70
     8
 71
     3
 72
    44
 73
    40
 74
     0
 42
0.000000001
 43
0.00000001
 40
0.0
 40
0.0
 40
0.0
 40
0.0
 40
0.0625000000000004
 40
0.0625000000000004
 40
0.1250000000000007
 40
0.1250000000000007
 40
0.1875000000000011
 40
0.1875000000000011
 40
0.2500000000000014
 40
0.2500000000000014
 40
0.3125000000000018
 40
0.3125000000000018
 40
0.3750000000000022
 40
0.3750000000000022
 40
0.4375000000000026
 40
0.4375000000000026
 40
0.5000000000000029
 40
0.5000000000000029
 40
0.5625000000000032
 40
0.5625000000000032
 40
0.6250000000000036
 40
0.6250000000000036
 40
0.687500000000004
 40
0.687500000000004
 40
0.7500000000000043
 40
0.7500000000000043
 40
0.7812500000000041
 40
0.7812500000000041
 40
0.8125000000000038
 40
0.8125000000000038
 40
0.8437500000000036
 40
0.8437500000000036
 40
0.8750000000000033
 40
0.8750000000000033
 40
0.9375000000000022
 40
0.9375000000000022
 40
0.9687500000000011
 40
0.9687500000000011
 40
1.0
 40
1.0
 40
1.0
 40
1.0
 10
50.09999037414248
 20
-11.50728331259026
 30
0.0
 10
49.30894824869919
 20
-11.31321530337201
 30
0.0
 10
48.51258101354172
 20
-11.09623287701767
 30
0.0
 10
46.9231400052837
 20
-10.62003945571227
 30
0.0
 10
46.13300290107945
 20
-10.36121826592253
 30
0.0
 10
44.5439660823767
 20
-9.803221747178064
 30
0.0
 10
43.74741640732391
 20
-9.504235821349639
 30
0.0
 10
42.16420879275847
 20
-8.871666947816326
 30
0.0
 10
41.36913517808699
 20
-8.536982244960496
 30
0.0
 10
39.77937390576342
 20
-7.835612276166432
 30
0.0
 10
38.9890864555208
 20
-7.469631724052212
 30
0.0
 10
37.40053768069653
 20
-6.708753641541003
 30
0.0
 10
36.60384784978699
 20
-6.314049159669821
 30
0.0
 10
35.01959970196519
 20
-5.503097231777388
 30
0.0
 10
34.22567022927876
 20
-5.085785183302994
 30
0.0
 10
32.63567267478491
 20
-4.232552655770412
 30
0.0
 10
31.84508455891427
 20
-3.797637599212785
 30
0.0
 10
30.25710759639025
 20
-2.913472632104656
 30
0.0
 10
29.46031991854553
 20
-2.464309515877064
 30
0.0
 10
27.87511425032235
 20
-1.559715209287099
 30
0.0
 10
27.08217924021328
 20
-1.103436561611546
 30
0.0
 10
25.49202942706747
 20
-0.18754731717719
 30
0.0
 10
24.70099037886708
 20
0.2708722029816749
 30
0.0
 10
23.11366889646027
 20
1.185854156543626
 30
0.0
 10
22.3168256979769
 20
1.642516820010615
 30
0.0
 10
21.12726569215539
 20
2.320266337907295
 30
0.0
 10
20.73216595123788
 20
2.544890303933302
 30
0.0
 10
19.93868475005432
 20
2.992050546862137
 30
0.0
 10
19.54110078320827
 20
3.214434022634024
 30
0.0
 10
18.74599177248141
 20
3.655824434189577
 30
0.0
 10
18.34846758235469
 20
3.874830896516613
 30
0.0
 10
17.55522461427216
 20
4.308512928894478
 30
0.0
 10
17.16015148675756
 20
4.523075375577971
 30
0.0
 10
15.97021464945012
 20
5.160673537696159
 30
0.0
 10
15.17335826648462
 20
5.577090166388191
 30
0.0
 10
13.98320500679687
 20
6.183262949607105
 30
0.0
 10
13.58811576135416
 20
6.382126216135019
 30
0.0
 10
12.79502494073985
 20
6.773916163034751
 30
0.0
 10
12.39754091599227
 20
6.966750595286971
 30
0.0
 10
11.99999037414247
 20
7.156092496408975
 30
0.0
  0
SPLINE
  5
9F
330
1F
100
AcDbEntity
  8
외형선
  6
Continuous
370
    15
100
AcDbSpline
210
0.0
220
0.0
230
1.0
 70
    24
 71
     3
 72
    12
 73
     8
 74
     0
 42
0.000000001
 43
0.00000001
 40
0.0
 40
0.0
 40
0.0
 40
0.0
 40
0.2074589392121458
 40
0.4196582945512394
 40
0.6521464286959942
 40
0.8913767344808117
 40
1.0
 40
1.0
 40
1.0
 40
1.0
 10
11.99999037414245
 20
12.30928648350756
 30
0.0
 10
11.99999037414245
 20
11.93229805226412
 30
0.0
 10
11.99999037414244
 20
11.16970704161895
 30
0.0
 10
11.99999037414251
 20
9.996465200381342
 30
0.0
 10
11.9999903741424
 20
8.820999846504376
 30
0.0
 10
11.99999037414247
 20
7.871564673589244
 30
0.0
 10
11.99999037414245
 20
7.382406520274047
 30
0.0
 10
11.99999037414245
 20
7.229658466633981
 30
0.0
  0
SPLINE
  5
A0
330
1F
100
AcDbEntity
  8
0
  6
Continuous
 62
     1
370
    15
100
AcDbSpline
210
0.0
220
0.0
230
1.0
 70
     8
 71
     3
 72
    44
 73
    40
 74
     0
 42
0.000000001
 43
0.00000001
 40
0.0
 40
0.0
 40
0.0
 40
0.0
 40
0.0624999999999998
 40
0.0624999999999998
 40
0.1249999999999997
 40
0.1249999999999997
 40
0.1874999999999995
 40
0.1874999999999995
 40
0.2499999999999993
 40
0.2499999999999993
 40
0.3124999999999992
 40
0.3124999999999992
 40
0.374999999999999
 40
0.374999999999999
 40
0.4374999999999988
 40
0.4374999999999988
 40
0.4999999999999987
 40
0.4999999999999987
 40
0.5624999999999984
 40
0.5624999999999984
 40
0.6249999999999983
 40
0.6249999999999983
 40
0.6874999999999982
 40
0.6874999999999982
 40
0.749999999999998
 40
0.749999999999998
 40
0.7812499999999983
 40
0.7812499999999983
 40
0.8124999999999987
 40
0.8124999999999987
 40
0.8437499999999991
 40
0.8437499999999991
 40
0.8749999999999994
 40
0.8749999999999994
 40
0.9375000000000001
 40
0.9375000000000001
 40
0.9687500000000001
 40
0.9687500000000001
 40
1.0
 40
1.0
 40
1.0
 40
1.0
 10
50.09999037414249
 20
1.083022958505832
 30
0.0
 10
49.30894824869919
 20
1.539091374656925
 30
0.0
 10
48.51258101354172
 20
1.994054066887689
 30
0.0
 10
46.92314000528368
 20
2.893763572465243
 30
0.0
 10
46.13300290107943
 20
3.337973664692701
 30
0.0
 10
44.5439660823767
 20
4.213246453438564
 30
0.0
 10
43.74741640732388
 20
4.643841524184167
 30
0.0
 10
42.16420879275843
 20
5.48346519507125
 30
0.0
 10
41.36913517808696
 20
5.893987428899747
 30
0.0
 10
39.77937390576345
 20
6.690302106818349
 30
0.0
 10
38.98908645552082
 20
7.075398628419345
 30
0.0
 10
37.40053768069654
 20
7.817752867792889
 30
0.0
 10
36.60384784978697
 20
8.174700172893838
 30
0.0
 10
35.01959970196518
 20
8.853962089352809
 30
0.0
 10
34.22567022927879
 20
9.177214356908113
 30
0.0
 10
32.63567267478492
 20
9.786854146376648
 30
0.0
 10
31.84508455891431
 20
10.07258307551311
 30
0.0
 10
30.25710759639028
 20
10.60443475639155
 30
0.0
 10
29.46031991854553
 20
10.85040543658635
 30
0.0
 10
27.87511425032236
 20
11.29819690679962
 30
0.0
 10
27.08217924021329
 20
11.50049518272916
 30
0.0
 10
25.49202942706741
 20
11.85969813865469
 30
0.0
 10
24.70099037886704
 20
12.01616729278749
 30
0.0
 10
23.11366889646028
 20
12.28196566347168
 30
0.0
 10
22.31682569797691
 20
12.39123501939393
 30
0.0
 10
21.12726569215541
 20
12.51828555617194
 30
0.0
 10
20.73216595123789
 20
12.5545034958379
 30
0.0
 10
19.93868475005435
 20
12.61474850467122
 30
0.0
 10
19.54110078320825
 20
12.63874184629338
 30
0.0
 10
18.74599177248138
 20
12.67433952524027
 30
0.0
 10
18.34846758235469
 20
12.68594382615506
 30
0.0
 10
17.55522461427217
 20
12.69674146112992
 30
0.0
 10
17.16015148675758
 20
12.69594572972262
 30
0.0
 10
15.9702146494501
 20
12.67497098828713
 30
0.0
 10
15.17335826648461
 20
12.6361105988321
 30
0.0
 10
13.98320500679682
 20
12.54100848858132
 30
0.0
 10
13.58811576135413
 20
12.50322032151975
 30
0.0
 10
12.79502494073982
 20
12.41538897307343
 30
0.0
 10
12.39754091599224
 20
12.365351391044
 30
0.0
 10
11.99999037414243
 20
12.30928648350755
 30
0.0
  0
SPLINE
  5
A1
330
1F
100
AcDbEntity
  8
0
  6
Continuous
 62
     1
370
    15
100
AcDbSpline
210
0.0
220
0.0
230
1.0
 70
     8
 71
     3
 72
    16
 73
    12
 74
     0
 42
0.000000001
 43
0.00000001
 40
0.0
 40
0.0
 40
0.0
 40
0.0
 40
0.1145734377096671
 40
0.2291637419454381
 40
0.3437907594590205
 40
0.4584388440699934
 40
0.5730442569666785
 40
0.6876232891071838
 40
0.8021958253391277
 40
0.9072366377256852
 40
1.0
 40
1.0
 40
1.0
 40
1.0
 10
11.99999037414245
 20
-10.49354711294111
 30
0.0
 10
13.01567575494668
 20
-10.80487440254804
 30
0.0
 10
15.04719603711008
 20
-11.42757481271506
 30
0.0
 10
18.09495567186978
 20
-12.08884433938256
 30
0.0
 10
21.143599744394
 20
-12.5328590784648
 30
0.0
 10
24.19257939425304
 20
-12.73292460217716
 30
0.0
 10
27.24077592847744
 20
-12.68971603508342
 30
0.0
 10
30.28817136377438
 20
-12.40435965624257
 30
0.0
 10
33.25081667637515
 20
-11.89123240626638
 30
0.0
 10
36.01985529261702
 20
-11.22918792274566
 30
0.0
 10
37.77367288343942
 20
-10.66865313722396
 30
0.0
 10
38.59615308042944
 20
-10.40578158021131
 30
0.0
  0
SPLINE
  5
A2
330
1F
100
AcDbEntity
  8
외형선
  6
Continuous
370
    15
100
AcDbSpline
210
0.0
220
0.0
230
1.0
 70
    24
 71
     3
 72
    22
 73
    18
 74
     0
 42
0.000000001
 43
0.00000001
 40
0.0
 40
0.0
 40
0.0
 40
0.0
 40
0.0260212218362369
 40
0.0985683648832605
 40
0.1732193799933404
 40
0.2457665230403663
 40
0.3204175381504485
 40
0.3929646811974742
 40
0.467615696307556
 40
0.540162839354582
 40
0.6148138544646641
 40
0.6873609975116896
 40
0.7620120126217717
 40
0.8345591556687978
 40
0.9092101707788799
 40
0.9543593140656124
 40
1.0
 40
1.0
 40
1.0
 40
1.0
 10
11.99999037414247
 20
2.965640690372243
 30
0.0
 10
11.99999037414248
 20
2.943242883379179
 30
0.0
 10
11.99999037414251
 20
2.858400010658932
 30
0.0
 10
11.99999037414239
 20
2.506148636007411
 30
0.0
 10
11.9999903741425
 20
1.906991748446258
 30
0.0
 10
11.99999037414244
 20
1.10687075204567
 30
0.0
 10
11.99999037414243
 20
0.1586436460626854
 30
0.0
 10
11.99999037414244
 20
-0.9321609987471822
 30
0.0
 10
11.99999037414248
 20
-2.113899632317299
 30
0.0
 10
11.99999037414243
 20
-3.374700827601379
 30
0.0
 10
11.99999037414244
 20
-4.656090183916097
 30
0.0
 10
11.99999037414251
 20
-5.944934671835401
 30
0.0
 10
11.99999037414242
 20
-7.18135722123679
 30
0.0
 10
11.99999037414254
 20
-8.353340362606033
 30
0.0
 10
11.99999037414239
 20
-9.272931945470335
 30
0.0
 10
11.99999037414247
 20
-9.983650543121803
 30
0.0
 10
11.99999037414245
 20
-10.32296922444147
 30
0.0
 10
11.99999037414245
 20
-10.49354711294111
 30
0.0
  0
SPLINE
  5
A3
330
1F
100
AcDbEntity
  8
0
  6
Continuous
 62
     1
370
    15
100
AcDbSpline
210
0.0
220
0.0
230
1.0
 70
     8
 71
     3
 72
    44
 73
    40
 74
     0
 42
0.000000001
 43
0.00000001
 40
0.0
 40
0.0
 40
0.0
 40
0.0
 40
0.0624999999999997
 40
0.0624999999999997
 40
0.1249999999999994
 40
0.1249999999999994
 40
0.1874999999999991
 40
0.1874999999999991
 40
0.2499999999999987
 40
0.2499999999999987
 40
0.3124999999999984
 40
0.3124999999999984
 40
0.3749999999999981
 40
0.3749999999999981
 40
0.4374999999999978
 40
0.4374999999999978
 40
0.4999999999999974
 40
0.4999999999999974
 40
0.5624999999999971
 40
0.5624999999999971
 40
0.6249999999999968
 40
0.6249999999999968
 40
0.6874999999999964
 40
0.6874999999999964
 40
0.7499999999999962
 40
0.7499999999999962
 40
0.7812499999999964
 40
0.7812499999999964
 40
0.8124999999999968
 40
0.8124999999999968
 40
0.843749999999997
 40
0.843749999999997
 40
0.8749999999999973
 40
0.8749999999999973
 40
0.9374999999999987
 40
0.9374999999999987
 40
0.9687499999999993
 40
0.9687499999999993
 40
1.0
 40
1.0
 40
1.0
 40
1.0
 10
50.09999037414251
 20
-12.70513017704229
 30
0.0
 10
49.30894824869919
 20
-12.61920630134479
 30
0.0
 10
48.51258101354172
 20
-12.55516793356077
 30
0.0
 10
46.92314000528365
 20
-12.37835127586225
 30
0.0
 10
46.13300290107949
 20
-12.26579110559864
 30
0.0
 10
44.54396608237667
 20
-11.99285090723386
 30
0.0
 10
43.74741640732389
 20
-11.83250088496496
 30
0.0
 10
42.16420879275841
 20
-11.46702166940277
 30
0.0
 10
41.36913517808699
 20
-11.26126739339002
 30
0.0
 10
39.77937390576341
 20
-10.80658378728478
 30
0.0
 10
38.9890864555208
 20
-10.55814957975164
 30
0.0
 10
37.40053768069653
 20
-10.02024912520074
 30
0.0
 10
36.60384784978694
 20
-9.730874516001215
 30
0.0
 10
35.01959970196516
 20
-9.11645344625112
 30
0.0
 10
34.22567022927877
 20
-8.790617257979003
 30
0.0
 10
32.63567267478494
 20
-8.105579386770883
 30
0.0
 10
31.8450845589143
 20
-7.747206892571675
 30
0.0
 10
30.25710759639028
 20
-7.000642180686059
 30
0.0
 10
29.46031991854555
 20
-6.612486567799471
 30
0.0
 10
27.8751142503223
 20
-5.813280379036486
 30
0.0
 10
27.08217924021329
 20
-5.401502374266283
 30
0.0
 10
25.49202942706747
 20
-4.557722498942306
 30
0.0
 10
24.70099037886708
 20
-4.126829538267072
 30
0.0
 10
23.11366889646027
 20
-3.249706310912589
 30
0.0
 10
22.31682569797693
 20
-2.803347277772503
 30
0.0
 10
21.12726569215542
 20
-2.127989246703082
 30
0.0
 10
20.7321659512379
 20
-1.901994354895723
 30
0.0
 10
19.93868475005435
 20
-1.447750627820086
 30
0.0
 10
19.54110078320824
 20
-1.219652187200402
 30
0.0
 10
18.74599177248141
 20
-0.762501634483965
 30
0.0
 10
18.3484675823547
 20
-0.5334500134005058
 30
0.0
 10
17.55522461427217
 20
-0.0754017325782152
 30
0.0
 10
17.16015148675755
 20
0.1534703968940574
 30
0.0
 10
15.97021464945012
 20
0.8404274867750743
 30
0.0
 10
15.17335826648462
 20
1.298323087827334
 30
0.0
 10
13.9832050067969
 20
1.979030671975671
 30
0.0
 10
13.58811576135413
 20
2.204766268932338
 30
0.0
 10
12.79502494073982
 20
2.654414622057224
 30
0.0
 10
12.39754091599225
 20
2.878227046737438
 30
0.0
 10
11.99999037414245
 20
3.100532765128221
 30
0.0
  0
LINE
  5
A4
330
1F
100
AcDbEntity
  8
0
  6
Continuous
 62
     1
370
    15
100
AcDbLine
 10
50.09999037414248
 20
-12.70513017704229
 30
0.0
 11
50.09999037414246
 21
-11.50728331259026
 31
0.0
  0
LINE
  5
A5
330
1F
100
AcDbEntity
  8
외형선
  6
Continuous
370
    15
100
AcDbLine
 10
11.99999037414245
 20
3.100532765128214
 30
0.0
 11
11.99999037414247
 21
7.156092496408975
 31
0.0
  0
SPLINE
  5
A6
330
1F
100
AcDbEntity
  8
0
  6
Continuous
 62
     1
370
    15
100
AcDbSpline
210
0.0
220
0.0
230
1.0
 70
     8
 71
     3
 72
    16
 73
    12
 74
     0
 42
0.000000001
 43
0.00000001
 40
0.0
 40
0.0
 40
0.0
 40
0.0
 40
0.0827750236875957
 40
0.2050481211005768
 40
0.3273142864000161
 40
0.4394086656711758
 40
0.5515812296218326
 40
0.6637023940413743
 40
0.7757711079744466
 40
0.8878495920518438
 40
1.0
 40
1.0
 40
1.0
 40
1.0
 10
25.17800239530855
 20
12.66821536111732
 30
0.0
 10
25.8656712855893
 20
12.66800385085137
 30
0.0
 10
27.56914665303298
 20
12.66747990315923
 30
0.0
 10
30.28816365100607
 20
12.38747839614012
 30
0.0
 10
33.2508228491775
 20
11.88530945494269
 30
0.0
 10
36.12932120616166
 20
11.18247523246466
 30
0.0
 10
38.92431976564643
 20
10.32263962370555
 30
0.0
 10
41.7185952514573
 20
9.295903037094732
 30
0.0
 10
44.51182295940813
 20
8.117752047682934
 30
0.0
 10
47.30529926430581
 20
6.814779883955527
 30
0.0
 10
49.1682274859928
 20
5.857795629422531
 30
0.0
 10
50.09999037414249
 20
5.379150020570275
 30
0.0
  0
LINE
  5
A7
330
1F
100
AcDbEntity
  8
0
  6
Continuous
 62
     1
370
    15
100
AcDbLine
 10
50.09999037414246
 20
1.083022958505834
 30
0.0
 11
50.09999037414246
 21
5.379150020570272
 31
0.0
  0
SPLINE
  5
A8
330
1F
100
AcDbEntity
  8
0
  6
Continuous
 62
     1
370
    15
100
AcDbSpline
210
0.0
220
0.0
230
1.0
 70
     8
 71
     3
 72
    11
 73
     7
 74
     0
 42
0.000000001
 43
0.00000001
 40
0.0
 40
0.0
 40
0.0
 40
0.0
 40
0.2650363779039062
 40
0.5299769290039924
 40
0.794867482983119
 40
1.0
 40
1.0
 40
1.0
 40
1.0
 10
50.09999037414248
 20
12.69486982295771
 30
0.0
 10
49.08358894897438
 20
12.57482017220431
 30
0.0
 10
47.05115358970012
 20
12.42815356513096
 30
0.0
 10
44.00318163538146
 20
11.8988204703446
 30
0.0
 10
41.18500684286505
 20
11.23635748884546
 30
0.0
 10
39.38272449878954
 20
10.65099250124156
 30
0.0
 10
38.59615308042944
 20
10.39552122612672
 30
0.0
  0
LINE
  5
A9
330
1F
100
AcDbEntity
  8
0
  6
Continuous
 62
     1
370
    15
100
AcDbLine
 10
50.09999037414246
 20
5.379150020570272
 30
0.0
 11
50.09999037414245
 21
12.69486982295771
 31
0.0
  0
SPLINE
  5
AA
330
1F
100
AcDbEntity
  8
0
  6
Continuous
 62
     1
370
    15
100
AcDbSpline
210
0.0
220
0.0
230
1.0
 70
     8
 71
     3
 72
     9
 73
     5
 74
     0
 42
0.000000001
 43
0.00000001
 40
0.0
 40
0.0
 40
0.0
 40
0.0
 40
0.4860194799824108
 40
1.0
 40
1.0
 40
1.0
 40
1.0
 10
17.43390312354025
 20
-12.69982282262608
 30
0.0
 10
16.55350788783609
 20
-12.68668436304891
 30
0.0
 10
14.74206766380223
 20
-12.65965157914148
 30
0.0
 10
12.93089687698924
 20
-12.43500883304765
 30
0.0
 10
11.99999037414244
 20
-12.31954683759217
 30
0.0
  0
LINE
  5
AB
330
1F
100
AcDbEntity
  8
외형선
  6
Continuous
370
    15
100
AcDbLine
 10
11.99999037414244
 20
-12.31954683759218
 30
0.0
 11
11.99999037414245
 21
-10.49354711294111
 31
0.0
  0
LINE
  5
AC
330
1F
100
AcDbEntity
  8
외형선
  6
Continuous
370
    15
100
AcDbLine
 10
11.49990084111401
 20
7.392371942769921
 30
0.0
 11
11.49990084111401
 21
12.6948698229577
 31
0.0
  0
SPLINE
  5
AD
330
1F
100
AcDbEntity
  8
외형선
  6
Continuous
370
    15
100
AcDbSpline
210
0.0
220
0.0
230
1.0
 70
     8
 71
     3
 72
     8
 73
     4
 74
     0
 42
0.000000001
 43
0.00000001
 40
0.0
 40
0.0
 40
0.0
 40
0.0
 40
1.0
 40
1.0
 40
1.0
 40
1.0
 10
11.99999037414245
 20
7.156092496408978
 30
0.0
 10
11.8332839765436
 20
7.235489963970463
 30
0.0
 10
11.66656597476611
 20
7.314273630907369
 30
0.0
 10
11.49990084111401
 20
7.392413183680371
 30
0.0
  0
SPLINE
  5
AE
330
1F
100
AcDbEntity
  8
외형선
  6
Continuous
370
    15
100
AcDbSpline
210
0.0
220
0.0
230
1.0
 70
     8
 71
     3
 72
     8
 73
     4
 74
     0
 42
0.000000001
 43
0.00000001
 40
0.0
 40
0.0
 40
0.0
 40
0.0
 40
1.0
 40
1.0
 40
1.0
 40
1.0
 10
11.99999037414245
 20
3.100532765128223
 30
0.0
 10
11.8332839765436
 20
3.193753076956036
 30
0.0
 10
11.6665659747661
 20
3.286708560071102
 30
0.0
 10
11.499900841114
 20
3.379363334362992
 30
0.0
  0
LINE
  5
AF
330
1F
100
AcDbEntity
  8
외형선
  6
Continuous
370
    15
100
AcDbLine
 10
11.49990084111401
 20
-10.32825772577361
 30
0.0
 11
11.49990084111401
 21
3.379383608246538
 31
0.0
  0
SPLINE
  5
B0
330
1F
100
AcDbEntity
  8
외형선
  6
Continuous
370
    15
100
AcDbSpline
210
0.0
220
0.0
230
1.0
 70
     8
 71
     3
 72
     8
 73
     4
 74
     0
 42
0.000000001
 43
0.00000001
 40
0.0
 40
0.0
 40
0.0
 40
0.0
 40
1.0
 40
1.0
 40
1.0
 40
1.0
 10
11.99999037414245
 20
-10.49354711294111
 30
0.0
 10
11.8332839765436
 20
-10.43933655396058
 30
0.0
 10
11.66656597476611
 20
-10.38422306194859
 30
0.0
 10
11.49990084111401
 20
-10.32822817261658
 30
0.0
  0
SPLINE
  5
B1
330
1F
100
AcDbEntity
  8
외형선
  6
Continuous
370
    15
100
AcDbSpline
210
0.0
220
0.0
230
1.0
 70
     8
 71
     3
 72
     8
 73
     4
 74
     0
 42
0.000000001
 43
0.00000001
 40
0.0
 40
0.0
 40
0.0
 40
0.0
 40
1.0
 40
1.0
 40
1.0
 40
1.0
 10
11.99999037414245
 20
-12.31954683759217
 30
0.0
 10
11.8332839765436
 20
-12.29603692430259
 30
0.0
 10
11.6665659747661
 20
-12.27146781083414
 30
0.0
 10
11.499900841114
 20
-12.24584926013766
 30
0.0
  0
LINE
  5
B2
330
1F
100
AcDbEntity
  8
외형선
  6
Continuous
370
    15
100
AcDbLine
 10
11.49990084111401
 20
-12.70513017704229
 30
0.0
 11
11.49990084111401
 21
-12.24584365449897
 31
0.0
  0
SPLINE
  5
B3
330
1F
100
AcDbEntity
  8
외형선
  6
Continuous
370
    15
100
AcDbSpline
210
0.0
220
0.0
230
1.0
 70
     8
 71
     3
 72
     8
 73
     4
 74
     0
 42
0.000000001
 43
0.00000001
 40
0.0
 40
0.0
 40
0.0
 40
0.0
 40
1.0
 40
1.0
 40
1.0
 40
1.0
 10
11.99999037414245
 20
12.30928648350756
 30
0.0
 10
11.8332839765436
 20
12.28577657021798
 30
0.0
 10
11.6665659747661
 20
12.26120745674952
 30
0.0
 10
11.499900841114
 20
12.23558890605304
 30
0.0
  0
LINE
  5
B4
330
1F
100
AcDbEntity
  8
외형선
  6
Continuous
370
    15
100
AcDbLine
 10
-48.96000962585753
 20
-0.0051301770422954
 30
0.0
 11
-48.96000962585753
 21
12.6948698229577
 31
0.0
  0
LINE
  5
B5
330
1F
100
AcDbEntity
  8
외형선
  6
Continuous
370
    15
100
AcDbLine
 10
-48.96000962585753
 20
-12.70513017704229
 30
0.0
 11
-48.96000962585753
 21
-0.0051301770422954
 31
0.0
  0
LINE
  5
B6
330
1F
100
AcDbEntity
  8
외형선
  6
Continuous
370
    15
100
AcDbLine
 10
-51.50000962585753
 20
-0.0051301770422954
 30
0.0
 11
-51.50000962585753
 21
10.15486982295771
 31
0.0
  0
LINE
  5
B7
330
1F
100
AcDbEntity
  8
외형선
  6
Continuous
370
    15
100
AcDbLine
 10
-51.50000962585753
 20
-10.1651301770423
 30
0.0
 11
-51.50000962585753
 21
-0.0051301770422954
 31
0.0
  0
SPLINE
  5
B8
330
1F
100
AcDbEntity
  8
외형선
  6
Continuous
370
    15
100
AcDbSpline
210
0.0
220
0.0
230
1.0
 70
    24
 71
     3
 72
    22
 73
    18
 74
     0
 42
0.000000001
 43
0.00000001
 40
0.0
 40
0.0
 40
0.0
 40
0.0
 40
0.0541609620888817
 40
0.1091778889828297
 40
0.1817177233061813
 40
0.2563612177391076
 40
0.3289010520624593
 40
0.4035445464953853
 40
0.476084380818737
 40
0.5507278752516633
 40
0.6232677095750149
 40
0.6979112040079412
 40
0.7704510383312914
 40
0.8450945327642156
 40
0.917634367087569
 40
0.9922778615204976
 40
1.0
 40
1.0
 40
1.0
 40
1.0
 10
11.99999037414245
 20
-10.49354711294111
 30
0.0
 10
11.99999037414245
 20
-10.28966214484856
 30
0.0
 10
11.99999037414244
 20
-9.878669991955356
 30
0.0
 10
11.99999037414245
 20
-9.07424044517796
 30
0.0
 10
11.99999037414244
 20
-8.081923774942082
 30
0.0
 10
11.99999037414253
 20
-6.899596444514959
 30
0.0
 10
11.99999037414243
 20
-5.638953573537195
 30
0.0
 10
11.99999037414244
 20
-4.357511979008856
 30
0.0
 10
11.99999037414248
 20
-3.068715661243775
 30
0.0
 10
11.99999037414254
 20
-1.832150345625438
 30
0.0
 10
11.99999037414238
 20
-0.6606833802177126
 30
0.0
 10
11.99999037414258
 20
0.3918419063092915
 30
0.0
 10
11.99999037414243
 20
1.313099607719008
 30
0.0
 10
11.99999037414251
 20
2.065933483402243
 30
0.0
 10
11.99999037414242
 20
2.622013349643523
 30
0.0
 10
11.9999903741425
 20
2.911208342408168
 30
0.0
 10
11.99999037414248
 20
2.973427255832043
 30
0.0
 10
11.99999037414247
 20
2.979260551206754
 30
0.0
  0
SPLINE
  5
B9
330
1F
100
AcDbEntity
  8
외형선
  6
Continuous
370
    15
100
AcDbSpline
210
0.0
220
0.0
230
1.0
 70
    24
 71
     3
 72
    12
 73
     8
 74
     0
 42
0.000000001
 43
0.00000001
 40
0.0
 40
0.0
 40
0.0
 40
0.0
 40
0.1671731364822256
 40
0.3997634305632448
 40
0.6390988589294007
 40
0.8180453838925899
 40
1.0
 40
1.0
 40
1.0
 40
1.0
 10
11.99999037414247
 20
7.229658466633981
 30
0.0
 10
11.99999037414248
 20
7.470879267479956
 30
0.0
 10
11.9999903741425
 20
8.047713900714541
 30
0.0
 10
11.99999037414242
 20
9.106601121466543
 30
0.0
 10
11.99999037414255
 20
10.24120482463164
 30
0.0
 10
11.99999037414239
 20
11.32364984746508
 30
0.0
 10
11.99999037414244
 20
11.97892039019247
 30
0.0
 10
11.99999037414245
 20
12.30928648350756
 30
0.0
  0
LINE
  5
BA
330
1F
100
AcDbEntity
  8
중심선
100
AcDbLine
 10
-54.50000962585753
 20
-0.0051301770422954
 30
0.0
 11
53.09999037414246
 21
-0.0051301770422865
 31
0.0
  0
LINE
  5
BB
330
1F
100
AcDbEntity
  8
참조1
100
AcDbLine
 10
15.80000000000002
 20
0.0010749287238892
 30
0.0
 11
15.80000000000003
 21
-39.99892507127611
 31
0.0
  0
LINE
  5
BC
330
1F
100
AcDbEntity
  8
참조1
100
AcDbLine
 10
15.80000000000003
 20
-39.99892507127611
 30
0.0
 11
1.191143185691355
 21
-39.9989250712761
 31
0.0
  0
CIRCLE
  5
BD
330
1F
100
AcDbEntity
  8
해칭선
100
AcDbCircle
 10
0.0
 20
0.0
 30
0.0
 40
3.000000000000001
  0
INSERT
  5
BE
330
1F
100
AcDbEntity
  8
0
  6
Continuous
 62
     7
100
AcDbBlockReference
 66
     1
  2
블럭10
 10
-14.64028255798273
 20
-52.05230447868623
 30
0.0
  0
ATTRIB
  5
BF
330
BE
100
AcDbEntity
  8
FORMAT
 62
     2
100
AcDbText
 10
-24.78191857011937
 20
-49.97693756585404
 30
0.0
 40
4.233333333333333
  1
EM153064 [ 4 FLUTE ]
 41
0.75
  7
SLDTEXTSTYLE0
 11
-24.78191857011937
 21
-52.09360423252071
 31
0.0
100
AcDbAttribute
  2
AUTOATTR0
 70
     0
 74
     1
  0
SEQEND
  5
C0
330
BE
100
AcDbEntity
  8
0
  6
Continuous
 62
     7
  0
HATCH
  5
C1
330
1F
100
AcDbEntity
  8
중심선
100
AcDbHatch
 10
0.0
 20
0.0
 30
0.0
210
0.0
220
0.0
230
1.0
  2
SOLID
 70
     1
 71
     0
 91
        1
 92
        0
 93
        4
 72
     1
 10
-8.925373253601887
 20
-35.80513017704229
 11
-12.37164849743917
 21
-35.80513017704229
 72
     1
 10
-12.37164849743917
 20
-35.80513017704229
 11
-14.4998783566432
 21
-38.34145575761486
 72
     1
 10
-14.4998783566432
 20
-38.34145575761486
 11
-11.05357002769276
 21
-38.34141632831238
 72
     1
 10
-11.05357002769276
 20
-38.34141632831238
 11
-8.925373253601887
 21
-35.80513017704229
 97
        0
 75
     0
 76
     1
 98
        1
 10
-16.50000962585756
 20
-0.0062051057661885
  0
HATCH
  5
C2
330
1F
100
AcDbEntity
  8
중심선
100
AcDbHatch
 10
0.0
 20
0.0
 30
0.0
210
0.0
220
0.0
230
1.0
  2
SOLID
 70
     1
 71
     0
 91
        1
 92
        0
 93
        4
 72
     1
 10
-3.912609262565907
 20
-35.80513017704229
 11
-7.358884506403189
 21
-35.80513017704229
 72
     1
 10
-7.358884506403189
 20
-35.80513017704229
 11
-11.89002251476061
 21
-41.20513017704231
 72
     1
 10
-11.89002251476061
 20
-41.20513017704231
 11
-8.443747270923327
 21
-41.20513017704231
 72
     1
 10
-8.443747270923327
 20
-41.20513017704231
 11
-3.912609262565907
 21
-35.80513017704229
 97
        0
 75
     0
 76
     1
 98
        1
 10
-16.50000962585756
 20
-0.0062051057661885
  0
HATCH
  5
C3
330
1F
100
AcDbEntity
  8
중심선
100
AcDbHatch
 10
0.0
 20
0.0
 30
0.0
210
0.0
220
0.0
230
1.0
  2
SOLID
 70
     1
 71
     0
 91
        1
 92
        0
 93
        4
 72
     1
 10
1.100154728469986
 20
-35.80513017704229
 11
-2.346120515367156
 21
-35.80513017704229
 72
     1
 10
-2.346120515367156
 20
-35.80513017704229
 11
-9.394557417256406
 21
-44.20513017704231
 72
     1
 10
-9.394557417256406
 20
-44.20513017704231
 11
-5.948282173419122
 21
-44.20513017704231
 72
     1
 10
-5.948282173419122
 20
-44.20513017704231
 11
1.100154728469986
 21
-35.80513017704229
 97
        0
 75
     0
 76
     1
 98
        1
 10
-16.50000962585756
 20
-0.0062051057661885
  0
HATCH
  5
C4
330
1F
100
AcDbEntity
  8
중심선
100
AcDbHatch
 10
0.0
 20
0.0
 30
0.0
210
0.0
220
0.0
230
1.0
  2
SOLID
 70
     1
 71
     0
 91
        1
 92
        0
 93
        6
 72
     3
 10
5.900045159482159
 20
-40.00513017709357
 11
3.960054785062283
 21
1.540882976769353E-10
 40
0.3939339440162628
 50
17.09539180608439
 51
320.0019657685083
 73
     0
 72
     1
 10
7.583044815182726
 20
-38.59302418168062
 11
9.888346688883791
 21
-36.65869747163268
 72
     3
 10
5.900045159429313
 20
-40.00513017704244
 11
6.600054785286829
 21
-1.278976924368180E-13
 40
0.636358354079598
 50
39.99873849337413
 51
368.4976242363724
 73
     1
 72
     1
 10
12.32537765132992
 20
-39.04513017697232
 11
4.580112466265236
 21
-39.04513017697229
 72
     1
 10
4.580112466265235
 20
-39.04513017697229
 11
4.580087421819301
 21
-40.96513017697221
 72
     1
 10
4.580087421819301
 20
-40.96513017697221
 11
9.021467191291336
 21
-40.96513017697218
 97
        0
 75
     0
 76
     1
 98
        1
 10
-16.50000962585756
 20
-0.0062051057661885
  0
DIMENSION
  5
C5
330
1F
100
AcDbEntity
  8
치수문자_일반주서
100
AcDbDimension
  2
_D
 10
-61.57458890213478
 20
-12.70513017704234
 30
0.0
 11
-61.57458890213482
 21
-0.0051301770423031
 31
0.0
 70
   160
  1
%%c<>
 71
     2
 42
25.39999999999998
 52
-270.0
  3
SLDDIMSTYLE0
100
AcDbAlignedDimension
 13
-48.96000962585754
 23
12.69486982295769
 33
0.0
 14
-48.96000962585754
 24
-12.70513017704229
 34
0.0
 50
90.0000000000002
100
AcDbRotatedDimension
1001
ACAD
1000
DSTYLE
1002
{
1070
   171
1070
     6
1070
   273
1070
     7
1002
}
  0
DIMENSION
  5
DA
330
1F
100
AcDbEntity
  8
치수문자_일반주서
100
AcDbDimension
  2
_D_1
 10
63.51974216860226
 20
-12.70513017704224
 30
0.0
 11
63.51974216860222
 21
-0.0051301770422436
 31
0.0
 70
   160
  1
%%c<>
 71
     2
 42
25.4
 52
-270.0
  3
SLDDIMSTYLE0
100
AcDbAlignedDimension
 13
50.09999037414248
 23
12.69486982295771
 33
0.0
 14
50.09999037414248
 24
-12.70513017704229
 34
0.0
 50
90.0000000000002
100
AcDbRotatedDimension
1001
ACAD
1000
DSTYLE
1002
{
1070
   171
1070
     6
1070
   273
1070
     7
1002
}
  0
DIMENSION
  5
EE
330
1F
100
AcDbEntity
  8
치수문자_일반주서
100
AcDbDimension
  2
_D_2
 10
11.99999037414246
 20
34.15443945548619
 30
0.0
 11
31.75383644595854
 21
34.15443945548619
 31
0.0
 70
   160
  1
<>
 71
     2
 42
38.09999999999999
  3
SLDDIMSTYLE0
100
AcDbAlignedDimension
 13
50.09999037414245
 23
12.69486982295771
 33
0.0
 14
11.99999037414245
 24
12.30928648350756
 34
0.0
100
AcDbRotatedDimension
1001
ACAD
1000
DSTYLE
1002
{
1070
   171
1070
     6
1070
   273
1070
     7
1002
}
  0
DIMENSION
  5
101
330
1F
100
AcDbEntity
  8
치수문자_일반주서
100
AcDbDimension
  2
_D_3
 10
-51.50000962585753
 20
49.95242904820154
 30
0.0
 11
2.632404305315989
 21
49.95242904820154
 31
0.0
 70
   160
  1
<>
 71
     2
 42
101.6
  3
SLDDIMSTYLE0
100
AcDbAlignedDimension
 13
50.09999037414245
 23
12.69486982295771
 33
0.0
 14
-51.50000962585753
 24
10.15486982295771
 34
0.0
100
AcDbRotatedDimension
1001
ACAD
1000
DSTYLE
1002
{
1070
   171
1070
     6
1070
   273
1070
     7
1002
}
  0
LINE
  5
114
330
1F
100
AcDbEntity
  8
참조1
100
AcDbLine
 10
99.16348381534561
 20
7.441074928723896
 30
0.0
 11
99.16348381534561
 21
-7.438925071276109
 31
0.0
  0
LINE
  5
115
330
1F
100
AcDbEntity
  8
참조1
100
AcDbLine
 10
111.8634838153456
 20
5.441074928723896
 30
0.0
 11
99.16348381534561
 21
5.441074928723896
 31
0.0
  0
SOLID
  5
116
330
1F
100
AcDbEntity
  8
참조1
100
AcDbTrace
 10
99.16348381534561
 20
5.441074928723896
 30
0.0
 11
105.5134838153456
 21
4.425074928723896
 31
0.0
 12
105.5134838153456
 22
6.457074928723896
 32
0.0
 13
105.5134838153456
 23
6.457074928723896
 33
0.0
  0
LINE
  5
117
330
1F
100
AcDbEntity
  8
참조1
100
AcDbLine
 10
111.8634838153456
 20
-5.438925071276109
 30
0.0
 11
99.16348381534561
 21
-5.438925071276109
 31
0.0
  0
SOLID
  5
118
330
1F
100
AcDbEntity
  8
참조1
100
AcDbTrace
 10
99.16348381534561
 20
-5.438925071276109
 30
0.0
 11
105.5134838153456
 21
-6.454925071276109
 31
0.0
 12
105.5134838153456
 22
-4.422925071276109
 32
0.0
 13
105.5134838153456
 23
-4.422925071276109
 33
0.0
  0
MTEXT
  5
119
330
1F
100
AcDbEntity
  8
참조1
100
AcDbMText
 10
108.5609739078159
 20
10.98929157337383
 30
0.0
 40
3.5
 41
0.0
 71
     1
 72
     1
  1
A
  7
SLDTEXTSTYLE0
 73
     1
 44
1.0
  0
MTEXT
  5
11A
330
1F
100
AcDbEntity
  8
참조1
100
AcDbMText
 10
108.5609739078159
 20
0.1092915733738259
 30
0.0
 40
3.5
 41
0.0
 71
     1
 72
     1
  1
A
  7
SLDTEXTSTYLE0
 73
     1
 44
1.0
  0
INSERT
  5
121
330
1F
100
AcDbEntity
  8
해칭선
100
AcDbBlockReference
  2
SW_DOWELSYMBOL_0
 10
0.0
 20
0.0
 30
0.0
  0
ENDSEC
  0
SECTION
  2
OBJECTS
  0
DICTIONARY
  5
C
330
0
100
AcDbDictionary
281
     1
  3
ACAD_GROUP
350
D
  3
ACAD_IMAGE_VARS
350
145
  3
ACAD_LAYOUT
350
1A
  3
ACAD_MLINESTYLE
350
17
  3
ACAD_PLOTSETTINGS
350
19
  3
ACAD_PLOTSTYLENAME
350
E
  3
ACAD_SCALELIST
350
47
  3
APPDATA
350
143
  3
DWGPROPS
350
19B
  0
DICTIONARY
  5
16C
330
2
100
AcDbDictionary
280
     1
281
     1
  3
ACAD_LAYERSTATES
360
16D
  0
DICTIONARY
  5
D
102
{ACAD_REACTORS
330
C
102
}
330
C
100
AcDbDictionary
281
     1
  0
RASTERVARIABLES
  5
145
102
{ACAD_REACTORS
330
C
102
}
330
C
100
AcDbRasterVariables
 90
        0
 70
     1
 71
     1
 72
     1
  0
DICTIONARY
  5
1A
102
{ACAD_REACTORS
330
C
102
}
330
C
100
AcDbDictionary
281
     1
  3
Layout1
350
1E
  3
Layout2
350
26
  3
Model
350
22
  0
DICTIONARY
  5
17
102
{ACAD_REACTORS
330
C
102
}
330
C
100
AcDbDictionary
281
     1
  3
Standard
350
18
  0
DICTIONARY
  5
19
102
{ACAD_REACTORS
330
C
102
}
330
C
100
AcDbDictionary
281
     1
  0
ACDBDICTIONARYWDFLT
  5
E
102
{ACAD_REACTORS
330
C
102
}
330
C
100
AcDbDictionary
281
     1
  3
Normal
350
F
100
AcDbDictionaryWithDefault
340
F
  0
DICTIONARY
  5
47
102
{ACAD_REACTORS
330
C
102
}
330
C
100
AcDbDictionary
281
     1
  3
A0
350
48
  3
A1
350
49
  3
A2
350
4A
  3
A3
350
4B
  3
A4
350
4C
  3
A5
350
4D
  3
A6
350
4E
  3
A7
350
4F
  3
A8
350
50
  3
A9
350
51
  3
B0
350
52
  3
B1
350
53
  3
B2
350
54
  3
B3
350
55
  3
B4
350
56
  3
B5
350
57
  3
B6
350
58
  3
B7
350
59
  3
B8
350
5A
  3
B9
350
5B
  3
C0
350
5C
  3
C1
350
5D
  3
C2
350
5E
  3
C3
350
5F
  3
C4
350
60
  3
C5
350
61
  3
C6
350
62
  3
C7
350
63
  3
C8
350
64
  3
C9
350
65
  3
D0
350
66
  3
D1
350
67
  3
D2
350
68
  0
DICTIONARY
  5
143
102
{ACAD_REACTORS
330
C
102
}
330
C
100
AcDbDictionary
281
     1
  0
XRECORD
  5
19B
102
{ACAD_REACTORS
330
C
102
}
330
C
100
AcDbXrecord
280
     1
  1
DWGPROPS COOKIE
  2

  3

  4

  6

  7

  8
12017012
  9

300
=
301
=
302
=
303
=
304
=
305
=
306
=
307
=
308
=
309
=
 40
0.0
 41
2458289.329238565
 42
2458294.332766655
  1

 90
        0
  0
DICTIONARY
  5
16D
102
{ACAD_REACTORS
330
16C
102
}
330
16C
100
AcDbDictionary
281
     1
  0
LAYOUT
  5
1E
102
{ACAD_REACTORS
330
1A
102
}
330
1A
100
AcDbPlotSettings
  1

  2
none_device
  4

  6

 40
0.0
 41
0.0
 42
0.0
 43
0.0
 44
0.0
 45
0.0
 46
0.0
 47
0.0
 48
0.0
 49
0.0
140
0.0
141
0.0
142
1.0
143
1.0
 70
   688
 72
     1
 73
     0
 74
     5
  7

 75
    16
147
1.0
148
0.0
149
0.0
100
AcDbLayout
  1
Layout1
 70
     1
 71
     1
 10
0.0
 20
0.0
 11
420.0
 21
297.0
 12
0.0
 22
0.0
 32
0.0
 14
1.000000000000000E+20
 24
1.000000000000000E+20
 34
1.000000000000000E+20
 15
-1.000000000000000E+20
 25
-1.000000000000000E+20
 35
-1.000000000000000E+20
146
0.0
 13
0.0
 23
0.0
 33
0.0
 16
1.0
 26
0.0
 36
0.0
 17
0.0
 27
1.0
 37
0.0
 76
     0
330
1B
  0
LAYOUT
  5
26
102
{ACAD_REACTORS
330
1A
102
}
330
1A
100
AcDbPlotSettings
  1

  2
none_device
  4

  6

 40
0.0
 41
0.0
 42
0.0
 43
0.0
 44
0.0
 45
0.0
 46
0.0
 47
0.0
 48
0.0
 49
0.0
140
0.0
141
0.0
142
1.0
143
1.0
 70
   688
 72
     1
 73
     0
 74
     5
  7

 75
    16
147
1.0
148
0.0
149
0.0
100
AcDbLayout
  1
Layout2
 70
     1
 71
     2
 10
0.0
 20
0.0
 11
0.0
 21
0.0
 12
0.0
 22
0.0
 32
0.0
 14
0.0
 24
0.0
 34
0.0
 15
0.0
 25
0.0
 35
0.0
146
0.0
 13
0.0
 23
0.0
 33
0.0
 16
1.0
 26
0.0
 36
0.0
 17
0.0
 27
1.0
 37
0.0
 76
     0
330
23
  0
LAYOUT
  5
22
102
{ACAD_REACTORS
330
1A
102
}
330
1A
100
AcDbPlotSettings
  1

  2
none_device
  4
ANSI_A_(11.00_x_8.50_Inches)
  6

 40
6.35
 41
19.05
 42
6.35000508
 43
19.05000254
 44
279.4
 45
215.9
 46
87.17832679199478
 47
65.97604893623792
 48
0.0
 49
0.0
140
0.0
141
0.0
142
0.0649254078458056
143
1.0
 70
  1696
 72
     0
 73
     0
 74
     0
  7

 75
     0
147
0.0235690232323232
148
0.0
149
0.0
100
AcDbLayout
  1
Model
 70
     1
 71
     0
 10
0.0
 20
0.0
 11
420.0
 21
297.0
 12
0.0
 22
0.0
 32
0.0
 14
-65.94958890213486
 24
-49.97693756585404
 34
0.0
 15
111.8634838153456
 25
54.32742904820154
 35
0.0
146
0.0
 13
0.0
 23
0.0
 33
0.0
 16
1.0
 26
0.0
 36
0.0
 17
0.0
 27
1.0
 37
0.0
 76
     0
330
1F
331
29
  0
MLINESTYLE
  5
18
102
{ACAD_REACTORS
330
17
102
}
330
17
100
AcDbMlineStyle
  2
Standard
 70
     0
  3

 62
   256
 51
90.0
 52
90.0
 71
     2
 49
0.5
 62
   256
  6
BYLAYER
 49
-0.5
 62
   256
  6
BYLAYER
  0
ACDBPLACEHOLDER
  5
F
102
{ACAD_REACTORS
330
E
102
}
330
E
  0
SCALE
  5
48
102
{ACAD_REACTORS
330
47
102
}
330
47
100
AcDbScale
 70
     0
300
1:1
140
1.0
141
1.0
290
     1
  0
SCALE
  5
49
102
{ACAD_REACTORS
330
47
102
}
330
47
100
AcDbScale
 70
     0
300
1:2
140
1.0
141
2.0
290
     0
  0
SCALE
  5
4A
102
{ACAD_REACTORS
330
47
102
}
330
47
100
AcDbScale
 70
     0
300
1:4
140
1.0
141
4.0
290
     0
  0
SCALE
  5
4B
102
{ACAD_REACTORS
330
47
102
}
330
47
100
AcDbScale
 70
     0
300
1:5
140
1.0
141
5.0
290
     0
  0
SCALE
  5
4C
102
{ACAD_REACTORS
330
47
102
}
330
47
100
AcDbScale
 70
     0
300
1:8
140
1.0
141
8.0
290
     0
  0
SCALE
  5
4D
102
{ACAD_REACTORS
330
47
102
}
330
47
100
AcDbScale
 70
     0
300
1:10
140
1.0
141
10.0
290
     0
  0
SCALE
  5
4E
102
{ACAD_REACTORS
330
47
102
}
330
47
100
AcDbScale
 70
     0
300
1:16
140
1.0
141
16.0
290
     0
  0
SCALE
  5
4F
102
{ACAD_REACTORS
330
47
102
}
330
47
100
AcDbScale
 70
     0
300
1:20
140
1.0
141
20.0
290
     0
  0
SCALE
  5
50
102
{ACAD_REACTORS
330
47
102
}
330
47
100
AcDbScale
 70
     0
300
1:30
140
1.0
141
30.0
290
     0
  0
SCALE
  5
51
102
{ACAD_REACTORS
330
47
102
}
330
47
100
AcDbScale
 70
     0
300
1:40
140
1.0
141
40.0
290
     0
  0
SCALE
  5
52
102
{ACAD_REACTORS
330
47
102
}
330
47
100
AcDbScale
 70
     0
300
1:50
140
1.0
141
50.0
290
     0
  0
SCALE
  5
53
102
{ACAD_REACTORS
330
47
102
}
330
47
100
AcDbScale
 70
     0
300
1:100
140
1.0
141
100.0
290
     0
  0
SCALE
  5
54
102
{ACAD_REACTORS
330
47
102
}
330
47
100
AcDbScale
 70
     0
300
2:1
140
2.0
141
1.0
290
     0
  0
SCALE
  5
55
102
{ACAD_REACTORS
330
47
102
}
330
47
100
AcDbScale
 70
     0
300
4:1
140
4.0
141
1.0
290
     0
  0
SCALE
  5
56
102
{ACAD_REACTORS
330
47
102
}
330
47
100
AcDbScale
 70
     0
300
8:1
140
8.0
141
1.0
290
     0
  0
SCALE
  5
57
102
{ACAD_REACTORS
330
47
102
}
330
47
100
AcDbScale
 70
     0
300
10:1
140
10.0
141
1.0
290
     0
  0
SCALE
  5
58
102
{ACAD_REACTORS
330
47
102
}
330
47
100
AcDbScale
 70
     0
300
100:1
140
100.0
141
1.0
290
     0
  0
SCALE
  5
59
102
{ACAD_REACTORS
330
47
102
}
330
47
100
AcDbScale
 70
     0
300
1/128" = 1'-0"
140
0.0078125
141
12.0
290
     0
  0
SCALE
  5
5A
102
{ACAD_REACTORS
330
47
102
}
330
47
100
AcDbScale
 70
     0
300
1/64" = 1'-0"
140
0.015625
141
12.0
290
     0
  0
SCALE
  5
5B
102
{ACAD_REACTORS
330
47
102
}
330
47
100
AcDbScale
 70
     0
300
1/32" = 1'-0"
140
0.03125
141
12.0
290
     0
  0
SCALE
  5
5C
102
{ACAD_REACTORS
330
47
102
}
330
47
100
AcDbScale
 70
     0
300
1/16" = 1'-0"
140
0.0625
141
12.0
290
     0
  0
SCALE
  5
5D
102
{ACAD_REACTORS
330
47
102
}
330
47
100
AcDbScale
 70
     0
300
3/32" = 1'-0"
140
0.09375
141
12.0
290
     0
  0
SCALE
  5
5E
102
{ACAD_REACTORS
330
47
102
}
330
47
100
AcDbScale
 70
     0
300
1/8" = 1'-0"
140
0.125
141
12.0
290
     0
  0
SCALE
  5
5F
102
{ACAD_REACTORS
330
47
102
}
330
47
100
AcDbScale
 70
     0
300
3/16" = 1'-0"
140
0.1875
141
12.0
290
     0
  0
SCALE
  5
60
102
{ACAD_REACTORS
330
47
102
}
330
47
100
AcDbScale
 70
     0
300
1/4" = 1'-0"
140
0.25
141
12.0
290
     0
  0
SCALE
  5
61
102
{ACAD_REACTORS
330
47
102
}
330
47
100
AcDbScale
 70
     0
300
3/8" = 1'-0"
140
0.375
141
12.0
290
     0
  0
SCALE
  5
62
102
{ACAD_REACTORS
330
47
102
}
330
47
100
AcDbScale
 70
     0
300
1/2" = 1'-0"
140
0.5
141
12.0
290
     0
  0
SCALE
  5
63
102
{ACAD_REACTORS
330
47
102
}
330
47
100
AcDbScale
 70
     0
300
3/4" = 1'-0"
140
0.75
141
12.0
290
     0
  0
SCALE
  5
64
102
{ACAD_REACTORS
330
47
102
}
330
47
100
AcDbScale
 70
     0
300
1" = 1'-0"
140
1.0
141
12.0
290
     0
  0
SCALE
  5
65
102
{ACAD_REACTORS
330
47
102
}
330
47
100
AcDbScale
 70
     0
300
1-1/2" = 1'-0"
140
1.5
141
12.0
290
     0
  0
SCALE
  5
66
102
{ACAD_REACTORS
330
47
102
}
330
47
100
AcDbScale
 70
     0
300
3" = 1'-0"
140
3.0
141
12.0
290
     0
  0
SCALE
  5
67
102
{ACAD_REACTORS
330
47
102
}
330
47
100
AcDbScale
 70
     0
300
6" = 1'-0"
140
6.0
141
12.0
290
     0
  0
SCALE
  5
68
102
{ACAD_REACTORS
330
47
102
}
330
47
100
AcDbScale
 70
     0
300
1'-0" = 1'-0"
140
12.0
141
12.0
290
     0
  0
ENDSEC
  0
EOF
