  0
SECTION
  2
HEADER
  9
$ACADVER
  1
AC1015
  9
$ACADMAINTVER
 70
     6
  9
$DWGCODEPAGE
  3
ANSI_949
  9
$INSBASE
 10
0.0
 20
0.0
 30
0.0
  9
$EXTMIN
 10
-60.55207927627736
 20
-49.97073246008785
 30
0.0
  9
$EXTMAX
 10
111.8634838153456
 20
49.58864781181409
 30
0.0
  9
$LIMMIN
 10
0.0
 20
0.0
  9
$LIMMAX
 10
420.0
 20
297.0
  9
$ORTHOMODE
 70
     1
  9
$REGENMODE
 70
     1
  9
$FILLMODE
 70
     1
  9
$QTEXTMODE
 70
     0
  9
$MIRRTEXT
 70
     1
  9
$LTSCALE
 40
1.0
  9
$ATTMODE
 70
     1
  9
$TEXTSIZE
 40
3.5
  9
$TRACEWID
 40
1.0
  9
$TEXTSTYLE
  7
Standard
  9
$CLAYER
  8
0
  9
$CELTYPE
  6
ByLayer
  9
$CECOLOR
 62
   256
  9
$CELTSCALE
 40
1.0
  9
$DISPSILH
 70
     0
  9
$DIMSCALE
 40
1.0
  9
$DIMASZ
 40
3.302
  9
$DIMEXO
 40
1.0
  9
$DIMDLI
 40
3.75
  9
$DIMRND
 40
0.0
  9
$DIMDLE
 40
0.0
  9
$DIMEXE
 40
1.0
  9
$DIMTP
 40
0.0
  9
$DIMTM
 40
0.0
  9
$DIMTXT
 40
3.5
  9
$DIMCEN
 40
2.5
  9
$DIMTSZ
 40
0.0
  9
$DIMTOL
 70
     0
  9
$DIMLIM
 70
     0
  9
$DIMTIH
 70
     1
  9
$DIMTOH
 70
     1
  9
$DIMSE1
 70
     0
  9
$DIMSE2
 70
     0
  9
$DIMTAD
 70
     1
  9
$DIMZIN
 70
     0
  9
$DIMBLK
  1

  9
$DIMASO
 70
     1
  9
$DIMSHO
 70
     1
  9
$DIMPOST
  1

  9
$DIMAPOST
  1

  9
$DIMALT
 70
     0
  9
$DIMALTD
 70
     3
  9
$DIMALTF
 40
0.0393700787401575
  9
$DIMLFAC
 40
1.0
  9
$DIMTOFL
 70
     1
  9
$DIMTVP
 40
0.0
  9
$DIMTIX
 70
     0
  9
$DIMSOXD
 70
     0
  9
$DIMSAH
 70
     0
  9
$DIMBLK1
  1

  9
$DIMBLK2
  1

  9
$DIMSTYLE
  2
ISO-25
  9
$DIMCLRD
 70
     0
  9
$DIMCLRE
 70
     0
  9
$DIMCLRT
 70
     0
  9
$DIMTFAC
 40
1.0
  9
$DIMGAP
 40
1.524
  9
$DIMJUST
 70
     0
  9
$DIMSD1
 70
     0
  9
$DIMSD2
 70
     0
  9
$DIMTOLJ
 70
     0
  9
$DIMTZIN
 70
     0
  9
$DIMALTZ
 70
     0
  9
$DIMALTTZ
 70
     0
  9
$DIMUPT
 70
     0
  9
$DIMDEC
 70
     2
  9
$DIMTDEC
 70
     2
  9
$DIMALTU
 70
     2
  9
$DIMALTTD
 70
     3
  9
$DIMTXSTY
  7
Standard
  9
$DIMAUNIT
 70
     0
  9
$DIMADEC
 70
     2
  9
$DIMALTRND
 40
0.0
  9
$DIMAZIN
 70
     0
  9
$DIMDSEP
 70
    44
  9
$DIMATFIT
 70
     3
  9
$DIMFRAC
 70
     0
  9
$DIMLDRBLK
  1

  9
$DIMLUNIT
 70
     2
  9
$DIMLWD
 70
    -2
  9
$DIMLWE
 70
    -2
  9
$DIMTMOVE
 70
     0
  9
$LUNITS
 70
     2
  9
$LUPREC
 70
     2
  9
$SKETCHINC
 40
1.0
  9
$FILLETRAD
 40
10.0
  9
$AUNITS
 70
     0
  9
$AUPREC
 70
     2
  9
$MENU
  1
.
  9
$ELEVATION
 40
0.0
  9
$PELEVATION
 40
0.0
  9
$THICKNESS
 40
0.0
  9
$LIMCHECK
 70
     0
  9
$CHAMFERA
 40
0.0
  9
$CHAMFERB
 40
0.0
  9
$CHAMFERC
 40
0.0
  9
$CHAMFERD
 40
0.0
  9
$SKPOLY
 70
     0
  9
$TDCREATE
 40
2458289.703482408
  9
$TDUCREATE
 40
2458289.328482408
  9
$TDUPDATE
 40
2458294.708899132
  9
$TDUUPDATE
 40
2458294.333899132
  9
$TDINDWG
 40
0.0017271759
  9
$TDUSRTIMER
 40
2458294.333269687
  9
$USRTIMER
 70
     1
  9
$ANGBASE
 50
0.0
  9
$ANGDIR
 70
     0
  9
$PDMODE
 70
     0
  9
$PDSIZE
 40
-1.0
  9
$PLINEWID
 40
0.0
  9
$SPLFRAME
 70
     0
  9
$SPLINETYPE
 70
     6
  9
$SPLINESEGS
 70
     8
  9
$HANDSEED
  5
19E
  9
$SURFTAB1
 70
     6
  9
$SURFTAB2
 70
     6
  9
$SURFTYPE
 70
     6
  9
$SURFU
 70
     6
  9
$SURFV
 70
     6
  9
$UCSBASE
  2

  9
$UCSNAME
  2

  9
$UCSORG
 10
0.0
 20
0.0
 30
0.0
  9
$UCSXDIR
 10
1.0
 20
0.0
 30
0.0
  9
$UCSYDIR
 10
0.0
 20
1.0
 30
0.0
  9
$UCSORTHOREF
  2

  9
$UCSORTHOVIEW
 70
     0
  9
$UCSORGTOP
 10
0.0
 20
0.0
 30
0.0
  9
$UCSORGBOTTOM
 10
0.0
 20
0.0
 30
0.0
  9
$UCSORGLEFT
 10
0.0
 20
0.0
 30
0.0
  9
$UCSORGRIGHT
 10
0.0
 20
0.0
 30
0.0
  9
$UCSORGFRONT
 10
0.0
 20
0.0
 30
0.0
  9
$UCSORGBACK
 10
0.0
 20
0.0
 30
0.0
  9
$PUCSBASE
  2

  9
$PUCSNAME
  2

  9
$PUCSORG
 10
0.0
 20
0.0
 30
0.0
  9
$PUCSXDIR
 10
1.0
 20
0.0
 30
0.0
  9
$PUCSYDIR
 10
0.0
 20
1.0
 30
0.0
  9
$PUCSORTHOREF
  2

  9
$PUCSORTHOVIEW
 70
     0
  9
$PUCSORGTOP
 10
0.0
 20
0.0
 30
0.0
  9
$PUCSORGBOTTOM
 10
0.0
 20
0.0
 30
0.0
  9
$PUCSORGLEFT
 10
0.0
 20
0.0
 30
0.0
  9
$PUCSORGRIGHT
 10
0.0
 20
0.0
 30
0.0
  9
$PUCSORGFRONT
 10
0.0
 20
0.0
 30
0.0
  9
$PUCSORGBACK
 10
0.0
 20
0.0
 30
0.0
  9
$USERI1
 70
     0
  9
$USERI2
 70
     0
  9
$USERI3
 70
     0
  9
$USERI4
 70
     0
  9
$USERI5
 70
     0
  9
$USERR1
 40
0.0
  9
$USERR2
 40
0.0
  9
$USERR3
 40
0.0
  9
$USERR4
 40
0.0
  9
$USERR5
 40
0.0
  9
$WORLDVIEW
 70
     1
  9
$SHADEDGE
 70
     3
  9
$SHADEDIF
 70
    70
  9
$TILEMODE
 70
     1
  9
$MAXACTVP
 70
    64
  9
$PINSBASE
 10
0.0
 20
0.0
 30
0.0
  9
$PLIMCHECK
 70
     0
  9
$PEXTMIN
 10
1.000000000000000E+20
 20
1.000000000000000E+20
 30
1.000000000000000E+20
  9
$PEXTMAX
 10
-1.000000000000000E+20
 20
-1.000000000000000E+20
 30
-1.000000000000000E+20
  9
$PLIMMIN
 10
0.0
 20
0.0
  9
$PLIMMAX
 10
0.0
 20
0.0
  9
$UNITMODE
 70
     0
  9
$VISRETAIN
 70
     1
  9
$PLINEGEN
 70
     0
  9
$PSLTSCALE
 70
     1
  9
$TREEDEPTH
 70
  3020
  9
$CMLSTYLE
  2
Standard
  9
$CMLJUST
 70
     0
  9
$CMLSCALE
 40
20.0
  9
$PROXYGRAPHICS
 70
     1
  9
$MEASUREMENT
 70
     1
  9
$CELWEIGHT
370
    -1
  9
$ENDCAPS
280
     0
  9
$JOINSTYLE
280
     0
  9
$LWDISPLAY
290
     1
  9
$INSUNITS
 70
     4
  9
$HYPERLINKBASE
  1

  9
$STYLESHEET
  1

  9
$XEDIT
290
     1
  9
$CEPSNTYPE
380
     0
  9
$PSTYLEMODE
290
     1
  9
$FINGERPRINTGUID
  2
{2991F744-D05E-4BB3-9F73-96A9320F3A68}
  9
$VERSIONGUID
  2
{FAEB1C32-E019-11D5-929B-00C0DF256EC4}
  9
$EXTNAMES
290
     1
  9
$PSVPSCALE
 40
0.0
  9
$OLESTARTUP
290
     0
  0
ENDSEC
  0
SECTION
  2
CLASSES
  0
CLASS
  1
ACDBDICTIONARYWDFLT
  2
AcDbDictionaryWithDefault
  3
ObjectDBX Classes
 90
        0
280
     0
281
     0
  0
CLASS
  1
VISUALSTYLE
  2
AcDbVisualStyle
  3
ObjectDBX Classes
 90
     4095
280
     0
281
     0
  0
CLASS
  1
MATERIAL
  2
AcDbMaterial
  3
ObjectDBX Classes
 90
     1153
280
     0
281
     0
  0
CLASS
  1
SCALE
  2
AcDbScale
  3
ObjectDBX Classes
 90
     1153
280
     0
281
     0
  0
CLASS
  1
SUN
  2
AcDbSun
  3
SCENEOE
 90
     1153
280
     0
281
     0
  0
CLASS
  1
ACDBPLACEHOLDER
  2
AcDbPlaceHolder
  3
ObjectDBX Classes
 90
        0
280
     0
281
     0
  0
CLASS
  1
LAYOUT
  2
AcDbLayout
  3
ObjectDBX Classes
 90
        0
280
     0
281
     0
  0
CLASS
  1
TABLESTYLE
  2
AcDbTableStyle
  3
ObjectDBX Classes
 90
     4095
280
     0
281
     0
  0
CLASS
  1
MLEADERSTYLE
  2
AcDbMLeaderStyle
  3
ACDB_MLEADERSTYLE_CLASS
 90
     4095
280
     0
281
     0
  0
CLASS
  1
RASTERVARIABLES
  2
AcDbRasterVariables
  3
ISM
 90
        0
280
     0
281
     0
  0
ENDSEC
  0
SECTION
  2
TABLES
  0
TABLE
  2
VPORT
  5
8
330
0
100
AcDbSymbolTable
 70
     1
  0
VPORT
  5
29
330
8
100
AcDbSymbolTableRecord
100
AcDbViewportTableRecord
  2
*Active
 70
     0
 10
0.0
 20
0.0
 11
1.0
 21
1.0
 12
-10.05366621849317
 22
-0.7682148677398746
 13
0.0
 23
0.0
 14
10.0
 24
10.0
 15
10.0
 25
10.0
 16
0.0
 26
0.0
 36
1.0
 17
0.0
 27
0.0
 37
0.0
 40
23.1223186639193
 41
1.859099804305284
 42
50.0
 43
0.0
 44
0.0
 50
0.0
 51
0.0
 71
    16
 72
  2000
 73
     1
 74
     3
 75
     0
 76
     0
 77
     0
 78
     0
281
     0
 65
     1
110
0.0
120
0.0
130
0.0
111
1.0
121
0.0
131
0.0
112
0.0
122
1.0
132
0.0
 79
     0
146
0.0
  0
ENDTAB
  0
TABLE
  2
LTYPE
  5
5
330
0
100
AcDbSymbolTable
 70
     6
  0
LTYPE
  5
14
330
5
100
AcDbSymbolTableRecord
100
AcDbLinetypeTableRecord
  2
ByBlock
 70
     0
  3

 72
    65
 73
     0
 40
0.0
  0
LTYPE
  5
15
330
5
100
AcDbSymbolTableRecord
100
AcDbLinetypeTableRecord
  2
ByLayer
 70
     0
  3

 72
    65
 73
     0
 40
0.0
  0
LTYPE
  5
16
330
5
100
AcDbSymbolTableRecord
100
AcDbLinetypeTableRecord
  2
Continuous
 70
     0
  3
Solid line
 72
    65
 73
     0
 40
0.0
  0
LTYPE
  5
6A
330
5
100
AcDbSymbolTableRecord
100
AcDbLinetypeTableRecord
  2
HIDDEN
 70
     0
  3
Hidden __ __ __ __ __ __ __ __ __ __ __ __ __ __
 72
    65
 73
     2
 40
1.905
 49
1.27
 74
     0
 49
-0.635
 74
     0
  0
LTYPE
  5
6B
330
5
100
AcDbSymbolTableRecord
100
AcDbLinetypeTableRecord
  2
PHANTOM
 70
     0
  3
Phantom ______  __  __  ______  __  __  ______
 72
    65
 73
     6
 40
12.7
 49
6.35
 74
     0
 49
-1.27
 74
     0
 49
1.27
 74
     0
 49
-1.27
 74
     0
 49
1.27
 74
     0
 49
-1.27
 74
     0
  0
LTYPE
  5
6C
330
5
100
AcDbSymbolTableRecord
100
AcDbLinetypeTableRecord
  2
CENTER
 70
     0
  3
Center ____ _ ____ _ ____ _ ____ _ ____ _ ____
 72
    65
 73
     4
 40
10.16
 49
6.35
 74
     0
 49
-1.27
 74
     0
 49
1.27
 74
     0
 49
-1.27
 74
     0
  0
LTYPE
  5
6D
330
5
100
AcDbSymbolTableRecord
100
AcDbLinetypeTableRecord
  2
CENTERX2
 70
     0
  3
Center (2x) ________  __  ________  __  _____
 72
    65
 73
     4
 40
20.32
 49
12.7
 74
     0
 49
-2.54
 74
     0
 49
2.54
 74
     0
 49
-2.54
 74
     0
  0
LTYPE
  5
6E
330
5
100
AcDbSymbolTableRecord
100
AcDbLinetypeTableRecord
  2
DOT2
 70
     0
  3
Dot (.5x) ........................................
 72
    65
 73
     2
 40
0.635
 49
0.0
 74
     0
 49
-0.635
 74
     0
  0
ENDTAB
  0
TABLE
  2
LAYER
  5
2
102
{ACAD_XDICTIONARY
360
16E
102
}
330
0
100
AcDbSymbolTable
 70
    18
  0
LAYER
  5
10
330
2
100
AcDbSymbolTableRecord
100
AcDbLayerTableRecord
  2
0
 70
     0
 62
     7
  6
Continuous
370
    -3
390
F
  0
LAYER
  5
6F
330
2
100
AcDbSymbolTableRecord
100
AcDbLayerTableRecord
  2
FORMAT
 70
     0
 62
     2
  6
Continuous
370
    -3
390
F
  0
LAYER
  5
70
330
2
100
AcDbSymbolTableRecord
100
AcDbLayerTableRecord
  2
외형선
 70
     0
 62
     4
  6
Continuous
370
    30
390
F
  0
LAYER
  5
71
330
2
100
AcDbSymbolTableRecord
100
AcDbLayerTableRecord
  2
숨은선
 70
     0
 62
     2
  6
HIDDEN
370
    15
390
F
  0
LAYER
  5
72
330
2
100
AcDbSymbolTableRecord
100
AcDbLayerTableRecord
  2
중심선
 70
     0
 62
     1
  6
CENTERX2
370
    -3
390
F
  0
LAYER
  5
73
330
2
100
AcDbSymbolTableRecord
100
AcDbLayerTableRecord
  2
파단선
 70
     0
 62
     4
  6
Continuous
370
    -3
390
F
  0
LAYER
  5
74
330
2
100
AcDbSymbolTableRecord
100
AcDbLayerTableRecord
  2
해칭선
 70
     0
 62
   100
  6
Continuous
370
    -3
390
F
  0
LAYER
  5
75
330
2
100
AcDbSymbolTableRecord
100
AcDbLayerTableRecord
  2
가는실선
 70
     0
 62
     4
  6
Continuous
370
    -3
390
F
  0
LAYER
  5
76
330
2
100
AcDbSymbolTableRecord
100
AcDbLayerTableRecord
  2
치수_보조선
 70
     0
 62
     4
  6
Continuous
370
    -3
390
F
  0
LAYER
  5
77
330
2
100
AcDbSymbolTableRecord
100
AcDbLayerTableRecord
  2
치수문자_일반주서
 70
     0
 62
     7
  6
Continuous
370
    15
390
F
  0
LAYER
  5
78
330
2
100
AcDbSymbolTableRecord
100
AcDbLayerTableRecord
  2
개별주서
 70
     0
 62
   100
  6
Continuous
370
    30
390
F
  0
LAYER
  5
79
330
2
100
AcDbSymbolTableRecord
100
AcDbLayerTableRecord
  2
중간선
 70
     0
 62
     2
  6
Continuous
370
    15
390
F
  0
LAYER
  5
7A
330
2
100
AcDbSymbolTableRecord
100
AcDbLayerTableRecord
  2
윤곽선
 70
     0
 62
     3
  6
Continuous
370
    40
390
F
  0
LAYER
  5
7B
330
2
100
AcDbSymbolTableRecord
100
AcDbLayerTableRecord
  2
중심마크
 70
     0
 62
   100
  6
Continuous
370
    30
390
F
  0
LAYER
  5
7C
330
2
100
AcDbSymbolTableRecord
100
AcDbLayerTableRecord
  2
가상선
 70
     0
 62
     4
  6
PHANTOM
370
    -3
390
F
  0
LAYER
  5
7D
330
2
100
AcDbSymbolTableRecord
100
AcDbLayerTableRecord
  2
특수지정선
 70
     0
 62
     5
  6
CENTERX2
370
    60
390
F
  0
LAYER
  5
7E
330
2
100
AcDbSymbolTableRecord
100
AcDbLayerTableRecord
  2
참조1
 70
     0
 62
    -4
  6
Continuous
370
    -3
390
F
  0
LAYER
  5
175
330
2
100
AcDbSymbolTableRecord
100
AcDbLayerTableRecord
  2
Defpoints
 70
     0
 62
     7
  6
Continuous
290
     0
370
    -3
390
F
  0
ENDTAB
  0
TABLE
  2
STYLE
  5
3
330
0
100
AcDbSymbolTable
 70
     2
  0
STYLE
  5
11
330
3
100
AcDbSymbolTableRecord
100
AcDbTextStyleTableRecord
  2
Standard
 70
     0
 40
0.0
 41
1.0
 50
0.0
 71
     0
 42
3.5
  3
txt
  4

  0
STYLE
  5
94
330
3
100
AcDbSymbolTableRecord
100
AcDbTextStyleTableRecord
  2
SLDTEXTSTYLE0
 70
     0
 40
0.0
 41
0.75
 50
0.0
 71
     0
 42
3.5
  3
TXT
  4

  0
ENDTAB
  0
TABLE
  2
VIEW
  5
6
330
0
100
AcDbSymbolTable
 70
     0
  0
ENDTAB
  0
TABLE
  2
UCS
  5
7
330
0
100
AcDbSymbolTable
 70
     0
  0
ENDTAB
  0
TABLE
  2
APPID
  5
9
330
0
100
AcDbSymbolTable
 70
     1
  0
APPID
  5
12
330
9
100
AcDbSymbolTableRecord
100
AcDbRegAppTableRecord
  2
ACAD
 70
     0
  0
ENDTAB
  0
TABLE
  2
DIMSTYLE
  5
A
330
0
100
AcDbSymbolTable
 70
     4
100
AcDbDimStyleTable
  0
DIMSTYLE
105
27
330
A
100
AcDbSymbolTableRecord
100
AcDbDimStyleTableRecord
  2
ISO-25
 70
     0
 41
2.5
 42
0.625
 43
3.75
 44
1.25
 73
     0
 74
     0
 77
     1
 78
     8
140
2.5
141
2.5
143
0.03937007874016
147
0.625
171
     3
172
     1
178
     0
271
     2
272
     2
274
     3
278
    44
283
     0
284
     8
340
11
  0
DIMSTYLE
105
C7
102
{ACAD_REACTORS
330
C6
330
DB
330
EF
330
102
102
}
330
A
100
AcDbSymbolTableRecord
100
AcDbDimStyleTableRecord
  2
SLDDIMSTYLE0
 70
     0
 41
3.302
 44
0.0
 45
0.000000001
 73
     0
 74
     0
 77
     1
 78
    12
 79
     3
140
3.5
143
0.0393700787401575
147
0.875
148
0.000000001
170
     1
172
     1
173
     1
178
     0
271
     2
272
     2
276
     2
284
    12
289
     0
340
94
  0
DIMSTYLE
105
DC
330
A
100
AcDbSymbolTableRecord
100
AcDbDimStyleTableRecord
  2
SLDDIMSTYLE1
 70
     0
 41
3.302
 44
0.0
 45
0.000000001
 73
     0
 74
     0
 77
     1
 78
    12
 79
     3
140
3.5
143
0.0393700787401575
147
0.875
148
0.000000001
170
     1
173
     1
178
     0
271
     2
272
     2
276
     2
284
    12
340
94
  0
DIMSTYLE
105
103
330
A
100
AcDbSymbolTableRecord
100
AcDbDimStyleTableRecord
  2
SLDDIMSTYLE2
 70
     0
 41
3.302
 44
0.0
 45
0.000000001
 73
     0
 74
     0
 77
     1
 78
     4
 79
     1
140
3.5
143
0.0393700787401575
147
0.875
148
0.000000001
170
     1
173
     1
178
     0
271
     2
272
     2
276
     2
284
    12
340
94
  0
ENDTAB
  0
TABLE
  2
BLOCK_RECORD
  5
1
330
0
100
AcDbSymbolTable
 70
     7
  0
BLOCK_RECORD
  5
1F
330
1
100
AcDbSymbolTableRecord
100
AcDbBlockTableRecord
  2
*Model_Space
340
22
  0
BLOCK_RECORD
  5
1B
330
1
100
AcDbSymbolTableRecord
100
AcDbBlockTableRecord
  2
*Paper_Space
340
1E
  0
BLOCK_RECORD
  5
23
330
1
100
AcDbSymbolTableRecord
100
AcDbBlockTableRecord
  2
*Paper_Space0
340
26
  0
BLOCK_RECORD
  5
7F
330
1
100
AcDbSymbolTableRecord
100
AcDbBlockTableRecord
  2
블럭10
340
0
102
{BLKREFS
331
BF
102
}
  0
BLOCK_RECORD
  5
C8
330
1
100
AcDbSymbolTableRecord
100
AcDbBlockTableRecord
  2
_D
340
0
  0
BLOCK_RECORD
  5
DD
330
1
100
AcDbSymbolTableRecord
100
AcDbBlockTableRecord
  2
_D_1
340
0
  0
BLOCK_RECORD
  5
F0
330
1
100
AcDbSymbolTableRecord
100
AcDbBlockTableRecord
  2
_D_2
340
0
  0
BLOCK_RECORD
  5
104
330
1
100
AcDbSymbolTableRecord
100
AcDbBlockTableRecord
  2
_D_3
340
0
  0
BLOCK_RECORD
  5
11D
330
1
100
AcDbSymbolTableRecord
100
AcDbBlockTableRecord
  2
SW_DOWELSYMBOL_0
340
0
102
{BLKREFS
331
123
102
}
  0
ENDTAB
  0
ENDSEC
  0
SECTION
  2
BLOCKS
  0
BLOCK
  5
20
330
1F
100
AcDbEntity
  8
0
100
AcDbBlockBegin
  2
*Model_Space
 70
     0
 10
0.0
 20
0.0
 30
0.0
  3
*Model_Space
  1
*Model_Space
  0
ENDBLK
  5
21
330
1F
100
AcDbEntity
  8
0
100
AcDbBlockEnd
  0
BLOCK
  5
1C
330
1B
100
AcDbEntity
 67
     1
  8
0
100
AcDbBlockBegin
  2
*Paper_Space
 70
     0
 10
0.0
 20
0.0
 30
0.0
  3
*Paper_Space
  1
*Paper_Space
  0
ENDBLK
  5
1D
330
1B
100
AcDbEntity
 67
     1
  8
0
100
AcDbBlockEnd
  0
BLOCK
  5
24
330
23
100
AcDbEntity
  8
0
100
AcDbBlockBegin
  2
*Paper_Space0
 70
     0
 10
0.0
 20
0.0
 30
0.0
  3
*Paper_Space0
  1
*Paper_Space0
  0
ENDBLK
  5
25
330
23
100
AcDbEntity
  8
0
100
AcDbBlockEnd
  0
BLOCK
  5
80
330
7F
100
AcDbEntity
  8
0
100
AcDbBlockBegin
  2
블럭10
 70
     2
 10
0.0
 20
0.0
 30
0.0
  3
블럭10
  1
블럭10
  0
ELLIPSE
  5
82
330
7F
100
AcDbEntity
  8
중심선
100
AcDbEllipse
 10
20.54032771741204
 20
12.0471743016438
 30
0.0
 11
6.600054785286829
 21
-1.261213355974178E-13
 31
0.0
210
0.0
220
0.0
230
1.0
 40
0.636358354079598
 41
0.9219305317359503
 42
6.513795318482858
  0
ELLIPSE
  5
83
330
7F
100
AcDbEntity
  8
중심선
100
AcDbEllipse
 10
20.54032771746488
 20
12.04717430159265
 30
0.0
 11
3.960054785062283
 21
1.540847449632565E-10
 31
0.0
210
0.0
220
0.0
230
1.0
 40
0.3939339440162632
 41
1.131841032648279
 42
5.62031148352944
  0
LINE
  5
84
330
7F
100
AcDbEntity
  8
중심선
100
AcDbLine
 10
2.268634060543552
 20
16.24717430164393
 30
0.0
 11
5.714909304380834
 21
16.24717430164393
 31
0.0
  0
LINE
  5
85
330
7F
100
AcDbEntity
  8
중심선
100
AcDbLine
 10
5.245725140726316
 20
7.84717430164391
 30
0.0
 11
8.692000384563599
 21
7.84717430164391
 31
0.0
  0
LINE
  5
86
330
7F
100
AcDbEntity
  8
중심선
100
AcDbLine
 10
15.74043728645272
 20
16.24717430164393
 30
0.0
 11
8.692000384563599
 21
7.84717430164391
 31
0.0
  0
LINE
  5
87
330
7F
100
AcDbEntity
  8
중심선
100
AcDbLine
 10
0.1404042013395286
 20
13.71084872107135
 30
0.0
 11
3.58671253028996
 21
13.71088815037384
 31
0.0
  0
LINE
  5
88
330
7F
100
AcDbEntity
  8
중심선
100
AcDbLine
 10
2.750260043222114
 20
10.84717430164391
 30
0.0
 11
6.196535287059397
 21
10.84717430164391
 31
0.0
  0
LINE
  5
89
330
7F
100
AcDbEntity
  8
중심선
100
AcDbLine
 10
12.29416204261559
 20
16.24717430164393
 30
0.0
 11
5.245725140726316
 21
7.84717430164391
 31
0.0
  0
LINE
  5
8A
330
7F
100
AcDbEntity
  8
중심선
100
AcDbLine
 10
10.72767329541681
 20
16.24717430164393
 30
0.0
 11
6.196535287059397
 21
10.84717430164391
 31
0.0
  0
LINE
  5
8B
330
7F
100
AcDbEntity
  8
중심선
100
AcDbLine
 10
7.28139805157953
 20
16.24717430164393
 30
0.0
 11
2.750260043222114
 21
10.84717430164391
 31
0.0
  0
LINE
  5
8C
330
7F
100
AcDbEntity
  8
중심선
100
AcDbLine
 10
5.714909304380834
 20
16.24717430164393
 30
0.0
 11
3.58671253028996
 21
13.71088815037384
 31
0.0
  0
LINE
  5
8D
330
7F
100
AcDbEntity
  8
중심선
100
AcDbLine
 10
2.268634060543552
 20
16.24717430164393
 30
0.0
 11
0.1404042013395286
 21
13.71084872107135
 31
0.0
  0
LINE
  5
8E
330
7F
100
AcDbEntity
  8
중심선
100
AcDbLine
 10
7.28139805157953
 20
16.24717430164393
 30
0.0
 11
10.72767329541681
 21
16.24717430164393
 31
0.0
  0
LINE
  5
8F
330
7F
100
AcDbEntity
  8
중심선
100
AcDbLine
 10
12.29416204261559
 20
16.24717430164393
 30
0.0
 11
15.74043728645272
 21
16.24717430164393
 31
0.0
  0
LINE
  5
90
330
7F
100
AcDbEntity
  8
중심선
100
AcDbLine
 10
19.22036997980202
 20
11.08717430171403
 30
0.0
 11
23.66174974927406
 21
11.08717430171406
 31
0.0
  0
LINE
  5
91
330
7F
100
AcDbEntity
  8
중심선
100
AcDbLine
 10
19.22039502424796
 20
13.00717430171391
 30
0.0
 11
19.22036997980202
 21
11.08717430171403
 31
0.0
  0
LINE
  5
92
330
7F
100
AcDbEntity
  8
중심선
100
AcDbLine
 10
19.22039502424796
 20
13.00717430171391
 30
0.0
 11
26.96566020931264
 21
13.00717430171391
 31
0.0
  0
LINE
  5
93
330
7F
100
AcDbEntity
  8
중심선
100
AcDbLine
 10
22.22332737316547
 20
13.45928029700563
 30
0.0
 11
24.52862924686651
 21
15.39360700705356
 31
0.0
  0
ATTDEF
  5
95
330
7F
100
AcDbEntity
  8
FORMAT
 62
     2
100
AcDbText
 10
3.448148490846466
 20
2.075366912832191
 30
0.0
 40
4.233333333333333
  1
EM153040
 41
0.75
  7
SLDTEXTSTYLE0
 11
3.448148490846466
 21
-0.0412997538344756
 31
0.0
100
AcDbAttributeDefinition
  3

  2
AUTOATTR0
 70
     0
 74
     1
  0
ENDBLK
  5
81
330
7F
100
AcDbEntity
  8
0
100
AcDbBlockEnd
  0
BLOCK
  5
C9
330
C8
100
AcDbEntity
  8
0
100
AcDbBlockBegin
  2
_D
 70
     0
 10
0.0
 20
0.0
 30
0.0
  3
_D
  1
_D
  0
LINE
  5
CB
330
C8
100
AcDbEntity
  8
치수문자_일반주서
 62
     0
370
    -2
100
AcDbLine
 10
-43.62500000000003
 20
7.938574928723879
 30
0.0
 11
-56.17707927627734
 21
7.938574928723831
 31
0.0
  0
LINE
  5
CC
330
C8
100
AcDbEntity
  8
치수문자_일반주서
 62
     0
370
    -2
100
AcDbLine
 10
-43.62500000000003
 20
-7.936425071276093
 30
0.0
 11
-56.17707927627728
 21
-7.936425071276141
 31
0.0
  0
LINE
  5
CD
330
C8
100
AcDbEntity
  8
치수문자_일반주서
 62
     0
370
    -2
100
AcDbLine
 10
-56.17707927627733
 20
4.636574928723832
 30
0.0
 11
-56.1770792762773
 21
-4.634425071276141
 31
0.0
  0
SOLID
  5
CE
330
C8
100
AcDbEntity
  8
치수문자_일반주서
 62
     0
100
AcDbTrace
 10
-55.62674594294399
 20
4.636574928723833
 30
0.0
 11
-56.72741260961066
 21
4.63657492872383
 31
0.0
 12
-56.17707927627734
 22
7.938574928723831
 32
0.0
 13
-56.17707927627734
 23
7.938574928723831
 33
0.0
  0
SOLID
  5
CF
330
C8
100
AcDbEntity
  8
치수문자_일반주서
 62
     0
100
AcDbTrace
 10
-56.72741260961063
 20
-4.634425071276143
 30
0.0
 11
-55.62674594294396
 21
-4.634425071276139
 31
0.0
 12
-56.17707927627728
 22
-7.936425071276141
 32
0.0
 13
-56.17707927627728
 23
-7.936425071276141
 33
0.0
  0
MTEXT
  5
D0
330
C8
100
AcDbEntity
  8
치수문자_일반주서
 62
     0
100
AcDbMText
 10
-60.55207927627731
 20
0.0010749287238647
 30
0.0
 40
3.5
 41
0.0
 71
     2
 72
     1
  1
\A1;%%c15.88 [5/8]
  7
SLDTEXTSTYLE0
 11
-3.580687802255629E-15
 21
1.0
 31
0.0
 73
     1
 44
1.0
  0
POINT
  5
D1
330
C8
100
AcDbEntity
  8
Defpoints
 62
     0
100
AcDbPoint
 10
-43.56250000000003
 20
7.938574928723879
 30
0.0
  0
POINT
  5
D2
330
C8
100
AcDbEntity
  8
Defpoints
 62
     0
100
AcDbPoint
 10
-43.56250000000003
 20
-7.936425071276093
 30
0.0
  0
POINT
  5
D3
330
C8
100
AcDbEntity
  8
Defpoints
 62
     0
100
AcDbPoint
 10
-56.17707927627728
 20
-7.93642507127614
 30
0.0
  0
ENDBLK
  5
CA
330
C8
100
AcDbEntity
  8
0
100
AcDbBlockEnd
  0
BLOCK
  5
DE
330
DD
100
AcDbEntity
  8
0
100
AcDbBlockBegin
  2
_D_1
 70
     0
 10
0.0
 20
0.0
 30
0.0
  3
_D_1
  1
_D_1
  0
LINE
  5
E0
330
DD
100
AcDbEntity
  8
치수문자_일반주서
 62
     0
370
    -2
100
AcDbLine
 10
43.8125
 20
7.9385749287239
 30
0.0
 11
68.70420333281743
 21
7.938574928723991
 31
0.0
  0
LINE
  5
E1
330
DD
100
AcDbEntity
  8
치수문자_일반주서
 62
     0
370
    -2
100
AcDbLine
 10
43.8125
 20
-7.9364250712761
 30
0.0
 11
68.70420333281749
 21
-7.936425071276009
 31
0.0
  0
LINE
  5
E2
330
DD
100
AcDbEntity
  8
치수문자_일반주서
 62
     0
370
    -2
100
AcDbLine
 10
68.70420333281743
 20
7.938574928723991
 30
0.0
 11
68.7042033328173
 21
42.54257492872399
 31
0.0
  0
LINE
  5
E3
330
DD
100
AcDbEntity
  8
치수문자_일반주서
 62
     0
370
    -2
100
AcDbLine
 10
68.70420333281743
 20
7.938574928723991
 30
0.0
 11
68.70420333281749
 21
-7.936425071276009
 31
0.0
  0
LINE
  5
E4
330
DD
100
AcDbEntity
  8
치수문자_일반주서
 62
     0
370
    -2
100
AcDbLine
 10
68.70420333281741
 20
11.24057492872399
 30
0.0
 11
68.7042033328174
 21
14.54257492872399
 31
0.0
  0
LINE
  5
E5
330
DD
100
AcDbEntity
  8
치수문자_일반주서
 62
     0
370
    -2
100
AcDbLine
 10
68.7042033328175
 20
-11.23842507127601
 30
0.0
 11
68.70420333281751
 21
-14.54042507127601
 31
0.0
  0
SOLID
  5
E6
330
DD
100
AcDbEntity
  8
치수문자_일반주서
 62
     0
100
AcDbTrace
 10
68.15386999948409
 20
11.24057492872399
 30
0.0
 11
69.25453666615074
 21
11.24057492872399
 31
0.0
 12
68.70420333281743
 22
7.938574928723991
 32
0.0
 13
68.70420333281743
 23
7.938574928723991
 33
0.0
  0
SOLID
  5
E7
330
DD
100
AcDbEntity
  8
치수문자_일반주서
 62
     0
100
AcDbTrace
 10
69.25453666615083
 20
-11.23842507127601
 30
0.0
 11
68.15386999948417
 21
-11.23842507127601
 31
0.0
 12
68.70420333281749
 22
-7.936425071276009
 32
0.0
 13
68.70420333281749
 23
-7.936425071276009
 33
0.0
  0
MTEXT
  5
E8
330
DD
100
AcDbEntity
  8
치수문자_일반주서
 62
     0
100
AcDbMText
 10
64.32920333281736
 20
28.54257492872397
 30
0.0
 40
3.5
 41
0.0
 71
     2
 72
     1
  1
\A1;%%c15.88 [5/8]
  7
SLDTEXTSTYLE0
 11
-3.580687802255623E-15
 21
1.0
 31
0.0
 73
     1
 44
1.0
  0
POINT
  5
E9
330
DD
100
AcDbEntity
  8
Defpoints
 62
     0
100
AcDbPoint
 10
43.75
 20
7.9385749287239
 30
0.0
  0
POINT
  5
176
330
DD
100
AcDbEntity
  8
Defpoints
 62
     0
100
AcDbPoint
 10
43.75
 20
-7.9364250712761
 30
0.0
  0
POINT
  5
177
330
DD
100
AcDbEntity
  8
Defpoints
 62
     0
100
AcDbPoint
 10
68.70420333281749
 20
-7.936425071276007
 30
0.0
  0
ENDBLK
  5
DF
330
DD
100
AcDbEntity
  8
0
100
AcDbBlockEnd
  0
BLOCK
  5
F1
330
F0
100
AcDbEntity
  8
0
100
AcDbBlockBegin
  2
_D_2
 70
     0
 10
0.0
 20
0.0
 30
0.0
  3
_D_2
  1
_D_2
  0
LINE
  5
F3
330
F0
100
AcDbEntity
  8
치수문자_일반주서
 62
     0
370
    -2
100
AcDbLine
 10
43.75
 20
8.001074928723899
 30
0.0
 11
43.75
 21
29.41565821909875
 31
0.0
  0
LINE
  5
F4
330
F0
100
AcDbEntity
  8
치수문자_일반주서
 62
     0
370
    -2
100
AcDbLine
 10
11.99999999999999
 20
7.39157159943993
 30
0.0
 11
11.99999999999999
 21
29.41565821909875
 31
0.0
  0
LINE
  5
F5
330
F0
100
AcDbEntity
  8
치수문자_일반주서
 62
     0
370
    -2
100
AcDbLine
 10
40.448
 20
29.41565821909875
 30
0.0
 11
15.30199999999999
 21
29.41565821909875
 31
0.0
  0
SOLID
  5
F6
330
F0
100
AcDbEntity
  8
치수문자_일반주서
 62
     0
100
AcDbTrace
 10
40.448
 20
28.86532488576541
 30
0.0
 11
40.448
 21
29.96599155243208
 31
0.0
 12
43.75
 22
29.41565821909875
 32
0.0
 13
43.75
 23
29.41565821909875
 33
0.0
  0
SOLID
  5
F7
330
F0
100
AcDbEntity
  8
치수문자_일반주서
 62
     0
100
AcDbTrace
 10
15.30199999999999
 20
29.96599155243208
 30
0.0
 11
15.30199999999999
 21
28.86532488576541
 31
0.0
 12
11.99999999999999
 22
29.41565821909875
 32
0.0
 13
11.99999999999999
 23
29.41565821909875
 33
0.0
  0
MTEXT
  5
F8
330
F0
100
AcDbEntity
  8
치수문자_일반주서
 62
     0
100
AcDbMText
 10
28.46153839318005
 20
33.79065821909875
 30
0.0
 40
3.5
 41
0.0
 71
     2
 72
     1
  1
\A1;31.75 [1 1/4]
  7
SLDTEXTSTYLE0
 73
     1
 44
1.0
  0
POINT
  5
F9
330
F0
100
AcDbEntity
  8
Defpoints
 62
     0
100
AcDbPoint
 10
43.75
 20
7.9385749287239
 30
0.0
  0
POINT
  5
FA
330
F0
100
AcDbEntity
  8
Defpoints
 62
     0
100
AcDbPoint
 10
11.99999999999999
 20
7.32907159943993
 30
0.0
  0
POINT
  5
FB
330
F0
100
AcDbEntity
  8
Defpoints
 62
     0
100
AcDbPoint
 10
11.99999999999999
 20
29.41565821909875
 30
0.0
  0
ENDBLK
  5
F2
330
F0
100
AcDbEntity
  8
0
100
AcDbBlockEnd
  0
BLOCK
  5
105
330
104
100
AcDbEntity
  8
0
100
AcDbBlockBegin
  2
_D_3
 70
     0
 10
0.0
 20
0.0
 30
0.0
  3
_D_3
  1
_D_3
  0
LINE
  5
107
330
104
100
AcDbEntity
  8
치수문자_일반주서
 62
     0
370
    -2
100
AcDbLine
 10
43.75
 20
8.001074928723899
 30
0.0
 11
43.75
 21
45.21364781181409
 31
0.0
  0
LINE
  5
108
330
104
100
AcDbEntity
  8
치수문자_일반주서
 62
     0
370
    -2
100
AcDbLine
 10
-45.15000000000002
 20
6.413574928723897
 30
0.0
 11
-45.15000000000002
 21
45.21364781181409
 31
0.0
  0
LINE
  5
109
330
104
100
AcDbEntity
  8
치수문자_일반주서
 62
     0
370
    -2
100
AcDbLine
 10
40.448
 20
45.21364781181409
 30
0.0
 11
-41.84800000000002
 21
45.21364781181409
 31
0.0
  0
SOLID
  5
10A
330
104
100
AcDbEntity
  8
치수문자_일반주서
 62
     0
100
AcDbTrace
 10
40.448
 20
44.66331447848076
 30
0.0
 11
40.448
 21
45.76398114514743
 31
0.0
 12
43.75
 22
45.21364781181409
 32
0.0
 13
43.75
 23
45.21364781181409
 33
0.0
  0
SOLID
  5
10B
330
104
100
AcDbEntity
  8
치수문자_일반주서
 62
     0
100
AcDbTrace
 10
-41.84800000000002
 20
45.76398114514743
 30
0.0
 11
-41.84800000000002
 21
44.66331447848076
 31
0.0
 12
-45.15000000000002
 22
45.21364781181409
 32
0.0
 13
-45.15000000000002
 23
45.21364781181409
 33
0.0
  0
MTEXT
  5
10C
330
104
100
AcDbEntity
  8
치수문자_일반주서
 62
     0
100
AcDbMText
 10
2.215862189776814
 20
49.58864781181409
 30
0.0
 40
3.5
 41
0.0
 71
     2
 72
     1
  1
\A1;88.9 [3 1/2]
  7
SLDTEXTSTYLE0
 73
     1
 44
1.0
  0
POINT
  5
10D
330
104
100
AcDbEntity
  8
Defpoints
 62
     0
100
AcDbPoint
 10
43.75
 20
7.9385749287239
 30
0.0
  0
POINT
  5
10E
330
104
100
AcDbEntity
  8
Defpoints
 62
     0
100
AcDbPoint
 10
-45.15000000000002
 20
6.351074928723897
 30
0.0
  0
POINT
  5
10F
330
104
100
AcDbEntity
  8
Defpoints
 62
     0
100
AcDbPoint
 10
-45.15000000000002
 20
45.21364781181409
 30
0.0
  0
ENDBLK
  5
106
330
104
100
AcDbEntity
  8
0
100
AcDbBlockEnd
  0
BLOCK
  5
11E
330
11D
100
AcDbEntity
  8
0
100
AcDbBlockBegin
  2
SW_DOWELSYMBOL_0
 70
     0
 10
0.0
 20
0.0
 30
0.0
  3
SW_DOWELSYMBOL_0
  1
SW_DOWELSYMBOL_0
  0
CIRCLE
  5
120
330
11D
100
AcDbEntity
  8
해칭선
 62
     0
100
AcDbCircle
 10
0.0
 20
0.0
 30
0.0
 40
3.000000000000003
  0
HATCH
  5
121
330
11D
100
AcDbEntity
  8
0
  6
Continuous
 62
     0
370
     0
100
AcDbHatch
 10
0.0
 20
0.0
 30
0.0
210
0.0
220
0.0
230
1.0
  2
SOLID
 70
     1
 71
     0
 91
        1
 92
        0
 93
        3
 72
     2
 10
0.0
 20
0.0
 40
3.000000000000003
 50
0.0
 51
90.0
 73
     1
 72
     1
 10
0.0
 20
3.000000000000003
 11
0.0
 21
0.0
 72
     1
 10
0.0
 20
0.0
 11
3.000000000000003
 21
0.0
 97
        0
 75
     0
 76
     1
 98
        1
 10
0.0
 20
0.0
  0
HATCH
  5
122
330
11D
100
AcDbEntity
  8
0
  6
Continuous
 62
     0
370
     0
100
AcDbHatch
 10
0.0
 20
0.0
 30
0.0
210
0.0
220
0.0
230
1.0
  2
SOLID
 70
     1
 71
     0
 91
        1
 92
        0
 93
        3
 72
     2
 10
0.0
 20
0.0
 40
3.000000000000003
 50
180.0
 51
270.0000000000007
 73
     1
 72
     1
 10
0.0
 20
-3.000000000000003
 11
0.0
 21
0.0
 72
     1
 10
0.0
 20
0.0
 11
-3.000000000000003
 21
0.0
 97
        0
 75
     0
 76
     1
 98
        1
 10
0.0
 20
0.0
  0
ENDBLK
  5
11F
330
11D
100
AcDbEntity
  8
0
100
AcDbBlockEnd
  0
ENDSEC
  0
SECTION
  2
ENTITIES
  0
LINE
  5
96
330
1F
100
AcDbEntity
  8
0
  6
Continuous
 62
     1
370
    15
100
AcDbLine
 10
40.79726945250353
 20
2.351974562744047
 30
0.0
 11
40.74114757267952
 21
2.382312424820268
 31
0.0
  0
LINE
  5
97
330
1F
100
AcDbEntity
  8
0
  6
Continuous
 62
     1
370
    15
100
AcDbLine
 10
28.17334246050746
 20
7.938574928723892
 30
0.0
 11
23.33461226600138
 21
7.938574928723892
 31
0.0
  0
LINE
  5
98
330
1F
100
AcDbEntity
  8
0
  6
Continuous
 62
     1
370
    15
100
AcDbLine
 10
23.3346122660013
 20
-7.936425071276105
 30
0.0
 11
28.17334246050749
 21
-7.936425071276105
 31
0.0
  0
LINE
  5
99
330
1F
100
AcDbEntity
  8
외형선
  6
Continuous
370
    15
100
AcDbLine
 10
-43.56250000000003
 20
-7.936425071276103
 30
0.0
 11
11.49992088633963
 21
-7.936425071276103
 31
0.0
  0
LINE
  5
9A
330
1F
100
AcDbEntity
  8
외형선
  6
Continuous
370
    15
100
AcDbLine
 10
11.49992088633963
 20
7.93857492872389
 30
0.0
 11
-43.56250000000003
 21
7.93857492872389
 31
0.0
  0
LINE
  5
9B
330
1F
100
AcDbEntity
  8
외형선
  6
Continuous
370
    15
100
AcDbLine
 10
-43.56250000000003
 20
7.938574928723892
 30
0.0
 11
-45.15000000000002
 21
6.351074928723897
 31
0.0
  0
LINE
  5
9C
330
1F
100
AcDbEntity
  8
외형선
  6
Continuous
370
    15
100
AcDbLine
 10
-45.15000000000002
 20
-6.348925071276111
 30
0.0
 11
-43.56250000000003
 21
-7.936425071276105
 31
0.0
  0
SPLINE
  5
9D
330
1F
100
AcDbEntity
  8
0
  6
Continuous
 62
     1
370
    15
100
AcDbSpline
210
0.0
220
0.0
230
1.0
 70
     8
 71
     3
 72
    18
 73
    14
 74
     0
 42
0.000000001
 43
0.00000001
 40
0.0
 40
0.0
 40
0.0
 40
0.0
 40
0.0905004128025525
 40
0.1810384098342835
 40
0.2715229014702854
 40
0.3619728132949607
 40
0.4524174280575262
 40
0.5428860585077844
 40
0.6334078814688416
 40
0.72393106203086
 40
0.8187122929498252
 40
0.9134746928485812
 40
1.0
 40
1.0
 40
1.0
 40
1.0
 10
12.0
 20
-3.049231784374841
 30
0.0
 10
12.74097390833891
 20
-3.436466571752841
 30
0.0
 10
14.22322944663172
 20
-4.211096962581873
 30
0.0
 10
16.44671955218852
 20
-5.24117461022879
 30
0.0
 10
18.66933807046843
 20
-6.140711425595427
 30
0.0
 10
20.89105875091796
 20
-6.878407429689603
 30
0.0
 10
23.11262123415901
 20
-7.437124913396573
 30
0.0
 10
25.33486283643292
 20
-7.801908225074231
 30
0.0
 10
27.5581229746331
 20
-7.962896918215488
 30
0.0
 10
29.81667088109812
 20
-7.916664023062743
 30
0.0
 10
32.10969368862327
 20
-7.647157494949392
 30
0.0
 10
34.3699170888288
 20
-7.185070113254981
 30
0.0
 10
35.85413778978611
 20
-6.71882355443686
 30
0.0
 10
36.56252918664616
 20
-6.496292598717593
 30
0.0
  0
SPLINE
  5
9E
330
1F
100
AcDbEntity
  8
외형선
  6
Continuous
370
    15
100
AcDbSpline
210
0.0
220
0.0
230
1.0
 70
    24
 71
     3
 72
    22
 73
    18
 74
     0
 42
0.000000001
 43
0.00000001
 40
0.0
 40
0.0
 40
0.0
 40
0.0
 40
0.1249999999999997
 40
0.1249999999999997
 40
0.2499999999999993
 40
0.2499999999999993
 40
0.3749999999999994
 40
0.3749999999999994
 40
0.4999999999999996
 40
0.4999999999999996
 40
0.6249999999999997
 40
0.6249999999999997
 40
0.7499999999999998
 40
0.7499999999999998
 40
0.8749999999999999
 40
0.8749999999999999
 40
1.0
 40
1.0
 40
1.0
 40
1.0
 10
11.99999999999999
 20
5.827945053423532
 30
0.0
 10
11.99999999999999
 20
5.637567281299313
 30
0.0
 10
11.99999999999996
 20
5.426694593505053
 30
0.0
 10
11.99999999999999
 20
5.002240727017315
 30
0.0
 10
11.99999999999999
 20
4.74565906934841
 30
0.0
 10
11.99999999999998
 20
4.117742233693785
 30
0.0
 10
11.99999999999999
 20
3.745541265678407
 30
0.0
 10
11.99999999999998
 20
2.876266744466014
 30
0.0
 10
12.00000000000001
 20
2.378023190861809
 30
0.0
 10
12.0
 20
1.295626327289694
 30
0.0
 10
11.99999999999999
 20
0.7115903616602817
 30
0.0
 10
12.0
 20
-0.4309519334671637
 30
0.0
 10
11.99999999999998
 20
-0.9865605658758916
 30
0.0
 10
11.99999999999998
 20
-1.930832738568321
 30
0.0
 10
11.99999999999996
 20
-2.316718844351822
 30
0.0
 10
11.99999999999997
 20
-2.850962694346831
 30
0.0
 10
11.99999999999999
 20
-3.00020091029285
 30
0.0
 10
11.99999999999999
 20
-3.049231784374833
 30
0.0
  0
SPLINE
  5
9F
330
1F
100
AcDbEntity
  8
0
  6
Continuous
 62
     1
370
    15
100
AcDbSpline
210
0.0
220
0.0
230
1.0
 70
     8
 71
     3
 72
    50
 73
    46
 74
     0
 42
0.000000001
 43
0.00000001
 40
0.0
 40
0.0
 40
0.0
 40
0.0
 40
0.0625000000000002
 40
0.0625000000000002
 40
0.0937500000000002
 40
0.0937500000000002
 40
0.1250000000000003
 40
0.1250000000000003
 40
0.1562500000000004
 40
0.1562500000000004
 40
0.1875000000000005
 40
0.1875000000000005
 40
0.2500000000000006
 40
0.2500000000000006
 40
0.3125000000000008
 40
0.3125000000000008
 40
0.3750000000000009
 40
0.3750000000000009
 40
0.4062500000000009
 40
0.4062500000000009
 40
0.4375000000000011
 40
0.4375000000000011
 40
0.5000000000000002
 40
0.5000000000000002
 40
0.5312500000000003
 40
0.5312500000000003
 40
0.5625000000000003
 40
0.5625000000000003
 40
0.6250000000000006
 40
0.6250000000000006
 40
0.6562500000000001
 40
0.6562500000000001
 40
0.6874999999999996
 40
0.6874999999999996
 40
0.7499999999999998
 40
0.7499999999999998
 40
0.7812499999999999
 40
0.7812499999999999
 40
0.8124999999999999
 40
0.8124999999999999
 40
0.875
 40
0.875
 40
0.9375
 40
0.9375
 40
1.0
 40
1.0
 40
1.0
 40
1.0
 10
43.75000000000001
 20
-7.9364250712761
 30
0.0
 10
43.09175240621781
 20
-7.874568330999772
 30
0.0
 10
42.42647864949106
 20
-7.814273321974015
 30
0.0
 10
41.43352557858981
 20
-7.683566306433357
 30
0.0
 10
41.10450772437082
 20
-7.633382437549766
 30
0.0
 10
40.4445034496631
 20
-7.519786765023456
 30
0.0
 10
40.11310422198005
 20
-7.456332427412519
 30
0.0
 10
39.45009242265415
 20
-7.316546791211152
 30
0.0
 10
39.11848209984929
 20
-7.240215952649988
 30
0.0
 10
38.45763891828007
 20
-7.075315446058011
 30
0.0
 10
38.12904014079014
 20
-6.986820140300167
 30
0.0
 10
37.13699599686167
 20
-6.702829026552429
 30
0.0
 10
36.47148403559484
 20
-6.489054264383609
 30
0.0
 10
35.15284851671399
 20
-6.019397094847814
 30
0.0
 10
34.48994823503556
 20
-5.762405805259144
 30
0.0
 10
33.16507112805948
 20
-5.210280824273487
 30
0.0
 10
32.50765326945568
 20
-4.915877905877084
 30
0.0
 10
31.5133408133672
 20
-4.449013195479949
 30
0.0
 10
31.18158788089569
 20
-4.28933380018411
 30
0.0
 10
30.52004113227479
 20
-3.96312161218554
 30
0.0
 10
30.19137385010437
 20
-3.796786321394882
 30
0.0
 10
29.20044217709944
 20
-3.287517175507445
 30
0.0
 10
28.53483055286098
 20
-2.934504676381298
 30
0.0
 10
27.54445010944656
 20
-2.39297794510766
 30
0.0
 10
27.21559924909838
 20
-2.210473033164063
 30
0.0
 10
26.55378706114741
 20
-1.841184613652452
 30
0.0
 10
26.22199325667395
 20
-1.654613192602102
 30
0.0
 10
25.22783531882832
 20
-1.091296575544683
 30
0.0
 10
24.57050968958
 20
-0.7116871946451465
 30
0.0
 10
23.57660757812556
 20
-0.139031022161582
 30
0.0
 10
23.24478061983789
 20
0.0522431776723366
 30
0.0
 10
22.58266612633156
 20
0.4340750089296626
 30
0.0
 10
22.25344280493509
 20
0.6244279701910957
 30
0.0
 10
21.26382638439528
 20
1.193747207221659
 30
0.0
 10
20.59825370826243
 20
1.571570776158478
 30
0.0
 10
19.60667186474937
 20
2.1268972923518
 30
0.0
 10
19.27810309599905
 20
2.309960683949468
 30
0.0
 10
18.61693503296291
 20
2.672511711573058
 30
0.0
 10
18.28525380475038
 20
2.851823912323609
 30
0.0
 10
17.29080075476992
 20
3.381750929224836
 30
0.0
 10
16.63314627950412
 20
3.723579725694027
 30
0.0
 10
15.30876368321503
 20
4.380628944188815
 30
0.0
 10
14.64458087061301
 20
4.695340450247969
 30
0.0
 10
13.32711515519284
 20
5.288426943738974
 30
0.0
 10
12.66172001107737
 20
5.568593747130397
 30
0.0
 10
11.99999999999996
 20
5.827945053423542
 30
0.0
  0
LINE
  5
A0
330
1F
100
AcDbEntity
  8
0
  6
Continuous
 62
     1
370
    15
100
AcDbLine
 10
43.74999999999999
 20
-7.187770780993585
 30
0.0
 11
43.74999999999999
 21
0.6811706384414742
 31
0.0
  0
SPLINE
  5
A1
330
1F
100
AcDbEntity
  8
0
  6
Continuous
 62
     1
370
    15
100
AcDbSpline
210
0.0
220
0.0
230
1.0
 70
     8
 71
     3
 72
    50
 73
    46
 74
     0
 42
0.000000001
 43
0.00000001
 40
0.0
 40
0.0
 40
0.0
 40
0.0
 40
0.0625000000000012
 40
0.0625000000000012
 40
0.0937500000000018
 40
0.0937500000000018
 40
0.1250000000000024
 40
0.1250000000000024
 40
0.1562500000000031
 40
0.1562500000000031
 40
0.1875000000000037
 40
0.1875000000000037
 40
0.2500000000000039
 40
0.2500000000000039
 40
0.3125000000000041
 40
0.3125000000000041
 40
0.3750000000000043
 40
0.3750000000000043
 40
0.4062500000000044
 40
0.4062500000000044
 40
0.4375000000000046
 40
0.4375000000000046
 40
0.5000000000000048
 40
0.5000000000000048
 40
0.5312500000000049
 40
0.5312500000000049
 40
0.5625000000000051
 40
0.5625000000000051
 40
0.6250000000000053
 40
0.6250000000000053
 40
0.6562500000000049
 40
0.6562500000000049
 40
0.6875000000000046
 40
0.6875000000000046
 40
0.7500000000000029
 40
0.7500000000000029
 40
0.7812500000000024
 40
0.7812500000000024
 40
0.8125000000000021
 40
0.8125000000000021
 40
0.8750000000000014
 40
0.8750000000000014
 40
0.9375000000000008
 40
0.9375000000000008
 40
1.0
 40
1.0
 40
1.0
 40
1.0
 10
43.74999999999999
 20
-7.187770780993585
 30
0.0
 10
43.09175240621788
 20
-7.026129971935699
 30
0.0
 10
42.42647864949109
 20
-6.838907738974926
 30
0.0
 10
41.43352557858985
 20
-6.523864468584157
 30
0.0
 10
41.10450772437085
 20
-6.413309284403256
 30
0.0
 10
40.44450344966309
 20
-6.181067768830141
 30
0.0
 10
40.11310422198009
 20
-6.059317216632913
 30
0.0
 10
39.45009242265417
 20
-5.805458134165662
 30
0.0
 10
39.11848209984927
 20
-5.673350453653994
 30
0.0
 10
38.45763891828007
 20
-5.399842700061186
 30
0.0
 10
38.12904014079018
 20
-5.258546755941526
 30
0.0
 10
37.13699599686167
 20
-4.820453949129329
 30
0.0
 10
36.4714840355948
 20
-4.509942752428505
 30
0.0
 10
35.15284851671397
 20
-3.861775153140028
 30
0.0
 10
34.48994823503557
 20
-3.522555792857221
 30
0.0
 10
33.16507112805949
 20
-2.822140306501626
 30
0.0
 10
32.50765326945567
 20
-2.461807258260135
 30
0.0
 10
31.51334081336718
 20
-1.908886138016925
 30
0.0
 10
31.18158788089567
 20
-1.722698133357108
 30
0.0
 10
30.5200411322748
 20
-1.34802059094466
 30
0.0
 10
30.19137385010434
 20
-1.159748469335003
 30
0.0
 10
29.20044217709944
 20
-0.591469025511025
 30
0.0
 10
28.53483055286099
 20
-0.2082825100333628
 30
0.0
 10
27.54445010944658
 20
0.3640600726150506
 30
0.0
 10
27.21559924909841
 20
0.5544467018844352
 30
0.0
 10
26.55378706114745
 20
0.934718780082707
 30
0.0
 10
26.221993256674
 20
1.124378192776941
 30
0.0
 10
25.22783531882833
 20
1.689700621238639
 30
0.0
 10
24.57050968958005
 20
2.060997664321691
 30
0.0
 10
23.57660757812562
 20
2.606777219581223
 30
0.0
 10
23.24478061983794
 20
2.786690775230833
 30
0.0
 10
22.58266612633161
 20
3.14109001171007
 30
0.0
 10
22.25344280493514
 20
3.315391765787305
 30
0.0
 10
21.26382638439531
 20
3.829582500355648
 30
0.0
 10
20.5982537082625
 20
4.161234589459292
 30
0.0
 10
19.6066718647494
 20
4.634225098239679
 30
0.0
 10
19.27810309599912
 20
4.787702923598201
 30
0.0
 10
18.61693503296293
 20
5.086718256055576
 30
0.0
 10
18.28525380475041
 20
5.232102216092644
 30
0.0
 10
17.29080075476994
 20
5.654143744099478
 30
0.0
 10
16.63314627950417
 20
5.916102163413316
 30
0.0
 10
15.30876368321505
 20
6.398405792880792
 30
0.0
 10
14.64458087061303
 20
6.618313422036952
 30
0.0
 10
13.32711515519287
 20
7.00967431030771
 30
0.0
 10
12.6617200110774
 20
7.182298069726311
 30
0.0
 10
11.99999999999999
 20
7.329071599439925
 30
0.0
  0
SPLINE
  5
A2
330
1F
100
AcDbEntity
  8
0
  6
Continuous
 62
     1
370
    15
100
AcDbSpline
210
0.0
220
0.0
230
1.0
 70
     8
 71
     3
 72
    20
 73
    16
 74
     0
 42
0.000000001
 43
0.00000001
 40
0.0
 40
0.0
 40
0.0
 40
0.0
 40
0.0772194983280149
 40
0.1543933722470515
 40
0.2315465089330123
 40
0.3087039129307266
 40
0.3858905646164778
 40
0.4631230994744832
 40
0.5403242494037027
 40
0.6174882431553492
 40
0.6983202467718058
 40
0.7791566420619759
 40
0.8600092021495861
 40
0.940889644459233
 40
1.0
 40
1.0
 40
1.0
 40
1.0
 10
43.75
 20
0.6811706384414737
 30
0.0
 10
43.0087667750638
 20
1.105629578252781
 30
0.0
 10
41.5267382758196
 20
1.954296670332305
 30
0.0
 10
39.30448393003383
 20
3.172003469224586
 30
0.0
 10
37.08291873465049
 20
4.308124622121928
 30
0.0
 10
34.86120477807349
 20
5.331639442293933
 30
0.0
 10
32.63859249919338
 20
6.216370203226051
 30
0.0
 10
30.41512062130262
 20
6.938718647806762
 30
0.0
 10
28.19217836953323
 20
7.480395788231007
 30
0.0
 10
25.93496526928435
 20
7.832626423372029
 30
0.0
 10
23.64273450973515
 20
7.974298422737282
 30
0.0
 10
21.3151222790256
 20
7.891798246047712
 30
0.0
 10
18.98694768615958
 20
7.577041079093894
 30
0.0
 10
16.86712696778656
 20
7.115250636965267
 30
0.0
 10
15.52333551484037
 20
6.676513779790642
 30
0.0
 10
14.95592685815729
 20
6.491259520120357
 30
0.0
  0
LINE
  5
A3
330
1F
100
AcDbEntity
  8
0
  6
Continuous
 62
     1
370
    15
100
AcDbLine
 10
43.75
 20
-7.9364250712761
 30
0.0
 11
43.74999999999999
 21
-7.187770780993585
 31
0.0
  0
LINE
  5
A4
330
1F
100
AcDbEntity
  8
외형선
  6
Continuous
370
    15
100
AcDbLine
 10
11.99999999999996
 20
5.827945053423536
 30
0.0
 11
11.99999999999999
 21
7.329071599439934
 31
0.0
  0
SPLINE
  5
A5
330
1F
100
AcDbEntity
  8
0
  6
Continuous
 62
     1
370
    15
100
AcDbSpline
210
0.0
220
0.0
230
1.0
 70
     8
 71
     3
 72
    14
 73
    10
 74
     0
 42
0.000000001
 43
0.00000001
 40
0.0
 40
0.0
 40
0.0
 40
0.0
 40
0.1032510215567468
 40
0.252710881601153
 40
0.4021410471415139
 40
0.5515632819777464
 40
0.7009993772671288
 40
0.8504710763628954
 40
1.0
 40
1.0
 40
1.0
 40
1.0
 10
28.17334246050747
 20
7.917830361642201
 30
0.0
 10
28.70949171758357
 20
7.915560187327649
 30
0.0
 10
30.02173782791415
 20
7.910003847605592
 30
0.0
 10
32.10969080013479
 20
7.647268349173791
 30
0.0
 10
34.43731708438447
 20
7.164320675102598
 30
0.0
 10
36.76478314376081
 20
6.469224438848458
 30
0.0
 10
39.09251569125614
 20
5.589288122794792
 30
0.0
 10
41.42089489384026
 20
4.555701619000731
 30
0.0
 10
42.9735325802272
 20
3.762784492241025
 30
0.0
 10
43.74999999999999
 20
3.366250052231746
 30
0.0
  0
LINE
  5
A6
330
1F
100
AcDbEntity
  8
0
  6
Continuous
 62
     1
370
    15
100
AcDbLine
 10
43.74999999999999
 20
0.6811706384414737
 30
0.0
 11
43.74999999999999
 21
3.366250052231746
 31
0.0
  0
SPLINE
  5
A7
330
1F
100
AcDbEntity
  8
0
  6
Continuous
 62
     1
370
    15
100
AcDbSpline
210
0.0
220
0.0
230
1.0
 70
     8
 71
     3
 72
    12
 73
     8
 74
     0
 42
0.000000001
 43
0.00000001
 40
0.0
 40
0.0
 40
0.0
 40
0.0
 40
0.1781715167292977
 40
0.3835743761571168
 40
0.5890480693115037
 40
0.7945634963086744
 40
0.9999999999999999
 40
0.9999999999999999
 40
0.9999999999999999
 40
0.9999999999999999
 10
23.33461226600131
 20
-7.923373441560437
 30
0.0
 10
22.66149958495349
 20
-7.912109841047593
 30
0.0
 10
21.21239716131166
 20
-7.887861136095716
 30
0.0
 10
18.9869445808075
 20
-7.575732910832913
 30
0.0
 10
16.65801495083594
 20
-7.051543804651627
 30
0.0
 10
14.32878110349056
 20
-6.330868612421636
 30
0.0
 10
12.77616097428058
 20
-5.702828371710528
 30
0.0
 10
11.99999999999998
 20
-5.388868558909579
 30
0.0
  0
LINE
  5
A8
330
1F
100
AcDbEntity
  8
외형선
  6
Continuous
370
    15
100
AcDbLine
 10
11.99999999999996
 20
-5.388868558909585
 30
0.0
 11
11.99999999999999
 21
-3.049231784374834
 31
0.0
  0
SPLINE
  5
A9
330
1F
100
AcDbEntity
  8
0
  6
Continuous
 62
     1
370
    15
100
AcDbSpline
210
0.0
220
0.0
230
1.0
 70
     8
 71
     3
 72
    11
 73
     7
 74
     0
 42
0.000000001
 43
0.00000001
 40
0.0
 40
0.0
 40
0.0
 40
0.0
 40
0.3093456340014005
 40
0.6185084940658173
 40
0.9275882796134061
 40
1.0
 40
1.0
 40
1.0
 40
1.0
 10
43.75000000000001
 20
7.9385749287239
 30
0.0
 10
43.00876707189374
 20
7.853528232813453
 30
0.0
 10
41.52673916613406
 20
7.74184670321694
 30
0.0
 10
39.30448037162914
 20
7.304273553588269
 30
0.0
 10
37.64993854876032
 20
6.885979779652752
 30
0.0
 10
36.73600489271998
 20
6.560266745310012
 30
0.0
 10
36.56252918664615
 20
6.49844245616538
 30
0.0
  0
LINE
  5
AA
330
1F
100
AcDbEntity
  8
0
  6
Continuous
 62
     1
370
    15
100
AcDbLine
 10
43.74999999999999
 20
3.366250052231746
 30
0.0
 11
43.75
 21
7.9385749287239
 31
0.0
  0
SPLINE
  5
AB
330
1F
100
AcDbEntity
  8
외형선
  6
Continuous
370
    15
100
AcDbSpline
210
0.0
220
0.0
230
1.0
 70
     8
 71
     3
 72
     9
 73
     5
 74
     0
 42
0.000000001
 43
0.00000001
 40
0.0
 40
0.0
 40
0.0
 40
0.0
 40
0.7520593957977584
 40
1.0
 40
1.0
 40
1.0
 40
1.0
 10
12.0
 20
-7.326921741992117
 30
0.0
 10
12.74097252621717
 20
-7.153423657708958
 30
0.0
 10
13.72623051296325
 20
-6.92272634144298
 30
0.0
 10
14.71161101989854
 20
-6.575260542742086
 30
0.0
 10
14.95592685815719
 20
-6.489109662672571
 30
0.0
  0
SPLINE
  5
AC
330
1F
100
AcDbEntity
  8
외형선
  6
Continuous
370
    15
100
AcDbSpline
210
0.0
220
0.0
230
1.0
 70
    24
 71
     3
 72
    11
 73
     7
 74
     0
 42
0.000000001
 43
0.00000001
 40
0.0
 40
0.0
 40
0.0
 40
0.0
 40
0.0921772485789709
 40
0.491542306714481
 40
0.9024889785908333
 40
1.0
 40
1.0
 40
1.0
 40
1.0
 10
12.00000000000002
 20
-5.451475576776577
 30
0.0
 10
12.00000000000003
 20
-5.502837464930162
 30
0.0
 10
12.00000000000003
 20
-5.776728705658557
 30
0.0
 10
11.99999999999998
 20
-6.344341329628489
 30
0.0
 10
11.99999999999995
 20
-6.928789799508593
 30
0.0
 10
11.99999999999999
 20
-7.26285531178583
 30
0.0
 10
11.99999999999999
 20
-7.326921741992123
 30
0.0
  0
LINE
  5
AD
330
1F
100
AcDbEntity
  8
외형선
  6
Continuous
370
    15
100
AcDbLine
 10
11.49992088633963
 20
7.435231216425411
 30
0.0
 11
11.49992088633963
 21
7.93857492872389
 31
0.0
  0
SPLINE
  5
AE
330
1F
100
AcDbEntity
  8
외형선
  6
Continuous
370
    15
100
AcDbSpline
210
0.0
220
0.0
230
1.0
 70
     8
 71
     3
 72
     8
 73
     4
 74
     0
 42
0.000000001
 43
0.00000001
 40
0.0
 40
0.0
 40
0.0
 40
0.0
 40
1.0
 40
1.0
 40
1.0
 40
1.0
 10
12.0
 20
7.329071599439922
 30
0.0
 10
11.83301761758739
 20
7.366109309130436
 30
0.0
 10
11.66626968243675
 20
7.401508538275531
 30
0.0
 10
11.49992088633962
 20
7.435240345062237
 30
0.0
  0
SPLINE
  5
AF
330
1F
100
AcDbEntity
  8
외형선
  6
Continuous
370
    15
100
AcDbSpline
210
0.0
220
0.0
230
1.0
 70
     8
 71
     3
 72
     8
 73
     4
 74
     0
 42
0.000000001
 43
0.00000001
 40
0.0
 40
0.0
 40
0.0
 40
0.0
 40
1.0
 40
1.0
 40
1.0
 40
1.0
 10
11.99999999999999
 20
5.827945053423533
 30
0.0
 10
11.83301761758738
 20
5.893391312085317
 30
0.0
 10
11.66626968243674
 20
5.957517878346441
 30
0.0
 10
11.49992088633962
 20
6.020266076068528
 30
0.0
  0
LINE
  5
B0
330
1F
100
AcDbEntity
  8
외형선
  6
Continuous
370
    15
100
AcDbLine
 10
11.49992088633963
 20
-2.78051212546448
 30
0.0
 11
11.49992088633963
 21
6.020271007936662
 31
0.0
  0
SPLINE
  5
B1
330
1F
100
AcDbEntity
  8
외형선
  6
Continuous
370
    15
100
AcDbSpline
210
0.0
220
0.0
230
1.0
 70
     8
 71
     3
 72
     8
 73
     4
 74
     0
 42
0.000000001
 43
0.00000001
 40
0.0
 40
0.0
 40
0.0
 40
0.0
 40
1.0
 40
1.0
 40
1.0
 40
1.0
 10
12.0
 20
-3.049231784374841
 30
0.0
 10
11.83301761758739
 20
-2.960253121298921
 30
0.0
 10
11.66626968243675
 20
-2.87064130784827
 30
0.0
 10
11.49992088633962
 20
-2.780487727863111
 30
0.0
  0
SPLINE
  5
B2
330
1F
100
AcDbEntity
  8
외형선
  6
Continuous
370
    15
100
AcDbSpline
210
0.0
220
0.0
230
1.0
 70
     8
 71
     3
 72
     8
 73
     4
 74
     0
 42
0.000000001
 43
0.00000001
 40
0.0
 40
0.0
 40
0.0
 40
0.0
 40
1.0
 40
1.0
 40
1.0
 40
1.0
 10
11.99999999999999
 20
-5.388868558909583
 30
0.0
 10
11.83301761758738
 20
-5.318117010169848
 30
0.0
 10
11.66626968243674
 20
-5.246206190166611
 30
0.0
 10
11.49992088633962
 20
-5.173211899596284
 30
0.0
  0
LINE
  5
B3
330
1F
100
AcDbEntity
  8
외형선
  6
Continuous
370
    15
100
AcDbLine
 10
11.49992088633963
 20
-7.936425071276103
 30
0.0
 11
11.49992088633963
 21
-5.173206162402616
 31
0.0
  0
SPLINE
  5
B4
330
1F
100
AcDbEntity
  8
외형선
  6
Continuous
370
    15
100
AcDbSpline
210
0.0
220
0.0
230
1.0
 70
     8
 71
     3
 72
     8
 73
     4
 74
     0
 42
0.000000001
 43
0.00000001
 40
0.0
 40
0.0
 40
0.0
 40
0.0
 40
1.0
 40
1.0
 40
1.0
 40
1.0
 10
12.0
 20
-7.326921741992117
 30
0.0
 10
11.83301761758739
 20
-7.36395945168263
 30
0.0
 10
11.66626968243675
 20
-7.399358680827723
 30
0.0
 10
11.49992088633962
 20
-7.433090487614431
 30
0.0
  0
LINE
  5
B5
330
1F
100
AcDbEntity
  8
외형선
  6
Continuous
370
    15
100
AcDbLine
 10
-43.56250000000003
 20
0.0010749287238931
 30
0.0
 11
-43.56250000000003
 21
7.93857492872389
 31
0.0
  0
LINE
  5
B6
330
1F
100
AcDbEntity
  8
외형선
  6
Continuous
370
    15
100
AcDbLine
 10
-43.56250000000003
 20
-7.936425071276103
 30
0.0
 11
-43.56250000000003
 21
0.0010749287238931
 31
0.0
  0
LINE
  5
B7
330
1F
100
AcDbEntity
  8
외형선
  6
Continuous
370
    15
100
AcDbLine
 10
-45.15000000000002
 20
0.0010749287238931
 30
0.0
 11
-45.15000000000002
 21
6.351074928723897
 31
0.0
  0
LINE
  5
B8
330
1F
100
AcDbEntity
  8
외형선
  6
Continuous
370
    15
100
AcDbLine
 10
-45.15000000000002
 20
-6.348925071276111
 30
0.0
 11
-45.15000000000002
 21
0.0010749287238931
 31
0.0
  0
SPLINE
  5
B9
330
1F
100
AcDbEntity
  8
외형선
  6
Continuous
370
    15
100
AcDbSpline
210
0.0
220
0.0
230
1.0
 70
    24
 71
     3
 72
    22
 73
    18
 74
     0
 42
0.000000001
 43
0.00000001
 40
0.0
 40
0.0
 40
0.0
 40
0.0
 40
0.1249999999999999
 40
0.1249999999999999
 40
0.2499999999999999
 40
0.2499999999999999
 40
0.3749999999999999
 40
0.3749999999999999
 40
0.5
 40
0.5
 40
0.625
 40
0.625
 40
0.7500000000000001
 40
0.7500000000000001
 40
0.875
 40
0.875
 40
1.0
 40
1.0
 40
1.0
 40
1.0
 10
11.99999999999999
 20
-3.049231784374821
 30
0.0
 10
12.0
 20
-3.000200910292824
 30
0.0
 10
11.99999999999999
 20
-2.850962694346787
 30
0.0
 10
11.99999999999998
 20
-2.316718844351747
 30
0.0
 10
11.99999999999997
 20
-1.930832738568234
 30
0.0
 10
11.99999999999998
 20
-0.9865605658757935
 30
0.0
 10
11.99999999999999
 20
-0.430951933467064
 30
0.0
 10
11.99999999999999
 20
0.7115903616603747
 30
0.0
 10
11.99999999999998
 20
1.295626327289772
 30
0.0
 10
11.99999999999998
 20
2.378023190861869
 30
0.0
 10
11.99999999999999
 20
2.876266744466067
 30
0.0
 10
11.99999999999999
 20
3.745541265678442
 30
0.0
 10
11.99999999999999
 20
4.117742233693811
 30
0.0
 10
11.99999999999999
 20
4.745659069348424
 30
0.0
 10
11.99999999999999
 20
5.002240727017327
 30
0.0
 10
11.99999999999999
 20
5.426694593505058
 30
0.0
 10
11.99999999999996
 20
5.637567281299316
 30
0.0
 10
11.99999999999997
 20
5.827945053423534
 30
0.0
  0
SPLINE
  5
BA
330
1F
100
AcDbEntity
  8
외형선
  6
Continuous
370
    15
100
AcDbSpline
210
0.0
220
0.0
230
1.0
 70
    24
 71
     3
 72
    11
 73
     7
 74
     0
 42
0.000000001
 43
0.00000001
 40
0.0
 40
0.0
 40
0.0
 40
0.0
 40
0.2659805536148132
 40
0.5352831557061322
 40
0.9348613380192751
 40
1.0
 40
1.0
 40
1.0
 40
1.0
 10
11.99999999999999
 20
-7.326921741992122
 30
0.0
 10
11.99999999999998
 20
-7.15235950795939
 30
0.0
 10
11.99999999999994
 20
-6.80105478951192
 30
0.0
 10
12.00000000000007
 20
-6.206779984391767
 30
0.0
 10
11.99999999999996
 20
-5.74503831398921
 30
0.0
 10
11.99999999999999
 20
-5.487556426205515
 30
0.0
 10
11.99999999999999
 20
-5.451465576776578
 30
0.0
  0
LINE
  5
BB
330
1F
100
AcDbEntity
  8
중심선
 48
0.8
100
AcDbLine
 10
-48.15000000000002
 20
0.0010749287238931
 30
0.0
 11
46.74999999999999
 21
0.0010749287239004
 31
0.0
  0
LINE
  5
BC
330
1F
100
AcDbEntity
  8
참조1
100
AcDbLine
 10
9.450000000000028
 20
0.0010749287238892
 30
0.0
 11
9.450000000000033
 21
-39.99892507127611
 31
0.0
  0
LINE
  5
BD
330
1F
100
AcDbEntity
  8
참조1
100
AcDbLine
 10
9.450000000000033
 20
-39.99892507127611
 30
0.0
 11
1.191143185691355
 21
-39.9989250712761
 31
0.0
  0
CIRCLE
  5
BE
330
1F
100
AcDbEntity
  8
해칭선
100
AcDbCircle
 10
0.0
 20
0.0
 30
0.0
 40
3.000000000000001
  0
INSERT
  5
BF
330
1F
100
AcDbEntity
  8
0
  6
Continuous
 62
     7
100
AcDbBlockReference
 66
     1
  2
블럭10
 10
-14.64027293212522
 20
-52.04609937292004
 30
0.0
  0
ATTRIB
  5
C0
330
BF
100
AcDbEntity
  8
FORMAT
 62
     2
100
AcDbText
 10
-24.78190894426185
 20
-49.97073246008785
 30
0.0
 40
4.233333333333333
  1
EM153040 [ 4 FLUTE ]
 41
0.75
  7
SLDTEXTSTYLE0
 11
-24.78190894426185
 21
-52.08739912675452
 31
0.0
100
AcDbAttribute
  2
AUTOATTR0
 70
     0
 74
     1
  0
SEQEND
  5
C1
330
BF
100
AcDbEntity
  8
0
  6
Continuous
 62
     7
  0
HATCH
  5
C2
330
1F
100
AcDbEntity
  8
중심선
100
AcDbHatch
 10
0.0
 20
0.0
 30
0.0
210
0.0
220
0.0
230
1.0
  2
SOLID
 70
     1
 71
     0
 91
        1
 92
        0
 93
        4
 72
     1
 10
-8.92536362774437
 20
-35.7989250712761
 11
-12.37163887158166
 21
-35.7989250712761
 72
     1
 10
-12.37163887158166
 20
-35.7989250712761
 11
-14.49986873078568
 21
-38.3352506518487
 72
     1
 10
-14.49986873078568
 20
-38.3352506518487
 11
-11.05356040183525
 21
-38.33521122254621
 72
     1
 10
-11.05356040183525
 20
-38.33521122254621
 11
-8.92536362774437
 21
-35.7989250712761
 97
        0
 75
     0
 76
     1
 98
        1
 10
-10.15000000000004
 20
0.0
  0
HATCH
  5
C3
330
1F
100
AcDbEntity
  8
중심선
100
AcDbHatch
 10
0.0
 20
0.0
 30
0.0
210
0.0
220
0.0
230
1.0
  2
SOLID
 70
     1
 71
     0
 91
        1
 92
        0
 93
        4
 72
     1
 10
-3.912599636708421
 20
-35.79892507127613
 11
-7.358874880545677
 21
-35.79892507127608
 72
     1
 10
-7.358874880545677
 20
-35.79892507127608
 11
-11.89001288890309
 21
-41.19892507127612
 72
     1
 10
-11.89001288890309
 20
-41.19892507127612
 11
-8.44373764506581
 21
-41.19892507127612
 72
     1
 10
-8.44373764506581
 20
-41.19892507127612
 11
-3.91259963670842
 21
-35.79892507127613
 97
        0
 75
     0
 76
     1
 98
        1
 10
-10.15000000000004
 20
0.0
  0
HATCH
  5
C4
330
1F
100
AcDbEntity
  8
중심선
100
AcDbHatch
 10
0.0
 20
0.0
 30
0.0
210
0.0
220
0.0
230
1.0
  2
SOLID
 70
     1
 71
     0
 91
        1
 92
        0
 93
        4
 72
     1
 10
1.100164354327447
 20
-35.7989250712761
 11
-2.346110889509614
 21
-35.79892507127613
 72
     1
 10
-2.346110889509614
 20
-35.79892507127613
 11
-9.39454779139889
 21
-44.19892507127612
 72
     1
 10
-9.39454779139889
 20
-44.19892507127612
 11
-5.948272547561609
 21
-44.19892507127612
 72
     1
 10
-5.948272547561609
 20
-44.19892507127612
 11
1.100164354327447
 21
-35.7989250712761
 97
        0
 75
     0
 76
     1
 98
        1
 10
-10.15000000000004
 20
0.0
  0
HATCH
  5
C5
330
1F
100
AcDbEntity
  8
중심선
100
AcDbHatch
 10
0.0
 20
0.0
 30
0.0
210
0.0
220
0.0
230
1.0
  2
SOLID
 70
     1
 71
     0
 91
        1
 92
        0
 93
        6
 72
     3
 10
5.900054785339673
 20
-39.99892507132738
 11
3.960054785062283
 21
1.540882976769353E-10
 40
0.3939339440162628
 50
17.09539180608439
 51
320.0019657685075
 73
     0
 72
     1
 10
7.58305444104024
 20
-38.58681907591441
 11
9.888356314741305
 21
-36.65249236586649
 72
     3
 10
5.900054785286827
 20
-39.99892507127625
 11
6.600054785286829
 21
-1.278976924368180E-13
 40
0.636358354079598
 50
39.99873849337411
 51
368.4976242363724
 73
     1
 72
     1
 10
12.32538727718743
 20
-39.03892507120613
 11
4.58012209212275
 21
-39.03892507120613
 72
     1
 10
4.58012209212275
 20
-39.03892507120613
 11
4.580097047676816
 21
-40.95892507120602
 72
     1
 10
4.580097047676816
 20
-40.95892507120602
 11
9.021476817148852
 21
-40.95892507120599
 97
        0
 75
     0
 76
     1
 98
        1
 10
-10.15000000000004
 20
0.0
  0
DIMENSION
  5
C6
330
1F
100
AcDbEntity
  8
치수문자_일반주서
100
AcDbDimension
  2
_D
 10
-56.17707927627728
 20
-7.936425071276141
 30
0.0
 11
-56.17707927627731
 21
0.0010749287238802
 31
0.0
 70
   160
  1
%%c<>
 71
     2
 42
15.87499999999997
 52
-270.0
  3
SLDDIMSTYLE0
100
AcDbAlignedDimension
 13
-43.56250000000003
 23
7.938574928723879
 33
0.0
 14
-43.56250000000003
 24
-7.936425071276093
 34
0.0
 50
90.0000000000002
100
AcDbRotatedDimension
1001
ACAD
1000
DSTYLE
1002
{
1070
   171
1070
     6
1070
   273
1070
     7
1002
}
  0
DIMENSION
  5
DB
330
1F
100
AcDbEntity
  8
치수문자_일반주서
100
AcDbDimension
  2
_D_1
 10
68.70420333281749
 20
-7.936425071276009
 30
0.0
 11
68.70420333281736
 21
28.54257492872399
 31
0.0
 70
   160
  1
%%c<>
 71
     2
 42
15.875
 52
-270.0
  3
SLDDIMSTYLE0
100
AcDbAlignedDimension
 13
43.75
 23
7.9385749287239
 33
0.0
 14
43.75
 24
-7.9364250712761
 34
0.0
 50
90.0000000000002
100
AcDbRotatedDimension
1001
ACAD
1000
DSTYLE
1002
{
1070
   171
1070
     6
1070
   273
1070
     7
1002
}
  0
DIMENSION
  5
EF
330
1F
100
AcDbEntity
  8
치수문자_일반주서
100
AcDbDimension
  2
_D_2
 10
11.99999999999999
 20
29.41565821909875
 30
0.0
 11
28.46153839318005
 21
29.41565821909875
 31
0.0
 70
   160
  1
<>
 71
     2
 42
31.75000000000001
  3
SLDDIMSTYLE0
100
AcDbAlignedDimension
 13
43.75
 23
7.9385749287239
 33
0.0
 14
11.99999999999999
 24
7.32907159943993
 34
0.0
100
AcDbRotatedDimension
1001
ACAD
1000
DSTYLE
1002
{
1070
   171
1070
     6
1070
   273
1070
     7
1002
}
  0
DIMENSION
  5
102
330
1F
100
AcDbEntity
  8
치수문자_일반주서
100
AcDbDimension
  2
_D_3
 10
-45.15000000000002
 20
45.21364781181409
 30
0.0
 11
2.215862189776814
 21
45.21364781181409
 31
0.0
 70
   160
  1
<>
 71
     2
 42
88.90000000000002
  3
SLDDIMSTYLE0
100
AcDbAlignedDimension
 13
43.75
 23
7.9385749287239
 33
0.0
 14
-45.15000000000002
 24
6.351074928723897
 34
0.0
100
AcDbRotatedDimension
1001
ACAD
1000
DSTYLE
1002
{
1070
   171
1070
     6
1070
   273
1070
     7
1002
}
  0
LINE
  5
116
330
1F
100
AcDbEntity
  8
참조1
100
AcDbLine
 10
99.16348381534561
 20
7.441074928723896
 30
0.0
 11
99.16348381534561
 21
-7.438925071276109
 31
0.0
  0
LINE
  5
117
330
1F
100
AcDbEntity
  8
참조1
100
AcDbLine
 10
111.8634838153456
 20
5.441074928723896
 30
0.0
 11
99.16348381534561
 21
5.441074928723896
 31
0.0
  0
SOLID
  5
118
330
1F
100
AcDbEntity
  8
참조1
100
AcDbTrace
 10
99.16348381534561
 20
5.441074928723896
 30
0.0
 11
105.5134838153456
 21
4.425074928723896
 31
0.0
 12
105.5134838153456
 22
6.457074928723896
 32
0.0
 13
105.5134838153456
 23
6.457074928723896
 33
0.0
  0
LINE
  5
119
330
1F
100
AcDbEntity
  8
참조1
100
AcDbLine
 10
111.8634838153456
 20
-5.438925071276109
 30
0.0
 11
99.16348381534561
 21
-5.438925071276109
 31
0.0
  0
SOLID
  5
11A
330
1F
100
AcDbEntity
  8
참조1
100
AcDbTrace
 10
99.16348381534561
 20
-5.438925071276109
 30
0.0
 11
105.5134838153456
 21
-6.454925071276109
 31
0.0
 12
105.5134838153456
 22
-4.422925071276109
 32
0.0
 13
105.5134838153456
 23
-4.422925071276109
 33
0.0
  0
MTEXT
  5
11B
330
1F
100
AcDbEntity
  8
참조1
100
AcDbMText
 10
108.5609739078159
 20
10.98929157337383
 30
0.0
 40
3.5
 41
0.0
 71
     1
 72
     1
  1
A
  7
SLDTEXTSTYLE0
 73
     1
 44
1.0
  0
MTEXT
  5
11C
330
1F
100
AcDbEntity
  8
참조1
100
AcDbMText
 10
108.5609739078159
 20
0.1092915733738259
 30
0.0
 40
3.5
 41
0.0
 71
     1
 72
     1
  1
A
  7
SLDTEXTSTYLE0
 73
     1
 44
1.0
  0
INSERT
  5
123
330
1F
100
AcDbEntity
  8
해칭선
100
AcDbBlockReference
  2
SW_DOWELSYMBOL_0
 10
0.0
 20
0.0
 30
0.0
  0
ENDSEC
  0
SECTION
  2
OBJECTS
  0
DICTIONARY
  5
C
330
0
100
AcDbDictionary
281
     1
  3
ACAD_GROUP
350
D
  3
ACAD_IMAGE_VARS
350
147
  3
ACAD_LAYOUT
350
1A
  3
ACAD_MLINESTYLE
350
17
  3
ACAD_PLOTSETTINGS
350
19
  3
ACAD_PLOTSTYLENAME
350
E
  3
ACAD_SCALELIST
350
47
  3
APPDATA
350
145
  3
DWGPROPS
350
19D
  0
DICTIONARY
  5
16E
330
2
100
AcDbDictionary
280
     1
281
     1
  3
ACAD_LAYERSTATES
360
16F
  0
DICTIONARY
  5
D
102
{ACAD_REACTORS
330
C
102
}
330
C
100
AcDbDictionary
281
     1
  0
RASTERVARIABLES
  5
147
102
{ACAD_REACTORS
330
C
102
}
330
C
100
AcDbRasterVariables
 90
        0
 70
     1
 71
     1
 72
     1
  0
DICTIONARY
  5
1A
102
{ACAD_REACTORS
330
C
102
}
330
C
100
AcDbDictionary
281
     1
  3
Layout1
350
1E
  3
Layout2
350
26
  3
Model
350
22
  0
DICTIONARY
  5
17
102
{ACAD_REACTORS
330
C
102
}
330
C
100
AcDbDictionary
281
     1
  3
Standard
350
18
  0
DICTIONARY
  5
19
102
{ACAD_REACTORS
330
C
102
}
330
C
100
AcDbDictionary
281
     1
  0
ACDBDICTIONARYWDFLT
  5
E
102
{ACAD_REACTORS
330
C
102
}
330
C
100
AcDbDictionary
281
     1
  3
Normal
350
F
100
AcDbDictionaryWithDefault
340
F
  0
DICTIONARY
  5
47
102
{ACAD_REACTORS
330
C
102
}
330
C
100
AcDbDictionary
281
     1
  3
A0
350
48
  3
A1
350
49
  3
A2
350
4A
  3
A3
350
4B
  3
A4
350
4C
  3
A5
350
4D
  3
A6
350
4E
  3
A7
350
4F
  3
A8
350
50
  3
A9
350
51
  3
B0
350
52
  3
B1
350
53
  3
B2
350
54
  3
B3
350
55
  3
B4
350
56
  3
B5
350
57
  3
B6
350
58
  3
B7
350
59
  3
B8
350
5A
  3
B9
350
5B
  3
C0
350
5C
  3
C1
350
5D
  3
C2
350
5E
  3
C3
350
5F
  3
C4
350
60
  3
C5
350
61
  3
C6
350
62
  3
C7
350
63
  3
C8
350
64
  3
C9
350
65
  3
D0
350
66
  3
D1
350
67
  3
D2
350
68
  0
DICTIONARY
  5
145
102
{ACAD_REACTORS
330
C
102
}
330
C
100
AcDbDictionary
281
     1
  0
XRECORD
  5
19D
102
{ACAD_REACTORS
330
C
102
}
330
C
100
AcDbXrecord
280
     1
  1
DWGPROPS COOKIE
  2

  3

  4

  6

  7

  8
12017012
  9

300
=
301
=
302
=
303
=
304
=
305
=
306
=
307
=
308
=
309
=
 40
0.0
 41
2458289.328482408
 42
2458294.333899132
  1

 90
        0
  0
DICTIONARY
  5
16F
102
{ACAD_REACTORS
330
16E
102
}
330
16E
100
AcDbDictionary
281
     1
  0
LAYOUT
  5
1E
102
{ACAD_REACTORS
330
1A
102
}
330
1A
100
AcDbPlotSettings
  1

  2
none_device
  4

  6

 40
0.0
 41
0.0
 42
0.0
 43
0.0
 44
0.0
 45
0.0
 46
0.0
 47
0.0
 48
0.0
 49
0.0
140
0.0
141
0.0
142
1.0
143
1.0
 70
   688
 72
     1
 73
     0
 74
     5
  7

 75
    16
147
1.0
148
0.0
149
0.0
100
AcDbLayout
  1
Layout1
 70
     1
 71
     1
 10
0.0
 20
0.0
 11
420.0
 21
297.0
 12
0.0
 22
0.0
 32
0.0
 14
1.000000000000000E+20
 24
1.000000000000000E+20
 34
1.000000000000000E+20
 15
-1.000000000000000E+20
 25
-1.000000000000000E+20
 35
-1.000000000000000E+20
146
0.0
 13
0.0
 23
0.0
 33
0.0
 16
1.0
 26
0.0
 36
0.0
 17
0.0
 27
1.0
 37
0.0
 76
     0
330
1B
  0
LAYOUT
  5
26
102
{ACAD_REACTORS
330
1A
102
}
330
1A
100
AcDbPlotSettings
  1

  2
none_device
  4

  6

 40
0.0
 41
0.0
 42
0.0
 43
0.0
 44
0.0
 45
0.0
 46
0.0
 47
0.0
 48
0.0
 49
0.0
140
0.0
141
0.0
142
1.0
143
1.0
 70
   688
 72
     1
 73
     0
 74
     5
  7

 75
    16
147
1.0
148
0.0
149
0.0
100
AcDbLayout
  1
Layout2
 70
     1
 71
     2
 10
0.0
 20
0.0
 11
0.0
 21
0.0
 12
0.0
 22
0.0
 32
0.0
 14
0.0
 24
0.0
 34
0.0
 15
0.0
 25
0.0
 35
0.0
146
0.0
 13
0.0
 23
0.0
 33
0.0
 16
1.0
 26
0.0
 36
0.0
 17
0.0
 27
1.0
 37
0.0
 76
     0
330
23
  0
LAYOUT
  5
22
102
{ACAD_REACTORS
330
1A
102
}
330
1A
100
AcDbPlotSettings
  1

  2
none_device
  4
ANSI_A_(11.00_x_8.50_Inches)
  6

 40
6.35
 41
19.05
 42
6.35000508
 43
19.05000254
 44
279.4
 45
215.9
 46
88.21999465698067
 47
84.56124367758245
 48
0.0
 49
0.0
140
0.0
141
0.0
142
0.0645587953958189
143
1.0
 70
  1696
 72
     0
 73
     0
 74
     0
  7

 75
     0
147
0.0235690232323232
148
0.0
149
0.0
100
AcDbLayout
  1
Model
 70
     1
 71
     0
 10
0.0
 20
0.0
 11
420.0
 21
297.0
 12
0.0
 22
0.0
 32
0.0
 14
-60.55207927627736
 24
-49.97073246008785
 34
0.0
 15
111.8634838153456
 25
49.58864781181409
 35
0.0
146
0.0
 13
0.0
 23
0.0
 33
0.0
 16
1.0
 26
0.0
 36
0.0
 17
0.0
 27
1.0
 37
0.0
 76
     0
330
1F
331
29
  0
MLINESTYLE
  5
18
102
{ACAD_REACTORS
330
17
102
}
330
17
100
AcDbMlineStyle
  2
Standard
 70
     0
  3

 62
   256
 51
90.0
 52
90.0
 71
     2
 49
0.5
 62
   256
  6
BYLAYER
 49
-0.5
 62
   256
  6
BYLAYER
  0
ACDBPLACEHOLDER
  5
F
102
{ACAD_REACTORS
330
E
102
}
330
E
  0
SCALE
  5
48
102
{ACAD_REACTORS
330
47
102
}
330
47
100
AcDbScale
 70
     0
300
1:1
140
1.0
141
1.0
290
     1
  0
SCALE
  5
49
102
{ACAD_REACTORS
330
47
102
}
330
47
100
AcDbScale
 70
     0
300
1:2
140
1.0
141
2.0
290
     0
  0
SCALE
  5
4A
102
{ACAD_REACTORS
330
47
102
}
330
47
100
AcDbScale
 70
     0
300
1:4
140
1.0
141
4.0
290
     0
  0
SCALE
  5
4B
102
{ACAD_REACTORS
330
47
102
}
330
47
100
AcDbScale
 70
     0
300
1:5
140
1.0
141
5.0
290
     0
  0
SCALE
  5
4C
102
{ACAD_REACTORS
330
47
102
}
330
47
100
AcDbScale
 70
     0
300
1:8
140
1.0
141
8.0
290
     0
  0
SCALE
  5
4D
102
{ACAD_REACTORS
330
47
102
}
330
47
100
AcDbScale
 70
     0
300
1:10
140
1.0
141
10.0
290
     0
  0
SCALE
  5
4E
102
{ACAD_REACTORS
330
47
102
}
330
47
100
AcDbScale
 70
     0
300
1:16
140
1.0
141
16.0
290
     0
  0
SCALE
  5
4F
102
{ACAD_REACTORS
330
47
102
}
330
47
100
AcDbScale
 70
     0
300
1:20
140
1.0
141
20.0
290
     0
  0
SCALE
  5
50
102
{ACAD_REACTORS
330
47
102
}
330
47
100
AcDbScale
 70
     0
300
1:30
140
1.0
141
30.0
290
     0
  0
SCALE
  5
51
102
{ACAD_REACTORS
330
47
102
}
330
47
100
AcDbScale
 70
     0
300
1:40
140
1.0
141
40.0
290
     0
  0
SCALE
  5
52
102
{ACAD_REACTORS
330
47
102
}
330
47
100
AcDbScale
 70
     0
300
1:50
140
1.0
141
50.0
290
     0
  0
SCALE
  5
53
102
{ACAD_REACTORS
330
47
102
}
330
47
100
AcDbScale
 70
     0
300
1:100
140
1.0
141
100.0
290
     0
  0
SCALE
  5
54
102
{ACAD_REACTORS
330
47
102
}
330
47
100
AcDbScale
 70
     0
300
2:1
140
2.0
141
1.0
290
     0
  0
SCALE
  5
55
102
{ACAD_REACTORS
330
47
102
}
330
47
100
AcDbScale
 70
     0
300
4:1
140
4.0
141
1.0
290
     0
  0
SCALE
  5
56
102
{ACAD_REACTORS
330
47
102
}
330
47
100
AcDbScale
 70
     0
300
8:1
140
8.0
141
1.0
290
     0
  0
SCALE
  5
57
102
{ACAD_REACTORS
330
47
102
}
330
47
100
AcDbScale
 70
     0
300
10:1
140
10.0
141
1.0
290
     0
  0
SCALE
  5
58
102
{ACAD_REACTORS
330
47
102
}
330
47
100
AcDbScale
 70
     0
300
100:1
140
100.0
141
1.0
290
     0
  0
SCALE
  5
59
102
{ACAD_REACTORS
330
47
102
}
330
47
100
AcDbScale
 70
     0
300
1/128" = 1'-0"
140
0.0078125
141
12.0
290
     0
  0
SCALE
  5
5A
102
{ACAD_REACTORS
330
47
102
}
330
47
100
AcDbScale
 70
     0
300
1/64" = 1'-0"
140
0.015625
141
12.0
290
     0
  0
SCALE
  5
5B
102
{ACAD_REACTORS
330
47
102
}
330
47
100
AcDbScale
 70
     0
300
1/32" = 1'-0"
140
0.03125
141
12.0
290
     0
  0
SCALE
  5
5C
102
{ACAD_REACTORS
330
47
102
}
330
47
100
AcDbScale
 70
     0
300
1/16" = 1'-0"
140
0.0625
141
12.0
290
     0
  0
SCALE
  5
5D
102
{ACAD_REACTORS
330
47
102
}
330
47
100
AcDbScale
 70
     0
300
3/32" = 1'-0"
140
0.09375
141
12.0
290
     0
  0
SCALE
  5
5E
102
{ACAD_REACTORS
330
47
102
}
330
47
100
AcDbScale
 70
     0
300
1/8" = 1'-0"
140
0.125
141
12.0
290
     0
  0
SCALE
  5
5F
102
{ACAD_REACTORS
330
47
102
}
330
47
100
AcDbScale
 70
     0
300
3/16" = 1'-0"
140
0.1875
141
12.0
290
     0
  0
SCALE
  5
60
102
{ACAD_REACTORS
330
47
102
}
330
47
100
AcDbScale
 70
     0
300
1/4" = 1'-0"
140
0.25
141
12.0
290
     0
  0
SCALE
  5
61
102
{ACAD_REACTORS
330
47
102
}
330
47
100
AcDbScale
 70
     0
300
3/8" = 1'-0"
140
0.375
141
12.0
290
     0
  0
SCALE
  5
62
102
{ACAD_REACTORS
330
47
102
}
330
47
100
AcDbScale
 70
     0
300
1/2" = 1'-0"
140
0.5
141
12.0
290
     0
  0
SCALE
  5
63
102
{ACAD_REACTORS
330
47
102
}
330
47
100
AcDbScale
 70
     0
300
3/4" = 1'-0"
140
0.75
141
12.0
290
     0
  0
SCALE
  5
64
102
{ACAD_REACTORS
330
47
102
}
330
47
100
AcDbScale
 70
     0
300
1" = 1'-0"
140
1.0
141
12.0
290
     0
  0
SCALE
  5
65
102
{ACAD_REACTORS
330
47
102
}
330
47
100
AcDbScale
 70
     0
300
1-1/2" = 1'-0"
140
1.5
141
12.0
290
     0
  0
SCALE
  5
66
102
{ACAD_REACTORS
330
47
102
}
330
47
100
AcDbScale
 70
     0
300
3" = 1'-0"
140
3.0
141
12.0
290
     0
  0
SCALE
  5
67
102
{ACAD_REACTORS
330
47
102
}
330
47
100
AcDbScale
 70
     0
300
6" = 1'-0"
140
6.0
141
12.0
290
     0
  0
SCALE
  5
68
102
{ACAD_REACTORS
330
47
102
}
330
47
100
AcDbScale
 70
     0
300
1'-0" = 1'-0"
140
12.0
141
12.0
290
     0
  0
ENDSEC
  0
EOF
