  0
SECTION
  2
HEADER
  9
$ACADVER
  1
AC1015
  9
$ACADMAINTVER
 70
     6
  9
$DWGCODEPAGE
  3
ANSI_949
  9
$INSBASE
 10
0.0
 20
0.0
 30
0.0
  9
$EXTMIN
 10
-181.3793639043334
 20
-49.97180738881176
 30
0.0
  9
$EXTMAX
 10
65.45118905242876
 20
55.0897597184768
 30
0.0
  9
$LIMMIN
 10
0.0
 20
0.0
  9
$LIMMAX
 10
420.0
 20
297.0
  9
$ORTHOMODE
 70
     1
  9
$REGENMODE
 70
     1
  9
$FILLMODE
 70
     1
  9
$QTEXTMODE
 70
     0
  9
$MIRRTEXT
 70
     1
  9
$LTSCALE
 40
1.0
  9
$ATTMODE
 70
     1
  9
$TEXTSIZE
 40
3.5
  9
$TRACEWID
 40
1.0
  9
$TEXTSTYLE
  7
Standard
  9
$CLAYER
  8
0
  9
$CELTYPE
  6
ByLayer
  9
$CECOLOR
 62
   256
  9
$CELTSCALE
 40
1.0
  9
$DISPSILH
 70
     0
  9
$DIMSCALE
 40
1.0
  9
$DIMASZ
 40
3.302
  9
$DIMEXO
 40
1.0
  9
$DIMDLI
 40
3.75
  9
$DIMRND
 40
0.0
  9
$DIMDLE
 40
0.0
  9
$DIMEXE
 40
1.0
  9
$DIMTP
 40
0.0
  9
$DIMTM
 40
0.0
  9
$DIMTXT
 40
3.5
  9
$DIMCEN
 40
2.5
  9
$DIMTSZ
 40
0.0
  9
$DIMTOL
 70
     0
  9
$DIMLIM
 70
     0
  9
$DIMTIH
 70
     1
  9
$DIMTOH
 70
     1
  9
$DIMSE1
 70
     0
  9
$DIMSE2
 70
     0
  9
$DIMTAD
 70
     1
  9
$DIMZIN
 70
     0
  9
$DIMBLK
  1

  9
$DIMASO
 70
     1
  9
$DIMSHO
 70
     1
  9
$DIMPOST
  1

  9
$DIMAPOST
  1

  9
$DIMALT
 70
     0
  9
$DIMALTD
 70
     3
  9
$DIMALTF
 40
0.0393700787401575
  9
$DIMLFAC
 40
1.0
  9
$DIMTOFL
 70
     1
  9
$DIMTVP
 40
0.0
  9
$DIMTIX
 70
     0
  9
$DIMSOXD
 70
     0
  9
$DIMSAH
 70
     0
  9
$DIMBLK1
  1

  9
$DIMBLK2
  1

  9
$DIMSTYLE
  2
ISO-25
  9
$DIMCLRD
 70
     0
  9
$DIMCLRE
 70
     0
  9
$DIMCLRT
 70
     0
  9
$DIMTFAC
 40
1.0
  9
$DIMGAP
 40
1.524
  9
$DIMJUST
 70
     0
  9
$DIMSD1
 70
     0
  9
$DIMSD2
 70
     0
  9
$DIMTOLJ
 70
     0
  9
$DIMTZIN
 70
     0
  9
$DIMALTZ
 70
     0
  9
$DIMALTTZ
 70
     0
  9
$DIMUPT
 70
     0
  9
$DIMDEC
 70
     2
  9
$DIMTDEC
 70
     2
  9
$DIMALTU
 70
     2
  9
$DIMALTTD
 70
     3
  9
$DIMTXSTY
  7
Standard
  9
$DIMAUNIT
 70
     0
  9
$DIMADEC
 70
     2
  9
$DIMALTRND
 40
0.0
  9
$DIMAZIN
 70
     0
  9
$DIMDSEP
 70
    44
  9
$DIMATFIT
 70
     3
  9
$DIMFRAC
 70
     0
  9
$DIMLDRBLK
  1

  9
$DIMLUNIT
 70
     2
  9
$DIMLWD
 70
    -2
  9
$DIMLWE
 70
    -2
  9
$DIMTMOVE
 70
     0
  9
$LUNITS
 70
     2
  9
$LUPREC
 70
     2
  9
$SKETCHINC
 40
1.0
  9
$FILLETRAD
 40
10.0
  9
$AUNITS
 70
     0
  9
$AUPREC
 70
     2
  9
$MENU
  1
.
  9
$ELEVATION
 40
0.0
  9
$PELEVATION
 40
0.0
  9
$THICKNESS
 40
0.0
  9
$LIMCHECK
 70
     0
  9
$CHAMFERA
 40
0.0
  9
$CHAMFERB
 40
0.0
  9
$CHAMFERC
 40
0.0
  9
$CHAMFERD
 40
0.0
  9
$SKPOLY
 70
     0
  9
$TDCREATE
 40
2458299.579814005
  9
$TDUCREATE
 40
2458299.204814005
  9
$TDUPDATE
 40
2458302.629369479
  9
$TDUUPDATE
 40
2458302.254369479
  9
$TDINDWG
 40
0.0017840972
  9
$TDUSRTIMER
 40
0.0017840856
  9
$USRTIMER
 70
     1
  9
$ANGBASE
 50
0.0
  9
$ANGDIR
 70
     0
  9
$PDMODE
 70
     0
  9
$PDSIZE
 40
-1.0
  9
$PLINEWID
 40
0.0
  9
$SPLFRAME
 70
     0
  9
$SPLINETYPE
 70
     6
  9
$SPLINESEGS
 70
     8
  9
$HANDSEED
  5
2C1
  9
$SURFTAB1
 70
     6
  9
$SURFTAB2
 70
     6
  9
$SURFTYPE
 70
     6
  9
$SURFU
 70
     6
  9
$SURFV
 70
     6
  9
$UCSBASE
  2

  9
$UCSNAME
  2

  9
$UCSORG
 10
0.0
 20
0.0
 30
0.0
  9
$UCSXDIR
 10
1.0
 20
0.0
 30
0.0
  9
$UCSYDIR
 10
0.0
 20
1.0
 30
0.0
  9
$UCSORTHOREF
  2

  9
$UCSORTHOVIEW
 70
     0
  9
$UCSORGTOP
 10
0.0
 20
0.0
 30
0.0
  9
$UCSORGBOTTOM
 10
0.0
 20
0.0
 30
0.0
  9
$UCSORGLEFT
 10
0.0
 20
0.0
 30
0.0
  9
$UCSORGRIGHT
 10
0.0
 20
0.0
 30
0.0
  9
$UCSORGFRONT
 10
0.0
 20
0.0
 30
0.0
  9
$UCSORGBACK
 10
0.0
 20
0.0
 30
0.0
  9
$PUCSBASE
  2

  9
$PUCSNAME
  2

  9
$PUCSORG
 10
0.0
 20
0.0
 30
0.0
  9
$PUCSXDIR
 10
1.0
 20
0.0
 30
0.0
  9
$PUCSYDIR
 10
0.0
 20
1.0
 30
0.0
  9
$PUCSORTHOREF
  2

  9
$PUCSORTHOVIEW
 70
     0
  9
$PUCSORGTOP
 10
0.0
 20
0.0
 30
0.0
  9
$PUCSORGBOTTOM
 10
0.0
 20
0.0
 30
0.0
  9
$PUCSORGLEFT
 10
0.0
 20
0.0
 30
0.0
  9
$PUCSORGRIGHT
 10
0.0
 20
0.0
 30
0.0
  9
$PUCSORGFRONT
 10
0.0
 20
0.0
 30
0.0
  9
$PUCSORGBACK
 10
0.0
 20
0.0
 30
0.0
  9
$USERI1
 70
     0
  9
$USERI2
 70
     0
  9
$USERI3
 70
     0
  9
$USERI4
 70
     0
  9
$USERI5
 70
     0
  9
$USERR1
 40
0.0
  9
$USERR2
 40
0.0
  9
$USERR3
 40
0.0
  9
$USERR4
 40
0.0
  9
$USERR5
 40
0.0
  9
$WORLDVIEW
 70
     1
  9
$SHADEDGE
 70
     3
  9
$SHADEDIF
 70
    70
  9
$TILEMODE
 70
     1
  9
$MAXACTVP
 70
    64
  9
$PINSBASE
 10
0.0
 20
0.0
 30
0.0
  9
$PLIMCHECK
 70
     0
  9
$PEXTMIN
 10
1.000000000000000E+20
 20
1.000000000000000E+20
 30
1.000000000000000E+20
  9
$PEXTMAX
 10
-1.000000000000000E+20
 20
-1.000000000000000E+20
 30
-1.000000000000000E+20
  9
$PLIMMIN
 10
0.0
 20
0.0
  9
$PLIMMAX
 10
0.0
 20
0.0
  9
$UNITMODE
 70
     0
  9
$VISRETAIN
 70
     1
  9
$PLINEGEN
 70
     0
  9
$PSLTSCALE
 70
     1
  9
$TREEDEPTH
 70
  3020
  9
$CMLSTYLE
  2
Standard
  9
$CMLJUST
 70
     0
  9
$CMLSCALE
 40
20.0
  9
$PROXYGRAPHICS
 70
     1
  9
$MEASUREMENT
 70
     1
  9
$CELWEIGHT
370
    -1
  9
$ENDCAPS
280
     0
  9
$JOINSTYLE
280
     0
  9
$LWDISPLAY
290
     1
  9
$INSUNITS
 70
     4
  9
$HYPERLINKBASE
  1

  9
$STYLESHEET
  1

  9
$XEDIT
290
     1
  9
$CEPSNTYPE
380
     0
  9
$PSTYLEMODE
290
     1
  9
$FINGERPRINTGUID
  2
{654BB51B-E851-4B6F-A347-43EFF4249D39}
  9
$VERSIONGUID
  2
{FAEB1C32-E019-11D5-929B-00C0DF256EC4}
  9
$EXTNAMES
290
     1
  9
$PSVPSCALE
 40
0.0
  9
$OLESTARTUP
290
     0
  0
ENDSEC
  0
SECTION
  2
CLASSES
  0
CLASS
  1
ACDBDICTIONARYWDFLT
  2
AcDbDictionaryWithDefault
  3
ObjectDBX Classes
 90
        0
280
     0
281
     0
  0
CLASS
  1
VISUALSTYLE
  2
AcDbVisualStyle
  3
ObjectDBX Classes
 90
     4095
280
     0
281
     0
  0
CLASS
  1
MATERIAL
  2
AcDbMaterial
  3
ObjectDBX Classes
 90
     1153
280
     0
281
     0
  0
CLASS
  1
SCALE
  2
AcDbScale
  3
ObjectDBX Classes
 90
     1153
280
     0
281
     0
  0
CLASS
  1
SUN
  2
AcDbSun
  3
SCENEOE
 90
     1153
280
     0
281
     0
  0
CLASS
  1
ACDBPLACEHOLDER
  2
AcDbPlaceHolder
  3
ObjectDBX Classes
 90
        0
280
     0
281
     0
  0
CLASS
  1
LAYOUT
  2
AcDbLayout
  3
ObjectDBX Classes
 90
        0
280
     0
281
     0
  0
CLASS
  1
TABLESTYLE
  2
AcDbTableStyle
  3
ObjectDBX Classes
 90
     4095
280
     0
281
     0
  0
CLASS
  1
MLEADERSTYLE
  2
AcDbMLeaderStyle
  3
ACDB_MLEADERSTYLE_CLASS
 90
     4095
280
     0
281
     0
  0
ENDSEC
  0
SECTION
  2
TABLES
  0
TABLE
  2
VPORT
  5
8
330
0
100
AcDbSymbolTable
 70
     1
  0
VPORT
  5
29
330
8
100
AcDbSymbolTableRecord
100
AcDbViewportTableRecord
  2
*Active
 70
     0
 10
0.0
 20
0.0
 11
1.0
 21
1.0
 12
-57.96408742595233
 22
2.558976164832522
 13
0.0
 23
0.0
 14
10.0
 24
10.0
 15
10.0
 25
10.0
 16
0.0
 26
0.0
 36
1.0
 17
0.0
 27
0.0
 37
0.0
 40
117.1622358034764
 41
2.148876404494382
 42
50.0
 43
0.0
 44
0.0
 50
0.0
 51
0.0
 71
    16
 72
  2000
 73
     1
 74
     3
 75
     0
 76
     0
 77
     0
 78
     0
281
     0
 65
     1
110
0.0
120
0.0
130
0.0
111
1.0
121
0.0
131
0.0
112
0.0
122
1.0
132
0.0
 79
     0
146
0.0
  0
ENDTAB
  0
TABLE
  2
LTYPE
  5
5
330
0
100
AcDbSymbolTable
 70
     6
  0
LTYPE
  5
14
330
5
100
AcDbSymbolTableRecord
100
AcDbLinetypeTableRecord
  2
ByBlock
 70
     0
  3

 72
    65
 73
     0
 40
0.0
  0
LTYPE
  5
15
330
5
100
AcDbSymbolTableRecord
100
AcDbLinetypeTableRecord
  2
ByLayer
 70
     0
  3

 72
    65
 73
     0
 40
0.0
  0
LTYPE
  5
16
330
5
100
AcDbSymbolTableRecord
100
AcDbLinetypeTableRecord
  2
Continuous
 70
     0
  3
Solid line
 72
    65
 73
     0
 40
0.0
  0
LTYPE
  5
6A
330
5
100
AcDbSymbolTableRecord
100
AcDbLinetypeTableRecord
  2
HIDDEN
 70
     0
  3
Hidden __ __ __ __ __ __ __ __ __ __ __ __ __ __
 72
    65
 73
     2
 40
1.905
 49
1.27
 74
     0
 49
-0.635
 74
     0
  0
LTYPE
  5
6B
330
5
100
AcDbSymbolTableRecord
100
AcDbLinetypeTableRecord
  2
PHANTOM
 70
     0
  3
Phantom ______  __  __  ______  __  __  ______
 72
    65
 73
     6
 40
12.7
 49
6.35
 74
     0
 49
-1.27
 74
     0
 49
1.27
 74
     0
 49
-1.27
 74
     0
 49
1.27
 74
     0
 49
-1.27
 74
     0
  0
LTYPE
  5
6C
330
5
100
AcDbSymbolTableRecord
100
AcDbLinetypeTableRecord
  2
CENTER
 70
     0
  3
Center ____ _ ____ _ ____ _ ____ _ ____ _ ____
 72
    65
 73
     4
 40
10.16
 49
6.35
 74
     0
 49
-1.27
 74
     0
 49
1.27
 74
     0
 49
-1.27
 74
     0
  0
LTYPE
  5
6D
330
5
100
AcDbSymbolTableRecord
100
AcDbLinetypeTableRecord
  2
CENTERX2
 70
     0
  3
Center (2x) ________  __  ________  __  _____
 72
    65
 73
     4
 40
20.32
 49
12.7
 74
     0
 49
-2.54
 74
     0
 49
2.54
 74
     0
 49
-2.54
 74
     0
  0
LTYPE
  5
6E
330
5
100
AcDbSymbolTableRecord
100
AcDbLinetypeTableRecord
  2
DOT2
 70
     0
  3
Dot (.5x) ........................................
 72
    65
 73
     2
 40
0.635
 49
0.0
 74
     0
 49
-0.635
 74
     0
  0
ENDTAB
  0
TABLE
  2
LAYER
  5
2
330
0
100
AcDbSymbolTable
 70
    18
  0
LAYER
  5
10
330
2
100
AcDbSymbolTableRecord
100
AcDbLayerTableRecord
  2
0
 70
     0
 62
     7
  6
Continuous
370
    -3
390
F
  0
LAYER
  5
6F
330
2
100
AcDbSymbolTableRecord
100
AcDbLayerTableRecord
  2
FORMAT
 70
     0
 62
     2
  6
Continuous
370
    -3
390
F
  0
LAYER
  5
70
330
2
100
AcDbSymbolTableRecord
100
AcDbLayerTableRecord
  2
외형선
 70
     0
 62
     4
  6
Continuous
370
    30
390
F
  0
LAYER
  5
71
330
2
100
AcDbSymbolTableRecord
100
AcDbLayerTableRecord
  2
숨은선
 70
     0
 62
     2
  6
HIDDEN
370
    15
390
F
  0
LAYER
  5
72
330
2
100
AcDbSymbolTableRecord
100
AcDbLayerTableRecord
  2
중심선
 70
     0
 62
     1
  6
CENTERX2
370
    -3
390
F
  0
LAYER
  5
73
330
2
100
AcDbSymbolTableRecord
100
AcDbLayerTableRecord
  2
파단선
 70
     0
 62
     4
  6
Continuous
370
    -3
390
F
  0
LAYER
  5
74
330
2
100
AcDbSymbolTableRecord
100
AcDbLayerTableRecord
  2
해칭선
 70
     0
 62
   100
  6
Continuous
370
    -3
390
F
  0
LAYER
  5
75
330
2
100
AcDbSymbolTableRecord
100
AcDbLayerTableRecord
  2
가는실선
 70
     0
 62
     4
  6
Continuous
370
    -3
390
F
  0
LAYER
  5
76
330
2
100
AcDbSymbolTableRecord
100
AcDbLayerTableRecord
  2
치수_보조선
 70
     0
 62
     4
  6
Continuous
370
    -3
390
F
  0
LAYER
  5
77
330
2
100
AcDbSymbolTableRecord
100
AcDbLayerTableRecord
  2
치수문자_일반주서
 70
     0
 62
     7
  6
Continuous
370
    15
390
F
  0
LAYER
  5
78
330
2
100
AcDbSymbolTableRecord
100
AcDbLayerTableRecord
  2
개별주서
 70
     0
 62
   100
  6
Continuous
370
    30
390
F
  0
LAYER
  5
79
330
2
100
AcDbSymbolTableRecord
100
AcDbLayerTableRecord
  2
중간선
 70
     0
 62
     2
  6
Continuous
370
    15
390
F
  0
LAYER
  5
7A
330
2
100
AcDbSymbolTableRecord
100
AcDbLayerTableRecord
  2
윤곽선
 70
     0
 62
     3
  6
Continuous
370
    40
390
F
  0
LAYER
  5
7B
330
2
100
AcDbSymbolTableRecord
100
AcDbLayerTableRecord
  2
중심마크
 70
     0
 62
   100
  6
Continuous
370
    30
390
F
  0
LAYER
  5
7C
330
2
100
AcDbSymbolTableRecord
100
AcDbLayerTableRecord
  2
가상선
 70
     0
 62
     4
  6
PHANTOM
370
    -3
390
F
  0
LAYER
  5
7D
330
2
100
AcDbSymbolTableRecord
100
AcDbLayerTableRecord
  2
특수지정선
 70
     0
 62
     5
  6
CENTERX2
370
    60
390
F
  0
LAYER
  5
7E
330
2
100
AcDbSymbolTableRecord
100
AcDbLayerTableRecord
  2
참조1
 70
     0
 62
    -4
  6
Continuous
370
    -3
390
F
  0
LAYER
  5
136
330
2
100
AcDbSymbolTableRecord
100
AcDbLayerTableRecord
  2
Defpoints
 70
     0
 62
     7
  6
Continuous
290
     0
370
    -3
390
F
  0
ENDTAB
  0
TABLE
  2
STYLE
  5
3
330
0
100
AcDbSymbolTable
 70
     2
  0
STYLE
  5
11
330
3
100
AcDbSymbolTableRecord
100
AcDbTextStyleTableRecord
  2
Standard
 70
     0
 40
0.0
 41
1.0
 50
0.0
 71
     0
 42
3.5
  3
txt
  4

  0
STYLE
  5
94
330
3
100
AcDbSymbolTableRecord
100
AcDbTextStyleTableRecord
  2
SLDTEXTSTYLE0
 70
     0
 40
0.0
 41
0.75
 50
0.0
 71
     0
 42
3.5
  3
TXT
  4

  0
ENDTAB
  0
TABLE
  2
VIEW
  5
6
330
0
100
AcDbSymbolTable
 70
     0
  0
ENDTAB
  0
TABLE
  2
UCS
  5
7
330
0
100
AcDbSymbolTable
 70
     0
  0
ENDTAB
  0
TABLE
  2
APPID
  5
9
330
0
100
AcDbSymbolTable
 70
     4
  0
APPID
  5
12
330
9
100
AcDbSymbolTableRecord
100
AcDbRegAppTableRecord
  2
ACAD
 70
     0
  0
APPID
  5
2B9
330
9
100
AcDbSymbolTableRecord
100
AcDbRegAppTableRecord
  2
PE_URL
 70
     0
  0
APPID
  5
2BF
330
9
100
AcDbSymbolTableRecord
100
AcDbRegAppTableRecord
  2
ACAD_DSTYLE_DIMFLIPARROW_SYMBOL
 70
     0
  0
APPID
  5
2C0
330
9
100
AcDbSymbolTableRecord
100
AcDbRegAppTableRecord
  2
ACAD_DSTYLE_DIMFLIPARROW_WHICH_SYMBOL
 70
     0
  0
ENDTAB
  0
TABLE
  2
DIMSTYLE
  5
A
330
0
100
AcDbSymbolTable
 70
     5
100
AcDbDimStyleTable
  0
DIMSTYLE
105
27
330
A
100
AcDbSymbolTableRecord
100
AcDbDimStyleTableRecord
  2
ISO-25
 70
     0
 41
2.5
 42
0.625
 43
3.75
 44
1.25
 73
     0
 74
     0
 77
     1
 78
     8
140
2.5
141
2.5
143
0.03937007874016
147
0.625
171
     3
172
     1
178
     0
271
     2
272
     2
274
     3
278
    44
283
     0
284
     8
340
11
  0
DIMSTYLE
105
B4
102
{ACAD_REACTORS
330
1B2
330
279
330
27A
330
27B
330
27C
102
}
330
A
100
AcDbSymbolTableRecord
100
AcDbDimStyleTableRecord
  2
SLDDIMSTYLE0
 70
     0
 41
3.302
 44
0.0
 45
0.000000001
 73
     0
 74
     0
 77
     1
 78
    12
 79
     3
140
3.5
143
0.0393700787401575
147
0.875
148
0.000000001
170
     1
172
     1
173
     1
178
     0
271
     2
272
     2
276
     2
284
    12
289
     0
340
94
  0
DIMSTYLE
105
C9
102
{ACAD_REACTORS
330
1C6
330
1D9
102
}
330
A
100
AcDbSymbolTableRecord
100
AcDbDimStyleTableRecord
  2
SLDDIMSTYLE1
 70
     0
 41
3.302
 44
0.0
 45
0.000000001
 73
     0
 74
     0
 77
     1
 78
    12
 79
     3
140
3.5
143
0.0393700787401575
147
0.875
148
0.000000001
170
     1
173
     1
178
     0
271
     2
272
     2
276
     2
284
    12
340
94
  0
DIMSTYLE
105
DD
102
{ACAD_REACTORS
330
1EC
102
}
330
A
100
AcDbSymbolTableRecord
100
AcDbDimStyleTableRecord
  2
SLDDIMSTYLE2
 70
     0
 41
3.302
 44
0.0
 45
0.000000001
 73
     0
 74
     0
 77
     1
 78
     4
 79
     1
140
3.5
143
0.0393700787401575
147
0.875
148
0.000000001
170
     1
172
     1
173
     1
178
     0
271
     2
272
     2
276
     2
284
    12
289
     0
340
94
  0
DIMSTYLE
105
F3
330
A
100
AcDbSymbolTableRecord
100
AcDbDimStyleTableRecord
  2
SLDDIMSTYLE3
 70
     0
 41
3.302
 44
0.0
 45
0.000000001
 73
     0
 74
     0
 77
     1
 78
     4
 79
     1
140
3.5
143
0.0393700787401575
147
0.875
148
0.000000001
170
     1
173
     1
178
     0
271
     2
272
     2
276
     2
284
    12
340
94
  0
ENDTAB
  0
TABLE
  2
BLOCK_RECORD
  5
1
330
0
100
AcDbSymbolTable
 70
    16
  0
BLOCK_RECORD
  5
1F
330
1
100
AcDbSymbolTableRecord
100
AcDbBlockTableRecord
  2
*Model_Space
340
22
  0
BLOCK_RECORD
  5
1B
330
1
100
AcDbSymbolTableRecord
100
AcDbBlockTableRecord
  2
*Paper_Space
340
1E
  0
BLOCK_RECORD
  5
23
330
1
100
AcDbSymbolTableRecord
100
AcDbBlockTableRecord
  2
*Paper_Space0
340
26
  0
BLOCK_RECORD
  5
7F
330
1
100
AcDbSymbolTableRecord
100
AcDbBlockTableRecord
  2
블럭10
340
0
102
{BLKREFS
331
0
331
195
331
272
102
}
  0
BLOCK_RECORD
  5
B5
330
1
100
AcDbSymbolTableRecord
100
AcDbBlockTableRecord
  2
_D
340
0
  0
BLOCK_RECORD
  5
CA
330
1
100
AcDbSymbolTableRecord
100
AcDbBlockTableRecord
  2
_D_1
340
0
  0
BLOCK_RECORD
  5
DE
330
1
100
AcDbSymbolTableRecord
100
AcDbBlockTableRecord
  2
_D_2
340
0
  0
BLOCK_RECORD
  5
F4
330
1
100
AcDbSymbolTableRecord
100
AcDbBlockTableRecord
  2
_D_3
340
0
  0
BLOCK_RECORD
  5
10D
330
1
100
AcDbSymbolTableRecord
100
AcDbBlockTableRecord
  2
SW_DOWELSYMBOL_0
340
0
102
{BLKREFS
331
0
331
206
331
284
102
}
  0
BLOCK_RECORD
  5
20F
330
1
100
AcDbSymbolTableRecord
100
AcDbBlockTableRecord
  2
*D8
340
0
  0
BLOCK_RECORD
  5
21B
330
1
100
AcDbSymbolTableRecord
100
AcDbBlockTableRecord
  2
*D9
340
0
  0
BLOCK_RECORD
  5
228
330
1
100
AcDbSymbolTableRecord
100
AcDbBlockTableRecord
  2
*D10
340
0
  0
BLOCK_RECORD
  5
234
330
1
100
AcDbSymbolTableRecord
100
AcDbBlockTableRecord
  2
*D11
340
0
  0
BLOCK_RECORD
  5
285
330
1
100
AcDbSymbolTableRecord
100
AcDbBlockTableRecord
  2
*D12
340
0
  0
BLOCK_RECORD
  5
291
330
1
100
AcDbSymbolTableRecord
100
AcDbBlockTableRecord
  2
*D13
340
0
  0
BLOCK_RECORD
  5
29E
330
1
100
AcDbSymbolTableRecord
100
AcDbBlockTableRecord
  2
*D14
340
0
  0
BLOCK_RECORD
  5
2AA
330
1
100
AcDbSymbolTableRecord
100
AcDbBlockTableRecord
  2
*D15
340
0
  0
ENDTAB
  0
ENDSEC
  0
SECTION
  2
BLOCKS
  0
BLOCK
  5
20
330
1F
100
AcDbEntity
  8
0
100
AcDbBlockBegin
  2
*Model_Space
 70
     0
 10
0.0
 20
0.0
 30
0.0
  3
*Model_Space
  1

  0
ENDBLK
  5
21
330
1F
100
AcDbEntity
  8
0
100
AcDbBlockEnd
  0
BLOCK
  5
1C
330
1B
100
AcDbEntity
 67
     1
  8
0
100
AcDbBlockBegin
  2
*Paper_Space
 70
     0
 10
0.0
 20
0.0
 30
0.0
  3
*Paper_Space
  1

  0
ENDBLK
  5
1D
330
1B
100
AcDbEntity
 67
     1
  8
0
100
AcDbBlockEnd
  0
BLOCK
  5
24
330
23
100
AcDbEntity
  8
0
100
AcDbBlockBegin
  2
*Paper_Space0
 70
     0
 10
0.0
 20
0.0
 30
0.0
  3
*Paper_Space0
  1

  0
ENDBLK
  5
25
330
23
100
AcDbEntity
  8
0
100
AcDbBlockEnd
  0
BLOCK
  5
80
330
7F
100
AcDbEntity
  8
0
100
AcDbBlockBegin
  2
블럭10
 70
     2
 10
0.0
 20
0.0
 30
0.0
  3
블럭10
  1

  0
ELLIPSE
  5
82
330
7F
100
AcDbEntity
  8
중심선
100
AcDbEllipse
 10
20.54032771741204
 20
12.0471743016438
 30
0.0
 11
6.600054785286829
 21
-1.261213355974178E-13
 31
0.0
210
0.0
220
0.0
230
1.0
 40
0.636358354079598
 41
0.9219305317359503
 42
6.513795318482858
  0
ELLIPSE
  5
83
330
7F
100
AcDbEntity
  8
중심선
100
AcDbEllipse
 10
20.54032771746488
 20
12.04717430159265
 30
0.0
 11
3.960054785062283
 21
1.540847449632565E-10
 31
0.0
210
0.0
220
0.0
230
1.0
 40
0.3939339440162632
 41
1.131841032648279
 42
5.62031148352944
  0
LINE
  5
84
330
7F
100
AcDbEntity
  8
중심선
100
AcDbLine
 10
2.268634060543552
 20
16.24717430164393
 30
0.0
 11
5.714909304380834
 21
16.24717430164393
 31
0.0
  0
LINE
  5
85
330
7F
100
AcDbEntity
  8
중심선
100
AcDbLine
 10
5.245725140726316
 20
7.84717430164391
 30
0.0
 11
8.692000384563599
 21
7.84717430164391
 31
0.0
  0
LINE
  5
86
330
7F
100
AcDbEntity
  8
중심선
100
AcDbLine
 10
15.74043728645272
 20
16.24717430164393
 30
0.0
 11
8.692000384563599
 21
7.84717430164391
 31
0.0
  0
LINE
  5
87
330
7F
100
AcDbEntity
  8
중심선
100
AcDbLine
 10
0.1404042013395286
 20
13.71084872107135
 30
0.0
 11
3.58671253028996
 21
13.71088815037384
 31
0.0
  0
LINE
  5
88
330
7F
100
AcDbEntity
  8
중심선
100
AcDbLine
 10
2.750260043222114
 20
10.84717430164391
 30
0.0
 11
6.196535287059397
 21
10.84717430164391
 31
0.0
  0
LINE
  5
89
330
7F
100
AcDbEntity
  8
중심선
100
AcDbLine
 10
12.29416204261559
 20
16.24717430164393
 30
0.0
 11
5.245725140726316
 21
7.84717430164391
 31
0.0
  0
LINE
  5
8A
330
7F
100
AcDbEntity
  8
중심선
100
AcDbLine
 10
10.72767329541681
 20
16.24717430164393
 30
0.0
 11
6.196535287059397
 21
10.84717430164391
 31
0.0
  0
LINE
  5
8B
330
7F
100
AcDbEntity
  8
중심선
100
AcDbLine
 10
7.28139805157953
 20
16.24717430164393
 30
0.0
 11
2.750260043222114
 21
10.84717430164391
 31
0.0
  0
LINE
  5
8C
330
7F
100
AcDbEntity
  8
중심선
100
AcDbLine
 10
5.714909304380834
 20
16.24717430164393
 30
0.0
 11
3.58671253028996
 21
13.71088815037384
 31
0.0
  0
LINE
  5
8D
330
7F
100
AcDbEntity
  8
중심선
100
AcDbLine
 10
2.268634060543552
 20
16.24717430164393
 30
0.0
 11
0.1404042013395286
 21
13.71084872107135
 31
0.0
  0
LINE
  5
8E
330
7F
100
AcDbEntity
  8
중심선
100
AcDbLine
 10
7.28139805157953
 20
16.24717430164393
 30
0.0
 11
10.72767329541681
 21
16.24717430164393
 31
0.0
  0
LINE
  5
8F
330
7F
100
AcDbEntity
  8
중심선
100
AcDbLine
 10
12.29416204261559
 20
16.24717430164393
 30
0.0
 11
15.74043728645272
 21
16.24717430164393
 31
0.0
  0
LINE
  5
90
330
7F
100
AcDbEntity
  8
중심선
100
AcDbLine
 10
19.22036997980202
 20
11.08717430171403
 30
0.0
 11
23.66174974927406
 21
11.08717430171406
 31
0.0
  0
LINE
  5
91
330
7F
100
AcDbEntity
  8
중심선
100
AcDbLine
 10
19.22039502424796
 20
13.00717430171391
 30
0.0
 11
19.22036997980202
 21
11.08717430171403
 31
0.0
  0
LINE
  5
92
330
7F
100
AcDbEntity
  8
중심선
100
AcDbLine
 10
19.22039502424796
 20
13.00717430171391
 30
0.0
 11
26.96566020931264
 21
13.00717430171391
 31
0.0
  0
LINE
  5
93
330
7F
100
AcDbEntity
  8
중심선
100
AcDbLine
 10
22.22332737316547
 20
13.45928029700563
 30
0.0
 11
24.52862924686651
 21
15.39360700705356
 31
0.0
  0
ATTDEF
  5
95
330
7F
100
AcDbEntity
  8
FORMAT
 62
     2
100
AcDbText
 10
3.448148490846466
 20
2.075366912832191
 30
0.0
 40
4.233333333333333
  1
EM102056
 41
0.75
  7
SLDTEXTSTYLE0
 11
3.448148490846466
 21
-0.0412997538344756
 31
0.0
100
AcDbAttributeDefinition
  3

  2
AUTOATTR0
 70
     0
 74
     1
  0
ENDBLK
  5
81
330
7F
100
AcDbEntity
  8
0
100
AcDbBlockEnd
  0
BLOCK
  5
B6
330
B5
100
AcDbEntity
  8
0
100
AcDbBlockBegin
  2
_D
 70
     0
 10
0.0
 20
0.0
 30
0.0
  3
_D
  1

  0
SOLID
  5
B8
330
B5
100
AcDbEntity
  8
치수문자_일반주서
100
AcDbTrace
 10
-113.3312499999999
 20
7.938574928723908
 30
0.0
 11
-112.8232499999999
 21
11.24057492872391
 31
0.0
 12
-113.8392499999999
 22
11.24057492872391
 32
0.0
 13
-113.8392499999999
 23
11.24057492872391
 33
0.0
  0
SOLID
  5
B9
330
B5
100
AcDbEntity
  8
치수문자_일반주서
100
AcDbTrace
 10
-113.3312499999999
 20
-7.936425071276121
 30
0.0
 11
-113.8392499999999
 21
-11.23842507127612
 31
0.0
 12
-112.8232499999999
 22
-11.23842507127612
 32
0.0
 13
-112.8232499999999
 23
-11.23842507127612
 33
0.0
  0
LINE
  5
BA
330
B5
100
AcDbEntity
  8
치수문자_일반주서
100
AcDbLine
 10
-124.1241317160426
 20
-4.312908248737988
 30
0.0
 11
-124.1241317160426
 21
-5.023845734302488
 31
0.0
  0
LINE
  5
BB
330
B5
100
AcDbEntity
  8
치수문자_일반주서
100
AcDbLine
 10
-124.1241317160426
 20
-5.023845734302488
 30
0.0
 11
-118.5678817249833
 21
-5.023845734302449
 31
0.0
  0
LINE
  5
BC
330
B5
100
AcDbEntity
  8
치수문자_일반주서
100
AcDbLine
 10
-118.5678817249833
 20
-5.023845734302449
 30
0.0
 11
-118.5678817249833
 21
-4.312908248737949
 31
0.0
  0
LINE
  5
BD
330
B5
100
AcDbEntity
  8
치수문자_일반주서
100
AcDbLine
 10
-124.1241317160427
 20
6.51582461339927
 30
0.0
 11
-124.1241317160427
 21
7.22676209896377
 31
0.0
  0
LINE
  5
BE
330
B5
100
AcDbEntity
  8
치수문자_일반주서
100
AcDbLine
 10
-124.1241317160427
 20
7.22676209896377
 30
0.0
 11
-118.5678817249834
 21
7.226762098963809
 31
0.0
  0
LINE
  5
BF
330
B5
100
AcDbEntity
  8
치수문자_일반주서
100
AcDbLine
 10
-118.5678817249834
 20
7.226762098963809
 30
0.0
 11
-118.5678817249834
 21
6.515824613399309
 31
0.0
  0
LINE
  5
C0
330
B5
100
AcDbEntity
  8
치수문자_일반주서
100
AcDbLine
 10
-100.5375
 20
7.938574928723908
 30
0.0
 11
-114.3312499999999
 21
7.938574928723908
 31
0.0
  0
LINE
  5
C1
330
B5
100
AcDbEntity
  8
치수문자_일반주서
100
AcDbLine
 10
-100.5375
 20
-7.936425071276121
 30
0.0
 11
-114.3312499999999
 21
-7.936425071276121
 31
0.0
  0
LINE
  5
C2
330
B5
100
AcDbEntity
  8
치수문자_일반주서
100
AcDbLine
 10
-113.3312499999999
 20
7.938574928723908
 30
0.0
 11
-113.3312499999999
 21
14.28857492872391
 31
0.0
  0
LINE
  5
C3
330
B5
100
AcDbEntity
  8
치수문자_일반주서
100
AcDbLine
 10
-113.3312499999999
 20
7.938574928723908
 30
0.0
 11
-113.3312499999999
 21
-7.936425071276121
 31
0.0
  0
LINE
  5
C4
330
B5
100
AcDbEntity
  8
치수문자_일반주서
100
AcDbLine
 10
-113.3312499999999
 20
-7.936425071276121
 30
0.0
 11
-113.3312499999999
 21
-14.28642507127612
 31
0.0
  0
MTEXT
  5
C5
330
B5
100
AcDbEntity
  8
치수문자_일반주서
100
AcDbMText
 10
-123.0796186395623
 20
-3.424236348126609
 30
0.0
 40
3.5
 41
0.0
 71
     1
 72
     1
  1
0.63
  7
SLDTEXTSTYLE0
 11
-7.044195017643634E-15
 21
1.0
 31
0.0
 73
     1
 44
1.0
  0
MTEXT
  5
C6
330
B5
100
AcDbEntity
  8
치수문자_일반주서
100
AcDbMText
 10
-117.8429870892018
 20
-7.356510760490341
 30
0.0
 40
3.5
 41
0.0
 71
     1
 72
     1
  1
%%c
  7
SLDTEXTSTYLE0
 11
-7.044195017643634E-15
 21
1.0
 31
0.0
 73
     1
 44
1.0
  0
MTEXT
  5
C7
330
B5
100
AcDbEntity
  8
치수문자_일반주서
100
AcDbMText
 10
-117.8429870892018
 20
-2.078073362116259
 30
0.0
 40
3.5
 41
0.0
 71
     1
 72
     1
  1
15.88
  7
SLDTEXTSTYLE0
 11
-7.044195017643634E-15
 21
1.0
 31
0.0
 73
     1
 44
1.0
  0
ENDBLK
  5
B7
330
B5
100
AcDbEntity
  8
0
100
AcDbBlockEnd
  0
BLOCK
  5
CB
330
CA
100
AcDbEntity
  8
0
100
AcDbBlockBegin
  2
_D_1
 70
     0
 10
0.0
 20
0.0
 30
0.0
  3
_D_1
  1

  0
SOLID
  5
CD
330
CA
100
AcDbEntity
  8
치수문자_일반주서
100
AcDbTrace
 10
82.97500000000007
 20
-6.344023125599672
 30
0.0
 11
83.48300000000006
 21
-3.042023125599672
 31
0.0
 12
82.46700000000007
 22
-3.042023125599672
 32
0.0
 13
82.46700000000007
 23
-3.042023125599672
 33
0.0
  0
SOLID
  5
CE
330
CA
100
AcDbEntity
  8
치수문자_일반주서
100
AcDbTrace
 10
82.97500000000007
 20
6.34617298304746
 30
0.0
 11
82.46700000000007
 21
3.04417298304746
 31
0.0
 12
83.48300000000006
 22
3.04417298304746
 32
0.0
 13
83.48300000000006
 23
3.04417298304746
 33
0.0
  0
LINE
  5
CF
330
CA
100
AcDbEntity
  8
치수문자_일반주서
100
AcDbLine
 10
72.18211828395731
 20
16.37354080820399
 30
0.0
 11
72.18211828395731
 21
15.6626033226395
 31
0.0
  0
LINE
  5
D0
330
CA
100
AcDbEntity
  8
치수문자_일반주서
100
AcDbLine
 10
72.18211828395731
 20
15.6626033226395
 30
0.0
 11
77.73836827501661
 21
15.6626033226395
 31
0.0
  0
LINE
  5
D1
330
CA
100
AcDbEntity
  8
치수문자_일반주서
100
AcDbLine
 10
77.73836827501661
 20
15.6626033226395
 30
0.0
 11
77.73836827501661
 21
16.37354080820399
 31
0.0
  0
LINE
  5
D2
330
CA
100
AcDbEntity
  8
치수문자_일반주서
100
AcDbLine
 10
72.18211828395731
 20
27.20227367034125
 30
0.0
 11
72.18211828395731
 21
27.91321115590575
 31
0.0
  0
LINE
  5
D3
330
CA
100
AcDbEntity
  8
치수문자_일반주서
100
AcDbLine
 10
72.18211828395731
 20
27.91321115590575
 30
0.0
 11
77.73836827501661
 21
27.91321115590575
 31
0.0
  0
LINE
  5
D4
330
CA
100
AcDbEntity
  8
치수문자_일반주서
100
AcDbLine
 10
77.73836827501661
 20
27.91321115590575
 30
0.0
 11
77.73836827501661
 21
27.20227367034125
 31
0.0
  0
LINE
  5
D5
330
CA
100
AcDbEntity
  8
치수문자_일반주서
100
AcDbLine
 10
64.97500000000005
 20
-6.344023125599673
 30
0.0
 11
83.97500000000007
 21
-6.344023125599672
 31
0.0
  0
LINE
  5
D6
330
CA
100
AcDbEntity
  8
치수문자_일반주서
100
AcDbLine
 10
64.97500000000005
 20
6.34617298304746
 30
0.0
 11
83.97500000000007
 21
6.34617298304746
 31
0.0
  0
LINE
  5
D7
330
CA
100
AcDbEntity
  8
치수문자_일반주서
100
AcDbLine
 10
82.97500000000007
 20
-6.344023125599672
 30
0.0
 11
82.97500000000007
 21
6.34617298304746
 31
0.0
  0
LINE
  5
D8
330
CA
100
AcDbEntity
  8
치수문자_일반주서
100
AcDbLine
 10
82.97500000000007
 20
6.34617298304746
 30
0.0
 11
82.97500000000007
 21
30.24587618209365
 31
0.0
  0
MTEXT
  5
D9
330
CA
100
AcDbEntity
  8
치수문자_일반주서
100
AcDbMText
 10
73.22663136043771
 20
17.26221270881537
 30
0.0
 40
3.5
 41
0.0
 71
     1
 72
     1
  1
0.50
  7
SLDTEXTSTYLE0
 11
6.123233995736766E-17
 21
1.0
 31
0.0
 73
     1
 44
1.0
  0
MTEXT
  5
DA
330
CA
100
AcDbEntity
  8
치수문자_일반주서
100
AcDbMText
 10
78.46326291079818
 20
13.3299382964516
 30
0.0
 40
3.5
 41
0.0
 71
     1
 72
     1
  1
%%c
  7
SLDTEXTSTYLE0
 11
6.123233995736766E-17
 21
1.0
 31
0.0
 73
     1
 44
1.0
  0
MTEXT
  5
DB
330
CA
100
AcDbEntity
  8
치수문자_일반주서
100
AcDbMText
 10
78.46326291079818
 20
18.60837569482568
 30
0.0
 40
3.5
 41
0.0
 71
     1
 72
     1
  1
12.69
  7
SLDTEXTSTYLE0
 11
6.123233995736766E-17
 21
1.0
 31
0.0
 73
     1
 44
1.0
  0
ENDBLK
  5
CC
330
CA
100
AcDbEntity
  8
0
100
AcDbBlockEnd
  0
BLOCK
  5
DF
330
DE
100
AcDbEntity
  8
0
100
AcDbBlockBegin
  2
_D_2
 70
     0
 10
0.0
 20
0.0
 30
0.0
  3
_D_2
  1

  0
SOLID
  5
E1
330
DE
100
AcDbEntity
  8
치수문자_일반주서
100
AcDbTrace
 10
76.67500000000001
 20
19.53702464284757
 30
0.0
 11
79.977
 21
19.02902464284757
 31
0.0
 12
79.977
 22
20.04502464284757
 32
0.0
 13
79.977
 23
20.04502464284757
 33
0.0
  0
SOLID
  5
E2
330
DE
100
AcDbEntity
  8
치수문자_일반주서
100
AcDbTrace
 10
51.27499999999997
 20
19.53702464284757
 30
0.0
 11
47.97299999999997
 21
20.04502464284757
 31
0.0
 12
47.97299999999997
 22
19.02902464284757
 32
0.0
 13
47.97299999999997
 23
19.02902464284757
 33
0.0
  0
LINE
  5
E3
330
DE
100
AcDbEntity
  8
치수문자_일반주서
100
AcDbLine
 10
58.56063391817732
 20
30.32990635889031
 30
0.0
 11
57.84969643261282
 21
30.32990635889031
 31
0.0
  0
LINE
  5
E4
330
DE
100
AcDbEntity
  8
치수문자_일반주서
100
AcDbLine
 10
57.84969643261282
 20
30.32990635889031
 30
0.0
 11
57.84969643261279
 21
24.77365636783101
 31
0.0
  0
LINE
  5
E5
330
DE
100
AcDbEntity
  8
치수문자_일반주서
100
AcDbLine
 10
57.84969643261279
 20
24.77365636783101
 30
0.0
 11
58.56063391817729
 21
24.773656367831
 31
0.0
  0
LINE
  5
E6
330
DE
100
AcDbEntity
  8
치수문자_일반주서
100
AcDbLine
 10
69.38936678031459
 20
30.32990635889023
 30
0.0
 11
70.10030426587909
 21
30.32990635889022
 31
0.0
  0
LINE
  5
E7
330
DE
100
AcDbEntity
  8
치수문자_일반주서
100
AcDbLine
 10
70.10030426587909
 20
30.32990635889022
 30
0.0
 11
70.10030426587905
 21
24.77365636783092
 31
0.0
  0
LINE
  5
E8
330
DE
100
AcDbEntity
  8
치수문자_일반주서
100
AcDbLine
 10
70.10030426587905
 20
24.77365636783092
 30
0.0
 11
69.38936678031455
 21
24.77365636783092
 31
0.0
  0
LINE
  5
E9
330
DE
100
AcDbEntity
  8
치수문자_일반주서
100
AcDbLine
 10
76.67500000000001
 20
10.49104761303117
 30
0.0
 11
76.67500000000001
 21
20.53702464284757
 31
0.0
  0
LINE
  5
EA
330
DE
100
AcDbEntity
  8
치수문자_일반주서
100
AcDbLine
 10
51.27499999999997
 20
10.51186495042693
 30
0.0
 11
51.27499999999997
 21
20.53702464284757
 31
0.0
  0
LINE
  5
EB
330
DE
100
AcDbEntity
  8
치수문자_일반주서
100
AcDbLine
 10
76.67500000000001
 20
19.53702464284757
 30
0.0
 11
83.025
 21
19.53702464284757
 31
0.0
  0
LINE
  5
EC
330
DE
100
AcDbEntity
  8
치수문자_일반주서
100
AcDbLine
 10
76.67500000000001
 20
19.53702464284757
 30
0.0
 11
51.27499999999997
 21
19.53702464284757
 31
0.0
  0
LINE
  5
ED
330
DE
100
AcDbEntity
  8
치수문자_일반주서
100
AcDbLine
 10
51.27499999999997
 20
19.53702464284757
 30
0.0
 11
44.92499999999997
 21
19.53702464284757
 31
0.0
  0
MTEXT
  5
EE
330
DE
100
AcDbEntity
  8
치수문자_일반주서
100
AcDbMText
 10
57.33593770712609
 20
24.10223390870928
 30
0.0
 40
3.5
 41
0.0
 71
     1
 72
     1
  1

  7
SLDTEXTSTYLE0
 73
     1
 44
1.0
  0
MTEXT
  5
EF
330
DE
100
AcDbEntity
  8
치수문자_일반주서
100
AcDbMText
 10
59.44930581878869
 20
29.28539328240989
 30
0.0
 40
3.5
 41
0.0
 71
     1
 72
     1
  1
1.00
  7
SLDTEXTSTYLE0
 73
     1
 44
1.0
  0
MTEXT
  5
F0
330
DE
100
AcDbEntity
  8
치수문자_일반주서
100
AcDbMText
 10
58.15625010561192
 20
24.04876173204943
 30
0.0
 40
3.5
 41
0.0
 71
     1
 72
     1
  1
25.40
  7
SLDTEXTSTYLE0
 73
     1
 44
1.0
  0
MTEXT
  5
F1
330
DE
100
AcDbEntity
  8
치수문자_일반주서
100
AcDbMText
 10
71.94600751101964
 20
24.10223390870918
 30
0.0
 40
3.5
 41
0.0
 71
     1
 72
     1
  1

  7
SLDTEXTSTYLE0
 73
     1
 44
1.0
  0
ENDBLK
  5
E0
330
DE
100
AcDbEntity
  8
0
100
AcDbBlockEnd
  0
BLOCK
  5
F5
330
F4
100
AcDbEntity
  8
0
100
AcDbBlockBegin
  2
_D_3
 70
     0
 10
0.0
 20
0.0
 30
0.0
  3
_D_3
  1

  0
SOLID
  5
F7
330
F4
100
AcDbEntity
  8
치수문자_일반주서
100
AcDbTrace
 10
76.67500000000001
 20
31.53702464284757
 30
0.0
 11
73.37300000000002
 21
32.04502464284757
 31
0.0
 12
73.37300000000002
 22
31.02902464284757
 32
0.0
 13
73.37300000000002
 23
31.02902464284757
 33
0.0
  0
SOLID
  5
F8
330
F4
100
AcDbEntity
  8
치수문자_일반주서
100
AcDbTrace
 10
-101.125
 20
31.53702464284756
 30
0.0
 11
-97.82299999999995
 21
31.02902464284756
 31
0.0
 12
-97.82299999999995
 22
32.04502464284756
 32
0.0
 13
-97.82299999999995
 23
32.04502464284756
 33
0.0
  0
LINE
  5
F9
330
F4
100
AcDbEntity
  8
치수문자_일반주서
100
AcDbLine
 10
-17.63936608182263
 20
42.3299063588903
 30
0.0
 11
-18.35030356738713
 21
42.32990635889031
 31
0.0
  0
LINE
  5
FA
330
F4
100
AcDbEntity
  8
치수문자_일반주서
100
AcDbLine
 10
-18.35030356738713
 20
42.32990635889031
 30
0.0
 11
-18.35030356738717
 21
36.773656367831
 31
0.0
  0
LINE
  5
FB
330
F4
100
AcDbEntity
  8
치수문자_일반주서
100
AcDbLine
 10
-18.35030356738717
 20
36.773656367831
 30
0.0
 11
-17.63936608182267
 21
36.77365636783099
 31
0.0
  0
LINE
  5
FC
330
F4
100
AcDbEntity
  8
치수문자_일반주서
100
AcDbLine
 10
-6.810633219685374
 20
42.32990635889023
 30
0.0
 11
-6.099695734120874
 21
42.32990635889022
 31
0.0
  0
LINE
  5
FD
330
F4
100
AcDbEntity
  8
치수문자_일반주서
100
AcDbLine
 10
-6.099695734120874
 20
42.32990635889022
 30
0.0
 11
-6.099695734120914
 21
36.77365636783092
 31
0.0
  0
LINE
  5
FE
330
F4
100
AcDbEntity
  8
치수문자_일반주서
100
AcDbLine
 10
-6.099695734120914
 20
36.77365636783092
 30
0.0
 11
-6.810633219685414
 21
36.77365636783092
 31
0.0
  0
LINE
  5
FF
330
F4
100
AcDbEntity
  8
치수문자_일반주서
100
AcDbLine
 10
76.67500000000001
 20
10.49104761303117
 30
0.0
 11
76.67500000000001
 21
32.53702464284757
 31
0.0
  0
LINE
  5
100
330
F4
100
AcDbEntity
  8
치수문자_일반주서
100
AcDbLine
 10
-101.125
 20
7.3510749287239
 30
0.0
 11
-101.125
 21
32.53702464284756
 31
0.0
  0
LINE
  5
101
330
F4
100
AcDbEntity
  8
치수문자_일반주서
100
AcDbLine
 10
76.67500000000001
 20
31.53702464284757
 30
0.0
 11
-101.125
 21
31.53702464284756
 31
0.0
  0
MTEXT
  5
102
330
F4
100
AcDbEntity
  8
치수문자_일반주서
100
AcDbMText
 10
-19.31736120432616
 20
36.10223390870929
 30
0.0
 40
3.5
 41
0.0
 71
     1
 72
     1
  1

  7
SLDTEXTSTYLE0
 73
     1
 44
1.0
  0
MTEXT
  5
103
330
F4
100
AcDbEntity
  8
치수문자_일반주서
100
AcDbMText
 10
-16.75069418121127
 20
41.28539328240989
 30
0.0
 40
3.5
 41
0.0
 71
     1
 72
     1
  1
7.00
  7
SLDTEXTSTYLE0
 73
     1
 44
1.0
  0
MTEXT
  5
104
330
F4
100
AcDbEntity
  8
치수문자_일반주서
100
AcDbMText
 10
-19.33680560756476
 20
36.04876173204944
 30
0.0
 40
3.5
 41
0.0
 71
     1
 72
     1
  1
177.80
  7
SLDTEXTSTYLE0
 73
     1
 44
1.0
  0
MTEXT
  5
105
330
F4
100
AcDbEntity
  8
치수문자_일반주서
100
AcDbMText
 10
-3.800693577528013
 20
36.10223390870917
 30
0.0
 40
3.5
 41
0.0
 71
     1
 72
     1
  1

  7
SLDTEXTSTYLE0
 73
     1
 44
1.0
  0
ENDBLK
  5
F6
330
F4
100
AcDbEntity
  8
0
100
AcDbBlockEnd
  0
BLOCK
  5
10E
330
10D
100
AcDbEntity
  8
0
100
AcDbBlockBegin
  2
SW_DOWELSYMBOL_0
 70
     0
 10
0.0
 20
0.0
 30
0.0
  3
SW_DOWELSYMBOL_0
  1

  0
CIRCLE
  5
110
330
10D
100
AcDbEntity
  8
해칭선
 62
     0
100
AcDbCircle
 10
0.0
 20
0.0
 30
0.0
 40
3.000000000000022
  0
HATCH
  5
111
330
10D
100
AcDbEntity
  8
0
  6
Continuous
 62
     0
370
     0
100
AcDbHatch
 10
0.0
 20
0.0
 30
0.0
210
0.0
220
0.0
230
1.0
  2
SOLID
 70
     1
 71
     0
 91
        1
 92
        0
 93
        3
 72
     2
 10
0.0
 20
0.0
 40
3.000000000000022
 50
0.0
 51
90.0
 73
     1
 72
     1
 10
0.0
 20
3.000000000000022
 11
0.0
 21
0.0
 72
     1
 10
0.0
 20
0.0
 11
3.000000000000024
 21
0.0
 97
        0
 75
     0
 76
     1
 98
        1
 10
0.0
 20
0.0
  0
HATCH
  5
112
330
10D
100
AcDbEntity
  8
0
  6
Continuous
 62
     0
370
     0
100
AcDbHatch
 10
0.0
 20
0.0
 30
0.0
210
0.0
220
0.0
230
1.0
  2
SOLID
 70
     1
 71
     0
 91
        1
 92
        0
 93
        3
 72
     2
 10
0.0
 20
0.0
 40
3.000000000000022
 50
180.0
 51
270.0000000000008
 73
     1
 72
     1
 10
0.0
 20
-3.000000000000022
 11
0.0
 21
0.0
 72
     1
 10
0.0
 20
0.0
 11
-3.000000000000024
 21
0.0
 97
        0
 75
     0
 76
     1
 98
        1
 10
0.0
 20
0.0
  0
ENDBLK
  5
10F
330
10D
100
AcDbEntity
  8
0
100
AcDbBlockEnd
  0
BLOCK
  5
210
330
20F
100
AcDbEntity
  8
0
100
AcDbBlockBegin
  2
*D8
 70
     1
 10
0.0
 20
0.0
 30
0.0
  3
*D8
  1

  0
LINE
  5
212
330
20F
100
AcDbEntity
  8
치수문자_일반주서
 62
     0
370
    -2
100
AcDbLine
 10
23.36474562037615
 20
59.49680738881175
 30
0.0
 11
10.79288171604277
 21
59.4968073888117
 31
0.0
  0
LINE
  5
213
330
20F
100
AcDbEntity
  8
치수문자_일반주서
 62
     0
370
    -2
100
AcDbLine
 10
23.36474562037615
 20
40.44680738881173
 30
0.0
 11
10.79288171604284
 21
40.44680738881169
 31
0.0
  0
LINE
  5
214
330
20F
100
AcDbEntity
  8
치수문자_일반주서
 62
     0
370
    -2
100
AcDbLine
 10
10.79288171604279
 20
56.1948073888117
 30
0.0
 11
10.79288171604283
 21
43.74880738881169
 31
0.0
  0
SOLID
  5
215
330
20F
100
AcDbEntity
  8
치수문자_일반주서
 62
     0
100
AcDbTrace
 10
11.34321504937612
 20
56.1948073888117
 30
0.0
 11
10.24254838270945
 21
56.1948073888117
 31
0.0
 12
10.79288171604277
 22
59.4968073888117
 32
0.0
 13
10.79288171604277
 23
59.4968073888117
 33
0.0
  0
SOLID
  5
216
330
20F
100
AcDbEntity
  8
치수문자_일반주서
 62
     0
100
AcDbTrace
 10
10.2425483827095
 20
43.74880738881169
 30
0.0
 11
11.34321504937616
 21
43.74880738881169
 31
0.0
 12
10.79288171604284
 22
40.44680738881169
 32
0.0
 13
10.79288171604284
 23
40.44680738881169
 33
0.0
  0
MTEXT
  5
217
330
20F
100
AcDbEntity
  8
치수문자_일반주서
 62
     0
100
AcDbMText
 10
6.4178817160428
 20
52.29790699374302
 30
0.0
 40
3.5
 41
0.0
 71
     2
 72
     1
  1
\A1;%%c19.05 [0.75]
  7
SLDTEXTSTYLE0
 11
-3.450141892798383E-15
 21
1.0
 31
0.0
 73
     1
 44
1.0
  0
POINT
  5
218
330
20F
100
AcDbEntity
  8
Defpoints
 62
     0
100
AcDbPoint
 10
23.42724562037615
 20
59.49680738881175
 30
0.0
  0
POINT
  5
219
330
20F
100
AcDbEntity
  8
Defpoints
 62
     0
100
AcDbPoint
 10
23.42724562037615
 20
40.44680738881173
 30
0.0
  0
POINT
  5
21A
330
20F
100
AcDbEntity
  8
Defpoints
 62
     0
100
AcDbPoint
 10
10.7928817160428
 20
40.44680738881168
 30
0.0
  0
ENDBLK
  5
211
330
20F
100
AcDbEntity
  8
0
100
AcDbBlockEnd
  0
BLOCK
  5
21C
330
21B
100
AcDbEntity
  8
0
100
AcDbBlockBegin
  2
*D9
 70
     1
 10
0.0
 20
0.0
 30
0.0
  3
*D9
  1

  0
LINE
  5
21E
330
21B
100
AcDbEntity
  8
치수문자_일반주서
 62
     0
370
    -2
100
AcDbLine
 10
224.7847455948334
 20
61.02292147252099
 30
0.0
 11
252.6951162760946
 21
60.99768811794414
 31
0.0
  0
LINE
  5
21F
330
21B
100
AcDbEntity
  8
치수문자_일반주서
 62
     0
370
    -2
100
AcDbLine
 10
224.7647455948335
 20
38.90111392922333
 30
0.0
 11
252.6751162760948
 21
38.87588057464647
 31
0.0
  0
LINE
  5
220
330
21B
100
AcDbEntity
  8
치수문자_일반주서
 62
     0
370
    -2
100
AcDbLine
 10
252.6951162760946
 20
60.99768811794414
 30
0.0
 11
252.7351515479077
 21
105.2803170178888
 31
0.0
  0
LINE
  5
221
330
21B
100
AcDbEntity
  8
치수문자_일반주서
 62
     0
370
    -2
100
AcDbLine
 10
252.6921309878048
 20
57.69568946742142
 30
0.0
 11
252.6781015643847
 21
42.17787922516918
 31
0.0
  0
SOLID
  5
222
330
21B
100
AcDbEntity
  8
치수문자_일반주서
 62
     0
100
AcDbTrace
 10
253.2424640962252
 20
57.69519191937311
 30
0.0
 11
252.1417978793843
 21
57.69618701546974
 31
0.0
 12
252.6951162760946
 22
60.99768811794414
 32
0.0
 13
252.6951162760946
 23
60.99768811794414
 33
0.0
  0
SOLID
  5
223
330
21B
100
AcDbEntity
  8
치수문자_일반주서
 62
     0
100
AcDbTrace
 10
252.1277684559642
 20
42.17837677321749
 30
0.0
 11
253.2284346728051
 21
42.17738167712086
 31
0.0
 12
252.6751162760948
 22
38.87588057464647
 32
0.0
 13
252.6751162760948
 23
38.87588057464647
 33
0.0
  0
MTEXT
  5
224
330
21B
100
AcDbEntity
  8
치수문자_일반주서
 62
     0
100
AcDbMText
 10
248.3472983789469
 20
91.06552820024743
 30
0.0
 40
3.5
 41
0.0
 71
     2
 72
     1
  1
\A1;%%c22.12 [0.87]
  7
SLDTEXTSTYLE0
 11
0.0009040848848810601
 21
0.999999591315177
 31
0.0
 73
     1
 44
1.0
  0
POINT
  5
225
330
21B
100
AcDbEntity
  8
Defpoints
 62
     0
100
AcDbPoint
 10
224.7222456203762
 20
61.02297797782629
 30
0.0
  0
POINT
  5
226
330
21B
100
AcDbEntity
  8
Defpoints
 62
     0
100
AcDbPoint
 10
224.7022456203763
 20
38.90117043452863
 30
0.0
  0
POINT
  5
227
330
21B
100
AcDbEntity
  8
Defpoints
 62
     0
100
AcDbPoint
 10
252.6751162760948
 20
38.87588057464648
 30
0.0
  0
ENDBLK
  5
21D
330
21B
100
AcDbEntity
  8
0
100
AcDbBlockEnd
  0
BLOCK
  5
229
330
228
100
AcDbEntity
  8
0
100
AcDbBlockBegin
  2
*D10
 70
     1
 10
0.0
 20
0.0
 30
0.0
  3
*D10
  1

  0
LINE
  5
22B
330
228
100
AcDbEntity
  8
치수문자_일반주서
 62
     0
370
    -2
100
AcDbLine
 10
224.7222456203762
 20
61.08547797782629
 30
0.0
 11
224.7222456203762
 21
71.0894176360724
 31
0.0
  0
LINE
  5
22C
330
228
100
AcDbEntity
  8
치수문자_일반주서
 62
     0
370
    -2
100
AcDbLine
 10
192.9722456203762
 20
60.99665961168478
 30
0.0
 11
192.9722456203762
 21
71.0894176360724
 31
0.0
  0
LINE
  5
22D
330
228
100
AcDbEntity
  8
치수문자_일반주서
 62
     0
370
    -2
100
AcDbLine
 10
221.4202456203762
 20
71.0894176360724
 30
0.0
 11
196.2742456203761
 21
71.0894176360724
 31
0.0
  0
SOLID
  5
22E
330
228
100
AcDbEntity
  8
치수문자_일반주서
 62
     0
100
AcDbTrace
 10
221.4202456203762
 20
70.53908430273907
 30
0.0
 11
221.4202456203762
 21
71.63975096940572
 31
0.0
 12
224.7222456203762
 22
71.0894176360724
 32
0.0
 13
224.7222456203762
 23
71.0894176360724
 33
0.0
  0
SOLID
  5
22F
330
228
100
AcDbEntity
  8
치수문자_일반주서
 62
     0
100
AcDbTrace
 10
196.2742456203761
 20
71.63975096940572
 30
0.0
 11
196.2742456203761
 21
70.53908430273907
 31
0.0
 12
192.9722456203762
 22
71.0894176360724
 32
0.0
 13
192.9722456203762
 23
71.0894176360724
 33
0.0
  0
MTEXT
  5
230
330
228
100
AcDbEntity
  8
치수문자_일반주서
 62
     0
100
AcDbMText
 10
210.5179874460779
 20
75.4644176360724
 30
0.0
 40
3.5
 41
0.0
 71
     2
 72
     1
  1
\A1;31.75 [1.25]
  7
SLDTEXTSTYLE0
 73
     1
 44
1.0
  0
POINT
  5
231
330
228
100
AcDbEntity
  8
Defpoints
 62
     0
100
AcDbPoint
 10
224.7222456203762
 20
61.02297797782629
 30
0.0
  0
POINT
  5
232
330
228
100
AcDbEntity
  8
Defpoints
 62
     0
100
AcDbPoint
 10
192.9722456203762
 20
60.93415961168478
 30
0.0
  0
POINT
  5
233
330
228
100
AcDbEntity
  8
Defpoints
 62
     0
100
AcDbPoint
 10
192.9722456203762
 20
71.0894176360724
 30
0.0
  0
ENDBLK
  5
22A
330
228
100
AcDbEntity
  8
0
100
AcDbBlockEnd
  0
BLOCK
  5
235
330
234
100
AcDbEntity
  8
0
100
AcDbBlockBegin
  2
*D11
 70
     1
 10
0.0
 20
0.0
 30
0.0
  3
*D11
  1

  0
LINE
  5
237
330
234
100
AcDbEntity
  8
치수문자_일반주서
 62
     0
370
    -2
100
AcDbLine
 10
224.7222456203762
 20
61.08547797782629
 30
0.0
 11
224.7222456203762
 21
83.08941763607244
 31
0.0
  0
LINE
  5
238
330
234
100
AcDbEntity
  8
치수문자_일반주서
 62
     0
370
    -2
100
AcDbLine
 10
21.52224562037617
 20
57.65430738881176
 30
0.0
 11
21.52224562037617
 21
83.08941763607244
 31
0.0
  0
LINE
  5
239
330
234
100
AcDbEntity
  8
치수문자_일반주서
 62
     0
370
    -2
100
AcDbLine
 10
221.4202456203762
 20
83.08941763607244
 30
0.0
 11
24.82424562037617
 21
83.08941763607244
 31
0.0
  0
SOLID
  5
23A
330
234
100
AcDbEntity
  8
치수문자_일반주서
 62
     0
100
AcDbTrace
 10
221.4202456203762
 20
82.53908430273911
 30
0.0
 11
221.4202456203762
 21
83.63975096940577
 31
0.0
 12
224.7222456203762
 22
83.08941763607244
 32
0.0
 13
224.7222456203762
 23
83.08941763607244
 33
0.0
  0
SOLID
  5
23B
330
234
100
AcDbEntity
  8
치수문자_일반주서
 62
     0
100
AcDbTrace
 10
24.82424562037617
 20
83.63975096940577
 30
0.0
 11
24.82424562037617
 21
82.53908430273911
 31
0.0
 12
21.52224562037617
 22
83.08941763607244
 32
0.0
 13
21.52224562037617
 23
83.08941763607244
 33
0.0
  0
MTEXT
  5
23C
330
234
100
AcDbEntity
  8
치수문자_일반주서
 62
     0
100
AcDbMText
 10
123.1222456203762
 20
87.46441763607244
 30
0.0
 40
3.5
 41
0.0
 71
     2
 72
     1
  1
\A1;203.20 [8.00]
  7
SLDTEXTSTYLE0
 73
     1
 44
1.0
  0
POINT
  5
23D
330
234
100
AcDbEntity
  8
Defpoints
 62
     0
100
AcDbPoint
 10
224.7222456203762
 20
61.02297797782629
 30
0.0
  0
POINT
  5
23E
330
234
100
AcDbEntity
  8
Defpoints
 62
     0
100
AcDbPoint
 10
21.52224562037617
 20
57.59180738881176
 30
0.0
  0
POINT
  5
23F
330
234
100
AcDbEntity
  8
Defpoints
 62
     0
100
AcDbPoint
 10
21.52224562037617
 20
83.08941763607243
 30
0.0
  0
ENDBLK
  5
236
330
234
100
AcDbEntity
  8
0
100
AcDbBlockEnd
  0
BLOCK
  5
286
330
285
100
AcDbEntity
  8
0
100
AcDbBlockBegin
  2
*D12
 70
     1
 10
0.0
 20
0.0
 30
0.0
  3
*D12
  1

  0
LINE
  5
288
330
285
100
AcDbEntity
  8
치수문자_일반주서
 62
     0
370
    -2
100
AcDbLine
 10
-164.4325
 20
9.524999999999988
 30
0.0
 11
-177.0043639043334
 21
9.524999999999944
 31
0.0
  0
LINE
  5
289
330
285
100
AcDbEntity
  8
치수문자_일반주서
 62
     0
370
    -2
100
AcDbLine
 10
-164.4325
 20
-9.525000000000023
 30
0.0
 11
-177.0043639043334
 21
-9.525000000000068
 31
0.0
  0
LINE
  5
28A
330
285
100
AcDbEntity
  8
치수문자_일반주서
 62
     0
370
    -2
100
AcDbLine
 10
-177.0043639043334
 20
9.524999999999944
 30
0.0
 11
-177.0043639043334
 21
-9.525000000000068
 31
0.0
  0
LINE
  5
28B
330
285
100
AcDbEntity
  8
치수문자_일반주서
 62
     0
370
    -2
100
AcDbLine
 10
-177.0043639043334
 20
12.82699999999994
 30
0.0
 11
-177.0043639043334
 21
16.12899999999994
 31
0.0
  0
LINE
  5
28C
330
285
100
AcDbEntity
  8
치수문자_일반주서
 62
     0
370
    -2
100
AcDbLine
 10
-177.0043639043334
 20
-12.82700000000007
 30
0.0
 11
-177.0043639043334
 21
-16.12900000000007
 31
0.0
  0
SOLID
  5
28D
330
285
100
AcDbEntity
  8
치수문자_일반주서
 62
     0
100
AcDbTrace
 10
-177.5546972376667
 20
12.82699999999994
 30
0.0
 11
-176.4540305710001
 21
12.82699999999994
 31
0.0
 12
-177.0043639043334
 22
9.524999999999944
 32
0.0
 13
-177.0043639043334
 23
9.524999999999944
 33
0.0
  0
SOLID
  5
28E
330
285
100
AcDbEntity
  8
치수문자_일반주서
 62
     0
100
AcDbTrace
 10
-176.454030571
 20
-12.82700000000007
 30
0.0
 11
-177.5546972376667
 21
-12.82700000000007
 31
0.0
 12
-177.0043639043334
 22
-9.525000000000068
 32
0.0
 13
-177.0043639043334
 23
-9.525000000000068
 33
0.0
  0
MTEXT
  5
28F
330
285
100
AcDbEntity
  8
치수문자_일반주서
 62
     0
100
AcDbMText
 10
-181.3793639043334
 20
2.326099604931263
 30
0.0
 40
3.5
 41
0.0
 71
     2
 72
     1
  1
\A1;%%c19.05 [3/4]
  7
SLDTEXTSTYLE0
 11
-2.983906501879683E-15
 21
1.0
 31
0.0
 73
     1
 44
1.0
  0
POINT
  5
290
330
285
100
AcDbEntity
  8
Defpoints
 62
     0
100
AcDbPoint
 10
-164.37
 20
9.524999999999988
 30
0.0
  0
POINT
  5
2B7
330
285
100
AcDbEntity
  8
Defpoints
 62
     0
100
AcDbPoint
 10
-164.37
 20
-9.525000000000023
 30
0.0
  0
POINT
  5
2B8
330
285
100
AcDbEntity
  8
Defpoints
 62
     0
100
AcDbPoint
 10
-177.0043639043334
 20
-9.525000000000071
 30
0.0
  0
ENDBLK
  5
287
330
285
100
AcDbEntity
  8
0
100
AcDbBlockEnd
  0
BLOCK
  5
292
330
291
100
AcDbEntity
  8
0
100
AcDbBlockBegin
  2
*D13
 70
     1
 10
0.0
 20
0.0
 30
0.0
  3
*D13
  1

  0
LINE
  5
294
330
291
100
AcDbEntity
  8
치수문자_일반주서
 62
     0
370
    -2
100
AcDbLine
 10
36.98749997445717
 20
11.05111408370923
 30
0.0
 11
64.89787065571845
 21
11.02588072913239
 31
0.0
  0
LINE
  5
295
330
291
100
AcDbEntity
  8
치수문자_일반주서
 62
     0
370
    -2
100
AcDbLine
 10
36.9674999744573
 20
-11.07069345958843
 30
0.0
 11
64.87787065571861
 21
-11.09592681416529
 31
0.0
  0
LINE
  5
296
330
291
100
AcDbEntity
  8
치수문자_일반주서
 62
     0
370
    -2
100
AcDbLine
 10
64.89787065571845
 20
11.02588072913239
 30
0.0
 11
64.93770815896292
 21
55.08975971847681
 31
0.0
  0
LINE
  5
297
330
291
100
AcDbEntity
  8
치수문자_일반주서
 62
     0
370
    -2
100
AcDbLine
 10
64.89787065571845
 20
11.02588072913239
 30
0.0
 11
64.87787065571861
 21
-11.09592681416529
 31
0.0
  0
LINE
  5
298
330
291
100
AcDbEntity
  8
치수문자_일반주서
 62
     0
370
    -2
100
AcDbLine
 10
64.90085594400833
 20
14.3278793796551
 30
0.0
 11
64.9038412322982
 21
17.62987803017782
 31
0.0
  0
LINE
  5
299
330
291
100
AcDbEntity
  8
치수문자_일반주서
 62
     0
370
    -2
100
AcDbLine
 10
64.87488536742873
 20
-14.397925464688
 30
0.0
 11
64.87190007913885
 21
-17.69992411521072
 31
0.0
  0
SOLID
  5
29A
330
291
100
AcDbEntity
  8
치수문자_일반주서
 62
     0
100
AcDbTrace
 10
64.35052283558788
 20
14.32837692770342
 30
0.0
 11
65.45118905242877
 21
14.32738183160679
 31
0.0
 12
64.89787065571845
 22
11.02588072913239
 32
0.0
 13
64.89787065571845
 23
11.02588072913239
 33
0.0
  0
SOLID
  5
29B
330
291
100
AcDbEntity
  8
치수문자_일반주서
 62
     0
100
AcDbTrace
 10
65.42521847584918
 20
-14.39842301273632
 30
0.0
 11
64.32455225900829
 21
-14.39742791663969
 31
0.0
 12
64.87787065571861
 22
-11.09592681416529
 32
0.0
 13
64.87787065571861
 23
-11.09592681416529
 33
0.0
  0
MTEXT
  5
29C
330
291
100
AcDbEntity
  8
치수문자_일반주서
 62
     0
100
AcDbMText
 10
60.55005275857069
 20
41.09372081143568
 30
0.0
 40
3.5
 41
0.0
 71
     2
 72
     1
  1
\A1;%%c22.12 [7/8]
  7
SLDTEXTSTYLE0
 11
0.0009040848848810599
 21
0.999999591315177
 31
0.0
 73
     1
 44
1.0
  0
POINT
  5
29D
330
291
100
AcDbEntity
  8
Defpoints
 62
     0
100
AcDbPoint
 10
36.92499999999997
 20
11.05117058901454
 30
0.0
  0
POINT
  5
2BA
330
291
100
AcDbEntity
  8
Defpoints
 62
     0
100
AcDbPoint
 10
36.9050000000001
 20
-11.07063695428313
 30
0.0
  0
POINT
  5
2BB
330
291
100
AcDbEntity
  8
Defpoints
 62
     0
100
AcDbPoint
 10
64.87787065571861
 20
-11.09592681416527
 30
0.0
  0
ENDBLK
  5
293
330
291
100
AcDbEntity
  8
0
100
AcDbBlockEnd
  0
BLOCK
  5
29F
330
29E
100
AcDbEntity
  8
0
100
AcDbBlockBegin
  2
*D14
 70
     1
 10
0.0
 20
0.0
 30
0.0
  3
*D14
  1

  0
LINE
  5
2A1
330
29E
100
AcDbEntity
  8
치수문자_일반주서
 62
     0
370
    -2
100
AcDbLine
 10
36.92499999999997
 20
11.11367058901454
 30
0.0
 11
36.92499999999997
 21
21.11761024726064
 31
0.0
  0
LINE
  5
2A2
330
29E
100
AcDbEntity
  8
치수문자_일반주서
 62
     0
370
    -2
100
AcDbLine
 10
5.174999999999969
 20
11.02485222287302
 30
0.0
 11
5.174999999999969
 21
21.11761024726064
 31
0.0
  0
LINE
  5
2A3
330
29E
100
AcDbEntity
  8
치수문자_일반주서
 62
     0
370
    -2
100
AcDbLine
 10
33.62299999999997
 20
21.11761024726064
 30
0.0
 11
8.476999999999968
 21
21.11761024726064
 31
0.0
  0
SOLID
  5
2A4
330
29E
100
AcDbEntity
  8
치수문자_일반주서
 62
     0
100
AcDbTrace
 10
33.62299999999997
 20
20.56727691392731
 30
0.0
 11
33.62299999999997
 21
21.66794358059397
 31
0.0
 12
36.92499999999997
 22
21.11761024726064
 32
0.0
 13
36.92499999999997
 23
21.11761024726064
 33
0.0
  0
SOLID
  5
2A5
330
29E
100
AcDbEntity
  8
치수문자_일반주서
 62
     0
100
AcDbTrace
 10
8.476999999999968
 20
21.66794358059397
 30
0.0
 11
8.476999999999968
 21
20.56727691392731
 31
0.0
 12
5.174999999999969
 22
21.11761024726064
 32
0.0
 13
5.174999999999969
 23
21.11761024726064
 33
0.0
  0
MTEXT
  5
2A6
330
29E
100
AcDbEntity
  8
치수문자_일반주서
 62
     0
100
AcDbMText
 10
22.72074182570169
 20
25.49261024726064
 30
0.0
 40
3.5
 41
0.0
 71
     2
 72
     1
  1
\A1;31.75 [1 1/4]
  7
SLDTEXTSTYLE0
 73
     1
 44
1.0
  0
POINT
  5
2A7
330
29E
100
AcDbEntity
  8
Defpoints
 62
     0
100
AcDbPoint
 10
36.92499999999997
 20
11.05117058901454
 30
0.0
  0
POINT
  5
2A8
330
29E
100
AcDbEntity
  8
Defpoints
 62
     0
100
AcDbPoint
 10
5.174999999999969
 20
10.96235222287302
 30
0.0
  0
POINT
  5
2A9
330
29E
100
AcDbEntity
  8
Defpoints
 62
     0
100
AcDbPoint
 10
5.174999999999969
 20
21.11761024726064
 30
0.0
  0
ENDBLK
  5
2A0
330
29E
100
AcDbEntity
  8
0
100
AcDbBlockEnd
  0
BLOCK
  5
2AB
330
2AA
100
AcDbEntity
  8
0
100
AcDbBlockBegin
  2
*D15
 70
     1
 10
0.0
 20
0.0
 30
0.0
  3
*D15
  1

  0
LINE
  5
2AD
330
2AA
100
AcDbEntity
  8
치수문자_일반주서
 62
     0
370
    -2
100
AcDbLine
 10
36.92499999999997
 20
11.11367058901454
 30
0.0
 11
36.92499999999995
 21
33.11761024726069
 31
0.0
  0
LINE
  5
2AE
330
2AA
100
AcDbEntity
  8
치수문자_일반주서
 62
     0
370
    -2
100
AcDbLine
 10
-166.275
 20
7.682500000000001
 30
0.0
 11
-166.275
 21
33.11761024726069
 31
0.0
  0
LINE
  5
2AF
330
2AA
100
AcDbEntity
  8
치수문자_일반주서
 62
     0
370
    -2
100
AcDbLine
 10
33.62299999999995
 20
33.11761024726069
 30
0.0
 11
-162.973
 21
33.11761024726069
 31
0.0
  0
SOLID
  5
2B0
330
2AA
100
AcDbEntity
  8
치수문자_일반주서
 62
     0
100
AcDbTrace
 10
33.62299999999995
 20
32.56727691392735
 30
0.0
 11
33.62299999999995
 21
33.66794358059402
 31
0.0
 12
36.92499999999995
 22
33.11761024726069
 32
0.0
 13
36.92499999999995
 23
33.11761024726069
 33
0.0
  0
SOLID
  5
2B1
330
2AA
100
AcDbEntity
  8
치수문자_일반주서
 62
     0
100
AcDbTrace
 10
-162.973
 20
33.66794358059402
 30
0.0
 11
-162.973
 21
32.56727691392735
 31
0.0
 12
-166.275
 22
33.11761024726069
 32
0.0
 13
-166.275
 23
33.11761024726069
 33
0.0
  0
MTEXT
  5
2B2
330
2AA
100
AcDbEntity
  8
치수문자_일반주서
 62
     0
100
AcDbMText
 10
-64.67500000000003
 20
37.49261024726069
 30
0.0
 40
3.5
 41
0.0
 71
     2
 72
     1
  1
\A1;203.2 [8]
  7
SLDTEXTSTYLE0
 73
     1
 44
1.0
  0
POINT
  5
2B3
330
2AA
100
AcDbEntity
  8
Defpoints
 62
     0
100
AcDbPoint
 10
36.92499999999997
 20
11.05117058901454
 30
0.0
  0
POINT
  5
2B4
330
2AA
100
AcDbEntity
  8
Defpoints
 62
     0
100
AcDbPoint
 10
-166.275
 20
7.620000000000001
 30
0.0
  0
POINT
  5
2B5
330
2AA
100
AcDbEntity
  8
Defpoints
 62
     0
100
AcDbPoint
 10
-166.275
 20
33.11761024726069
 30
0.0
  0
ENDBLK
  5
2AC
330
2AA
100
AcDbEntity
  8
0
100
AcDbBlockEnd
  0
ENDSEC
  0
SECTION
  2
ENTITIES
  0
LINE
  5
241
330
1F
100
AcDbEntity
  8
외형선
  6
Continuous
 62
     1
370
    15
100
AcDbLine
 10
15.11945343272784
 20
11.11249999999999
 30
0.0
 11
8.343576038629138
 21
11.11249999999999
 31
0.0
  0
LINE
  5
242
330
1F
100
AcDbEntity
  8
외형선
  6
Continuous
 62
     1
370
    15
100
AcDbLine
 10
8.343576038629024
 20
-11.11250000000001
 30
0.0
 11
15.11945343272784
 21
-11.11250000000001
 31
0.0
  0
LINE
  5
245
330
1F
100
AcDbEntity
  8
외형선
  6
Continuous
370
    15
100
AcDbLine
 10
-164.37
 20
-9.52500000000001
 30
0.0
 11
1.999999999999986
 21
-9.52500000000001
 31
0.0
1001
PE_URL
1000

  0
LINE
  5
246
330
1F
100
AcDbEntity
  8
외형선
  6
Continuous
370
    15
100
AcDbLine
 10
1.999999999999986
 20
9.52499999999998
 30
0.0
 11
-164.37
 21
9.52499999999998
 31
0.0
  0
LINE
  5
247
330
1F
100
AcDbEntity
  8
외형선
  6
Continuous
370
    15
100
AcDbLine
 10
-164.37
 20
9.52499999999998
 30
0.0
 11
-166.275
 21
7.620000000000001
 31
0.0
  0
LINE
  5
248
330
1F
100
AcDbEntity
  8
외형선
  6
Continuous
370
    15
100
AcDbLine
 10
-166.275
 20
-7.620000000000037
 30
0.0
 11
-164.37
 21
-9.525000000000016
 31
0.0
  0
SPLINE
  5
249
330
1F
100
AcDbEntity
  8
외형선
  6
Continuous
 62
     1
370
    15
100
AcDbSpline
210
0.0
220
0.0
230
1.0
 70
     8
 71
     3
 72
    20
 73
    16
 74
     0
 42
0.000000001
 43
0.00000001
 40
0.0000000000000001
 40
0.0000000000000001
 40
0.0000000000000001
 40
0.0000000000000001
 40
0.0000077281916521
 40
0.0000077281916521
 40
0.0000077281916521
 40
0.0000155363870227
 40
0.0000155363870227
 40
0.0000155363870227
 40
0.0000222069314366
 40
0.0000222069314366
 40
0.0000222069314366
 40
0.000027974970013
 40
0.000027974970013
 40
0.000027974970013
 40
0.000032750236244
 40
0.000032750236244
 40
0.000032750236244
 40
0.000032750236244
 10
36.90499999999999
 20
0.9636667870491173
 30
0.0
 10
36.90722956687607
 20
0.9623812465034369
 30
0.0
 10
36.90954502362338
 20
0.9611324839851427
 30
0.0
 10
36.9117653367734
 20
0.9600333042716791
 30
0.0
 10
36.91399883000902
 20
0.9589275996755582
 30
0.0
 10
36.91620835273228
 20
0.957940118213525
 30
0.0
 10
36.91811459967643
 20
0.957216277484708
 30
0.0
 10
36.91974717265315
 20
0.9565963563265676
 30
0.0
 10
36.92120800544923
 20
0.9561518721293574
 30
0.0
 10
36.92231797083168
 20
0.9559462310945186
 30
0.0
 10
36.92328217823406
 20
0.955767594344973
 30
0.0
 10
36.92401093238978
 20
0.9557625736401683
 30
0.0
 10
36.92445259901497
 20
0.9559242192616786
 30
0.0
 10
36.92482026765613
 20
0.9560587823520841
 30
0.0
 10
36.92499999999994
 20
0.9563093538868337
 30
0.0
 10
36.92499999999994
 20
0.9566529477833576
 30
0.0
  0
LINE
  5
24A
330
1F
100
AcDbEntity
  8
외형선
  6
Continuous
 62
     1
370
    15
100
AcDbLine
 10
36.92499999999997
 20
-10.04892094553356
 30
0.0
 11
36.92499999999997
 21
0.9566529477833576
 31
0.0
  0
SPLINE
  5
24B
330
1F
100
AcDbEntity
  8
외형선
  6
Continuous
 62
     1
370
    15
100
AcDbSpline
210
0.0
220
0.0
230
1.0
 70
     8
 71
     3
 72
    20
 73
    16
 74
     0
 42
0.000000001
 43
0.00000001
 40
0.0
 40
0.0
 40
0.0
 40
0.0
 40
0.0000072940109179
 40
0.0000072940109179
 40
0.0000072940109179
 40
0.0000145296617563
 40
0.0000145296617563
 40
0.0000145296617563
 40
0.0000228143936086
 40
0.0000228143936086
 40
0.0000228143936086
 40
0.0000321423086734
 40
0.0000321423086734
 40
0.0000321423086734
 40
0.0000360160420943
 40
0.0000360160420943
 40
0.0000360160420943
 40
0.0000360160420943
 10
36.925
 20
-10.04892094553356
 30
0.0
 10
36.925
 20
-10.0507174575092
 30
0.0
 10
36.92458570082927
 20
-10.05238052344857
 30
0.0
 10
36.92385760154205
 20
-10.05379594246907
 30
0.0
 10
36.92313310017597
 20
-10.05520436716053
 30
0.0
 10
36.92208415373879
 20
-10.05640840362467
 30
0.0
 10
36.92081533014927
 20
-10.05736401740603
 30
0.0
 10
36.9193643713818
 20
-10.05845680619543
 30
0.0
 10
36.91759235741223
 20
-10.05925208681545
 30
0.0
 10
36.91563411226865
 20
-10.05972068424127
 30
0.0
 10
36.91343495727021
 20
-10.06024693008674
 30
0.0
 10
36.91094049210845
 20
-10.0603745600761
 30
0.0
 10
36.90834065001418
 20
-10.06007538005498
 30
0.0
 10
36.90724867638092
 20
-10.05994971984839
 30
0.0
 10
36.90612944586861
 20
-10.05974858707604
 30
0.0
 10
36.90500000000004
 20
-10.0594708339657
 30
0.0
  0
SPLINE
  5
24C
330
1F
100
AcDbEntity
  8
외형선
  6
Continuous
 62
     1
370
    15
100
AcDbSpline
210
0.0
220
0.0
230
1.0
 70
     8
 71
     3
 72
    36
 73
    32
 74
     0
 42
0.000000001
 43
0.00000001
 40
0.0
 40
0.0
 40
0.0
 40
0.0
 40
0.0625000000000007
 40
0.0625000000000007
 40
0.1250000000000013
 40
0.1250000000000013
 40
0.1875000000000019
 40
0.1875000000000019
 40
0.2500000000000026
 40
0.2500000000000026
 40
0.3125000000000032
 40
0.3125000000000032
 40
0.3750000000000038
 40
0.3750000000000038
 40
0.4375000000000044
 40
0.4375000000000044
 40
0.500000000000005
 40
0.500000000000005
 40
0.5625000000000057
 40
0.5625000000000057
 40
0.6250000000000063
 40
0.6250000000000063
 40
0.7500000000000054
 40
0.7500000000000054
 40
0.8125000000000041
 40
0.8125000000000041
 40
0.8750000000000028
 40
0.8750000000000028
 40
0.9375000000000014
 40
0.9375000000000014
 40
1.0
 40
1.0
 40
1.0
 40
1.0
 10
36.90499999999993
 20
-10.05947083396566
 30
0.0
 10
36.24637952679099
 20
-9.897503014120762
 30
0.0
 10
35.58335766454665
 20
-9.717372827259712
 30
0.0
 10
34.25902541931661
 20
-9.323462164082454
 30
0.0
 10
33.60068446596266
 20
-9.110043567302693
 30
0.0
 10
32.27904245935214
 20
-8.651253973637093
 30
0.0
 10
31.61542288053649
 20
-8.40578550168809
 30
0.0
 10
30.29313228215285
 20
-7.886587281155702
 30
0.0
 10
29.63519642951753
 20
-7.613015443199831
 30
0.0
 10
28.31111622587697
 20
-7.038775200665487
 30
0.0
 10
27.64789426166841
 20
-6.738477020406147
 30
0.0
 10
26.32961139173496
 20
-6.116400380544793
 30
0.0
 10
25.66805461091637
 20
-5.793615296296689
 30
0.0
 10
24.3435111822301
 20
-5.128424561328099
 30
0.0
 10
23.68437993382885
 20
-4.786687497450192
 30
0.0
 10
22.36372272504811
 20
-4.08711219950445
 30
0.0
 10
21.7001654710581
 20
-3.728890574901346
 30
0.0
 10
20.37713609290678
 20
-3.00124674670116
 30
0.0
 10
19.71948646602495
 20
-2.632186904315834
 30
0.0
 10
18.39586485786562
 20
-1.884517054602046
 30
0.0
 10
17.73243918570184
 20
-1.506371090428711
 30
0.0
 10
15.75312081916668
 20
-0.3680390007077214
 30
0.0
 10
14.42764226390678
 20
0.3999630529061058
 30
0.0
 10
12.44834352378776
 20
1.537953962926803
 30
0.0
 10
11.78491969930774
 20
1.915930753346029
 30
0.0
 10
10.4612923003594
 20
2.663153635960125
 30
0.0
 10
9.803641096172115
 20
3.031935066908975
 30
0.0
 10
8.48061905282249
 20
3.758911607311571
 30
0.0
 10
7.817060730269603
 20
4.11674626505609
 30
0.0
 10
6.496391968689991
 20
4.815447113496443
 30
0.0
 10
5.837270939896442
 20
5.156692827886527
 30
0.0
 10
5.174999999999997
 20
5.488748561508967
 30
0.0
  0
SPLINE
  5
24D
330
1F
100
AcDbEntity
  8
외형선
  6
Continuous
370
    15
100
AcDbSpline
210
0.0
220
0.0
230
1.0
 70
    24
 71
     3
 72
    13
 73
     9
 74
     0
 42
0.000000001
 43
0.00000001
 40
0.0
 40
0.0
 40
0.0
 40
0.0
 40
0.0584856496365205
 40
0.2565259562395688
 40
0.448984939295887
 40
0.6470252458989372
 40
0.8214542133647084
 40
1.0
 40
1.0
 40
1.0
 40
1.0
 10
5.174999999999997
 20
5.629107987535615
 30
0.0
 10
5.174999999999997
 20
5.709457586822236
 30
0.0
 10
5.174999999999969
 20
6.061881778372904
 30
0.0
 10
5.174999999999969
 20
6.803200357643998
 30
0.0
 10
5.174999999999912
 20
7.831776946968429
 30
0.0
 10
5.175000000000082
 20
8.888297696361388
 30
0.0
 10
5.174999999999741
 20
9.945504208697269
 30
0.0
 10
5.174999999999912
 20
10.62077759938242
 30
0.0
 10
5.174999999999969
 20
10.96235222287302
 30
0.0
  0
SPLINE
  5
24E
330
1F
100
AcDbEntity
  8
외형선
  6
Continuous
 62
     1
370
    15
100
AcDbSpline
210
0.0
220
0.0
230
1.0
 70
     8
 71
     3
 72
    36
 73
    32
 74
     0
 42
0.000000001
 43
0.00000001
 40
0.0
 40
0.0
 40
0.0
 40
0.0
 40
0.0625000000000006
 40
0.0625000000000006
 40
0.1250000000000012
 40
0.1250000000000012
 40
0.1875000000000019
 40
0.1875000000000019
 40
0.2500000000000025
 40
0.2500000000000025
 40
0.3125000000000031
 40
0.3125000000000031
 40
0.3750000000000038
 40
0.3750000000000038
 40
0.4375000000000044
 40
0.4375000000000044
 40
0.500000000000005
 40
0.500000000000005
 40
0.5625000000000057
 40
0.5625000000000057
 40
0.6250000000000062
 40
0.6250000000000062
 40
0.7500000000000054
 40
0.7500000000000054
 40
0.8125000000000041
 40
0.8125000000000041
 40
0.8750000000000028
 40
0.8750000000000028
 40
0.9375000000000013
 40
0.9375000000000013
 40
1.0
 40
1.0
 40
1.0
 40
1.0
 10
36.90499999999999
 20
0.9636667870491173
 30
0.0
 10
36.24637952679093
 20
1.343419164793996
 30
0.0
 10
35.58335766454682
 20
1.722310434234121
 30
0.0
 10
34.25902541931667
 20
2.472326033626356
 30
0.0
 10
33.60068446596269
 20
2.842900304562566
 30
0.0
 10
32.2790424593522
 20
3.573624356633804
 30
0.0
 10
31.61542288053663
 20
3.933809998527632
 30
0.0
 10
30.29313228215291
 20
4.638098181493181
 30
0.0
 10
29.63519642951765
 20
4.982101223373878
 30
0.0
 10
28.31111622587703
 20
5.652688231250128
 30
0.0
 10
27.64789426166853
 20
5.978736179013307
 30
0.0
 10
26.32961139173513
 20
6.607252623686986
 30
0.0
 10
25.66805461091651
 20
6.910765237574129
 30
0.0
 10
24.34351118223016
 20
7.492451093327805
 30
0.0
 10
23.68437993382896
 20
7.770082653994894
 30
0.0
 10
22.36372272504816
 20
8.297271114091256
 30
0.0
 10
21.7001654710581
 20
8.54705196224985
 30
0.0
 10
20.37713609290689
 20
9.014964619007085
 30
0.0
 10
19.719486466025
 20
9.232949895800463
 30
0.0
 10
18.39586485786562
 20
9.63641452906202
 30
0.0
 10
17.73243918570189
 20
9.82155931293126
 30
0.0
 10
15.75312081916685
 20
10.32297769966982
 30
0.0
 10
14.42764226390683
 20
10.58675095106372
 30
0.0
 10
12.44834352378776
 20
10.86714551616577
 30
0.0
 10
11.78491969930776
 20
10.94169438731461
 30
0.0
 10
10.46129230035946
 20
11.05165672364664
 30
0.0
 10
9.803641096172171
 20
11.0870859952294
 30
0.0
 10
8.480619052822433
 20
11.1187692028112
 30
0.0
 10
7.817060730269546
 20
11.11492089049797
 30
0.0
 10
6.496391968689963
 20
11.06797536057045
 30
0.0
 10
5.837270939896499
 20
11.02491786481903
 30
0.0
 10
5.175000000000026
 20
10.96235222287302
 30
0.0
  0
SPLINE
  5
24F
330
1F
100
AcDbEntity
  8
외형선
  6
Continuous
 62
     1
370
    15
100
AcDbSpline
210
0.0
220
0.0
230
1.0
 70
     8
 71
     3
 72
    20
 73
    16
 74
     0
 42
0.000000001
 43
0.00000001
 40
0.0000000000000001
 40
0.0000000000000001
 40
0.0000000000000001
 40
0.0000000000000001
 40
0.0000077281916521
 40
0.0000077281916521
 40
0.0000077281916521
 40
0.0000155363870227
 40
0.0000155363870227
 40
0.0000155363870227
 40
0.0000222069314366
 40
0.0000222069314366
 40
0.0000222069314366
 40
0.000027974970013
 40
0.000027974970013
 40
0.000027974970013
 40
0.000032750236244
 40
0.000032750236244
 40
0.000032750236244
 40
0.000032750236244
 10
36.90499999999999
 20
-11.07063695428311
 30
0.0
 10
36.90722956687607
 20
-11.07074885685315
 30
0.0
 10
36.90954502362338
 20
-11.07047499248891
 30
0.0
 10
36.9117653367734
 20
-11.06976921730651
 30
0.0
 10
36.91399883000902
 20
-11.06905925254511
 30
0.0
 10
36.91620835273228
 20
-11.06787736771853
 30
0.0
 10
36.91811459967643
 20
-11.06627817985053
 30
0.0
 10
36.91974717265315
 20
-11.0649085824298
 30
0.0
 10
36.92120800544923
 20
-11.06318424288429
 30
0.0
 10
36.92231797083168
 20
-11.0612734622909
 30
0.0
 10
36.92328217823406
 20
-11.05961360080186
 30
0.0
 10
36.92401093238978
 20
-11.05776782391046
 30
0.0
 10
36.92445259901497
 20
-11.05589818532207
 30
0.0
 10
36.92482026765613
 20
-11.05434179088304
 30
0.0
 10
36.92499999999994
 20
-11.05273826064442
 30
0.0
 10
36.92499999999994
 20
-11.05117058901455
 30
0.0
  0
SPLINE
  5
250
330
1F
100
AcDbEntity
  8
외형선
  6
Continuous
 62
     1
370
    15
100
AcDbSpline
210
0.0
220
0.0
230
1.0
 70
     8
 71
     3
 72
    14
 73
    10
 74
     0
 42
0.000000001
 43
0.00000001
 40
0.0
 40
0.0
 40
0.0
 40
0.0
 40
0.0274730148423572
 40
0.1915061747346877
 40
0.3555445356857009
 40
0.5166565167287486
 40
0.6777699883923537
 40
0.8388845998448697
 40
1.0
 40
1.0
 40
1.0
 40
1.0
 10
26.83997320225804
 20
-9.093846727699901
 30
0.0
 10
26.64157391334221
 20
-9.166014647497033
 30
0.0
 10
25.25859177219827
 20
-9.669075645287467
 30
0.0
 10
22.69096673507384
 20
-10.30474706142782
 30
0.0
 10
19.15820520515142
 20
-10.9337954063832
 30
0.0
 10
15.64660674401507
 20
-11.16917527867647
 30
0.0
 10
12.15609324994377
 20
-11.03800210674561
 30
0.0
 10
8.665556306180079
 20
-10.56564884249699
 30
0.0
 10
6.338520667307435
 20
-9.963460039425978
 30
0.0
 10
5.174999999999997
 20
-9.662364900920192
 30
0.0
1001
PE_URL
1000

  0
SPLINE
  5
251
330
1F
100
AcDbEntity
  8
외형선
  6
Continuous
370
    15
100
AcDbSpline
210
0.0
220
0.0
230
1.0
 70
    24
 71
     3
 72
    21
 73
    17
 74
     0
 42
0.000000001
 43
0.00000001
 40
0.0
 40
0.0
 40
0.0
 40
0.0
 40
0.089592220456312
 40
0.1629750776274018
 40
0.2384860426277606
 40
0.3118688997988507
 40
0.387379864799211
 40
0.4607627219703003
 40
0.536273686970659
 40
0.6096565441417485
 40
0.6851675091421072
 40
0.7585503663131969
 40
0.834061331313556
 40
0.9074441884846458
 40
0.9829551534850055
 40
1.0
 40
1.0
 40
1.0
 40
1.0
 10
5.174999999999969
 20
-9.662364900920178
 30
0.0
 10
5.175000000000082
 20
-9.335591771444829
 30
0.0
 10
5.175000000000196
 20
-8.741166542652078
 30
0.0
 10
5.174999999999713
 20
-7.695622558806111
 30
0.0
 10
5.174999999999997
 20
-6.648907085862998
 30
0.0
 10
5.175000000000139
 20
-5.536522342075802
 30
0.0
 10
5.17499999999994
 20
-4.413597495601078
 30
0.0
 10
5.174999999999827
 20
-3.290739709111907
 30
0.0
 10
5.175000000000196
 20
-2.220177124304517
 30
0.0
 10
5.174999999999628
 20
-1.212962963442063
 30
0.0
 10
5.175000000000196
 20
-0.3154212039304944
 30
0.0
 10
5.174999999999912
 20
0.4619614056715413
 30
0.0
 10
5.174999999999912
 20
1.087811243160342
 30
0.0
 10
5.175000000000026
 20
1.538389357185974
 30
0.0
 10
5.174999999999969
 20
1.776419510656648
 30
0.0
 10
5.174999999999997
 20
1.812035556830818
 30
0.0
 10
5.174999999999969
 20
1.818594518721707
 30
0.0
  0
SPLINE
  5
252
330
1F
100
AcDbEntity
  8
외형선
  6
Continuous
 62
     1
370
    15
100
AcDbSpline
210
0.0
220
0.0
230
1.0
 70
     8
 71
     3
 72
    36
 73
    32
 74
     0
 42
0.000000001
 43
0.00000001
 40
0.0
 40
0.0
 40
0.0
 40
0.0
 40
0.0625000000000006
 40
0.0625000000000006
 40
0.1250000000000012
 40
0.1250000000000012
 40
0.1875000000000017
 40
0.1875000000000017
 40
0.2500000000000023
 40
0.2500000000000023
 40
0.3125000000000029
 40
0.3125000000000029
 40
0.3750000000000035
 40
0.3750000000000035
 40
0.4375000000000041
 40
0.4375000000000041
 40
0.5000000000000047
 40
0.5000000000000047
 40
0.5625000000000052
 40
0.5625000000000052
 40
0.6250000000000058
 40
0.6250000000000058
 40
0.7500000000000052
 40
0.7500000000000052
 40
0.8125000000000039
 40
0.8125000000000039
 40
0.8750000000000026
 40
0.8750000000000026
 40
0.9375000000000013
 40
0.9375000000000013
 40
1.0
 40
1.0
 40
1.0
 40
1.0
 10
36.90499999999999
 20
-11.07063695428312
 30
0.0
 10
36.24637952679105
 20
-11.03758061296809
 30
0.0
 10
35.5833576645468
 20
-10.98485904772695
 30
0.0
 10
34.25902541931664
 20
-10.84071425293342
 30
0.0
 10
33.60068446596266
 20
-10.74947449366877
 30
0.0
 10
32.27904245935214
 20
-10.52912593662888
 30
0.0
 10
31.61542288053666
 20
-10.39992646831585
 30
0.0
 10
30.29313228215285
 20
-10.1055122042241
 30
0.0
 10
29.63519642951771
 20
-9.940429086770518
 30
0.0
 10
28.31111622587703
 20
-9.574997586910573
 30
0.0
 10
27.64789426166841
 20
-9.374846722282665
 30
0.0
 10
26.32961139173507
 20
-8.943000063251606
 30
0.0
 10
25.6680546109166
 20
-8.710615412424541
 30
0.0
 10
24.34351118223022
 20
-8.215635924633094
 30
0.0
 10
23.68437993382891
 20
-7.953554379875595
 30
0.0
 10
22.36372272504811
 20
-7.401925680714275
 30
0.0
 10
21.70016547105804
 20
-7.112052350977773
 30
0.0
 10
20.37713609290684
 20
-6.508747867792845
 30
0.0
 10
19.719486466025
 20
-6.195648923740873
 30
0.0
 10
18.39586485786562
 20
-5.547336693287637
 30
0.0
 10
17.73243918570189
 20
-5.212494868879961
 30
0.0
 10
15.7531208191668
 20
-4.18397933123757
 30
0.0
 10
14.4276422639068
 20
-3.462694339515725
 30
0.0
 10
12.44834352378776
 20
-2.353354513278699
 30
0.0
 10
11.78491969930774
 20
-1.97806817989596
 30
0.0
 10
10.4612923003594
 20
-1.222421143626338
 30
0.0
 10
9.803641096172171
 20
-0.8425612644585492
 30
0.0
 10
8.48061905282249
 20
-0.0797293207980765
 30
0.0
 10
7.817060730269603
 20
0.3028963020780999
 30
0.0
 10
6.496391968689963
 20
1.064487665332845
 30
0.0
 10
5.837270939896499
 20
1.443843132867574
 30
0.0
 10
5.175000000000026
 20
1.820574082994188
 30
0.0
  0
LINE
  5
253
330
1F
100
AcDbEntity
  8
외형선
  6
Continuous
370
    15
100
AcDbLine
 10
5.174999999999969
 20
5.488748561508988
 30
0.0
 11
5.174999999999969
 21
1.820574082994217
 31
0.0
  0
SPLINE
  5
254
330
1F
100
AcDbEntity
  8
외형선
  6
Continuous
 62
     1
370
    15
100
AcDbSpline
210
0.0
220
0.0
230
1.0
 70
     8
 71
     3
 72
    20
 73
    16
 74
     0
 42
0.000000001
 43
0.00000001
 40
0.0
 40
0.0
 40
0.0
 40
0.0
 40
0.0000072940109179
 40
0.0000072940109179
 40
0.0000072940109179
 40
0.0000145296617563
 40
0.0000145296617563
 40
0.0000145296617563
 40
0.0000228143936086
 40
0.0000228143936086
 40
0.0000228143936086
 40
0.0000321423086734
 40
0.0000321423086734
 40
0.0000321423086734
 40
0.0000360160420943
 40
0.0000360160420943
 40
0.0000360160420943
 40
0.0000360160420943
 10
36.925
 20
4.697099539121563
 30
0.0
 10
36.925
 20
4.698737813883579
 30
0.0
 10
36.92458570082927
 20
4.700565597413419
 30
0.0
 10
36.92385760154205
 20
4.702403492921551
 30
0.0
 10
36.92313310017597
 20
4.704232306422337
 30
0.0
 10
36.92208415373879
 20
4.706118653839678
 30
0.0
 10
36.92081533014927
 20
4.707943485382909
 30
0.0
 10
36.9193643713818
 20
4.710030265096517
 30
0.0
 10
36.91759235741223
 20
4.71208671228322
 30
0.0
 10
36.91563411226865
 20
4.713984028984886
 30
0.0
 10
36.91343495727021
 20
4.716114759921087
 30
0.0
 10
36.91094049210845
 20
4.718102337485785
 30
0.0
 10
36.90834065001418
 20
4.719777014803736
 30
0.0
 10
36.90724867638092
 20
4.720480405013245
 30
0.0
 10
36.90612944586861
 20
4.721134931573982
 30
0.0
 10
36.90500000000004
 20
4.721726674702087
 30
0.0
  0
LINE
  5
255
330
1F
100
AcDbEntity
  8
외형선
  6
Continuous
 62
     1
370
    15
100
AcDbLine
 10
36.92499999999997
 20
4.697099539121563
 30
0.0
 11
36.92499999999997
 21
0.9566529477833576
 31
0.0
  0
SPLINE
  5
256
330
1F
100
AcDbEntity
  8
외형선
  6
Continuous
 62
     1
370
    15
100
AcDbSpline
210
0.0
220
0.0
230
1.0
 70
     8
 71
     3
 72
    14
 73
    10
 74
     0
 42
0.000000001
 43
0.00000001
 40
0.0
 40
0.0
 40
0.0
 40
0.0
 40
0.1631017914138302
 40
0.3262121522345942
 40
0.4893299535425894
 40
0.652454062762919
 40
0.815583344218333
 40
0.9758024633868019
 40
1.0
 40
1.0
 40
1.0
 40
1.0
 10
36.90499999999987
 20
4.721726674702108
 30
0.0
 10
35.72060462116299
 20
5.325242079797217
 30
0.0
 10
33.351751635074
 20
6.532304598830439
 30
0.0
 10
29.79833891051568
 20
8.078452713486111
 30
0.0
 10
26.24473272375867
 20
9.359018620044711
 30
0.0
 10
22.69096846908305
 20
10.32786722742268
 30
0.0
 10
19.15820372852151
 20
10.90752783207739
 30
0.0
 10
16.63438638812629
 20
11.1535892340519
 30
0.0
 10
15.29517323987027
 20
11.09659050871671
 30
0.0
 10
15.11945343272784
 20
11.08911163574095
 30
0.0
  0
SPLINE
  5
257
330
1F
100
AcDbEntity
  8
치수문자_일반주서
 62
     1
100
AcDbSpline
210
0.0
220
0.0
230
1.0
 70
     8
 71
     3
 72
    20
 73
    16
 74
     0
 42
0.000000001
 43
0.00000001
 40
0.0000000000000001
 40
0.0000000000000001
 40
0.0000000000000001
 40
0.0000000000000001
 40
0.0000077281916521
 40
0.0000077281916521
 40
0.0000077281916521
 40
0.0000155363870227
 40
0.0000155363870227
 40
0.0000155363870227
 40
0.0000222069314366
 40
0.0000222069314366
 40
0.0000222069314366
 40
0.000027974970013
 40
0.000027974970013
 40
0.000027974970013
 40
0.000032750236244
 40
0.000032750236244
 40
0.000032750236244
 40
0.000032750236244
 10
36.90499999999999
 20
11.07063695428307
 30
0.0
 10
36.90722956687607
 20
11.07074885685313
 30
0.0
 10
36.90954502362338
 20
11.07047499248887
 30
0.0
 10
36.9117653367734
 20
11.06976921730648
 30
0.0
 10
36.91399883000902
 20
11.06905925254508
 30
0.0
 10
36.91620835273228
 20
11.0678773677185
 30
0.0
 10
36.91811459967643
 20
11.0662781798505
 30
0.0
 10
36.91974717265315
 20
11.06490858242977
 30
0.0
 10
36.92120800544923
 20
11.06318424288426
 30
0.0
 10
36.92231797083168
 20
11.06127346229087
 30
0.0
 10
36.92328217823406
 20
11.05961360080183
 30
0.0
 10
36.92401093238978
 20
11.05776782391042
 30
0.0
 10
36.92445259901497
 20
11.05589818532203
 30
0.0
 10
36.92482026765613
 20
11.05434179088301
 30
0.0
 10
36.92499999999994
 20
11.05273826064439
 30
0.0
 10
36.92499999999994
 20
11.05117058901452
 30
0.0
1001
PE_URL
1000

  0
SPLINE
  5
258
330
1F
100
AcDbEntity
  8
외형선
  6
Continuous
 62
     1
370
    15
100
AcDbSpline
210
0.0
220
0.0
230
1.0
 70
     8
 71
     3
 72
    10
 73
     6
 74
     0
 42
0.000000001
 43
0.00000001
 40
0.0
 40
0.0
 40
0.0
 40
0.0
 40
0.3065172046873266
 40
0.6532629920575198
 40
1.0
 40
1.0
 40
1.0
 40
1.0
 10
26.83997320225801
 20
9.09384672769988
 30
0.0
 10
27.86834713619008
 20
9.416579130459308
 30
0.0
 10
30.06006304238106
 20
10.10440066816254
 30
0.0
 10
33.41507333042303
 20
10.78609513887134
 30
0.0
 10
35.74170092843737
 20
10.97579048298765
 30
0.0
 10
36.90499999999999
 20
11.07063695428309
 30
0.0
1001
PE_URL
1000

  0
LINE
  5
259
330
1F
100
AcDbEntity
  8
외형선
  6
Continuous
 62
     1
370
    15
100
AcDbLine
 10
36.92499999999997
 20
4.713330607337685
 30
0.0
 11
36.92499999999997
 21
11.05117058901454
 31
0.0
1001
PE_URL
1000

  0
LINE
  5
25A
330
1F
100
AcDbEntity
  8
외형선
  6
Continuous
 62
     1
370
    15
100
AcDbLine
 10
5.175000000000026
 20
-10.96235222287306
 30
0.0
 11
8.343576038628967
 21
-11.09421671807043
 31
0.0
1001
PE_URL
1000

  0
LINE
  5
25B
330
1F
100
AcDbEntity
  8
외형선
  6
Continuous
370
    15
100
AcDbLine
 10
5.174999999999969
 20
-9.662364900920178
 30
0.0
 11
5.174999999999969
 21
-10.96235222287305
 31
0.0
  0
LINE
  5
25C
330
1F
100
AcDbEntity
  8
외형선
  6
Continuous
 62
     1
370
    15
100
AcDbLine
 10
36.92499999999997
 20
-10.04892094553356
 30
0.0
 11
36.92499999999997
 21
-11.05117058901456
 31
0.0
  0
SPLINE
  5
25D
330
1F
100
AcDbEntity
  8
외형선
  6
Continuous
370
    15
100
AcDbSpline
210
0.0
220
0.0
230
1.0
 70
     8
 71
     3
 72
     8
 73
     4
 74
     0
 42
0.000000001
 43
0.00000001
 40
0.0
 40
0.0
 40
0.0
 40
0.0
 40
1.0
 40
1.0
 40
1.0
 40
1.0
 10
5.174999999999912
 20
1.83597878815765
 30
0.0
 10
5.008272061791175
 20
1.92981225620974
 30
0.0
 10
4.841516602634456
 20
2.023444711345537
 30
0.0
 10
4.674817857633442
 20
2.116828893820145
 30
0.0
  0
LINE
  5
25E
330
1F
100
AcDbEntity
  8
외형선
  6
Continuous
370
    15
100
AcDbLine
 10
4.674817857633386
 20
-9.438015915715585
 30
0.0
 11
4.674817857633386
 21
2.116907893200835
 31
0.0
  0
SPLINE
  5
25F
330
1F
100
AcDbEntity
  8
외형선
  6
Continuous
370
    15
100
AcDbSpline
210
0.0
220
0.0
230
1.0
 70
     8
 71
     3
 72
     8
 73
     4
 74
     0
 42
0.000000001
 43
0.00000001
 40
0.0
 40
0.0
 40
0.0
 40
0.0
 40
1.0
 40
1.0
 40
1.0
 40
1.0
 10
5.174999999999969
 20
-9.581444781776941
 30
0.0
 10
5.008272061791175
 20
-9.534696970545742
 30
0.0
 10
4.8415166026344
 20
-9.486870629085299
 30
0.0
 10
4.674817857633357
 20
-9.43799010389137
 30
0.0
  0
LINE
  5
260
330
1F
100
AcDbEntity
  8
외형선
  6
Continuous
370
    15
100
AcDbLine
 10
5.174999999999969
 20
-9.67085048562112
 30
0.0
 11
5.175000000000026
 21
-9.581444781776941
 31
0.0
  0
SPLINE
  5
261
330
1F
100
AcDbEntity
  8
외형선
  6
Continuous
370
    15
100
AcDbSpline
210
0.0
220
0.0
230
1.0
 70
     8
 71
     3
 72
     8
 73
     4
 74
     0
 42
0.000000001
 43
0.00000001
 40
0.0
 40
0.0
 40
0.0
 40
0.0
 40
1.0
 40
1.0
 40
1.0
 40
1.0
 10
5.174999999999912
 20
-10.84569877368144
 30
0.0
 10
5.008272061791175
 20
-10.82981448069509
 30
0.0
 10
4.841516602634456
 20
-10.81271138398663
 30
0.0
 10
4.674817857633442
 20
-10.79439833590961
 30
0.0
  0
LINE
  5
262
330
1F
100
AcDbEntity
  8
외형선
  6
Continuous
370
    15
100
AcDbLine
 10
4.674817857633386
 20
-11.00000000000002
 30
0.0
 11
4.674817857633386
 21
-10.79438284348411
 31
0.0
  0
SPLINE
  5
263
330
1F
100
AcDbEntity
  8
외형선
  6
Continuous
370
    15
100
AcDbSpline
210
0.0
220
0.0
230
1.0
 70
     8
 71
     3
 72
     8
 73
     4
 74
     0
 42
0.000000001
 43
0.00000001
 40
0.0
 40
0.0
 40
0.0
 40
0.0
 40
1.0
 40
1.0
 40
1.0
 40
1.0
 10
5.174999999999912
 20
10.8456987736814
 30
0.0
 10
5.008272061791175
 20
10.82981448069505
 30
0.0
 10
4.841516602634456
 20
10.81271138398658
 30
0.0
 10
4.674817857633442
 20
10.79439833590956
 30
0.0
  0
LINE
  5
264
330
1F
100
AcDbEntity
  8
외형선
  6
Continuous
370
    15
100
AcDbLine
 10
4.674817857633386
 20
5.650119961089363
 30
0.0
 11
4.674817857633386
 21
10.99999999999998
 31
0.0
  0
SPLINE
  5
265
330
1F
100
AcDbEntity
  8
외형선
  6
Continuous
370
    15
100
AcDbSpline
210
0.0
220
0.0
230
1.0
 70
     8
 71
     3
 72
     8
 73
     4
 74
     0
 42
0.000000001
 43
0.00000001
 40
0.0
 40
0.0
 40
0.0
 40
0.0
 40
1.0
 40
1.0
 40
1.0
 40
1.0
 10
5.174999999999969
 20
5.403324522343691
 30
0.0
 10
5.008272061791175
 20
5.486220074911092
 30
0.0
 10
4.8415166026344
 20
5.568513413853491
 30
0.0
 10
4.674817857633357
 20
5.650163077190765
 30
0.0
  0
LINE
  5
266
330
1F
100
AcDbEntity
  8
외형선
  6
Continuous
370
    15
100
AcDbLine
 10
1.999999999999986
 20
-0.0000000000000178
 30
0.0
 11
1.999999999999986
 21
9.52499999999998
 31
0.0
  0
LINE
  5
267
330
1F
100
AcDbEntity
  8
외형선
  6
Continuous
370
    15
100
AcDbLine
 10
1.999999999999986
 20
-9.52500000000001
 30
0.0
 11
1.999999999999986
 21
-0.0000000000000178
 31
0.0
1001
PE_URL
1000

  0
SPLINE
  5
268
330
1F
100
AcDbEntity
  8
외형선
  6
Continuous
370
    15
100
AcDbSpline
210
0.0
220
0.0
230
1.0
 70
    24
 71
     3
 72
    20
 73
    16
 74
     0
 42
0.000000001
 43
0.00000001
 40
0.0
 40
0.0
 40
0.0
 40
0.0
 40
0.110313193756297
 40
0.184505099867443
 40
0.2608485762819291
 40
0.3350404823930746
 40
0.4113839588075602
 40
0.4855758649187054
 40
0.5619193413331904
 40
0.6361112474443356
 40
0.7124547238588209
 40
0.7866466299699663
 40
0.8629901063844516
 40
0.9371820124955965
 40
0.9999999999999999
 40
0.9999999999999999
 40
0.9999999999999999
 40
0.9999999999999999
 10
5.175000000000054
 20
-9.581444781776941
 30
0.0
 10
5.175000000000026
 20
-9.171656744701576
 30
0.0
 10
5.175000000000026
 20
-8.486262911647419
 30
0.0
 10
5.175000000000054
 20
-7.315590828758307
 30
0.0
 10
5.174999999999883
 20
-6.246028709198367
 30
0.0
 10
5.175000000000026
 20
-5.121936858844979
 30
0.0
 10
5.17499999999994
 20
-3.999166113547322
 30
0.0
 10
5.175000000000054
 20
-2.888259094210358
 30
0.0
 10
5.175000000000054
 20
-1.840962327394809
 30
0.0
 10
5.174999999999685
 20
-0.8678646331284092
 30
0.0
 10
5.175000000000139
 20
-0.014535271086725
 30
0.0
 10
5.174999999999883
 20
0.712076808294487
 30
0.0
 10
5.174999999999912
 20
1.271468801138393
 30
0.0
 10
5.174999999999912
 20
1.658954682438765
 30
0.0
 10
5.174999999999969
 20
1.764605586702761
 30
0.0
 10
5.174999999999997
 20
1.813045717621389
 30
0.0
  0
SPLINE
  5
269
330
1F
100
AcDbEntity
  8
외형선
  6
Continuous
370
    15
100
AcDbSpline
210
0.0
220
0.0
230
1.0
 70
    24
 71
     3
 72
    13
 73
     9
 74
     0
 42
0.000000001
 43
0.00000001
 40
0.0
 40
0.0
 40
0.0
 40
0.0
 40
0.1330393195156861
 40
0.3351980461717495
 40
0.5316593808139508
 40
0.733818107470013
 40
0.8660640854271467
 40
1.0
 40
1.0
 40
1.0
 40
1.0
 10
5.174999999999997
 20
5.629107987535615
 30
0.0
 10
5.174999999999969
 20
5.816884513683664
 30
0.0
 10
5.174999999999855
 20
6.289995206904873
 30
0.0
 10
5.174999999999969
 20
7.170761811216718
 30
0.0
 10
5.174999999999883
 20
8.229471154819894
 30
0.0
 10
5.175000000000082
 20
9.215048153605597
 30
0.0
 10
5.174999999999912
 20
10.09613111463932
 30
0.0
 10
5.174999999999997
 20
10.59478759660843
 30
0.0
 10
5.175000000000054
 20
10.84569877368142
 30
0.0
  0
LINE
  5
26A
330
1F
100
AcDbEntity
  8
외형선
  6
Continuous
370
    15
100
AcDbLine
 10
-164.37
 20
-0.0000000000000178
 30
0.0
 11
-164.37
 21
9.52499999999998
 31
0.0
  0
LINE
  5
26B
330
1F
100
AcDbEntity
  8
외형선
  6
Continuous
370
    15
100
AcDbLine
 10
-164.37
 20
-9.52500000000001
 30
0.0
 11
-164.37
 21
-0.0000000000000178
 31
0.0
  0
LINE
  5
26C
330
1F
100
AcDbEntity
  8
외형선
  6
Continuous
370
    15
100
AcDbLine
 10
-166.275
 20
-0.0000000000000178
 30
0.0
 11
-166.275
 21
7.620000000000001
 31
0.0
  0
LINE
  5
26D
330
1F
100
AcDbEntity
  8
외형선
  6
Continuous
370
    15
100
AcDbLine
 10
-166.275
 20
-7.620000000000037
 30
0.0
 11
-166.275
 21
-0.0000000000000178
 31
0.0
  0
LINE
  5
26E
330
1F
100
AcDbEntity
  8
중심선
 62
     1
100
AcDbLine
 10
-169.275
 20
-0.0000000000000178
 30
0.0
 11
39.92499999999997
 21
0.0000000000000036
 31
0.0
  0
LINE
  5
26F
330
1F
100
AcDbEntity
  8
참조1
100
AcDbLine
 10
-64.67500000000003
 20
-0.0000000000000178
 30
0.0
 11
-64.67500000000003
 21
-40.00000000000003
 31
0.0
  0
LINE
  5
270
330
1F
100
AcDbEntity
  8
참조1
100
AcDbLine
 10
-64.67500000000003
 20
-40.00000000000003
 30
0.0
 11
-117.9338568143087
 21
-40.00000000000001
 31
0.0
  0
INSERT
  5
272
330
1F
100
AcDbEntity
  8
0
  6
Continuous
 62
     7
100
AcDbBlockReference
 66
     1
  2
블럭10
 10
-78.61527293212524
 20
-52.04717430164395
 30
0.0
  0
ATTRIB
  5
273
330
272
100
AcDbEntity
  8
FORMAT
 62
     2
100
AcDbText
 10
-88.75690894426187
 20
-49.97180738881176
 30
0.0
 40
4.233333333333333
  1
EM102056 [ 4 FLUTE ]
 41
0.75
  7
SLDTEXTSTYLE0
 11
-88.75690894426187
 21
-52.08847405547843
 31
0.0
100
AcDbAttribute
  2
AUTOATTR0
 70
     0
 74
     1
  0
SEQEND
  5
274
330
272
100
AcDbEntity
  8
0
  6
Continuous
 62
     7
  0
HATCH
  5
275
330
1F
100
AcDbEntity
  8
중심선
100
AcDbHatch
 10
0.0
 20
0.0
 30
0.0
210
0.0
220
0.0
230
1.0
  2
SOLID
 70
     1
 71
     0
 91
        1
 92
        0
 93
        4
 72
     1
 10
-72.9003636277444
 20
-35.80000000000001
 11
-76.34663887158167
 21
-35.80000000000001
 72
     1
 10
-76.34663887158167
 20
-35.80000000000001
 11
-78.4748687307857
 21
-38.33632558057261
 72
     1
 10
-78.4748687307857
 20
-38.33632558057261
 11
-75.02856040183526
 21
-38.33628615127012
 72
     1
 10
-75.02856040183528
 20
-38.33628615127012
 11
-72.90036362774441
 21
-35.80000000000001
 97
        0
 75
     0
 76
     1
 98
        1
 10
-65.15000000000178
 20
-1.572187507386179
  0
HATCH
  5
276
330
1F
100
AcDbEntity
  8
중심선
100
AcDbHatch
 10
0.0
 20
0.0
 30
0.0
210
0.0
220
0.0
230
1.0
  2
SOLID
 70
     1
 71
     0
 91
        1
 92
        0
 93
        4
 72
     1
 10
-67.88759963670844
 20
-35.80000000000001
 11
-71.33387488054566
 21
-35.79999999999998
 72
     1
 10
-71.33387488054568
 20
-35.79999999999998
 11
-75.86501288890312
 21
-41.20000000000002
 72
     1
 10
-75.86501288890312
 20
-41.20000000000003
 11
-72.41873764506585
 21
-41.20000000000003
 72
     1
 10
-72.41873764506583
 20
-41.20000000000003
 11
-67.88759963670844
 21
-35.80000000000002
 97
        0
 75
     0
 76
     1
 98
        1
 10
-65.15000000000178
 20
-1.572187507386179
  0
HATCH
  5
277
330
1F
100
AcDbEntity
  8
중심선
100
AcDbHatch
 10
0.0
 20
0.0
 30
0.0
210
0.0
220
0.0
230
1.0
  2
SOLID
 70
     1
 71
     0
 91
        1
 92
        0
 93
        4
 72
     1
 10
-62.87483564567255
 20
-35.79999999999998
 11
-66.32111088950967
 21
-35.79999999999998
 72
     1
 10
-66.32111088950967
 20
-35.79999999999998
 11
-73.36954779139892
 21
-44.20000000000003
 72
     1
 10
-73.36954779139892
 20
-44.20000000000003
 11
-69.92327254756164
 21
-44.20000000000003
 72
     1
 10
-69.92327254756164
 20
-44.20000000000003
 11
-62.87483564567255
 21
-35.79999999999998
 97
        0
 75
     0
 76
     1
 98
        1
 10
-65.15000000000178
 20
-1.572187507386179
  0
HATCH
  5
278
330
1F
100
AcDbEntity
  8
중심선
100
AcDbHatch
 10
0.0
 20
0.0
 30
0.0
210
0.0
220
0.0
230
1.0
  2
SOLID
 70
     1
 71
     0
 91
        1
 92
        0
 93
        6
 72
     3
 10
-58.07494521466036
 20
-40.00000000005129
 11
3.960054785062283
 21
1.540882976769353E-10
 40
0.3939339440162628
 50
17.0953918060847
 51
320.001965768507
 73
     0
 72
     1
 10
-56.39194555895979
 20
-38.58789400463829
 11
-54.08664368525875
 21
-36.65356729459039
 72
     3
 10
-58.0749452147132
 20
-40.00000000000016
 11
6.600054785286829
 21
-1.278976924368180E-13
 40
0.636358354079598
 50
39.99873849337429
 51
368.4976242363725
 73
     1
 72
     1
 10
-51.64961272281262
 20
-39.03999999993003
 11
-59.39487790787724
 21
-39.03999999993003
 72
     1
 10
-59.39487790787724
 20
-39.03999999993003
 11
-59.39490295232319
 21
-40.95999999992993
 72
     1
 10
-59.39490295232322
 20
-40.95999999992993
 11
-54.95352318285121
 21
-40.95999999992991
 97
        0
 75
     0
 76
     1
 98
        1
 10
-65.15000000000178
 20
-1.572187507386179
  0
DIMENSION
  5
279
330
1F
100
AcDbEntity
  8
치수문자_일반주서
100
AcDbDimension
  2
*D12
 10
-177.0043639043334
 20
-9.525000000000068
 30
0.0
 11
-177.0043639043334
 21
2.326099604931276
 31
0.0
 70
   160
  1
%%c<>
 71
     2
 42
19.05000000000001
 52
-270.0
  3
SLDDIMSTYLE0
100
AcDbAlignedDimension
 13
-164.37
 23
9.524999999999988
 33
0.0
 14
-164.37
 24
-9.525000000000023
 34
0.0
 50
90.0000000000002
100
AcDbRotatedDimension
1001
ACAD
1000
DSTYLE
1002
{
1070
   171
1070
     6
1070
   273
1070
     7
1002
}
1001
ACAD_DSTYLE_DIMFLIPARROW_SYMBOL
1070
   385
1070
     0
1001
ACAD_DSTYLE_DIMFLIPARROW_WHICH_SYMBOL
1070
   386
1070
     3
  0
DIMENSION
  5
27A
330
1F
100
AcDbEntity
  8
치수문자_일반주서
100
AcDbDimension
  2
*D13
 10
64.87787065571861
 20
-11.09592681416529
 30
0.0
 11
64.92505097057459
 21
41.08976544006433
 31
0.0
 70
   160
  1
%%c<>
 71
     2
 42
22.12181658414836
  3
SLDDIMSTYLE0
100
AcDbAlignedDimension
 13
36.92499999999997
 23
11.05117058901454
 33
0.0
 14
36.9050000000001
 24
-11.07063695428313
 34
0.0
 50
89.9481997447181
100
AcDbRotatedDimension
1001
PE_URL
1000

1001
ACAD
1000
DSTYLE
1002
{
1070
   171
1070
     6
1070
   273
1070
     7
1002
}
  0
DIMENSION
  5
27B
330
1F
100
AcDbEntity
  8
치수문자_일반주서
100
AcDbDimension
  2
*D14
 10
5.174999999999969
 20
21.11761024726064
 30
0.0
 11
22.72074182570169
 21
21.11761024726064
 31
0.0
 70
   160
  1
<>
 71
     2
 42
31.75
  3
SLDDIMSTYLE0
100
AcDbAlignedDimension
 13
36.92499999999997
 23
11.05117058901454
 33
0.0
 14
5.174999999999969
 24
10.96235222287302
 34
0.0
100
AcDbRotatedDimension
1001
PE_URL
1000

1001
ACAD
1000
DSTYLE
1002
{
1070
   171
1070
     6
1070
   273
1070
     7
1002
}
  0
DIMENSION
  5
27C
330
1F
100
AcDbEntity
  8
치수문자_일반주서
100
AcDbDimension
  2
*D15
 10
-166.275
 20
33.11761024726069
 30
0.0
 11
-64.67500000000003
 21
33.11761024726069
 31
0.0
 70
   160
  1
<>
 71
     2
 42
203.2
  3
SLDDIMSTYLE0
100
AcDbAlignedDimension
 13
36.92499999999997
 23
11.05117058901454
 33
0.0
 14
-166.275
 24
7.620000000000001
 34
0.0
 50
0.000000000000004
100
AcDbRotatedDimension
1001
PE_URL
1000

1001
ACAD
1000
DSTYLE
1002
{
1070
   171
1070
     6
1070
   273
1070
     7
1002
}
  0
LINE
  5
27D
330
1F
100
AcDbEntity
  8
참조1
100
AcDbLine
 10
-19.96151618465443
 20
7.439999999999987
 30
0.0
 11
-19.96151618465443
 21
-7.440000000000015
 31
0.0
  0
LINE
  5
27E
330
1F
100
AcDbEntity
  8
참조1
100
AcDbLine
 10
-7.26151618465444
 20
5.439999999999987
 30
0.0
 11
-19.96151618465443
 21
5.439999999999987
 31
0.0
  0
SOLID
  5
27F
330
1F
100
AcDbEntity
  8
참조1
100
AcDbTrace
 10
-19.96151618465443
 20
5.439999999999987
 30
0.0
 11
-13.61151618465443
 21
4.423999999999989
 31
0.0
 12
-13.61151618465443
 22
6.455999999999985
 32
0.0
 13
-13.61151618465443
 23
6.455999999999985
 33
0.0
  0
LINE
  5
280
330
1F
100
AcDbEntity
  8
참조1
100
AcDbLine
 10
-7.26151618465444
 20
-5.440000000000015
 30
0.0
 11
-19.96151618465443
 21
-5.440000000000015
 31
0.0
  0
SOLID
  5
281
330
1F
100
AcDbEntity
  8
참조1
100
AcDbTrace
 10
-19.96151618465443
 20
-5.440000000000015
 30
0.0
 11
-13.61151618465443
 21
-6.456000000000021
 31
0.0
 12
-13.61151618465443
 22
-4.424000000000017
 32
0.0
 13
-13.61151618465443
 23
-4.424000000000017
 33
0.0
  0
MTEXT
  5
282
330
1F
100
AcDbEntity
  8
참조1
100
AcDbMText
 10
-10.36140137409187
 20
11.06571756601606
 30
0.0
 40
3.5
 41
0.0
 71
     1
 72
     1
  1
A
  7
SLDTEXTSTYLE0
 73
     1
 44
1.0
  0
MTEXT
  5
283
330
1F
100
AcDbEntity
  8
참조1
100
AcDbMText
 10
-10.36140137409187
 20
0.1857175660160557
 30
0.0
 40
3.5
 41
0.0
 71
     1
 72
     1
  1
A
  7
SLDTEXTSTYLE0
 73
     1
 44
1.0
  0
INSERT
  5
284
330
1F
100
AcDbEntity
  8
해칭선
100
AcDbBlockReference
  2
SW_DOWELSYMBOL_0
 10
0.0
 20
0.0
 30
0.0
  0
LINE
  5
2BC
330
1F
100
AcDbEntity
  8
외형선
  6
Continuous
370
    15
100
AcDbLine
 10
4.674817857633386
 20
10.99999999999998
 30
0.0
 11
1.999999999999986
 21
9.52499999999998
 31
0.0
1001
PE_URL
1000

  0
LINE
  5
2BD
330
1F
100
AcDbEntity
  8
외형선
  6
Continuous
370
    15
100
AcDbLine
 10
4.674817857633386
 20
-11.00000000000002
 30
0.0
 11
1.999999999999986
 21
-9.52500000000001
 31
0.0
1001
PE_URL
1000

  0
ENDSEC
  0
SECTION
  2
OBJECTS
  0
DICTIONARY
  5
C
330
0
100
AcDbDictionary
281
     1
  3
ACAD_GROUP
350
D
  3
ACAD_LAYOUT
350
1A
  3
ACAD_MLINESTYLE
350
17
  3
ACAD_PLOTSETTINGS
350
19
  3
ACAD_PLOTSTYLENAME
350
E
  3
ACAD_SCALELIST
350
47
  3
APPDATA
350
135
  3
DWGPROPS
350
2BE
  0
DICTIONARY
  5
D
102
{ACAD_REACTORS
330
C
102
}
330
C
100
AcDbDictionary
281
     1
  0
DICTIONARY
  5
1A
102
{ACAD_REACTORS
330
C
102
}
330
C
100
AcDbDictionary
281
     1
  3
Layout1
350
1E
  3
Layout2
350
26
  3
Model
350
22
  0
DICTIONARY
  5
17
102
{ACAD_REACTORS
330
C
102
}
330
C
100
AcDbDictionary
281
     1
  3
Standard
350
18
  0
DICTIONARY
  5
19
102
{ACAD_REACTORS
330
C
102
}
330
C
100
AcDbDictionary
281
     1
  0
ACDBDICTIONARYWDFLT
  5
E
102
{ACAD_REACTORS
330
C
102
}
330
C
100
AcDbDictionary
281
     1
  3
Normal
350
F
100
AcDbDictionaryWithDefault
340
F
  0
DICTIONARY
  5
47
102
{ACAD_REACTORS
330
C
102
}
330
C
100
AcDbDictionary
281
     1
  3
A0
350
48
  3
A1
350
49
  3
A2
350
4A
  3
A3
350
4B
  3
A4
350
4C
  3
A5
350
4D
  3
A6
350
4E
  3
A7
350
4F
  3
A8
350
50
  3
A9
350
51
  3
B0
350
52
  3
B1
350
53
  3
B2
350
54
  3
B3
350
55
  3
B4
350
56
  3
B5
350
57
  3
B6
350
58
  3
B7
350
59
  3
B8
350
5A
  3
B9
350
5B
  3
C0
350
5C
  3
C1
350
5D
  3
C2
350
5E
  3
C3
350
5F
  3
C4
350
60
  3
C5
350
61
  3
C6
350
62
  3
C7
350
63
  3
C8
350
64
  3
C9
350
65
  3
D0
350
66
  3
D1
350
67
  3
D2
350
68
  0
DICTIONARY
  5
135
102
{ACAD_REACTORS
330
C
102
}
330
C
100
AcDbDictionary
281
     1
  0
XRECORD
  5
2BE
102
{ACAD_REACTORS
330
C
102
}
330
C
100
AcDbXrecord
280
     1
  1
DWGPROPS COOKIE
  2

  3

  4

  6

  7

  8
12017103
  9

300
=
301
=
302
=
303
=
304
=
305
=
306
=
307
=
308
=
309
=
 40
0.0
 41
2458299.204814005
 42
2458302.254369479
  1

 90
        0
  0
LAYOUT
  5
1E
102
{ACAD_REACTORS
330
1A
102
}
330
1A
100
AcDbPlotSettings
  1

  2
none_device
  4

  6

 40
0.0
 41
0.0
 42
0.0
 43
0.0
 44
0.0
 45
0.0
 46
0.0
 47
0.0
 48
0.0
 49
0.0
140
0.0
141
0.0
142
1.0
143
1.0
 70
   688
 72
     1
 73
     0
 74
     5
  7

 75
    16
147
1.0
148
0.0
149
0.0
100
AcDbLayout
  1
Layout1
 70
     1
 71
     1
 10
0.0
 20
0.0
 11
420.0
 21
297.0
 12
0.0
 22
0.0
 32
0.0
 14
1.000000000000000E+20
 24
1.000000000000000E+20
 34
1.000000000000000E+20
 15
-1.000000000000000E+20
 25
-1.000000000000000E+20
 35
-1.000000000000000E+20
146
0.0
 13
0.0
 23
0.0
 33
0.0
 16
1.0
 26
0.0
 36
0.0
 17
0.0
 27
1.0
 37
0.0
 76
     0
330
1B
  0
LAYOUT
  5
26
102
{ACAD_REACTORS
330
1A
102
}
330
1A
100
AcDbPlotSettings
  1

  2
none_device
  4

  6

 40
0.0
 41
0.0
 42
0.0
 43
0.0
 44
0.0
 45
0.0
 46
0.0
 47
0.0
 48
0.0
 49
0.0
140
0.0
141
0.0
142
1.0
143
1.0
 70
   688
 72
     1
 73
     0
 74
     5
  7

 75
    16
147
1.0
148
0.0
149
0.0
100
AcDbLayout
  1
Layout2
 70
     1
 71
     2
 10
0.0
 20
0.0
 11
0.0
 21
0.0
 12
0.0
 22
0.0
 32
0.0
 14
0.0
 24
0.0
 34
0.0
 15
0.0
 25
0.0
 35
0.0
146
0.0
 13
0.0
 23
0.0
 33
0.0
 16
1.0
 26
0.0
 36
0.0
 17
0.0
 27
1.0
 37
0.0
 76
     0
330
23
  0
LAYOUT
  5
22
102
{ACAD_REACTORS
330
1A
102
}
330
1A
100
AcDbPlotSettings
  1

  2
none_device
  4
ANSI_A_(11.00_x_8.50_Inches)
  6

 40
6.35
 41
19.05
 42
6.35000508
 43
19.05000254
 44
279.4
 45
215.9
 46
160.0331715700233
 47
94.47254416138358
 48
0.0
 49
0.0
140
0.0
141
0.0
142
0.0523308286305573
143
1.0
 70
  1696
 72
     0
 73
     0
 74
     0
  7

 75
     0
147
0.0235690232323232
148
0.0
149
0.0
100
AcDbLayout
  1
Model
 70
     1
 71
     0
 10
0.0
 20
0.0
 11
420.0
 21
297.0
 12
0.0
 22
0.0
 32
0.0
 14
-181.3793639043334
 24
-49.97180738881176
 34
0.0
 15
65.45118905242876
 25
55.0897597184768
 35
0.0
146
0.0
 13
0.0
 23
0.0
 33
0.0
 16
1.0
 26
0.0
 36
0.0
 17
0.0
 27
1.0
 37
0.0
 76
     0
330
1F
331
29
  0
MLINESTYLE
  5
18
102
{ACAD_REACTORS
330
17
102
}
330
17
100
AcDbMlineStyle
  2
Standard
 70
     0
  3

 62
   256
 51
90.0
 52
90.0
 71
     2
 49
0.5
 62
   256
  6
BYLAYER
 49
-0.5
 62
   256
  6
BYLAYER
  0
ACDBPLACEHOLDER
  5
F
102
{ACAD_REACTORS
330
E
102
}
330
E
  0
SCALE
  5
48
102
{ACAD_REACTORS
330
47
102
}
330
47
100
AcDbScale
 70
     0
300
1:1
140
1.0
141
1.0
290
     1
  0
SCALE
  5
49
102
{ACAD_REACTORS
330
47
102
}
330
47
100
AcDbScale
 70
     0
300
1:2
140
1.0
141
2.0
290
     0
  0
SCALE
  5
4A
102
{ACAD_REACTORS
330
47
102
}
330
47
100
AcDbScale
 70
     0
300
1:4
140
1.0
141
4.0
290
     0
  0
SCALE
  5
4B
102
{ACAD_REACTORS
330
47
102
}
330
47
100
AcDbScale
 70
     0
300
1:5
140
1.0
141
5.0
290
     0
  0
SCALE
  5
4C
102
{ACAD_REACTORS
330
47
102
}
330
47
100
AcDbScale
 70
     0
300
1:8
140
1.0
141
8.0
290
     0
  0
SCALE
  5
4D
102
{ACAD_REACTORS
330
47
102
}
330
47
100
AcDbScale
 70
     0
300
1:10
140
1.0
141
10.0
290
     0
  0
SCALE
  5
4E
102
{ACAD_REACTORS
330
47
102
}
330
47
100
AcDbScale
 70
     0
300
1:16
140
1.0
141
16.0
290
     0
  0
SCALE
  5
4F
102
{ACAD_REACTORS
330
47
102
}
330
47
100
AcDbScale
 70
     0
300
1:20
140
1.0
141
20.0
290
     0
  0
SCALE
  5
50
102
{ACAD_REACTORS
330
47
102
}
330
47
100
AcDbScale
 70
     0
300
1:30
140
1.0
141
30.0
290
     0
  0
SCALE
  5
51
102
{ACAD_REACTORS
330
47
102
}
330
47
100
AcDbScale
 70
     0
300
1:40
140
1.0
141
40.0
290
     0
  0
SCALE
  5
52
102
{ACAD_REACTORS
330
47
102
}
330
47
100
AcDbScale
 70
     0
300
1:50
140
1.0
141
50.0
290
     0
  0
SCALE
  5
53
102
{ACAD_REACTORS
330
47
102
}
330
47
100
AcDbScale
 70
     0
300
1:100
140
1.0
141
100.0
290
     0
  0
SCALE
  5
54
102
{ACAD_REACTORS
330
47
102
}
330
47
100
AcDbScale
 70
     0
300
2:1
140
2.0
141
1.0
290
     0
  0
SCALE
  5
55
102
{ACAD_REACTORS
330
47
102
}
330
47
100
AcDbScale
 70
     0
300
4:1
140
4.0
141
1.0
290
     0
  0
SCALE
  5
56
102
{ACAD_REACTORS
330
47
102
}
330
47
100
AcDbScale
 70
     0
300
8:1
140
8.0
141
1.0
290
     0
  0
SCALE
  5
57
102
{ACAD_REACTORS
330
47
102
}
330
47
100
AcDbScale
 70
     0
300
10:1
140
10.0
141
1.0
290
     0
  0
SCALE
  5
58
102
{ACAD_REACTORS
330
47
102
}
330
47
100
AcDbScale
 70
     0
300
100:1
140
100.0
141
1.0
290
     0
  0
SCALE
  5
59
102
{ACAD_REACTORS
330
47
102
}
330
47
100
AcDbScale
 70
     0
300
1/128" = 1'-0"
140
0.0078125
141
12.0
290
     0
  0
SCALE
  5
5A
102
{ACAD_REACTORS
330
47
102
}
330
47
100
AcDbScale
 70
     0
300
1/64" = 1'-0"
140
0.015625
141
12.0
290
     0
  0
SCALE
  5
5B
102
{ACAD_REACTORS
330
47
102
}
330
47
100
AcDbScale
 70
     0
300
1/32" = 1'-0"
140
0.03125
141
12.0
290
     0
  0
SCALE
  5
5C
102
{ACAD_REACTORS
330
47
102
}
330
47
100
AcDbScale
 70
     0
300
1/16" = 1'-0"
140
0.0625
141
12.0
290
     0
  0
SCALE
  5
5D
102
{ACAD_REACTORS
330
47
102
}
330
47
100
AcDbScale
 70
     0
300
3/32" = 1'-0"
140
0.09375
141
12.0
290
     0
  0
SCALE
  5
5E
102
{ACAD_REACTORS
330
47
102
}
330
47
100
AcDbScale
 70
     0
300
1/8" = 1'-0"
140
0.125
141
12.0
290
     0
  0
SCALE
  5
5F
102
{ACAD_REACTORS
330
47
102
}
330
47
100
AcDbScale
 70
     0
300
3/16" = 1'-0"
140
0.1875
141
12.0
290
     0
  0
SCALE
  5
60
102
{ACAD_REACTORS
330
47
102
}
330
47
100
AcDbScale
 70
     0
300
1/4" = 1'-0"
140
0.25
141
12.0
290
     0
  0
SCALE
  5
61
102
{ACAD_REACTORS
330
47
102
}
330
47
100
AcDbScale
 70
     0
300
3/8" = 1'-0"
140
0.375
141
12.0
290
     0
  0
SCALE
  5
62
102
{ACAD_REACTORS
330
47
102
}
330
47
100
AcDbScale
 70
     0
300
1/2" = 1'-0"
140
0.5
141
12.0
290
     0
  0
SCALE
  5
63
102
{ACAD_REACTORS
330
47
102
}
330
47
100
AcDbScale
 70
     0
300
3/4" = 1'-0"
140
0.75
141
12.0
290
     0
  0
SCALE
  5
64
102
{ACAD_REACTORS
330
47
102
}
330
47
100
AcDbScale
 70
     0
300
1" = 1'-0"
140
1.0
141
12.0
290
     0
  0
SCALE
  5
65
102
{ACAD_REACTORS
330
47
102
}
330
47
100
AcDbScale
 70
     0
300
1-1/2" = 1'-0"
140
1.5
141
12.0
290
     0
  0
SCALE
  5
66
102
{ACAD_REACTORS
330
47
102
}
330
47
100
AcDbScale
 70
     0
300
3" = 1'-0"
140
3.0
141
12.0
290
     0
  0
SCALE
  5
67
102
{ACAD_REACTORS
330
47
102
}
330
47
100
AcDbScale
 70
     0
300
6" = 1'-0"
140
6.0
141
12.0
290
     0
  0
SCALE
  5
68
102
{ACAD_REACTORS
330
47
102
}
330
47
100
AcDbScale
 70
     0
300
1'-0" = 1'-0"
140
12.0
141
12.0
290
     0
  0
ENDSEC
  0
EOF
