  0
SECTION
  2
HEADER
  9
$ACADVER
  1
AC1015
  9
$ACADMAINTVER
 70
     6
  9
$DWGCODEPAGE
  3
ANSI_949
  9
$INSBASE
 10
0.0
 20
0.0
 30
0.0
  9
$EXTMIN
 10
-153.4393639043334
 20
-49.97180738881175
 30
0.0
  9
$EXTMAX
 10
55.92737358085799
 20
42.00578345754214
 30
0.0
  9
$LIMMIN
 10
0.0
 20
0.0
  9
$LIMMAX
 10
420.0
 20
297.0
  9
$ORTHOMODE
 70
     1
  9
$REGENMODE
 70
     1
  9
$FILLMODE
 70
     1
  9
$QTEXTMODE
 70
     0
  9
$MIRRTEXT
 70
     1
  9
$LTSCALE
 40
1.0
  9
$ATTMODE
 70
     1
  9
$TEXTSIZE
 40
3.5
  9
$TRACEWID
 40
1.0
  9
$TEXTSTYLE
  7
Standard
  9
$CLAYER
  8
0
  9
$CELTYPE
  6
ByLayer
  9
$CECOLOR
 62
   256
  9
$CELTSCALE
 40
1.0
  9
$DISPSILH
 70
     0
  9
$DIMSCALE
 40
1.0
  9
$DIMASZ
 40
3.302
  9
$DIMEXO
 40
1.0
  9
$DIMDLI
 40
3.75
  9
$DIMRND
 40
0.0
  9
$DIMDLE
 40
0.0
  9
$DIMEXE
 40
1.0
  9
$DIMTP
 40
0.0
  9
$DIMTM
 40
0.0
  9
$DIMTXT
 40
3.5
  9
$DIMCEN
 40
2.5
  9
$DIMTSZ
 40
0.0
  9
$DIMTOL
 70
     0
  9
$DIMLIM
 70
     0
  9
$DIMTIH
 70
     1
  9
$DIMTOH
 70
     1
  9
$DIMSE1
 70
     0
  9
$DIMSE2
 70
     0
  9
$DIMTAD
 70
     1
  9
$DIMZIN
 70
     0
  9
$DIMBLK
  1

  9
$DIMASO
 70
     1
  9
$DIMSHO
 70
     1
  9
$DIMPOST
  1

  9
$DIMAPOST
  1

  9
$DIMALT
 70
     0
  9
$DIMALTD
 70
     3
  9
$DIMALTF
 40
0.0393700787401575
  9
$DIMLFAC
 40
1.0
  9
$DIMTOFL
 70
     1
  9
$DIMTVP
 40
0.0
  9
$DIMTIX
 70
     0
  9
$DIMSOXD
 70
     0
  9
$DIMSAH
 70
     0
  9
$DIMBLK1
  1

  9
$DIMBLK2
  1

  9
$DIMSTYLE
  2
ISO-25
  9
$DIMCLRD
 70
     0
  9
$DIMCLRE
 70
     0
  9
$DIMCLRT
 70
     0
  9
$DIMTFAC
 40
1.0
  9
$DIMGAP
 40
1.524
  9
$DIMJUST
 70
     0
  9
$DIMSD1
 70
     0
  9
$DIMSD2
 70
     0
  9
$DIMTOLJ
 70
     0
  9
$DIMTZIN
 70
     0
  9
$DIMALTZ
 70
     0
  9
$DIMALTTZ
 70
     0
  9
$DIMUPT
 70
     0
  9
$DIMDEC
 70
     2
  9
$DIMTDEC
 70
     2
  9
$DIMALTU
 70
     2
  9
$DIMALTTD
 70
     3
  9
$DIMTXSTY
  7
Standard
  9
$DIMAUNIT
 70
     0
  9
$DIMADEC
 70
     2
  9
$DIMALTRND
 40
0.0
  9
$DIMAZIN
 70
     0
  9
$DIMDSEP
 70
    44
  9
$DIMATFIT
 70
     3
  9
$DIMFRAC
 70
     0
  9
$DIMLDRBLK
  1

  9
$DIMLUNIT
 70
     2
  9
$DIMLWD
 70
    -2
  9
$DIMLWE
 70
    -2
  9
$DIMTMOVE
 70
     0
  9
$LUNITS
 70
     2
  9
$LUPREC
 70
     2
  9
$SKETCHINC
 40
1.0
  9
$FILLETRAD
 40
10.0
  9
$AUNITS
 70
     0
  9
$AUPREC
 70
     2
  9
$MENU
  1
.
  9
$ELEVATION
 40
0.0
  9
$PELEVATION
 40
0.0
  9
$THICKNESS
 40
0.0
  9
$LIMCHECK
 70
     0
  9
$CHAMFERA
 40
0.0
  9
$CHAMFERB
 40
0.0
  9
$CHAMFERC
 40
0.0
  9
$CHAMFERD
 40
0.0
  9
$SKPOLY
 70
     0
  9
$TDCREATE
 40
2458299.579666493
  9
$TDUCREATE
 40
2458299.204666493
  9
$TDUPDATE
 40
2458302.627046678
  9
$TDUUPDATE
 40
2458302.252046678
  9
$TDINDWG
 40
0.0000641319
  9
$TDUSRTIMER
 40
0.0000641319
  9
$USRTIMER
 70
     1
  9
$ANGBASE
 50
0.0
  9
$ANGDIR
 70
     0
  9
$PDMODE
 70
     0
  9
$PDSIZE
 40
-1.0
  9
$PLINEWID
 40
0.0
  9
$SPLFRAME
 70
     0
  9
$SPLINETYPE
 70
     6
  9
$SPLINESEGS
 70
     8
  9
$HANDSEED
  5
2C7
  9
$SURFTAB1
 70
     6
  9
$SURFTAB2
 70
     6
  9
$SURFTYPE
 70
     6
  9
$SURFU
 70
     6
  9
$SURFV
 70
     6
  9
$UCSBASE
  2

  9
$UCSNAME
  2

  9
$UCSORG
 10
0.0
 20
0.0
 30
0.0
  9
$UCSXDIR
 10
1.0
 20
0.0
 30
0.0
  9
$UCSYDIR
 10
0.0
 20
1.0
 30
0.0
  9
$UCSORTHOREF
  2

  9
$UCSORTHOVIEW
 70
     0
  9
$UCSORGTOP
 10
0.0
 20
0.0
 30
0.0
  9
$UCSORGBOTTOM
 10
0.0
 20
0.0
 30
0.0
  9
$UCSORGLEFT
 10
0.0
 20
0.0
 30
0.0
  9
$UCSORGRIGHT
 10
0.0
 20
0.0
 30
0.0
  9
$UCSORGFRONT
 10
0.0
 20
0.0
 30
0.0
  9
$UCSORGBACK
 10
0.0
 20
0.0
 30
0.0
  9
$PUCSBASE
  2

  9
$PUCSNAME
  2

  9
$PUCSORG
 10
0.0
 20
0.0
 30
0.0
  9
$PUCSXDIR
 10
1.0
 20
0.0
 30
0.0
  9
$PUCSYDIR
 10
0.0
 20
1.0
 30
0.0
  9
$PUCSORTHOREF
  2

  9
$PUCSORTHOVIEW
 70
     0
  9
$PUCSORGTOP
 10
0.0
 20
0.0
 30
0.0
  9
$PUCSORGBOTTOM
 10
0.0
 20
0.0
 30
0.0
  9
$PUCSORGLEFT
 10
0.0
 20
0.0
 30
0.0
  9
$PUCSORGRIGHT
 10
0.0
 20
0.0
 30
0.0
  9
$PUCSORGFRONT
 10
0.0
 20
0.0
 30
0.0
  9
$PUCSORGBACK
 10
0.0
 20
0.0
 30
0.0
  9
$USERI1
 70
     0
  9
$USERI2
 70
     0
  9
$USERI3
 70
     0
  9
$USERI4
 70
     0
  9
$USERI5
 70
     0
  9
$USERR1
 40
0.0
  9
$USERR2
 40
0.0
  9
$USERR3
 40
0.0
  9
$USERR4
 40
0.0
  9
$USERR5
 40
0.0
  9
$WORLDVIEW
 70
     1
  9
$SHADEDGE
 70
     3
  9
$SHADEDIF
 70
    70
  9
$TILEMODE
 70
     1
  9
$MAXACTVP
 70
    64
  9
$PINSBASE
 10
0.0
 20
0.0
 30
0.0
  9
$PLIMCHECK
 70
     0
  9
$PEXTMIN
 10
1.000000000000000E+20
 20
1.000000000000000E+20
 30
1.000000000000000E+20
  9
$PEXTMAX
 10
-1.000000000000000E+20
 20
-1.000000000000000E+20
 30
-1.000000000000000E+20
  9
$PLIMMIN
 10
0.0
 20
0.0
  9
$PLIMMAX
 10
0.0
 20
0.0
  9
$UNITMODE
 70
     0
  9
$VISRETAIN
 70
     1
  9
$PLINEGEN
 70
     0
  9
$PSLTSCALE
 70
     1
  9
$TREEDEPTH
 70
  3020
  9
$CMLSTYLE
  2
Standard
  9
$CMLJUST
 70
     0
  9
$CMLSCALE
 40
20.0
  9
$PROXYGRAPHICS
 70
     1
  9
$MEASUREMENT
 70
     1
  9
$CELWEIGHT
370
    -1
  9
$ENDCAPS
280
     0
  9
$JOINSTYLE
280
     0
  9
$LWDISPLAY
290
     1
  9
$INSUNITS
 70
     4
  9
$HYPERLINKBASE
  1

  9
$STYLESHEET
  1

  9
$XEDIT
290
     1
  9
$CEPSNTYPE
380
     0
  9
$PSTYLEMODE
290
     1
  9
$FINGERPRINTGUID
  2
{CBB80F24-5D65-489A-97D3-1D347C0766C3}
  9
$VERSIONGUID
  2
{FAEB1C32-E019-11D5-929B-00C0DF256EC4}
  9
$EXTNAMES
290
     1
  9
$PSVPSCALE
 40
0.0
  9
$OLESTARTUP
290
     0
  0
ENDSEC
  0
SECTION
  2
CLASSES
  0
CLASS
  1
ACDBDICTIONARYWDFLT
  2
AcDbDictionaryWithDefault
  3
ObjectDBX Classes
 90
        0
280
     0
281
     0
  0
CLASS
  1
VISUALSTYLE
  2
AcDbVisualStyle
  3
ObjectDBX Classes
 90
     4095
280
     0
281
     0
  0
CLASS
  1
MATERIAL
  2
AcDbMaterial
  3
ObjectDBX Classes
 90
     1153
280
     0
281
     0
  0
CLASS
  1
SCALE
  2
AcDbScale
  3
ObjectDBX Classes
 90
     1153
280
     0
281
     0
  0
CLASS
  1
SUN
  2
AcDbSun
  3
SCENEOE
 90
     1153
280
     0
281
     0
  0
CLASS
  1
ACDBPLACEHOLDER
  2
AcDbPlaceHolder
  3
ObjectDBX Classes
 90
        0
280
     0
281
     0
  0
CLASS
  1
LAYOUT
  2
AcDbLayout
  3
ObjectDBX Classes
 90
        0
280
     0
281
     0
  0
CLASS
  1
TABLESTYLE
  2
AcDbTableStyle
  3
ObjectDBX Classes
 90
     4095
280
     0
281
     0
  0
CLASS
  1
MLEADERSTYLE
  2
AcDbMLeaderStyle
  3
ACDB_MLEADERSTYLE_CLASS
 90
     4095
280
     0
281
     0
  0
ENDSEC
  0
SECTION
  2
TABLES
  0
TABLE
  2
VPORT
  5
8
330
0
100
AcDbSymbolTable
 70
     1
  0
VPORT
  5
29
330
8
100
AcDbSymbolTableRecord
100
AcDbViewportTableRecord
  2
*Active
 70
     0
 10
0.0
 20
0.0
 11
1.0
 21
1.0
 12
-48.7559951617377
 22
-3.983011965634809
 13
0.0
 23
0.0
 14
10.0
 24
10.0
 15
10.0
 25
10.0
 16
0.0
 26
0.0
 36
1.0
 17
0.0
 27
0.0
 37
0.0
 40
99.37941139297082
 41
2.148876404494382
 42
50.0
 43
0.0
 44
0.0
 50
0.0
 51
0.0
 71
    16
 72
  2000
 73
     1
 74
     3
 75
     0
 76
     0
 77
     0
 78
     0
281
     0
 65
     1
110
0.0
120
0.0
130
0.0
111
1.0
121
0.0
131
0.0
112
0.0
122
1.0
132
0.0
 79
     0
146
0.0
  0
ENDTAB
  0
TABLE
  2
LTYPE
  5
5
330
0
100
AcDbSymbolTable
 70
     6
  0
LTYPE
  5
14
330
5
100
AcDbSymbolTableRecord
100
AcDbLinetypeTableRecord
  2
ByBlock
 70
     0
  3

 72
    65
 73
     0
 40
0.0
  0
LTYPE
  5
15
330
5
100
AcDbSymbolTableRecord
100
AcDbLinetypeTableRecord
  2
ByLayer
 70
     0
  3

 72
    65
 73
     0
 40
0.0
  0
LTYPE
  5
16
330
5
100
AcDbSymbolTableRecord
100
AcDbLinetypeTableRecord
  2
Continuous
 70
     0
  3
Solid line
 72
    65
 73
     0
 40
0.0
  0
LTYPE
  5
6A
330
5
100
AcDbSymbolTableRecord
100
AcDbLinetypeTableRecord
  2
HIDDEN
 70
     0
  3
Hidden __ __ __ __ __ __ __ __ __ __ __ __ __ __
 72
    65
 73
     2
 40
1.905
 49
1.27
 74
     0
 49
-0.635
 74
     0
  0
LTYPE
  5
6B
330
5
100
AcDbSymbolTableRecord
100
AcDbLinetypeTableRecord
  2
PHANTOM
 70
     0
  3
Phantom ______  __  __  ______  __  __  ______
 72
    65
 73
     6
 40
12.7
 49
6.35
 74
     0
 49
-1.27
 74
     0
 49
1.27
 74
     0
 49
-1.27
 74
     0
 49
1.27
 74
     0
 49
-1.27
 74
     0
  0
LTYPE
  5
6C
330
5
100
AcDbSymbolTableRecord
100
AcDbLinetypeTableRecord
  2
CENTER
 70
     0
  3
Center ____ _ ____ _ ____ _ ____ _ ____ _ ____
 72
    65
 73
     4
 40
10.16
 49
6.35
 74
     0
 49
-1.27
 74
     0
 49
1.27
 74
     0
 49
-1.27
 74
     0
  0
LTYPE
  5
6D
330
5
100
AcDbSymbolTableRecord
100
AcDbLinetypeTableRecord
  2
CENTERX2
 70
     0
  3
Center (2x) ________  __  ________  __  _____
 72
    65
 73
     4
 40
20.32
 49
12.7
 74
     0
 49
-2.54
 74
     0
 49
2.54
 74
     0
 49
-2.54
 74
     0
  0
LTYPE
  5
6E
330
5
100
AcDbSymbolTableRecord
100
AcDbLinetypeTableRecord
  2
DOT2
 70
     0
  3
Dot (.5x) ........................................
 72
    65
 73
     2
 40
0.635
 49
0.0
 74
     0
 49
-0.635
 74
     0
  0
ENDTAB
  0
TABLE
  2
LAYER
  5
2
330
0
100
AcDbSymbolTable
 70
    18
  0
LAYER
  5
10
330
2
100
AcDbSymbolTableRecord
100
AcDbLayerTableRecord
  2
0
 70
     0
 62
     7
  6
Continuous
370
    -3
390
F
  0
LAYER
  5
6F
330
2
100
AcDbSymbolTableRecord
100
AcDbLayerTableRecord
  2
FORMAT
 70
     0
 62
     2
  6
Continuous
370
    -3
390
F
  0
LAYER
  5
70
330
2
100
AcDbSymbolTableRecord
100
AcDbLayerTableRecord
  2
외형선
 70
     0
 62
     4
  6
Continuous
370
    30
390
F
  0
LAYER
  5
71
330
2
100
AcDbSymbolTableRecord
100
AcDbLayerTableRecord
  2
숨은선
 70
     0
 62
     2
  6
HIDDEN
370
    15
390
F
  0
LAYER
  5
72
330
2
100
AcDbSymbolTableRecord
100
AcDbLayerTableRecord
  2
중심선
 70
     0
 62
     1
  6
CENTERX2
370
    -3
390
F
  0
LAYER
  5
73
330
2
100
AcDbSymbolTableRecord
100
AcDbLayerTableRecord
  2
파단선
 70
     0
 62
     4
  6
Continuous
370
    -3
390
F
  0
LAYER
  5
74
330
2
100
AcDbSymbolTableRecord
100
AcDbLayerTableRecord
  2
해칭선
 70
     0
 62
   100
  6
Continuous
370
    -3
390
F
  0
LAYER
  5
75
330
2
100
AcDbSymbolTableRecord
100
AcDbLayerTableRecord
  2
가는실선
 70
     0
 62
     4
  6
Continuous
370
    -3
390
F
  0
LAYER
  5
76
330
2
100
AcDbSymbolTableRecord
100
AcDbLayerTableRecord
  2
치수_보조선
 70
     0
 62
     4
  6
Continuous
370
    -3
390
F
  0
LAYER
  5
77
330
2
100
AcDbSymbolTableRecord
100
AcDbLayerTableRecord
  2
치수문자_일반주서
 70
     0
 62
     7
  6
Continuous
370
    15
390
F
  0
LAYER
  5
78
330
2
100
AcDbSymbolTableRecord
100
AcDbLayerTableRecord
  2
개별주서
 70
     0
 62
   100
  6
Continuous
370
    30
390
F
  0
LAYER
  5
79
330
2
100
AcDbSymbolTableRecord
100
AcDbLayerTableRecord
  2
중간선
 70
     0
 62
     2
  6
Continuous
370
    15
390
F
  0
LAYER
  5
7A
330
2
100
AcDbSymbolTableRecord
100
AcDbLayerTableRecord
  2
윤곽선
 70
     0
 62
     3
  6
Continuous
370
    40
390
F
  0
LAYER
  5
7B
330
2
100
AcDbSymbolTableRecord
100
AcDbLayerTableRecord
  2
중심마크
 70
     0
 62
   100
  6
Continuous
370
    30
390
F
  0
LAYER
  5
7C
330
2
100
AcDbSymbolTableRecord
100
AcDbLayerTableRecord
  2
가상선
 70
     0
 62
     4
  6
PHANTOM
370
    -3
390
F
  0
LAYER
  5
7D
330
2
100
AcDbSymbolTableRecord
100
AcDbLayerTableRecord
  2
특수지정선
 70
     0
 62
     5
  6
CENTERX2
370
    60
390
F
  0
LAYER
  5
7E
330
2
100
AcDbSymbolTableRecord
100
AcDbLayerTableRecord
  2
참조1
 70
     0
 62
    -4
  6
Continuous
370
    -3
390
F
  0
LAYER
  5
134
330
2
100
AcDbSymbolTableRecord
100
AcDbLayerTableRecord
  2
Defpoints
 70
     0
 62
     7
  6
Continuous
290
     0
370
    -3
390
F
  0
ENDTAB
  0
TABLE
  2
STYLE
  5
3
330
0
100
AcDbSymbolTable
 70
     2
  0
STYLE
  5
11
330
3
100
AcDbSymbolTableRecord
100
AcDbTextStyleTableRecord
  2
Standard
 70
     0
 40
0.0
 41
1.0
 50
0.0
 71
     0
 42
3.5
  3
txt
  4

  0
STYLE
  5
94
330
3
100
AcDbSymbolTableRecord
100
AcDbTextStyleTableRecord
  2
SLDTEXTSTYLE0
 70
     0
 40
0.0
 41
0.75
 50
0.0
 71
     0
 42
3.5
  3
TXT
  4

  0
ENDTAB
  0
TABLE
  2
VIEW
  5
6
330
0
100
AcDbSymbolTable
 70
     0
  0
ENDTAB
  0
TABLE
  2
UCS
  5
7
330
0
100
AcDbSymbolTable
 70
     0
  0
ENDTAB
  0
TABLE
  2
APPID
  5
9
330
0
100
AcDbSymbolTable
 70
     4
  0
APPID
  5
12
330
9
100
AcDbSymbolTableRecord
100
AcDbRegAppTableRecord
  2
ACAD
 70
     0
  0
APPID
  5
2BB
330
9
100
AcDbSymbolTableRecord
100
AcDbRegAppTableRecord
  2
PE_URL
 70
     0
  0
APPID
  5
2C5
330
9
100
AcDbSymbolTableRecord
100
AcDbRegAppTableRecord
  2
ACAD_DSTYLE_DIMFLIPARROW_SYMBOL
 70
     0
  0
APPID
  5
2C6
330
9
100
AcDbSymbolTableRecord
100
AcDbRegAppTableRecord
  2
ACAD_DSTYLE_DIMFLIPARROW_WHICH_SYMBOL
 70
     0
  0
ENDTAB
  0
TABLE
  2
DIMSTYLE
  5
A
330
0
100
AcDbSymbolTable
 70
     4
100
AcDbDimStyleTable
  0
DIMSTYLE
105
27
330
A
100
AcDbSymbolTableRecord
100
AcDbDimStyleTableRecord
  2
ISO-25
 70
     0
 41
2.5
 42
0.625
 43
3.75
 44
1.25
 73
     0
 74
     0
 77
     1
 78
     8
140
2.5
141
2.5
143
0.03937007874016
147
0.625
171
     3
172
     1
178
     0
271
     2
272
     2
274
     3
278
    44
283
     0
284
     8
340
11
  0
DIMSTYLE
105
B3
102
{ACAD_REACTORS
330
1B2
330
27D
330
27E
330
27F
330
280
102
}
330
A
100
AcDbSymbolTableRecord
100
AcDbDimStyleTableRecord
  2
SLDDIMSTYLE0
 70
     0
 41
3.302
 44
0.0
 45
0.000000001
 73
     0
 74
     0
 77
     1
 78
    12
 79
     3
140
3.5
143
0.0393700787401575
147
0.875
148
0.000000001
170
     1
172
     1
173
     1
178
     0
271
     2
272
     2
276
     2
284
    12
289
     0
340
94
  0
DIMSTYLE
105
C8
102
{ACAD_REACTORS
330
1C6
330
1EE
102
}
330
A
100
AcDbSymbolTableRecord
100
AcDbDimStyleTableRecord
  2
SLDDIMSTYLE1
 70
     0
 41
3.302
 44
0.0
 45
0.000000001
 73
     0
 74
     0
 77
     1
 78
    12
 79
     3
140
3.5
143
0.0393700787401575
147
0.875
148
0.000000001
170
     1
173
     1
178
     0
271
     2
272
     2
276
     2
284
    12
340
94
  0
DIMSTYLE
105
F1
102
{ACAD_REACTORS
330
1D9
102
}
330
A
100
AcDbSymbolTableRecord
100
AcDbDimStyleTableRecord
  2
SLDDIMSTYLE2
 70
     0
 41
3.302
 44
0.0
 45
0.000000001
 73
     0
 74
     0
 77
     1
 78
     4
 79
     1
140
3.5
143
0.0393700787401575
147
0.875
148
0.000000001
170
     1
173
     1
178
     0
271
     2
272
     2
276
     2
284
    12
340
94
  0
ENDTAB
  0
TABLE
  2
BLOCK_RECORD
  5
1
330
0
100
AcDbSymbolTable
 70
    16
  0
BLOCK_RECORD
  5
1F
330
1
100
AcDbSymbolTableRecord
100
AcDbBlockTableRecord
  2
*Model_Space
340
22
  0
BLOCK_RECORD
  5
1B
330
1
100
AcDbSymbolTableRecord
100
AcDbBlockTableRecord
  2
*Paper_Space
340
1E
  0
BLOCK_RECORD
  5
23
330
1
100
AcDbSymbolTableRecord
100
AcDbBlockTableRecord
  2
*Paper_Space0
340
26
  0
BLOCK_RECORD
  5
7F
330
1
100
AcDbSymbolTableRecord
100
AcDbBlockTableRecord
  2
블럭10
340
0
102
{BLKREFS
331
0
331
195
331
276
102
}
  0
BLOCK_RECORD
  5
B4
330
1
100
AcDbSymbolTableRecord
100
AcDbBlockTableRecord
  2
_D
340
0
  0
BLOCK_RECORD
  5
C9
330
1
100
AcDbSymbolTableRecord
100
AcDbBlockTableRecord
  2
_D_1
340
0
  0
BLOCK_RECORD
  5
DC
330
1
100
AcDbSymbolTableRecord
100
AcDbBlockTableRecord
  2
_D_2
340
0
  0
BLOCK_RECORD
  5
F2
330
1
100
AcDbSymbolTableRecord
100
AcDbBlockTableRecord
  2
_D_3
340
0
  0
BLOCK_RECORD
  5
10B
330
1
100
AcDbSymbolTableRecord
100
AcDbBlockTableRecord
  2
SW_DOWELSYMBOL_0
340
0
102
{BLKREFS
331
0
331
208
331
288
102
}
  0
BLOCK_RECORD
  5
211
330
1
100
AcDbSymbolTableRecord
100
AcDbBlockTableRecord
  2
*D8
340
0
  0
BLOCK_RECORD
  5
21D
330
1
100
AcDbSymbolTableRecord
100
AcDbBlockTableRecord
  2
*D9
340
0
  0
BLOCK_RECORD
  5
22A
330
1
100
AcDbSymbolTableRecord
100
AcDbBlockTableRecord
  2
*D10
340
0
  0
BLOCK_RECORD
  5
236
330
1
100
AcDbSymbolTableRecord
100
AcDbBlockTableRecord
  2
*D11
340
0
  0
BLOCK_RECORD
  5
289
330
1
100
AcDbSymbolTableRecord
100
AcDbBlockTableRecord
  2
*D12
340
0
  0
BLOCK_RECORD
  5
295
330
1
100
AcDbSymbolTableRecord
100
AcDbBlockTableRecord
  2
*D13
340
0
  0
BLOCK_RECORD
  5
2A2
330
1
100
AcDbSymbolTableRecord
100
AcDbBlockTableRecord
  2
*D14
340
0
  0
BLOCK_RECORD
  5
2AE
330
1
100
AcDbSymbolTableRecord
100
AcDbBlockTableRecord
  2
*D15
340
0
  0
ENDTAB
  0
ENDSEC
  0
SECTION
  2
BLOCKS
  0
BLOCK
  5
20
330
1F
100
AcDbEntity
  8
0
100
AcDbBlockBegin
  2
*Model_Space
 70
     0
 10
0.0
 20
0.0
 30
0.0
  3
*Model_Space
  1

  0
ENDBLK
  5
21
330
1F
100
AcDbEntity
  8
0
100
AcDbBlockEnd
  0
BLOCK
  5
1C
330
1B
100
AcDbEntity
 67
     1
  8
0
100
AcDbBlockBegin
  2
*Paper_Space
 70
     0
 10
0.0
 20
0.0
 30
0.0
  3
*Paper_Space
  1

  0
ENDBLK
  5
1D
330
1B
100
AcDbEntity
 67
     1
  8
0
100
AcDbBlockEnd
  0
BLOCK
  5
24
330
23
100
AcDbEntity
  8
0
100
AcDbBlockBegin
  2
*Paper_Space0
 70
     0
 10
0.0
 20
0.0
 30
0.0
  3
*Paper_Space0
  1

  0
ENDBLK
  5
25
330
23
100
AcDbEntity
  8
0
100
AcDbBlockEnd
  0
BLOCK
  5
80
330
7F
100
AcDbEntity
  8
0
100
AcDbBlockBegin
  2
블럭10
 70
     2
 10
0.0
 20
0.0
 30
0.0
  3
블럭10
  1

  0
ELLIPSE
  5
82
330
7F
100
AcDbEntity
  8
중심선
100
AcDbEllipse
 10
20.54032771741204
 20
12.0471743016438
 30
0.0
 11
6.600054785286829
 21
-1.261213355974178E-13
 31
0.0
210
0.0
220
0.0
230
1.0
 40
0.636358354079598
 41
0.9219305317359503
 42
6.513795318482858
  0
ELLIPSE
  5
83
330
7F
100
AcDbEntity
  8
중심선
100
AcDbEllipse
 10
20.54032771746488
 20
12.04717430159265
 30
0.0
 11
3.960054785062283
 21
1.540847449632565E-10
 31
0.0
210
0.0
220
0.0
230
1.0
 40
0.3939339440162632
 41
1.131841032648279
 42
5.62031148352944
  0
LINE
  5
84
330
7F
100
AcDbEntity
  8
중심선
100
AcDbLine
 10
2.268634060543552
 20
16.24717430164393
 30
0.0
 11
5.714909304380834
 21
16.24717430164393
 31
0.0
  0
LINE
  5
85
330
7F
100
AcDbEntity
  8
중심선
100
AcDbLine
 10
5.245725140726316
 20
7.84717430164391
 30
0.0
 11
8.692000384563599
 21
7.84717430164391
 31
0.0
  0
LINE
  5
86
330
7F
100
AcDbEntity
  8
중심선
100
AcDbLine
 10
15.74043728645272
 20
16.24717430164393
 30
0.0
 11
8.692000384563599
 21
7.84717430164391
 31
0.0
  0
LINE
  5
87
330
7F
100
AcDbEntity
  8
중심선
100
AcDbLine
 10
0.1404042013395286
 20
13.71084872107135
 30
0.0
 11
3.58671253028996
 21
13.71088815037384
 31
0.0
  0
LINE
  5
88
330
7F
100
AcDbEntity
  8
중심선
100
AcDbLine
 10
2.750260043222114
 20
10.84717430164391
 30
0.0
 11
6.196535287059397
 21
10.84717430164391
 31
0.0
  0
LINE
  5
89
330
7F
100
AcDbEntity
  8
중심선
100
AcDbLine
 10
12.29416204261559
 20
16.24717430164393
 30
0.0
 11
5.245725140726316
 21
7.84717430164391
 31
0.0
  0
LINE
  5
8A
330
7F
100
AcDbEntity
  8
중심선
100
AcDbLine
 10
10.72767329541681
 20
16.24717430164393
 30
0.0
 11
6.196535287059397
 21
10.84717430164391
 31
0.0
  0
LINE
  5
8B
330
7F
100
AcDbEntity
  8
중심선
100
AcDbLine
 10
7.28139805157953
 20
16.24717430164393
 30
0.0
 11
2.750260043222114
 21
10.84717430164391
 31
0.0
  0
LINE
  5
8C
330
7F
100
AcDbEntity
  8
중심선
100
AcDbLine
 10
5.714909304380834
 20
16.24717430164393
 30
0.0
 11
3.58671253028996
 21
13.71088815037384
 31
0.0
  0
LINE
  5
8D
330
7F
100
AcDbEntity
  8
중심선
100
AcDbLine
 10
2.268634060543552
 20
16.24717430164393
 30
0.0
 11
0.1404042013395286
 21
13.71084872107135
 31
0.0
  0
LINE
  5
8E
330
7F
100
AcDbEntity
  8
중심선
100
AcDbLine
 10
7.28139805157953
 20
16.24717430164393
 30
0.0
 11
10.72767329541681
 21
16.24717430164393
 31
0.0
  0
LINE
  5
8F
330
7F
100
AcDbEntity
  8
중심선
100
AcDbLine
 10
12.29416204261559
 20
16.24717430164393
 30
0.0
 11
15.74043728645272
 21
16.24717430164393
 31
0.0
  0
LINE
  5
90
330
7F
100
AcDbEntity
  8
중심선
100
AcDbLine
 10
19.22036997980202
 20
11.08717430171403
 30
0.0
 11
23.66174974927406
 21
11.08717430171406
 31
0.0
  0
LINE
  5
91
330
7F
100
AcDbEntity
  8
중심선
100
AcDbLine
 10
19.22039502424796
 20
13.00717430171391
 30
0.0
 11
19.22036997980202
 21
11.08717430171403
 31
0.0
  0
LINE
  5
92
330
7F
100
AcDbEntity
  8
중심선
100
AcDbLine
 10
19.22039502424796
 20
13.00717430171391
 30
0.0
 11
26.96566020931264
 21
13.00717430171391
 31
0.0
  0
LINE
  5
93
330
7F
100
AcDbEntity
  8
중심선
100
AcDbLine
 10
22.22332737316547
 20
13.45928029700563
 30
0.0
 11
24.52862924686651
 21
15.39360700705356
 31
0.0
  0
ATTDEF
  5
95
330
7F
100
AcDbEntity
  8
FORMAT
 62
     2
100
AcDbText
 10
3.448148490846466
 20
2.075366912832191
 30
0.0
 40
4.233333333333333
  1
EM102040
 41
0.75
  7
SLDTEXTSTYLE0
 11
3.448148490846466
 21
-0.0412997538344756
 31
0.0
100
AcDbAttributeDefinition
  3

  2
AUTOATTR0
 70
     0
 74
     1
  0
ENDBLK
  5
81
330
7F
100
AcDbEntity
  8
0
100
AcDbBlockEnd
  0
BLOCK
  5
B5
330
B4
100
AcDbEntity
  8
0
100
AcDbBlockBegin
  2
_D
 70
     0
 10
0.0
 20
0.0
 30
0.0
  3
_D
  1

  0
SOLID
  5
B7
330
B4
100
AcDbEntity
  8
치수문자_일반주서
100
AcDbTrace
 10
-113.9662499999999
 20
4.763574928723895
 30
0.0
 11
-113.4582499999999
 21
8.065574928723894
 31
0.0
 12
-114.4742499999999
 22
8.065574928723894
 32
0.0
 13
-114.4742499999999
 23
8.065574928723894
 33
0.0
  0
SOLID
  5
B8
330
B4
100
AcDbEntity
  8
치수문자_일반주서
100
AcDbTrace
 10
-113.9662499999999
 20
-4.76142507127611
 30
0.0
 11
-114.4742499999999
 21
-8.06342507127611
 31
0.0
 12
-113.4582499999999
 22
-8.06342507127611
 32
0.0
 13
-113.4582499999999
 23
-8.06342507127611
 33
0.0
  0
LINE
  5
B9
330
B4
100
AcDbEntity
  8
치수문자_일반주서
100
AcDbLine
 10
-124.7591317160426
 20
-4.753061550180732
 30
0.0
 11
-124.7591317160426
 21
-5.463999035745232
 31
0.0
  0
LINE
  5
BA
330
B4
100
AcDbEntity
  8
치수문자_일반주서
100
AcDbLine
 10
-124.7591317160426
 20
-5.463999035745232
 30
0.0
 11
-119.2028817249833
 21
-5.463999035745193
 31
0.0
  0
LINE
  5
BB
330
B4
100
AcDbEntity
  8
치수문자_일반주서
100
AcDbLine
 10
-119.2028817249833
 20
-5.463999035745193
 30
0.0
 11
-119.2028817249833
 21
-4.753061550180693
 31
0.0
  0
LINE
  5
BC
330
B4
100
AcDbEntity
  8
치수문자_일반주서
100
AcDbLine
 10
-124.7591317160427
 20
6.075671311956526
 30
0.0
 11
-124.7591317160427
 21
6.786608797521026
 31
0.0
  0
LINE
  5
BD
330
B4
100
AcDbEntity
  8
치수문자_일반주서
100
AcDbLine
 10
-124.7591317160427
 20
6.786608797521026
 30
0.0
 11
-119.2028817249834
 21
6.786608797521065
 31
0.0
  0
LINE
  5
BE
330
B4
100
AcDbEntity
  8
치수문자_일반주서
100
AcDbLine
 10
-119.2028817249834
 20
6.786608797521065
 30
0.0
 11
-119.2028817249834
 21
6.075671311956565
 31
0.0
  0
LINE
  5
BF
330
B4
100
AcDbEntity
  8
치수문자_일반주서
100
AcDbLine
 10
-101.1725
 20
4.763574928723896
 30
0.0
 11
-114.9662499999999
 21
4.763574928723895
 31
0.0
  0
LINE
  5
C0
330
B4
100
AcDbEntity
  8
치수문자_일반주서
100
AcDbLine
 10
-101.1725
 20
-4.761425071276109
 30
0.0
 11
-114.9662499999999
 21
-4.76142507127611
 31
0.0
  0
LINE
  5
C1
330
B4
100
AcDbEntity
  8
치수문자_일반주서
100
AcDbLine
 10
-113.9662499999999
 20
4.763574928723895
 30
0.0
 11
-113.9662499999999
 21
11.11357492872389
 31
0.0
  0
LINE
  5
C2
330
B4
100
AcDbEntity
  8
치수문자_일반주서
100
AcDbLine
 10
-113.9662499999999
 20
4.763574928723895
 30
0.0
 11
-113.9662499999999
 21
-4.76142507127611
 31
0.0
  0
LINE
  5
C3
330
B4
100
AcDbEntity
  8
치수문자_일반주서
100
AcDbLine
 10
-113.9662499999999
 20
-4.76142507127611
 30
0.0
 11
-113.9662499999999
 21
-11.11142507127611
 31
0.0
  0
MTEXT
  5
C4
330
B4
100
AcDbEntity
  8
치수문자_일반주서
100
AcDbMText
 10
-123.7146186395622
 20
-3.864389649569354
 30
0.0
 40
3.5
 41
0.0
 71
     1
 72
     1
  1
0.38
  7
SLDTEXTSTYLE0
 11
-7.044195017643634E-15
 21
1.0
 31
0.0
 73
     1
 44
1.0
  0
MTEXT
  5
C5
330
B4
100
AcDbEntity
  8
치수문자_일반주서
100
AcDbMText
 10
-118.4779870892018
 20
-6.503608814417645
 30
0.0
 40
3.5
 41
0.0
 71
     1
 72
     1
  1
%%c
  7
SLDTEXTSTYLE0
 11
-7.044195017643634E-15
 21
1.0
 31
0.0
 73
     1
 44
1.0
  0
MTEXT
  5
C6
330
B4
100
AcDbEntity
  8
치수문자_일반주서
100
AcDbMText
 10
-118.4779870892018
 20
-1.225171416043564
 30
0.0
 40
3.5
 41
0.0
 71
     1
 72
     1
  1
9.53
  7
SLDTEXTSTYLE0
 11
-7.044195017643634E-15
 21
1.0
 31
0.0
 73
     1
 44
1.0
  0
ENDBLK
  5
B6
330
B4
100
AcDbEntity
  8
0
100
AcDbBlockEnd
  0
BLOCK
  5
CA
330
C9
100
AcDbEntity
  8
0
100
AcDbBlockBegin
  2
_D_1
 70
     0
 10
0.0
 20
0.0
 30
0.0
  3
_D_1
  1

  0
SOLID
  5
CC
330
C9
100
AcDbEntity
  8
치수문자_일반주서
100
AcDbTrace
 10
51.22500000000009
 20
-4.752248856217899
 30
0.0
 11
51.73300000000009
 21
-1.450248856217899
 31
0.0
 12
50.71700000000008
 22
-1.450248856217899
 32
0.0
 13
50.71700000000008
 23
-1.450248856217899
 33
0.0
  0
SOLID
  5
CD
330
C9
100
AcDbEntity
  8
치수문자_일반주서
100
AcDbTrace
 10
51.22500000000009
 20
4.754398713665688
 30
0.0
 11
50.71700000000008
 21
1.452398713665688
 31
0.0
 12
51.73300000000009
 22
1.452398713665688
 32
0.0
 13
51.73300000000009
 23
1.452398713665688
 33
0.0
  0
LINE
  5
CE
330
C9
100
AcDbEntity
  8
치수문자_일반주서
100
AcDbLine
 10
40.43211828395733
 20
10.90794850586974
 30
0.0
 11
40.43211828395733
 21
10.19701102030524
 31
0.0
  0
LINE
  5
CF
330
C9
100
AcDbEntity
  8
치수문자_일반주서
100
AcDbLine
 10
40.43211828395733
 20
10.19701102030524
 30
0.0
 11
45.98836827501663
 21
10.19701102030524
 31
0.0
  0
LINE
  5
D0
330
C9
100
AcDbEntity
  8
치수문자_일반주서
100
AcDbLine
 10
45.98836827501663
 20
10.19701102030524
 30
0.0
 11
45.98836827501663
 21
10.90794850586974
 31
0.0
  0
LINE
  5
D1
330
C9
100
AcDbEntity
  8
치수문자_일반주서
100
AcDbLine
 10
40.43211828395733
 20
21.73668136800699
 30
0.0
 11
40.43211828395733
 21
22.44761885357149
 31
0.0
  0
LINE
  5
D2
330
C9
100
AcDbEntity
  8
치수문자_일반주서
100
AcDbLine
 10
40.43211828395733
 20
22.44761885357149
 30
0.0
 11
45.98836827501663
 21
22.44761885357149
 31
0.0
  0
LINE
  5
D3
330
C9
100
AcDbEntity
  8
치수문자_일반주서
100
AcDbLine
 10
45.98836827501663
 20
22.44761885357149
 30
0.0
 11
45.98836827501663
 21
21.73668136800699
 31
0.0
  0
LINE
  5
D4
330
C9
100
AcDbEntity
  8
치수문자_일반주서
100
AcDbLine
 10
33.22500000000007
 20
-4.7522488562179
 30
0.0
 11
52.22500000000009
 21
-4.752248856217899
 31
0.0
  0
LINE
  5
D5
330
C9
100
AcDbEntity
  8
치수문자_일반주서
100
AcDbLine
 10
33.22500000000007
 20
4.754398713665687
 30
0.0
 11
52.22500000000009
 21
4.754398713665688
 31
0.0
  0
LINE
  5
D6
330
C9
100
AcDbEntity
  8
치수문자_일반주서
100
AcDbLine
 10
51.22500000000009
 20
-4.752248856217899
 30
0.0
 11
51.22500000000009
 21
4.754398713665688
 31
0.0
  0
LINE
  5
D7
330
C9
100
AcDbEntity
  8
치수문자_일반주서
100
AcDbLine
 10
51.22500000000009
 20
4.754398713665688
 30
0.0
 11
51.22500000000009
 21
23.48722863224395
 31
0.0
  0
MTEXT
  5
D8
330
C9
100
AcDbEntity
  8
치수문자_일반주서
100
AcDbMText
 10
41.47663136043774
 20
11.79662040648111
 30
0.0
 40
3.5
 41
0.0
 71
     1
 72
     1
  1
0.37
  7
SLDTEXTSTYLE0
 11
6.123233995736766E-17
 21
1.0
 31
0.0
 73
     1
 44
1.0
  0
MTEXT
  5
D9
330
C9
100
AcDbEntity
  8
치수문자_일반주서
100
AcDbMText
 10
46.71326291079821
 20
9.15740124163278
 30
0.0
 40
3.5
 41
0.0
 71
     1
 72
     1
  1
%%c
  7
SLDTEXTSTYLE0
 11
6.123233995736766E-17
 21
1.0
 31
0.0
 73
     1
 44
1.0
  0
MTEXT
  5
DA
330
C9
100
AcDbEntity
  8
치수문자_일반주서
100
AcDbMText
 10
46.71326291079821
 20
14.43583864000686
 30
0.0
 40
3.5
 41
0.0
 71
     1
 72
     1
  1
9.51
  7
SLDTEXTSTYLE0
 11
6.123233995736766E-17
 21
1.0
 31
0.0
 73
     1
 44
1.0
  0
ENDBLK
  5
CB
330
C9
100
AcDbEntity
  8
0
100
AcDbBlockEnd
  0
BLOCK
  5
DD
330
DC
100
AcDbEntity
  8
0
100
AcDbBlockBegin
  2
_D_2
 70
     0
 10
0.0
 20
0.0
 30
0.0
  3
_D_2
  1

  0
SOLID
  5
DF
330
DC
100
AcDbEntity
  8
치수문자_일반주서
100
AcDbTrace
 10
51.27500000000003
 20
16.37370041474514
 30
0.0
 11
54.57700000000003
 21
15.86570041474515
 31
0.0
 12
54.57700000000003
 22
16.88170041474514
 32
0.0
 13
54.57700000000003
 23
16.88170041474514
 33
0.0
  0
SOLID
  5
E0
330
DC
100
AcDbEntity
  8
치수문자_일반주서
100
AcDbTrace
 10
32.22500000000002
 20
16.37370041474514
 30
0.0
 11
28.92300000000002
 21
16.88170041474514
 31
0.0
 12
28.92300000000002
 22
15.86570041474515
 32
0.0
 13
28.92300000000002
 23
15.86570041474515
 33
0.0
  0
LINE
  5
E1
330
DC
100
AcDbEntity
  8
치수문자_일반주서
100
AcDbLine
 10
36.33563391817736
 20
27.16658213078789
 30
0.0
 11
35.62469643261286
 21
27.16658213078789
 31
0.0
  0
LINE
  5
E2
330
DC
100
AcDbEntity
  8
치수문자_일반주서
100
AcDbLine
 10
35.62469643261286
 20
27.16658213078789
 30
0.0
 11
35.62469643261282
 21
21.61033213972859
 31
0.0
  0
LINE
  5
E3
330
DC
100
AcDbEntity
  8
치수문자_일반주서
100
AcDbLine
 10
35.62469643261282
 20
21.61033213972859
 30
0.0
 11
36.33563391817732
 21
21.61033213972858
 31
0.0
  0
LINE
  5
E4
330
DC
100
AcDbEntity
  8
치수문자_일반주서
100
AcDbLine
 10
47.16436678031462
 20
27.16658213078781
 30
0.0
 11
47.87530426587912
 21
27.1665821307878
 31
0.0
  0
LINE
  5
E5
330
DC
100
AcDbEntity
  8
치수문자_일반주서
100
AcDbLine
 10
47.87530426587912
 20
27.1665821307878
 30
0.0
 11
47.87530426587907
 21
21.6103321397285
 31
0.0
  0
LINE
  5
E6
330
DC
100
AcDbEntity
  8
치수문자_일반주서
100
AcDbLine
 10
47.87530426587907
 20
21.6103321397285
 30
0.0
 11
47.16436678031457
 21
21.6103321397285
 31
0.0
  0
LINE
  5
E7
330
DC
100
AcDbEntity
  8
치수문자_일반주서
100
AcDbLine
 10
51.27500000000003
 20
7.327723384928748
 30
0.0
 11
51.27500000000003
 21
17.37370041474515
 31
0.0
  0
LINE
  5
E8
330
DC
100
AcDbEntity
  8
치수문자_일반주서
100
AcDbLine
 10
32.22500000000002
 20
7.158182611084089
 30
0.0
 11
32.22500000000002
 21
17.37370041474515
 31
0.0
  0
LINE
  5
E9
330
DC
100
AcDbEntity
  8
치수문자_일반주서
100
AcDbLine
 10
51.27500000000003
 20
16.37370041474514
 30
0.0
 11
57.62500000000003
 21
16.37370041474514
 31
0.0
  0
LINE
  5
EA
330
DC
100
AcDbEntity
  8
치수문자_일반주서
100
AcDbLine
 10
51.27500000000003
 20
16.37370041474514
 30
0.0
 11
32.22500000000002
 21
16.37370041474514
 31
0.0
  0
LINE
  5
EB
330
DC
100
AcDbEntity
  8
치수문자_일반주서
100
AcDbLine
 10
32.22500000000002
 20
16.37370041474514
 30
0.0
 11
25.87500000000002
 21
16.37370041474514
 31
0.0
  0
MTEXT
  5
EC
330
DC
100
AcDbEntity
  8
치수문자_일반주서
100
AcDbMText
 10
35.11093770712612
 20
20.93890968060687
 30
0.0
 40
3.5
 41
0.0
 71
     1
 72
     1
  1

  7
SLDTEXTSTYLE0
 73
     1
 44
1.0
  0
MTEXT
  5
ED
330
DC
100
AcDbEntity
  8
치수문자_일반주서
100
AcDbMText
 10
37.22430581878872
 20
26.12206905430747
 30
0.0
 40
3.5
 41
0.0
 71
     1
 72
     1
  1
0.75
  7
SLDTEXTSTYLE0
 73
     1
 44
1.0
  0
MTEXT
  5
EE
330
DC
100
AcDbEntity
  8
치수문자_일반주서
100
AcDbMText
 10
35.93125010561195
 20
20.88543750394701
 30
0.0
 40
3.5
 41
0.0
 71
     1
 72
     1
  1
19.05
  7
SLDTEXTSTYLE0
 73
     1
 44
1.0
  0
MTEXT
  5
EF
330
DC
100
AcDbEntity
  8
치수문자_일반주서
100
AcDbMText
 10
49.72100751101969
 20
20.93890968060676
 30
0.0
 40
3.5
 41
0.0
 71
     1
 72
     1
  1

  7
SLDTEXTSTYLE0
 73
     1
 44
1.0
  0
ENDBLK
  5
DE
330
DC
100
AcDbEntity
  8
0
100
AcDbBlockEnd
  0
BLOCK
  5
F3
330
F2
100
AcDbEntity
  8
0
100
AcDbBlockBegin
  2
_D_3
 70
     0
 10
0.0
 20
0.0
 30
0.0
  3
_D_3
  1

  0
SOLID
  5
F5
330
F2
100
AcDbEntity
  8
치수문자_일반주서
100
AcDbTrace
 10
51.27500000000003
 20
28.37370041474516
 30
0.0
 11
47.97300000000003
 21
28.88170041474516
 31
0.0
 12
47.97300000000003
 22
27.86570041474516
 32
0.0
 13
47.97300000000003
 23
27.86570041474516
 33
0.0
  0
SOLID
  5
F6
330
F2
100
AcDbEntity
  8
치수문자_일반주서
100
AcDbTrace
 10
-101.125
 20
28.37370041474516
 30
0.0
 11
-97.82299999999995
 21
27.86570041474516
 31
0.0
 12
-97.82299999999995
 22
28.88170041474515
 32
0.0
 13
-97.82299999999995
 23
28.88170041474515
 33
0.0
  0
LINE
  5
F7
330
F2
100
AcDbEntity
  8
치수문자_일반주서
100
AcDbLine
 10
-30.33936608182262
 20
39.16658213078789
 30
0.0
 11
-31.05030356738712
 21
39.16658213078789
 31
0.0
  0
LINE
  5
F8
330
F2
100
AcDbEntity
  8
치수문자_일반주서
100
AcDbLine
 10
-31.05030356738712
 20
39.16658213078789
 30
0.0
 11
-31.05030356738716
 21
33.61033213972859
 31
0.0
  0
LINE
  5
F9
330
F2
100
AcDbEntity
  8
치수문자_일반주서
100
AcDbLine
 10
-31.05030356738716
 20
33.61033213972859
 30
0.0
 11
-30.33936608182266
 21
33.61033213972858
 31
0.0
  0
LINE
  5
FA
330
F2
100
AcDbEntity
  8
치수문자_일반주서
100
AcDbLine
 10
-19.51063321968536
 20
39.16658213078781
 30
0.0
 11
-18.79969573412086
 21
39.1665821307878
 31
0.0
  0
LINE
  5
FB
330
F2
100
AcDbEntity
  8
치수문자_일반주서
100
AcDbLine
 10
-18.79969573412086
 20
39.1665821307878
 30
0.0
 11
-18.7996957341209
 21
33.6103321397285
 31
0.0
  0
LINE
  5
FC
330
F2
100
AcDbEntity
  8
치수문자_일반주서
100
AcDbLine
 10
-18.7996957341209
 20
33.6103321397285
 30
0.0
 11
-19.5106332196854
 21
33.61033213972851
 31
0.0
  0
LINE
  5
FD
330
F2
100
AcDbEntity
  8
치수문자_일반주서
100
AcDbLine
 10
51.27500000000003
 20
7.327723384928748
 30
0.0
 11
51.27500000000003
 21
29.37370041474516
 31
0.0
  0
LINE
  5
FE
330
F2
100
AcDbEntity
  8
치수문자_일반주서
100
AcDbLine
 10
-101.125
 20
4.811074928723896
 30
0.0
 11
-101.125
 21
29.37370041474516
 31
0.0
  0
LINE
  5
FF
330
F2
100
AcDbEntity
  8
치수문자_일반주서
100
AcDbLine
 10
51.27500000000003
 20
28.37370041474516
 30
0.0
 11
-101.125
 21
28.37370041474516
 31
0.0
  0
MTEXT
  5
100
330
F2
100
AcDbEntity
  8
치수문자_일반주서
100
AcDbMText
 10
-32.01736120432616
 20
32.93890968060688
 30
0.0
 40
3.5
 41
0.0
 71
     1
 72
     1
  1

  7
SLDTEXTSTYLE0
 73
     1
 44
1.0
  0
MTEXT
  5
101
330
F2
100
AcDbEntity
  8
치수문자_일반주서
100
AcDbMText
 10
-29.45069418121126
 20
38.12206905430747
 30
0.0
 40
3.5
 41
0.0
 71
     1
 72
     1
  1
6.00
  7
SLDTEXTSTYLE0
 73
     1
 44
1.0
  0
MTEXT
  5
102
330
F2
100
AcDbEntity
  8
치수문자_일반주서
100
AcDbMText
 10
-32.03680560756475
 20
32.88543750394702
 30
0.0
 40
3.5
 41
0.0
 71
     1
 72
     1
  1
152.40
  7
SLDTEXTSTYLE0
 73
     1
 44
1.0
  0
MTEXT
  5
103
330
F2
100
AcDbEntity
  8
치수문자_일반주서
100
AcDbMText
 10
-16.500693577528
 20
32.93890968060677
 30
0.0
 40
3.5
 41
0.0
 71
     1
 72
     1
  1

  7
SLDTEXTSTYLE0
 73
     1
 44
1.0
  0
ENDBLK
  5
F4
330
F2
100
AcDbEntity
  8
0
100
AcDbBlockEnd
  0
BLOCK
  5
10C
330
10B
100
AcDbEntity
  8
0
100
AcDbBlockBegin
  2
SW_DOWELSYMBOL_0
 70
     0
 10
0.0
 20
0.0
 30
0.0
  3
SW_DOWELSYMBOL_0
  1

  0
CIRCLE
  5
10E
330
10B
100
AcDbEntity
  8
해칭선
 62
     0
100
AcDbCircle
 10
0.0
 20
0.0
 30
0.0
 40
3.000000000000015
  0
HATCH
  5
10F
330
10B
100
AcDbEntity
  8
0
  6
Continuous
 62
     0
370
     0
100
AcDbHatch
 10
0.0
 20
0.0
 30
0.0
210
0.0
220
0.0
230
1.0
  2
SOLID
 70
     1
 71
     0
 91
        1
 92
        0
 93
        3
 72
     2
 10
0.0
 20
0.0
 40
3.000000000000015
 50
0.0
 51
90.0
 73
     1
 72
     1
 10
0.0
 20
3.000000000000015
 11
0.0
 21
0.0
 72
     1
 10
0.0
 20
0.0
 11
3.000000000000016
 21
0.0
 97
        0
 75
     0
 76
     1
 98
        1
 10
0.0
 20
0.0
  0
HATCH
  5
110
330
10B
100
AcDbEntity
  8
0
  6
Continuous
 62
     0
370
     0
100
AcDbHatch
 10
0.0
 20
0.0
 30
0.0
210
0.0
220
0.0
230
1.0
  2
SOLID
 70
     1
 71
     0
 91
        1
 92
        0
 93
        3
 72
     2
 10
0.0
 20
0.0
 40
3.000000000000015
 50
180.0
 51
270.0000000000008
 73
     1
 72
     1
 10
0.0
 20
-3.000000000000015
 11
0.0
 21
0.0
 72
     1
 10
0.0
 20
0.0
 11
-3.000000000000016
 21
0.0
 97
        0
 75
     0
 76
     1
 98
        1
 10
0.0
 20
0.0
  0
ENDBLK
  5
10D
330
10B
100
AcDbEntity
  8
0
100
AcDbBlockEnd
  0
BLOCK
  5
212
330
211
100
AcDbEntity
  8
0
100
AcDbBlockBegin
  2
*D8
 70
     1
 10
0.0
 20
0.0
 30
0.0
  3
*D8
  1

  0
LINE
  5
214
330
211
100
AcDbEntity
  8
치수문자_일반주서
 62
     0
370
    -2
100
AcDbLine
 10
23.36474562037614
 20
56.32180738881173
 30
0.0
 11
10.79288171604277
 21
56.32180738881168
 31
0.0
  0
LINE
  5
215
330
211
100
AcDbEntity
  8
치수문자_일반주서
 62
     0
370
    -2
100
AcDbLine
 10
23.36474562037614
 20
43.62180738881175
 30
0.0
 11
10.79288171604281
 21
43.6218073888117
 31
0.0
  0
LINE
  5
216
330
211
100
AcDbEntity
  8
치수문자_일반주서
 62
     0
370
    -2
100
AcDbLine
 10
10.79288171604278
 20
53.01980738881169
 30
0.0
 11
10.7928817160428
 21
46.9238073888117
 31
0.0
  0
SOLID
  5
217
330
211
100
AcDbEntity
  8
치수문자_일반주서
 62
     0
100
AcDbTrace
 10
11.34321504937611
 20
53.01980738881169
 30
0.0
 11
10.24254838270945
 21
53.01980738881169
 31
0.0
 12
10.79288171604277
 22
56.32180738881168
 32
0.0
 13
10.79288171604277
 23
56.32180738881168
 33
0.0
  0
SOLID
  5
218
330
211
100
AcDbEntity
  8
치수문자_일반주서
 62
     0
100
AcDbTrace
 10
10.24254838270947
 20
46.9238073888117
 30
0.0
 11
11.34321504937613
 21
46.9238073888117
 31
0.0
 12
10.79288171604281
 22
43.6218073888117
 32
0.0
 13
10.79288171604281
 23
43.6218073888117
 33
0.0
  0
MTEXT
  5
219
330
211
100
AcDbEntity
  8
치수문자_일반주서
 62
     0
100
AcDbMText
 10
6.417881716042785
 20
51.52254045876592
 30
0.0
 40
3.5
 41
0.0
 71
     2
 72
     1
  1
\A1;%%c12.7 [0.50]
  7
SLDTEXTSTYLE0
 11
-3.496765431890260E-15
 21
1.0
 31
0.0
 73
     1
 44
1.0
  0
POINT
  5
21A
330
211
100
AcDbEntity
  8
Defpoints
 62
     0
100
AcDbPoint
 10
23.42724562037614
 20
56.32180738881173
 30
0.0
  0
POINT
  5
21B
330
211
100
AcDbEntity
  8
Defpoints
 62
     0
100
AcDbPoint
 10
23.42724562037614
 20
43.62180738881175
 30
0.0
  0
POINT
  5
21C
330
211
100
AcDbEntity
  8
Defpoints
 62
     0
100
AcDbPoint
 10
10.79288171604279
 20
43.6218073888117
 30
0.0
  0
ENDBLK
  5
213
330
211
100
AcDbEntity
  8
0
100
AcDbBlockEnd
  0
BLOCK
  5
21E
330
21D
100
AcDbEntity
  8
0
100
AcDbBlockBegin
  2
*D9
 70
     1
 10
0.0
 20
0.0
 30
0.0
  3
*D9
  1

  0
LINE
  5
220
330
21D
100
AcDbEntity
  8
치수문자_일반주서
 62
     0
370
    -2
100
AcDbLine
 10
187.3197455702734
 20
57.85957508070315
 30
0.0
 11
215.2301052838907
 21
57.82423467781538
 31
0.0
  0
LINE
  5
221
330
21D
100
AcDbEntity
  8
치수문자_일반주서
 62
     0
370
    -2
100
AcDbLine
 10
187.2997455702734
 20
42.06441858392327
 30
0.0
 11
215.2101052838908
 21
42.02907818103552
 31
0.0
  0
LINE
  5
222
330
21D
100
AcDbEntity
  8
치수문자_일반주서
 62
     0
370
    -2
100
AcDbLine
 10
215.2301052838907
 20
57.82423467781538
 30
0.0
 11
215.2736276206275
 21
92.19634067099423
 31
0.0
  0
LINE
  5
223
330
21D
100
AcDbEntity
  8
치수문자_일반주서
 62
     0
370
    -2
100
AcDbLine
 10
215.2259242587092
 20
54.52223732484424
 30
0.0
 11
215.2142863090723
 21
45.33107553400666
 31
0.0
  0
SOLID
  5
224
330
21D
100
AcDbEntity
  8
치수문자_일반주서
 62
     0
100
AcDbTrace
 10
215.7762571508711
 20
54.52154048731398
 30
0.0
 11
214.6755913665473
 21
54.5229341623745
 31
0.0
 12
215.2301052838907
 22
57.82423467781538
 32
0.0
 13
215.2301052838907
 23
57.82423467781538
 33
0.0
  0
SOLID
  5
225
330
21D
100
AcDbEntity
  8
치수문자_일반주서
 62
     0
100
AcDbTrace
 10
214.6639534169105
 20
45.33177237153691
 30
0.0
 11
215.7646192012342
 21
45.3303786964764
 31
0.0
 12
215.2101052838908
 22
42.02907818103552
 32
0.0
 13
215.2101052838908
 23
42.02907818103552
 33
0.0
  0
MTEXT
  5
226
330
21D
100
AcDbEntity
  8
치수문자_일반주서
 62
     0
100
AcDbMText
 10
210.88228910594
 20
79.2956406856476
 30
0.0
 40
3.5
 41
0.0
 71
     2
 72
     1
  1
\A1;%%c15.8 [0.62]
  7
SLDTEXTSTYLE0
 11
0.001266209927780615
 21
0.999999198355888
 31
0.0
 73
     1
 44
1.0
  0
POINT
  5
227
330
21D
100
AcDbEntity
  8
Defpoints
 62
     0
100
AcDbPoint
 10
187.2572456203762
 20
57.85965421882363
 30
0.0
  0
POINT
  5
228
330
21D
100
AcDbEntity
  8
Defpoints
 62
     0
100
AcDbPoint
 10
187.2372456203762
 20
42.06449772204375
 30
0.0
  0
POINT
  5
229
330
21D
100
AcDbEntity
  8
Defpoints
 62
     0
100
AcDbPoint
 10
215.2101052838908
 20
42.02907818103551
 30
0.0
  0
ENDBLK
  5
21F
330
21D
100
AcDbEntity
  8
0
100
AcDbBlockEnd
  0
BLOCK
  5
22B
330
22A
100
AcDbEntity
  8
0
100
AcDbBlockBegin
  2
*D10
 70
     1
 10
0.0
 20
0.0
 30
0.0
  3
*D10
  1

  0
LINE
  5
22D
330
22A
100
AcDbEntity
  8
치수문자_일반주서
 62
     0
370
    -2
100
AcDbLine
 10
187.2572456203762
 20
57.92215421882363
 30
0.0
 11
187.2572456203762
 21
67.92609387706973
 31
0.0
  0
LINE
  5
22E
330
22A
100
AcDbEntity
  8
치수문자_일반주서
 62
     0
370
    -2
100
AcDbLine
 10
165.0322456203744
 20
57.90314099540649
 30
0.0
 11
165.0322456203744
 21
67.92609387706973
 31
0.0
  0
LINE
  5
22F
330
22A
100
AcDbEntity
  8
치수문자_일반주서
 62
     0
370
    -2
100
AcDbLine
 10
183.9552456203762
 20
67.92609387706973
 30
0.0
 11
168.3342456203744
 21
67.92609387706973
 31
0.0
  0
SOLID
  5
230
330
22A
100
AcDbEntity
  8
치수문자_일반주서
 62
     0
100
AcDbTrace
 10
183.9552456203762
 20
67.3757605437364
 30
0.0
 11
183.9552456203762
 21
68.47642721040306
 31
0.0
 12
187.2572456203762
 22
67.92609387706973
 32
0.0
 13
187.2572456203762
 23
67.92609387706973
 33
0.0
  0
SOLID
  5
231
330
22A
100
AcDbEntity
  8
치수문자_일반주서
 62
     0
100
AcDbTrace
 10
168.3342456203744
 20
68.47642721040306
 30
0.0
 11
168.3342456203744
 21
67.3757605437364
 31
0.0
 12
165.0322456203744
 22
67.92609387706973
 32
0.0
 13
165.0322456203744
 23
67.92609387706973
 33
0.0
  0
MTEXT
  5
232
330
22A
100
AcDbEntity
  8
치수문자_일반주서
 62
     0
100
AcDbMText
 10
177.3142648983666
 20
72.30109387706973
 30
0.0
 40
3.5
 41
0.0
 71
     2
 72
     1
  1
\A1;22.23 [0.88]
  7
SLDTEXTSTYLE0
 73
     1
 44
1.0
  0
POINT
  5
233
330
22A
100
AcDbEntity
  8
Defpoints
 62
     0
100
AcDbPoint
 10
187.2572456203762
 20
57.85965421882363
 30
0.0
  0
POINT
  5
234
330
22A
100
AcDbEntity
  8
Defpoints
 62
     0
100
AcDbPoint
 10
165.0322456203744
 20
57.84064099540649
 30
0.0
  0
POINT
  5
235
330
22A
100
AcDbEntity
  8
Defpoints
 62
     0
100
AcDbPoint
 10
165.0322456203744
 20
67.92609387706973
 30
0.0
  0
ENDBLK
  5
22C
330
22A
100
AcDbEntity
  8
0
100
AcDbBlockEnd
  0
BLOCK
  5
237
330
236
100
AcDbEntity
  8
0
100
AcDbBlockBegin
  2
*D11
 70
     1
 10
0.0
 20
0.0
 30
0.0
  3
*D11
  1

  0
LINE
  5
239
330
236
100
AcDbEntity
  8
치수문자_일반주서
 62
     0
370
    -2
100
AcDbLine
 10
187.2572456203762
 20
57.92215421882363
 30
0.0
 11
187.2572456203762
 21
79.92609387706977
 31
0.0
  0
LINE
  5
23A
330
236
100
AcDbEntity
  8
치수문자_일반주서
 62
     0
370
    -2
100
AcDbLine
 10
22.15724562037616
 20
55.11430738881175
 30
0.0
 11
22.15724562037616
 21
79.92609387706977
 31
0.0
  0
LINE
  5
23B
330
236
100
AcDbEntity
  8
치수문자_일반주서
 62
     0
370
    -2
100
AcDbLine
 10
183.9552456203762
 20
79.92609387706977
 30
0.0
 11
25.45924562037616
 21
79.92609387706977
 31
0.0
  0
SOLID
  5
23C
330
236
100
AcDbEntity
  8
치수문자_일반주서
 62
     0
100
AcDbTrace
 10
183.9552456203762
 20
79.37576054373645
 30
0.0
 11
183.9552456203762
 21
80.4764272104031
 31
0.0
 12
187.2572456203762
 22
79.92609387706977
 32
0.0
 13
187.2572456203762
 23
79.92609387706977
 33
0.0
  0
SOLID
  5
23D
330
236
100
AcDbEntity
  8
치수문자_일반주서
 62
     0
100
AcDbTrace
 10
25.45924562037616
 20
80.4764272104031
 30
0.0
 11
25.45924562037616
 21
79.37576054373645
 31
0.0
 12
22.15724562037616
 22
79.92609387706977
 32
0.0
 13
22.15724562037616
 23
79.92609387706977
 33
0.0
  0
MTEXT
  5
23E
330
236
100
AcDbEntity
  8
치수문자_일반주서
 62
     0
100
AcDbMText
 10
104.7072456203762
 20
84.30109387706977
 30
0.0
 40
3.5
 41
0.0
 71
     2
 72
     1
  1
\A1;165.1 [6.50]
  7
SLDTEXTSTYLE0
 73
     1
 44
1.0
  0
POINT
  5
23F
330
236
100
AcDbEntity
  8
Defpoints
 62
     0
100
AcDbPoint
 10
187.2572456203762
 20
57.85965421882363
 30
0.0
  0
POINT
  5
240
330
236
100
AcDbEntity
  8
Defpoints
 62
     0
100
AcDbPoint
 10
22.15724562037616
 20
55.05180738881175
 30
0.0
  0
POINT
  5
241
330
236
100
AcDbEntity
  8
Defpoints
 62
     0
100
AcDbPoint
 10
22.15724562037616
 20
79.92609387706977
 30
0.0
  0
ENDBLK
  5
238
330
236
100
AcDbEntity
  8
0
100
AcDbBlockEnd
  0
BLOCK
  5
28A
330
289
100
AcDbEntity
  8
0
100
AcDbBlockBegin
  2
*D12
 70
     1
 10
0.0
 20
0.0
 30
0.0
  3
*D12
  1

  0
LINE
  5
28C
330
289
100
AcDbEntity
  8
치수문자_일반주서
 62
     0
370
    -2
100
AcDbLine
 10
-136.4925
 20
6.34999999999998
 30
0.0
 11
-149.0643639043334
 21
6.349999999999931
 31
0.0
  0
LINE
  5
28D
330
289
100
AcDbEntity
  8
치수문자_일반주서
 62
     0
370
    -2
100
AcDbLine
 10
-136.4925
 20
-6.350000000000009
 30
0.0
 11
-149.0643639043333
 21
-6.350000000000057
 31
0.0
  0
LINE
  5
28E
330
289
100
AcDbEntity
  8
치수문자_일반주서
 62
     0
370
    -2
100
AcDbLine
 10
-149.0643639043334
 20
6.349999999999931
 30
0.0
 11
-149.0643639043333
 21
-6.350000000000057
 31
0.0
  0
LINE
  5
28F
330
289
100
AcDbEntity
  8
치수문자_일반주서
 62
     0
370
    -2
100
AcDbLine
 10
-149.0643639043334
 20
9.65199999999993
 30
0.0
 11
-149.0643639043334
 21
12.95399999999993
 31
0.0
  0
LINE
  5
290
330
289
100
AcDbEntity
  8
치수문자_일반주서
 62
     0
370
    -2
100
AcDbLine
 10
-149.0643639043333
 20
-9.652000000000058
 30
0.0
 11
-149.0643639043332
 21
-12.95400000000006
 31
0.0
  0
SOLID
  5
291
330
289
100
AcDbEntity
  8
치수문자_일반주서
 62
     0
100
AcDbTrace
 10
-149.6146972376667
 20
9.651999999999928
 30
0.0
 11
-148.5140305710001
 21
9.651999999999932
 31
0.0
 12
-149.0643639043334
 22
6.349999999999931
 32
0.0
 13
-149.0643639043334
 23
6.349999999999931
 33
0.0
  0
SOLID
  5
292
330
289
100
AcDbEntity
  8
치수문자_일반주서
 62
     0
100
AcDbTrace
 10
-148.5140305709999
 20
-9.652000000000056
 30
0.0
 11
-149.6146972376666
 21
-9.65200000000006
 31
0.0
 12
-149.0643639043333
 22
-6.350000000000057
 32
0.0
 13
-149.0643639043333
 23
-6.350000000000057
 33
0.0
  0
MTEXT
  5
293
330
289
100
AcDbEntity
  8
치수문자_일반주서
 62
     0
100
AcDbMText
 10
-153.4393639043333
 20
1.550733069954157
 30
0.0
 40
3.5
 41
0.0
 71
     2
 72
     1
  1
\A1;%%c12.7 [1/2]
  7
SLDTEXTSTYLE0
 11
-4.475859752819533E-15
 21
1.0
 31
0.0
 73
     1
 44
1.0
  0
POINT
  5
294
330
289
100
AcDbEntity
  8
Defpoints
 62
     0
100
AcDbPoint
 10
-136.43
 20
6.34999999999998
 30
0.0
  0
POINT
  5
2BE
330
289
100
AcDbEntity
  8
Defpoints
 62
     0
100
AcDbPoint
 10
-136.43
 20
-6.350000000000009
 30
0.0
  0
POINT
  5
2BF
330
289
100
AcDbEntity
  8
Defpoints
 62
     0
100
AcDbPoint
 10
-149.0643639043333
 20
-6.350000000000056
 30
0.0
  0
ENDBLK
  5
28B
330
289
100
AcDbEntity
  8
0
100
AcDbBlockEnd
  0
BLOCK
  5
296
330
295
100
AcDbEntity
  8
0
100
AcDbBlockBegin
  2
*D13
 70
     1
 10
0.0
 20
0.0
 30
0.0
  3
*D13
  1

  0
LINE
  5
298
330
295
100
AcDbEntity
  8
치수문자_일반주서
 62
     0
370
    -2
100
AcDbLine
 10
27.46249994989728
 20
7.887767691891388
 30
0.0
 11
55.37285966351458
 21
7.852427289003629
 31
0.0
  0
LINE
  5
299
330
295
100
AcDbEntity
  8
치수문자_일반주서
 62
     0
370
    -2
100
AcDbLine
 10
27.4424999498973
 20
-7.907388804888487
 30
0.0
 11
55.35285966351461
 21
-7.942729207776239
 31
0.0
  0
LINE
  5
29A
330
295
100
AcDbEntity
  8
치수문자_일반주서
 62
     0
370
    -2
100
AcDbLine
 10
55.37285966351458
 20
7.852427289003629
 30
0.0
 11
55.41610501682963
 21
42.00578345754214
 31
0.0
  0
LINE
  5
29B
330
295
100
AcDbEntity
  8
치수문자_일반주서
 62
     0
370
    -2
100
AcDbLine
 10
55.37285966351458
 20
7.852427289003629
 30
0.0
 11
55.35285966351461
 21
-7.942729207776239
 31
0.0
  0
LINE
  5
29C
330
295
100
AcDbEntity
  8
치수문자_일반주서
 62
     0
370
    -2
100
AcDbLine
 10
55.37704068869612
 20
11.15442464197477
 30
0.0
 11
55.38122171387766
 21
14.45642199494591
 31
0.0
  0
LINE
  5
29D
330
295
100
AcDbEntity
  8
치수문자_일반주서
 62
     0
370
    -2
100
AcDbLine
 10
55.34867863833308
 20
-11.24472656074738
 30
0.0
 11
55.34449761315154
 21
-14.54672391371852
 31
0.0
  0
SOLID
  5
29E
330
295
100
AcDbEntity
  8
치수문자_일반주서
 62
     0
100
AcDbTrace
 10
54.82670779653427
 20
11.15512147950503
 30
0.0
 11
55.92737358085797
 21
11.15372780444451
 31
0.0
 12
55.37285966351458
 22
7.852427289003629
 32
0.0
 13
55.37285966351458
 23
7.852427289003629
 33
0.0
  0
SOLID
  5
29F
330
295
100
AcDbEntity
  8
치수문자_일반주서
 62
     0
100
AcDbTrace
 10
55.89901153049493
 20
-11.24542339827764
 30
0.0
 11
54.79834574617122
 21
-11.24402972321712
 31
0.0
 12
55.35285966351461
 22
-7.942729207776239
 32
0.0
 13
55.35285966351461
 23
-7.942729207776239
 33
0.0
  0
MTEXT
  5
2A0
330
295
100
AcDbEntity
  8
치수문자_일반주서
 62
     0
100
AcDbMText
 10
51.02504348556389
 20
29.32383329683585
 30
0.0
 40
3.5
 41
0.0
 71
     2
 72
     1
  1
\A1;%%c15.8 [5/8]
  7
SLDTEXTSTYLE0
 11
0.001266209927781514
 21
0.999999198355888
 31
0.0
 73
     1
 44
1.0
  0
POINT
  5
2A1
330
295
100
AcDbEntity
  8
Defpoints
 62
     0
100
AcDbPoint
 10
27.40000000000003
 20
7.887846830011874
 30
0.0
  0
POINT
  5
2BC
330
295
100
AcDbEntity
  8
Defpoints
 62
     0
100
AcDbPoint
 10
27.38000000000005
 20
-7.907309666768001
 30
0.0
  0
POINT
  5
2BD
330
295
100
AcDbEntity
  8
Defpoints
 62
     0
100
AcDbPoint
 10
55.35285966351461
 20
-7.942729207776246
 30
0.0
  0
ENDBLK
  5
297
330
295
100
AcDbEntity
  8
0
100
AcDbBlockEnd
  0
BLOCK
  5
2A3
330
2A2
100
AcDbEntity
  8
0
100
AcDbBlockBegin
  2
*D14
 70
     1
 10
0.0
 20
0.0
 30
0.0
  3
*D14
  1

  0
LINE
  5
2A5
330
2A2
100
AcDbEntity
  8
치수문자_일반주서
 62
     0
370
    -2
100
AcDbLine
 10
27.40000000000003
 20
7.950346830011874
 30
0.0
 11
27.40000000000003
 21
17.95428648825798
 31
0.0
  0
LINE
  5
2A6
330
2A2
100
AcDbEntity
  8
치수문자_일반주서
 62
     0
370
    -2
100
AcDbLine
 10
5.174999999998249
 20
7.931333606594734
 30
0.0
 11
5.174999999998249
 21
17.95428648825798
 31
0.0
  0
LINE
  5
2A7
330
2A2
100
AcDbEntity
  8
치수문자_일반주서
 62
     0
370
    -2
100
AcDbLine
 10
27.40000000000003
 20
17.95428648825798
 30
0.0
 11
-27.67900000000175
 21
17.95428648825798
 31
0.0
  0
LINE
  5
2A8
330
2A2
100
AcDbEntity
  8
치수문자_일반주서
 62
     0
370
    -2
100
AcDbLine
 10
24.09800000000003
 20
17.95428648825798
 30
0.0
 11
8.476999999998249
 21
17.95428648825798
 31
0.0
  0
LINE
  5
2A9
330
2A2
100
AcDbEntity
  8
치수문자_일반주서
 62
     0
370
    -2
100
AcDbLine
 10
8.476999999998249
 20
17.95428648825798
 30
0.0
 11
11.77899999999825
 21
17.95428648825798
 31
0.0
  0
SOLID
  5
2AA
330
2A2
100
AcDbEntity
  8
치수문자_일반주서
 62
     0
100
AcDbTrace
 10
24.09800000000003
 20
17.40395315492464
 30
0.0
 11
24.09800000000003
 21
18.50461982159131
 31
0.0
 12
27.40000000000003
 22
17.95428648825798
 32
0.0
 13
27.40000000000003
 23
17.95428648825798
 33
0.0
  0
SOLID
  5
2AB
330
2A2
100
AcDbEntity
  8
치수문자_일반주서
 62
     0
100
AcDbTrace
 10
8.476999999998249
 20
18.50461982159131
 30
0.0
 11
8.476999999998249
 21
17.40395315492464
 31
0.0
 12
5.174999999998249
 22
17.95428648825798
 32
0.0
 13
5.174999999998249
 23
17.95428648825798
 33
0.0
  0
MTEXT
  5
2AC
330
2A2
100
AcDbEntity
  8
치수문자_일반주서
 62
     0
100
AcDbMText
 10
-14.55400000000175
 20
22.32928648825798
 30
0.0
 40
3.5
 41
0.0
 71
     2
 72
     1
  1
\A1;22.23 [7/8]
  7
SLDTEXTSTYLE0
 73
     1
 44
1.0
  0
POINT
  5
2AD
330
2A2
100
AcDbEntity
  8
Defpoints
 62
     0
100
AcDbPoint
 10
27.40000000000003
 20
7.887846830011874
 30
0.0
  0
POINT
  5
2C0
330
2A2
100
AcDbEntity
  8
Defpoints
 62
     0
100
AcDbPoint
 10
5.174999999998249
 20
7.868833606594734
 30
0.0
  0
POINT
  5
2C1
330
2A2
100
AcDbEntity
  8
Defpoints
 62
     0
100
AcDbPoint
 10
5.174999999998249
 20
17.95428648825798
 30
0.0
  0
ENDBLK
  5
2A4
330
2A2
100
AcDbEntity
  8
0
100
AcDbBlockEnd
  0
BLOCK
  5
2AF
330
2AE
100
AcDbEntity
  8
0
100
AcDbBlockBegin
  2
*D15
 70
     1
 10
0.0
 20
0.0
 30
0.0
  3
*D15
  1

  0
LINE
  5
2B1
330
2AE
100
AcDbEntity
  8
치수문자_일반주서
 62
     0
370
    -2
100
AcDbLine
 10
27.40000000000003
 20
7.950346830011874
 30
0.0
 11
27.40000000000003
 21
29.95428648825802
 31
0.0
  0
LINE
  5
2B2
330
2AE
100
AcDbEntity
  8
치수문자_일반주서
 62
     0
370
    -2
100
AcDbLine
 10
-137.7
 20
5.142499999999998
 30
0.0
 11
-137.7
 21
29.95428648825802
 31
0.0
  0
LINE
  5
2B3
330
2AE
100
AcDbEntity
  8
치수문자_일반주서
 62
     0
370
    -2
100
AcDbLine
 10
24.09800000000003
 20
29.95428648825802
 30
0.0
 11
-134.398
 21
29.95428648825802
 31
0.0
  0
SOLID
  5
2B4
330
2AE
100
AcDbEntity
  8
치수문자_일반주서
 62
     0
100
AcDbTrace
 10
24.09800000000003
 20
29.40395315492469
 30
0.0
 11
24.09800000000003
 21
30.50461982159135
 31
0.0
 12
27.40000000000003
 22
29.95428648825802
 32
0.0
 13
27.40000000000003
 23
29.95428648825802
 33
0.0
  0
SOLID
  5
2B5
330
2AE
100
AcDbEntity
  8
치수문자_일반주서
 62
     0
100
AcDbTrace
 10
-134.398
 20
30.50461982159135
 30
0.0
 11
-134.398
 21
29.40395315492469
 31
0.0
 12
-137.7
 22
29.95428648825802
 32
0.0
 13
-137.7
 23
29.95428648825802
 33
0.0
  0
MTEXT
  5
2B6
330
2AE
100
AcDbEntity
  8
치수문자_일반주서
 62
     0
100
AcDbMText
 10
-55.14999999999998
 20
34.32928648825802
 30
0.0
 40
3.5
 41
0.0
 71
     2
 72
     1
  1
\A1;165.1 [6 1/2]
  7
SLDTEXTSTYLE0
 73
     1
 44
1.0
  0
POINT
  5
2B7
330
2AE
100
AcDbEntity
  8
Defpoints
 62
     0
100
AcDbPoint
 10
27.40000000000003
 20
7.887846830011874
 30
0.0
  0
POINT
  5
2B8
330
2AE
100
AcDbEntity
  8
Defpoints
 62
     0
100
AcDbPoint
 10
-137.7
 20
5.079999999999998
 30
0.0
  0
POINT
  5
2B9
330
2AE
100
AcDbEntity
  8
Defpoints
 62
     0
100
AcDbPoint
 10
-137.7
 20
29.95428648825802
 30
0.0
  0
ENDBLK
  5
2B0
330
2AE
100
AcDbEntity
  8
0
100
AcDbBlockEnd
  0
ENDSEC
  0
SECTION
  2
ENTITIES
  0
LINE
  5
243
330
1F
100
AcDbEntity
  8
외형선
  6
Continuous
 62
     1
370
    15
100
AcDbLine
 10
11.82219580452136
 20
7.937499999999986
 30
0.0
 11
6.985051387408646
 21
7.937499999999986
 31
0.0
  0
LINE
  5
244
330
1F
100
AcDbEntity
  8
외형선
  6
Continuous
 62
     1
370
    15
100
AcDbLine
 10
6.985051387408532
 20
-7.937500000000007
 30
0.0
 11
11.82219580452136
 21
-7.937500000000007
 31
0.0
  0
LINE
  5
247
330
1F
100
AcDbEntity
  8
외형선
  6
Continuous
370
    15
100
AcDbLine
 10
-136.43
 20
-6.350000000000016
 30
0.0
 11
2.0
 21
-6.350000000000016
 31
0.0
  0
LINE
  5
248
330
1F
100
AcDbEntity
  8
외형선
  6
Continuous
370
    15
100
AcDbLine
 10
2.0
 20
6.349999999999994
 30
0.0
 11
-136.43
 21
6.349999999999994
 31
0.0
  0
LINE
  5
249
330
1F
100
AcDbEntity
  8
외형선
  6
Continuous
370
    15
100
AcDbLine
 10
-136.43
 20
6.349999999999987
 30
0.0
 11
-137.7
 21
5.079999999999998
 31
0.0
  0
LINE
  5
24A
330
1F
100
AcDbEntity
  8
외형선
  6
Continuous
370
    15
100
AcDbLine
 10
-137.7
 20
-5.080000000000027
 30
0.0
 11
-136.43
 21
-6.350000000000009
 31
0.0
  0
SPLINE
  5
24B
330
1F
100
AcDbEntity
  8
외형선
  6
Continuous
 62
     1
370
    15
100
AcDbSpline
210
0.0
220
0.0
230
1.0
 70
     8
 71
     3
 72
    20
 73
    16
 74
     0
 42
0.000000001
 43
0.00000001
 40
0.0
 40
0.0
 40
0.0
 40
0.0
 40
0.0000077292056342
 40
0.0000077292056342
 40
0.0000077292056342
 40
0.0000155384008943
 40
0.0000155384008943
 40
0.0000155384008943
 40
0.0000222100705988
 40
0.0000222100705988
 40
0.0000222100705988
 40
0.0000279800629006
 40
0.0000279800629006
 40
0.0000279800629006
 40
0.0000327510998066
 40
0.0000327510998066
 40
0.0000327510998066
 40
0.0000327510998066
 10
27.38
 20
-7.907309666768001
 30
0.0
 10
27.38222950960528
 20
-7.907422173607571
 30
0.0
 10
27.38454492428423
 20
-7.907148831134329
 30
0.0
 10
27.38676524531428
 20
-7.906443455874921
 30
0.0
 10
27.38899874295612
 20
-7.905733894528979
 30
0.0
 10
27.39120831570881
 20
-7.904552304170259
 30
0.0
 10
27.3931146415029
 20
-7.90295327053169
 30
0.0
 10
27.39474735212559
 20
-7.901583746384354
 30
0.0
 10
27.39620832014731
 20
-7.899859371980483
 30
0.0
 10
27.39731838601165
 20
-7.897948375741286
 30
0.0
 10
27.39828283838705
 20
-7.89628805546522
 30
0.0
 10
27.39901172724018
 20
-7.894441621203839
 30
0.0
 10
27.39945331342795
 20
-7.892571147168752
 30
0.0
 10
27.39982047205206
 20
-7.891015933957675
 30
0.0
 10
27.40000000000003
 20
-7.8894135686363
 30
0.0
 10
27.40000000000003
 20
-7.887846830011895
 30
0.0
  0
SPLINE
  5
24C
330
1F
100
AcDbEntity
  8
외형선
  6
Continuous
 62
     1
370
    15
100
AcDbSpline
210
0.0
220
0.0
230
1.0
 70
     8
 71
     3
 72
    12
 73
     8
 74
     0
 42
0.000000001
 43
0.00000001
 40
0.0
 40
0.0
 40
0.0
 40
0.0
 40
0.1423153886527572
 40
0.3494168438573172
 40
0.566343004624287
 40
0.7831538558175154
 40
1.0
 40
1.0
 40
1.0
 40
1.0
 10
20.19054065783769
 20
-6.47609382818149
 30
0.0
 10
19.47821476109044
 20
-6.710371022598281
 30
0.0
 10
17.72929168962594
 20
-7.28557514237621
 30
0.0
 10
14.89463327166266
 20
-7.802591011483798
 30
0.0
 10
11.68679584942248
 20
-8.009199798472963
 30
0.0
 10
8.430862428308615
 20
-7.78642910465188
 30
0.0
 10
6.260346358278582
 20
-7.280204250970158
 30
0.0
 10
5.175000000002115
 20
-7.027071224682601
 30
0.0
  0
SPLINE
  5
24D
330
1F
100
AcDbEntity
  8
외형선
  6
Continuous
370
    15
100
AcDbSpline
210
0.0
220
0.0
230
1.0
 70
    24
 71
     3
 72
    21
 73
    17
 74
     0
 42
0.000000001
 43
0.00000001
 40
0.0
 40
0.0
 40
0.0
 40
0.0
 40
0.0710839045309827
 40
0.1440694860039116
 40
0.2179369114554374
 40
0.2939464972491922
 40
0.3678139227007173
 40
0.4438235084944711
 40
0.517690933945995
 40
0.593700519739748
 40
0.6675679451912725
 40
0.7435775309850261
 40
0.8174449564365543
 40
0.8934545422303056
 40
0.9673219676818287
 40
1.0
 40
1.0
 40
1.0
 40
1.0
 10
5.175000000000011
 20
-7.027071224670784
 30
0.0
 10
5.175000000000011
 20
-6.839660698767162
 30
0.0
 10
5.175000000000011
 20
-6.45982593424759
 30
0.0
 10
5.175000000000011
 20
-5.787071367576409
 30
0.0
 10
5.175000000000011
 20
-5.046667212387959
 30
0.0
 10
5.175000000000068
 20
-4.261759287585669
 30
0.0
 10
5.174999999999841
 20
-3.452725263473013
 30
0.0
 10
5.175000000000125
 20
-2.65643010107128
 30
0.0
 10
5.174999999999841
 20
-1.881227868089852
 30
0.0
 10
5.175000000000068
 20
-1.163022244846253
 30
0.0
 10
5.174999999999898
 20
-0.5090310029485181
 30
0.0
 10
5.175000000000011
 20
0.0497365824676592
 30
0.0
 10
5.175000000000011
 20
0.510252654209431
 30
0.0
 10
5.175000000000182
 20
0.841017331386297
 30
0.0
 10
5.174999999999841
 20
1.031473423453349
 30
0.0
 10
5.174999999999955
 20
1.059507661986792
 30
0.0
 10
5.174999999999955
 20
1.068105905140349
 30
0.0
  0
SPLINE
  5
24E
330
1F
100
AcDbEntity
  8
외형선
  6
Continuous
 62
     1
370
    15
100
AcDbSpline
210
0.0
220
0.0
230
1.0
 70
     8
 71
     3
 72
    36
 73
    32
 74
     0
 42
0.000000001
 43
0.00000001
 40
0.0
 40
0.0
 40
0.0
 40
0.0
 40
0.1250000000000024
 40
0.1250000000000024
 40
0.1875000000000022
 40
0.1875000000000022
 40
0.250000000000002
 40
0.250000000000002
 40
0.3125000000000018
 40
0.3125000000000018
 40
0.3750000000000016
 40
0.3750000000000016
 40
0.4375000000000014
 40
0.4375000000000014
 40
0.5000000000000012
 40
0.5000000000000012
 40
0.5625000000000011
 40
0.5625000000000011
 40
0.6250000000000009
 40
0.6250000000000009
 40
0.6875000000000007
 40
0.6875000000000007
 40
0.7500000000000004
 40
0.7500000000000004
 40
0.8125000000000003
 40
0.8125000000000003
 40
0.8750000000000002
 40
0.8750000000000002
 40
0.9375000000000001
 40
0.9375000000000001
 40
1.0
 40
1.0
 40
1.0
 40
1.0
 10
27.3799999999996
 20
-7.907309666767979
 30
0.0
 10
26.45900231810697
 20
-7.860833734034891
 30
0.0
 10
25.52627187086773
 20
-7.760131641640093
 30
0.0
 10
24.14369328964511
 20
-7.531951604961051
 30
0.0
 10
23.6796423950953
 20
-7.442794107108156
 30
0.0
 10
22.75221995974169
 20
-7.239486971997039
 30
0.0
 10
22.29024704429747
 20
-7.125467952326744
 30
0.0
 10
21.36784867794893
 20
-6.873833104149156
 30
0.0
 10
20.90365039142148
 20
-6.735848696822366
 30
0.0
 10
19.97632514549247
 20
-6.437527286573442
 30
0.0
 10
19.51500636430035
 20
-6.277418816250389
 30
0.0
 10
18.591970849907
 20
-5.936449756773044
 30
0.0
 10
18.12764671441806
 20
-5.755237836546769
 30
0.0
 10
17.20046157988708
 20
-5.374034391136988
 30
0.0
 10
16.73969373715681
 20
-5.174365597768137
 30
0.0
 10
15.81606333659772
 20
-4.757881876810195
 30
0.0
 10
15.35163491470337
 20
-4.540801450751665
 30
0.0
 10
14.42463279192503
 20
-4.092217861972124
 30
0.0
 10
13.96431260722284
 20
-3.861110362768613
 30
0.0
 10
13.04012967369323
 20
-3.386009586636376
 30
0.0
 10
12.57561854414644
 20
-3.141879974756236
 30
0.0
 10
11.64884230524228
 20
-2.644156398849745
 30
0.0
 10
11.18886642933984
 20
-2.390996336215295
 30
0.0
 10
10.26417340091439
 20
-1.876567609788395
 30
0.0
 10
9.79960115531668
 20
-1.615309596279623
 30
0.0
 10
8.87309363757123
 20
-1.088681615103511
 30
0.0
 10
8.413358668316903
 20
-0.8237412095192909
 30
0.0
 10
7.488198061485548
 20
-0.2908808387479382
 30
0.0
 10
7.023586300934539
 20
-0.023112896660372
 30
0.0
 10
6.097390300202619
 20
0.5110124701140606
 30
0.0
 10
5.637792798408896
 20
0.7769887032440721
 30
0.0
 10
5.174999999998136
 20
1.041808006172225
 30
0.0
  0
SPLINE
  5
24F
330
1F
100
AcDbEntity
  8
외형선
  6
Continuous
 62
     1
370
    15
100
AcDbSpline
210
0.0
220
0.0
230
1.0
 70
     8
 71
     3
 72
    20
 73
    16
 74
     0
 42
0.000000001
 43
0.00000001
 40
0.0
 40
0.0
 40
0.0
 40
0.0
 40
0.0000077292056342
 40
0.0000077292056342
 40
0.0000077292056342
 40
0.0000155384008943
 40
0.0000155384008943
 40
0.0000155384008943
 40
0.0000222100705988
 40
0.0000222100705988
 40
0.0000222100705988
 40
0.0000279800629006
 40
0.0000279800629006
 40
0.0000279800629006
 40
0.0000327510998066
 40
0.0000327510998066
 40
0.0000327510998066
 40
0.0000327510998066
 10
27.38
 20
0.6916358028888112
 30
0.0
 10
27.38222950960528
 20
0.6903495386202607
 30
0.0
 10
27.38454492428423
 20
0.6890998420732046
 30
0.0
 10
27.38676524531428
 20
0.6879996298644997
 30
0.0
 10
27.38899874295612
 20
0.686892888388634
 30
0.0
 10
27.39120831570881
 20
0.6859042438420033
 30
0.0
 10
27.3931146415029
 20
0.6851790686192345
 30
0.0
 10
27.39474735212559
 20
0.6845579778837632
 30
0.0
 10
27.39620832014731
 20
0.6841121614065102
 30
0.0
 10
27.39731838601165
 20
0.6839049387726917
 30
0.0
 10
27.39828283838705
 20
0.6837248986797064
 30
0.0
 10
27.39901172724018
 20
0.6837182977569611
 30
0.0
 10
27.39945331342795
 20
0.6838782188670933
 30
0.0
 10
27.39982047205206
 20
0.6840111859217259
 30
0.0
 10
27.40000000000003
 20
0.6842597515132809
 30
0.0
 10
27.40000000000003
 20
0.684601078200707
 30
0.0
  0
LINE
  5
250
330
1F
100
AcDbEntity
  8
외형선
  6
Continuous
 62
     1
370
    15
100
AcDbLine
 10
27.40000000000003
 20
-7.173376275051062
 30
0.0
 11
27.40000000000003
 21
0.6846010782006999
 31
0.0
  0
SPLINE
  5
251
330
1F
100
AcDbEntity
  8
외형선
  6
Continuous
 62
     1
370
    15
100
AcDbSpline
210
0.0
220
0.0
230
1.0
 70
     8
 71
     3
 72
    20
 73
    16
 74
     0
 42
0.000000001
 43
0.00000001
 40
0.0
 40
0.0
 40
0.0
 40
0.0
 40
0.0000072852148518
 40
0.0000072852148518
 40
0.0000072852148518
 40
0.0000145120705251
 40
0.0000145120705251
 40
0.0000145120705251
 40
0.000022786964183
 40
0.000022786964183
 40
0.000022786964183
 40
0.0000321094015289
 40
0.0000321094015289
 40
0.0000321094015289
 40
0.0000360140403711
 40
0.0000360140403711
 40
0.0000360140403711
 40
0.0000360140403711
 10
27.40000000000003
 20
-7.173376275051062
 30
0.0
 10
27.40000000000003
 20
-7.175172675262282
 30
0.0
 10
27.39958640821754
 20
-7.176835694162833
 30
0.0
 10
27.39885956250112
 20
-7.178251026739524
 30
0.0
 10
27.39813631187963
 20
-7.179659358855403
 30
0.0
 10
27.39708920360755
 20
-7.180863280064045
 30
0.0
 10
27.3958226927698
 20
-7.181818913532773
 30
0.0
 10
27.39437432492014
 20
-7.182911765445979
 30
0.0
 10
27.3926055972251
 20
-7.183707265795547
 30
0.0
 10
27.39065099133825
 20
-7.184176621113473
 30
0.0
 10
27.38845460301576
 20
-7.184704035128917
 30
0.0
 10
27.38596320988597
 20
-7.184833054346392
 30
0.0
 10
27.38336616108512
 20
-7.184535894987341
 30
0.0
 10
27.38226608272169
 20
-7.18441002188812
 30
0.0
 10
27.38113822162376
 20
-7.184207496741067
 30
0.0
 10
27.38000000000005
 20
-7.183927161335163
 30
0.0
  0
SPLINE
  5
252
330
1F
100
AcDbEntity
  8
외형선
  6
Continuous
 62
     1
370
    15
100
AcDbSpline
210
0.0
220
0.0
230
1.0
 70
     8
 71
     3
 72
    36
 73
    32
 74
     0
 42
0.000000001
 43
0.00000001
 40
0.0
 40
0.0
 40
0.0
 40
0.0
 40
0.1249999999999975
 40
0.1249999999999975
 40
0.1874999999999976
 40
0.1874999999999976
 40
0.2499999999999978
 40
0.2499999999999978
 40
0.312499999999998
 40
0.312499999999998
 40
0.3749999999999982
 40
0.3749999999999982
 40
0.4374999999999984
 40
0.4374999999999984
 40
0.4999999999999986
 40
0.4999999999999986
 40
0.5624999999999988
 40
0.5624999999999988
 40
0.6249999999999989
 40
0.6249999999999989
 40
0.6874999999999991
 40
0.6874999999999991
 40
0.7499999999999992
 40
0.7499999999999992
 40
0.8124999999999994
 40
0.8124999999999994
 40
0.8749999999999997
 40
0.8749999999999997
 40
0.9374999999999998
 40
0.9374999999999998
 40
1.0
 40
1.0
 40
1.0
 40
1.0
 10
27.3799999999996
 20
-7.183927161335014
 30
0.0
 10
26.45900231810714
 20
-6.957092374844677
 30
0.0
 10
25.52627187086796
 20
-6.680220259893339
 30
0.0
 10
24.14369328964563
 20
-6.20155268775504
 30
0.0
 10
23.67964239509593
 20
-6.030824819431317
 30
0.0
 10
22.75221995974255
 20
-5.669499930280132
 30
0.0
 10
22.29024704429838
 20
-5.479108647916853
 30
0.0
 10
21.36784867794995
 20
-5.080644084655148
 30
0.0
 10
20.90365039142256
 20
-4.872008451103838
 30
0.0
 10
19.97632514549372
 20
-4.439022127999934
 30
0.0
 10
19.51500636430166
 20
-4.214978813627312
 30
0.0
 10
18.59197084990848
 20
-3.753320117610109
 30
0.0
 10
18.12764671441965
 20
-3.515250288931519
 30
0.0
 10
17.20046157988889
 20
-3.0282056450542
 30
0.0
 10
16.73969373715869
 20
-2.779619968314442
 30
0.0
 10
15.81606333659971
 20
-2.273504292183311
 30
0.0
 10
15.35163491470547
 20
-2.015672859091886
 30
0.0
 10
14.42463279192719
 20
-1.49436978639244
 30
0.0
 10
13.96431260722517
 20
-1.231335359404326
 30
0.0
 10
13.04012967369562
 20
-0.7013167056254375
 30
0.0
 10
12.57561854414894
 20
-0.4342016891690008
 30
0.0
 10
11.6488423052449
 20
0.100169323403037
 30
0.0
 10
11.18886642934257
 20
0.3669818233923579
 30
0.0
 10
10.26417340091734
 20
0.8993685747112465
 30
0.0
 10
9.799601155319692
 20
1.164910196373768
 30
0.0
 10
8.873093637574414
 20
1.690630773778743
 30
0.0
 10
8.4133586683202
 20
1.950403350109077
 30
0.0
 10
7.488198061489072
 20
2.463518744341037
 30
0.0
 10
7.023586300938121
 20
2.7166930057044
 30
0.0
 10
6.097390300206257
 20
3.212400946538203
 30
0.0
 10
5.637792798412704
 20
3.454603717973121
 30
0.0
 10
5.175000000002115
 20
3.691094181030692
 30
0.0
  0
SPLINE
  5
253
330
1F
100
AcDbEntity
  8
외형선
  6
Continuous
370
    15
100
AcDbSpline
210
0.0
220
0.0
230
1.0
 70
    24
 71
     3
 72
    14
 73
    10
 74
     0
 42
0.000000001
 43
0.00000001
 40
0.0
 40
0.0
 40
0.0
 40
0.0
 40
0.0725958563165541
 40
0.2521901115187146
 40
0.4369926122883023
 40
0.6165868674904516
 40
0.8013893682600423
 40
0.9002750903727702
 40
1.0
 40
1.0
 40
1.0
 40
1.0
 10
5.174999999999955
 20
3.804832446658239
 30
0.0
 10
5.174999999999955
 20
3.879774698157135
 30
0.0
 10
5.175000000000011
 20
4.140115931416474
 30
0.0
 10
5.175000000000068
 20
4.685068908625496
 30
0.0
 10
5.175000000000125
 20
5.408611756910346
 30
0.0
 10
5.175000000000011
 20
6.191510619000049
 30
0.0
 10
5.174999999999727
 20
6.871559063557171
 30
0.0
 10
5.17500000000058
 20
7.435234231528455
 30
0.0
 10
5.174999999999045
 20
7.723893924601938
 30
0.0
 10
5.174999999998249
 20
7.868833606594734
 30
0.0
  0
SPLINE
  5
254
330
1F
100
AcDbEntity
  8
외형선
  6
Continuous
 62
     1
370
    15
100
AcDbSpline
210
0.0
220
0.0
230
1.0
 70
     8
 71
     3
 72
    36
 73
    32
 74
     0
 42
0.000000001
 43
0.00000001
 40
0.0
 40
0.0
 40
0.0
 40
0.0
 40
0.125
 40
0.125
 40
0.1875
 40
0.1875
 40
0.25
 40
0.25
 40
0.3125
 40
0.3125
 40
0.375
 40
0.375
 40
0.4375
 40
0.4375
 40
0.5
 40
0.5
 40
0.5625
 40
0.5625
 40
0.625
 40
0.625
 40
0.6875
 40
0.6875
 40
0.75
 40
0.75
 40
0.8125
 40
0.8125
 40
0.875
 40
0.875
 40
0.9375
 40
0.9375
 40
1.0
 40
1.0
 40
1.0
 40
1.0
 10
27.37999999999965
 20
0.6916358028890599
 30
0.0
 10
26.45900231810697
 20
1.222984224467844
 30
0.0
 10
25.52627187086773
 20
1.751828366372962
 30
0.0
 10
24.14369328964506
 20
2.51888291475175
 30
0.0
 10
23.6796423950953
 20
2.771312872229899
 30
0.0
 10
22.75221995974169
 20
3.265759871588259
 30
0.0
 10
22.29024704429753
 20
3.507535814725813
 30
0.0
 10
21.36784867794893
 20
3.978130149646056
 30
0.0
 10
20.90365039142148
 20
4.207576083472567
 30
0.0
 10
19.97632514549247
 20
4.651193029677039
 30
0.0
 10
19.51500636430029
 20
4.865094734995267
 30
0.0
 10
18.591970849907
 20
5.275765163500196
 30
0.0
 10
18.12764671441801
 20
5.472895432300213
 30
0.0
 10
17.20046157988708
 20
5.847657764523234
 30
0.0
 10
16.73969373715681
 20
6.025039834344426
 30
0.0
 10
15.81606333659767
 20
6.359066314414754
 30
0.0
 10
15.35163491470337
 20
6.515862164955344
 30
0.0
 10
14.42463279192492
 20
6.806547622547079
 30
0.0
 10
13.96431260722284
 20
6.94024635748967
 30
0.0
 10
13.04012967369317
 20
7.184019196475901
 30
0.0
 10
12.57561854414644
 20
7.294101465528399
 30
0.0
 10
11.64884230524223
 20
7.488909326705702
 30
0.0
 10
11.18886642933978
 20
7.573529921070197
 30
0.0
 10
10.26417340091439
 20
7.717105218346674
 30
0.0
 10
9.79960115531668
 20
7.775994281758948
 30
0.0
 10
8.87309363757123
 20
7.86702513677924
 30
0.0
 10
8.413358668316903
 20
7.899157764468029
 30
0.0
 10
7.488198061485548
 20
7.936663738994177
 30
0.0
 10
7.023586300934539
 20
7.941962097209839
 30
0.0
 10
6.097390300202676
 20
7.925538619860333
 30
0.0
 10
5.637792798408952
 20
7.903894821988644
 30
0.0
 10
5.174999999998136
 20
7.868833606594755
 30
0.0
  0
LINE
  5
255
330
1F
100
AcDbEntity
  8
외형선
  6
Continuous
370
    15
100
AcDbLine
 10
5.175000000000011
 20
3.691094181020397
 30
0.0
 11
5.174999999998249
 21
1.041808006172403
 31
0.0
  0
LINE
  5
256
330
1F
100
AcDbEntity
  8
외형선
  6
Continuous
 62
     1
370
    15
100
AcDbLine
 10
27.37999999999994
 20
-7.183927161335113
 30
0.0
 11
27.38000000000005
 21
-7.907309666768001
 31
0.0
  0
SPLINE
  5
257
330
1F
100
AcDbEntity
  8
외형선
  6
Continuous
 62
     1
370
    15
100
AcDbSpline
210
0.0
220
0.0
230
1.0
 70
     8
 71
     3
 72
    20
 73
    16
 74
     0
 42
0.000000001
 43
0.00000001
 40
0.0
 40
0.0
 40
0.0
 40
0.0
 40
0.0000072852148518
 40
0.0000072852148518
 40
0.0000072852148518
 40
0.0000145120705251
 40
0.0000145120705251
 40
0.0000145120705251
 40
0.000022786964183
 40
0.000022786964183
 40
0.000022786964183
 40
0.0000321094015289
 40
0.0000321094015289
 40
0.0000321094015289
 40
0.0000360140403711
 40
0.0000360140403711
 40
0.0000360140403711
 40
0.0000360140403711
 10
27.40000000000003
 20
3.351041489825832
 30
0.0
 10
27.40000000000003
 20
3.352675532935777
 30
0.0
 10
27.39958640821754
 20
3.354499410723761
 30
0.0
 10
27.39885956250112
 20
3.356333989587128
 30
0.0
 10
27.39813631187963
 20
3.358159494330643
 30
0.0
 10
27.39708920360755
 20
3.360043010563167
 30
0.0
 10
27.3958226927698
 20
3.361865556406215
 30
0.0
 10
27.39437432492014
 20
3.363949799765891
 30
0.0
 10
27.3926055972251
 20
3.366004321473717
 30
0.0
 10
27.39065099133825
 20
3.367900471923178
 30
0.0
 10
27.38845460301576
 20
3.370031173939871
 30
0.0
 10
27.38596320988597
 20
3.372019379916452
 30
0.0
 10
27.38336616108512
 20
3.373695450360202
 30
0.0
 10
27.38226608272169
 20
3.374405413465325
 30
0.0
 10
27.38113822162376
 20
3.375065825770726
 30
0.0
 10
27.38000000000005
 20
3.375662422493001
 30
0.0
  0
LINE
  5
258
330
1F
100
AcDbEntity
  8
외형선
  6
Continuous
 62
     1
370
    15
100
AcDbLine
 10
27.40000000000003
 20
3.351041489825839
 30
0.0
 11
27.40000000000003
 21
0.684601078200707
 31
0.0
  0
LINE
  5
259
330
1F
100
AcDbEntity
  8
외형선
  6
Continuous
 62
     1
370
    15
100
AcDbLine
 10
27.37999999999994
 20
3.375662422492994
 30
0.0
 11
27.38000000000005
 21
0.6916358028888396
 31
0.0
  0
SPLINE
  5
25A
330
1F
100
AcDbEntity
  8
외형선
  6
Continuous
 62
     1
370
    15
100
AcDbSpline
210
0.0
220
0.0
230
1.0
 70
     8
 71
     3
 72
    12
 73
     8
 74
     0
 42
0.000000001
 43
0.00000001
 40
0.0
 40
0.0
 40
0.0
 40
0.0
 40
0.1997727642407195
 40
0.3996111054981943
 40
0.5994859390227136
 40
0.7993680228836622
 40
1.0
 40
1.0
 40
1.0
 40
1.0
 10
27.3799999999996
 20
3.375662422493214
 30
0.0
 10
26.34409282019766
 20
3.900310198707182
 30
0.0
 10
24.27193841572949
 20
4.949777970987718
 30
0.0
 10
21.1630685756503
 20
6.22786655585498
 30
0.0
 10
18.05352464928148
 20
7.192556403165256
 30
0.0
 10
14.93989196889584
 20
7.821347556497528
 30
0.0
 10
12.86272423832776
 20
7.892826812142211
 30
0.0
 10
11.82219580452136
 20
7.928633356231586
 30
0.0
  0
SPLINE
  5
25B
330
1F
100
AcDbEntity
  8
외형선
  6
Continuous
 62
     1
370
    15
100
AcDbSpline
210
0.0
220
0.0
230
1.0
 70
     8
 71
     3
 72
    20
 73
    16
 74
     0
 42
0.000000001
 43
0.00000001
 40
0.0
 40
0.0
 40
0.0
 40
0.0
 40
0.0000077292056342
 40
0.0000077292056342
 40
0.0000077292056342
 40
0.0000155384008943
 40
0.0000155384008943
 40
0.0000155384008943
 40
0.0000222100705988
 40
0.0000222100705988
 40
0.0000222100705988
 40
0.0000279800629006
 40
0.0000279800629006
 40
0.0000279800629006
 40
0.0000327510998066
 40
0.0000327510998066
 40
0.0000327510998066
 40
0.0000327510998066
 10
27.38
 20
7.907309666767972
 30
0.0
 10
27.38222950960528
 20
7.907422173607543
 30
0.0
 10
27.38454492428423
 20
7.907148831134307
 30
0.0
 10
27.38676524531428
 20
7.906443455874893
 30
0.0
 10
27.38899874295612
 20
7.905733894528957
 30
0.0
 10
27.39120831570881
 20
7.904552304170238
 30
0.0
 10
27.3931146415029
 20
7.902953270531668
 30
0.0
 10
27.39474735212559
 20
7.901583746384333
 30
0.0
 10
27.39620832014731
 20
7.899859371980455
 30
0.0
 10
27.39731838601165
 20
7.897948375741265
 30
0.0
 10
27.39828283838705
 20
7.896288055465192
 30
0.0
 10
27.39901172724018
 20
7.894441621203818
 30
0.0
 10
27.39945331342795
 20
7.892571147168731
 30
0.0
 10
27.39982047205206
 20
7.891015933957647
 30
0.0
 10
27.40000000000003
 20
7.889413568636279
 30
0.0
 10
27.40000000000003
 20
7.887846830011874
 30
0.0
  0
SPLINE
  5
25C
330
1F
100
AcDbEntity
  8
외형선
  6
Continuous
 62
     1
370
    15
100
AcDbSpline
210
0.0
220
0.0
230
1.0
 70
     8
 71
     3
 72
    10
 73
     6
 74
     0
 42
0.000000001
 43
0.00000001
 40
0.0
 40
0.0
 40
0.0
 40
0.0
 40
0.0940293353421417
 40
0.5471251320280807
 40
1.0
 40
1.0
 40
1.0
 40
1.0
 10
20.19054065783774
 20
6.476093828181462
 30
0.0
 10
20.41589623127351
 20
6.559434284921522
 30
0.0
 10
21.72716465001395
 20
7.044364421152657
 30
0.0
 10
24.12380525680544
 20
7.597949866844061
 30
0.0
 10
26.29477822239181
 20
7.804206499276056
 30
0.0
 10
27.3799999999996
 20
7.907309666767958
 30
0.0
  0
LINE
  5
25D
330
1F
100
AcDbEntity
  8
외형선
  6
Continuous
 62
     1
370
    15
100
AcDbLine
 10
27.40000000000003
 20
3.352480374032368
 30
0.0
 11
27.40000000000003
 21
7.887846830011874
 31
0.0
  0
LINE
  5
25E
330
1F
100
AcDbEntity
  8
외형선
  6
Continuous
 62
     1
370
    15
100
AcDbLine
 10
5.174999999998136
 20
-7.868833606594784
 30
0.0
 11
6.985051387408532
 21
-7.888200946746295
 31
0.0
  0
LINE
  5
25F
330
1F
100
AcDbEntity
  8
외형선
  6
Continuous
370
    15
100
AcDbLine
 10
5.175000000000011
 20
-7.027071224670784
 30
0.0
 11
5.174999999998249
 21
-7.868833606594762
 31
0.0
  0
LINE
  5
260
330
1F
100
AcDbEntity
  8
외형선
  6
Continuous
 62
     1
370
    15
100
AcDbLine
 10
27.40000000000003
 20
-7.173376275051062
 30
0.0
 11
27.40000000000003
 21
-7.887846830011895
 31
0.0
  0
SPLINE
  5
261
330
1F
100
AcDbEntity
  8
외형선
  6
Continuous
370
    15
100
AcDbSpline
210
0.0
220
0.0
230
1.0
 70
     8
 71
     3
 72
     8
 73
     4
 74
     0
 42
0.000000001
 43
0.00000001
 40
0.0
 40
0.0
 40
0.0
 40
0.0
 40
1.0
 40
1.0
 40
1.0
 40
1.0
 10
5.175000000000011
 20
1.071517781652069
 30
0.0
 10
5.008566879423313
 20
1.164415058632159
 30
0.0
 10
4.841896328468295
 20
1.25712098146159
 30
0.0
 10
4.675152964380175
 20
1.349543383786632
 30
0.0
  0
LINE
  5
262
330
1F
100
AcDbEntity
  8
외형선
  6
Continuous
370
    15
100
AcDbLine
 10
4.675152964380175
 20
-6.752747850676073
 30
0.0
 11
4.675152964380118
 21
1.349613541067576
 31
0.0
  0
SPLINE
  5
263
330
1F
100
AcDbEntity
  8
외형선
  6
Continuous
370
    15
100
AcDbSpline
210
0.0
220
0.0
230
1.0
 70
     8
 71
     3
 72
     8
 73
     4
 74
     0
 42
0.000000001
 43
0.00000001
 40
0.0
 40
0.0
 40
0.0
 40
0.0
 40
1.0
 40
1.0
 40
1.0
 40
1.0
 10
5.175000000000011
 20
-6.886397733409005
 30
0.0
 10
5.008566879423313
 20
-6.843368220671508
 30
0.0
 10
4.841896328468295
 20
-6.798804651625446
 30
0.0
 10
4.675152964380175
 20
-6.752748301169746
 30
0.0
  0
LINE
  5
264
330
1F
100
AcDbEntity
  8
외형선
  6
Continuous
370
    15
100
AcDbLine
 10
5.175000000000011
 20
-7.035032223982249
 30
0.0
 11
5.175000000000011
 21
-6.886397733408984
 31
0.0
  0
SPLINE
  5
265
330
1F
100
AcDbEntity
  8
외형선
  6
Continuous
370
    15
100
AcDbSpline
210
0.0
220
0.0
230
1.0
 70
     8
 71
     3
 72
     8
 73
     4
 74
     0
 42
0.000000001
 43
0.00000001
 40
0.0
 40
0.0
 40
0.0
 40
0.0
 40
1.0
 40
1.0
 40
1.0
 40
1.0
 10
5.175000000000011
 20
-7.675568359646292
 30
0.0
 10
5.008566879423313
 20
-7.66259979764709
 30
0.0
 10
4.841896328468295
 20
-7.647938013153222
 30
0.0
 10
4.675152964380175
 20
-7.631594371773019
 30
0.0
  0
LINE
  5
266
330
1F
100
AcDbEntity
  8
외형선
  6
Continuous
370
    15
100
AcDbLine
 10
4.675152964380118
 20
-7.750000000000014
 30
0.0
 11
4.675152964380118
 21
-7.631581965082148
 31
0.0
  0
SPLINE
  5
267
330
1F
100
AcDbEntity
  8
외형선
  6
Continuous
370
    15
100
AcDbSpline
210
0.0
220
0.0
230
1.0
 70
     8
 71
     3
 72
     8
 73
     4
 74
     0
 42
0.000000001
 43
0.00000001
 40
0.0
 40
0.0
 40
0.0
 40
0.0
 40
1.0
 40
1.0
 40
1.0
 40
1.0
 10
5.175000000000011
 20
7.675568359646263
 30
0.0
 10
5.008566879423313
 20
7.662599797647054
 30
0.0
 10
4.841896328468295
 20
7.647938013153187
 30
0.0
 10
4.675152964380175
 20
7.631594371772984
 30
0.0
  0
LINE
  5
268
330
1F
100
AcDbEntity
  8
외형선
  6
Continuous
370
    15
100
AcDbLine
 10
4.675152964380175
 20
3.803011499481727
 30
0.0
 11
4.675152964380118
 21
7.749999999999986
 31
0.0
  0
SPLINE
  5
269
330
1F
100
AcDbEntity
  8
외형선
  6
Continuous
370
    15
100
AcDbSpline
210
0.0
220
0.0
230
1.0
 70
     8
 71
     3
 72
     8
 73
     4
 74
     0
 42
0.000000001
 43
0.00000001
 40
0.0
 40
0.0
 40
0.0
 40
0.0
 40
1.0
 40
1.0
 40
1.0
 40
1.0
 10
5.175000000000011
 20
3.555281459645641
 30
0.0
 10
5.008566879423313
 20
3.638627417581333
 30
0.0
 10
4.841896328468295
 20
3.721231560129254
 30
0.0
 10
4.675152964380175
 20
3.803010699570784
 30
0.0
  0
LINE
  5
26A
330
1F
100
AcDbEntity
  8
외형선
  6
Continuous
370
    15
100
AcDbLine
 10
2.0
 20
-0.0000000000000142
 30
0.0
 11
2.0
 21
6.349999999999994
 31
0.0
  0
LINE
  5
26B
330
1F
100
AcDbEntity
  8
외형선
  6
Continuous
370
    15
100
AcDbLine
 10
2.0
 20
-6.350000000000016
 30
0.0
 11
2.0
 21
-0.0000000000000142
 31
0.0
  0
SPLINE
  5
26C
330
1F
100
AcDbEntity
  8
외형선
  6
Continuous
370
    15
100
AcDbSpline
210
0.0
220
0.0
230
1.0
 70
    24
 71
     3
 72
    21
 73
    17
 74
     0
 42
0.000000001
 43
0.00000001
 40
0.0
 40
0.0
 40
0.0
 40
0.0
 40
0.0172887954256878
 40
0.0930848117167134
 40
0.1710789176149646
 40
0.2468749339059954
 40
0.3248690398042533
 40
0.4006650560952821
 40
0.4786591619935373
 40
0.554455178284566
 40
0.6324492841828219
 40
0.7082453004738499
 40
0.7862394063721053
 40
0.862035422663134
 40
0.9400295285613898
 40
1.0
 40
1.0
 40
1.0
 40
1.0
 10
5.175000000000011
 20
-6.886397733408984
 30
0.0
 10
5.175000000000068
 20
-6.841799279755762
 30
0.0
 10
5.175000000000068
 20
-6.601676208197027
 30
0.0
 10
5.174999999999784
 20
-6.115586164464965
 30
0.0
 10
5.175000000000296
 20
-5.396252365386751
 30
0.0
 10
5.174999999999898
 20
-4.619744395383641
 30
0.0
 10
5.175000000000239
 20
-3.823040009655344
 30
0.0
 10
5.174999999999784
 20
-3.014077741488926
 30
0.0
 10
5.175000000000125
 20
-2.230381427924165
 30
0.0
 10
5.174999999999955
 20
-1.480035269416071
 30
0.0
 10
5.175000000000182
 20
-0.797688826840151
 30
0.0
 10
5.174999999999898
 20
-0.1907439695361006
 30
0.0
 10
5.174999999999898
 20
0.3140757524254383
 30
0.0
 10
5.175000000000125
 20
0.706405506730583
 30
0.0
 10
5.175000000000068
 20
0.9679444751410173
 30
0.0
 10
5.175000000000068
 20
1.035866249682897
 30
0.0
 10
5.175000000000068
 20
1.065390500899042
 30
0.0
  0
SPLINE
  5
26D
330
1F
100
AcDbEntity
  8
외형선
  6
Continuous
370
    15
100
AcDbSpline
210
0.0
220
0.0
230
1.0
 70
    24
 71
     3
 72
    13
 73
     9
 74
     0
 42
0.000000001
 43
0.00000001
 40
0.0
 40
0.0
 40
0.0
 40
0.0
 40
0.1777907074901517
 40
0.3689832399733686
 40
0.5601757724565851
 40
0.7513683049398011
 40
0.9425608374230177
 40
1.0
 40
1.0
 40
1.0
 40
1.0
 10
5.175000000000011
 20
3.804832446658239
 30
0.0
 10
5.175000000000011
 20
3.993390750462211
 30
0.0
 10
5.174999999999955
 20
4.384720842139401
 30
0.0
 10
5.175000000000011
 20
5.078808359570857
 30
0.0
 10
5.175000000000068
 20
5.836721617908701
 30
0.0
 10
5.175000000000068
 20
6.631502190627785
 30
0.0
 10
5.174999999999955
 20
7.250251321013032
 30
0.0
 10
5.175000000000011
 20
7.595750716363014
 30
0.0
 10
5.175000000000068
 20
7.675568359624265
 30
0.0
  0
LINE
  5
26E
330
1F
100
AcDbEntity
  8
외형선
  6
Continuous
370
    15
100
AcDbLine
 10
-136.43
 20
-0.0000000000000142
 30
0.0
 11
-136.43
 21
6.349999999999994
 31
0.0
  0
LINE
  5
26F
330
1F
100
AcDbEntity
  8
외형선
  6
Continuous
370
    15
100
AcDbLine
 10
-136.43
 20
-6.350000000000016
 30
0.0
 11
-136.43
 21
-0.0000000000000142
 31
0.0
  0
LINE
  5
270
330
1F
100
AcDbEntity
  8
외형선
  6
Continuous
370
    15
100
AcDbLine
 10
-137.7
 20
-0.0000000000000142
 30
0.0
 11
-137.7
 21
5.079999999999998
 31
0.0
  0
LINE
  5
271
330
1F
100
AcDbEntity
  8
외형선
  6
Continuous
370
    15
100
AcDbLine
 10
-137.7
 20
-5.080000000000027
 30
0.0
 11
-137.7
 21
-0.0000000000000142
 31
0.0
  0
LINE
  5
272
330
1F
100
AcDbEntity
  8
중심선
 62
     1
100
AcDbLine
 10
-140.7
 20
-0.0000000000000142
 30
0.0
 11
30.40000000000003
 21
0.0000000000000071
 31
0.0
  0
LINE
  5
273
330
1F
100
AcDbEntity
  8
참조1
100
AcDbLine
 10
-55.14999999999998
 20
-0.0000000000000142
 30
0.0
 11
-55.14999999999998
 21
-40.00000000000002
 31
0.0
  0
LINE
  5
274
330
1F
100
AcDbEntity
  8
참조1
100
AcDbLine
 10
-55.14999999999998
 20
-40.00000000000002
 30
0.0
 11
-89.35885681430865
 21
-40.00000000000001
 31
0.0
  0
INSERT
  5
276
330
1F
100
AcDbEntity
  8
0
  6
Continuous
 62
     7
100
AcDbBlockReference
 66
     1
  2
블럭10
 10
-69.09027293212519
 20
-52.04717430164395
 30
0.0
  0
ATTRIB
  5
277
330
276
100
AcDbEntity
  8
FORMAT
 62
     2
100
AcDbText
 10
-79.2319089442618
 20
-49.97180738881175
 30
0.0
 40
4.233333333333333
  1
EM102040 [ 4 FLUTE ]
 41
0.75
  7
SLDTEXTSTYLE0
 11
-79.2319089442618
 21
-52.08847405547842
 31
0.0
100
AcDbAttribute
  2
AUTOATTR0
 70
     0
 74
     1
  0
SEQEND
  5
278
330
276
100
AcDbEntity
  8
0
  6
Continuous
 62
     7
  0
HATCH
  5
279
330
1F
100
AcDbEntity
  8
중심선
100
AcDbHatch
 10
0.0
 20
0.0
 30
0.0
210
0.0
220
0.0
230
1.0
  2
SOLID
 70
     1
 71
     0
 91
        1
 92
        0
 93
        4
 72
     1
 10
-63.37536362774433
 20
-35.80000000000001
 11
-66.82163887158161
 21
-35.80000000000001
 72
     1
 10
-66.82163887158161
 20
-35.80000000000001
 11
-68.94986873078564
 21
-38.33632558057261
 72
     1
 10
-68.94986873078564
 20
-38.33632558057261
 11
-65.5035604018352
 21
-38.33628615127012
 72
     1
 10
-65.50356040183522
 20
-38.33628615127012
 11
-63.37536362774433
 21
-35.80000000000001
 97
        0
 75
     0
 76
     1
 98
        1
 10
-36.57500000000174
 20
-1.572187507386175
  0
HATCH
  5
27A
330
1F
100
AcDbEntity
  8
중심선
100
AcDbHatch
 10
0.0
 20
0.0
 30
0.0
210
0.0
220
0.0
230
1.0
  2
SOLID
 70
     1
 71
     0
 91
        1
 92
        0
 93
        4
 72
     1
 10
-58.36259963670834
 20
-35.79999999999998
 11
-61.80887488054564
 21
-35.80000000000001
 72
     1
 10
-61.80887488054564
 20
-35.80000000000001
 11
-66.34001288890306
 21
-41.20000000000002
 72
     1
 10
-66.34001288890306
 20
-41.20000000000002
 11
-62.89373764506578
 21
-41.20000000000002
 72
     1
 10
-62.89373764506577
 20
-41.20000000000002
 11
-58.36259963670832
 21
-35.79999999999998
 97
        0
 75
     0
 76
     1
 98
        1
 10
-36.57500000000174
 20
-1.572187507386175
  0
HATCH
  5
27B
330
1F
100
AcDbEntity
  8
중심선
100
AcDbHatch
 10
0.0
 20
0.0
 30
0.0
210
0.0
220
0.0
230
1.0
  2
SOLID
 70
     1
 71
     0
 91
        1
 92
        0
 93
        4
 72
     1
 10
-53.34983564567246
 20
-35.79999999999998
 11
-56.79611088950956
 21
-35.79999999999998
 72
     1
 10
-56.79611088950958
 20
-35.79999999999998
 11
-63.84454779139885
 21
-44.20000000000003
 72
     1
 10
-63.84454779139885
 20
-44.20000000000003
 11
-60.39827254756158
 21
-44.20000000000003
 72
     1
 10
-60.39827254756158
 20
-44.20000000000003
 11
-53.34983564567246
 21
-35.79999999999998
 97
        0
 75
     0
 76
     1
 98
        1
 10
-36.57500000000174
 20
-1.572187507386175
  0
HATCH
  5
27C
330
1F
100
AcDbEntity
  8
중심선
100
AcDbHatch
 10
0.0
 20
0.0
 30
0.0
210
0.0
220
0.0
230
1.0
  2
SOLID
 70
     1
 71
     0
 91
        1
 92
        0
 93
        6
 72
     3
 10
-48.5499452146603
 20
-40.00000000005129
 11
3.960054785062283
 21
1.540882976769353E-10
 40
0.3939339440162628
 50
17.09539180608427
 51
320.0019657685087
 73
     0
 72
     1
 10
-46.8669455589597
 20
-38.58789400463834
 11
-44.56164368525866
 21
-36.65356729459039
 72
     3
 10
-48.54994521471313
 20
-40.00000000000016
 11
6.600054785286829
 21
-1.278976924368180E-13
 40
0.636358354079598
 50
39.99873849337408
 51
368.4976242363725
 73
     1
 72
     1
 10
-42.12461272281253
 20
-39.03999999993003
 11
-49.86987790787721
 21
-39.03999999993003
 72
     1
 10
-49.86987790787721
 20
-39.03999999993003
 11
-49.86990295232314
 21
-40.95999999992993
 72
     1
 10
-49.86990295232314
 20
-40.95999999992993
 11
-45.42852318285111
 21
-40.9599999999299
 97
        0
 75
     0
 76
     1
 98
        1
 10
-36.57500000000174
 20
-1.572187507386175
  0
DIMENSION
  5
27D
330
1F
100
AcDbEntity
  8
치수문자_일반주서
100
AcDbDimension
  2
*D12
 10
-149.0643639043333
 20
-6.350000000000057
 30
0.0
 11
-149.0643639043333
 21
1.550733069954177
 31
0.0
 70
   160
  1
%%c<>
 71
     2
 42
12.69999999999999
 52
-270.0
  3
SLDDIMSTYLE0
100
AcDbAlignedDimension
 13
-136.43
 23
6.34999999999998
 33
0.0
 14
-136.43
 24
-6.350000000000009
 34
0.0
 50
90.0000000000002
100
AcDbRotatedDimension
1001
ACAD
1000
DSTYLE
1002
{
1070
   171
1070
     6
1070
   273
1070
     7
1002
}
1001
ACAD_DSTYLE_DIMFLIPARROW_SYMBOL
1070
   385
1070
     0
1001
ACAD_DSTYLE_DIMFLIPARROW_WHICH_SYMBOL
1070
   386
1070
     3
  0
DIMENSION
  5
27E
330
1F
100
AcDbEntity
  8
치수문자_일반주서
100
AcDbDimension
  2
*D13
 10
55.35285966351461
 20
-7.942729207776239
 30
0.0
 11
55.4000399783709
 21
29.3182936284018
 31
0.0
 70
   160
  1
%%c<>
 71
     2
 42
15.79516915888423
  3
SLDDIMSTYLE0
100
AcDbAlignedDimension
 13
27.40000000000003
 23
7.887846830011874
 33
0.0
 14
27.38000000000005
 24
-7.907309666768001
 34
0.0
 50
89.92745149577453
100
AcDbRotatedDimension
1001
PE_URL
1000

1001
ACAD
1000
DSTYLE
1002
{
1070
   171
1070
     6
1070
   273
1070
     7
1002
}
  0
DIMENSION
  5
27F
330
1F
100
AcDbEntity
  8
치수문자_일반주서
100
AcDbDimension
  2
*D14
 10
5.174999999998249
 20
17.95428648825798
 30
0.0
 11
-14.55400000000175
 21
17.95428648825798
 31
0.0
 70
   160
  1
<>
 71
     2
 42
22.22500000000178
  3
SLDDIMSTYLE0
100
AcDbAlignedDimension
 13
27.40000000000003
 23
7.887846830011874
 33
0.0
 14
5.174999999998249
 24
7.868833606594734
 34
0.0
100
AcDbRotatedDimension
1001
PE_URL
1000

1001
ACAD
1000
DSTYLE
1002
{
1070
   171
1070
     6
1070
   273
1070
     7
1002
}
1001
ACAD_DSTYLE_DIMFLIPARROW_SYMBOL
1070
   385
1070
     0
1001
ACAD_DSTYLE_DIMFLIPARROW_WHICH_SYMBOL
1070
   386
1070
     3
  0
DIMENSION
  5
280
330
1F
100
AcDbEntity
  8
치수문자_일반주서
100
AcDbDimension
  2
*D15
 10
-137.7
 20
29.95428648825802
 30
0.0
 11
-55.14999999999998
 21
29.95428648825802
 31
0.0
 70
   160
  1
<>
 71
     2
 42
165.1
  3
SLDDIMSTYLE0
100
AcDbAlignedDimension
 13
27.40000000000003
 23
7.887846830011874
 33
0.0
 14
-137.7
 24
5.079999999999998
 34
0.0
 50
0.0000000000000025
100
AcDbRotatedDimension
1001
PE_URL
1000

1001
ACAD
1000
DSTYLE
1002
{
1070
   171
1070
     6
1070
   273
1070
     7
1002
}
  0
LINE
  5
281
330
1F
100
AcDbEntity
  8
참조1
100
AcDbLine
 10
8.613483815345603
 20
7.439999999999991
 30
0.0
 11
8.613483815345603
 21
-7.440000000000012
 31
0.0
  0
LINE
  5
282
330
1F
100
AcDbEntity
  8
참조1
100
AcDbLine
 10
21.31348381534559
 20
5.439999999999991
 30
0.0
 11
8.613483815345603
 21
5.439999999999991
 31
0.0
  0
SOLID
  5
283
330
1F
100
AcDbEntity
  8
참조1
100
AcDbTrace
 10
8.613483815345603
 20
5.439999999999991
 30
0.0
 11
14.96348381534563
 21
4.423999999999992
 31
0.0
 12
14.96348381534563
 22
6.455999999999989
 32
0.0
 13
14.96348381534563
 23
6.455999999999989
 33
0.0
  0
LINE
  5
284
330
1F
100
AcDbEntity
  8
참조1
100
AcDbLine
 10
21.31348381534559
 20
-5.440000000000012
 30
0.0
 11
8.613483815345603
 21
-5.440000000000012
 31
0.0
  0
SOLID
  5
285
330
1F
100
AcDbEntity
  8
참조1
100
AcDbTrace
 10
8.613483815345603
 20
-5.440000000000012
 30
0.0
 11
14.96348381534563
 21
-6.456000000000017
 31
0.0
 12
14.96348381534563
 22
-4.424000000000014
 32
0.0
 13
14.96348381534563
 23
-4.424000000000014
 33
0.0
  0
MTEXT
  5
286
330
1F
100
AcDbEntity
  8
참조1
100
AcDbMText
 10
18.21359862590816
 20
11.06571756601606
 30
0.0
 40
3.5
 41
0.0
 71
     1
 72
     1
  1
A
  7
SLDTEXTSTYLE0
 73
     1
 44
1.0
  0
MTEXT
  5
287
330
1F
100
AcDbEntity
  8
참조1
100
AcDbMText
 10
18.21359862590816
 20
0.1857175660160593
 30
0.0
 40
3.5
 41
0.0
 71
     1
 72
     1
  1
A
  7
SLDTEXTSTYLE0
 73
     1
 44
1.0
  0
INSERT
  5
288
330
1F
100
AcDbEntity
  8
해칭선
100
AcDbBlockReference
  2
SW_DOWELSYMBOL_0
 10
0.0
 20
0.0
 30
0.0
  0
LINE
  5
2C2
330
1F
100
AcDbEntity
  8
외형선
  6
Continuous
370
    15
100
AcDbLine
 10
4.675152964380118
 20
7.749999999999986
 30
0.0
 11
2.0
 21
6.349999999999994
 31
0.0
1001
PE_URL
1000

  0
LINE
  5
2C3
330
1F
100
AcDbEntity
  8
외형선
  6
Continuous
370
    15
100
AcDbLine
 10
4.675152964380118
 20
-7.750000000000014
 30
0.0
 11
2.0
 21
-6.350000000000016
 31
0.0
1001
PE_URL
1000

  0
ENDSEC
  0
SECTION
  2
OBJECTS
  0
DICTIONARY
  5
C
330
0
100
AcDbDictionary
281
     1
  3
ACAD_GROUP
350
D
  3
ACAD_LAYOUT
350
1A
  3
ACAD_MLINESTYLE
350
17
  3
ACAD_PLOTSETTINGS
350
19
  3
ACAD_PLOTSTYLENAME
350
E
  3
ACAD_SCALELIST
350
47
  3
APPDATA
350
133
  3
DWGPROPS
350
2C4
  0
DICTIONARY
  5
D
102
{ACAD_REACTORS
330
C
102
}
330
C
100
AcDbDictionary
281
     1
  0
DICTIONARY
  5
1A
102
{ACAD_REACTORS
330
C
102
}
330
C
100
AcDbDictionary
281
     1
  3
Layout1
350
1E
  3
Layout2
350
26
  3
Model
350
22
  0
DICTIONARY
  5
17
102
{ACAD_REACTORS
330
C
102
}
330
C
100
AcDbDictionary
281
     1
  3
Standard
350
18
  0
DICTIONARY
  5
19
102
{ACAD_REACTORS
330
C
102
}
330
C
100
AcDbDictionary
281
     1
  0
ACDBDICTIONARYWDFLT
  5
E
102
{ACAD_REACTORS
330
C
102
}
330
C
100
AcDbDictionary
281
     1
  3
Normal
350
F
100
AcDbDictionaryWithDefault
340
F
  0
DICTIONARY
  5
47
102
{ACAD_REACTORS
330
C
102
}
330
C
100
AcDbDictionary
281
     1
  3
A0
350
48
  3
A1
350
49
  3
A2
350
4A
  3
A3
350
4B
  3
A4
350
4C
  3
A5
350
4D
  3
A6
350
4E
  3
A7
350
4F
  3
A8
350
50
  3
A9
350
51
  3
B0
350
52
  3
B1
350
53
  3
B2
350
54
  3
B3
350
55
  3
B4
350
56
  3
B5
350
57
  3
B6
350
58
  3
B7
350
59
  3
B8
350
5A
  3
B9
350
5B
  3
C0
350
5C
  3
C1
350
5D
  3
C2
350
5E
  3
C3
350
5F
  3
C4
350
60
  3
C5
350
61
  3
C6
350
62
  3
C7
350
63
  3
C8
350
64
  3
C9
350
65
  3
D0
350
66
  3
D1
350
67
  3
D2
350
68
  0
DICTIONARY
  5
133
102
{ACAD_REACTORS
330
C
102
}
330
C
100
AcDbDictionary
281
     1
  0
XRECORD
  5
2C4
102
{ACAD_REACTORS
330
C
102
}
330
C
100
AcDbXrecord
280
     1
  1
DWGPROPS COOKIE
  2

  3

  4

  6

  7

  8
12017103
  9

300
=
301
=
302
=
303
=
304
=
305
=
306
=
307
=
308
=
309
=
 40
0.0
 41
2458299.204666493
 42
2458302.252046678
  1

 90
        0
  0
LAYOUT
  5
1E
102
{ACAD_REACTORS
330
1A
102
}
330
1A
100
AcDbPlotSettings
  1

  2
none_device
  4

  6

 40
0.0
 41
0.0
 42
0.0
 43
0.0
 44
0.0
 45
0.0
 46
0.0
 47
0.0
 48
0.0
 49
0.0
140
0.0
141
0.0
142
1.0
143
1.0
 70
   688
 72
     1
 73
     0
 74
     5
  7

 75
    16
147
1.0
148
0.0
149
0.0
100
AcDbLayout
  1
Layout1
 70
     1
 71
     1
 10
0.0
 20
0.0
 11
420.0
 21
297.0
 12
0.0
 22
0.0
 32
0.0
 14
1.000000000000000E+20
 24
1.000000000000000E+20
 34
1.000000000000000E+20
 15
-1.000000000000000E+20
 25
-1.000000000000000E+20
 35
-1.000000000000000E+20
146
0.0
 13
0.0
 23
0.0
 33
0.0
 16
1.0
 26
0.0
 36
0.0
 17
0.0
 27
1.0
 37
0.0
 76
     0
330
1B
  0
LAYOUT
  5
26
102
{ACAD_REACTORS
330
1A
102
}
330
1A
100
AcDbPlotSettings
  1

  2
none_device
  4

  6

 40
0.0
 41
0.0
 42
0.0
 43
0.0
 44
0.0
 45
0.0
 46
0.0
 47
0.0
 48
0.0
 49
0.0
140
0.0
141
0.0
142
1.0
143
1.0
 70
   688
 72
     1
 73
     0
 74
     5
  7

 75
    16
147
1.0
148
0.0
149
0.0
100
AcDbLayout
  1
Layout2
 70
     1
 71
     2
 10
0.0
 20
0.0
 11
0.0
 21
0.0
 12
0.0
 22
0.0
 32
0.0
 14
0.0
 24
0.0
 34
0.0
 15
0.0
 25
0.0
 35
0.0
146
0.0
 13
0.0
 23
0.0
 33
0.0
 16
1.0
 26
0.0
 36
0.0
 17
0.0
 27
1.0
 37
0.0
 76
     0
330
23
  0
LAYOUT
  5
22
102
{ACAD_REACTORS
330
1A
102
}
330
1A
100
AcDbPlotSettings
  1

  2
none_device
  4
ANSI_A_(11.00_x_8.50_Inches)
  6

 40
6.35
 41
19.05
 42
6.35000508
 43
19.05000254
 44
279.4
 45
215.9
 46
183.9852668540357
 47
97.6443729272306
 48
0.0
 49
0.0
140
0.0
141
0.0
142
0.0596230066749956
143
1.0
 70
  1696
 72
     0
 73
     0
 74
     0
  7

 75
     0
147
0.0235690232323232
148
0.0
149
0.0
100
AcDbLayout
  1
Model
 70
     1
 71
     0
 10
0.0
 20
0.0
 11
420.0
 21
297.0
 12
0.0
 22
0.0
 32
0.0
 14
-153.4393639043334
 24
-49.97180738881175
 34
0.0
 15
55.92737358085799
 25
42.00578345754214
 35
0.0
146
0.0
 13
0.0
 23
0.0
 33
0.0
 16
1.0
 26
0.0
 36
0.0
 17
0.0
 27
1.0
 37
0.0
 76
     0
330
1F
331
29
  0
MLINESTYLE
  5
18
102
{ACAD_REACTORS
330
17
102
}
330
17
100
AcDbMlineStyle
  2
Standard
 70
     0
  3

 62
   256
 51
90.0
 52
90.0
 71
     2
 49
0.5
 62
   256
  6
BYLAYER
 49
-0.5
 62
   256
  6
BYLAYER
  0
ACDBPLACEHOLDER
  5
F
102
{ACAD_REACTORS
330
E
102
}
330
E
  0
SCALE
  5
48
102
{ACAD_REACTORS
330
47
102
}
330
47
100
AcDbScale
 70
     0
300
1:1
140
1.0
141
1.0
290
     1
  0
SCALE
  5
49
102
{ACAD_REACTORS
330
47
102
}
330
47
100
AcDbScale
 70
     0
300
1:2
140
1.0
141
2.0
290
     0
  0
SCALE
  5
4A
102
{ACAD_REACTORS
330
47
102
}
330
47
100
AcDbScale
 70
     0
300
1:4
140
1.0
141
4.0
290
     0
  0
SCALE
  5
4B
102
{ACAD_REACTORS
330
47
102
}
330
47
100
AcDbScale
 70
     0
300
1:5
140
1.0
141
5.0
290
     0
  0
SCALE
  5
4C
102
{ACAD_REACTORS
330
47
102
}
330
47
100
AcDbScale
 70
     0
300
1:8
140
1.0
141
8.0
290
     0
  0
SCALE
  5
4D
102
{ACAD_REACTORS
330
47
102
}
330
47
100
AcDbScale
 70
     0
300
1:10
140
1.0
141
10.0
290
     0
  0
SCALE
  5
4E
102
{ACAD_REACTORS
330
47
102
}
330
47
100
AcDbScale
 70
     0
300
1:16
140
1.0
141
16.0
290
     0
  0
SCALE
  5
4F
102
{ACAD_REACTORS
330
47
102
}
330
47
100
AcDbScale
 70
     0
300
1:20
140
1.0
141
20.0
290
     0
  0
SCALE
  5
50
102
{ACAD_REACTORS
330
47
102
}
330
47
100
AcDbScale
 70
     0
300
1:30
140
1.0
141
30.0
290
     0
  0
SCALE
  5
51
102
{ACAD_REACTORS
330
47
102
}
330
47
100
AcDbScale
 70
     0
300
1:40
140
1.0
141
40.0
290
     0
  0
SCALE
  5
52
102
{ACAD_REACTORS
330
47
102
}
330
47
100
AcDbScale
 70
     0
300
1:50
140
1.0
141
50.0
290
     0
  0
SCALE
  5
53
102
{ACAD_REACTORS
330
47
102
}
330
47
100
AcDbScale
 70
     0
300
1:100
140
1.0
141
100.0
290
     0
  0
SCALE
  5
54
102
{ACAD_REACTORS
330
47
102
}
330
47
100
AcDbScale
 70
     0
300
2:1
140
2.0
141
1.0
290
     0
  0
SCALE
  5
55
102
{ACAD_REACTORS
330
47
102
}
330
47
100
AcDbScale
 70
     0
300
4:1
140
4.0
141
1.0
290
     0
  0
SCALE
  5
56
102
{ACAD_REACTORS
330
47
102
}
330
47
100
AcDbScale
 70
     0
300
8:1
140
8.0
141
1.0
290
     0
  0
SCALE
  5
57
102
{ACAD_REACTORS
330
47
102
}
330
47
100
AcDbScale
 70
     0
300
10:1
140
10.0
141
1.0
290
     0
  0
SCALE
  5
58
102
{ACAD_REACTORS
330
47
102
}
330
47
100
AcDbScale
 70
     0
300
100:1
140
100.0
141
1.0
290
     0
  0
SCALE
  5
59
102
{ACAD_REACTORS
330
47
102
}
330
47
100
AcDbScale
 70
     0
300
1/128" = 1'-0"
140
0.0078125
141
12.0
290
     0
  0
SCALE
  5
5A
102
{ACAD_REACTORS
330
47
102
}
330
47
100
AcDbScale
 70
     0
300
1/64" = 1'-0"
140
0.015625
141
12.0
290
     0
  0
SCALE
  5
5B
102
{ACAD_REACTORS
330
47
102
}
330
47
100
AcDbScale
 70
     0
300
1/32" = 1'-0"
140
0.03125
141
12.0
290
     0
  0
SCALE
  5
5C
102
{ACAD_REACTORS
330
47
102
}
330
47
100
AcDbScale
 70
     0
300
1/16" = 1'-0"
140
0.0625
141
12.0
290
     0
  0
SCALE
  5
5D
102
{ACAD_REACTORS
330
47
102
}
330
47
100
AcDbScale
 70
     0
300
3/32" = 1'-0"
140
0.09375
141
12.0
290
     0
  0
SCALE
  5
5E
102
{ACAD_REACTORS
330
47
102
}
330
47
100
AcDbScale
 70
     0
300
1/8" = 1'-0"
140
0.125
141
12.0
290
     0
  0
SCALE
  5
5F
102
{ACAD_REACTORS
330
47
102
}
330
47
100
AcDbScale
 70
     0
300
3/16" = 1'-0"
140
0.1875
141
12.0
290
     0
  0
SCALE
  5
60
102
{ACAD_REACTORS
330
47
102
}
330
47
100
AcDbScale
 70
     0
300
1/4" = 1'-0"
140
0.25
141
12.0
290
     0
  0
SCALE
  5
61
102
{ACAD_REACTORS
330
47
102
}
330
47
100
AcDbScale
 70
     0
300
3/8" = 1'-0"
140
0.375
141
12.0
290
     0
  0
SCALE
  5
62
102
{ACAD_REACTORS
330
47
102
}
330
47
100
AcDbScale
 70
     0
300
1/2" = 1'-0"
140
0.5
141
12.0
290
     0
  0
SCALE
  5
63
102
{ACAD_REACTORS
330
47
102
}
330
47
100
AcDbScale
 70
     0
300
3/4" = 1'-0"
140
0.75
141
12.0
290
     0
  0
SCALE
  5
64
102
{ACAD_REACTORS
330
47
102
}
330
47
100
AcDbScale
 70
     0
300
1" = 1'-0"
140
1.0
141
12.0
290
     0
  0
SCALE
  5
65
102
{ACAD_REACTORS
330
47
102
}
330
47
100
AcDbScale
 70
     0
300
1-1/2" = 1'-0"
140
1.5
141
12.0
290
     0
  0
SCALE
  5
66
102
{ACAD_REACTORS
330
47
102
}
330
47
100
AcDbScale
 70
     0
300
3" = 1'-0"
140
3.0
141
12.0
290
     0
  0
SCALE
  5
67
102
{ACAD_REACTORS
330
47
102
}
330
47
100
AcDbScale
 70
     0
300
6" = 1'-0"
140
6.0
141
12.0
290
     0
  0
SCALE
  5
68
102
{ACAD_REACTORS
330
47
102
}
330
47
100
AcDbScale
 70
     0
300
1'-0" = 1'-0"
140
12.0
141
12.0
290
     0
  0
ENDSEC
  0
EOF
