  0
SECTION
  2
HEADER
  9
$ACADVER
  1
AC1015
  9
$ACADMAINTVER
 70
     6
  9
$DWGCODEPAGE
  3
ANSI_949
  9
$INSBASE
 10
0.0
 20
0.0
 30
0.0
  9
$EXTMIN
 10
-84.23263000274802
 20
-49.97180738881174
 30
0.0
  9
$EXTMAX
 10
63.20658333333334
 20
50.8640218699112
 30
0.0
  9
$LIMMIN
 10
0.0
 20
0.0
  9
$LIMMAX
 10
420.0
 20
297.0
  9
$ORTHOMODE
 70
     1
  9
$REGENMODE
 70
     1
  9
$FILLMODE
 70
     1
  9
$QTEXTMODE
 70
     0
  9
$MIRRTEXT
 70
     1
  9
$LTSCALE
 40
1.0
  9
$ATTMODE
 70
     1
  9
$TEXTSIZE
 40
3.5
  9
$TRACEWID
 40
1.0
  9
$TEXTSTYLE
  7
Standard
  9
$CLAYER
  8
0
  9
$CELTYPE
  6
ByLayer
  9
$CECOLOR
 62
   256
  9
$CELTSCALE
 40
1.0
  9
$DISPSILH
 70
     0
  9
$DIMSCALE
 40
1.0
  9
$DIMASZ
 40
3.302
  9
$DIMEXO
 40
1.0
  9
$DIMDLI
 40
3.75
  9
$DIMRND
 40
0.0
  9
$DIMDLE
 40
0.0
  9
$DIMEXE
 40
1.0
  9
$DIMTP
 40
0.0
  9
$DIMTM
 40
0.0
  9
$DIMTXT
 40
3.5
  9
$DIMCEN
 40
2.5
  9
$DIMTSZ
 40
0.0
  9
$DIMTOL
 70
     0
  9
$DIMLIM
 70
     0
  9
$DIMTIH
 70
     1
  9
$DIMTOH
 70
     1
  9
$DIMSE1
 70
     0
  9
$DIMSE2
 70
     0
  9
$DIMTAD
 70
     1
  9
$DIMZIN
 70
     0
  9
$DIMBLK
  1

  9
$DIMASO
 70
     1
  9
$DIMSHO
 70
     1
  9
$DIMPOST
  1

  9
$DIMAPOST
  1

  9
$DIMALT
 70
     0
  9
$DIMALTD
 70
     3
  9
$DIMALTF
 40
0.0393700787401575
  9
$DIMLFAC
 40
1.0
  9
$DIMTOFL
 70
     1
  9
$DIMTVP
 40
0.0
  9
$DIMTIX
 70
     0
  9
$DIMSOXD
 70
     0
  9
$DIMSAH
 70
     0
  9
$DIMBLK1
  1

  9
$DIMBLK2
  1

  9
$DIMSTYLE
  2
ISO-25
  9
$DIMCLRD
 70
     0
  9
$DIMCLRE
 70
     0
  9
$DIMCLRT
 70
     0
  9
$DIMTFAC
 40
1.0
  9
$DIMGAP
 40
1.524
  9
$DIMJUST
 70
     0
  9
$DIMSD1
 70
     0
  9
$DIMSD2
 70
     0
  9
$DIMTOLJ
 70
     0
  9
$DIMTZIN
 70
     0
  9
$DIMALTZ
 70
     0
  9
$DIMALTTZ
 70
     0
  9
$DIMUPT
 70
     0
  9
$DIMDEC
 70
     2
  9
$DIMTDEC
 70
     2
  9
$DIMALTU
 70
     2
  9
$DIMALTTD
 70
     3
  9
$DIMTXSTY
  7
Standard
  9
$DIMAUNIT
 70
     0
  9
$DIMADEC
 70
     2
  9
$DIMALTRND
 40
0.0
  9
$DIMAZIN
 70
     0
  9
$DIMDSEP
 70
    44
  9
$DIMATFIT
 70
     3
  9
$DIMFRAC
 70
     0
  9
$DIMLDRBLK
  1

  9
$DIMLUNIT
 70
     2
  9
$DIMLWD
 70
    -2
  9
$DIMLWE
 70
    -2
  9
$DIMTMOVE
 70
     0
  9
$LUNITS
 70
     2
  9
$LUPREC
 70
     2
  9
$SKETCHINC
 40
1.0
  9
$FILLETRAD
 40
10.0
  9
$AUNITS
 70
     0
  9
$AUPREC
 70
     2
  9
$MENU
  1
.
  9
$ELEVATION
 40
0.0
  9
$PELEVATION
 40
0.0
  9
$THICKNESS
 40
0.0
  9
$LIMCHECK
 70
     0
  9
$CHAMFERA
 40
0.0
  9
$CHAMFERB
 40
0.0
  9
$CHAMFERC
 40
0.0
  9
$CHAMFERD
 40
0.0
  9
$SKPOLY
 70
     0
  9
$TDCREATE
 40
2458271.469993021
  9
$TDUCREATE
 40
2458271.094993021
  9
$TDUPDATE
 40
2458297.559626991
  9
$TDUUPDATE
 40
2458297.184626991
  9
$TDINDWG
 40
0.0068536343
  9
$TDUSRTIMER
 40
2458297.184315289
  9
$USRTIMER
 70
     1
  9
$ANGBASE
 50
0.0
  9
$ANGDIR
 70
     0
  9
$PDMODE
 70
     0
  9
$PDSIZE
 40
-1.0
  9
$PLINEWID
 40
0.0
  9
$SPLFRAME
 70
     0
  9
$SPLINETYPE
 70
     6
  9
$SPLINESEGS
 70
     8
  9
$HANDSEED
  5
330
  9
$SURFTAB1
 70
     6
  9
$SURFTAB2
 70
     6
  9
$SURFTYPE
 70
     6
  9
$SURFU
 70
     6
  9
$SURFV
 70
     6
  9
$UCSBASE
  2

  9
$UCSNAME
  2

  9
$UCSORG
 10
0.0
 20
0.0
 30
0.0
  9
$UCSXDIR
 10
1.0
 20
0.0
 30
0.0
  9
$UCSYDIR
 10
0.0
 20
1.0
 30
0.0
  9
$UCSORTHOREF
  2

  9
$UCSORTHOVIEW
 70
     0
  9
$UCSORGTOP
 10
0.0
 20
0.0
 30
0.0
  9
$UCSORGBOTTOM
 10
0.0
 20
0.0
 30
0.0
  9
$UCSORGLEFT
 10
0.0
 20
0.0
 30
0.0
  9
$UCSORGRIGHT
 10
0.0
 20
0.0
 30
0.0
  9
$UCSORGFRONT
 10
0.0
 20
0.0
 30
0.0
  9
$UCSORGBACK
 10
0.0
 20
0.0
 30
0.0
  9
$PUCSBASE
  2

  9
$PUCSNAME
  2

  9
$PUCSORG
 10
0.0
 20
0.0
 30
0.0
  9
$PUCSXDIR
 10
1.0
 20
0.0
 30
0.0
  9
$PUCSYDIR
 10
0.0
 20
1.0
 30
0.0
  9
$PUCSORTHOREF
  2

  9
$PUCSORTHOVIEW
 70
     0
  9
$PUCSORGTOP
 10
0.0
 20
0.0
 30
0.0
  9
$PUCSORGBOTTOM
 10
0.0
 20
0.0
 30
0.0
  9
$PUCSORGLEFT
 10
0.0
 20
0.0
 30
0.0
  9
$PUCSORGRIGHT
 10
0.0
 20
0.0
 30
0.0
  9
$PUCSORGFRONT
 10
0.0
 20
0.0
 30
0.0
  9
$PUCSORGBACK
 10
0.0
 20
0.0
 30
0.0
  9
$USERI1
 70
     0
  9
$USERI2
 70
     0
  9
$USERI3
 70
     0
  9
$USERI4
 70
     0
  9
$USERI5
 70
     0
  9
$USERR1
 40
0.0
  9
$USERR2
 40
0.0
  9
$USERR3
 40
0.0
  9
$USERR4
 40
0.0
  9
$USERR5
 40
0.0
  9
$WORLDVIEW
 70
     1
  9
$SHADEDGE
 70
     3
  9
$SHADEDIF
 70
    70
  9
$TILEMODE
 70
     1
  9
$MAXACTVP
 70
    64
  9
$PINSBASE
 10
0.0
 20
0.0
 30
0.0
  9
$PLIMCHECK
 70
     0
  9
$PEXTMIN
 10
1.000000000000000E+20
 20
1.000000000000000E+20
 30
1.000000000000000E+20
  9
$PEXTMAX
 10
-1.000000000000000E+20
 20
-1.000000000000000E+20
 30
-1.000000000000000E+20
  9
$PLIMMIN
 10
0.0
 20
0.0
  9
$PLIMMAX
 10
0.0
 20
0.0
  9
$UNITMODE
 70
     0
  9
$VISRETAIN
 70
     1
  9
$PLINEGEN
 70
     0
  9
$PSLTSCALE
 70
     1
  9
$TREEDEPTH
 70
  3020
  9
$CMLSTYLE
  2
Standard
  9
$CMLJUST
 70
     0
  9
$CMLSCALE
 40
20.0
  9
$PROXYGRAPHICS
 70
     1
  9
$MEASUREMENT
 70
     1
  9
$CELWEIGHT
370
    -1
  9
$ENDCAPS
280
     0
  9
$JOINSTYLE
280
     0
  9
$LWDISPLAY
290
     1
  9
$INSUNITS
 70
     4
  9
$HYPERLINKBASE
  1

  9
$STYLESHEET
  1

  9
$XEDIT
290
     1
  9
$CEPSNTYPE
380
     0
  9
$PSTYLEMODE
290
     1
  9
$FINGERPRINTGUID
  2
{1881948C-BBF4-4746-A8DB-E27D81806E22}
  9
$VERSIONGUID
  2
{FAEB1C32-E019-11D5-929B-00C0DF256EC4}
  9
$EXTNAMES
290
     1
  9
$PSVPSCALE
 40
0.0
  9
$OLESTARTUP
290
     0
  0
ENDSEC
  0
SECTION
  2
CLASSES
  0
CLASS
  1
ACDBDICTIONARYWDFLT
  2
AcDbDictionaryWithDefault
  3
ObjectDBX Classes
 90
        0
280
     0
281
     0
  0
CLASS
  1
VISUALSTYLE
  2
AcDbVisualStyle
  3
ObjectDBX Classes
 90
     4095
280
     0
281
     0
  0
CLASS
  1
MATERIAL
  2
AcDbMaterial
  3
ObjectDBX Classes
 90
     1153
280
     0
281
     0
  0
CLASS
  1
SCALE
  2
AcDbScale
  3
ObjectDBX Classes
 90
     1153
280
     0
281
     0
  0
CLASS
  1
SUN
  2
AcDbSun
  3
SCENEOE
 90
     1153
280
     0
281
     0
  0
CLASS
  1
ACDBPLACEHOLDER
  2
AcDbPlaceHolder
  3
ObjectDBX Classes
 90
        0
280
     0
281
     0
  0
CLASS
  1
LAYOUT
  2
AcDbLayout
  3
ObjectDBX Classes
 90
        0
280
     0
281
     0
  0
CLASS
  1
TABLESTYLE
  2
AcDbTableStyle
  3
ObjectDBX Classes
 90
     4095
280
     0
281
     0
  0
CLASS
  1
MLEADERSTYLE
  2
AcDbMLeaderStyle
  3
ACDB_MLEADERSTYLE_CLASS
 90
     4095
280
     0
281
     0
  0
CLASS
  1
RASTERVARIABLES
  2
AcDbRasterVariables
  3
ISM
 90
        0
280
     0
281
     0
  0
CLASS
  1
DIMASSOC
  2
AcDbDimAssoc
  3
"AcDbDimAssoc|Product Desc:     AcDim ARX App For Dimension|Company:          Autodesk, Inc.|WEB Address:      www.autodesk.com"
 90
        0
280
     0
281
     0
  0
CLASS
  1
DICTIONARYVAR
  2
AcDbDictionaryVar
  3
ObjectDBX Classes
 90
        0
280
     0
281
     0
  0
ENDSEC
  0
SECTION
  2
TABLES
  0
TABLE
  2
VPORT
  5
8
330
0
100
AcDbSymbolTable
 70
     1
  0
VPORT
  5
29
330
8
100
AcDbSymbolTableRecord
100
AcDbViewportTableRecord
  2
*Active
 70
     0
 10
0.0
 20
0.0
 11
1.0
 21
1.0
 12
55.91373971769252
 22
10.38862450487363
 13
0.0
 23
0.0
 14
10.0
 24
10.0
 15
10.0
 25
10.0
 16
0.0
 26
0.0
 36
1.0
 17
0.0
 27
0.0
 37
0.0
 40
194.9159088903652
 41
2.213513513513513
 42
50.0
 43
0.0
 44
0.0
 50
0.0
 51
0.0
 71
    16
 72
  2000
 73
     1
 74
     3
 75
     0
 76
     0
 77
     0
 78
     0
281
     0
 65
     1
110
0.0
120
0.0
130
0.0
111
1.0
121
0.0
131
0.0
112
0.0
122
1.0
132
0.0
 79
     0
146
0.0
  0
ENDTAB
  0
TABLE
  2
LTYPE
  5
5
330
0
100
AcDbSymbolTable
 70
     6
  0
LTYPE
  5
14
330
5
100
AcDbSymbolTableRecord
100
AcDbLinetypeTableRecord
  2
ByBlock
 70
     0
  3

 72
    65
 73
     0
 40
0.0
  0
LTYPE
  5
15
330
5
100
AcDbSymbolTableRecord
100
AcDbLinetypeTableRecord
  2
ByLayer
 70
     0
  3

 72
    65
 73
     0
 40
0.0
  0
LTYPE
  5
16
330
5
100
AcDbSymbolTableRecord
100
AcDbLinetypeTableRecord
  2
Continuous
 70
     0
  3
Solid line
 72
    65
 73
     0
 40
0.0
  0
LTYPE
  5
6A
330
5
100
AcDbSymbolTableRecord
100
AcDbLinetypeTableRecord
  2
HIDDEN
 70
     0
  3
Hidden __ __ __ __ __ __ __ __ __ __ __ __ __ __
 72
    65
 73
     2
 40
1.905
 49
1.27
 74
     0
 49
-0.635
 74
     0
  0
LTYPE
  5
6B
330
5
100
AcDbSymbolTableRecord
100
AcDbLinetypeTableRecord
  2
PHANTOM
 70
     0
  3
Phantom ______  __  __  ______  __  __  ______
 72
    65
 73
     6
 40
12.7
 49
6.35
 74
     0
 49
-1.27
 74
     0
 49
1.27
 74
     0
 49
-1.27
 74
     0
 49
1.27
 74
     0
 49
-1.27
 74
     0
  0
LTYPE
  5
6C
330
5
100
AcDbSymbolTableRecord
100
AcDbLinetypeTableRecord
  2
CENTER
 70
     0
  3
Center ____ _ ____ _ ____ _ ____ _ ____ _ ____
 72
    65
 73
     4
 40
10.16
 49
6.35
 74
     0
 49
-1.27
 74
     0
 49
1.27
 74
     0
 49
-1.27
 74
     0
  0
LTYPE
  5
6D
330
5
100
AcDbSymbolTableRecord
100
AcDbLinetypeTableRecord
  2
CENTERX2
 70
     0
  3
Center (2x) ________  __  ________  __  _____
 72
    65
 73
     4
 40
20.32
 49
12.7
 74
     0
 49
-2.54
 74
     0
 49
2.54
 74
     0
 49
-2.54
 74
     0
  0
LTYPE
  5
6E
330
5
100
AcDbSymbolTableRecord
100
AcDbLinetypeTableRecord
  2
DOT2
 70
     0
  3
Dot (.5x) ........................................
 72
    65
 73
     2
 40
0.635
 49
0.0
 74
     0
 49
-0.635
 74
     0
  0
ENDTAB
  0
TABLE
  2
LAYER
  5
2
330
0
100
AcDbSymbolTable
 70
    17
  0
LAYER
  5
10
330
2
100
AcDbSymbolTableRecord
100
AcDbLayerTableRecord
  2
0
 70
     0
 62
     7
  6
Continuous
370
    -3
390
F
  0
LAYER
  5
6F
330
2
100
AcDbSymbolTableRecord
100
AcDbLayerTableRecord
  2
FORMAT
 70
     0
 62
     2
  6
Continuous
370
    -3
390
F
  0
LAYER
  5
70
330
2
100
AcDbSymbolTableRecord
100
AcDbLayerTableRecord
  2
외형선
 70
     0
 62
     4
  6
Continuous
370
    30
390
F
  0
LAYER
  5
71
330
2
100
AcDbSymbolTableRecord
100
AcDbLayerTableRecord
  2
숨은선
 70
     0
 62
     2
  6
HIDDEN
370
    15
390
F
  0
LAYER
  5
72
330
2
100
AcDbSymbolTableRecord
100
AcDbLayerTableRecord
  2
중심선
 70
     0
 62
     1
  6
CENTERX2
370
    -3
390
F
  0
LAYER
  5
73
330
2
100
AcDbSymbolTableRecord
100
AcDbLayerTableRecord
  2
파단선
 70
     0
 62
     4
  6
Continuous
370
    -3
390
F
  0
LAYER
  5
74
330
2
100
AcDbSymbolTableRecord
100
AcDbLayerTableRecord
  2
해칭선
 70
     0
 62
   100
  6
Continuous
370
    -3
390
F
  0
LAYER
  5
75
330
2
100
AcDbSymbolTableRecord
100
AcDbLayerTableRecord
  2
가는실선
 70
     0
 62
     4
  6
Continuous
370
    -3
390
F
  0
LAYER
  5
76
330
2
100
AcDbSymbolTableRecord
100
AcDbLayerTableRecord
  2
치수_보조선
 70
     0
 62
     4
  6
Continuous
370
    -3
390
F
  0
LAYER
  5
77
330
2
100
AcDbSymbolTableRecord
100
AcDbLayerTableRecord
  2
치수문자_일반주서
 70
     0
 62
     7
  6
Continuous
370
    15
390
F
  0
LAYER
  5
78
330
2
100
AcDbSymbolTableRecord
100
AcDbLayerTableRecord
  2
개별주서
 70
     0
 62
   100
  6
Continuous
370
    30
390
F
  0
LAYER
  5
79
330
2
100
AcDbSymbolTableRecord
100
AcDbLayerTableRecord
  2
중간선
 70
     0
 62
     2
  6
Continuous
370
    15
390
F
  0
LAYER
  5
7A
330
2
100
AcDbSymbolTableRecord
100
AcDbLayerTableRecord
  2
윤곽선
 70
     0
 62
     3
  6
Continuous
370
    40
390
F
  0
LAYER
  5
7B
330
2
100
AcDbSymbolTableRecord
100
AcDbLayerTableRecord
  2
중심마크
 70
     0
 62
   100
  6
Continuous
370
    30
390
F
  0
LAYER
  5
7C
330
2
100
AcDbSymbolTableRecord
100
AcDbLayerTableRecord
  2
가상선
 70
     0
 62
     4
  6
PHANTOM
370
    -3
390
F
  0
LAYER
  5
7D
330
2
100
AcDbSymbolTableRecord
100
AcDbLayerTableRecord
  2
특수지정선
 70
     0
 62
     5
  6
CENTERX2
370
    60
390
F
  0
LAYER
  5
113
330
2
100
AcDbSymbolTableRecord
100
AcDbLayerTableRecord
  2
Defpoints
 70
     0
 62
     7
  6
Continuous
290
     0
370
    -3
390
F
  0
ENDTAB
  0
TABLE
  2
STYLE
  5
3
330
0
100
AcDbSymbolTable
 70
     2
  0
STYLE
  5
11
330
3
100
AcDbSymbolTableRecord
100
AcDbTextStyleTableRecord
  2
Standard
 70
     0
 40
0.0
 41
1.0
 50
0.0
 71
     0
 42
3.5
  3
txt
  4

  0
STYLE
  5
93
330
3
100
AcDbSymbolTableRecord
100
AcDbTextStyleTableRecord
  2
SLDTEXTSTYLE0
 70
     0
 40
0.0
 41
0.75
 50
0.0
 71
     0
 42
3.5
  3
TXT
  4

  0
ENDTAB
  0
TABLE
  2
VIEW
  5
6
330
0
100
AcDbSymbolTable
 70
     0
  0
ENDTAB
  0
TABLE
  2
UCS
  5
7
330
0
100
AcDbSymbolTable
 70
     0
  0
ENDTAB
  0
TABLE
  2
APPID
  5
9
330
0
100
AcDbSymbolTable
 70
     4
  0
APPID
  5
12
330
9
100
AcDbSymbolTableRecord
100
AcDbRegAppTableRecord
  2
ACAD
 70
     0
  0
APPID
  5
176
330
9
100
AcDbSymbolTableRecord
100
AcDbRegAppTableRecord
  2
ACAD_DSTYLE_DIMFLIPARROW_SYMBOL
 70
     0
  0
APPID
  5
177
330
9
100
AcDbSymbolTableRecord
100
AcDbRegAppTableRecord
  2
ACAD_DSTYLE_DIMFLIPARROW_WHICH_SYMBOL
 70
     0
  0
APPID
  5
305
330
9
100
AcDbSymbolTableRecord
100
AcDbRegAppTableRecord
  2
PE_DIMMEASUREMENT
 70
     0
  0
ENDTAB
  0
TABLE
  2
DIMSTYLE
  5
A
330
0
100
AcDbSymbolTable
 70
     2
100
AcDbDimStyleTable
  0
DIMSTYLE
105
27
330
A
100
AcDbSymbolTableRecord
100
AcDbDimStyleTableRecord
  2
ISO-25
 70
     0
 41
2.5
 42
0.625
 43
3.75
 44
1.25
 73
     0
 74
     0
 77
     1
 78
     8
140
2.5
141
2.5
143
0.03937007874016
147
0.625
171
     3
172
     1
178
     0
271
     2
272
     2
274
     3
278
    44
283
     0
284
     8
340
11
  0
DIMSTYLE
105
BF
102
{ACAD_REACTORS
330
2AE
330
2AF
330
2BA
330
2BD
330
2C0
102
}
330
A
100
AcDbSymbolTableRecord
100
AcDbDimStyleTableRecord
  2
SLDDIMSTYLE0
 70
     0
 41
3.302
 44
0.0
 45
0.000000001
 73
     0
 74
     0
 77
     1
 78
    12
 79
     3
140
3.5
143
0.0393700787401575
147
0.875
148
0.000000001
170
     1
172
     1
173
     1
178
     0
271
     2
272
     2
276
     2
284
    12
289
     0
340
93
  0
ENDTAB
  0
TABLE
  2
BLOCK_RECORD
  5
1
330
0
100
AcDbSymbolTable
 70
    19
  0
BLOCK_RECORD
  5
1F
330
1
100
AcDbSymbolTableRecord
100
AcDbBlockTableRecord
  2
*Model_Space
340
22
  0
BLOCK_RECORD
  5
1B
330
1
100
AcDbSymbolTableRecord
100
AcDbBlockTableRecord
  2
*Paper_Space
340
1E
  0
BLOCK_RECORD
  5
23
330
1
100
AcDbSymbolTableRecord
100
AcDbBlockTableRecord
  2
*Paper_Space0
340
26
  0
BLOCK_RECORD
  5
7E
330
1
100
AcDbSymbolTableRecord
100
AcDbBlockTableRecord
  2
블럭10
340
0
102
{BLKREFS
331
2A7
102
}
  0
BLOCK_RECORD
  5
C0
330
1
100
AcDbSymbolTableRecord
100
AcDbBlockTableRecord
  2
_D
340
0
  0
BLOCK_RECORD
  5
D4
330
1
100
AcDbSymbolTableRecord
100
AcDbBlockTableRecord
  2
_D_1
340
0
  0
BLOCK_RECORD
  5
E8
330
1
100
AcDbSymbolTableRecord
100
AcDbBlockTableRecord
  2
SW_DOWELSYMBOL_0
340
0
102
{BLKREFS
331
2B0
102
}
  0
BLOCK_RECORD
  5
12B
330
1
100
AcDbSymbolTableRecord
100
AcDbBlockTableRecord
  2
*D5
340
0
  0
BLOCK_RECORD
  5
13D
330
1
100
AcDbSymbolTableRecord
100
AcDbBlockTableRecord
  2
*D6
340
0
  0
BLOCK_RECORD
  5
14E
330
1
100
AcDbSymbolTableRecord
100
AcDbBlockTableRecord
  2
*D7
340
0
  0
BLOCK_RECORD
  5
15D
330
1
100
AcDbSymbolTableRecord
100
AcDbBlockTableRecord
  2
*D8
340
0
  0
BLOCK_RECORD
  5
236
330
1
100
AcDbSymbolTableRecord
100
AcDbBlockTableRecord
  2
*D9
340
0
  0
BLOCK_RECORD
  5
247
330
1
100
AcDbSymbolTableRecord
100
AcDbBlockTableRecord
  2
*D10
340
0
  0
BLOCK_RECORD
  5
254
330
1
100
AcDbSymbolTableRecord
100
AcDbBlockTableRecord
  2
*D11
340
0
  0
BLOCK_RECORD
  5
265
330
1
100
AcDbSymbolTableRecord
100
AcDbBlockTableRecord
  2
*D12
340
0
  0
BLOCK_RECORD
  5
271
330
1
100
AcDbSymbolTableRecord
100
AcDbBlockTableRecord
  2
*D13
340
0
  0
BLOCK_RECORD
  5
2C4
330
1
100
AcDbSymbolTableRecord
100
AcDbBlockTableRecord
  2
*D14
340
0
  0
BLOCK_RECORD
  5
2D0
330
1
100
AcDbSymbolTableRecord
100
AcDbBlockTableRecord
  2
*D15
340
0
  0
BLOCK_RECORD
  5
2DC
330
1
100
AcDbSymbolTableRecord
100
AcDbBlockTableRecord
  2
*D16
340
0
  0
BLOCK_RECORD
  5
2EA
330
1
100
AcDbSymbolTableRecord
100
AcDbBlockTableRecord
  2
*D17
340
0
  0
BLOCK_RECORD
  5
2F6
330
1
100
AcDbSymbolTableRecord
100
AcDbBlockTableRecord
  2
*D18
340
0
  0
ENDTAB
  0
ENDSEC
  0
SECTION
  2
BLOCKS
  0
BLOCK
  5
20
330
1F
100
AcDbEntity
  8
0
100
AcDbBlockBegin
  2
*Model_Space
 70
     0
 10
0.0
 20
0.0
 30
0.0
  3
*Model_Space
  1
*Model_Space
  0
ENDBLK
  5
21
330
1F
100
AcDbEntity
  8
0
100
AcDbBlockEnd
  0
BLOCK
  5
1C
330
1B
100
AcDbEntity
 67
     1
  8
0
100
AcDbBlockBegin
  2
*Paper_Space
 70
     0
 10
0.0
 20
0.0
 30
0.0
  3
*Paper_Space
  1
*Paper_Space
  0
ENDBLK
  5
1D
330
1B
100
AcDbEntity
 67
     1
  8
0
100
AcDbBlockEnd
  0
BLOCK
  5
24
330
23
100
AcDbEntity
  8
0
100
AcDbBlockBegin
  2
*Paper_Space0
 70
     0
 10
0.0
 20
0.0
 30
0.0
  3
*Paper_Space0
  1
*Paper_Space0
  0
ENDBLK
  5
25
330
23
100
AcDbEntity
  8
0
100
AcDbBlockEnd
  0
BLOCK
  5
7F
330
7E
100
AcDbEntity
  8
0
100
AcDbBlockBegin
  2
블럭10
 70
     2
 10
0.0
 20
0.0
 30
0.0
  3
블럭10
  1
블럭10
  0
ELLIPSE
  5
81
330
7E
100
AcDbEntity
  8
중심선
100
AcDbEllipse
 10
20.54032771741204
 20
12.0471743016438
 30
0.0
 11
6.600054785286829
 21
-1.261213355974178E-13
 31
0.0
210
0.0
220
0.0
230
1.0
 40
0.636358354079598
 41
0.9219305317359503
 42
6.513795318482858
  0
ELLIPSE
  5
82
330
7E
100
AcDbEntity
  8
중심선
100
AcDbEllipse
 10
20.54032771746488
 20
12.04717430159265
 30
0.0
 11
3.960054785062283
 21
1.540847449632565E-10
 31
0.0
210
0.0
220
0.0
230
1.0
 40
0.3939339440162632
 41
1.131841032648279
 42
5.62031148352944
  0
LINE
  5
83
330
7E
100
AcDbEntity
  8
중심선
100
AcDbLine
 10
2.268634060543552
 20
16.24717430164393
 30
0.0
 11
5.714909304380834
 21
16.24717430164393
 31
0.0
  0
LINE
  5
84
330
7E
100
AcDbEntity
  8
중심선
100
AcDbLine
 10
5.245725140726316
 20
7.84717430164391
 30
0.0
 11
8.692000384563599
 21
7.84717430164391
 31
0.0
  0
LINE
  5
85
330
7E
100
AcDbEntity
  8
중심선
100
AcDbLine
 10
15.74043728645272
 20
16.24717430164393
 30
0.0
 11
8.692000384563599
 21
7.84717430164391
 31
0.0
  0
LINE
  5
86
330
7E
100
AcDbEntity
  8
중심선
100
AcDbLine
 10
0.1404042013395286
 20
13.71084872107135
 30
0.0
 11
3.58671253028996
 21
13.71088815037384
 31
0.0
  0
LINE
  5
87
330
7E
100
AcDbEntity
  8
중심선
100
AcDbLine
 10
2.750260043222114
 20
10.84717430164391
 30
0.0
 11
6.196535287059397
 21
10.84717430164391
 31
0.0
  0
LINE
  5
88
330
7E
100
AcDbEntity
  8
중심선
100
AcDbLine
 10
12.29416204261559
 20
16.24717430164393
 30
0.0
 11
5.245725140726316
 21
7.84717430164391
 31
0.0
  0
LINE
  5
89
330
7E
100
AcDbEntity
  8
중심선
100
AcDbLine
 10
10.72767329541681
 20
16.24717430164393
 30
0.0
 11
6.196535287059397
 21
10.84717430164391
 31
0.0
  0
LINE
  5
8A
330
7E
100
AcDbEntity
  8
중심선
100
AcDbLine
 10
7.28139805157953
 20
16.24717430164393
 30
0.0
 11
2.750260043222114
 21
10.84717430164391
 31
0.0
  0
LINE
  5
8B
330
7E
100
AcDbEntity
  8
중심선
100
AcDbLine
 10
5.714909304380834
 20
16.24717430164393
 30
0.0
 11
3.58671253028996
 21
13.71088815037384
 31
0.0
  0
LINE
  5
8C
330
7E
100
AcDbEntity
  8
중심선
100
AcDbLine
 10
2.268634060543552
 20
16.24717430164393
 30
0.0
 11
0.1404042013395286
 21
13.71084872107135
 31
0.0
  0
LINE
  5
8D
330
7E
100
AcDbEntity
  8
중심선
100
AcDbLine
 10
7.28139805157953
 20
16.24717430164393
 30
0.0
 11
10.72767329541681
 21
16.24717430164393
 31
0.0
  0
LINE
  5
8E
330
7E
100
AcDbEntity
  8
중심선
100
AcDbLine
 10
12.29416204261559
 20
16.24717430164393
 30
0.0
 11
15.74043728645272
 21
16.24717430164393
 31
0.0
  0
LINE
  5
8F
330
7E
100
AcDbEntity
  8
중심선
100
AcDbLine
 10
19.22036997980202
 20
11.08717430171403
 30
0.0
 11
23.66174974927406
 21
11.08717430171406
 31
0.0
  0
LINE
  5
90
330
7E
100
AcDbEntity
  8
중심선
100
AcDbLine
 10
19.22039502424796
 20
13.00717430171391
 30
0.0
 11
19.22036997980202
 21
11.08717430171403
 31
0.0
  0
LINE
  5
91
330
7E
100
AcDbEntity
  8
중심선
100
AcDbLine
 10
19.22039502424796
 20
13.00717430171391
 30
0.0
 11
26.96566020931264
 21
13.00717430171391
 31
0.0
  0
LINE
  5
92
330
7E
100
AcDbEntity
  8
중심선
100
AcDbLine
 10
22.22332737316547
 20
13.45928029700563
 30
0.0
 11
24.52862924686651
 21
15.39360700705356
 31
0.0
  0
ATTDEF
  5
94
330
7E
100
AcDbEntity
  8
FORMAT
 62
     2
100
AcDbText
 10
-10.14163601213663
 20
2.075366912832191
 30
0.0
 40
4.233333333333333
  1
EM084008 [ 2 FLUTE ]
 41
0.75
  7
SLDTEXTSTYLE0
 11
-10.14163601213663
 21
-0.0412997538344756
 31
0.0
100
AcDbAttributeDefinition
  3

  2
AUTOATTR0
 70
     0
 74
     1
  0
ENDBLK
  5
80
330
7E
100
AcDbEntity
  8
0
100
AcDbBlockEnd
  0
BLOCK
  5
C1
330
C0
100
AcDbEntity
  8
0
100
AcDbBlockBegin
  2
_D
 70
     0
 10
0.0
 20
0.0
 30
0.0
  3
_D
  1
_D
  0
LINE
  5
C3
330
C0
100
AcDbEntity
  8
치수문자_일반주서
 62
     0
370
    -2
100
AcDbLine
 10
-49.04740684640016
 20
3.175000000000001
 30
0.0
 11
-59.13697383533254
 21
3.174999999999963
 31
0.0
  0
LINE
  5
C4
330
C0
100
AcDbEntity
  8
치수문자_일반주서
 62
     0
370
    -2
100
AcDbLine
 10
-49.04740684640016
 20
-3.175000000000002
 30
0.0
 11
-59.13697383533252
 21
-3.17500000000004
 31
0.0
  0
LINE
  5
C5
330
C0
100
AcDbEntity
  8
치수문자_일반주서
 62
     0
370
    -2
100
AcDbLine
 10
-59.13697383533254
 20
3.174999999999963
 30
0.0
 11
-59.13697383533252
 21
-3.17500000000004
 31
0.0
  0
LINE
  5
C6
330
C0
100
AcDbEntity
  8
치수문자_일반주서
 62
     0
370
    -2
100
AcDbLine
 10
-59.13697383533255
 20
6.476999999999963
 30
0.0
 11
-59.13697383533257
 21
9.778999999999963
 31
0.0
  0
LINE
  5
C7
330
C0
100
AcDbEntity
  8
치수문자_일반주서
 62
     0
370
    -2
100
AcDbLine
 10
-59.1369738353325
 20
-6.477000000000039
 30
0.0
 11
-59.13697383533249
 21
-9.779000000000039
 31
0.0
  0
SOLID
  5
C8
330
C0
100
AcDbEntity
  8
치수문자_일반주서
 62
     0
100
AcDbTrace
 10
-59.68730716866589
 20
6.476999999999961
 30
0.0
 11
-58.58664050199922
 21
6.476999999999965
 31
0.0
 12
-59.13697383533254
 22
3.174999999999963
 32
0.0
 13
-59.13697383533254
 23
3.174999999999963
 33
0.0
  0
SOLID
  5
C9
330
C0
100
AcDbEntity
  8
치수문자_일반주서
 62
     0
100
AcDbTrace
 10
-58.58664050199917
 20
-6.477000000000038
 30
0.0
 11
-59.68730716866584
 21
-6.477000000000041
 31
0.0
 12
-59.13697383533252
 22
-3.17500000000004
 32
0.0
 13
-59.13697383533252
 23
-3.17500000000004
 33
0.0
  0
MTEXT
  5
CA
330
C0
100
AcDbEntity
  8
치수문자_일반주서
 62
     0
100
AcDbMText
 10
-63.51197383533253
 20
-0.0000000000000501
 30
0.0
 40
3.5
 41
0.0
 71
     2
 72
     1
  1
\A1;%%c6.35 [1/4]
  7
SLDTEXTSTYLE0
 11
-3.356894814614645E-15
 21
1.0
 31
0.0
 73
     1
 44
1.0
  0
POINT
  5
CB
330
C0
100
AcDbEntity
  8
Defpoints
 62
     0
100
AcDbPoint
 10
-48.98490684640016
 20
3.175000000000002
 30
0.0
  0
POINT
  5
173
330
C0
100
AcDbEntity
  8
Defpoints
 62
     0
100
AcDbPoint
 10
-48.98490684640016
 20
-3.175000000000002
 30
0.0
  0
POINT
  5
174
330
C0
100
AcDbEntity
  8
Defpoints
 62
     0
100
AcDbPoint
 10
-59.13697383533252
 20
-3.175000000000039
 30
0.0
  0
ENDBLK
  5
C2
330
C0
100
AcDbEntity
  8
0
100
AcDbBlockEnd
  0
BLOCK
  5
D5
330
D4
100
AcDbEntity
  8
0
100
AcDbBlockBegin
  2
_D_1
 70
     0
 10
0.0
 20
0.0
 30
0.0
  3
_D_1
  1
_D_1
  0
LINE
  5
D7
330
D4
100
AcDbEntity
  8
치수문자_일반주서
 62
     0
370
    -2
100
AcDbLine
 10
63.47377851664197
 20
-8.95284441771886
 30
0.0
 11
86.38002851664196
 21
-8.952844417718774
 31
0.0
  0
LINE
  5
D8
330
D4
100
AcDbEntity
  8
치수문자_일반주서
 62
     0
370
    -2
100
AcDbLine
 10
63.63213201150833
 20
-12.11992677412312
 30
0.0
 11
86.38002851664197
 21
-12.11992677412303
 31
0.0
  0
LINE
  5
D9
330
D4
100
AcDbEntity
  8
치수문자_일반주서
 62
     0
370
    -2
100
AcDbLine
 10
86.38002851664197
 20
-12.25484441771877
 30
0.0
 11
86.38002851664196
 21
-8.81792677412303
 31
0.0
  0
SOLID
  5
DA
330
D4
100
AcDbEntity
  8
치수문자_일반주서
 62
     0
100
AcDbTrace
 10
86.9303618499753
 20
-12.25484441771877
 30
0.0
 11
85.82969518330864
 21
-12.25484441771878
 31
0.0
 12
86.38002851664196
 22
-8.952844417718774
 32
0.0
 13
86.38002851664196
 23
-8.952844417718774
 33
0.0
  0
SOLID
  5
DB
330
D4
100
AcDbEntity
  8
치수문자_일반주서
 62
     0
100
AcDbTrace
 10
85.82969518330863
 20
-8.817926774123032
 30
0.0
 11
86.93036184997528
 21
-8.817926774123029
 31
0.0
 12
86.38002851664197
 22
-12.11992677412303
 32
0.0
 13
86.38002851664197
 23
-12.11992677412303
 33
0.0
  0
MTEXT
  5
DC
330
D4
100
AcDbEntity
  8
치수문자_일반주서
 62
     0
100
AcDbMText
 10
82.00502851664197
 20
-10.54038219965748
 30
0.0
 40
3.5
 41
0.0
 71
     2
 72
     1
  1
\A1;3.17 [0.12]
  7
SLDTEXTSTYLE0
 11
-4.487049314163174E-15
 21
1.0
 31
0.0
 73
     1
 44
1.0
  0
POINT
  5
DD
330
D4
100
AcDbEntity
  8
Defpoints
 62
     0
100
AcDbPoint
 10
63.41127851664197
 20
-8.95284441771886
 30
0.0
  0
POINT
  5
DE
330
D4
100
AcDbEntity
  8
Defpoints
 62
     0
100
AcDbPoint
 10
63.56963201150833
 20
-12.11992677412312
 30
0.0
  0
POINT
  5
DF
330
D4
100
AcDbEntity
  8
Defpoints
 62
     0
100
AcDbPoint
 10
86.38002851664197
 20
-12.11992677412303
 30
0.0
  0
ENDBLK
  5
D6
330
D4
100
AcDbEntity
  8
0
100
AcDbBlockEnd
  0
BLOCK
  5
E9
330
E8
100
AcDbEntity
  8
0
100
AcDbBlockBegin
  2
SW_DOWELSYMBOL_0
 70
     0
 10
0.0
 20
0.0
 30
0.0
  3
SW_DOWELSYMBOL_0
  1
SW_DOWELSYMBOL_0
  0
CIRCLE
  5
EB
330
E8
100
AcDbEntity
  8
해칭선
 62
     0
100
AcDbCircle
 10
0.0
 20
0.0
 30
0.0
 40
3.0
  0
HATCH
  5
EC
330
E8
100
AcDbEntity
  8
0
  6
Continuous
 62
     0
370
     0
100
AcDbHatch
 10
0.0
 20
0.0
 30
0.0
210
0.0
220
0.0
230
1.0
  2
SOLID
 70
     1
 71
     0
 91
        1
 92
        0
 93
        3
 72
     2
 10
0.0
 20
0.0
 40
3.0
 50
0.0
 51
90.0
 73
     1
 72
     1
 10
0.0
 20
3.0
 11
0.0
 21
0.0
 72
     1
 10
0.0
 20
0.0
 11
2.999999999999999
 21
0.0
 97
        0
 75
     0
 76
     1
 98
        1
 10
0.0
 20
0.0
  0
HATCH
  5
ED
330
E8
100
AcDbEntity
  8
0
  6
Continuous
 62
     0
370
     0
100
AcDbHatch
 10
0.0
 20
0.0
 30
0.0
210
0.0
220
0.0
230
1.0
  2
SOLID
 70
     1
 71
     0
 91
        1
 92
        0
 93
        3
 72
     2
 10
0.0
 20
0.0
 40
3.0
 50
180.0
 51
270.0000000000007
 73
     1
 72
     1
 10
0.0
 20
-3.0
 11
0.0
 21
0.0
 72
     1
 10
0.0
 20
0.0
 11
-2.999999999999999
 21
0.0
 97
        0
 75
     0
 76
     1
 98
        1
 10
0.0
 20
0.0
  0
ENDBLK
  5
EA
330
E8
100
AcDbEntity
  8
0
100
AcDbBlockEnd
  0
BLOCK
  5
12C
330
12B
100
AcDbEntity
  8
0
100
AcDbBlockBegin
  2
*D5
 70
     1
 10
0.0
 20
0.0
 30
0.0
  3
*D5
  1
*D5
  0
LINE
  5
12E
330
12B
100
AcDbEntity
  8
치수문자_일반주서
 62
     0
370
    -2
100
AcDbLine
 10
32.81759315359986
 20
-1.587500000000008
 30
0.0
 11
46.36056948455171
 21
-1.587500000000009
 31
0.0
  0
LINE
  5
12F
330
12B
100
AcDbEntity
  8
치수문자_일반주서
 62
     0
370
    -2
100
AcDbLine
 10
32.81759315359986
 20
1.587500000000002
 30
0.0
 11
46.36056948455171
 21
1.587500000000001
 31
0.0
  0
LINE
  5
130
330
12B
100
AcDbEntity
  8
치수문자_일반주서
 62
     0
370
    -2
100
AcDbLine
 10
46.36056948455171
 20
4.8895
 30
0.0
 11
46.36056948455171
 21
30.0665
 31
0.0
  0
LINE
  5
131
330
12B
100
AcDbEntity
  8
치수문자_일반주서
 62
     0
370
    -2
100
AcDbLine
 10
46.36056948455171
 20
-1.587500000000009
 30
0.0
 11
46.36056948455171
 21
1.587500000000001
 31
0.0
  0
LINE
  5
132
330
12B
100
AcDbEntity
  8
치수문자_일반주서
 62
     0
370
    -2
100
AcDbLine
 10
46.36056948455171
 20
-4.889500000000009
 30
0.0
 11
46.36056948455171
 21
-8.191500000000008
 31
0.0
  0
SOLID
  5
133
330
12B
100
AcDbEntity
  8
치수문자_일반주서
 62
     0
100
AcDbTrace
 10
46.91090281788505
 20
-4.889500000000009
 30
0.0
 11
45.81023615121838
 21
-4.889500000000009
 31
0.0
 12
46.36056948455171
 22
-1.587500000000009
 32
0.0
 13
46.36056948455171
 23
-1.587500000000009
 33
0.0
  0
SOLID
  5
134
330
12B
100
AcDbEntity
  8
치수문자_일반주서
 62
     0
100
AcDbTrace
 10
45.81023615121838
 20
4.8895
 30
0.0
 11
46.91090281788505
 21
4.8895
 31
0.0
 12
46.36056948455171
 22
1.587500000000001
 32
0.0
 13
46.36056948455171
 23
1.587500000000001
 33
0.0
  0
MTEXT
  5
135
330
12B
100
AcDbEntity
  8
치수문자_일반주서
 62
     0
100
AcDbMText
 10
43.73556948455171
 20
19.129
 30
0.0
 40
3.5
 41
0.0
 71
     5
 72
     1
  1
\A1;3.18 [1/8]
  7
SLDTEXTSTYLE0
 11
0.0
 21
1.0
 31
0.0
 73
     1
 44
1.0
  0
POINT
  5
136
330
12B
100
AcDbEntity
  8
Defpoints
 62
     0
100
AcDbPoint
 10
32.75509315359986
 20
-1.587500000000008
 30
0.0
  0
POINT
  5
137
330
12B
100
AcDbEntity
  8
Defpoints
 62
     0
100
AcDbPoint
 10
32.75509315359986
 20
1.587500000000002
 30
0.0
  0
POINT
  5
138
330
12B
100
AcDbEntity
  8
Defpoints
 62
     0
100
AcDbPoint
 10
46.36056948455171
 20
1.587500000000001
 30
0.0
  0
ENDBLK
  5
12D
330
12B
100
AcDbEntity
  8
0
100
AcDbBlockEnd
  0
BLOCK
  5
13E
330
13D
100
AcDbEntity
  8
0
100
AcDbBlockBegin
  2
*D6
 70
     1
 10
0.0
 20
0.0
 30
0.0
  3
*D6
  1
*D6
  0
LINE
  5
140
330
13D
100
AcDbEntity
  8
치수문자_일반주서
 62
     0
370
    -2
100
AcDbLine
 10
32.75509315359986
 20
1.650000000000002
 30
0.0
 11
32.75509315359986
 21
22.44803442842273
 31
0.0
  0
LINE
  5
141
330
13D
100
AcDbEntity
  8
치수문자_일반주서
 62
     0
370
    -2
100
AcDbLine
 10
28.78634315359989
 20
1.398643213693794
 30
0.0
 11
28.78634315359989
 21
22.44803442842273
 31
0.0
  0
LINE
  5
142
330
13D
100
AcDbEntity
  8
치수문자_일반주서
 62
     0
370
    -2
100
AcDbLine
 10
25.48434315359989
 20
22.44803442842273
 30
0.0
 11
-4.067656846400102
 21
22.44803442842273
 31
0.0
  0
LINE
  5
143
330
13D
100
AcDbEntity
  8
치수문자_일반주서
 62
     0
370
    -2
100
AcDbLine
 10
32.75509315359986
 20
22.44803442842273
 30
0.0
 11
28.78634315359989
 21
22.44803442842273
 31
0.0
  0
LINE
  5
144
330
13D
100
AcDbEntity
  8
치수문자_일반주서
 62
     0
370
    -2
100
AcDbLine
 10
36.05709315359986
 20
22.44803442842273
 30
0.0
 11
39.35909315359986
 21
22.44803442842273
 31
0.0
  0
SOLID
  5
145
330
13D
100
AcDbEntity
  8
치수문자_일반주서
 62
     0
100
AcDbTrace
 10
36.05709315359986
 20
22.99836776175607
 30
0.0
 11
36.05709315359986
 21
21.8977010950894
 31
0.0
 12
32.75509315359986
 22
22.44803442842273
 32
0.0
 13
32.75509315359986
 23
22.44803442842273
 33
0.0
  0
SOLID
  5
146
330
13D
100
AcDbEntity
  8
치수문자_일반주서
 62
     0
100
AcDbTrace
 10
25.48434315359989
 20
21.8977010950894
 30
0.0
 11
25.48434315359989
 21
22.99836776175607
 31
0.0
 12
28.78634315359989
 22
22.44803442842273
 32
0.0
 13
28.78634315359989
 23
22.44803442842273
 33
0.0
  0
MTEXT
  5
147
330
13D
100
AcDbEntity
  8
치수문자_일반주서
 62
     0
100
AcDbMText
 10
9.057343153599895
 20
25.07303442842273
 30
0.0
 40
3.5
 41
0.0
 71
     5
 72
     1
  1
\A1;3.97 [5/32]
  7
SLDTEXTSTYLE0
 73
     1
 44
1.0
  0
POINT
  5
148
330
13D
100
AcDbEntity
  8
Defpoints
 62
     0
100
AcDbPoint
 10
32.75509315359986
 20
1.587500000000002
 30
0.0
  0
POINT
  5
149
330
13D
100
AcDbEntity
  8
Defpoints
 62
     0
100
AcDbPoint
 10
28.78634315359989
 20
1.336143213693794
 30
0.0
  0
POINT
  5
14A
330
13D
100
AcDbEntity
  8
Defpoints
 62
     0
100
AcDbPoint
 10
28.78634315359989
 20
22.44803442842273
 30
0.0
  0
ENDBLK
  5
13F
330
13D
100
AcDbEntity
  8
0
100
AcDbBlockEnd
  0
BLOCK
  5
14F
330
14E
100
AcDbEntity
  8
0
100
AcDbBlockBegin
  2
*D7
 70
     1
 10
0.0
 20
0.0
 30
0.0
  3
*D7
  1
*D7
  0
LINE
  5
151
330
14E
100
AcDbEntity
  8
치수문자_일반주서
 62
     0
370
    -2
100
AcDbLine
 10
32.75509315359986
 20
1.650000000000002
 30
0.0
 11
32.75509315359986
 21
30.79678224650138
 31
0.0
  0
LINE
  5
152
330
14E
100
AcDbEntity
  8
치수문자_일반주서
 62
     0
370
    -2
100
AcDbLine
 10
1.005093153599873
 20
2.174643790436499
 30
0.0
 11
1.005093153599873
 21
30.79678224650138
 31
0.0
  0
LINE
  5
153
330
14E
100
AcDbEntity
  8
치수문자_일반주서
 62
     0
370
    -2
100
AcDbLine
 10
29.45309315359986
 20
30.79678224650138
 30
0.0
 11
4.307093153599872
 21
30.79678224650138
 31
0.0
  0
SOLID
  5
154
330
14E
100
AcDbEntity
  8
치수문자_일반주서
 62
     0
100
AcDbTrace
 10
29.45309315359986
 20
30.24644891316804
 30
0.0
 11
29.45309315359986
 21
31.34711557983471
 31
0.0
 12
32.75509315359986
 22
30.79678224650138
 32
0.0
 13
32.75509315359986
 23
30.79678224650138
 33
0.0
  0
SOLID
  5
155
330
14E
100
AcDbEntity
  8
치수문자_일반주서
 62
     0
100
AcDbTrace
 10
4.307093153599872
 20
31.34711557983471
 30
0.0
 11
4.307093153599872
 21
30.24644891316804
 31
0.0
 12
1.005093153599873
 22
30.79678224650138
 32
0.0
 13
1.005093153599873
 23
30.79678224650138
 33
0.0
  0
MTEXT
  5
156
330
14E
100
AcDbEntity
  8
치수문자_일반주서
 62
     0
100
AcDbMText
 10
16.88009315359987
 20
33.42178224650138
 30
0.0
 40
3.5
 41
0.0
 71
     5
 72
     1
  1
\A1;31.75 [1 1/4]
  7
SLDTEXTSTYLE0
 73
     1
 44
1.0
  0
POINT
  5
157
330
14E
100
AcDbEntity
  8
Defpoints
 62
     0
100
AcDbPoint
 10
32.75509315359986
 20
1.587500000000002
 30
0.0
  0
POINT
  5
158
330
14E
100
AcDbEntity
  8
Defpoints
 62
     0
100
AcDbPoint
 10
1.005093153599873
 20
2.112143790436499
 30
0.0
  0
POINT
  5
159
330
14E
100
AcDbEntity
  8
Defpoints
 62
     0
100
AcDbPoint
 10
1.005093153599873
 20
30.79678224650138
 30
0.0
  0
ENDBLK
  5
150
330
14E
100
AcDbEntity
  8
0
100
AcDbBlockEnd
  0
BLOCK
  5
15E
330
15D
100
AcDbEntity
  8
0
100
AcDbBlockBegin
  2
*D8
 70
     1
 10
0.0
 20
0.0
 30
0.0
  3
*D8
  1
*D8
  0
LINE
  5
160
330
15D
100
AcDbEntity
  8
치수문자_일반주서
 62
     0
370
    -2
100
AcDbLine
 10
32.75509315359986
 20
1.650000000000002
 30
0.0
 11
32.75509315359986
 21
43.4933351130199
 31
0.0
  0
LINE
  5
161
330
15D
100
AcDbEntity
  8
치수문자_일반주서
 62
     0
370
    -2
100
AcDbLine
 10
-49.79490684640014
 20
2.427499999999999
 30
0.0
 11
-49.79490684640014
 21
43.4933351130199
 31
0.0
  0
LINE
  5
162
330
15D
100
AcDbEntity
  8
치수문자_일반주서
 62
     0
370
    -2
100
AcDbLine
 10
29.45309315359986
 20
43.4933351130199
 30
0.0
 11
-46.49290684640014
 21
43.4933351130199
 31
0.0
  0
SOLID
  5
163
330
15D
100
AcDbEntity
  8
치수문자_일반주서
 62
     0
100
AcDbTrace
 10
29.45309315359986
 20
42.94300177968656
 30
0.0
 11
29.45309315359986
 21
44.04366844635323
 31
0.0
 12
32.75509315359986
 22
43.4933351130199
 32
0.0
 13
32.75509315359986
 23
43.4933351130199
 33
0.0
  0
SOLID
  5
164
330
15D
100
AcDbEntity
  8
치수문자_일반주서
 62
     0
100
AcDbTrace
 10
-46.49290684640014
 20
44.04366844635323
 30
0.0
 11
-46.49290684640014
 21
42.94300177968656
 31
0.0
 12
-49.79490684640014
 22
43.4933351130199
 32
0.0
 13
-49.79490684640014
 23
43.4933351130199
 33
0.0
  0
MTEXT
  5
165
330
15D
100
AcDbEntity
  8
치수문자_일반주서
 62
     0
100
AcDbMText
 10
-8.51990684640014
 20
46.1183351130199
 30
0.0
 40
3.5
 41
0.0
 71
     5
 72
     1
  1
\A1;82.55 [3 1/4]
  7
SLDTEXTSTYLE0
 73
     1
 44
1.0
  0
POINT
  5
166
330
15D
100
AcDbEntity
  8
Defpoints
 62
     0
100
AcDbPoint
 10
32.75509315359986
 20
1.587500000000002
 30
0.0
  0
POINT
  5
167
330
15D
100
AcDbEntity
  8
Defpoints
 62
     0
100
AcDbPoint
 10
-49.79490684640014
 20
2.364999999999999
 30
0.0
  0
POINT
  5
168
330
15D
100
AcDbEntity
  8
Defpoints
 62
     0
100
AcDbPoint
 10
-49.79490684640014
 20
43.4933351130199
 30
0.0
  0
ENDBLK
  5
15F
330
15D
100
AcDbEntity
  8
0
100
AcDbBlockEnd
  0
BLOCK
  5
237
330
236
100
AcDbEntity
  8
0
100
AcDbBlockBegin
  2
*D9
 70
     1
 10
0.0
 20
0.0
 30
0.0
  3
*D9
  1
*D10
  0
LINE
  5
238
330
236
100
AcDbEntity
  8
치수문자_일반주서
 62
     0
370
    -2
100
AcDbLine
 10
128.682630002667
 20
54.79680738881174
 30
0.0
 11
128.682630002667
 21
77.15103261836991
 31
0.0
  0
LINE
  5
239
330
236
100
AcDbEntity
  8
치수문자_일반주서
 62
     0
370
    -2
100
AcDbLine
 10
118.363880002667
 20
54.07828246755543
 30
0.0
 11
118.363880002667
 21
77.15103261836991
 31
0.0
  0
LINE
  5
23A
330
236
100
AcDbEntity
  8
치수문자_일반주서
 62
     0
370
    -2
100
AcDbLine
 10
115.061880002667
 20
77.15103261836991
 30
0.0
 11
81.13488000266702
 21
77.15103261836991
 31
0.0
  0
LINE
  5
23B
330
236
100
AcDbEntity
  8
치수문자_일반주서
 62
     0
370
    -2
100
AcDbLine
 10
128.682630002667
 20
77.15103261836991
 30
0.0
 11
118.363880002667
 21
77.15103261836991
 31
0.0
  0
LINE
  5
23C
330
236
100
AcDbEntity
  8
치수문자_일반주서
 62
     0
370
    -2
100
AcDbLine
 10
131.984630002667
 20
77.15103261836991
 30
0.0
 11
135.286630002667
 21
77.15103261836991
 31
0.0
  0
SOLID
  5
23D
330
236
100
AcDbEntity
  8
치수문자_일반주서
 62
     0
100
AcDbTrace
 10
131.984630002667
 20
77.70136595170324
 30
0.0
 11
131.984630002667
 21
76.60069928503658
 31
0.0
 12
128.682630002667
 22
77.15103261836991
 32
0.0
 13
128.682630002667
 23
77.15103261836991
 33
0.0
  0
SOLID
  5
23E
330
236
100
AcDbEntity
  8
치수문자_일반주서
 62
     0
100
AcDbTrace
 10
115.061880002667
 20
76.60069928503658
 30
0.0
 11
115.061880002667
 21
77.70136595170324
 31
0.0
 12
118.363880002667
 22
77.15103261836991
 32
0.0
 13
118.363880002667
 23
77.15103261836991
 33
0.0
  0
MTEXT
  5
23F
330
236
100
AcDbEntity
  8
치수문자_일반주서
 62
     0
100
AcDbMText
 10
96.44738000266702
 20
79.77603261836991
 30
0.0
 40
3.5
 41
0.0
 71
     5
 72
     1
  1
\A1;10 5/16 [0.41]
  7
SLDTEXTSTYLE0
 73
     1
 44
1.0
  0
POINT
  5
240
330
236
100
AcDbEntity
  8
Defpoints
 62
     0
100
AcDbPoint
 10
128.682630002667
 20
54.73430738881174
 30
0.0
  0
POINT
  5
241
330
236
100
AcDbEntity
  8
Defpoints
 62
     0
100
AcDbPoint
 10
118.363880002667
 20
54.01578246755543
 30
0.0
  0
POINT
  5
242
330
236
100
AcDbEntity
  8
Defpoints
 62
     0
100
AcDbPoint
 10
118.363880002667
 20
77.15103261836991
 30
0.0
  0
ENDBLK
  5
243
330
236
100
AcDbEntity
  8
0
100
AcDbBlockEnd
  0
BLOCK
  5
248
330
247
100
AcDbEntity
  8
0
100
AcDbBlockBegin
  2
*D10
 70
     1
 10
0.0
 20
0.0
 30
0.0
  3
*D10
  1
*D11
  0
LINE
  5
249
330
247
100
AcDbEntity
  8
치수문자_일반주서
 62
     0
370
    -2
100
AcDbLine
 10
128.682630002667
 20
54.79680738881174
 30
0.0
 11
128.682630002667
 21
85.41674274282504
 31
0.0
  0
LINE
  5
24A
330
247
100
AcDbEntity
  8
치수문자_일반주서
 62
     0
370
    -2
100
AcDbLine
 10
84.23263000274804
 20
54.79680738881174
 30
0.0
 11
84.23263000274804
 21
85.41674274282504
 31
0.0
  0
LINE
  5
24B
330
247
100
AcDbEntity
  8
치수문자_일반주서
 62
     0
370
    -2
100
AcDbLine
 10
125.380630002667
 20
85.41674274282504
 30
0.0
 11
87.53463000274805
 21
85.41674274282504
 31
0.0
  0
SOLID
  5
24C
330
247
100
AcDbEntity
  8
치수문자_일반주서
 62
     0
100
AcDbTrace
 10
125.380630002667
 20
84.86640940949171
 30
0.0
 11
125.380630002667
 21
85.96707607615836
 31
0.0
 12
128.682630002667
 22
85.41674274282504
 32
0.0
 13
128.682630002667
 23
85.41674274282504
 33
0.0
  0
SOLID
  5
24D
330
247
100
AcDbEntity
  8
치수문자_일반주서
 62
     0
100
AcDbTrace
 10
87.53463000274805
 20
85.96707607615836
 30
0.0
 11
87.53463000274805
 21
84.86640940949171
 31
0.0
 12
84.23263000274804
 22
85.41674274282504
 32
0.0
 13
84.23263000274804
 23
85.41674274282504
 33
0.0
  0
MTEXT
  5
24E
330
247
100
AcDbEntity
  8
치수문자_일반주서
 62
     0
100
AcDbMText
 10
106.4576300027075
 20
88.04174274282504
 30
0.0
 40
3.5
 41
0.0
 71
     5
 72
     1
  1
\A1;44 29/64 [1.75]
  7
SLDTEXTSTYLE0
 73
     1
 44
1.0
  0
POINT
  5
24F
330
247
100
AcDbEntity
  8
Defpoints
 62
     0
100
AcDbPoint
 10
128.682630002667
 20
54.73430738881174
 30
0.0
  0
POINT
  5
250
330
247
100
AcDbEntity
  8
Defpoints
 62
     0
100
AcDbPoint
 10
84.23263000274804
 20
54.73430738881174
 30
0.0
  0
POINT
  5
251
330
247
100
AcDbEntity
  8
Defpoints
 62
     0
100
AcDbPoint
 10
84.23263000274804
 20
85.41674274282504
 30
0.0
  0
ENDBLK
  5
252
330
247
100
AcDbEntity
  8
0
100
AcDbBlockEnd
  0
BLOCK
  5
255
330
254
100
AcDbEntity
  8
0
100
AcDbBlockBegin
  2
*D11
 70
     1
 10
0.0
 20
0.0
 30
0.0
  3
*D11
  1
*D12
  0
LINE
  5
256
330
254
100
AcDbEntity
  8
치수문자_일반주서
 62
     0
370
    -2
100
AcDbLine
 10
128.682630002667
 20
54.79680738881174
 30
0.0
 11
128.682630002667
 21
96.46082925872295
 31
0.0
  0
LINE
  5
257
330
254
100
AcDbEntity
  8
치수문자_일반주서
 62
     0
370
    -2
100
AcDbLine
 10
27.08263000274806
 20
53.79680738881174
 30
0.0
 11
27.08263000274806
 21
96.46082925872295
 31
0.0
  0
LINE
  5
258
330
254
100
AcDbEntity
  8
치수문자_일반주서
 62
     0
370
    -2
100
AcDbLine
 10
125.380630002667
 20
96.46082925872295
 30
0.0
 11
30.38463000274806
 21
96.46082925872295
 31
0.0
  0
SOLID
  5
259
330
254
100
AcDbEntity
  8
치수문자_일반주서
 62
     0
100
AcDbTrace
 10
125.380630002667
 20
95.91049592538963
 30
0.0
 11
125.380630002667
 21
97.01116259205628
 31
0.0
 12
128.682630002667
 22
96.46082925872295
 32
0.0
 13
128.682630002667
 23
96.46082925872295
 33
0.0
  0
SOLID
  5
25A
330
254
100
AcDbEntity
  8
치수문자_일반주서
 62
     0
100
AcDbTrace
 10
30.38463000274806
 20
97.01116259205628
 30
0.0
 11
30.38463000274806
 21
95.91049592538963
 31
0.0
 12
27.08263000274806
 22
96.46082925872295
 32
0.0
 13
27.08263000274806
 23
96.46082925872295
 33
0.0
  0
MTEXT
  5
25B
330
254
100
AcDbEntity
  8
치수문자_일반주서
 62
     0
100
AcDbMText
 10
77.88263000270754
 20
99.08582925872295
 30
0.0
 40
3.5
 41
0.0
 71
     5
 72
     1
  1
\A1;101 19/32 [4.00]
  7
SLDTEXTSTYLE0
 73
     1
 44
1.0
  0
POINT
  5
25C
330
254
100
AcDbEntity
  8
Defpoints
 62
     0
100
AcDbPoint
 10
128.682630002667
 20
54.73430738881174
 30
0.0
  0
POINT
  5
25D
330
254
100
AcDbEntity
  8
Defpoints
 62
     0
100
AcDbPoint
 10
27.08263000274806
 20
53.73430738881174
 30
0.0
  0
POINT
  5
25E
330
254
100
AcDbEntity
  8
Defpoints
 62
     0
100
AcDbPoint
 10
27.08263000274806
 20
96.46082925872295
 30
0.0
  0
ENDBLK
  5
25F
330
254
100
AcDbEntity
  8
0
100
AcDbBlockEnd
  0
BLOCK
  5
266
330
265
100
AcDbEntity
  8
0
100
AcDbBlockBegin
  2
*D12
 70
     1
 10
0.0
 20
0.0
 30
0.0
  3
*D12
  1
*D13
  0
LINE
  5
268
330
265
100
AcDbEntity
  8
치수문자_일반주서
 62
     0
370
    -2
100
AcDbLine
 10
28.02013000274806
 20
54.73430738881174
 30
0.0
 11
4.375000000000041
 21
54.73430738881166
 31
0.0
  0
LINE
  5
269
330
265
100
AcDbEntity
  8
치수문자_일반주서
 62
     0
370
    -2
100
AcDbLine
 10
28.02013000274806
 20
45.20930738881174
 30
0.0
 11
4.375000000000074
 21
45.20930738881166
 31
0.0
  0
LINE
  5
26A
330
265
100
AcDbEntity
  8
치수문자_일반주서
 62
     0
370
    -2
100
AcDbLine
 10
4.375000000000052
 20
51.43230738881166
 30
0.0
 11
4.375000000000062
 21
48.51130738881166
 31
0.0
  0
SOLID
  5
26B
330
265
100
AcDbEntity
  8
치수문자_일반주서
 62
     0
100
AcDbTrace
 10
4.925333333333386
 20
51.43230738881166
 30
0.0
 11
3.824666666666719
 21
51.43230738881166
 31
0.0
 12
4.375000000000041
 22
54.73430738881166
 32
0.0
 13
4.375000000000041
 23
54.73430738881166
 33
0.0
  0
SOLID
  5
26C
330
265
100
AcDbEntity
  8
치수문자_일반주서
 62
     0
100
AcDbTrace
 10
3.824666666666729
 20
48.51130738881166
 30
0.0
 11
4.925333333333396
 21
48.51130738881166
 31
0.0
 12
4.375000000000074
 22
45.20930738881166
 32
0.0
 13
4.375000000000074
 23
45.20930738881166
 33
0.0
  0
MTEXT
  5
26D
330
265
100
AcDbEntity
  8
치수문자_일반주서
 62
     0
100
AcDbMText
 10
0.0000000000000568
 20
49.97180738881173
 30
0.0
 40
3.5
 41
0.0
 71
     2
 72
     1
  1
\A1;%%c9 17/32 [0.38]
  7
SLDTEXTSTYLE0
 11
-3.450141892798387E-15
 21
1.0
 31
0.0
 73
     1
 44
1.0
  0
POINT
  5
26E
330
265
100
AcDbEntity
  8
Defpoints
 62
     0
100
AcDbPoint
 10
28.08263000274806
 20
54.73430738881174
 30
0.0
  0
POINT
  5
26F
330
265
100
AcDbEntity
  8
Defpoints
 62
     0
100
AcDbPoint
 10
28.08263000274806
 20
45.20930738881174
 30
0.0
  0
POINT
  5
270
330
265
100
AcDbEntity
  8
Defpoints
 62
     0
100
AcDbPoint
 10
4.375000000000071
 20
45.20930738881166
 30
0.0
  0
ENDBLK
  5
267
330
265
100
AcDbEntity
  8
0
100
AcDbBlockEnd
  0
BLOCK
  5
272
330
271
100
AcDbEntity
  8
0
100
AcDbBlockBegin
  2
*D13
 70
     1
 10
0.0
 20
0.0
 30
0.0
  3
*D13
  1
*D14
  0
LINE
  5
274
330
271
100
AcDbEntity
  8
치수문자_일반주서
 62
     0
370
    -2
100
AcDbLine
 10
123.982630002748
 20
54.73430738881174
 30
0.0
 11
146.888880002748
 21
54.73430738881183
 31
0.0
  0
LINE
  5
275
330
271
100
AcDbEntity
  8
치수문자_일반주서
 62
     0
370
    -2
100
AcDbLine
 10
124.4587852028352
 20
45.23317019279958
 30
0.0
 11
146.888880002748
 21
45.23317019279967
 31
0.0
  0
LINE
  5
276
330
271
100
AcDbEntity
  8
치수문자_일반주서
 62
     0
370
    -2
100
AcDbLine
 10
146.888880002748
 20
51.43230738881183
 30
0.0
 11
146.888880002748
 21
48.53517019279967
 31
0.0
  0
SOLID
  5
277
330
271
100
AcDbEntity
  8
치수문자_일반주서
 62
     0
100
AcDbTrace
 10
147.4392133360813
 20
51.43230738881183
 30
0.0
 11
146.3385466694147
 21
51.43230738881183
 31
0.0
 12
146.888880002748
 22
54.73430738881183
 32
0.0
 13
146.888880002748
 23
54.73430738881183
 33
0.0
  0
SOLID
  5
278
330
271
100
AcDbEntity
  8
치수문자_일반주서
 62
     0
100
AcDbTrace
 10
146.3385466694147
 20
48.53517019279967
 30
0.0
 11
147.4392133360814
 21
48.53517019279967
 31
0.0
 12
146.888880002748
 22
45.23317019279967
 32
0.0
 13
146.888880002748
 23
45.23317019279967
 33
0.0
  0
MTEXT
  5
279
330
271
100
AcDbEntity
  8
치수문자_일반주서
 62
     0
100
AcDbMText
 10
142.513880002748
 20
49.97174911824738
 30
0.0
 40
3.5
 41
0.0
 71
     2
 72
     1
  1
\A1;9 1/2 [0.37]
  7
SLDTEXTSTYLE0
 11
-2.991400802246413E-15
 21
1.0
 31
0.0
 73
     1
 44
1.0
  0
POINT
  5
27A
330
271
100
AcDbEntity
  8
Defpoints
 62
     0
100
AcDbPoint
 10
123.920130002748
 20
54.73430738881174
 30
0.0
  0
POINT
  5
27B
330
271
100
AcDbEntity
  8
Defpoints
 62
     0
100
AcDbPoint
 10
124.3962852028352
 20
45.23317019279958
 30
0.0
  0
POINT
  5
27C
330
271
100
AcDbEntity
  8
Defpoints
 62
     0
100
AcDbPoint
 10
146.888880002748
 20
45.23317019279967
 30
0.0
  0
ENDBLK
  5
273
330
271
100
AcDbEntity
  8
0
100
AcDbBlockEnd
  0
BLOCK
  5
2C5
330
2C4
100
AcDbEntity
  8
0
100
AcDbBlockBegin
  2
*D14
 70
     1
 10
0.0
 20
0.0
 30
0.0
  3
*D14
  1
*D15
  0
LINE
  5
2C7
330
2C4
100
AcDbEntity
  8
치수문자_일반주서
 62
     0
370
    -2
100
AcDbLine
 10
-56.21249999999998
 20
4.762500000000003
 30
0.0
 11
-79.857630002748
 21
4.762499999999914
 31
0.0
  0
LINE
  5
2C8
330
2C4
100
AcDbEntity
  8
치수문자_일반주서
 62
     0
370
    -2
100
AcDbLine
 10
-56.21249999999998
 20
-4.762499999999996
 30
0.0
 11
-79.85763000274797
 21
-4.762500000000085
 31
0.0
  0
LINE
  5
2C9
330
2C4
100
AcDbEntity
  8
치수문자_일반주서
 62
     0
370
    -2
100
AcDbLine
 10
-79.85763000274798
 20
1.460499999999914
 30
0.0
 11
-79.85763000274798
 21
-1.460500000000085
 31
0.0
  0
SOLID
  5
2CA
330
2C4
100
AcDbEntity
  8
치수문자_일반주서
 62
     0
100
AcDbTrace
 10
-79.30729666941465
 20
1.460499999999916
 30
0.0
 11
-80.40796333608131
 21
1.460499999999912
 31
0.0
 12
-79.857630002748
 22
4.762499999999914
 32
0.0
 13
-79.857630002748
 23
4.762499999999914
 33
0.0
  0
SOLID
  5
2CB
330
2C4
100
AcDbEntity
  8
치수문자_일반주서
 62
     0
100
AcDbTrace
 10
-80.40796333608131
 20
-1.460500000000086
 30
0.0
 11
-79.30729666941465
 21
-1.460500000000083
 31
0.0
 12
-79.85763000274797
 22
-4.762500000000085
 32
0.0
 13
-79.85763000274797
 23
-4.762500000000085
 33
0.0
  0
MTEXT
  5
2CC
330
2C4
100
AcDbEntity
  8
치수문자_일반주서
 62
     0
100
AcDbMText
 10
-84.23263000274798
 20
-0.0000000000000132
 30
0.0
 40
3.5
 41
0.0
 71
     2
 72
     1
  1
\A1;%%c9.53 [3/8]
  7
SLDTEXTSTYLE0
 11
-2.983906501879686E-15
 21
1.0
 31
0.0
 73
     1
 44
1.0
  0
POINT
  5
2CD
330
2C4
100
AcDbEntity
  8
Defpoints
 62
     0
100
AcDbPoint
 10
-56.14999999999998
 20
4.762500000000003
 30
0.0
  0
POINT
  5
2CE
330
2C4
100
AcDbEntity
  8
Defpoints
 62
     0
100
AcDbPoint
 10
-56.14999999999998
 20
-4.762499999999996
 30
0.0
  0
POINT
  5
2CF
330
2C4
100
AcDbEntity
  8
Defpoints
 62
     0
100
AcDbPoint
 10
-79.85763000274797
 20
-4.762500000000085
 30
0.0
  0
ENDBLK
  5
2C6
330
2C4
100
AcDbEntity
  8
0
100
AcDbBlockEnd
  0
BLOCK
  5
2D1
330
2D0
100
AcDbEntity
  8
0
100
AcDbBlockBegin
  2
*D15
 70
     1
 10
0.0
 20
0.0
 30
0.0
  3
*D15
  1
*D16
  0
LINE
  5
2D3
330
2D0
100
AcDbEntity
  8
치수문자_일반주서
 62
     0
370
    -2
100
AcDbLine
 10
44.51909357077409
 20
4.762500000000003
 30
0.0
 11
62.65624999999998
 21
4.762500000000071
 31
0.0
  0
LINE
  5
2D4
330
2D0
100
AcDbEntity
  8
치수문자_일반주서
 62
     0
370
    -2
100
AcDbLine
 10
44.43311799617999
 20
-4.760769169377014
 30
0.0
 11
62.65625000000001
 21
-4.760769169376945
 31
0.0
  0
LINE
  5
2D5
330
2D0
100
AcDbEntity
  8
치수문자_일반주서
 62
     0
370
    -2
100
AcDbLine
 10
62.65624999999999
 20
1.460500000000071
 30
0.0
 11
62.65625
 21
-1.458769169376945
 31
0.0
  0
SOLID
  5
2D6
330
2D0
100
AcDbEntity
  8
치수문자_일반주서
 62
     0
100
AcDbTrace
 10
63.20658333333333
 20
1.460500000000073
 30
0.0
 11
62.10591666666666
 21
1.460500000000069
 31
0.0
 12
62.65624999999998
 22
4.762500000000071
 32
0.0
 13
62.65624999999998
 23
4.762500000000071
 33
0.0
  0
SOLID
  5
2D7
330
2D0
100
AcDbEntity
  8
치수문자_일반주서
 62
     0
100
AcDbTrace
 10
62.10591666666667
 20
-1.458769169376947
 30
0.0
 11
63.20658333333333
 21
-1.458769169376943
 31
0.0
 12
62.65625000000001
 22
-4.760769169376945
 32
0.0
 13
62.65625000000001
 23
-4.760769169376945
 33
0.0
  0
MTEXT
  5
2D8
330
2D0
100
AcDbEntity
  8
치수문자_일반주서
 62
     0
100
AcDbMText
 10
58.28125
 20
-0.0000582705643616
 30
0.0
 40
3.5
 41
0.0
 71
     2
 72
     1
  1
\A1;{%%c9.52 [3/8]}
  7
SLDTEXTSTYLE0
 11
-3.730561024384979E-15
 21
1.0
 31
0.0
 73
     1
 44
1.0
  0
POINT
  5
2D9
330
2D0
100
AcDbEntity
  8
Defpoints
 62
     0
100
AcDbPoint
 10
44.45659357077409
 20
4.762500000000003
 30
0.0
  0
POINT
  5
2DA
330
2D0
100
AcDbEntity
  8
Defpoints
 62
     0
100
AcDbPoint
 10
44.37061799617999
 20
-4.760769169377014
 30
0.0
  0
POINT
  5
2DB
330
2D0
100
AcDbEntity
  8
Defpoints
 62
     0
100
AcDbPoint
 10
62.65625
 20
-4.760769169376945
 30
0.0
  0
ENDBLK
  5
2D2
330
2D0
100
AcDbEntity
  8
0
100
AcDbBlockEnd
  0
BLOCK
  5
2DD
330
2DC
100
AcDbEntity
  8
0
100
AcDbBlockBegin
  2
*D16
 70
     1
 10
0.0
 20
0.0
 30
0.0
  3
*D16
  1
*D17
  0
LINE
  5
2DF
330
2DC
100
AcDbEntity
  8
치수문자_일반주서
 62
     0
370
    -2
100
AcDbLine
 10
44.44999999991899
 20
4.825000000000003
 30
0.0
 11
44.44999999991899
 21
27.17922522955817
 31
0.0
  0
LINE
  5
2E0
330
2DC
100
AcDbEntity
  8
치수문자_일반주서
 62
     0
370
    -2
100
AcDbLine
 10
34.13124999991896
 20
4.106475078743685
 30
0.0
 11
34.13124999991896
 21
27.17922522955817
 31
0.0
  0
LINE
  5
2E1
330
2DC
100
AcDbEntity
  8
치수문자_일반주서
 62
     0
370
    -2
100
AcDbLine
 10
30.82924999991896
 20
27.17922522955817
 30
0.0
 11
-1.785250000081035
 21
27.17922522955817
 31
0.0
  0
LINE
  5
2E2
330
2DC
100
AcDbEntity
  8
치수문자_일반주서
 62
     0
370
    -2
100
AcDbLine
 10
44.44999999991899
 20
27.17922522955817
 30
0.0
 11
34.13124999991896
 21
27.17922522955817
 31
0.0
  0
LINE
  5
2E3
330
2DC
100
AcDbEntity
  8
치수문자_일반주서
 62
     0
370
    -2
100
AcDbLine
 10
47.75199999991899
 20
27.17922522955817
 30
0.0
 11
51.05399999991899
 21
27.17922522955817
 31
0.0
  0
SOLID
  5
2E4
330
2DC
100
AcDbEntity
  8
치수문자_일반주서
 62
     0
100
AcDbTrace
 10
47.75199999991899
 20
27.7295585628915
 30
0.0
 11
47.75199999991899
 21
26.62889189622484
 31
0.0
 12
44.44999999991899
 22
27.17922522955817
 32
0.0
 13
44.44999999991899
 23
27.17922522955817
 33
0.0
  0
SOLID
  5
2E5
330
2DC
100
AcDbEntity
  8
치수문자_일반주서
 62
     0
100
AcDbTrace
 10
30.82924999991896
 20
26.62889189622484
 30
0.0
 11
30.82924999991896
 21
27.7295585628915
 31
0.0
 12
34.13124999991896
 22
27.17922522955817
 32
0.0
 13
34.13124999991896
 23
27.17922522955817
 33
0.0
  0
MTEXT
  5
2E6
330
2DC
100
AcDbEntity
  8
치수문자_일반주서
 62
     0
100
AcDbMText
 10
12.87099999991896
 20
29.80422522955817
 30
0.0
 40
3.5
 41
0.0
 71
     5
 72
     1
  1
\A1;10.32 [13/32]
  7
SLDTEXTSTYLE0
 73
     1
 44
1.0
  0
POINT
  5
2E7
330
2DC
100
AcDbEntity
  8
Defpoints
 62
     0
100
AcDbPoint
 10
44.44999999991899
 20
4.762500000000003
 30
0.0
  0
POINT
  5
2E8
330
2DC
100
AcDbEntity
  8
Defpoints
 62
     0
100
AcDbPoint
 10
34.13124999991896
 20
4.043975078743685
 30
0.0
  0
POINT
  5
2E9
330
2DC
100
AcDbEntity
  8
Defpoints
 62
     0
100
AcDbPoint
 10
34.13124999991896
 20
27.17922522955817
 30
0.0
  0
ENDBLK
  5
2DE
330
2DC
100
AcDbEntity
  8
0
100
AcDbBlockEnd
  0
BLOCK
  5
2EB
330
2EA
100
AcDbEntity
  8
0
100
AcDbBlockBegin
  2
*D17
 70
     1
 10
0.0
 20
0.0
 30
0.0
  3
*D17
  1
*D18
  0
LINE
  5
2ED
330
2EA
100
AcDbEntity
  8
치수문자_일반주서
 62
     0
370
    -2
100
AcDbLine
 10
44.44999999991899
 20
4.825000000000003
 30
0.0
 11
44.44999999991899
 21
35.4449353540133
 31
0.0
  0
LINE
  5
2EE
330
2EA
100
AcDbEntity
  8
치수문자_일반주서
 62
     0
370
    -2
100
AcDbLine
 10
0.0
 20
4.825000000000003
 30
0.0
 11
0.0
 21
35.4449353540133
 31
0.0
  0
LINE
  5
2EF
330
2EA
100
AcDbEntity
  8
치수문자_일반주서
 62
     0
370
    -2
100
AcDbLine
 10
41.14799999991899
 20
35.4449353540133
 30
0.0
 11
3.302
 21
35.4449353540133
 31
0.0
  0
SOLID
  5
2F0
330
2EA
100
AcDbEntity
  8
치수문자_일반주서
 62
     0
100
AcDbTrace
 10
41.14799999991899
 20
34.89460202067996
 30
0.0
 11
41.14799999991899
 21
35.99526868734663
 31
0.0
 12
44.44999999991899
 22
35.4449353540133
 32
0.0
 13
44.44999999991899
 23
35.4449353540133
 33
0.0
  0
SOLID
  5
2F1
330
2EA
100
AcDbEntity
  8
치수문자_일반주서
 62
     0
100
AcDbTrace
 10
3.302
 20
35.99526868734663
 30
0.0
 11
3.302
 21
34.89460202067996
 31
0.0
 12
0.0
 22
35.4449353540133
 32
0.0
 13
0.0
 23
35.4449353540133
 33
0.0
  0
MTEXT
  5
2F2
330
2EA
100
AcDbEntity
  8
치수문자_일반주서
 62
     0
100
AcDbMText
 10
22.22499999995949
 20
38.0699353540133
 30
0.0
 40
3.5
 41
0.0
 71
     5
 72
     1
  1
\A1;44.45 [1 3/4]
  7
SLDTEXTSTYLE0
 73
     1
 44
1.0
  0
POINT
  5
2F3
330
2EA
100
AcDbEntity
  8
Defpoints
 62
     0
100
AcDbPoint
 10
44.44999999991899
 20
4.762500000000003
 30
0.0
  0
POINT
  5
2F4
330
2EA
100
AcDbEntity
  8
Defpoints
 62
     0
100
AcDbPoint
 10
0.0
 20
4.762500000000003
 30
0.0
  0
POINT
  5
2F5
330
2EA
100
AcDbEntity
  8
Defpoints
 62
     0
100
AcDbPoint
 10
0.0
 20
35.4449353540133
 30
0.0
  0
ENDBLK
  5
2EC
330
2EA
100
AcDbEntity
  8
0
100
AcDbBlockEnd
  0
BLOCK
  5
2F7
330
2F6
100
AcDbEntity
  8
0
100
AcDbBlockBegin
  2
*D18
 70
     1
 10
0.0
 20
0.0
 30
0.0
  3
*D18
  1
*D19
  0
LINE
  5
2F9
330
2F6
100
AcDbEntity
  8
치수문자_일반주서
 62
     0
370
    -2
100
AcDbLine
 10
44.44999999991899
 20
4.825000000000003
 30
0.0
 11
44.44999999991899
 21
46.48902186991121
 31
0.0
  0
LINE
  5
2FA
330
2F6
100
AcDbEntity
  8
치수문자_일반주서
 62
     0
370
    -2
100
AcDbLine
 10
-57.14999999999998
 20
3.825000000000003
 30
0.0
 11
-57.14999999999998
 21
46.48902186991121
 31
0.0
  0
LINE
  5
2FB
330
2F6
100
AcDbEntity
  8
치수문자_일반주서
 62
     0
370
    -2
100
AcDbLine
 10
41.14799999991899
 20
46.48902186991121
 30
0.0
 11
-53.84799999999998
 21
46.48902186991121
 31
0.0
  0
SOLID
  5
2FC
330
2F6
100
AcDbEntity
  8
치수문자_일반주서
 62
     0
100
AcDbTrace
 10
41.14799999991899
 20
45.93868853657788
 30
0.0
 11
41.14799999991899
 21
47.03935520324455
 31
0.0
 12
44.44999999991899
 22
46.48902186991121
 32
0.0
 13
44.44999999991899
 23
46.48902186991121
 33
0.0
  0
SOLID
  5
2FD
330
2F6
100
AcDbEntity
  8
치수문자_일반주서
 62
     0
100
AcDbTrace
 10
-53.84799999999998
 20
47.03935520324455
 30
0.0
 11
-53.84799999999998
 21
45.93868853657788
 31
0.0
 12
-57.14999999999998
 22
46.48902186991121
 32
0.0
 13
-57.14999999999998
 23
46.48902186991121
 33
0.0
  0
MTEXT
  5
2FE
330
2F6
100
AcDbEntity
  8
치수문자_일반주서
 62
     0
100
AcDbMText
 10
-6.350000000040495
 20
49.11402186991121
 30
0.0
 40
3.5
 41
0.0
 71
     5
 72
     1
  1
\A1;101.6 [4]
  7
SLDTEXTSTYLE0
 73
     1
 44
1.0
  0
POINT
  5
2FF
330
2F6
100
AcDbEntity
  8
Defpoints
 62
     0
100
AcDbPoint
 10
44.44999999991899
 20
4.762500000000003
 30
0.0
  0
POINT
  5
300
330
2F6
100
AcDbEntity
  8
Defpoints
 62
     0
100
AcDbPoint
 10
-57.14999999999998
 20
3.762500000000003
 30
0.0
  0
POINT
  5
301
330
2F6
100
AcDbEntity
  8
Defpoints
 62
     0
100
AcDbPoint
 10
-57.14999999999998
 20
46.48902186991121
 30
0.0
  0
ENDBLK
  5
2F8
330
2F6
100
AcDbEntity
  8
0
100
AcDbBlockEnd
  0
ENDSEC
  0
SECTION
  2
ENTITIES
  0
LINE
  5
27E
330
1F
100
AcDbEntity
  8
0
 62
     4
100
AcDbLine
 10
0.0
 20
4.762500000000003
 30
0.0
 11
-56.14999999999998
 21
4.762500000000003
 31
0.0
  0
LINE
  5
27F
330
1F
100
AcDbEntity
  8
0
 62
     4
100
AcDbLine
 10
-56.14999999999998
 20
-4.762499999999996
 30
0.0
 11
0.0
 21
-4.762499999999996
 31
0.0
  0
LINE
  5
280
330
1F
100
AcDbEntity
  8
0
 62
     4
100
AcDbLine
 10
-56.14999999999998
 20
4.762500000000003
 30
0.0
 11
-57.14999999999998
 21
3.762500000000003
 31
0.0
  0
LINE
  5
281
330
1F
100
AcDbEntity
  8
0
 62
     4
100
AcDbLine
 10
-57.14999999999998
 20
-3.762499999999996
 30
0.0
 11
-56.14999999999998
 21
-4.762499999999996
 31
0.0
  0
LINE
  5
282
330
1F
100
AcDbEntity
  8
0
  6
Continuous
 62
     1
370
    15
100
AcDbLine
 10
38.2705985637466
 20
-4.762499999999996
 30
0.0
 11
39.6875
 21
-4.762499999999996
 31
0.0
  0
ARC
  5
283
330
1F
100
AcDbEntity
  8
0
  6
Continuous
 62
     1
370
    15
100
AcDbCircle
 10
39.6875
 20
0.0
 30
0.0
 40
4.7625
100
AcDbArc
 50
84.27667299131993
 51
90.0
  0
ARC
  5
284
330
1F
100
AcDbEntity
  8
0
  6
Continuous
 62
     1
370
    15
100
AcDbCircle
 10
39.6875
 20
0.0
 30
0.0
 40
4.762499999999996
100
AcDbArc
 50
335.2356143750545
 51
24.76371719739495
  0
ARC
  5
285
330
1F
100
AcDbEntity
  8
0
  6
Continuous
 62
     1
370
    15
100
AcDbCircle
 10
39.6875
 20
0.0
 30
0.0
 40
4.762499999999999
100
AcDbArc
 50
270.0000000000007
 51
275.7066513835845
  0
LINE
  5
286
330
1F
100
AcDbEntity
  8
0
  6
Continuous
 62
     1
370
    15
100
AcDbLine
 10
39.6875
 20
4.762500000000003
 30
0.0
 11
38.27059856374657
 21
4.762500000000003
 31
0.0
  0
LINE
  5
287
330
1F
100
AcDbEntity
  8
0
 62
     4
100
AcDbLine
 10
0.0
 20
0.0
 30
0.0
 11
0.0
 21
-4.762499999999996
 31
0.0
  0
LINE
  5
288
330
1F
100
AcDbEntity
  8
0
  6
Continuous
 62
     1
370
    15
100
AcDbLine
 10
0.0
 20
4.762500000000003
 30
0.0
 11
0.0
 21
0.0
 31
0.0
  0
LINE
  5
289
330
1F
100
AcDbEntity
  8
0
 62
     4
100
AcDbLine
 10
-56.14999999999998
 20
0.0
 30
0.0
 11
-56.14999999999998
 21
-4.762499999999996
 31
0.0
  0
LINE
  5
28A
330
1F
100
AcDbEntity
  8
0
 62
     4
100
AcDbLine
 10
-56.14999999999998
 20
4.762500000000003
 30
0.0
 11
-56.14999999999998
 21
0.0
 31
0.0
  0
LINE
  5
28B
330
1F
100
AcDbEntity
  8
0
 62
     4
100
AcDbLine
 10
-57.14999999999998
 20
0.0
 30
0.0
 11
-57.14999999999998
 21
-3.762499999999996
 31
0.0
  0
LINE
  5
28C
330
1F
100
AcDbEntity
  8
0
 62
     4
100
AcDbLine
 10
-57.14999999999998
 20
3.762500000000003
 30
0.0
 11
-57.14999999999998
 21
0.0
 31
0.0
  0
SPLINE
  5
28D
330
1F
100
AcDbEntity
  8
0
 62
     4
100
AcDbSpline
210
0.0
220
0.0
230
1.0
 70
     8
 71
     3
 72
    20
 73
    16
 74
     0
 42
0.000000001
 43
0.00000001
 40
0.0
 40
0.0
 40
0.0
 40
0.0
 40
0.125
 40
0.125
 40
0.2500000000000001
 40
0.2500000000000001
 40
0.3750000000000001
 40
0.3750000000000001
 40
0.5000000000000001
 40
0.5000000000000001
 40
0.7500000000000002
 40
0.7500000000000002
 40
0.8750000000000001
 40
0.8750000000000001
 40
1.0
 40
1.0
 40
1.0
 40
1.0
 10
32.21114761924755
 20
-2.694008166925514
 30
0.0
 10
31.9989814205108
 20
-2.667626136554617
 30
0.0
 10
31.79021388970017
 20
-2.630082567100025
 30
0.0
 10
31.36586257488199
 20
-2.53281455267296
 30
0.0
 10
31.15208631224579
 20
-2.473106152943842
 30
0.0
 10
30.72939387913777
 20
-2.333874593343516
 30
0.0
 10
30.51988743146583
 20
-2.254382649450697
 30
0.0
 10
30.09456689324566
 20
-2.076283774788834
 30
0.0
 10
29.88113203247525
 20
-1.977928384815137
 30
0.0
 10
29.25053222244682
 20
-1.660795588888938
 30
0.0
 10
28.82229633975572
 20
-1.416225730744884
 30
0.0
 10
28.19133664158016
 20
-1.022133568883554
 30
0.0
 10
27.97785586682204
 20
-0.8852484458417891
 30
0.0
 10
27.5525972783424
 20
-0.6055054082852465
 30
0.0
 10
27.34322067411222
 20
-0.4632128496217121
 30
0.0
 10
27.13178455085941
 20
-0.3191176900391213
 30
0.0
  0
SPLINE
  5
28E
330
1F
100
AcDbEntity
  8
0
 62
     4
100
AcDbSpline
210
0.0
220
0.0
230
1.0
 70
     8
 71
     3
 72
    22
 73
    18
 74
     0
 42
0.000000001
 43
0.00000001
 40
0.0
 40
0.0
 40
0.0
 40
0.0
 40
0.125
 40
0.125
 40
0.25
 40
0.25
 40
0.375
 40
0.375
 40
0.5
 40
0.5
 40
0.625
 40
0.625
 40
0.75
 40
0.75
 40
0.875
 40
0.875
 40
1.0
 40
1.0
 40
1.0
 40
1.0
 10
31.5026501074509
 20
0.5041693076424991
 30
0.0
 10
31.31984488322888
 20
0.67672090037685
 30
0.0
 10
31.1362083280876
 20
0.848062950024584
 30
0.0
 10
30.77240498068932
 20
1.183558671599911
 30
0.0
 10
30.59258144301828
 20
1.347635030029018
 30
0.0
 10
30.2273066829965
 20
1.668289926550344
 30
0.0
 10
30.04360922506808
 20
1.824309611435019
 30
0.0
 10
29.67923219561374
 20
2.123395023315645
 30
0.0
 10
29.49961736882329
 20
2.266227280866758
 30
0.0
 10
29.1347586698792
 20
2.538605316950665
 30
0.0
 10
28.95104127523189
 20
2.667697785006155
 30
0.0
 10
28.58617027721732
 20
2.908077450535622
 30
0.0
 10
28.40655259105188
 20
3.019108742893742
 30
0.0
 10
28.04219002010089
 20
3.222995085625563
 30
0.0
 10
27.85849366969049
 20
3.315560956632474
 30
0.0
 10
27.49320877906297
 20
3.47929799603034
 30
0.0
 10
27.31337666535666
 20
3.550299729390652
 30
0.0
 10
27.13148329532569
 20
3.610449569431537
 30
0.0
  0
SPLINE
  5
28F
330
1F
100
AcDbEntity
  8
0
 62
     4
100
AcDbSpline
210
0.0
220
0.0
230
1.0
 70
     8
 71
     3
 72
    14
 73
    10
 74
     0
 42
0.000000001
 43
0.00000001
 40
0.0
 40
0.0
 40
0.0
 40
0.0
 40
0.1730986009913784
 40
0.3485795459232193
 40
0.4722613531680076
 40
0.5968048522066562
 40
0.7240405195191447
 40
0.8522155318651754
 40
1.0
 40
1.0
 40
1.0
 40
1.0
 10
31.5026501074513
 20
2.220082499583349
 30
0.0
 10
31.27792847987465
 20
2.391010941815608
 30
0.0
 10
30.82539239667605
 20
2.735220302477352
 30
0.0
 10
30.2133081402072
 20
3.118573242873119
 30
0.0
 10
29.66345476421276
 20
3.403707836754414
 30
0.0
 10
29.17762595358801
 20
3.607748055282663
 30
0.0
 10
28.68344195835456
 20
3.759067788737099
 30
0.0
 10
28.16238759769936
 20
3.865482551005329
 30
0.0
 10
27.80372981826235
 20
3.87929830518987
 30
0.0
 10
27.13178455085941
 20
3.789420632690693
 30
0.0
  0
SPLINE
  5
290
330
1F
100
AcDbEntity
  8
0
 62
     4
100
AcDbSpline
210
0.0
220
0.0
230
1.0
 70
     8
 71
     3
 72
    15
 73
    11
 74
     0
 42
0.000000001
 43
0.00000001
 40
0.0
 40
0.0
 40
0.0
 40
0.0
 40
0.0697664391868581
 40
0.2415155818706951
 40
0.3625671545535918
 40
0.4844620941724849
 40
0.6089919500392494
 40
0.734441174697069
 40
0.8666694213242708
 40
1.0
 40
1.0
 40
1.0
 40
1.0
 10
31.10621673872717
 20
-2.435983587880706
 30
0.0
 10
31.01368602748846
 20
-2.505549271040437
 30
0.0
 10
30.6933657011798
 20
-2.746369881098467
 30
0.0
 10
30.21332522177704
 20
-3.040407116706341
 30
0.0
 10
29.66344850443954
 20
-3.327238426812478
 30
0.0
 10
29.17763685901349
 20
-3.530584278037594
 30
0.0
 10
28.68340373432059
 20
-3.683206930418088
 30
0.0
 10
28.17892421618217
 20
-3.781640030263254
 30
0.0
 10
27.65910838246964
 20
-3.823741911265749
 30
0.0
 10
27.30804491505262
 20
-3.796216333086846
 30
0.0
 10
27.13178455085941
 20
-3.782396414796459
 30
0.0
  0
LINE
  5
291
330
1F
100
AcDbEntity
  8
0
 62
     4
100
AcDbLine
 10
27.13178455085941
 20
-4.191326563398768
 30
0.0
 11
27.13178455085941
 21
4.191326563398761
 31
0.0
  0
SPLINE
  5
292
330
1F
100
AcDbEntity
  8
0
 62
     4
100
AcDbSpline
210
0.0
220
0.0
230
1.0
 70
     8
 71
     3
 72
     9
 73
     5
 74
     0
 42
0.000000001
 43
0.00000001
 40
0.0
 40
0.0
 40
0.0
 40
0.0
 40
0.6789580460117591
 40
1.0
 40
1.0
 40
1.0
 40
1.0
 10
32.31796352363989
 20
2.706320749610811
 30
0.0
 10
31.96123612999378
 20
2.659455519470342
 30
0.0
 10
31.59315522908719
 20
2.608564823560428
 30
0.0
 10
31.2245533925672
 20
2.477924585255586
 30
0.0
 10
31.10621673872717
 20
2.435983587880713
 30
0.0
  0
SPLINE
  5
293
330
1F
100
AcDbEntity
  8
0
  6
Continuous
 62
     1
370
    15
100
AcDbSpline
210
0.0
220
0.0
230
1.0
 70
     8
 71
     3
 72
    10
 73
     6
 74
     0
 42
0.000000001
 43
0.00000001
 40
0.0
 40
0.0
 40
0.0
 40
0.0
 40
0.5
 40
0.5
 40
1.0
 40
1.0
 40
1.0
 40
1.0
 10
41.51530546676278
 20
-1.518444678391276
 30
0.0
 10
41.87188113787784
 20
-1.659357813001009
 30
0.0
 10
42.23015341699957
 20
-1.794786523796894
 30
0.0
 10
42.9443851352658
 20
-2.072972786197461
 30
0.0
 10
43.30040513659003
 20
-2.215464696831482
 30
0.0
 10
43.6444776169574
 20
-2.395011586845996
 30
0.0
  0
SPLINE
  5
294
330
1F
100
AcDbEntity
  8
0
  6
Continuous
 62
     1
370
    15
100
AcDbSpline
210
0.0
220
0.0
230
1.0
 70
     8
 71
     3
 72
    17
 73
    13
 74
     0
 42
0.000000001
 43
0.00000001
 40
0.0
 40
0.0
 40
0.0
 40
0.0
 40
0.1391209658516241
 40
0.2822709062728074
 40
0.4209132938460664
 40
0.5644060780459896
 40
0.6582435796584638
 40
0.7543358542251968
 40
0.8231657828887567
 40
0.8936376103721066
 40
0.9961084741031019
 40
1.0
 40
1.0
 40
1.0
 40
1.0
 10
39.6875
 20
-4.728173766144586
 30
0.0
 10
39.85540157669161
 20
-4.739864995673898
 30
0.0
 10
40.19606719762984
 20
-4.76358603537831
 30
0.0
 10
40.70475798911457
 20
-4.629609306848955
 30
0.0
 10
41.21503054845479
 20
-4.371169587390483
 30
0.0
 10
41.67232495850334
 20
-4.027594965637562
 30
0.0
 10
42.08018252872964
 20
-3.649735762785255
 30
0.0
 10
42.39892833336813
 20
-3.317058320262355
 30
0.0
 10
42.69279702878453
 20
-2.99112685294638
 30
0.0
 10
42.99259392697135
 20
-2.652925236927494
 30
0.0
 10
43.21967142460309
 20
-2.385829588454726
 30
0.0
 10
43.34094870119799
 20
-2.26366679651661
 30
0.0
 10
43.34538592439526
 20
-2.259197174593602
 30
0.0
  0
SPLINE
  5
295
330
1F
100
AcDbEntity
  8
0
  6
Continuous
 62
     1
370
    15
100
AcDbSpline
210
0.0
220
0.0
230
1.0
 70
     8
 71
     3
 72
     9
 73
     5
 74
     0
 42
0.000000001
 43
0.00000001
 40
0.0
 40
0.0
 40
0.0
 40
0.0
 40
0.2686433667500213
 40
1.0
 40
1.0
 40
1.0
 40
1.0
 10
44.00788955509336
 20
-1.993326057379399
 30
0.0
 10
43.99007905480303
 20
-2.031109596895931
 30
0.0
 10
43.92378112046069
 20
-2.17175531606491
 30
0.0
 10
43.76246051317543
 20
-2.300704064401067
 30
0.0
 10
43.64447761695743
 20
-2.395011586846003
 30
0.0
  0
SPLINE
  5
296
330
1F
100
AcDbEntity
  8
0
  6
Continuous
 62
     1
370
    15
100
AcDbSpline
210
0.0
220
0.0
230
1.0
 70
     8
 71
     3
 72
    22
 73
    18
 74
     0
 42
0.000000001
 43
0.00000001
 40
0.0
 40
0.0
 40
0.0
 40
0.0
 40
0.125
 40
0.125
 40
0.25
 40
0.25
 40
0.375
 40
0.375
 40
0.5
 40
0.5
 40
0.625
 40
0.625
 40
0.75
 40
0.75
 40
0.875
 40
0.875
 40
1.0
 40
1.0
 40
1.0
 40
1.0
 10
39.6875
 20
-4.728173766144586
 30
0.0
 10
39.45634773949286
 20
-4.695127253383767
 30
0.0
 10
39.22237200565851
 20
-4.637993081407515
 30
0.0
 10
38.75930773476568
 20
-4.478045504700951
 30
0.0
 10
38.53061660005426
 20
-4.375541493630358
 30
0.0
 10
38.06562429840983
 20
-4.126420892654536
 30
0.0
 10
37.8321936552241
 20
-3.980083211573664
 30
0.0
 10
37.37391721830127
 20
-3.651013111666586
 30
0.0
 10
37.14051963688587
 20
-3.466246521483249
 30
0.0
 10
36.67551694132544
 20
-3.063997519054752
 30
0.0
 10
36.44680944636474
 20
-2.847550989986949
 30
0.0
 10
35.98377217628465
 20
-2.386555237572189
 30
0.0
 10
35.74979540892261
 20
-2.14197918772976
 30
0.0
 10
35.28745990546483
 20
-1.635716825385423
 30
0.0
 10
35.0582606154029
 20
-1.373825445980657
 30
0.0
 10
34.59305536307485
 20
-0.8362785103454371
 30
0.0
 10
34.36093537782321
 20
-0.562101226005538
 30
0.0
 10
34.13124999999999
 20
-0.2874465901006786
 30
0.0
  0
SPLINE
  5
297
330
1F
100
AcDbEntity
  8
0
 62
     4
100
AcDbSpline
210
0.0
220
0.0
230
1.0
 70
     8
 71
     3
 72
    16
 73
    12
 74
     0
 42
0.000000001
 43
0.00000001
 40
0.0
 40
0.0
 40
0.0
 40
0.0
 40
0.2499999999999996
 40
0.2499999999999996
 40
0.3749999999999997
 40
0.3749999999999997
 40
0.4999999999999998
 40
0.4999999999999998
 40
0.7499999999999999
 40
0.7499999999999999
 40
1.0
 40
1.0
 40
1.0
 40
1.0
 10
31.5026501074513
 20
2.220082499583349
 30
0.0
 10
31.7173495399694
 20
2.113768149223723
 30
0.0
 10
31.93215384815349
 20
1.970438414499903
 30
0.0
 10
32.2614847108581
 20
1.710762022207739
 30
0.0
 10
32.37314640478283
 20
1.615929909906761
 30
0.0
 10
32.59502040315567
 20
1.415187875188742
 30
0.0
 10
32.70530593201119
 20
1.309325908131818
 30
0.0
 10
33.03528719809907
 20
0.9766456709567137
 30
0.0
 10
33.256449434703
 20
0.7319523450496064
 30
0.0
 10
33.69575505357426
 20
0.2307743308417614
 30
0.0
 10
33.91299056697062
 20
-0.0264549428325509
 30
0.0
 10
34.13125000000002
 20
-0.2874465901007
 30
0.0
  0
SPLINE
  5
298
330
1F
100
AcDbEntity
  8
0
  6
Continuous
 62
     1
370
    15
100
AcDbSpline
210
0.0
220
0.0
230
1.0
 70
     8
 71
     3
 72
    32
 73
    28
 74
     0
 42
0.000000001
 43
0.00000001
 40
0.0
 40
0.0
 40
0.0
 40
0.0
 40
0.0625
 40
0.0625
 40
0.125
 40
0.125
 40
0.1875
 40
0.1875
 40
0.25
 40
0.25
 40
0.3125
 40
0.3125
 40
0.375
 40
0.375
 40
0.4375
 40
0.4375
 40
0.5
 40
0.5
 40
0.5625
 40
0.5625
 40
0.625
 40
0.625
 40
0.6875
 40
0.6875
 40
0.75
 40
0.75
 40
0.8036390989532635
 40
0.8036390989532635
 40
0.8036390989532635
 40
0.8036390989532635
 10
41.54657194799705
 20
-1.507064609891756
 30
0.0
 10
41.35335788703804
 20
-1.396817906094995
 30
0.0
 10
41.16139582280408
 20
-1.281555065737308
 30
0.0
 10
40.77971324479986
 20
-1.043452024760647
 30
0.0
 10
40.58619324414786
 20
-0.9198083749254948
 30
0.0
 10
40.19979000662428
 20
-0.6670958336054866
 30
0.0
 10
40.00807370876825
 20
-0.5383010059889983
 30
0.0
 10
39.62616809277614
 20
-0.2782360812863303
 30
0.0
 10
39.43259864428941
 20
-0.1461934721631977
 30
0.0
 10
39.04622571301854
 20
0.1178249123259221
 30
0.0
 10
38.85474199173495
 20
0.2494919492531196
 30
0.0
 10
38.47261855070579
 20
0.5100041787919167
 30
0.0
 10
38.27900238215736
 20
0.6395188179005018
 30
0.0
 10
37.89266517757991
 20
0.8929952152763434
 30
0.0
 10
37.70140083229904
 20
1.016645901449493
 30
0.0
 10
37.31906478923221
 20
1.256045547287272
 30
0.0
 10
37.12540463060623
 20
1.372312744830644
 30
0.0
 10
36.73910857149178
 20
1.59427312305916
 30
0.0
 10
36.54805039148761
 20
1.699689600076724
 30
0.0
 10
36.16550697919706
 20
1.898156150285729
 30
0.0
 10
35.97180556255998
 20
1.991551307814866
 30
0.0
 10
35.58555606575385
 20
2.163631325647302
 30
0.0
 10
35.39469083075315
 20
2.242109872756771
 30
0.0
 10
35.01194529163206
 20
2.38320356299468
 30
0.0
 10
34.81820535100408
 20
2.445993863883423
 30
0.0
 10
34.45938429523585
 20
2.546305296246842
 30
0.0
 10
34.29543947460488
 20
2.586069104063835
 30
0.0
 10
34.13124999991896
 20
2.619177003351252
 30
0.0
  0
LINE
  5
299
330
1F
100
AcDbEntity
  8
0
  6
Continuous
 62
     1
370
    15
100
AcDbLine
 10
41.54657194799705
 20
-1.507064609891756
 30
0.0
 11
41.53635698735638
 21
-1.510782551509166
 31
0.0
  0
SPLINE
  5
29A
330
1F
100
AcDbEntity
  8
0
 62
     4
100
AcDbSpline
210
0.0
220
0.0
230
1.0
 70
     8
 71
     3
 72
    10
 73
     6
 74
     0
 42
0.000000001
 43
0.00000001
 40
0.0
 40
0.0
 40
0.0
 40
0.0
 40
0.3321013006259869
 40
0.6657056194264964
 40
1.0
 40
1.0
 40
1.0
 40
1.0
 10
34.27596639440432
 20
-2.565415235001907
 30
0.0
 10
34.05910310580725
 20
-2.616900113227025
 30
0.0
 10
33.62439505258897
 20
-2.720102879025738
 30
0.0
 10
32.97228010995332
 20
-2.752643945049726
 30
0.0
 10
32.53621922934889
 20
-2.72177244672914
 30
0.0
 10
32.21114761924755
 20
-2.694008166925514
 30
0.0
  0
SPLINE
  5
29B
330
1F
100
AcDbEntity
  8
0
 62
     4
100
AcDbSpline
210
0.0
220
0.0
230
1.0
 70
     8
 71
     3
 72
    16
 73
    12
 74
     0
 42
0.000000001
 43
0.00000001
 40
0.0
 40
0.0
 40
0.0
 40
0.0
 40
0.2499999999999999
 40
0.2499999999999999
 40
0.4999999999999999
 40
0.4999999999999999
 40
0.7499999999999998
 40
0.7499999999999998
 40
0.8749999999999999
 40
0.8749999999999999
 40
1.0
 40
1.0
 40
1.0
 40
1.0
 10
34.13125000000002
 20
-2.427243696317305
 30
0.0
 10
33.91096243385323
 20
-2.200191845012057
 30
0.0
 10
33.69424849137118
 20
-1.958818652532152
 30
0.0
 10
33.26009740025992
 20
-1.454166755103273
 30
0.0
 10
33.04101674768191
 20
-1.186658901882254
 30
0.0
 10
32.60750770722649
 20
-0.6649604510087386
 30
0.0
 10
32.39173798589923
 20
-0.4089255396173286
 30
0.0
 10
32.06039823487123
 20
-0.0407840623918858
 30
0.0
 10
31.94908940820454
 20
0.0789906717001045
 30
0.0
 10
31.72731713815409
 20
0.3031816109838843
 30
0.0
 10
31.6158969800598
 20
0.4081707884087891
 30
0.0
 10
31.5026501074509
 20
0.5041693076424991
 30
0.0
  0
SPLINE
  5
29C
330
1F
100
AcDbEntity
  8
0
  6
Continuous
 62
     1
370
    15
100
AcDbSpline
210
0.0
220
0.0
230
1.0
 70
     8
 71
     3
 72
    13
 73
     9
 74
     0
 42
0.000000001
 43
0.00000001
 40
0.0
 40
0.0
 40
0.0
 40
0.0
 40
0.2004831723535821
 40
0.4006815769677943
 40
0.5888827340740257
 40
0.777414354921366
 40
0.9654639630444771
 40
1.0
 40
1.0
 40
1.0
 40
1.0
 10
34.13124999999999
 20
-2.427243696317305
 30
0.0
 10
34.40804840947791
 20
-2.700794642415936
 30
0.0
 10
34.96125206198289
 20
-3.247507980882688
 30
0.0
 10
35.77311379324283
 20
-3.886611787037232
 30
0.0
 10
36.56875359706763
 20
-4.367984528155212
 30
0.0
 10
37.34961082523643
 20
-4.655278164193625
 30
0.0
 10
37.915934159306
 20
-4.780662007930502
 30
0.0
 10
38.22296079597194
 20
-4.753220487453312
 30
0.0
 10
38.2705985637466
 20
-4.748962704499789
 30
0.0
  0
LINE
  5
29D
330
1F
100
AcDbEntity
  8
0
  6
Continuous
 62
     1
370
    15
100
AcDbLine
 10
34.13124999999999
 20
-2.427243696317305
 30
0.0
 11
34.13125000000002
 21
-0.2874465901006928
 31
0.0
  0
SPLINE
  5
29E
330
1F
100
AcDbEntity
  8
0
  6
Continuous
 62
     1
370
    15
100
AcDbSpline
210
0.0
220
0.0
230
1.0
 70
     8
 71
     3
 72
    14
 73
    10
 74
     0
 42
0.000000001
 43
0.00000001
 40
0.0
 40
0.0
 40
0.0
 40
0.0
 40
0.1266332054448919
 40
0.2797830779096812
 40
0.4237551703151516
 40
0.5679800643346142
 40
0.7118362232116344
 40
0.855754747838292
 40
1.0
 40
1.0
 40
1.0
 40
1.0
 10
34.27596639440432
 20
2.565415235001907
 30
0.0
 10
34.50450962074936
 20
2.790543403941335
 30
0.0
 10
35.00945243632117
 20
3.287941000478163
 30
0.0
 10
35.77310452539888
 20
3.886710269655623
 30
0.0
 10
36.56876913520588
 20
4.365317276918077
 30
0.0
 10
37.34955739210756
 20
4.665916535797848
 30
0.0
 10
38.1277125243956
 20
4.787731164078814
 30
0.0
 10
38.90647469917508
 20
4.739702718380677
 30
0.0
 10
39.42696151925711
 20
4.557815229916969
 30
0.0
 10
39.6875
 20
4.46676837131831
 30
0.0
  0
SPLINE
  5
29F
330
1F
100
AcDbEntity
  8
0
  6
Continuous
 62
     1
370
    15
100
AcDbSpline
210
0.0
220
0.0
230
1.0
 70
     8
 71
     3
 72
    26
 73
    22
 74
     0
 42
0.000000001
 43
0.00000001
 40
0.0
 40
0.0
 40
0.0
 40
0.0
 40
0.0625
 40
0.0625
 40
0.1249999999999999
 40
0.1249999999999999
 40
0.1874999999999999
 40
0.1874999999999999
 40
0.2499999999999999
 40
0.2499999999999999
 40
0.3749999999999998
 40
0.3749999999999998
 40
0.4999999999999998
 40
0.4999999999999998
 40
0.6249999999999998
 40
0.6249999999999998
 40
0.7499999999999999
 40
0.7499999999999999
 40
0.8749999999999999
 40
0.8749999999999999
 40
1.0
 40
1.0
 40
1.0
 40
1.0
 10
43.9994071195876
 20
-0.6143056178715582
 30
0.0
 10
43.97152852403119
 20
-0.492832674703692
 30
0.0
 10
43.93343953817862
 20
-0.3737694091881067
 30
0.0
 10
43.84219433757323
 20
-0.1403103559562453
 30
0.0
 10
43.78889239276043
 20
-0.0252414026011962
 30
0.0
 10
43.6695038362821
 20
0.2057997019489619
 30
0.0
 10
43.60340563108508
 20
0.3217483057203623
 30
0.0
 10
43.45995135656304
 20
0.5575949443685317
 30
0.0
 10
43.38200225472337
 20
0.6783712889050904
 30
0.0
 10
43.13750590197418
 20
1.04260734288404
 30
0.0
 10
42.96047310815902
 20
1.286832702266864
 30
0.0
 10
42.58399657288612
 20
1.784041400518952
 30
0.0
 10
42.38178507788524
 20
2.039963057839444
 30
0.0
 10
41.97763708769722
 20
2.53218223601413
 30
0.0
 10
41.77031686731596
 20
2.771729208487891
 30
0.0
 10
41.35008376749829
 20
3.225204141964809
 30
0.0
 10
41.14274315171667
 20
3.434261387591427
 30
0.0
 10
40.72523862932121
 20
3.814069042545384
 30
0.0
 10
40.51442064557682
 20
3.983202448738176
 30
0.0
 10
40.10034773120032
 20
4.265229199740652
 30
0.0
 10
39.89473927299122
 20
4.381011194307654
 30
0.0
 10
39.6875
 20
4.46676837131831
 30
0.0
  0
SPLINE
  5
2A0
330
1F
100
AcDbEntity
  8
0
  6
Continuous
 62
     1
370
    15
100
AcDbSpline
210
0.0
220
0.0
230
1.0
 70
    24
 71
     3
 72
    16
 73
    12
 74
     0
 42
0.000000001
 43
0.00000001
 40
0.0
 40
0.0
 40
0.0
 40
0.0
 40
0.2499999999999991
 40
0.2499999999999991
 40
0.3750000000000004
 40
0.3750000000000004
 40
0.5000000000000017
 40
0.5000000000000017
 40
0.7500000000000008
 40
0.7500000000000008
 40
1.0
 40
1.0
 40
1.0
 40
1.0
 10
43.99940711958777
 20
-0.6143056178717217
 30
0.0
 10
43.80964640738412
 20
-0.6833728687470142
 30
0.0
 10
43.59659646365691
 20
-0.760916706675566
 30
0.0
 10
43.27203356070376
 20
-0.8790479424975288
 30
0.0
 10
43.16160296067818
 20
-0.9192413938590107
 30
0.0
 10
42.94421307324581
 20
-0.9983648421148885
 30
0.0
 10
42.83640636062742
 20
-1.037603276561775
 30
0.0
 10
42.51540407510902
 20
-1.154438553621894
 30
0.0
 10
42.30372784621647
 20
-1.231482400240793
 30
0.0
 10
41.90799766135001
 20
-1.375516408332842
 30
0.0
 10
41.71938615357323
 20
-1.444165383003664
 30
0.0
 10
41.54657194799705
 20
-1.507064609891763
 30
0.0
  0
SPLINE
  5
2A1
330
1F
100
AcDbEntity
  8
0
  6
Continuous
 62
     1
370
    15
100
AcDbSpline
210
0.0
220
0.0
230
1.0
 70
     8
 71
     3
 72
    36
 73
    32
 74
     0
 42
0.000000001
 43
0.00000001
 40
0.0
 40
0.0
 40
0.0
 40
0.0
 40
0.0052524116273995
 40
0.0520844802854692
 40
0.0992700287288932
 40
0.1446259275663626
 40
0.1903291862803303
 40
0.2372306021963166
 40
0.2846023163763297
 40
0.3153290708041855
 40
0.3462149064713387
 40
0.3776552200627235
 40
0.4093267402726671
 40
0.4544900658395518
 40
0.4775491046370393
 40
0.5007730217325626
 40
0.5340985778788235
 40
0.5682172726593377
 40
0.5943910219067602
 40
0.6212615076711384
 40
0.6474680138417126
 40
0.6746263522118634
 40
0.6981477456578369
 40
0.7222933357675924
 40
0.7539697648569325
 40
0.7865443014947908
 40
0.8127124821386575
 40
0.8390920805481867
 40
0.8928883121874507
 40
0.9461870319380453
 40
1.0
 40
1.0
 40
1.0
 40
1.0
 10
40.16237087089308
 20
4.737095924944001
 30
0.0
 10
40.1720198558379
 20
4.736674699585137
 30
0.0
 10
40.26770206846419
 20
4.732497703291656
 30
0.0
 10
40.45027820759259
 20
4.692291768231527
 30
0.0
 10
40.70630953725856
 20
4.614450824233991
 30
0.0
 10
40.9597038370888
 20
4.501049061573916
 30
0.0
 10
41.21218980364654
 20
4.357166665571512
 30
0.0
 10
41.47044572449445
 20
4.179182083031762
 30
0.0
 10
41.70226479931637
 20
3.99283302381
 30
0.0
 10
41.90510110861629
 20
3.812006859944304
 30
0.0
 10
42.07879801298023
 20
3.646013271883042
 30
0.0
 10
42.25462083834731
 20
3.46742538658274
 30
0.0
 10
42.45866795039814
 20
3.250817048730532
 30
0.0
 10
42.64842939970674
 20
3.040720295535316
 30
0.0
 10
42.82227090866206
 20
2.844371683609708
 30
0.0
 10
42.97345470176145
 20
2.67252883102492
 30
0.0
 10
43.14480322200092
 20
2.478221513724243
 30
0.0
 10
43.31857906704144
 20
2.285619552874344
 30
0.0
 10
43.47462640880138
 20
2.121571585190466
 30
0.0
 10
43.60896911733414
 20
1.990796146613263
 30
0.0
 10
43.73305602959715
 20
1.883658810230521
 30
0.0
 10
43.83616491762928
 20
1.810628000896159
 30
0.0
 10
43.91825416920295
 20
1.76941963419646
 30
0.0
 10
43.98545984996801
 20
1.754587055768916
 30
0.0
 10
44.03399302729423
 20
1.771692243247607
 30
0.0
 10
44.05448839956799
 20
1.819578935154382
 30
0.0
 10
44.05162793501694
 20
1.882443960138701
 30
0.0
 10
44.02601679178801
 20
1.974615186822405
 30
0.0
 10
43.95562086880045
 20
2.105159362126223
 30
0.0
 10
43.82456073692791
 20
2.263645501519242
 30
0.0
 10
43.70469714721403
 20
2.351082961268418
 30
0.0
 10
43.64447761695743
 20
2.395011586846003
 30
0.0
  0
LINE
  5
2A2
330
1F
100
AcDbEntity
  8
0
  6
Continuous
 62
     1
370
    15
100
AcDbLine
 10
43.34973408678843
 20
2.254133895040894
 30
0.0
 11
43.6444776169574
 21
2.395011586845996
 31
0.0
  0
ARC
  5
2A3
330
1F
100
AcDbEntity
  8
0
  6
Continuous
 62
     1
370
    15
100
AcDbCircle
 10
40.67055515365058
 20
-0.0709767557051464
 30
0.0
 40
3.774301619388245
100
AcDbArc
 50
321.9933972812118
 51
354.0919863613187
  0
LINE
  5
2A4
330
1F
100
AcDbEntity
  8
0
  6
Continuous
 62
     1
370
    15
100
AcDbLine
 10
43.9994071195876
 20
-0.6143056178715653
 30
0.0
 11
44.42480930719634
 21
-0.459471883990247
 31
0.0
  0
LINE
  5
2A5
330
1F
100
AcDbEntity
  8
중심선
 62
     1
100
AcDbLine
 10
-60.14999999999998
 20
-0.0000000000000071
 30
0.0
 11
47.44999999999999
 21
-0.0000000000000071
 31
0.0
  0
CIRCLE
  5
2A6
330
1F
100
AcDbEntity
  8
해칭선
100
AcDbCircle
 10
0.0
 20
0.0
 30
0.0
 40
3.000000000000001
  0
INSERT
  5
2A7
330
1F
100
AcDbEntity
  8
0
  6
Continuous
 62
     7
100
AcDbBlockReference
 66
     1
  2
블럭10
 10
-10.76578629968142
 20
-52.04717430164393
 30
0.0
  0
ATTRIB
  5
2A8
330
2A7
100
AcDbEntity
  8
FORMAT
 62
     2
100
AcDbText
 10
-20.90742231181807
 20
-49.97180738881174
 30
0.0
 40
4.233333333333333
  1
EM093024 [ 4 FLUTE ]
 41
0.75
  7
SLDTEXTSTYLE0
 11
-20.90742231181807
 21
-52.08847405547841
 31
0.0
100
AcDbAttribute
  2
AUTOATTR0
 70
     0
 74
     1
  0
SEQEND
  5
2A9
330
2A7
100
AcDbEntity
  8
0
  6
Continuous
 62
     7
  0
HATCH
  5
2AA
330
1F
100
AcDbEntity
  8
중심선
100
AcDbHatch
 10
0.0
 20
0.0
 30
0.0
210
0.0
220
0.0
230
1.0
  2
SOLID
 70
     1
 71
     0
 91
        1
 92
        0
 93
        4
 72
     1
 10
-5.050876995300598
 20
-35.8
 11
-8.497152239137876
 21
-35.8
 72
     1
 10
-8.497152239137847
 20
-35.8
 11
-10.62538209834187
 21
-38.33632558057259
 72
     1
 10
-10.6253820983419
 20
-38.33632558057259
 11
-7.179073769391479
 21
-38.3362861512701
 72
     1
 10
-7.179073769391437
 20
-38.3362861512701
 11
-5.050876995300555
 21
-35.8
 97
        0
 75
     0
 76
     1
 98
        1
 10
19.44999999999999
 20
0.0
  0
HATCH
  5
2AB
330
1F
100
AcDbEntity
  8
중심선
100
AcDbHatch
 10
0.0
 20
0.0
 30
0.0
210
0.0
220
0.0
230
1.0
  2
SOLID
 70
     1
 71
     0
 91
        1
 92
        0
 93
        4
 72
     1
 10
-0.0381130042646305
 20
-35.8
 11
-3.484388248101908
 21
-35.8
 72
     1
 10
-3.484388248101908
 20
-35.8
 11
-8.015526256459296
 21
-41.20000000000002
 72
     1
 10
-8.015526256459282
 20
-41.20000000000002
 11
-4.569251012622004
 21
-41.20000000000002
 72
     1
 10
-4.569251012622033
 20
-41.20000000000002
 11
-0.0381130042646447
 21
-35.8
 97
        0
 75
     0
 76
     1
 98
        1
 10
19.44999999999999
 20
0.0
  0
HATCH
  5
2AC
330
1F
100
AcDbEntity
  8
중심선
100
AcDbHatch
 10
0.0
 20
0.0
 30
0.0
210
0.0
220
0.0
230
1.0
  2
SOLID
 70
     1
 71
     0
 91
        1
 92
        0
 93
        4
 72
     1
 10
4.97465098677128
 20
-35.80000000000003
 11
1.528375742934159
 21
-35.8
 72
     1
 10
1.528375742934145
 20
-35.8
 11
-5.520061158955102
 21
-44.20000000000002
 72
     1
 10
-5.520061158955116
 20
-44.20000000000002
 11
-2.073785915117838
 21
-44.20000000000002
 72
     1
 10
-2.07378591511781
 20
-44.20000000000002
 11
4.97465098677128
 21
-35.80000000000003
 97
        0
 75
     0
 76
     1
 98
        1
 10
19.44999999999999
 20
0.0
  0
HATCH
  5
2AD
330
1F
100
AcDbEntity
  8
중심선
100
AcDbHatch
 10
0.0
 20
0.0
 30
0.0
210
0.0
220
0.0
230
1.0
  2
SOLID
 70
     1
 71
     0
 91
        1
 92
        0
 93
        6
 72
     3
 10
9.774541417783468
 20
-40.00000000005127
 11
3.960054785062283
 21
1.540882976769353E-10
 40
0.3939339440162628
 50
17.09539180608447
 51
320.0019657685085
 73
     0
 72
     1
 10
11.45754107348407
 20
-38.5878940046383
 11
13.76284294718511
 21
-36.65356729459038
 72
     3
 10
9.774541417730632
 20
-40.00000000000015
 11
6.600054785286829
 21
-1.278976924368180E-13
 40
0.636358354079598
 50
39.99873849337408
 51
368.4976242363724
 73
     1
 72
     1
 10
16.19987390963121
 20
-39.03999999993002
 11
8.454608724566526
 21
-39.03999999992999
 72
     1
 10
8.454608724566526
 20
-39.03999999992999
 11
8.454583680120592
 21
-40.95999999992991
 72
     1
 10
8.454583680120606
 20
-40.95999999992991
 11
12.89596344959264
 21
-40.95999999992988
 97
        0
 75
     0
 76
     1
 98
        1
 10
19.44999999999999
 20
0.0
  0
DIMENSION
  5
2AE
330
1F
100
AcDbEntity
  8
치수문자_일반주서
100
AcDbDimension
  2
*D14
 10
-79.85763000274797
 20
-4.762500000000085
 30
0.0
 11
-79.85763000274798
 21
0.0
 31
0.0
 70
   160
  1
%%c<>
 71
     2
 42
9.524999999999999
 52
-270.0
  3
SLDDIMSTYLE0
100
AcDbAlignedDimension
 13
-56.14999999999998
 23
4.762500000000003
 33
0.0
 14
-56.14999999999998
 24
-4.762499999999996
 34
0.0
 50
90.0000000000002
100
AcDbRotatedDimension
1001
ACAD
1000
DSTYLE
1002
{
1070
   171
1070
     6
1070
   273
1070
     7
1002
}
  0
DIMENSION
  5
2AF
330
1F
100
AcDbEntity
  8
치수문자_일반주서
100
AcDbDimension
  2
*D15
 10
62.65625000000001
 20
-4.760769169376945
 30
0.0
 11
62.65625
 21
-0.0000582705643453
 31
0.0
 70
   160
  1
{%%c<>[]}
 71
     2
 42
9.523269169377016
 52
-270.0
  3
SLDDIMSTYLE0
100
AcDbAlignedDimension
 13
44.45659357077409
 23
4.762500000000003
 33
0.0
 14
44.37061799617999
 24
-4.760769169377014
 34
0.0
 50
90.0000000000002
100
AcDbRotatedDimension
1001
ACAD
1000
DSTYLE
1002
{
1070
   283
1070
     1
1070
   170
1070
     1
1070
   171
1070
     6
1070
   273
1070
     7
1002
}
  0
INSERT
  5
2B0
330
1F
100
AcDbEntity
  8
해칭선
100
AcDbBlockReference
  2
SW_DOWELSYMBOL_0
 10
0.0
 20
0.0
 30
0.0
  0
LINE
  5
2B2
330
1F
100
AcDbEntity
  8
0
  6
Continuous
 62
     1
370
    15
100
AcDbLine
 10
36.64199999991899
 20
4.759999999999998
 30
0.0
 11
39.6875
 21
4.762500000000003
 31
0.0
  0
LINE
  5
2B3
330
1F
100
AcDbEntity
  8
0
  6
Continuous
 62
     1
370
    15
100
AcDbLine
 10
36.64199999991899
 20
-4.760000000000005
 30
0.0
 11
39.68750000000006
 21
-4.762499999999996
 31
0.0
  0
ARC
  5
2B4
330
1F
100
AcDbEntity
  8
0
  6
Continuous
 62
     1
370
    15
100
AcDbCircle
 10
39.68999999991894
 20
-0.0000000000000071
 30
0.0
 40
4.76
100
AcDbArc
 50
270.0000000000007
 51
89.9999999999993
  0
ARC
  5
2B5
330
1F
100
AcDbEntity
  8
0
  6
Continuous
 62
     1
370
    15
100
AcDbCircle
 10
36.64199999991899
 20
0.0
 30
0.0
 40
4.76
100
AcDbArc
 50
238.165430248343
 51
269.9999999999829
  0
ARC
  5
2B6
330
1F
100
AcDbEntity
  8
0
  6
Continuous
 62
     1
370
    15
100
AcDbCircle
 10
36.64199999991899
 20
0.0
 30
0.0
 40
4.76
100
AcDbArc
 50
90.00000000001711
 51
121.834569751657
  0
LINE
  5
2B7
330
1F
100
AcDbEntity
  8
0
 62
     4
100
AcDbLine
 10
34.13124999991896
 20
4.043975078743685
 30
0.0
 11
0.0
 21
4.762500000000003
 31
0.0
  0
LINE
  5
2B8
330
1F
100
AcDbEntity
  8
0
 62
     4
100
AcDbLine
 10
0.0
 20
-4.762499999999996
 30
0.0
 11
34.13124999991896
 21
-4.043975078743692
 31
0.0
  0
LINE
  5
2B9
330
1F
100
AcDbEntity
  8
0
  6
Continuous
 62
     1
370
    15
100
AcDbLine
 10
36.64199999991899
 20
-4.759999999999998
 30
0.0
 11
36.64199999991899
 21
4.759999999999998
 31
0.0
  0
DIMENSION
  5
2BA
330
1F
100
AcDbEntity
  8
치수문자_일반주서
100
AcDbDimension
  2
*D16
 10
34.13124999991896
 20
27.17922522955817
 30
0.0
 11
12.87099999991896
 21
29.80422522955817
 31
0.0
 70
    32
 71
     5
 42
10.31875000000002
  3
SLDDIMSTYLE0
100
AcDbAlignedDimension
 13
44.44999999991899
 23
4.762500000000003
 33
0.0
 14
34.13124999991896
 24
4.043975078743685
 34
0.0
100
AcDbRotatedDimension
1001
ACAD
1000
DSTYLE
1002
{
1070
   171
1070
     6
1070
   273
1070
     7
1002
}
  0
DIMENSION
  5
2BD
330
1F
100
AcDbEntity
  8
치수문자_일반주서
100
AcDbDimension
  2
*D17
 10
0.0
 20
35.4449353540133
 30
0.0
 11
22.22499999995949
 21
38.0699353540133
 31
0.0
 70
    32
 71
     5
 42
44.44999999991899
  3
SLDDIMSTYLE0
100
AcDbAlignedDimension
 13
44.44999999991899
 23
4.762500000000003
 33
0.0
 14
0.0
 24
4.762500000000003
 34
0.0
100
AcDbRotatedDimension
1001
ACAD
1000
DSTYLE
1002
{
1070
   171
1070
     6
1070
   273
1070
     7
1002
}
  0
DIMENSION
  5
2C0
330
1F
100
AcDbEntity
  8
치수문자_일반주서
100
AcDbDimension
  2
*D18
 10
-57.14999999999998
 20
46.48902186991121
 30
0.0
 11
-6.350000000040495
 21
49.11402186991121
 31
0.0
 70
    32
 71
     5
 42
101.599999999919
  3
SLDDIMSTYLE0
100
AcDbAlignedDimension
 13
44.44999999991899
 23
4.762500000000003
 33
0.0
 14
-57.14999999999998
 24
3.762500000000003
 34
0.0
100
AcDbRotatedDimension
1001
ACAD
1000
DSTYLE
1002
{
1070
   171
1070
     6
1070
   273
1070
     7
1002
}
  0
LINE
  5
2C1
330
1F
100
AcDbEntity
  8
0
 62
     4
100
AcDbLine
 10
-0.0000000000810019
 20
-4.762500000001701
 30
0.0
 11
-0.0000000000810019
 21
4.762500000001708
 31
0.0
  0
LINE
  5
2C2
330
1F
100
AcDbEntity
  8
0
100
AcDbLine
 10
34.13124999991896
 20
-4.043975078743699
 30
0.0
 11
34.13124999991896
 21
4.043975078743685
 31
0.0
  0
LINE
  5
2C3
330
1F
100
AcDbEntity
  8
0
 62
     4
100
AcDbLine
 10
34.13124999991896
 20
-4.043975078743671
 30
0.0
 11
34.13124999991896
 21
4.043975078743667
 31
0.0
  0
SPLINE
  5
302
330
1F
100
AcDbEntity
  8
0
 62
     4
100
AcDbSpline
210
0.0
220
0.0
230
1.0
 70
  1064
 71
     3
 72
     9
 73
     5
 74
     3
 42
0.000000001
 43
0.0000000001
 44
0.0
 40
0.0
 40
0.0
 40
0.0
 40
0.0
 40
0.626137873219527
 40
1.821420543704944
 40
1.821420543704944
 40
1.821420543704944
 40
1.821420543704944
 10
34.13124999991896
 20
2.619177003351252
 30
0.0
 10
33.92568494515694
 20
2.658693476938463
 30
0.0
 10
33.32770097097859
 20
2.77364598162633
 30
0.0
 10
32.71804320892906
 20
2.732996453981072
 30
0.0
 10
32.31796352363989
 20
2.706320749610811
 30
0.0
 11
34.13124999991896
 21
2.619177003351252
 31
0.0
 11
33.51317530520654
 21
2.719338413265561
 31
0.0
 11
32.31796352363989
 21
2.706320749610811
 31
0.0
  0
ENDSEC
  0
SECTION
  2
OBJECTS
  0
DICTIONARY
  5
C
330
0
100
AcDbDictionary
281
     1
  3
ACAD_DETAILVIEWSTYLE
350
16E
  3
ACAD_GROUP
350
D
  3
ACAD_IMAGE_VARS
350
112
  3
ACAD_LAYOUT
350
1A
  3
ACAD_MLINESTYLE
350
17
  3
ACAD_PLOTSETTINGS
350
19
  3
ACAD_PLOTSTYLENAME
350
E
  3
ACAD_SCALELIST
350
47
  3
ACAD_SECTIONVIEWSTYLE
350
16F
  3
AcDbVariableDictionary
350
169
  3
APPDATA
350
110
  3
DWGPROPS
350
32F
  0
DICTIONARY
  5
16E
102
{ACAD_REACTORS
330
C
102
}
330
C
100
AcDbDictionary
281
     1
  0
DICTIONARY
  5
D
102
{ACAD_REACTORS
330
C
102
}
330
C
100
AcDbDictionary
281
     1
  0
RASTERVARIABLES
  5
112
102
{ACAD_REACTORS
330
C
102
}
330
C
100
AcDbRasterVariables
 90
        0
 70
     1
 71
     1
 72
     1
  0
DICTIONARY
  5
1A
102
{ACAD_REACTORS
330
C
102
}
330
C
100
AcDbDictionary
281
     1
  3
Layout1
350
1E
  3
Layout2
350
26
  3
Model
350
22
  0
DICTIONARY
  5
17
102
{ACAD_REACTORS
330
C
102
}
330
C
100
AcDbDictionary
281
     1
  3
Standard
350
18
  0
DICTIONARY
  5
19
102
{ACAD_REACTORS
330
C
102
}
330
C
100
AcDbDictionary
281
     1
  0
ACDBDICTIONARYWDFLT
  5
E
102
{ACAD_REACTORS
330
C
102
}
330
C
100
AcDbDictionary
281
     1
  3
Normal
350
F
100
AcDbDictionaryWithDefault
340
F
  0
DICTIONARY
  5
47
102
{ACAD_REACTORS
330
C
102
}
330
C
100
AcDbDictionary
281
     1
  3
A0
350
48
  3
A1
350
49
  3
A2
350
4A
  3
A3
350
4B
  3
A4
350
4C
  3
A5
350
4D
  3
A6
350
4E
  3
A7
350
4F
  3
A8
350
50
  3
A9
350
51
  3
B0
350
52
  3
B1
350
53
  3
B2
350
54
  3
B3
350
55
  3
B4
350
56
  3
B5
350
57
  3
B6
350
58
  3
B7
350
59
  3
B8
350
5A
  3
B9
350
5B
  3
C0
350
5C
  3
C1
350
5D
  3
C2
350
5E
  3
C3
350
5F
  3
C4
350
60
  3
C5
350
61
  3
C6
350
62
  3
C7
350
63
  3
C8
350
64
  3
C9
350
65
  3
D0
350
66
  3
D1
350
67
  3
D2
350
68
  0
DICTIONARY
  5
16F
102
{ACAD_REACTORS
330
C
102
}
330
C
100
AcDbDictionary
281
     1
  0
DICTIONARY
  5
169
102
{ACAD_REACTORS
330
C
102
}
330
C
100
AcDbDictionary
281
     1
  0
DICTIONARY
  5
110
102
{ACAD_REACTORS
330
C
102
}
330
C
100
AcDbDictionary
281
     1
  0
XRECORD
  5
32F
102
{ACAD_REACTORS
330
C
102
}
330
C
100
AcDbXrecord
280
     1
  1
DWGPROPS COOKIE
  2

  3

  4

  6

  7

  8
12015048
  9

300
=
301
=
302
=
303
=
304
=
305
=
306
=
307
=
308
=
309
=
 40
0.0
 41
2458271.094993021
 42
2458297.184626991
  1

 90
        0
  0
LAYOUT
  5
1E
102
{ACAD_REACTORS
330
1A
102
}
330
1A
100
AcDbPlotSettings
  1

  2
none_device
  4

  6

 40
0.0
 41
0.0
 42
0.0
 43
0.0
 44
0.0
 45
0.0
 46
0.0
 47
0.0
 48
0.0
 49
0.0
140
0.0
141
0.0
142
1.0
143
1.0
 70
   688
 72
     1
 73
     0
 74
     5
  7

 75
    16
147
1.0
148
0.0
149
0.0
100
AcDbLayout
  1
Layout1
 70
     1
 71
     1
 10
0.0
 20
0.0
 11
420.0
 21
297.0
 12
0.0
 22
0.0
 32
0.0
 14
1.000000000000000E+20
 24
1.000000000000000E+20
 34
1.000000000000000E+20
 15
-1.000000000000000E+20
 25
-1.000000000000000E+20
 35
-1.000000000000000E+20
146
0.0
 13
0.0
 23
0.0
 33
0.0
 16
1.0
 26
0.0
 36
0.0
 17
0.0
 27
1.0
 37
0.0
 76
     0
330
1B
  0
LAYOUT
  5
26
102
{ACAD_REACTORS
330
1A
102
}
330
1A
100
AcDbPlotSettings
  1

  2
none_device
  4

  6

 40
0.0
 41
0.0
 42
0.0
 43
0.0
 44
0.0
 45
0.0
 46
0.0
 47
0.0
 48
0.0
 49
0.0
140
0.0
141
0.0
142
1.0
143
1.0
 70
   688
 72
     1
 73
     0
 74
     5
  7

 75
    16
147
1.0
148
0.0
149
0.0
100
AcDbLayout
  1
Layout2
 70
     1
 71
     2
 10
0.0
 20
0.0
 11
0.0
 21
0.0
 12
0.0
 22
0.0
 32
0.0
 14
0.0
 24
0.0
 34
0.0
 15
0.0
 25
0.0
 35
0.0
146
0.0
 13
0.0
 23
0.0
 33
0.0
 16
1.0
 26
0.0
 36
0.0
 17
0.0
 27
1.0
 37
0.0
 76
     0
330
23
  0
LAYOUT
  5
22
102
{ACAD_REACTORS
330
1A
102
}
330
1A
100
AcDbPlotSettings
  1

  2
none_device
  4
ANSI_A_(11.00_x_8.50_Inches)
  6

 40
6.35
 41
19.05
 42
6.35000508
 43
19.05000254
 44
279.4
 45
215.9
 46
177.108404497123
 47
129.9960533833568
 48
0.0
 49
0.0
140
0.0
141
0.0
142
0.0785590939328237
143
1.0
 70
  1696
 72
     0
 73
     0
 74
     0
  7

 75
     0
147
0.0235690232323232
148
0.0
149
0.0
100
AcDbLayout
  1
Model
 70
     1
 71
     0
 10
0.0
 20
0.0
 11
420.0
 21
297.0
 12
0.0
 22
0.0
 32
0.0
 14
-84.23263000274802
 24
-49.97180738881174
 34
0.0
 15
63.20658333333334
 25
50.8640218699112
 35
0.0
146
0.0
 13
0.0
 23
0.0
 33
0.0
 16
1.0
 26
0.0
 36
0.0
 17
0.0
 27
1.0
 37
0.0
 76
     0
330
1F
331
29
  0
MLINESTYLE
  5
18
102
{ACAD_REACTORS
330
17
102
}
330
17
100
AcDbMlineStyle
  2
Standard
 70
     0
  3

 62
   256
 51
90.0
 52
90.0
 71
     2
 49
0.5
 62
   256
  6
BYLAYER
 49
-0.5
 62
   256
  6
BYLAYER
  0
ACDBPLACEHOLDER
  5
F
102
{ACAD_REACTORS
330
E
102
}
330
E
  0
SCALE
  5
48
102
{ACAD_REACTORS
330
47
102
}
330
47
100
AcDbScale
 70
     0
300
1:1
140
1.0
141
1.0
290
     1
  0
SCALE
  5
49
102
{ACAD_REACTORS
330
47
102
}
330
47
100
AcDbScale
 70
     0
300
1:2
140
1.0
141
2.0
290
     0
  0
SCALE
  5
4A
102
{ACAD_REACTORS
330
47
102
}
330
47
100
AcDbScale
 70
     0
300
1:4
140
1.0
141
4.0
290
     0
  0
SCALE
  5
4B
102
{ACAD_REACTORS
330
47
102
}
330
47
100
AcDbScale
 70
     0
300
1:5
140
1.0
141
5.0
290
     0
  0
SCALE
  5
4C
102
{ACAD_REACTORS
330
47
102
}
330
47
100
AcDbScale
 70
     0
300
1:8
140
1.0
141
8.0
290
     0
  0
SCALE
  5
4D
102
{ACAD_REACTORS
330
47
102
}
330
47
100
AcDbScale
 70
     0
300
1:10
140
1.0
141
10.0
290
     0
  0
SCALE
  5
4E
102
{ACAD_REACTORS
330
47
102
}
330
47
100
AcDbScale
 70
     0
300
1:16
140
1.0
141
16.0
290
     0
  0
SCALE
  5
4F
102
{ACAD_REACTORS
330
47
102
}
330
47
100
AcDbScale
 70
     0
300
1:20
140
1.0
141
20.0
290
     0
  0
SCALE
  5
50
102
{ACAD_REACTORS
330
47
102
}
330
47
100
AcDbScale
 70
     0
300
1:30
140
1.0
141
30.0
290
     0
  0
SCALE
  5
51
102
{ACAD_REACTORS
330
47
102
}
330
47
100
AcDbScale
 70
     0
300
1:40
140
1.0
141
40.0
290
     0
  0
SCALE
  5
52
102
{ACAD_REACTORS
330
47
102
}
330
47
100
AcDbScale
 70
     0
300
1:50
140
1.0
141
50.0
290
     0
  0
SCALE
  5
53
102
{ACAD_REACTORS
330
47
102
}
330
47
100
AcDbScale
 70
     0
300
1:100
140
1.0
141
100.0
290
     0
  0
SCALE
  5
54
102
{ACAD_REACTORS
330
47
102
}
330
47
100
AcDbScale
 70
     0
300
2:1
140
2.0
141
1.0
290
     0
  0
SCALE
  5
55
102
{ACAD_REACTORS
330
47
102
}
330
47
100
AcDbScale
 70
     0
300
4:1
140
4.0
141
1.0
290
     0
  0
SCALE
  5
56
102
{ACAD_REACTORS
330
47
102
}
330
47
100
AcDbScale
 70
     0
300
8:1
140
8.0
141
1.0
290
     0
  0
SCALE
  5
57
102
{ACAD_REACTORS
330
47
102
}
330
47
100
AcDbScale
 70
     0
300
10:1
140
10.0
141
1.0
290
     0
  0
SCALE
  5
58
102
{ACAD_REACTORS
330
47
102
}
330
47
100
AcDbScale
 70
     0
300
100:1
140
100.0
141
1.0
290
     0
  0
SCALE
  5
59
102
{ACAD_REACTORS
330
47
102
}
330
47
100
AcDbScale
 70
     0
300
1/128" = 1'-0"
140
0.0078125
141
12.0
290
     0
  0
SCALE
  5
5A
102
{ACAD_REACTORS
330
47
102
}
330
47
100
AcDbScale
 70
     0
300
1/64" = 1'-0"
140
0.015625
141
12.0
290
     0
  0
SCALE
  5
5B
102
{ACAD_REACTORS
330
47
102
}
330
47
100
AcDbScale
 70
     0
300
1/32" = 1'-0"
140
0.03125
141
12.0
290
     0
  0
SCALE
  5
5C
102
{ACAD_REACTORS
330
47
102
}
330
47
100
AcDbScale
 70
     0
300
1/16" = 1'-0"
140
0.0625
141
12.0
290
     0
  0
SCALE
  5
5D
102
{ACAD_REACTORS
330
47
102
}
330
47
100
AcDbScale
 70
     0
300
3/32" = 1'-0"
140
0.09375
141
12.0
290
     0
  0
SCALE
  5
5E
102
{ACAD_REACTORS
330
47
102
}
330
47
100
AcDbScale
 70
     0
300
1/8" = 1'-0"
140
0.125
141
12.0
290
     0
  0
SCALE
  5
5F
102
{ACAD_REACTORS
330
47
102
}
330
47
100
AcDbScale
 70
     0
300
3/16" = 1'-0"
140
0.1875
141
12.0
290
     0
  0
SCALE
  5
60
102
{ACAD_REACTORS
330
47
102
}
330
47
100
AcDbScale
 70
     0
300
1/4" = 1'-0"
140
0.25
141
12.0
290
     0
  0
SCALE
  5
61
102
{ACAD_REACTORS
330
47
102
}
330
47
100
AcDbScale
 70
     0
300
3/8" = 1'-0"
140
0.375
141
12.0
290
     0
  0
SCALE
  5
62
102
{ACAD_REACTORS
330
47
102
}
330
47
100
AcDbScale
 70
     0
300
1/2" = 1'-0"
140
0.5
141
12.0
290
     0
  0
SCALE
  5
63
102
{ACAD_REACTORS
330
47
102
}
330
47
100
AcDbScale
 70
     0
300
3/4" = 1'-0"
140
0.75
141
12.0
290
     0
  0
SCALE
  5
64
102
{ACAD_REACTORS
330
47
102
}
330
47
100
AcDbScale
 70
     0
300
1" = 1'-0"
140
1.0
141
12.0
290
     0
  0
SCALE
  5
65
102
{ACAD_REACTORS
330
47
102
}
330
47
100
AcDbScale
 70
     0
300
1-1/2" = 1'-0"
140
1.5
141
12.0
290
     0
  0
SCALE
  5
66
102
{ACAD_REACTORS
330
47
102
}
330
47
100
AcDbScale
 70
     0
300
3" = 1'-0"
140
3.0
141
12.0
290
     0
  0
SCALE
  5
67
102
{ACAD_REACTORS
330
47
102
}
330
47
100
AcDbScale
 70
     0
300
6" = 1'-0"
140
6.0
141
12.0
290
     0
  0
SCALE
  5
68
102
{ACAD_REACTORS
330
47
102
}
330
47
100
AcDbScale
 70
     0
300
1'-0" = 1'-0"
140
12.0
141
12.0
290
     0
  0
ENDSEC
  0
EOF
