  0
SECTION
  2
HEADER
  9
$ACADVER
  1
AC1015
  9
$ACADMAINTVER
 70
     6
  9
$DWGCODEPAGE
  3
ANSI_949
  9
$INSBASE
 10
0.0
 20
0.0
 30
0.0
  9
$EXTMIN
 10
-65.62243319558881
 20
-49.97180738881174
 30
0.0
  9
$EXTMAX
 10
52.09408333333333
 20
57.37524813973977
 30
0.0
  9
$LIMMIN
 10
0.0
 20
0.0
  9
$LIMMAX
 10
420.0
 20
297.0
  9
$ORTHOMODE
 70
     0
  9
$REGENMODE
 70
     1
  9
$FILLMODE
 70
     1
  9
$QTEXTMODE
 70
     0
  9
$MIRRTEXT
 70
     1
  9
$LTSCALE
 40
1.0
  9
$ATTMODE
 70
     1
  9
$TEXTSIZE
 40
3.5
  9
$TRACEWID
 40
1.0
  9
$TEXTSTYLE
  7
Standard
  9
$CLAYER
  8
0
  9
$CELTYPE
  6
ByLayer
  9
$CECOLOR
 62
   256
  9
$CELTSCALE
 40
1.0
  9
$DISPSILH
 70
     0
  9
$DIMSCALE
 40
1.0
  9
$DIMASZ
 40
3.302
  9
$DIMEXO
 40
1.0
  9
$DIMDLI
 40
3.75
  9
$DIMRND
 40
0.0
  9
$DIMDLE
 40
0.0
  9
$DIMEXE
 40
1.0
  9
$DIMTP
 40
0.0
  9
$DIMTM
 40
0.0
  9
$DIMTXT
 40
3.5
  9
$DIMCEN
 40
2.5
  9
$DIMTSZ
 40
0.0
  9
$DIMTOL
 70
     0
  9
$DIMLIM
 70
     0
  9
$DIMTIH
 70
     1
  9
$DIMTOH
 70
     1
  9
$DIMSE1
 70
     0
  9
$DIMSE2
 70
     0
  9
$DIMTAD
 70
     1
  9
$DIMZIN
 70
     0
  9
$DIMBLK
  1

  9
$DIMASO
 70
     1
  9
$DIMSHO
 70
     1
  9
$DIMPOST
  1

  9
$DIMAPOST
  1

  9
$DIMALT
 70
     0
  9
$DIMALTD
 70
     3
  9
$DIMALTF
 40
0.0393700787401575
  9
$DIMLFAC
 40
1.0
  9
$DIMTOFL
 70
     1
  9
$DIMTVP
 40
0.0
  9
$DIMTIX
 70
     0
  9
$DIMSOXD
 70
     0
  9
$DIMSAH
 70
     0
  9
$DIMBLK1
  1

  9
$DIMBLK2
  1

  9
$DIMSTYLE
  2
ISO-25
  9
$DIMCLRD
 70
     0
  9
$DIMCLRE
 70
     0
  9
$DIMCLRT
 70
     0
  9
$DIMTFAC
 40
1.0
  9
$DIMGAP
 40
1.524
  9
$DIMJUST
 70
     0
  9
$DIMSD1
 70
     0
  9
$DIMSD2
 70
     0
  9
$DIMTOLJ
 70
     0
  9
$DIMTZIN
 70
     0
  9
$DIMALTZ
 70
     0
  9
$DIMALTTZ
 70
     0
  9
$DIMUPT
 70
     0
  9
$DIMDEC
 70
     2
  9
$DIMTDEC
 70
     2
  9
$DIMALTU
 70
     2
  9
$DIMALTTD
 70
     3
  9
$DIMTXSTY
  7
Standard
  9
$DIMAUNIT
 70
     0
  9
$DIMADEC
 70
     2
  9
$DIMALTRND
 40
0.0
  9
$DIMAZIN
 70
     0
  9
$DIMDSEP
 70
    44
  9
$DIMATFIT
 70
     3
  9
$DIMFRAC
 70
     0
  9
$DIMLDRBLK
  1

  9
$DIMLUNIT
 70
     2
  9
$DIMLWD
 70
    -2
  9
$DIMLWE
 70
    -2
  9
$DIMTMOVE
 70
     0
  9
$LUNITS
 70
     2
  9
$LUPREC
 70
     2
  9
$SKETCHINC
 40
1.0
  9
$FILLETRAD
 40
10.0
  9
$AUNITS
 70
     0
  9
$AUPREC
 70
     2
  9
$MENU
  1
.
  9
$ELEVATION
 40
0.0
  9
$PELEVATION
 40
0.0
  9
$THICKNESS
 40
0.0
  9
$LIMCHECK
 70
     0
  9
$CHAMFERA
 40
0.0
  9
$CHAMFERB
 40
0.0
  9
$CHAMFERC
 40
0.0
  9
$CHAMFERD
 40
0.0
  9
$SKPOLY
 70
     0
  9
$TDCREATE
 40
2458271.470215173
  9
$TDUCREATE
 40
2458271.095215173
  9
$TDUPDATE
 40
2458297.560151319
  9
$TDUUPDATE
 40
2458297.185151319
  9
$TDINDWG
 40
0.0011630324
  9
$TDUSRTIMER
 40
2458297.18501963
  9
$USRTIMER
 70
     1
  9
$ANGBASE
 50
0.0
  9
$ANGDIR
 70
     0
  9
$PDMODE
 70
     0
  9
$PDSIZE
 40
-1.0
  9
$PLINEWID
 40
0.0
  9
$SPLFRAME
 70
     0
  9
$SPLINETYPE
 70
     6
  9
$SPLINESEGS
 70
     8
  9
$HANDSEED
  5
199
  9
$SURFTAB1
 70
     6
  9
$SURFTAB2
 70
     6
  9
$SURFTYPE
 70
     6
  9
$SURFU
 70
     6
  9
$SURFV
 70
     6
  9
$UCSBASE
  2

  9
$UCSNAME
  2

  9
$UCSORG
 10
0.0
 20
0.0
 30
0.0
  9
$UCSXDIR
 10
1.0
 20
0.0
 30
0.0
  9
$UCSYDIR
 10
0.0
 20
1.0
 30
0.0
  9
$UCSORTHOREF
  2

  9
$UCSORTHOVIEW
 70
     0
  9
$UCSORGTOP
 10
0.0
 20
0.0
 30
0.0
  9
$UCSORGBOTTOM
 10
0.0
 20
0.0
 30
0.0
  9
$UCSORGLEFT
 10
0.0
 20
0.0
 30
0.0
  9
$UCSORGRIGHT
 10
0.0
 20
0.0
 30
0.0
  9
$UCSORGFRONT
 10
0.0
 20
0.0
 30
0.0
  9
$UCSORGBACK
 10
0.0
 20
0.0
 30
0.0
  9
$PUCSBASE
  2

  9
$PUCSNAME
  2

  9
$PUCSORG
 10
0.0
 20
0.0
 30
0.0
  9
$PUCSXDIR
 10
1.0
 20
0.0
 30
0.0
  9
$PUCSYDIR
 10
0.0
 20
1.0
 30
0.0
  9
$PUCSORTHOREF
  2

  9
$PUCSORTHOVIEW
 70
     0
  9
$PUCSORGTOP
 10
0.0
 20
0.0
 30
0.0
  9
$PUCSORGBOTTOM
 10
0.0
 20
0.0
 30
0.0
  9
$PUCSORGLEFT
 10
0.0
 20
0.0
 30
0.0
  9
$PUCSORGRIGHT
 10
0.0
 20
0.0
 30
0.0
  9
$PUCSORGFRONT
 10
0.0
 20
0.0
 30
0.0
  9
$PUCSORGBACK
 10
0.0
 20
0.0
 30
0.0
  9
$USERI1
 70
     0
  9
$USERI2
 70
     0
  9
$USERI3
 70
     0
  9
$USERI4
 70
     0
  9
$USERI5
 70
     0
  9
$USERR1
 40
0.0
  9
$USERR2
 40
0.0
  9
$USERR3
 40
0.0
  9
$USERR4
 40
0.0
  9
$USERR5
 40
0.0
  9
$WORLDVIEW
 70
     1
  9
$SHADEDGE
 70
     3
  9
$SHADEDIF
 70
    70
  9
$TILEMODE
 70
     1
  9
$MAXACTVP
 70
    64
  9
$PINSBASE
 10
0.0
 20
0.0
 30
0.0
  9
$PLIMCHECK
 70
     0
  9
$PEXTMIN
 10
1.000000000000000E+20
 20
1.000000000000000E+20
 30
1.000000000000000E+20
  9
$PEXTMAX
 10
-1.000000000000000E+20
 20
-1.000000000000000E+20
 30
-1.000000000000000E+20
  9
$PLIMMIN
 10
0.0
 20
0.0
  9
$PLIMMAX
 10
0.0
 20
0.0
  9
$UNITMODE
 70
     0
  9
$VISRETAIN
 70
     1
  9
$PLINEGEN
 70
     0
  9
$PSLTSCALE
 70
     1
  9
$TREEDEPTH
 70
  3020
  9
$CMLSTYLE
  2
Standard
  9
$CMLJUST
 70
     0
  9
$CMLSCALE
 40
20.0
  9
$PROXYGRAPHICS
 70
     1
  9
$MEASUREMENT
 70
     1
  9
$CELWEIGHT
370
    -1
  9
$ENDCAPS
280
     0
  9
$JOINSTYLE
280
     0
  9
$LWDISPLAY
290
     1
  9
$INSUNITS
 70
     4
  9
$HYPERLINKBASE
  1

  9
$STYLESHEET
  1

  9
$XEDIT
290
     1
  9
$CEPSNTYPE
380
     0
  9
$PSTYLEMODE
290
     1
  9
$FINGERPRINTGUID
  2
{63255911-2F7A-4E46-B679-767744BE98E2}
  9
$VERSIONGUID
  2
{FAEB1C32-E019-11D5-929B-00C0DF256EC4}
  9
$EXTNAMES
290
     1
  9
$PSVPSCALE
 40
0.0
  9
$OLESTARTUP
290
     0
  0
ENDSEC
  0
SECTION
  2
CLASSES
  0
CLASS
  1
ACDBDICTIONARYWDFLT
  2
AcDbDictionaryWithDefault
  3
ObjectDBX Classes
 90
        0
280
     0
281
     0
  0
CLASS
  1
VISUALSTYLE
  2
AcDbVisualStyle
  3
ObjectDBX Classes
 90
     4095
280
     0
281
     0
  0
CLASS
  1
MATERIAL
  2
AcDbMaterial
  3
ObjectDBX Classes
 90
     1153
280
     0
281
     0
  0
CLASS
  1
SCALE
  2
AcDbScale
  3
ObjectDBX Classes
 90
     1153
280
     0
281
     0
  0
CLASS
  1
SUN
  2
AcDbSun
  3
SCENEOE
 90
     1153
280
     0
281
     0
  0
CLASS
  1
ACDBPLACEHOLDER
  2
AcDbPlaceHolder
  3
ObjectDBX Classes
 90
        0
280
     0
281
     0
  0
CLASS
  1
LAYOUT
  2
AcDbLayout
  3
ObjectDBX Classes
 90
        0
280
     0
281
     0
  0
CLASS
  1
TABLESTYLE
  2
AcDbTableStyle
  3
ObjectDBX Classes
 90
     4095
280
     0
281
     0
  0
CLASS
  1
MLEADERSTYLE
  2
AcDbMLeaderStyle
  3
ACDB_MLEADERSTYLE_CLASS
 90
     4095
280
     0
281
     0
  0
CLASS
  1
RASTERVARIABLES
  2
AcDbRasterVariables
  3
ISM
 90
        0
280
     0
281
     0
  0
CLASS
  1
DIMASSOC
  2
AcDbDimAssoc
  3
"AcDbDimAssoc|Product Desc:     AcDim ARX App For Dimension|Company:          Autodesk, Inc.|WEB Address:      www.autodesk.com"
 90
        0
280
     0
281
     0
  0
CLASS
  1
DICTIONARYVAR
  2
AcDbDictionaryVar
  3
ObjectDBX Classes
 90
        0
280
     0
281
     0
  0
ENDSEC
  0
SECTION
  2
TABLES
  0
TABLE
  2
VPORT
  5
8
330
0
100
AcDbSymbolTable
 70
     1
  0
VPORT
  5
29
330
8
100
AcDbSymbolTableRecord
100
AcDbViewportTableRecord
  2
*Active
 70
     0
 10
0.0
 20
0.0
 11
1.0
 21
1.0
 12
19.99053976309125
 22
16.91052827562365
 13
0.0
 23
0.0
 14
10.0
 24
10.0
 15
10.0
 25
10.0
 16
0.0
 26
0.0
 36
1.0
 17
0.0
 27
0.0
 37
0.0
 40
216.2478237701979
 41
1.262430939226519
 42
50.0
 43
0.0
 44
0.0
 50
0.0
 51
0.0
 71
    16
 72
  2000
 73
     1
 74
     3
 75
     0
 76
     0
 77
     0
 78
     0
281
     0
 65
     1
110
0.0
120
0.0
130
0.0
111
1.0
121
0.0
131
0.0
112
0.0
122
1.0
132
0.0
 79
     0
146
0.0
  0
ENDTAB
  0
TABLE
  2
LTYPE
  5
5
330
0
100
AcDbSymbolTable
 70
     6
  0
LTYPE
  5
14
330
5
100
AcDbSymbolTableRecord
100
AcDbLinetypeTableRecord
  2
ByBlock
 70
     0
  3

 72
    65
 73
     0
 40
0.0
  0
LTYPE
  5
15
330
5
100
AcDbSymbolTableRecord
100
AcDbLinetypeTableRecord
  2
ByLayer
 70
     0
  3

 72
    65
 73
     0
 40
0.0
  0
LTYPE
  5
16
330
5
100
AcDbSymbolTableRecord
100
AcDbLinetypeTableRecord
  2
Continuous
 70
     0
  3
Solid line
 72
    65
 73
     0
 40
0.0
  0
LTYPE
  5
6A
330
5
100
AcDbSymbolTableRecord
100
AcDbLinetypeTableRecord
  2
HIDDEN
 70
     0
  3
Hidden __ __ __ __ __ __ __ __ __ __ __ __ __ __
 72
    65
 73
     2
 40
1.905
 49
1.27
 74
     0
 49
-0.635
 74
     0
  0
LTYPE
  5
6B
330
5
100
AcDbSymbolTableRecord
100
AcDbLinetypeTableRecord
  2
PHANTOM
 70
     0
  3
Phantom ______  __  __  ______  __  __  ______
 72
    65
 73
     6
 40
12.7
 49
6.35
 74
     0
 49
-1.27
 74
     0
 49
1.27
 74
     0
 49
-1.27
 74
     0
 49
1.27
 74
     0
 49
-1.27
 74
     0
  0
LTYPE
  5
6C
330
5
100
AcDbSymbolTableRecord
100
AcDbLinetypeTableRecord
  2
CENTER
 70
     0
  3
Center ____ _ ____ _ ____ _ ____ _ ____ _ ____
 72
    65
 73
     4
 40
10.16
 49
6.35
 74
     0
 49
-1.27
 74
     0
 49
1.27
 74
     0
 49
-1.27
 74
     0
  0
LTYPE
  5
6D
330
5
100
AcDbSymbolTableRecord
100
AcDbLinetypeTableRecord
  2
CENTERX2
 70
     0
  3
Center (2x) ________  __  ________  __  _____
 72
    65
 73
     4
 40
20.32
 49
12.7
 74
     0
 49
-2.54
 74
     0
 49
2.54
 74
     0
 49
-2.54
 74
     0
  0
LTYPE
  5
6E
330
5
100
AcDbSymbolTableRecord
100
AcDbLinetypeTableRecord
  2
DOT2
 70
     0
  3
Dot (.5x) ........................................
 72
    65
 73
     2
 40
0.635
 49
0.0
 74
     0
 49
-0.635
 74
     0
  0
ENDTAB
  0
TABLE
  2
LAYER
  5
2
330
0
100
AcDbSymbolTable
 70
    17
  0
LAYER
  5
10
330
2
100
AcDbSymbolTableRecord
100
AcDbLayerTableRecord
  2
0
 70
     0
 62
     7
  6
Continuous
370
    -3
390
F
  0
LAYER
  5
6F
330
2
100
AcDbSymbolTableRecord
100
AcDbLayerTableRecord
  2
FORMAT
 70
     0
 62
     2
  6
Continuous
370
    -3
390
F
  0
LAYER
  5
70
330
2
100
AcDbSymbolTableRecord
100
AcDbLayerTableRecord
  2
외형선
 70
     0
 62
     4
  6
Continuous
370
    30
390
F
  0
LAYER
  5
71
330
2
100
AcDbSymbolTableRecord
100
AcDbLayerTableRecord
  2
숨은선
 70
     0
 62
     2
  6
HIDDEN
370
    15
390
F
  0
LAYER
  5
72
330
2
100
AcDbSymbolTableRecord
100
AcDbLayerTableRecord
  2
중심선
 70
     0
 62
     1
  6
CENTERX2
370
    -3
390
F
  0
LAYER
  5
73
330
2
100
AcDbSymbolTableRecord
100
AcDbLayerTableRecord
  2
파단선
 70
     0
 62
     4
  6
Continuous
370
    -3
390
F
  0
LAYER
  5
74
330
2
100
AcDbSymbolTableRecord
100
AcDbLayerTableRecord
  2
해칭선
 70
     0
 62
   100
  6
Continuous
370
    -3
390
F
  0
LAYER
  5
75
330
2
100
AcDbSymbolTableRecord
100
AcDbLayerTableRecord
  2
가는실선
 70
     0
 62
     4
  6
Continuous
370
    -3
390
F
  0
LAYER
  5
76
330
2
100
AcDbSymbolTableRecord
100
AcDbLayerTableRecord
  2
치수_보조선
 70
     0
 62
     4
  6
Continuous
370
    -3
390
F
  0
LAYER
  5
77
330
2
100
AcDbSymbolTableRecord
100
AcDbLayerTableRecord
  2
치수문자_일반주서
 70
     0
 62
     7
  6
Continuous
370
    15
390
F
  0
LAYER
  5
78
330
2
100
AcDbSymbolTableRecord
100
AcDbLayerTableRecord
  2
개별주서
 70
     0
 62
   100
  6
Continuous
370
    30
390
F
  0
LAYER
  5
79
330
2
100
AcDbSymbolTableRecord
100
AcDbLayerTableRecord
  2
중간선
 70
     0
 62
     2
  6
Continuous
370
    15
390
F
  0
LAYER
  5
7A
330
2
100
AcDbSymbolTableRecord
100
AcDbLayerTableRecord
  2
윤곽선
 70
     0
 62
     3
  6
Continuous
370
    40
390
F
  0
LAYER
  5
7B
330
2
100
AcDbSymbolTableRecord
100
AcDbLayerTableRecord
  2
중심마크
 70
     0
 62
   100
  6
Continuous
370
    30
390
F
  0
LAYER
  5
7C
330
2
100
AcDbSymbolTableRecord
100
AcDbLayerTableRecord
  2
가상선
 70
     0
 62
     4
  6
PHANTOM
370
    -3
390
F
  0
LAYER
  5
7D
330
2
100
AcDbSymbolTableRecord
100
AcDbLayerTableRecord
  2
특수지정선
 70
     0
 62
     5
  6
CENTERX2
370
    60
390
F
  0
LAYER
  5
136
330
2
100
AcDbSymbolTableRecord
100
AcDbLayerTableRecord
  2
Defpoints
 70
     0
 62
     7
  6
Continuous
290
     0
370
    -3
390
F
  0
ENDTAB
  0
TABLE
  2
STYLE
  5
3
330
0
100
AcDbSymbolTable
 70
     2
  0
STYLE
  5
11
330
3
100
AcDbSymbolTableRecord
100
AcDbTextStyleTableRecord
  2
Standard
 70
     0
 40
0.0
 41
1.0
 50
0.0
 71
     0
 42
3.5
  3
txt
  4

  0
STYLE
  5
93
330
3
100
AcDbSymbolTableRecord
100
AcDbTextStyleTableRecord
  2
SLDTEXTSTYLE0
 70
     0
 40
0.0
 41
0.75
 50
0.0
 71
     0
 42
3.5
  3
TXT
  4

  0
ENDTAB
  0
TABLE
  2
VIEW
  5
6
330
0
100
AcDbSymbolTable
 70
     0
  0
ENDTAB
  0
TABLE
  2
UCS
  5
7
330
0
100
AcDbSymbolTable
 70
     0
  0
ENDTAB
  0
TABLE
  2
APPID
  5
9
330
0
100
AcDbSymbolTable
 70
     4
  0
APPID
  5
12
330
9
100
AcDbSymbolTableRecord
100
AcDbRegAppTableRecord
  2
ACAD
 70
     0
  0
APPID
  5
166
330
9
100
AcDbSymbolTableRecord
100
AcDbRegAppTableRecord
  2
PE_DIMMEASUREMENT
 70
     0
  0
APPID
  5
174
330
9
100
AcDbSymbolTableRecord
100
AcDbRegAppTableRecord
  2
ACAD_DSTYLE_DIMFLIPARROW_SYMBOL
 70
     0
  0
APPID
  5
175
330
9
100
AcDbSymbolTableRecord
100
AcDbRegAppTableRecord
  2
ACAD_DSTYLE_DIMFLIPARROW_WHICH_SYMBOL
 70
     0
  0
ENDTAB
  0
TABLE
  2
DIMSTYLE
  5
A
330
0
100
AcDbSymbolTable
 70
     2
100
AcDbDimStyleTable
  0
DIMSTYLE
105
27
330
A
100
AcDbSymbolTableRecord
100
AcDbDimStyleTableRecord
  2
ISO-25
 70
     0
 41
2.5
 42
0.625
 43
3.75
 44
1.25
 73
     0
 74
     0
 77
     1
 78
     8
140
2.5
141
2.5
143
0.03937007874016
147
0.625
171
     3
172
     1
178
     0
271
     2
272
     2
274
     3
278
    44
283
     0
284
     8
340
11
  0
DIMSTYLE
105
D6
102
{ACAD_REACTORS
330
D5
330
EA
330
137
330
148
330
157
102
}
330
A
100
AcDbSymbolTableRecord
100
AcDbDimStyleTableRecord
  2
SLDDIMSTYLE0
 70
     0
 41
3.302
 44
0.0
 45
0.000000001
 73
     0
 74
     0
 77
     1
 78
    12
 79
     3
140
3.5
143
0.0393700787401575
147
0.875
148
0.000000001
170
     1
172
     1
173
     1
178
     0
271
     2
272
     2
276
     2
284
    12
289
     0
340
93
  0
ENDTAB
  0
TABLE
  2
BLOCK_RECORD
  5
1
330
0
100
AcDbSymbolTable
 70
     8
  0
BLOCK_RECORD
  5
1F
330
1
100
AcDbSymbolTableRecord
100
AcDbBlockTableRecord
  2
*Model_Space
340
22
  0
BLOCK_RECORD
  5
1B
330
1
100
AcDbSymbolTableRecord
100
AcDbBlockTableRecord
  2
*Paper_Space
340
1E
  0
BLOCK_RECORD
  5
23
330
1
100
AcDbSymbolTableRecord
100
AcDbBlockTableRecord
  2
*Paper_Space0
340
26
  0
BLOCK_RECORD
  5
7E
330
1
100
AcDbSymbolTableRecord
100
AcDbBlockTableRecord
  2
블럭10
340
0
102
{BLKREFS
331
CE
102
}
  0
BLOCK_RECORD
  5
D7
330
1
100
AcDbSymbolTableRecord
100
AcDbBlockTableRecord
  2
_D
340
0
  0
BLOCK_RECORD
  5
EB
330
1
100
AcDbSymbolTableRecord
100
AcDbBlockTableRecord
  2
_D_1
340
0
  0
BLOCK_RECORD
  5
FF
330
1
100
AcDbSymbolTableRecord
100
AcDbBlockTableRecord
  2
SW_DOWELSYMBOL_0
340
0
102
{BLKREFS
331
105
102
}
  0
BLOCK_RECORD
  5
13A
330
1
100
AcDbSymbolTableRecord
100
AcDbBlockTableRecord
  2
*D5
340
0
  0
BLOCK_RECORD
  5
14B
330
1
100
AcDbSymbolTableRecord
100
AcDbBlockTableRecord
  2
*D6
340
0
  0
BLOCK_RECORD
  5
15A
330
1
100
AcDbSymbolTableRecord
100
AcDbBlockTableRecord
  2
*D7
340
0
  0
ENDTAB
  0
ENDSEC
  0
SECTION
  2
BLOCKS
  0
BLOCK
  5
20
330
1F
100
AcDbEntity
  8
0
100
AcDbBlockBegin
  2
*Model_Space
 70
     0
 10
0.0
 20
0.0
 30
0.0
  3
*Model_Space
  1
*Model_Space
  0
ENDBLK
  5
21
330
1F
100
AcDbEntity
  8
0
100
AcDbBlockEnd
  0
BLOCK
  5
1C
330
1B
100
AcDbEntity
 67
     1
  8
0
100
AcDbBlockBegin
  2
*Paper_Space
 70
     0
 10
0.0
 20
0.0
 30
0.0
  3
*Paper_Space
  1
*Paper_Space
  0
ENDBLK
  5
1D
330
1B
100
AcDbEntity
 67
     1
  8
0
100
AcDbBlockEnd
  0
BLOCK
  5
24
330
23
100
AcDbEntity
  8
0
100
AcDbBlockBegin
  2
*Paper_Space0
 70
     0
 10
0.0
 20
0.0
 30
0.0
  3
*Paper_Space0
  1
*Paper_Space0
  0
ENDBLK
  5
25
330
23
100
AcDbEntity
  8
0
100
AcDbBlockEnd
  0
BLOCK
  5
7F
330
7E
100
AcDbEntity
  8
0
100
AcDbBlockBegin
  2
블럭10
 70
     2
 10
0.0
 20
0.0
 30
0.0
  3
블럭10
  1
블럭10
  0
ELLIPSE
  5
81
330
7E
100
AcDbEntity
  8
중심선
100
AcDbEllipse
 10
20.54032771741204
 20
12.0471743016438
 30
0.0
 11
6.600054785286829
 21
-1.261213355974178E-13
 31
0.0
210
0.0
220
0.0
230
1.0
 40
0.636358354079598
 41
0.9219305317359503
 42
6.513795318482858
  0
ELLIPSE
  5
82
330
7E
100
AcDbEntity
  8
중심선
100
AcDbEllipse
 10
20.54032771746488
 20
12.04717430159265
 30
0.0
 11
3.960054785062283
 21
1.540847449632565E-10
 31
0.0
210
0.0
220
0.0
230
1.0
 40
0.3939339440162632
 41
1.131841032648279
 42
5.62031148352944
  0
LINE
  5
83
330
7E
100
AcDbEntity
  8
중심선
100
AcDbLine
 10
2.268634060543552
 20
16.24717430164393
 30
0.0
 11
5.714909304380834
 21
16.24717430164393
 31
0.0
  0
LINE
  5
84
330
7E
100
AcDbEntity
  8
중심선
100
AcDbLine
 10
5.245725140726316
 20
7.84717430164391
 30
0.0
 11
8.692000384563599
 21
7.84717430164391
 31
0.0
  0
LINE
  5
85
330
7E
100
AcDbEntity
  8
중심선
100
AcDbLine
 10
15.74043728645272
 20
16.24717430164393
 30
0.0
 11
8.692000384563599
 21
7.84717430164391
 31
0.0
  0
LINE
  5
86
330
7E
100
AcDbEntity
  8
중심선
100
AcDbLine
 10
0.1404042013395286
 20
13.71084872107135
 30
0.0
 11
3.58671253028996
 21
13.71088815037384
 31
0.0
  0
LINE
  5
87
330
7E
100
AcDbEntity
  8
중심선
100
AcDbLine
 10
2.750260043222114
 20
10.84717430164391
 30
0.0
 11
6.196535287059397
 21
10.84717430164391
 31
0.0
  0
LINE
  5
88
330
7E
100
AcDbEntity
  8
중심선
100
AcDbLine
 10
12.29416204261559
 20
16.24717430164393
 30
0.0
 11
5.245725140726316
 21
7.84717430164391
 31
0.0
  0
LINE
  5
89
330
7E
100
AcDbEntity
  8
중심선
100
AcDbLine
 10
10.72767329541681
 20
16.24717430164393
 30
0.0
 11
6.196535287059397
 21
10.84717430164391
 31
0.0
  0
LINE
  5
8A
330
7E
100
AcDbEntity
  8
중심선
100
AcDbLine
 10
7.28139805157953
 20
16.24717430164393
 30
0.0
 11
2.750260043222114
 21
10.84717430164391
 31
0.0
  0
LINE
  5
8B
330
7E
100
AcDbEntity
  8
중심선
100
AcDbLine
 10
5.714909304380834
 20
16.24717430164393
 30
0.0
 11
3.58671253028996
 21
13.71088815037384
 31
0.0
  0
LINE
  5
8C
330
7E
100
AcDbEntity
  8
중심선
100
AcDbLine
 10
2.268634060543552
 20
16.24717430164393
 30
0.0
 11
0.1404042013395286
 21
13.71084872107135
 31
0.0
  0
LINE
  5
8D
330
7E
100
AcDbEntity
  8
중심선
100
AcDbLine
 10
7.28139805157953
 20
16.24717430164393
 30
0.0
 11
10.72767329541681
 21
16.24717430164393
 31
0.0
  0
LINE
  5
8E
330
7E
100
AcDbEntity
  8
중심선
100
AcDbLine
 10
12.29416204261559
 20
16.24717430164393
 30
0.0
 11
15.74043728645272
 21
16.24717430164393
 31
0.0
  0
LINE
  5
8F
330
7E
100
AcDbEntity
  8
중심선
100
AcDbLine
 10
19.22036997980202
 20
11.08717430171403
 30
0.0
 11
23.66174974927406
 21
11.08717430171406
 31
0.0
  0
LINE
  5
90
330
7E
100
AcDbEntity
  8
중심선
100
AcDbLine
 10
19.22039502424796
 20
13.00717430171391
 30
0.0
 11
19.22036997980202
 21
11.08717430171403
 31
0.0
  0
LINE
  5
91
330
7E
100
AcDbEntity
  8
중심선
100
AcDbLine
 10
19.22039502424796
 20
13.00717430171391
 30
0.0
 11
26.96566020931264
 21
13.00717430171391
 31
0.0
  0
LINE
  5
92
330
7E
100
AcDbEntity
  8
중심선
100
AcDbLine
 10
22.22332737316547
 20
13.45928029700563
 30
0.0
 11
24.52862924686651
 21
15.39360700705356
 31
0.0
  0
ATTDEF
  5
94
330
7E
100
AcDbEntity
  8
FORMAT
 62
     2
100
AcDbText
 10
-10.14163601213663
 20
2.075366912832191
 30
0.0
 40
4.233333333333333
  1
EM084016 [ 2 FLUTE ]
 41
0.75
  7
SLDTEXTSTYLE0
 11
-10.14163601213663
 21
-0.0412997538344756
 31
0.0
100
AcDbAttributeDefinition
  3

  2
AUTOATTR0
 70
     0
 74
     1
  0
ENDBLK
  5
80
330
7E
100
AcDbEntity
  8
0
100
AcDbBlockEnd
  0
BLOCK
  5
D8
330
D7
100
AcDbEntity
  8
0
100
AcDbBlockBegin
  2
_D
 70
     0
 10
0.0
 20
0.0
 30
0.0
  3
_D
  1
_D
  0
LINE
  5
DA
330
D7
100
AcDbEntity
  8
치수문자_일반주서
 62
     0
370
    -2
100
AcDbLine
 10
-50.05250000000002
 20
3.175000000000001
 30
0.0
 11
-61.24743319558878
 21
3.17499999999996
 31
0.0
  0
LINE
  5
DB
330
D7
100
AcDbEntity
  8
치수문자_일반주서
 62
     0
370
    -2
100
AcDbLine
 10
-50.05250000000002
 20
-3.175000000000002
 30
0.0
 11
-61.24743319558875
 21
-3.175000000000043
 31
0.0
  0
LINE
  5
DC
330
D7
100
AcDbEntity
  8
치수문자_일반주서
 62
     0
370
    -2
100
AcDbLine
 10
-61.24743319558878
 20
3.17499999999996
 30
0.0
 11
-61.24743319558875
 21
-3.175000000000043
 31
0.0
  0
LINE
  5
DD
330
D7
100
AcDbEntity
  8
치수문자_일반주서
 62
     0
370
    -2
100
AcDbLine
 10
-61.24743319558879
 20
6.476999999999959
 30
0.0
 11
-61.2474331955888
 21
9.778999999999959
 31
0.0
  0
LINE
  5
DE
330
D7
100
AcDbEntity
  8
치수문자_일반주서
 62
     0
370
    -2
100
AcDbLine
 10
-61.24743319558874
 20
-6.477000000000043
 30
0.0
 11
-61.24743319558873
 21
-9.779000000000043
 31
0.0
  0
SOLID
  5
DF
330
D7
100
AcDbEntity
  8
치수문자_일반주서
 62
     0
100
AcDbTrace
 10
-61.79776652892212
 20
6.476999999999958
 30
0.0
 11
-60.69709986225546
 21
6.476999999999961
 31
0.0
 12
-61.24743319558878
 22
3.17499999999996
 32
0.0
 13
-61.24743319558878
 23
3.17499999999996
 33
0.0
  0
SOLID
  5
E0
330
D7
100
AcDbEntity
  8
치수문자_일반주서
 62
     0
100
AcDbTrace
 10
-60.69709986225541
 20
-6.477000000000041
 30
0.0
 11
-61.79776652892208
 21
-6.477000000000045
 31
0.0
 12
-61.24743319558875
 22
-3.175000000000043
 32
0.0
 13
-61.24743319558875
 23
-3.175000000000043
 33
0.0
  0
MTEXT
  5
E1
330
D7
100
AcDbEntity
  8
치수문자_일반주서
 62
     0
100
AcDbMText
 10
-65.62243319558877
 20
-0.0930924406128096
 30
0.0
 40
3.5
 41
0.0
 71
     2
 72
     1
  1
\A1;%%c6.35 [1/4]
  7
SLDTEXTSTYLE0
 11
-3.356894814614645E-15
 21
1.0
 31
0.0
 73
     1
 44
1.0
  0
POINT
  5
E2
330
D7
100
AcDbEntity
  8
Defpoints
 62
     0
100
AcDbPoint
 10
-49.99000000000002
 20
3.175000000000002
 30
0.0
  0
POINT
  5
171
330
D7
100
AcDbEntity
  8
Defpoints
 62
     0
100
AcDbPoint
 10
-49.99000000000002
 20
-3.175000000000002
 30
0.0
  0
POINT
  5
172
330
D7
100
AcDbEntity
  8
Defpoints
 62
     0
100
AcDbPoint
 10
-61.24743319558875
 20
-3.175000000000044
 30
0.0
  0
ENDBLK
  5
D9
330
D7
100
AcDbEntity
  8
0
100
AcDbBlockEnd
  0
BLOCK
  5
EC
330
EB
100
AcDbEntity
  8
0
100
AcDbBlockBegin
  2
_D_1
 70
     0
 10
0.0
 20
0.0
 30
0.0
  3
_D_1
  1
_D_1
  0
LINE
  5
EE
330
EB
100
AcDbEntity
  8
치수문자_일반주서
 62
     0
370
    -2
100
AcDbLine
 10
28.6375
 20
3.175000000000001
 30
0.0
 11
51.54374999999998
 21
3.175000000000086
 31
0.0
  0
LINE
  5
EF
330
EB
100
AcDbEntity
  8
치수문자_일반주서
 62
     0
370
    -2
100
AcDbLine
 10
28.6375
 20
-3.175
 30
0.0
 11
51.54375
 21
-3.174999999999915
 31
0.0
  0
LINE
  5
F0
330
EB
100
AcDbEntity
  8
치수문자_일반주서
 62
     0
370
    -2
100
AcDbLine
 10
51.54375
 20
-0.1269999999999136
 30
0.0
 11
51.54374999999999
 21
0.127000000000085
 31
0.0
  0
SOLID
  5
F1
330
EB
100
AcDbEntity
  8
치수문자_일반주서
 62
     0
100
AcDbTrace
 10
52.09408333333333
 20
-0.1269999999999118
 30
0.0
 11
50.99341666666666
 21
-0.1269999999999155
 31
0.0
 12
51.54374999999998
 22
3.175000000000086
 32
0.0
 13
51.54374999999998
 23
3.175000000000086
 33
0.0
  0
SOLID
  5
F2
330
EB
100
AcDbEntity
  8
치수문자_일반주서
 62
     0
100
AcDbTrace
 10
50.99341666666665
 20
0.1270000000000832
 30
0.0
 11
52.09408333333332
 21
0.1270000000000869
 31
0.0
 12
51.54375
 22
-3.174999999999915
 32
0.0
 13
51.54375
 23
-3.174999999999915
 33
0.0
  0
MTEXT
  5
F3
330
EB
100
AcDbEntity
  8
치수문자_일반주서
 62
     0
100
AcDbMText
 10
47.16874999999999
 20
0.000012682404942
 30
0.0
 40
3.5
 41
0.0
 71
     2
 72
     1
  1
\A1;{%%c6.35 [1/4]}
  7
SLDTEXTSTYLE0
 11
-3.356894814614646E-15
 21
1.0
 31
0.0
 73
     1
 44
1.0
  0
POINT
  5
F4
330
EB
100
AcDbEntity
  8
Defpoints
 62
     0
100
AcDbPoint
 10
28.575
 20
3.175
 30
0.0
  0
POINT
  5
F5
330
EB
100
AcDbEntity
  8
Defpoints
 62
     0
100
AcDbPoint
 10
28.575
 20
-3.175
 30
0.0
  0
POINT
  5
F6
330
EB
100
AcDbEntity
  8
Defpoints
 62
     0
100
AcDbPoint
 10
51.54375
 20
-3.174999999999915
 30
0.0
  0
ENDBLK
  5
ED
330
EB
100
AcDbEntity
  8
0
100
AcDbBlockEnd
  0
BLOCK
  5
100
330
FF
100
AcDbEntity
  8
0
100
AcDbBlockBegin
  2
SW_DOWELSYMBOL_0
 70
     0
 10
0.0
 20
0.0
 30
0.0
  3
SW_DOWELSYMBOL_0
  1
SW_DOWELSYMBOL_0
  0
CIRCLE
  5
102
330
FF
100
AcDbEntity
  8
해칭선
 62
     0
100
AcDbCircle
 10
0.0
 20
0.0
 30
0.0
 40
3.0
  0
HATCH
  5
103
330
FF
100
AcDbEntity
  8
0
  6
Continuous
 62
     0
370
     0
100
AcDbHatch
 10
0.0
 20
0.0
 30
0.0
210
0.0
220
0.0
230
1.0
  2
SOLID
 70
     1
 71
     0
 91
        1
 92
        0
 93
        3
 72
     2
 10
0.0
 20
0.0
 40
3.0
 50
0.0
 51
90.0
 73
     1
 72
     1
 10
0.0
 20
3.0
 11
0.0
 21
0.0
 72
     1
 10
0.0
 20
0.0
 11
2.999999999999999
 21
0.0
 97
        0
 75
     0
 76
     1
 98
        1
 10
0.0
 20
0.0
  0
HATCH
  5
104
330
FF
100
AcDbEntity
  8
0
  6
Continuous
 62
     0
370
     0
100
AcDbHatch
 10
0.0
 20
0.0
 30
0.0
210
0.0
220
0.0
230
1.0
  2
SOLID
 70
     1
 71
     0
 91
        1
 92
        0
 93
        3
 72
     2
 10
0.0
 20
0.0
 40
3.0
 50
180.0
 51
270.0000000000007
 73
     1
 72
     1
 10
0.0
 20
-3.0
 11
0.0
 21
0.0
 72
     1
 10
0.0
 20
0.0
 11
-2.999999999999999
 21
0.0
 97
        0
 75
     0
 76
     1
 98
        1
 10
0.0
 20
0.0
  0
ENDBLK
  5
101
330
FF
100
AcDbEntity
  8
0
100
AcDbBlockEnd
  0
BLOCK
  5
13B
330
13A
100
AcDbEntity
  8
0
100
AcDbBlockBegin
  2
*D5
 70
     1
 10
0.0
 20
0.0
 30
0.0
  3
*D5
  1
*D5
  0
LINE
  5
13D
330
13A
100
AcDbEntity
  8
치수문자_일반주서
 62
     0
370
    -2
100
AcDbLine
 10
31.74999999232046
 20
3.237499999999994
 30
0.0
 11
31.74999999232046
 21
28.01446759129496
 31
0.0
  0
LINE
  5
13E
330
13A
100
AcDbEntity
  8
치수문자_일반주서
 62
     0
370
    -2
100
AcDbLine
 10
24.63799999232046
 20
2.602499999999993
 30
0.0
 11
24.63799999232046
 21
28.01446759129496
 31
0.0
  0
LINE
  5
13F
330
13A
100
AcDbEntity
  8
치수문자_일반주서
 62
     0
370
    -2
100
AcDbLine
 10
21.33599999232046
 20
28.01446759129496
 30
0.0
 11
-6.466000007679543
 21
28.01446759129496
 31
0.0
  0
LINE
  5
140
330
13A
100
AcDbEntity
  8
치수문자_일반주서
 62
     0
370
    -2
100
AcDbLine
 10
31.74999999232046
 20
28.01446759129496
 30
0.0
 11
24.63799999232046
 21
28.01446759129496
 31
0.0
  0
LINE
  5
141
330
13A
100
AcDbEntity
  8
치수문자_일반주서
 62
     0
370
    -2
100
AcDbLine
 10
35.05199999232046
 20
28.01446759129496
 30
0.0
 11
38.35399999232046
 21
28.01446759129496
 31
0.0
  0
SOLID
  5
142
330
13A
100
AcDbEntity
  8
치수문자_일반주서
 62
     0
100
AcDbTrace
 10
35.05199999232046
 20
28.56480092462829
 30
0.0
 11
35.05199999232046
 21
27.46413425796162
 31
0.0
 12
31.74999999232046
 22
28.01446759129496
 32
0.0
 13
31.74999999232046
 23
28.01446759129496
 33
0.0
  0
SOLID
  5
143
330
13A
100
AcDbEntity
  8
치수문자_일반주서
 62
     0
100
AcDbTrace
 10
21.33599999232046
 20
27.46413425796162
 30
0.0
 11
21.33599999232046
 21
28.56480092462829
 31
0.0
 12
24.63799999232046
 22
28.01446759129496
 32
0.0
 13
24.63799999232046
 23
28.01446759129496
 33
0.0
  0
MTEXT
  5
144
330
13A
100
AcDbEntity
  8
치수문자_일반주서
 62
     0
100
AcDbMText
 10
5.783999992320457
 20
30.63946759129496
 30
0.0
 40
3.5
 41
0.0
 71
     5
 72
     1
  1
\A1;7.11 [9/32]
  7
SLDTEXTSTYLE0
 73
     1
 44
1.0
  0
POINT
  5
145
330
13A
100
AcDbEntity
  8
Defpoints
 62
     0
100
AcDbPoint
 10
31.74999999232046
 20
3.174999999999994
 30
0.0
  0
POINT
  5
146
330
13A
100
AcDbEntity
  8
Defpoints
 62
     0
100
AcDbPoint
 10
24.63799999232046
 20
2.539999999999993
 30
0.0
  0
POINT
  5
147
330
13A
100
AcDbEntity
  8
Defpoints
 62
     0
100
AcDbPoint
 10
24.63799999232046
 20
28.01446759129496
 30
0.0
  0
ENDBLK
  5
13C
330
13A
100
AcDbEntity
  8
0
100
AcDbBlockEnd
  0
BLOCK
  5
14C
330
14B
100
AcDbEntity
  8
0
100
AcDbBlockBegin
  2
*D6
 70
     1
 10
0.0
 20
0.0
 30
0.0
  3
*D6
  1
*D6
  0
LINE
  5
14E
330
14B
100
AcDbEntity
  8
치수문자_일반주서
 62
     0
370
    -2
100
AcDbLine
 10
31.74999999232046
 20
3.237499999999994
 30
0.0
 11
31.74999999232046
 21
38.62470123412541
 31
0.0
  0
LINE
  5
14F
330
14B
100
AcDbEntity
  8
치수문자_일반주서
 62
     0
370
    -2
100
AcDbLine
 10
-0.0000000076795414
 20
3.237500000000003
 30
0.0
 11
-0.0000000076795414
 21
38.62470123412541
 31
0.0
  0
LINE
  5
150
330
14B
100
AcDbEntity
  8
치수문자_일반주서
 62
     0
370
    -2
100
AcDbLine
 10
28.44799999232046
 20
38.62470123412541
 30
0.0
 11
3.301999992320458
 21
38.62470123412541
 31
0.0
  0
SOLID
  5
151
330
14B
100
AcDbEntity
  8
치수문자_일반주서
 62
     0
100
AcDbTrace
 10
28.44799999232046
 20
38.07436790079208
 30
0.0
 11
28.44799999232046
 21
39.17503456745875
 31
0.0
 12
31.74999999232046
 22
38.62470123412541
 32
0.0
 13
31.74999999232046
 23
38.62470123412541
 33
0.0
  0
SOLID
  5
152
330
14B
100
AcDbEntity
  8
치수문자_일반주서
 62
     0
100
AcDbTrace
 10
3.301999992320458
 20
39.17503456745875
 30
0.0
 11
3.301999992320458
 21
38.07436790079208
 31
0.0
 12
-0.0000000076795414
 22
38.62470123412541
 32
0.0
 13
-0.0000000076795414
 23
38.62470123412541
 33
0.0
  0
MTEXT
  5
153
330
14B
100
AcDbEntity
  8
치수문자_일반주서
 62
     0
100
AcDbMText
 10
15.87499999232046
 20
41.24970123412541
 30
0.0
 40
3.5
 41
0.0
 71
     5
 72
     1
  1
\A1;31.75 [1 1/4]
  7
SLDTEXTSTYLE0
 73
     1
 44
1.0
  0
POINT
  5
154
330
14B
100
AcDbEntity
  8
Defpoints
 62
     0
100
AcDbPoint
 10
31.74999999232046
 20
3.174999999999994
 30
0.0
  0
POINT
  5
155
330
14B
100
AcDbEntity
  8
Defpoints
 62
     0
100
AcDbPoint
 10
-0.0000000076795414
 20
3.175000000000003
 30
0.0
  0
POINT
  5
156
330
14B
100
AcDbEntity
  8
Defpoints
 62
     0
100
AcDbPoint
 10
-0.0000000076795414
 20
38.62470123412541
 30
0.0
  0
ENDBLK
  5
14D
330
14B
100
AcDbEntity
  8
0
100
AcDbBlockEnd
  0
BLOCK
  5
15B
330
15A
100
AcDbEntity
  8
0
100
AcDbBlockBegin
  2
*D7
 70
     1
 10
0.0
 20
0.0
 30
0.0
  3
*D7
  1
*D7
  0
LINE
  5
15D
330
15A
100
AcDbEntity
  8
치수문자_일반주서
 62
     0
370
    -2
100
AcDbLine
 10
31.74999999232046
 20
3.237499999999994
 30
0.0
 11
31.74999999232045
 21
53.00024813973976
 31
0.0
  0
LINE
  5
15E
330
15A
100
AcDbEntity
  8
치수문자_일반주서
 62
     0
370
    -2
100
AcDbLine
 10
-50.79999999999998
 20
2.427500000000001
 30
0.0
 11
-50.79999999999998
 21
53.00024813973976
 31
0.0
  0
LINE
  5
15F
330
15A
100
AcDbEntity
  8
치수문자_일반주서
 62
     0
370
    -2
100
AcDbLine
 10
28.44799999232045
 20
53.00024813973976
 30
0.0
 11
-47.49799999999998
 21
53.00024813973976
 31
0.0
  0
SOLID
  5
160
330
15A
100
AcDbEntity
  8
치수문자_일반주서
 62
     0
100
AcDbTrace
 10
28.44799999232045
 20
52.44991480640643
 30
0.0
 11
28.44799999232045
 21
53.55058147307309
 31
0.0
 12
31.74999999232045
 22
53.00024813973976
 32
0.0
 13
31.74999999232045
 23
53.00024813973976
 33
0.0
  0
SOLID
  5
161
330
15A
100
AcDbEntity
  8
치수문자_일반주서
 62
     0
100
AcDbTrace
 10
-47.49799999999998
 20
53.55058147307309
 30
0.0
 11
-47.49799999999998
 21
52.44991480640643
 31
0.0
 12
-50.79999999999998
 22
53.00024813973976
 32
0.0
 13
-50.79999999999998
 23
53.00024813973976
 33
0.0
  0
MTEXT
  5
162
330
15A
100
AcDbEntity
  8
치수문자_일반주서
 62
     0
100
AcDbMText
 10
-9.525000003839764
 20
55.62524813973976
 30
0.0
 40
3.5
 41
0.0
 71
     5
 72
     1
  1
\A1;82.55 [3 1/4]
  7
SLDTEXTSTYLE0
 73
     1
 44
1.0
  0
POINT
  5
163
330
15A
100
AcDbEntity
  8
Defpoints
 62
     0
100
AcDbPoint
 10
31.74999999232046
 20
3.174999999999994
 30
0.0
  0
POINT
  5
164
330
15A
100
AcDbEntity
  8
Defpoints
 62
     0
100
AcDbPoint
 10
-50.79999999999998
 20
2.365000000000001
 30
0.0
  0
POINT
  5
165
330
15A
100
AcDbEntity
  8
Defpoints
 62
     0
100
AcDbPoint
 10
-50.79999999999998
 20
53.00024813973976
 30
0.0
  0
ENDBLK
  5
15C
330
15A
100
AcDbEntity
  8
0
100
AcDbBlockEnd
  0
ENDSEC
  0
SECTION
  2
ENTITIES
  0
LINE
  5
95
330
1F
100
AcDbEntity
  8
0
  6
Continuous
 62
     4
370
    15
100
AcDbLine
 10
0.0
 20
3.175000000000002
 30
0.0
 11
-49.99000000000002
 21
3.175000000000002
 31
0.0
  0
LINE
  5
96
330
1F
100
AcDbEntity
  8
0
  6
Continuous
 62
     4
370
    15
100
AcDbLine
 10
-49.99000000000002
 20
-3.175000000000002
 30
0.0
 11
0.0
 21
-3.175000000000002
 31
0.0
  0
LINE
  5
97
330
1F
100
AcDbEntity
  8
0
  6
Continuous
 62
     4
370
    15
100
AcDbLine
 10
-49.99000000000002
 20
3.175000000000001
 30
0.0
 11
-50.79999999999998
 21
2.365000000000001
 31
0.0
  0
LINE
  5
98
330
1F
100
AcDbEntity
  8
0
  6
Continuous
 62
     4
370
    15
100
AcDbLine
 10
-50.79999999999998
 20
-2.365000000000001
 30
0.0
 11
-49.99000000000002
 21
-3.175000000000001
 31
0.0
  0
LINE
  5
9A
330
1F
100
AcDbEntity
  8
0
  6
Continuous
 62
     4
370
    15
100
AcDbLine
 10
23.56378056982815
 20
1.467412018308044
 30
0.0
 11
23.56359451183296
 21
1.467693121275235
 31
0.0
  0
LINE
  5
9D
330
1F
100
AcDbEntity
  8
0
  6
Continuous
 62
     4
370
    15
100
AcDbLine
 10
19.26008867126871
 20
-2.539999999999998
 30
0.0
 11
20.52472198749119
 21
-2.539999999999998
 31
0.0
  0
LINE
  5
9F
330
1F
100
AcDbEntity
  8
0
  6
Continuous
 62
     1
370
    15
100
AcDbLine
 10
27.63098214183967
 20
-3.175
 30
0.0
 11
28.575
 21
-3.175
 31
0.0
  0
ARC
  5
A0
330
1F
100
AcDbEntity
  8
0
  6
Continuous
 62
     1
370
    15
100
AcDbCircle
 10
28.575
 20
0.0
 30
0.0
 40
3.175000000000001
100
AcDbArc
 50
84.26260401246566
 51
90.0
  0
ARC
  5
A1
330
1F
100
AcDbEntity
  8
0
  6
Continuous
 62
     1
370
    15
100
AcDbCircle
 10
28.575
 20
0.0
 30
0.0
 40
3.175000000000006
100
AcDbArc
 50
335.2244317300706
 51
24.76759817401677
  0
ARC
  5
A2
330
1F
100
AcDbEntity
  8
0
  6
Continuous
 62
     1
370
    15
100
AcDbCircle
 10
28.575
 20
0.0
 30
0.0
 40
3.175000000000001
100
AcDbArc
 50
270.0000000000007
 51
275.7095393258404
  0
LINE
  5
A3
330
1F
100
AcDbEntity
  8
0
  6
Continuous
 62
     1
370
    15
100
AcDbLine
 10
28.575
 20
3.175
 30
0.0
 11
27.63098214183966
 21
3.175
 31
0.0
  0
LINE
  5
A4
330
1F
100
AcDbEntity
  8
0
  6
Continuous
 62
     1
370
    15
100
AcDbLine
 10
0.0
 20
0.0
 30
0.0
 11
0.0
 21
-3.175000000000002
 31
0.0
  0
LINE
  5
A5
330
1F
100
AcDbEntity
  8
0
  6
Continuous
 62
     1
370
    15
100
AcDbLine
 10
0.0
 20
3.175000000000002
 30
0.0
 11
0.0
 21
0.0
 31
0.0
  0
LINE
  5
A6
330
1F
100
AcDbEntity
  8
0
  6
Continuous
 62
     4
370
    15
100
AcDbLine
 10
-49.99000000000002
 20
0.0
 30
0.0
 11
-49.99000000000002
 21
-3.175000000000002
 31
0.0
  0
LINE
  5
A7
330
1F
100
AcDbEntity
  8
0
  6
Continuous
 62
     4
370
    15
100
AcDbLine
 10
-49.99000000000002
 20
3.175000000000002
 30
0.0
 11
-49.99000000000002
 21
0.0
 31
0.0
  0
LINE
  5
A8
330
1F
100
AcDbEntity
  8
0
  6
Continuous
 62
     4
370
    15
100
AcDbLine
 10
-50.79999999999998
 20
0.0
 30
0.0
 11
-50.79999999999998
 21
-2.365
 31
0.0
  0
LINE
  5
A9
330
1F
100
AcDbEntity
  8
0
  6
Continuous
 62
     4
370
    15
100
AcDbLine
 10
-50.79999999999998
 20
2.364999999999999
 30
0.0
 11
-50.79999999999998
 21
0.0
 31
0.0
  0
SPLINE
  5
AD
330
1F
100
AcDbEntity
  8
0
  6
Continuous
 62
     4
370
    15
100
AcDbSpline
210
0.0
220
0.0
230
1.0
 70
     8
 71
     3
 72
    30
 73
    26
 74
     0
 42
0.000000001
 43
0.00000001
 40
0.0
 40
0.0
 40
0.0
 40
0.0
 40
0.1249999999999993
 40
0.1249999999999993
 40
0.1874999999999989
 40
0.1874999999999989
 40
0.2499999999999986
 40
0.2499999999999986
 40
0.3749999999999978
 40
0.3749999999999978
 40
0.4374999999999978
 40
0.4374999999999978
 40
0.4999999999999978
 40
0.4999999999999978
 40
0.6249999999999977
 40
0.6249999999999977
 40
0.687499999999998
 40
0.687499999999998
 40
0.7499999999999983
 40
0.7499999999999983
 40
0.8749999999999991
 40
0.8749999999999991
 40
0.9374999999999996
 40
0.9374999999999996
 40
1.0
 40
1.0
 40
1.0
 40
1.0
 10
23.32618174612336
 20
-1.754088200365529
 30
0.0
 10
23.09027460146159
 20
-1.708727726951615
 30
0.0
 10
22.8469677653443
 20
-1.641610999272737
 30
0.0
 10
22.49027211300941
 20
-1.513411177042502
 30
0.0
 10
22.37353516040798
 20
-1.466305754001937
 30
0.0
 10
22.13519886051579
 20
-1.362961651471877
 30
0.0
 10
22.0148167237978
 20
-1.306850045935343
 30
0.0
 10
21.65489341057176
 20
-1.127386030465704
 30
0.0
 10
21.42115633146992
 20
-0.9938205584678079
 30
0.0
 10
21.06152173778041
 20
-0.7763889075233364
 30
0.0
 10
20.94107502602403
 20
-0.701229245076767
 30
0.0
 10
20.70229369344205
 20
-0.5475913364203499
 30
0.0
 10
20.58533917535939
 20
-0.4694308167606817
 30
0.0
 10
20.22950030292584
 20
-0.2303658094127645
 30
0.0
 10
19.98612785617256
 20
-0.0649045084285863
 30
0.0
 10
19.63123026059499
 20
0.1792305335994814
 30
0.0
 10
19.51385056240528
 20
0.2601098094262421
 30
0.0
 10
19.27468825147282
 20
0.4208187060497949
 30
0.0
 10
19.15420891044733
 20
0.5003444026546825
 30
0.0
 10
18.79495436675343
 20
0.7332093118286465
 30
0.0
 10
18.56103668797879
 20
0.8803208102319381
 30
0.0
 10
18.20091986633859
 20
1.084439310485705
 30
0.0
 10
18.08063338175659
 20
1.149445076531702
 30
0.0
 10
17.84280018976236
 20
1.27169984126165
 30
0.0
 10
17.72607026663592
 20
1.328851510872688
 30
0.0
 10
17.60691812391608
 20
1.382246111195181
 30
0.0
  0
SPLINE
  5
AE
330
1F
100
AcDbEntity
  8
0
  6
Continuous
 62
     4
370
    15
100
AcDbSpline
210
0.0
220
0.0
230
1.0
 70
     8
 71
     3
 72
    28
 73
    24
 74
     0
 42
0.000000001
 43
0.00000001
 40
0.0
 40
0.0
 40
0.0
 40
0.0
 40
0.1250000000000004
 40
0.1250000000000004
 40
0.2500000000000009
 40
0.2500000000000009
 40
0.3750000000000013
 40
0.3750000000000013
 40
0.5000000000000018
 40
0.5000000000000018
 40
0.5625000000000018
 40
0.5625000000000018
 40
0.6250000000000018
 40
0.6250000000000018
 40
0.7500000000000014
 40
0.7500000000000014
 40
0.8125000000000011
 40
0.8125000000000011
 40
0.8750000000000008
 40
0.8750000000000008
 40
0.9375000000000004
 40
0.9375000000000004
 40
1.0
 40
1.0
 40
1.0
 40
1.0
 10
22.85385007163421
 20
0.5941910844255827
 30
0.0
 10
22.6335493067692
 20
0.7980820157429113
 30
0.0
 10
22.41878438342301
 20
0.9946035641515765
 30
0.0
 10
21.98012170956139
 20
1.367121111984396
 30
0.0
 10
21.75755929049768
 20
1.542471131265961
 30
0.0
 10
21.32588070144758
 20
1.856089320448433
 30
0.0
 10
21.10447596583601
 20
1.997340057150185
 30
0.0
 10
20.66504367683027
 20
2.236527538910256
 30
0.0
 10
20.45063355158192
 20
2.334174384405463
 30
0.0
 10
20.12043286453157
 20
2.445679679371233
 30
0.0
 10
20.00996685651925
 20
2.476844070447119
 30
0.0
 10
19.79074794396383
 20
2.526506894840408
 30
0.0
 10
19.68311131580899
 20
2.544972801318029
 30
0.0
 10
19.35750583023492
 20
2.581527097902398
 30
0.0
 10
19.13468147290887
 20
2.580347742228001
 30
0.0
 10
18.80680195306248
 20
2.540072073618215
 30
0.0
 10
18.69963385894105
 20
2.520412984508554
 30
0.0
 10
18.48168513987825
 20
2.468487736880298
 30
0.0
 10
18.37147808660142
 20
2.436201432173992
 30
0.0
 10
18.15109048587043
 20
2.359578716015241
 30
0.0
 10
18.04091628950576
 20
2.315244530543752
 30
0.0
 10
17.82309653604991
 20
2.215672078338144
 30
0.0
 10
17.71588858454583
 20
2.160558062298328
 30
0.0
 10
17.60654138454632
 20
2.099863156228351
 30
0.0
  0
SPLINE
  5
AF
330
1F
100
AcDbEntity
  8
0
  6
Continuous
 62
     4
370
    15
100
AcDbSpline
210
0.0
220
0.0
230
1.0
 70
     8
 71
     3
 72
    10
 73
     6
 74
     0
 42
0.000000001
 43
0.00000001
 40
0.0
 40
0.0
 40
0.0
 40
0.0
 40
0.4270972007138223
 40
0.8539900566423638
 40
0.9999999999999999
 40
0.9999999999999999
 40
0.9999999999999999
 40
0.9999999999999999
 10
17.60654138454656
 20
-2.065212528691046
 30
0.0
 10
17.84198604139459
 20
-2.179621614410982
 30
0.0
 10
18.31276270652316
 20
-2.408385046789074
 30
0.0
 10
18.86354226165281
 20
-2.546406380400616
 30
0.0
 10
19.17955077651146
 20
-2.52528939886012
 30
0.0
 10
19.26008867126871
 20
-2.519907527306248
 30
0.0
  0
LINE
  5
B0
330
1F
100
AcDbEntity
  8
0
  6
Continuous
 62
     4
370
    15
100
AcDbLine
 10
17.60691812391608
 20
-2.721213450273096
 30
0.0
 11
17.60691812391608
 21
-2.064994979764617
 31
0.0
  0
LINE
  5
B2
330
1F
100
AcDbEntity
  8
0
  6
Continuous
 62
     4
370
    15
100
AcDbLine
 10
17.60691812391608
 20
-1.162359905658564
 30
0.0
 11
17.60691812391608
 21
2.721213450273086
 31
0.0
  0
SPLINE
  5
B3
330
1F
100
AcDbEntity
  8
0
  6
Continuous
 62
     4
370
    15
100
AcDbSpline
210
0.0
220
0.0
230
1.0
 70
     8
 71
     3
 72
    28
 73
    24
 74
     0
 42
0.000000001
 43
0.00000001
 40
0.0
 40
0.0
 40
0.0
 40
0.0
 40
0.1249999999999999
 40
0.1249999999999999
 40
0.2499999999999998
 40
0.2499999999999998
 40
0.3749999999999996
 40
0.3749999999999996
 40
0.4999999999999994
 40
0.4999999999999994
 40
0.5624999999999996
 40
0.5624999999999996
 40
0.6249999999999998
 40
0.6249999999999998
 40
0.7499999999999998
 40
0.7499999999999998
 40
0.8124999999999998
 40
0.8124999999999998
 40
0.8749999999999999
 40
0.8749999999999999
 40
0.9374999999999999
 40
0.9374999999999999
 40
1.0
 40
1.0
 40
1.0
 40
1.0
 10
22.85385007163984
 20
-1.629517113195108
 30
0.0
 10
22.6335651197207
 20
-1.789846771537809
 30
0.0
 10
22.41881540349869
 20
-1.932362987017747
 30
0.0
 10
21.98018514956489
 20
-2.177682061365288
 30
0.0
 10
21.75763866456377
 20
-2.279793949935987
 30
0.0
 10
21.32598724069273
 20
-2.434478363256819
 30
0.0
 10
21.104603251305
 20
-2.488563598667625
 30
0.0
 10
20.66520026977889
 20
-2.544941168612088
 30
0.0
 10
20.45080644276234
 20
-2.547541936904314
 30
0.0
 10
20.12063083564887
 20
-2.51293605313266
 30
0.0
 10
20.01017251957068
 20
-2.494955678232125
 30
0.0
 10
19.79096713593827
 20
-2.446566088800841
 30
0.0
 10
19.68333518949067
 20
-2.416291915778853
 30
0.0
 10
19.35775922434484
 20
-2.307303408577321
 30
0.0
 10
19.13495184642812
 20
-2.209712933196283
 30
0.0
 10
18.80709039678644
 20
-2.032261553650487
 30
0.0
 10
18.69992880124037
 20
-1.968246782425944
 30
0.0
 10
18.48200031179858
 20
-1.82994627992066
 30
0.0
 10
18.37180241136051
 20
-1.75572965613415
 30
0.0
 10
18.15143056673098
 20
-1.598746998581298
 30
0.0
 10
18.04126297136956
 20
-1.515985499141359
 30
0.0
 10
17.82345343172711
 20
-1.343891092703642
 30
0.0
 10
17.71625511656401
 20
-1.254711212263614
 30
0.0
 10
17.60691812391608
 20
-1.162010021509451
 30
0.0
  0
SPLINE
  5
B5
330
1F
100
AcDbEntity
  8
0
  6
Continuous
 62
     1
370
    15
100
AcDbSpline
210
0.0
220
0.0
230
1.0
 70
     8
 71
     3
 72
    10
 73
     6
 74
     0
 42
0.000000001
 43
0.00000001
 40
0.0
 40
0.0
 40
0.0
 40
0.0
 40
0.5
 40
0.5
 40
1.0
 40
1.0
 40
1.0
 40
1.0
 10
29.79393962180465
 20
-1.012149901843324
 30
0.0
 10
30.03143274033352
 20
-1.106613320759193
 30
0.0
 10
30.2704107758481
 20
-1.19631286393796
 30
0.0
 10
30.74653843341897
 20
-1.38147415386244
 30
0.0
 10
30.98351336677321
 20
-1.477441673590731
 30
0.0
 10
31.21302441725614
 20
-1.596624679236808
 30
0.0
  0
SPLINE
  5
B6
330
1F
100
AcDbEntity
  8
0
  6
Continuous
 62
     1
370
    15
100
AcDbSpline
210
0.0
220
0.0
230
1.0
 70
     8
 71
     3
 72
    16
 73
    12
 74
     0
 42
0.000000001
 43
0.00000001
 40
0.0
 40
0.0
 40
0.0
 40
0.0
 40
0.1393996027686072
 40
0.2828320441993942
 40
0.421515206296127
 40
0.5649805587027923
 40
0.6580280683264507
 40
0.7533875354144187
 40
0.8943391553550221
 40
0.9950246079041813
 40
1.0
 40
1.0
 40
1.0
 40
1.0
 10
28.575
 20
-3.152129002385595
 30
0.0
 10
28.68753250250372
 20
-3.159877248886852
 30
0.0
 10
28.91585307939113
 20
-3.175597899113876
 30
0.0
 10
29.25238855721999
 20
-3.086221580868985
 30
0.0
 10
29.59596503253349
 20
-2.913350071680916
 30
0.0
 10
29.89808487388999
 20
-2.684693400389775
 30
0.0
 10
30.16818683914243
 20
-2.434302303162129
 30
0.0
 10
30.44036852400794
 20
-2.151456513872181
 30
0.0
 10
30.71972543604614
 20
-1.837100394332585
 30
0.0
 10
30.92933825896281
 20
-1.590625091154305
 30
0.0
 10
31.00968594455847
 20
-1.509822900546794
 30
0.0
 10
31.01346938241734
 20
-1.506018060808628
 30
0.0
  0
SPLINE
  5
B7
330
1F
100
AcDbEntity
  8
0
  6
Continuous
 62
     1
370
    15
100
AcDbSpline
210
0.0
220
0.0
230
1.0
 70
     8
 71
     3
 72
     9
 73
     5
 74
     0
 42
0.000000001
 43
0.00000001
 40
0.0
 40
0.0
 40
0.0
 40
0.0
 40
0.2754781186288593
 40
1.0
 40
1.0
 40
1.0
 40
1.0
 10
31.45525831362311
 20
-1.329065238085807
 30
0.0
 10
31.44296354650013
 20
-1.35489653326121
 30
0.0
 10
31.39833289785124
 20
-1.448665487775542
 30
0.0
 10
31.29087790838651
 20
-1.534462712532579
 30
0.0
 10
31.2130244172568
 20
-1.596624679229971
 30
0.0
  0
SPLINE
  5
B8
330
1F
100
AcDbEntity
  8
0
  6
Continuous
 62
     1
370
    15
100
AcDbSpline
210
0.0
220
0.0
230
1.0
 70
     8
 71
     3
 72
    22
 73
    18
 74
     0
 42
0.000000001
 43
0.00000001
 40
0.0
 40
0.0
 40
0.0
 40
0.0
 40
0.125
 40
0.125
 40
0.2500000000000001
 40
0.2500000000000001
 40
0.3750000000000001
 40
0.3750000000000001
 40
0.5
 40
0.5
 40
0.625
 40
0.625
 40
0.7499999999999999
 40
0.7499999999999999
 40
0.875
 40
0.875
 40
1.0
 40
1.0
 40
1.0
 40
1.0
 10
28.57499999999944
 20
-3.152129002385515
 30
0.0
 10
28.40855241028476
 20
-3.128472406218434
 30
0.0
 10
28.24142492961381
 20
-3.086343395524024
 30
0.0
 10
27.91438567868637
 20
-2.96793927311136
 30
0.0
 10
27.74933676043078
 20
-2.89114609735344
 30
0.0
 10
27.41623012880767
 20
-2.704416488588484
 30
0.0
 10
27.24995937661445
 20
-2.594765235445187
 30
0.0
 10
26.92396994254707
 20
-2.348627698823467
 30
0.0
 10
26.75707657112793
 20
-2.210320461211135
 30
0.0
 10
26.42402864655362
 20
-1.909788853967027
 30
0.0
 10
26.25978612386562
 20
-1.748262714427483
 30
0.0
 10
25.93199530668782
 20
-1.407338384302431
 30
0.0
 10
25.76471760157622
 20
-1.226573299500361
 30
0.0
 10
25.43199838463353
 20
-0.853533756012695
 30
0.0
 10
25.26917200562582
 20
-0.6623372858530168
 30
0.0
 10
24.93983573673619
 20
-0.273147454435325
 30
0.0
 10
24.7723106982259
 20
-0.0747191736557094
 30
0.0
 10
24.60625000000001
 20
0.1224278525123563
 30
0.0
  0
SPLINE
  5
B9
330
1F
100
AcDbEntity
  8
0
  6
Continuous
 62
     4
370
    15
100
AcDbSpline
210
0.0
220
0.0
230
1.0
 70
     8
 71
     3
 72
    14
 73
    10
 74
     0
 42
0.000000001
 43
0.00000001
 40
0.0858232289143098
 40
0.0858232289143098
 40
0.0858232289143098
 40
0.0858232289143098
 40
0.25
 40
0.25
 40
0.5
 40
0.5
 40
0.75
 40
0.75
 40
1.0
 40
1.0
 40
1.0
 40
1.0
 10
21.38834229442094
 20
2.623754064404954
 30
0.0
 10
21.92637966029744
 20
2.471438125606013
 30
0.0
 10
22.30009858759034
 20
2.140701736422675
 30
0.0
 10
23.43330270590929
 20
1.350633757539834
 30
0.0
 10
23.58155682304171
 20
1.22470595519882
 30
0.0
 10
23.87581830927936
 20
0.947555870509328
 30
0.0
 10
24.02470120462257
 20
0.7923925866392292
 30
0.0
 10
24.31662314512475
 20
0.4666128569504608
 30
0.0
 10
24.4599987540377
 20
0.2960571249584026
 30
0.0
 10
24.60625
 20
0.1224278525123566
 30
0.0
  0
SPLINE
  5
BB
330
1F
100
AcDbEntity
  8
0
  6
Continuous
 62
     1
370
    15
100
AcDbSpline
210
0.0
220
0.0
230
1.0
 70
     8
 71
     3
 72
    28
 73
    24
 74
     0
 42
0.000000001
 43
0.00000001
 40
0.0
 40
0.0
 40
0.0
 40
0.0
 40
0.1249999999999988
 40
0.1249999999999988
 40
0.1874999999999987
 40
0.1874999999999987
 40
0.2499999999999987
 40
0.2499999999999987
 40
0.3124999999999986
 40
0.3124999999999986
 40
0.3749999999999986
 40
0.3749999999999986
 40
0.4374999999999985
 40
0.4374999999999985
 40
0.4999999999999984
 40
0.4999999999999984
 40
0.6249999999999983
 40
0.6249999999999983
 40
0.6874999999999986
 40
0.6874999999999986
 40
0.7499999999999989
 40
0.7499999999999989
 40
0.8065370942789463
 40
0.8065370942789463
 40
0.8065370942789463
 40
0.8065370942789463
 10
29.81481297768393
 20
-1.00455262161407
 30
0.0
 10
29.54970886701984
 20
-0.8519163542184467
 30
0.0
 10
29.2757813730053
 20
-0.682216062916495
 30
0.0
 10
28.87894884631917
 20
-0.4190134145268042
 30
0.0
 10
28.74620463039076
 20
-0.3292740276187732
 30
0.0
 10
28.47719613401501
 20
-0.1471868517150005
 30
0.0
 10
28.34203141264794
 20
-0.0550886139886125
 30
0.0
 10
28.07495747502356
 20
0.1280902311045161
 30
0.0
 10
27.94403396904114
 20
0.2189475076970246
 30
0.0
 10
27.67633525792873
 20
0.3996569679430477
 30
0.0
 10
27.54109332119811
 20
0.4891473848963908
 30
0.0
 10
27.27240934987897
 20
0.663352569519119
 30
0.0
 10
27.14055857233748
 20
0.7477387595764149
 30
0.0
 10
26.87508569179511
 20
0.9106570260726339
 30
0.0
 10
26.74024059952708
 20
0.9894114063542457
 30
0.0
 10
26.33619065710447
 20
1.213410314250229
 30
0.0
 10
26.07358025378341
 20
1.34538924276183
 30
0.0
 10
25.66990921250035
 20
1.511674822094595
 30
0.0
 10
25.53479116512216
 20
1.561623962389702
 30
0.0
 10
25.26800425115238
 20
1.648971297253868
 30
0.0
 10
25.13699544550496
 20
1.686374643032742
 30
0.0
 10
24.88184744458839
 20
1.745765067279383
 30
0.0
 10
24.75960457823454
 20
1.768709013591945
 30
0.0
 10
24.63799999232046
 20
1.786067733579613
 30
0.0
  0
LINE
  5
BC
330
1F
100
AcDbEntity
  8
0
  6
Continuous
 62
     1
370
    15
100
AcDbLine
 10
29.81481297768393
 20
-1.004552621614079
 30
0.0
 11
29.8091116573731
 21
-1.006627732503239
 31
0.0
  0
SPLINE
  5
BD
330
1F
100
AcDbEntity
  8
0
  6
Continuous
 62
     4
370
    15
100
AcDbSpline
210
0.0
220
0.0
230
1.0
 70
     8
 71
     3
 72
     9
 73
     5
 74
     0
 42
0.000000001
 43
0.00000001
 40
0.2091608004196684
 40
0.2091608004196684
 40
0.2091608004196684
 40
0.2091608004196684
 40
0.5912784168028676
 40
1.0
 40
1.0
 40
1.0
 40
1.0
 10
24.63799999232046
 20
-1.788114260884055
 30
0.0
 10
24.43819290308218
 20
-1.826064460462516
 30
0.0
 10
24.02527790614868
 20
-1.841924140225616
 30
0.0
 10
23.61132930221045
 20
-1.792639347868318
 30
0.0
 10
23.39739234909322
 20
-1.767167977240122
 30
0.0
  0
SPLINE
  5
BF
330
1F
100
AcDbEntity
  8
0
  6
Continuous
 62
     4
370
    15
100
AcDbSpline
210
0.0
220
0.0
230
1.0
 70
     8
 71
     3
 72
    14
 73
    10
 74
     0
 42
0.000000001
 43
0.00000001
 40
0.0
 40
0.0
 40
0.0
 40
0.0
 40
0.25
 40
0.25
 40
0.5
 40
0.5
 40
0.75
 40
0.75
 40
1.0
 40
1.0
 40
1.0
 40
1.0
 10
24.60625000000001
 20
-1.340350601070847
 30
0.0
 10
24.45869086412104
 20
-1.181425998299023
 30
0.0
 10
24.31568422586495
 20
-1.013568677337669
 30
0.0
 10
24.02713653843406
 20
-0.6694671766238154
 30
0.0
 10
23.87984154962209
 20
-0.4909979650156433
 30
0.0
 10
23.58995184283432
 20
-0.1466673951576798
 30
0.0
 10
23.4470502922915
 20
0.0211129617008125
 30
0.0
 10
23.15327937086012
 20
0.3359365981777146
 30
0.0
 10
23.00499907482833
 20
0.4786382830776935
 30
0.0
 10
22.85385007163421
 20
0.5941910844255827
 30
0.0
  0
SPLINE
  5
C0
330
1F
100
AcDbEntity
  8
0
  6
Continuous
 62
     1
370
    15
100
AcDbSpline
210
0.0
220
0.0
230
1.0
 70
     8
 71
     3
 72
    14
 73
    10
 74
     0
 42
0.000000001
 43
0.00000001
 40
0.0
 40
0.0
 40
0.0
 40
0.0
 40
0.0233280006493224
 40
0.2182800499964815
 40
0.4134458324756027
 40
0.6078781678426249
 40
0.8031639916562555
 40
0.9979772057259838
 40
0.9999999999999999
 40
0.9999999999999999
 40
0.9999999999999999
 40
0.9999999999999999
 10
24.60625000000001
 20
-1.340350601070849
 30
0.0
 10
24.62979274788283
 20
-1.365581569599485
 30
0.0
 10
24.8500821872638
 20
-1.601667685794374
 30
0.0
 10
25.26644976674871
 20
-2.022104122270174
 30
0.0
 10
25.85722653412062
 20
-2.515453732226451
 30
0.0
 10
26.44468275552848
 20
-2.893155814606394
 30
0.0
 10
27.03574385622047
 20
-3.109381704221974
 30
0.0
 10
27.43076006506946
 20
-3.200218294005234
 30
0.0
 10
27.6289454803236
 20
-3.174469874293955
 30
0.0
 10
27.63098214183967
 20
-3.174205269477005
 30
0.0
  0
SPLINE
  5
C3
330
1F
100
AcDbEntity
  8
0
  6
Continuous
 62
     1
370
    15
100
AcDbSpline
210
0.0
220
0.0
230
1.0
 70
     8
 71
     3
 72
    14
 73
    10
 74
     0
 42
0.000000001
 43
0.00000001
 40
0.0
 40
0.0
 40
0.0
 40
0.0
 40
0.0831901793031692
 40
0.2467544869836358
 40
0.4097041081776353
 40
0.5733690199574611
 40
0.7366378475232285
 40
0.8996605801755296
 40
1.0
 40
1.0
 40
1.0
 40
1.0
 10
24.96632306576068
 20
1.705060838128141
 30
0.0
 10
25.06638076892546
 20
1.80735728473647
 30
0.0
 10
25.36316684896515
 20
2.110783811936246
 30
0.0
 10
25.85722195461552
 20
2.513637959590142
 30
0.0
 10
26.44468978999335
 20
2.89064228725797
 30
0.0
 10
27.03572021083974
 20
3.121310956438575
 30
0.0
 10
27.62476494294165
 20
3.199777565455186
 30
0.0
 10
28.13669208122495
 20
3.138459777674616
 30
0.0
 10
28.45407788796143
 20
3.022128872776446
 30
0.0
 10
28.57499999999979
 20
2.977807487203902
 30
0.0
  0
SPLINE
  5
C4
330
1F
100
AcDbEntity
  8
0
  6
Continuous
 62
     1
370
    15
100
AcDbSpline
210
0.0
220
0.0
230
1.0
 70
     8
 71
     3
 72
    22
 73
    18
 74
     0
 42
0.000000001
 43
0.00000001
 40
0.0
 40
0.0
 40
0.0
 40
0.0
 40
0.125
 40
0.125
 40
0.25
 40
0.25
 40
0.375
 40
0.375
 40
0.5
 40
0.5
 40
0.625
 40
0.625
 40
0.75
 40
0.75
 40
0.875
 40
0.875
 40
1.0
 40
1.0
 40
1.0
 40
1.0
 10
31.44965284295195
 20
-0.4095195728647509
 30
0.0
 10
31.41249868669236
 20
-0.2475039966532551
 30
0.0
 10
31.34914341430303
 20
-0.0937653662921535
 30
0.0
 10
31.18990187685812
 20
0.2142157444728679
 30
0.0
 10
31.09224432703959
 20
0.3712201335877635
 30
0.0
 10
30.87465072582959
 20
0.6944235799952904
 30
0.0
 10
30.75721453042286
 20
0.8578599221317327
 30
0.0
 10
30.50662441550238
 20
1.189623007828057
 30
0.0
 10
30.37179382039334
 20
1.360001413900074
 30
0.0
 10
30.10129456824906
 20
1.687073277221636
 30
0.0
 10
29.96371179111245
 20
1.847043198467501
 30
0.0
 10
29.68487190741911
 20
2.150117224859383
 30
0.0
 10
29.54593880340946
 20
2.28936330795835
 30
0.0
 10
29.26599786089264
 20
2.542308762346232
 30
0.0
 10
29.12558399715693
 20
2.655077711420612
 30
0.0
 10
28.8512963673429
 20
2.843680688288845
 30
0.0
 10
28.71364281864615
 20
2.920750596685491
 30
0.0
 10
28.575
 20
2.977807487203815
 30
0.0
  0
SPLINE
  5
C5
330
1F
100
AcDbEntity
  8
0
  6
Continuous
 62
     1
370
    15
100
AcDbSpline
210
0.0
220
0.0
230
1.0
 70
    24
 71
     3
 72
    14
 73
    10
 74
     0
 42
0.000000001
 43
0.00000001
 40
0.0
 40
0.0
 40
0.0
 40
0.0
 40
0.25
 40
0.25
 40
0.5
 40
0.5
 40
0.75
 40
0.75
 40
1.0
 40
1.0
 40
1.0
 40
1.0
 10
31.4496528429521
 20
-0.4095195728649248
 30
0.0
 10
31.32313588293593
 20
-0.4555679804406561
 30
0.0
 10
31.18110749381878
 20
-0.5072620864998523
 30
0.0
 10
30.89257676671196
 20
-0.6122786828379165
 30
0.0
 10
30.74574811635164
 20
-0.6657199411062655
 30
0.0
 10
30.46044567424866
 20
-0.7695615377952102
 30
0.0
 10
30.31936522302201
 20
-0.8209106226788404
 30
0.0
 10
30.05528159606122
 20
-0.9170292022496287
 30
0.0
 10
29.92972381015217
 20
-0.9627284990008939
 30
0.0
 10
29.81481297768394
 20
-1.00455262161408
 30
0.0
  0
SPLINE
  5
C7
330
1F
100
AcDbEntity
  8
0
  6
Continuous
 62
     1
370
    15
100
AcDbSpline
210
0.0
220
0.0
230
1.0
 70
     8
 71
     3
 72
    22
 73
    18
 74
     0
 42
0.000000001
 43
0.00000001
 40
0.0
 40
0.0
 40
0.0
 40
0.0
 40
0.0054489296701325
 40
0.0997005176473421
 40
0.1908312836228016
 40
0.2851044978911589
 40
0.3462473987012689
 40
0.4089095211056936
 40
0.5015309244286831
 40
0.5676928309980663
 40
0.6211294657795061
 40
0.6748379262642727
 40
0.722589796150594
 40
0.7869365761619198
 40
0.8397825846820536
 40
0.893933743972358
 40
0.9999999999999999
 40
0.9999999999999999
 40
0.9999999999999999
 40
0.9999999999999999
 10
28.89194224517026
 20
3.156697770664136
 30
0.0
 10
28.89862560375689
 20
3.156837280496082
 30
0.0
 10
29.02091279611363
 20
3.1593899290535
 30
0.0
 10
29.25221979227788
 20
3.081249038233015
 30
0.0
 10
29.59602350629218
 20
2.914704191883415
 30
0.0
 10
29.89803589079534
 20
2.684563211145471
 30
0.0
 10
30.16828467471514
 20
2.434116328136302
 30
0.0
 10
30.43991817856121
 20
2.152545331745117
 30
0.0
 10
30.72199356433819
 20
1.831503612948784
 30
0.0
 10
30.98891717105204
 20
1.527440790597832
 30
0.0
 10
31.19352297016547
 20
1.318333868579384
 30
0.0
 10
31.34590114178769
 20
1.197482473163374
 30
0.0
 10
31.45354009460974
 20
1.159108649416481
 30
0.0
 10
31.49384875152371
 20
1.205871499719847
 30
0.0
 10
31.47554265620583
 20
1.300532824591597
 30
0.0
 10
31.40259552387114
 20
1.4419144312096
 30
0.0
 10
31.28853448299613
 20
1.535000409543922
 30
0.0
 10
31.21302441725065
 20
1.596624679233947
 30
0.0
  0
LINE
  5
C9
330
1F
100
AcDbEntity
  8
0
  6
Continuous
 62
     1
370
    15
100
AcDbLine
 10
31.01629868246372
 20
1.503164323219274
 30
0.0
 11
31.21302441725566
 21
1.596624679237799
 31
0.0
  0
ARC
  5
CA
330
1F
100
AcDbEntity
  8
0
  6
Continuous
 62
     1
370
    15
100
AcDbCircle
 10
29.23036280479136
 20
-0.0473156508099752
 30
0.0
 40
2.516208563515248
100
AcDbArc
 50
321.9949038840601
 51
354.0919539459916
  0
LINE
  5
CB
330
1F
100
AcDbEntity
  8
0
  6
Continuous
 62
     1
370
    15
100
AcDbLine
 10
31.44965284295194
 20
-0.4095195728647514
 30
0.0
 11
31.73320620479756
 21
-0.306314589326834
 31
0.0
  0
LINE
  5
CC
330
1F
100
AcDbEntity
  8
중심선
 62
     1
100
AcDbLine
 10
-53.8
 20
-0.0000000000000061
 30
0.0
 11
34.74999999999999
 21
-0.0000000000000061
 31
0.0
  0
CIRCLE
  5
CD
330
1F
100
AcDbEntity
  8
해칭선
100
AcDbCircle
 10
0.0
 20
0.0
 30
0.0
 40
3.000000000000001
  0
INSERT
  5
CE
330
1F
100
AcDbEntity
  8
0
  6
Continuous
 62
     7
100
AcDbBlockReference
 66
     1
  2
블럭10
 10
-23.46578629968143
 20
-52.04717430164393
 30
0.0
  0
ATTRIB
  5
CF
330
CE
100
AcDbEntity
  8
FORMAT
 62
     2
100
AcDbText
 10
-33.60742231181806
 20
-49.97180738881174
 30
0.0
 40
4.233333333333333
  1
EM093016 [ 4 FLUTE ]
 41
0.75
  7
SLDTEXTSTYLE0
 11
-33.60742231181806
 21
-52.08847405547841
 31
0.0
100
AcDbAttribute
  2
AUTOATTR0
 70
     0
 74
     1
  0
SEQEND
  5
D0
330
CE
100
AcDbEntity
  8
0
  6
Continuous
 62
     7
  0
HATCH
  5
D1
330
1F
100
AcDbEntity
  8
중심선
100
AcDbHatch
 10
0.0
 20
0.0
 30
0.0
210
0.0
220
0.0
230
1.0
  2
SOLID
 70
     1
 71
     0
 91
        1
 92
        0
 93
        4
 72
     1
 10
-17.75087699530058
 20
-35.8
 11
-21.19715223913786
 21
-35.8
 72
     1
 10
-21.19715223913786
 20
-35.8
 11
-23.32538209834188
 21
-38.33632558057259
 72
     1
 10
-23.32538209834188
 20
-38.33632558057259
 11
-19.87907376939145
 21
-38.3362861512701
 72
     1
 10
-19.87907376939145
 20
-38.3362861512701
 11
-17.75087699530058
 21
-35.8
 97
        0
 75
     0
 76
     1
 98
        1
 10
6.74999999999999
 20
-0.0000000000000022
  0
HATCH
  5
D2
330
1F
100
AcDbEntity
  8
중심선
100
AcDbHatch
 10
0.0
 20
0.0
 30
0.0
210
0.0
220
0.0
230
1.0
  2
SOLID
 70
     1
 71
     0
 91
        1
 92
        0
 93
        4
 72
     1
 10
-12.73811300426463
 20
-35.8
 11
-16.18438824810191
 21
-35.8
 72
     1
 10
-16.18438824810191
 20
-35.8
 11
-20.7155262564593
 21
-41.20000000000002
 72
     1
 10
-20.7155262564593
 20
-41.20000000000002
 11
-17.26925101262202
 21
-41.20000000000002
 72
     1
 10
-17.26925101262202
 20
-41.20000000000002
 11
-12.73811300426463
 21
-35.8
 97
        0
 75
     0
 76
     1
 98
        1
 10
6.74999999999999
 20
-0.0000000000000022
  0
HATCH
  5
D3
330
1F
100
AcDbEntity
  8
중심선
100
AcDbHatch
 10
0.0
 20
0.0
 30
0.0
210
0.0
220
0.0
230
1.0
  2
SOLID
 70
     1
 71
     0
 91
        1
 92
        0
 93
        4
 72
     1
 10
-7.725349013228732
 20
-35.80000000000003
 11
-11.17162425706585
 21
-35.8
 72
     1
 10
-11.17162425706585
 20
-35.8
 11
-18.2200611589551
 21
-44.20000000000002
 72
     1
 10
-18.2200611589551
 20
-44.20000000000002
 11
-14.77378591511782
 21
-44.20000000000002
 72
     1
 10
-14.77378591511782
 20
-44.20000000000002
 11
-7.725349013228733
 21
-35.80000000000003
 97
        0
 75
     0
 76
     1
 98
        1
 10
6.74999999999999
 20
-0.0000000000000022
  0
HATCH
  5
D4
330
1F
100
AcDbEntity
  8
중심선
100
AcDbHatch
 10
0.0
 20
0.0
 30
0.0
210
0.0
220
0.0
230
1.0
  2
SOLID
 70
     1
 71
     0
 91
        1
 92
        0
 93
        6
 72
     3
 10
-2.925458582216533
 20
-40.00000000005127
 11
3.960054785062283
 21
1.540882976769353E-10
 40
0.3939339440162628
 50
17.09539180608436
 51
320.0019657685081
 73
     0
 72
     1
 10
-1.242458926515937
 20
-38.5878940046383
 11
1.062842947185101
 21
-36.65356729459038
 72
     3
 10
-2.925458582269379
 20
-40.00000000000015
 11
6.600054785286829
 21
-1.278976924368180E-13
 40
0.636358354079598
 50
39.99873849337411
 51
368.4976242363724
 73
     1
 72
     1
 10
3.49987390963123
 20
-39.03999999993002
 11
-4.245391275433456
 21
-39.03999999992999
 72
     1
 10
-4.245391275433456
 20
-39.03999999992999
 11
-4.24541631987939
 21
-40.95999999992991
 72
     1
 10
-4.24541631987939
 20
-40.95999999992991
 11
0.1959634495926466
 21
-40.95999999992988
 97
        0
 75
     0
 76
     1
 98
        1
 10
6.74999999999999
 20
-0.0000000000000022
  0
DIMENSION
  5
D5
330
1F
100
AcDbEntity
  8
치수문자_일반주서
100
AcDbDimension
  2
_D
 10
-61.24743319558875
 20
-3.175000000000043
 30
0.0
 11
-61.24743319558876
 21
-0.093092440612795
 31
0.0
 70
   160
  1
%%c<>
 71
     2
 42
6.350000000000003
 52
-270.0
  3
SLDDIMSTYLE0
100
AcDbAlignedDimension
 13
-49.99000000000002
 23
3.175000000000002
 33
0.0
 14
-49.99000000000002
 24
-3.175000000000002
 34
0.0
 50
90.0000000000002
100
AcDbRotatedDimension
1001
ACAD
1000
DSTYLE
1002
{
1070
   171
1070
     6
1070
   273
1070
     7
1002
}
1001
ACAD_DSTYLE_DIMFLIPARROW_SYMBOL
1070
   385
1070
     0
1001
ACAD_DSTYLE_DIMFLIPARROW_WHICH_SYMBOL
1070
   386
1070
     3
  0
DIMENSION
  5
EA
330
1F
100
AcDbEntity
  8
치수문자_일반주서
100
AcDbDimension
  2
_D_1
 10
51.54375
 20
-3.174999999999915
 30
0.0
 11
51.54374999999999
 21
0.0000126824049565
 31
0.0
 70
   160
  1
{%%c<>[]}
 71
     2
 42
6.350000000000001
 52
-270.0
  3
SLDDIMSTYLE0
100
AcDbAlignedDimension
 13
28.575
 23
3.175
 33
0.0
 14
28.575
 24
-3.175
 34
0.0
 50
90.0000000000002
100
AcDbRotatedDimension
1001
ACAD
1000
DSTYLE
1002
{
1070
   283
1070
     1
1070
   170
1070
     1
1070
   171
1070
     6
1070
   273
1070
     7
1002
}
  0
INSERT
  5
105
330
1F
100
AcDbEntity
  8
해칭선
100
AcDbBlockReference
  2
SW_DOWELSYMBOL_0
 10
0.0000000000000018
 20
0.0
 30
0.0
  0
LINE
  5
12A
330
1F
100
AcDbEntity
  8
0
100
AcDbLine
 10
31.74999999232046
 20
-5.000220828259231
 30
0.0
 11
31.74999999232046
 21
6.735998261787547
 31
0.0
  0
ARC
  5
12D
330
1F
100
AcDbEntity
  8
0
  6
Continuous
 62
     1
370
    15
100
AcDbCircle
 10
26.54299999232046
 20
-0.0000000000000057
 30
0.0
 40
3.175
100
AcDbArc
 50
90.0000000000002
 51
126.869897645844
  0
ARC
  5
12E
330
1F
100
AcDbEntity
  8
0
  6
Continuous
 62
     1
370
    15
100
AcDbCircle
 10
28.575
 20
0.0
 30
0.0
 40
3.175
100
AcDbArc
 50
270.0000000000001
 51
90.0000000000002
  0
LINE
  5
12F
330
1F
100
AcDbEntity
  8
0
  6
Continuous
 62
     1
370
    15
100
AcDbLine
 10
26.54299999232046
 20
3.174999999999994
 30
0.0
 11
28.575
 21
3.175000000000001
 31
0.0
  0
LINE
  5
130
330
1F
100
AcDbEntity
  8
0
  6
Continuous
 62
     1
370
    15
100
AcDbLine
 10
26.54299999232046
 20
-3.175000000000006
 30
0.0
 11
28.57500000000005
 21
-3.175000000000001
 31
0.0
  0
LINE
  5
131
330
1F
100
AcDbEntity
  8
0
  6
Continuous
 62
     4
370
    15
100
AcDbLine
 10
0.0
 20
3.175000000000002
 30
0.0
 11
24.63799999232046
 21
2.539999999999994
 31
0.0
  0
LINE
  5
132
330
1F
100
AcDbEntity
  8
0
  6
Continuous
 62
     4
370
    15
100
AcDbLine
 10
0.0
 20
-3.175000000000002
 30
0.0
 11
24.63799999232045
 21
-2.540000000000006
 31
0.0
  0
ARC
  5
133
330
1F
100
AcDbEntity
  8
0
  6
Continuous
 62
     1
370
    15
100
AcDbCircle
 10
26.54299999232046
 20
-0.0000000000000057
 30
0.0
 40
3.175
100
AcDbArc
 50
233.1301023541561
 51
270.0000000000001
  0
LINE
  5
134
330
1F
100
AcDbEntity
  8
0
  6
Continuous
 62
     4
370
    15
100
AcDbLine
 10
-0.0000000076795414
 20
-3.175000000000001
 30
0.0
 11
-0.0000000076795414
 21
3.175000000000003
 31
0.0
  0
DIMENSION
  5
137
330
1F
100
AcDbEntity
  8
치수문자_일반주서
100
AcDbDimension
  2
*D5
 10
24.63799999232046
 20
28.01446759129496
 30
0.0
 11
5.783999992320457
 21
30.63946759129496
 31
0.0
 70
    32
 71
     5
 42
7.112000000000002
  3
SLDDIMSTYLE0
100
AcDbAlignedDimension
 13
31.74999999232046
 23
3.174999999999994
 33
0.0
 14
24.63799999232046
 24
2.539999999999993
 34
0.0
100
AcDbRotatedDimension
1001
ACAD
1000
DSTYLE
1002
{
1070
   171
1070
     6
1070
   273
1070
     7
1002
}
  0
DIMENSION
  5
148
330
1F
100
AcDbEntity
  8
치수문자_일반주서
100
AcDbDimension
  2
*D6
 10
-0.0000000076795414
 20
38.62470123412541
 30
0.0
 11
15.87499999232046
 21
41.24970123412541
 31
0.0
 70
    32
 71
     5
 42
31.75
  3
SLDDIMSTYLE0
100
AcDbAlignedDimension
 13
31.74999999232046
 23
3.174999999999994
 33
0.0
 14
-0.0000000076795414
 24
3.175000000000003
 34
0.0
100
AcDbRotatedDimension
1001
ACAD
1000
DSTYLE
1002
{
1070
   171
1070
     6
1070
   273
1070
     7
1002
}
  0
DIMENSION
  5
157
330
1F
100
AcDbEntity
  8
치수문자_일반주서
100
AcDbDimension
  2
*D7
 10
-50.79999999999998
 20
53.00024813973976
 30
0.0
 11
-9.525000003839764
 21
55.62524813973976
 31
0.0
 70
    32
 71
     5
 42
82.54999999232044
  3
SLDDIMSTYLE0
100
AcDbAlignedDimension
 13
31.74999999232046
 23
3.174999999999994
 33
0.0
 14
-50.79999999999998
 24
2.365000000000001
 34
0.0
100
AcDbRotatedDimension
1001
ACAD
1000
DSTYLE
1002
{
1070
   171
1070
     6
1070
   273
1070
     7
1002
}
  0
LINE
  5
167
330
1F
100
AcDbEntity
  8
0
  6
Continuous
 62
     4
370
    15
100
AcDbLine
 10
24.63799999232046
 20
2.539999999999993
 30
0.0
 11
24.63799999232046
 21
-2.540000000000007
 31
0.0
  0
ENDSEC
  0
SECTION
  2
OBJECTS
  0
DICTIONARY
  5
C
330
0
100
AcDbDictionary
281
     1
  3
ACAD_DETAILVIEWSTYLE
350
16F
  3
ACAD_GROUP
350
D
  3
ACAD_IMAGE_VARS
350
129
  3
ACAD_LAYOUT
350
1A
  3
ACAD_MLINESTYLE
350
17
  3
ACAD_PLOTSETTINGS
350
19
  3
ACAD_PLOTSTYLENAME
350
E
  3
ACAD_SCALELIST
350
47
  3
ACAD_SECTIONVIEWSTYLE
350
170
  3
AcDbVariableDictionary
350
16A
  3
APPDATA
350
127
  3
DWGPROPS
350
198
  0
DICTIONARY
  5
16F
102
{ACAD_REACTORS
330
C
102
}
330
C
100
AcDbDictionary
281
     1
  0
DICTIONARY
  5
D
102
{ACAD_REACTORS
330
C
102
}
330
C
100
AcDbDictionary
281
     1
  0
RASTERVARIABLES
  5
129
102
{ACAD_REACTORS
330
C
102
}
330
C
100
AcDbRasterVariables
 90
        0
 70
     1
 71
     1
 72
     1
  0
DICTIONARY
  5
1A
102
{ACAD_REACTORS
330
C
102
}
330
C
100
AcDbDictionary
281
     1
  3
Layout1
350
1E
  3
Layout2
350
26
  3
Model
350
22
  0
DICTIONARY
  5
17
102
{ACAD_REACTORS
330
C
102
}
330
C
100
AcDbDictionary
281
     1
  3
Standard
350
18
  0
DICTIONARY
  5
19
102
{ACAD_REACTORS
330
C
102
}
330
C
100
AcDbDictionary
281
     1
  0
ACDBDICTIONARYWDFLT
  5
E
102
{ACAD_REACTORS
330
C
102
}
330
C
100
AcDbDictionary
281
     1
  3
Normal
350
F
100
AcDbDictionaryWithDefault
340
F
  0
DICTIONARY
  5
47
102
{ACAD_REACTORS
330
C
102
}
330
C
100
AcDbDictionary
281
     1
  3
A0
350
48
  3
A1
350
49
  3
A2
350
4A
  3
A3
350
4B
  3
A4
350
4C
  3
A5
350
4D
  3
A6
350
4E
  3
A7
350
4F
  3
A8
350
50
  3
A9
350
51
  3
B0
350
52
  3
B1
350
53
  3
B2
350
54
  3
B3
350
55
  3
B4
350
56
  3
B5
350
57
  3
B6
350
58
  3
B7
350
59
  3
B8
350
5A
  3
B9
350
5B
  3
C0
350
5C
  3
C1
350
5D
  3
C2
350
5E
  3
C3
350
5F
  3
C4
350
60
  3
C5
350
61
  3
C6
350
62
  3
C7
350
63
  3
C8
350
64
  3
C9
350
65
  3
D0
350
66
  3
D1
350
67
  3
D2
350
68
  0
DICTIONARY
  5
170
102
{ACAD_REACTORS
330
C
102
}
330
C
100
AcDbDictionary
281
     1
  0
DICTIONARY
  5
16A
102
{ACAD_REACTORS
330
C
102
}
330
C
100
AcDbDictionary
281
     1
  0
DICTIONARY
  5
127
102
{ACAD_REACTORS
330
C
102
}
330
C
100
AcDbDictionary
281
     1
  0
XRECORD
  5
198
102
{ACAD_REACTORS
330
C
102
}
330
C
100
AcDbXrecord
280
     1
  1
DWGPROPS COOKIE
  2

  3

  4

  6

  7

  8
12015048
  9

300
=
301
=
302
=
303
=
304
=
305
=
306
=
307
=
308
=
309
=
 40
0.0
 41
2458271.095215173
 42
2458297.185151319
  1

 90
        0
  0
LAYOUT
  5
1E
102
{ACAD_REACTORS
330
1A
102
}
330
1A
100
AcDbPlotSettings
  1

  2
none_device
  4

  6

 40
0.0
 41
0.0
 42
0.0
 43
0.0
 44
0.0
 45
0.0
 46
0.0
 47
0.0
 48
0.0
 49
0.0
140
0.0
141
0.0
142
1.0
143
1.0
 70
   688
 72
     1
 73
     0
 74
     5
  7

 75
    16
147
1.0
148
0.0
149
0.0
100
AcDbLayout
  1
Layout1
 70
     1
 71
     1
 10
0.0
 20
0.0
 11
420.0
 21
297.0
 12
0.0
 22
0.0
 32
0.0
 14
1.000000000000000E+20
 24
1.000000000000000E+20
 34
1.000000000000000E+20
 15
-1.000000000000000E+20
 25
-1.000000000000000E+20
 35
-1.000000000000000E+20
146
0.0
 13
0.0
 23
0.0
 33
0.0
 16
1.0
 26
0.0
 36
0.0
 17
0.0
 27
1.0
 37
0.0
 76
     0
330
1B
  0
LAYOUT
  5
26
102
{ACAD_REACTORS
330
1A
102
}
330
1A
100
AcDbPlotSettings
  1

  2
none_device
  4

  6

 40
0.0
 41
0.0
 42
0.0
 43
0.0
 44
0.0
 45
0.0
 46
0.0
 47
0.0
 48
0.0
 49
0.0
140
0.0
141
0.0
142
1.0
143
1.0
 70
   688
 72
     1
 73
     0
 74
     5
  7

 75
    16
147
1.0
148
0.0
149
0.0
100
AcDbLayout
  1
Layout2
 70
     1
 71
     2
 10
0.0
 20
0.0
 11
0.0
 21
0.0
 12
0.0
 22
0.0
 32
0.0
 14
0.0
 24
0.0
 34
0.0
 15
0.0
 25
0.0
 35
0.0
146
0.0
 13
0.0
 23
0.0
 33
0.0
 16
1.0
 26
0.0
 36
0.0
 17
0.0
 27
1.0
 37
0.0
 76
     0
330
23
  0
LAYOUT
  5
22
102
{ACAD_REACTORS
330
1A
102
}
330
1A
100
AcDbPlotSettings
  1

  2
none_device
  4
ANSI_A_(11.00_x_8.50_Inches)
  6

 40
6.35
 41
19.05
 42
6.35000508
 43
19.05000254
 44
279.4
 45
215.9
 46
179.2175302007703
 47
130.4721386042637
 48
0.0
 49
0.0
140
0.0
141
0.0
142
0.0794691770029561
143
1.0
 70
  1696
 72
     0
 73
     0
 74
     0
  7

 75
     0
147
0.0235690232323232
148
0.0
149
0.0
100
AcDbLayout
  1
Model
 70
     1
 71
     0
 10
0.0
 20
0.0
 11
420.0
 21
297.0
 12
0.0
 22
0.0
 32
0.0
 14
-65.62243319558881
 24
-49.97180738881174
 34
0.0
 15
52.09408333333333
 25
57.37524813973977
 35
0.0
146
0.0
 13
0.0
 23
0.0
 33
0.0
 16
1.0
 26
0.0
 36
0.0
 17
0.0
 27
1.0
 37
0.0
 76
     0
330
1F
331
29
  0
MLINESTYLE
  5
18
102
{ACAD_REACTORS
330
17
102
}
330
17
100
AcDbMlineStyle
  2
Standard
 70
     0
  3

 62
   256
 51
90.0
 52
90.0
 71
     2
 49
0.5
 62
   256
  6
BYLAYER
 49
-0.5
 62
   256
  6
BYLAYER
  0
ACDBPLACEHOLDER
  5
F
102
{ACAD_REACTORS
330
E
102
}
330
E
  0
SCALE
  5
48
102
{ACAD_REACTORS
330
47
102
}
330
47
100
AcDbScale
 70
     0
300
1:1
140
1.0
141
1.0
290
     1
  0
SCALE
  5
49
102
{ACAD_REACTORS
330
47
102
}
330
47
100
AcDbScale
 70
     0
300
1:2
140
1.0
141
2.0
290
     0
  0
SCALE
  5
4A
102
{ACAD_REACTORS
330
47
102
}
330
47
100
AcDbScale
 70
     0
300
1:4
140
1.0
141
4.0
290
     0
  0
SCALE
  5
4B
102
{ACAD_REACTORS
330
47
102
}
330
47
100
AcDbScale
 70
     0
300
1:5
140
1.0
141
5.0
290
     0
  0
SCALE
  5
4C
102
{ACAD_REACTORS
330
47
102
}
330
47
100
AcDbScale
 70
     0
300
1:8
140
1.0
141
8.0
290
     0
  0
SCALE
  5
4D
102
{ACAD_REACTORS
330
47
102
}
330
47
100
AcDbScale
 70
     0
300
1:10
140
1.0
141
10.0
290
     0
  0
SCALE
  5
4E
102
{ACAD_REACTORS
330
47
102
}
330
47
100
AcDbScale
 70
     0
300
1:16
140
1.0
141
16.0
290
     0
  0
SCALE
  5
4F
102
{ACAD_REACTORS
330
47
102
}
330
47
100
AcDbScale
 70
     0
300
1:20
140
1.0
141
20.0
290
     0
  0
SCALE
  5
50
102
{ACAD_REACTORS
330
47
102
}
330
47
100
AcDbScale
 70
     0
300
1:30
140
1.0
141
30.0
290
     0
  0
SCALE
  5
51
102
{ACAD_REACTORS
330
47
102
}
330
47
100
AcDbScale
 70
     0
300
1:40
140
1.0
141
40.0
290
     0
  0
SCALE
  5
52
102
{ACAD_REACTORS
330
47
102
}
330
47
100
AcDbScale
 70
     0
300
1:50
140
1.0
141
50.0
290
     0
  0
SCALE
  5
53
102
{ACAD_REACTORS
330
47
102
}
330
47
100
AcDbScale
 70
     0
300
1:100
140
1.0
141
100.0
290
     0
  0
SCALE
  5
54
102
{ACAD_REACTORS
330
47
102
}
330
47
100
AcDbScale
 70
     0
300
2:1
140
2.0
141
1.0
290
     0
  0
SCALE
  5
55
102
{ACAD_REACTORS
330
47
102
}
330
47
100
AcDbScale
 70
     0
300
4:1
140
4.0
141
1.0
290
     0
  0
SCALE
  5
56
102
{ACAD_REACTORS
330
47
102
}
330
47
100
AcDbScale
 70
     0
300
8:1
140
8.0
141
1.0
290
     0
  0
SCALE
  5
57
102
{ACAD_REACTORS
330
47
102
}
330
47
100
AcDbScale
 70
     0
300
10:1
140
10.0
141
1.0
290
     0
  0
SCALE
  5
58
102
{ACAD_REACTORS
330
47
102
}
330
47
100
AcDbScale
 70
     0
300
100:1
140
100.0
141
1.0
290
     0
  0
SCALE
  5
59
102
{ACAD_REACTORS
330
47
102
}
330
47
100
AcDbScale
 70
     0
300
1/128" = 1'-0"
140
0.0078125
141
12.0
290
     0
  0
SCALE
  5
5A
102
{ACAD_REACTORS
330
47
102
}
330
47
100
AcDbScale
 70
     0
300
1/64" = 1'-0"
140
0.015625
141
12.0
290
     0
  0
SCALE
  5
5B
102
{ACAD_REACTORS
330
47
102
}
330
47
100
AcDbScale
 70
     0
300
1/32" = 1'-0"
140
0.03125
141
12.0
290
     0
  0
SCALE
  5
5C
102
{ACAD_REACTORS
330
47
102
}
330
47
100
AcDbScale
 70
     0
300
1/16" = 1'-0"
140
0.0625
141
12.0
290
     0
  0
SCALE
  5
5D
102
{ACAD_REACTORS
330
47
102
}
330
47
100
AcDbScale
 70
     0
300
3/32" = 1'-0"
140
0.09375
141
12.0
290
     0
  0
SCALE
  5
5E
102
{ACAD_REACTORS
330
47
102
}
330
47
100
AcDbScale
 70
     0
300
1/8" = 1'-0"
140
0.125
141
12.0
290
     0
  0
SCALE
  5
5F
102
{ACAD_REACTORS
330
47
102
}
330
47
100
AcDbScale
 70
     0
300
3/16" = 1'-0"
140
0.1875
141
12.0
290
     0
  0
SCALE
  5
60
102
{ACAD_REACTORS
330
47
102
}
330
47
100
AcDbScale
 70
     0
300
1/4" = 1'-0"
140
0.25
141
12.0
290
     0
  0
SCALE
  5
61
102
{ACAD_REACTORS
330
47
102
}
330
47
100
AcDbScale
 70
     0
300
3/8" = 1'-0"
140
0.375
141
12.0
290
     0
  0
SCALE
  5
62
102
{ACAD_REACTORS
330
47
102
}
330
47
100
AcDbScale
 70
     0
300
1/2" = 1'-0"
140
0.5
141
12.0
290
     0
  0
SCALE
  5
63
102
{ACAD_REACTORS
330
47
102
}
330
47
100
AcDbScale
 70
     0
300
3/4" = 1'-0"
140
0.75
141
12.0
290
     0
  0
SCALE
  5
64
102
{ACAD_REACTORS
330
47
102
}
330
47
100
AcDbScale
 70
     0
300
1" = 1'-0"
140
1.0
141
12.0
290
     0
  0
SCALE
  5
65
102
{ACAD_REACTORS
330
47
102
}
330
47
100
AcDbScale
 70
     0
300
1-1/2" = 1'-0"
140
1.5
141
12.0
290
     0
  0
SCALE
  5
66
102
{ACAD_REACTORS
330
47
102
}
330
47
100
AcDbScale
 70
     0
300
3" = 1'-0"
140
3.0
141
12.0
290
     0
  0
SCALE
  5
67
102
{ACAD_REACTORS
330
47
102
}
330
47
100
AcDbScale
 70
     0
300
6" = 1'-0"
140
6.0
141
12.0
290
     0
  0
SCALE
  5
68
102
{ACAD_REACTORS
330
47
102
}
330
47
100
AcDbScale
 70
     0
300
1'-0" = 1'-0"
140
12.0
141
12.0
290
     0
  0
ENDSEC
  0
EOF
