  0
SECTION
  2
HEADER
  9
$ACADVER
  1
AC1015
  9
$ACADMAINTVER
 70
     6
  9
$DWGCODEPAGE
  3
ANSI_949
  9
$INSBASE
 10
0.0
 20
0.0
 30
0.0
  9
$EXTMIN
 10
-115.982630002748
 20
-49.97180738881174
 30
0.0
  9
$EXTMAX
 10
89.67743301687659
 20
73.07704616848135
 30
0.0
  9
$LIMMIN
 10
0.0
 20
0.0
  9
$LIMMAX
 10
420.0
 20
297.0
  9
$ORTHOMODE
 70
     1
  9
$REGENMODE
 70
     1
  9
$FILLMODE
 70
     1
  9
$QTEXTMODE
 70
     0
  9
$MIRRTEXT
 70
     1
  9
$LTSCALE
 40
1.0
  9
$ATTMODE
 70
     1
  9
$TEXTSIZE
 40
3.5
  9
$TRACEWID
 40
1.0
  9
$TEXTSTYLE
  7
Standard
  9
$CLAYER
  8
0
  9
$CELTYPE
  6
ByLayer
  9
$CECOLOR
 62
   256
  9
$CELTSCALE
 40
1.0
  9
$DISPSILH
 70
     0
  9
$DIMSCALE
 40
1.0
  9
$DIMASZ
 40
3.302
  9
$DIMEXO
 40
1.0
  9
$DIMDLI
 40
3.75
  9
$DIMRND
 40
0.0
  9
$DIMDLE
 40
0.0
  9
$DIMEXE
 40
1.0
  9
$DIMTP
 40
0.0
  9
$DIMTM
 40
0.0
  9
$DIMTXT
 40
3.5
  9
$DIMCEN
 40
2.5
  9
$DIMTSZ
 40
0.0
  9
$DIMTOL
 70
     0
  9
$DIMLIM
 70
     0
  9
$DIMTIH
 70
     1
  9
$DIMTOH
 70
     1
  9
$DIMSE1
 70
     0
  9
$DIMSE2
 70
     0
  9
$DIMTAD
 70
     1
  9
$DIMZIN
 70
     0
  9
$DIMBLK
  1

  9
$DIMASO
 70
     1
  9
$DIMSHO
 70
     1
  9
$DIMPOST
  1

  9
$DIMAPOST
  1

  9
$DIMALT
 70
     0
  9
$DIMALTD
 70
     3
  9
$DIMALTF
 40
0.0393700787401575
  9
$DIMLFAC
 40
1.0
  9
$DIMTOFL
 70
     1
  9
$DIMTVP
 40
0.0
  9
$DIMTIX
 70
     0
  9
$DIMSOXD
 70
     0
  9
$DIMSAH
 70
     0
  9
$DIMBLK1
  1

  9
$DIMBLK2
  1

  9
$DIMSTYLE
  2
ISO-25
  9
$DIMCLRD
 70
     0
  9
$DIMCLRE
 70
     0
  9
$DIMCLRT
 70
     0
  9
$DIMTFAC
 40
1.0
  9
$DIMGAP
 40
1.524
  9
$DIMJUST
 70
     0
  9
$DIMSD1
 70
     0
  9
$DIMSD2
 70
     0
  9
$DIMTOLJ
 70
     0
  9
$DIMTZIN
 70
     0
  9
$DIMALTZ
 70
     0
  9
$DIMALTTZ
 70
     0
  9
$DIMUPT
 70
     0
  9
$DIMDEC
 70
     2
  9
$DIMTDEC
 70
     2
  9
$DIMALTU
 70
     2
  9
$DIMALTTD
 70
     3
  9
$DIMTXSTY
  7
Standard
  9
$DIMAUNIT
 70
     0
  9
$DIMADEC
 70
     2
  9
$DIMALTRND
 40
0.0
  9
$DIMAZIN
 70
     0
  9
$DIMDSEP
 70
    44
  9
$DIMATFIT
 70
     3
  9
$DIMFRAC
 70
     0
  9
$DIMLDRBLK
  1

  9
$DIMLUNIT
 70
     2
  9
$DIMLWD
 70
    -2
  9
$DIMLWE
 70
    -2
  9
$DIMTMOVE
 70
     0
  9
$LUNITS
 70
     2
  9
$LUPREC
 70
     2
  9
$SKETCHINC
 40
1.0
  9
$FILLETRAD
 40
10.0
  9
$AUNITS
 70
     0
  9
$AUPREC
 70
     2
  9
$MENU
  1
.
  9
$ELEVATION
 40
0.0
  9
$PELEVATION
 40
0.0
  9
$THICKNESS
 40
0.0
  9
$LIMCHECK
 70
     0
  9
$CHAMFERA
 40
0.0
  9
$CHAMFERB
 40
0.0
  9
$CHAMFERC
 40
0.0
  9
$CHAMFERD
 40
0.0
  9
$SKPOLY
 70
     0
  9
$TDCREATE
 40
2458271.470675185
  9
$TDUCREATE
 40
2458271.095675185
  9
$TDUPDATE
 40
2458297.519743253
  9
$TDUUPDATE
 40
2458297.144743253
  9
$TDINDWG
 40
0.003235162
  9
$TDUSRTIMER
 40
2458297.110402153
  9
$USRTIMER
 70
     1
  9
$ANGBASE
 50
0.0
  9
$ANGDIR
 70
     0
  9
$PDMODE
 70
     0
  9
$PDSIZE
 40
-1.0
  9
$PLINEWID
 40
0.0
  9
$SPLFRAME
 70
     0
  9
$SPLINETYPE
 70
     6
  9
$SPLINESEGS
 70
     8
  9
$HANDSEED
  5
188
  9
$SURFTAB1
 70
     6
  9
$SURFTAB2
 70
     6
  9
$SURFTYPE
 70
     6
  9
$SURFU
 70
     6
  9
$SURFV
 70
     6
  9
$UCSBASE
  2

  9
$UCSNAME
  2

  9
$UCSORG
 10
0.0
 20
0.0
 30
0.0
  9
$UCSXDIR
 10
1.0
 20
0.0
 30
0.0
  9
$UCSYDIR
 10
0.0
 20
1.0
 30
0.0
  9
$UCSORTHOREF
  2

  9
$UCSORTHOVIEW
 70
     0
  9
$UCSORGTOP
 10
0.0
 20
0.0
 30
0.0
  9
$UCSORGBOTTOM
 10
0.0
 20
0.0
 30
0.0
  9
$UCSORGLEFT
 10
0.0
 20
0.0
 30
0.0
  9
$UCSORGRIGHT
 10
0.0
 20
0.0
 30
0.0
  9
$UCSORGFRONT
 10
0.0
 20
0.0
 30
0.0
  9
$UCSORGBACK
 10
0.0
 20
0.0
 30
0.0
  9
$PUCSBASE
  2

  9
$PUCSNAME
  2

  9
$PUCSORG
 10
0.0
 20
0.0
 30
0.0
  9
$PUCSXDIR
 10
1.0
 20
0.0
 30
0.0
  9
$PUCSYDIR
 10
0.0
 20
1.0
 30
0.0
  9
$PUCSORTHOREF
  2

  9
$PUCSORTHOVIEW
 70
     0
  9
$PUCSORGTOP
 10
0.0
 20
0.0
 30
0.0
  9
$PUCSORGBOTTOM
 10
0.0
 20
0.0
 30
0.0
  9
$PUCSORGLEFT
 10
0.0
 20
0.0
 30
0.0
  9
$PUCSORGRIGHT
 10
0.0
 20
0.0
 30
0.0
  9
$PUCSORGFRONT
 10
0.0
 20
0.0
 30
0.0
  9
$PUCSORGBACK
 10
0.0
 20
0.0
 30
0.0
  9
$USERI1
 70
     0
  9
$USERI2
 70
     0
  9
$USERI3
 70
     0
  9
$USERI4
 70
     0
  9
$USERI5
 70
     0
  9
$USERR1
 40
0.0
  9
$USERR2
 40
0.0
  9
$USERR3
 40
0.0
  9
$USERR4
 40
0.0
  9
$USERR5
 40
0.0
  9
$WORLDVIEW
 70
     1
  9
$SHADEDGE
 70
     3
  9
$SHADEDIF
 70
    70
  9
$TILEMODE
 70
     1
  9
$MAXACTVP
 70
    64
  9
$PINSBASE
 10
0.0
 20
0.0
 30
0.0
  9
$PLIMCHECK
 70
     0
  9
$PEXTMIN
 10
1.000000000000000E+20
 20
1.000000000000000E+20
 30
1.000000000000000E+20
  9
$PEXTMAX
 10
-1.000000000000000E+20
 20
-1.000000000000000E+20
 30
-1.000000000000000E+20
  9
$PLIMMIN
 10
0.0
 20
0.0
  9
$PLIMMAX
 10
0.0
 20
0.0
  9
$UNITMODE
 70
     0
  9
$VISRETAIN
 70
     1
  9
$PLINEGEN
 70
     0
  9
$PSLTSCALE
 70
     1
  9
$TREEDEPTH
 70
  3020
  9
$CMLSTYLE
  2
Standard
  9
$CMLJUST
 70
     0
  9
$CMLSCALE
 40
20.0
  9
$PROXYGRAPHICS
 70
     1
  9
$MEASUREMENT
 70
     1
  9
$CELWEIGHT
370
    -1
  9
$ENDCAPS
280
     0
  9
$JOINSTYLE
280
     0
  9
$LWDISPLAY
290
     1
  9
$INSUNITS
 70
     4
  9
$HYPERLINKBASE
  1

  9
$STYLESHEET
  1

  9
$XEDIT
290
     1
  9
$CEPSNTYPE
380
     0
  9
$PSTYLEMODE
290
     1
  9
$FINGERPRINTGUID
  2
{0DE86CF1-951C-475F-986C-2379106D0B03}
  9
$VERSIONGUID
  2
{FAEB1C32-E019-11D5-929B-00C0DF256EC4}
  9
$EXTNAMES
290
     1
  9
$PSVPSCALE
 40
0.0
  9
$OLESTARTUP
290
     0
  0
ENDSEC
  0
SECTION
  2
CLASSES
  0
CLASS
  1
ACDBDICTIONARYWDFLT
  2
AcDbDictionaryWithDefault
  3
ObjectDBX Classes
 90
        0
280
     0
281
     0
  0
CLASS
  1
VISUALSTYLE
  2
AcDbVisualStyle
  3
ObjectDBX Classes
 90
     4095
280
     0
281
     0
  0
CLASS
  1
MATERIAL
  2
AcDbMaterial
  3
ObjectDBX Classes
 90
     1153
280
     0
281
     0
  0
CLASS
  1
SCALE
  2
AcDbScale
  3
ObjectDBX Classes
 90
     1153
280
     0
281
     0
  0
CLASS
  1
SUN
  2
AcDbSun
  3
SCENEOE
 90
     1153
280
     0
281
     0
  0
CLASS
  1
ACDBPLACEHOLDER
  2
AcDbPlaceHolder
  3
ObjectDBX Classes
 90
        0
280
     0
281
     0
  0
CLASS
  1
LAYOUT
  2
AcDbLayout
  3
ObjectDBX Classes
 90
        0
280
     0
281
     0
  0
CLASS
  1
TABLESTYLE
  2
AcDbTableStyle
  3
ObjectDBX Classes
 90
     4095
280
     0
281
     0
  0
CLASS
  1
MLEADERSTYLE
  2
AcDbMLeaderStyle
  3
ACDB_MLEADERSTYLE_CLASS
 90
     4095
280
     0
281
     0
  0
CLASS
  1
RASTERVARIABLES
  2
AcDbRasterVariables
  3
ISM
 90
        0
280
     0
281
     0
  0
CLASS
  1
DICTIONARYVAR
  2
AcDbDictionaryVar
  3
ObjectDBX Classes
 90
        0
280
     0
281
     0
  0
CLASS
  1
DIMASSOC
  2
AcDbDimAssoc
  3
"AcDbDimAssoc|Product Desc:     AcDim ARX App For Dimension|Company:          Autodesk, Inc.|WEB Address:      www.autodesk.com"
 90
        0
280
     0
281
     0
  0
ENDSEC
  0
SECTION
  2
TABLES
  0
TABLE
  2
VPORT
  5
8
330
0
100
AcDbSymbolTable
 70
     1
  0
VPORT
  5
29
330
8
100
AcDbSymbolTableRecord
100
AcDbViewportTableRecord
  2
*Active
 70
     0
 10
0.0
 20
0.0
 11
1.0
 21
1.0
 12
40.93984244468603
 22
47.07783329347501
 13
0.0
 23
0.0
 14
10.0
 24
10.0
 15
10.0
 25
10.0
 16
0.0
 26
0.0
 36
1.0
 17
0.0
 27
0.0
 37
0.0
 40
254.7800532734536
 41
2.213513513513513
 42
50.0
 43
0.0
 44
0.0
 50
0.0
 51
0.0
 71
    16
 72
  2000
 73
     1
 74
     3
 75
     0
 76
     0
 77
     0
 78
     0
281
     0
 65
     1
110
0.0
120
0.0
130
0.0
111
1.0
121
0.0
131
0.0
112
0.0
122
1.0
132
0.0
 79
     0
146
0.0
  0
ENDTAB
  0
TABLE
  2
LTYPE
  5
5
330
0
100
AcDbSymbolTable
 70
     6
  0
LTYPE
  5
14
330
5
100
AcDbSymbolTableRecord
100
AcDbLinetypeTableRecord
  2
ByBlock
 70
     0
  3

 72
    65
 73
     0
 40
0.0
  0
LTYPE
  5
15
330
5
100
AcDbSymbolTableRecord
100
AcDbLinetypeTableRecord
  2
ByLayer
 70
     0
  3

 72
    65
 73
     0
 40
0.0
  0
LTYPE
  5
16
330
5
100
AcDbSymbolTableRecord
100
AcDbLinetypeTableRecord
  2
Continuous
 70
     0
  3
Solid line
 72
    65
 73
     0
 40
0.0
  0
LTYPE
  5
6A
330
5
100
AcDbSymbolTableRecord
100
AcDbLinetypeTableRecord
  2
HIDDEN
 70
     0
  3
Hidden __ __ __ __ __ __ __ __ __ __ __ __ __ __
 72
    65
 73
     2
 40
1.905
 49
1.27
 74
     0
 49
-0.635
 74
     0
  0
LTYPE
  5
6B
330
5
100
AcDbSymbolTableRecord
100
AcDbLinetypeTableRecord
  2
PHANTOM
 70
     0
  3
Phantom ______  __  __  ______  __  __  ______
 72
    65
 73
     6
 40
12.7
 49
6.35
 74
     0
 49
-1.27
 74
     0
 49
1.27
 74
     0
 49
-1.27
 74
     0
 49
1.27
 74
     0
 49
-1.27
 74
     0
  0
LTYPE
  5
6C
330
5
100
AcDbSymbolTableRecord
100
AcDbLinetypeTableRecord
  2
CENTER
 70
     0
  3
Center ____ _ ____ _ ____ _ ____ _ ____ _ ____
 72
    65
 73
     4
 40
10.16
 49
6.35
 74
     0
 49
-1.27
 74
     0
 49
1.27
 74
     0
 49
-1.27
 74
     0
  0
LTYPE
  5
6D
330
5
100
AcDbSymbolTableRecord
100
AcDbLinetypeTableRecord
  2
CENTERX2
 70
     0
  3
Center (2x) ________  __  ________  __  _____
 72
    65
 73
     4
 40
20.32
 49
12.7
 74
     0
 49
-2.54
 74
     0
 49
2.54
 74
     0
 49
-2.54
 74
     0
  0
LTYPE
  5
6E
330
5
100
AcDbSymbolTableRecord
100
AcDbLinetypeTableRecord
  2
DOT2
 70
     0
  3
Dot (.5x) ........................................
 72
    65
 73
     2
 40
0.635
 49
0.0
 74
     0
 49
-0.635
 74
     0
  0
ENDTAB
  0
TABLE
  2
LAYER
  5
2
330
0
100
AcDbSymbolTable
 70
    17
  0
LAYER
  5
10
330
2
100
AcDbSymbolTableRecord
100
AcDbLayerTableRecord
  2
0
 70
     0
 62
     7
  6
Continuous
370
    -3
390
F
  0
LAYER
  5
6F
330
2
100
AcDbSymbolTableRecord
100
AcDbLayerTableRecord
  2
FORMAT
 70
     0
 62
     2
  6
Continuous
370
    -3
390
F
  0
LAYER
  5
70
330
2
100
AcDbSymbolTableRecord
100
AcDbLayerTableRecord
  2
외형선
 70
     0
 62
     4
  6
Continuous
370
    30
390
F
  0
LAYER
  5
71
330
2
100
AcDbSymbolTableRecord
100
AcDbLayerTableRecord
  2
숨은선
 70
     0
 62
     2
  6
HIDDEN
370
    15
390
F
  0
LAYER
  5
72
330
2
100
AcDbSymbolTableRecord
100
AcDbLayerTableRecord
  2
중심선
 70
     0
 62
     1
  6
CENTERX2
370
    -3
390
F
  0
LAYER
  5
73
330
2
100
AcDbSymbolTableRecord
100
AcDbLayerTableRecord
  2
파단선
 70
     0
 62
     4
  6
Continuous
370
    -3
390
F
  0
LAYER
  5
74
330
2
100
AcDbSymbolTableRecord
100
AcDbLayerTableRecord
  2
해칭선
 70
     0
 62
   100
  6
Continuous
370
    -3
390
F
  0
LAYER
  5
75
330
2
100
AcDbSymbolTableRecord
100
AcDbLayerTableRecord
  2
가는실선
 70
     0
 62
     4
  6
Continuous
370
    -3
390
F
  0
LAYER
  5
76
330
2
100
AcDbSymbolTableRecord
100
AcDbLayerTableRecord
  2
치수_보조선
 70
     0
 62
     4
  6
Continuous
370
    -3
390
F
  0
LAYER
  5
77
330
2
100
AcDbSymbolTableRecord
100
AcDbLayerTableRecord
  2
치수문자_일반주서
 70
     0
 62
     7
  6
Continuous
370
    15
390
F
  0
LAYER
  5
78
330
2
100
AcDbSymbolTableRecord
100
AcDbLayerTableRecord
  2
개별주서
 70
     0
 62
   100
  6
Continuous
370
    30
390
F
  0
LAYER
  5
79
330
2
100
AcDbSymbolTableRecord
100
AcDbLayerTableRecord
  2
중간선
 70
     0
 62
     2
  6
Continuous
370
    15
390
F
  0
LAYER
  5
7A
330
2
100
AcDbSymbolTableRecord
100
AcDbLayerTableRecord
  2
윤곽선
 70
     0
 62
     3
  6
Continuous
370
    40
390
F
  0
LAYER
  5
7B
330
2
100
AcDbSymbolTableRecord
100
AcDbLayerTableRecord
  2
중심마크
 70
     0
 62
   100
  6
Continuous
370
    30
390
F
  0
LAYER
  5
7C
330
2
100
AcDbSymbolTableRecord
100
AcDbLayerTableRecord
  2
가상선
 70
     0
 62
     4
  6
PHANTOM
370
    -3
390
F
  0
LAYER
  5
7D
330
2
100
AcDbSymbolTableRecord
100
AcDbLayerTableRecord
  2
특수지정선
 70
     0
 62
     5
  6
CENTERX2
370
    60
390
F
  0
LAYER
  5
13A
330
2
100
AcDbSymbolTableRecord
100
AcDbLayerTableRecord
  2
Defpoints
 70
     0
 62
     7
  6
Continuous
290
     0
370
    -3
390
F
  0
ENDTAB
  0
TABLE
  2
STYLE
  5
3
330
0
100
AcDbSymbolTable
 70
     2
  0
STYLE
  5
11
330
3
100
AcDbSymbolTableRecord
100
AcDbTextStyleTableRecord
  2
Standard
 70
     0
 40
0.0
 41
1.0
 50
0.0
 71
     0
 42
3.5
  3
txt
  4

  0
STYLE
  5
93
330
3
100
AcDbSymbolTableRecord
100
AcDbTextStyleTableRecord
  2
SLDTEXTSTYLE0
 70
     0
 40
0.0
 41
0.75
 50
0.0
 71
     0
 42
3.5
  3
TXT
  4

  0
ENDTAB
  0
TABLE
  2
VIEW
  5
6
330
0
100
AcDbSymbolTable
 70
     0
  0
ENDTAB
  0
TABLE
  2
UCS
  5
7
330
0
100
AcDbSymbolTable
 70
     0
  0
ENDTAB
  0
TABLE
  2
APPID
  5
9
330
0
100
AcDbSymbolTable
 70
     1
  0
APPID
  5
12
330
9
100
AcDbSymbolTableRecord
100
AcDbRegAppTableRecord
  2
ACAD
 70
     0
  0
ENDTAB
  0
TABLE
  2
DIMSTYLE
  5
A
330
0
100
AcDbSymbolTable
 70
     2
100
AcDbDimStyleTable
  0
DIMSTYLE
105
27
330
A
100
AcDbSymbolTableRecord
100
AcDbDimStyleTableRecord
  2
ISO-25
 70
     0
 41
2.5
 42
0.625
 43
3.75
 44
1.25
 73
     0
 74
     0
 77
     1
 78
     8
140
2.5
141
2.5
143
0.03937007874016
147
0.625
171
     3
172
     1
178
     0
271
     2
272
     2
274
     3
278
    44
283
     0
284
     8
340
11
  0
DIMSTYLE
105
D2
102
{ACAD_REACTORS
330
D1
330
151
330
176
330
167
330
141
102
}
330
A
100
AcDbSymbolTableRecord
100
AcDbDimStyleTableRecord
  2
SLDDIMSTYLE0
 70
     0
 41
3.302
 44
0.0
 45
0.000000001
 73
     0
 74
     0
 77
     1
 78
    12
 79
     3
140
3.5
143
0.0393700787401575
147
0.875
148
0.000000001
170
     1
172
     1
173
     1
178
     0
271
     2
272
     2
276
     2
284
    12
289
     0
340
93
  0
ENDTAB
  0
TABLE
  2
BLOCK_RECORD
  5
1
330
0
100
AcDbSymbolTable
 70
     9
  0
BLOCK_RECORD
  5
1F
330
1
100
AcDbSymbolTableRecord
100
AcDbBlockTableRecord
  2
*Model_Space
340
22
  0
BLOCK_RECORD
  5
1B
330
1
100
AcDbSymbolTableRecord
100
AcDbBlockTableRecord
  2
*Paper_Space
340
1E
  0
BLOCK_RECORD
  5
23
330
1
100
AcDbSymbolTableRecord
100
AcDbBlockTableRecord
  2
*Paper_Space0
340
26
  0
BLOCK_RECORD
  5
7E
330
1
100
AcDbSymbolTableRecord
100
AcDbBlockTableRecord
  2
블럭10
340
0
102
{BLKREFS
331
CA
102
}
  0
BLOCK_RECORD
  5
D3
330
1
100
AcDbSymbolTableRecord
100
AcDbBlockTableRecord
  2
_D
340
0
  0
BLOCK_RECORD
  5
E7
330
1
100
AcDbSymbolTableRecord
100
AcDbBlockTableRecord
  2
_D_1
340
0
  0
BLOCK_RECORD
  5
FB
330
1
100
AcDbSymbolTableRecord
100
AcDbBlockTableRecord
  2
SW_DOWELSYMBOL_0
340
0
102
{BLKREFS
331
101
102
}
  0
BLOCK_RECORD
  5
144
330
1
100
AcDbSymbolTableRecord
100
AcDbBlockTableRecord
  2
*D5
340
0
  0
BLOCK_RECORD
  5
154
330
1
100
AcDbSymbolTableRecord
100
AcDbBlockTableRecord
  2
*D6
340
0
  0
BLOCK_RECORD
  5
16A
330
1
100
AcDbSymbolTableRecord
100
AcDbBlockTableRecord
  2
*D7
340
0
  0
BLOCK_RECORD
  5
179
330
1
100
AcDbSymbolTableRecord
100
AcDbBlockTableRecord
  2
*D8
340
0
  0
ENDTAB
  0
ENDSEC
  0
SECTION
  2
BLOCKS
  0
BLOCK
  5
20
330
1F
100
AcDbEntity
  8
0
100
AcDbBlockBegin
  2
*Model_Space
 70
     0
 10
0.0
 20
0.0
 30
0.0
  3
*Model_Space
  1
*Model_Space
  0
ENDBLK
  5
21
330
1F
100
AcDbEntity
  8
0
100
AcDbBlockEnd
  0
BLOCK
  5
1C
330
1B
100
AcDbEntity
 67
     1
  8
0
100
AcDbBlockBegin
  2
*Paper_Space
 70
     0
 10
0.0
 20
0.0
 30
0.0
  3
*Paper_Space
  1
*Paper_Space
  0
ENDBLK
  5
1D
330
1B
100
AcDbEntity
 67
     1
  8
0
100
AcDbBlockEnd
  0
BLOCK
  5
24
330
23
100
AcDbEntity
  8
0
100
AcDbBlockBegin
  2
*Paper_Space0
 70
     0
 10
0.0
 20
0.0
 30
0.0
  3
*Paper_Space0
  1
*Paper_Space0
  0
ENDBLK
  5
25
330
23
100
AcDbEntity
  8
0
100
AcDbBlockEnd
  0
BLOCK
  5
7F
330
7E
100
AcDbEntity
  8
0
100
AcDbBlockBegin
  2
블럭10
 70
     2
 10
0.0
 20
0.0
 30
0.0
  3
블럭10
  1
블럭10
  0
ELLIPSE
  5
81
330
7E
100
AcDbEntity
  8
중심선
100
AcDbEllipse
 10
20.54032771741204
 20
12.0471743016438
 30
0.0
 11
6.600054785286829
 21
-1.261213355974178E-13
 31
0.0
210
0.0
220
0.0
230
1.0
 40
0.636358354079598
 41
0.9219305317359503
 42
6.513795318482858
  0
ELLIPSE
  5
82
330
7E
100
AcDbEntity
  8
중심선
100
AcDbEllipse
 10
20.54032771746488
 20
12.04717430159265
 30
0.0
 11
3.960054785062283
 21
1.540847449632565E-10
 31
0.0
210
0.0
220
0.0
230
1.0
 40
0.3939339440162632
 41
1.131841032648279
 42
5.62031148352944
  0
LINE
  5
83
330
7E
100
AcDbEntity
  8
중심선
100
AcDbLine
 10
2.268634060543552
 20
16.24717430164393
 30
0.0
 11
5.714909304380834
 21
16.24717430164393
 31
0.0
  0
LINE
  5
84
330
7E
100
AcDbEntity
  8
중심선
100
AcDbLine
 10
5.245725140726316
 20
7.84717430164391
 30
0.0
 11
8.692000384563599
 21
7.84717430164391
 31
0.0
  0
LINE
  5
85
330
7E
100
AcDbEntity
  8
중심선
100
AcDbLine
 10
15.74043728645272
 20
16.24717430164393
 30
0.0
 11
8.692000384563599
 21
7.84717430164391
 31
0.0
  0
LINE
  5
86
330
7E
100
AcDbEntity
  8
중심선
100
AcDbLine
 10
0.1404042013395286
 20
13.71084872107135
 30
0.0
 11
3.58671253028996
 21
13.71088815037384
 31
0.0
  0
LINE
  5
87
330
7E
100
AcDbEntity
  8
중심선
100
AcDbLine
 10
2.750260043222114
 20
10.84717430164391
 30
0.0
 11
6.196535287059397
 21
10.84717430164391
 31
0.0
  0
LINE
  5
88
330
7E
100
AcDbEntity
  8
중심선
100
AcDbLine
 10
12.29416204261559
 20
16.24717430164393
 30
0.0
 11
5.245725140726316
 21
7.84717430164391
 31
0.0
  0
LINE
  5
89
330
7E
100
AcDbEntity
  8
중심선
100
AcDbLine
 10
10.72767329541681
 20
16.24717430164393
 30
0.0
 11
6.196535287059397
 21
10.84717430164391
 31
0.0
  0
LINE
  5
8A
330
7E
100
AcDbEntity
  8
중심선
100
AcDbLine
 10
7.28139805157953
 20
16.24717430164393
 30
0.0
 11
2.750260043222114
 21
10.84717430164391
 31
0.0
  0
LINE
  5
8B
330
7E
100
AcDbEntity
  8
중심선
100
AcDbLine
 10
5.714909304380834
 20
16.24717430164393
 30
0.0
 11
3.58671253028996
 21
13.71088815037384
 31
0.0
  0
LINE
  5
8C
330
7E
100
AcDbEntity
  8
중심선
100
AcDbLine
 10
2.268634060543552
 20
16.24717430164393
 30
0.0
 11
0.1404042013395286
 21
13.71084872107135
 31
0.0
  0
LINE
  5
8D
330
7E
100
AcDbEntity
  8
중심선
100
AcDbLine
 10
7.28139805157953
 20
16.24717430164393
 30
0.0
 11
10.72767329541681
 21
16.24717430164393
 31
0.0
  0
LINE
  5
8E
330
7E
100
AcDbEntity
  8
중심선
100
AcDbLine
 10
12.29416204261559
 20
16.24717430164393
 30
0.0
 11
15.74043728645272
 21
16.24717430164393
 31
0.0
  0
LINE
  5
8F
330
7E
100
AcDbEntity
  8
중심선
100
AcDbLine
 10
19.22036997980202
 20
11.08717430171403
 30
0.0
 11
23.66174974927406
 21
11.08717430171406
 31
0.0
  0
LINE
  5
90
330
7E
100
AcDbEntity
  8
중심선
100
AcDbLine
 10
19.22039502424796
 20
13.00717430171391
 30
0.0
 11
19.22036997980202
 21
11.08717430171403
 31
0.0
  0
LINE
  5
91
330
7E
100
AcDbEntity
  8
중심선
100
AcDbLine
 10
19.22039502424796
 20
13.00717430171391
 30
0.0
 11
26.96566020931264
 21
13.00717430171391
 31
0.0
  0
LINE
  5
92
330
7E
100
AcDbEntity
  8
중심선
100
AcDbLine
 10
22.22332737316547
 20
13.45928029700563
 30
0.0
 11
24.52862924686651
 21
15.39360700705356
 31
0.0
  0
ATTDEF
  5
94
330
7E
100
AcDbEntity
  8
FORMAT
 62
     2
100
AcDbText
 10
-10.14163601213663
 20
2.075366912832191
 30
0.0
 40
4.233333333333333
  1
EM084040 [ 2 FLUTE ]
 41
0.75
  7
SLDTEXTSTYLE0
 11
-10.14163601213663
 21
-0.0412997538344756
 31
0.0
100
AcDbAttributeDefinition
  3

  2
AUTOATTR0
 70
     0
 74
     1
  0
ENDBLK
  5
80
330
7E
100
AcDbEntity
  8
0
100
AcDbBlockEnd
  0
BLOCK
  5
D4
330
D3
100
AcDbEntity
  8
0
100
AcDbBlockBegin
  2
_D
 70
     0
 10
0.0
 20
0.0
 30
0.0
  3
_D
  1
_D
  0
LINE
  5
D6
330
D3
100
AcDbEntity
  8
치수문자_일반주서
 62
     0
370
    -2
100
AcDbLine
 10
-87.96249999999998
 20
7.9375
 30
0.0
 11
-111.607630002748
 21
7.937499999999911
 31
0.0
  0
LINE
  5
D7
330
D3
100
AcDbEntity
  8
치수문자_일반주서
 62
     0
370
    -2
100
AcDbLine
 10
-87.96249999999998
 20
-7.9375
 30
0.0
 11
-111.607630002748
 21
-7.937500000000089
 31
0.0
  0
LINE
  5
D8
330
D3
100
AcDbEntity
  8
치수문자_일반주서
 62
     0
370
    -2
100
AcDbLine
 10
-111.607630002748
 20
4.635499999999912
 30
0.0
 11
-111.607630002748
 21
-4.635500000000089
 31
0.0
  0
SOLID
  5
D9
330
D3
100
AcDbEntity
  8
치수문자_일반주서
 62
     0
100
AcDbTrace
 10
-111.0572966694147
 20
4.635499999999913
 30
0.0
 11
-112.1579633360813
 21
4.63549999999991
 31
0.0
 12
-111.607630002748
 22
7.937499999999911
 32
0.0
 13
-111.607630002748
 23
7.937499999999911
 33
0.0
  0
SOLID
  5
DA
330
D3
100
AcDbEntity
  8
치수문자_일반주서
 62
     0
100
AcDbTrace
 10
-112.1579633360813
 20
-4.635500000000091
 30
0.0
 11
-111.0572966694146
 21
-4.635500000000087
 31
0.0
 12
-111.607630002748
 22
-7.937500000000089
 32
0.0
 13
-111.607630002748
 23
-7.937500000000089
 33
0.0
  0
MTEXT
  5
DB
330
D3
100
AcDbEntity
  8
치수문자_일반주서
 62
     0
100
AcDbMText
 10
-115.982630002748
 20
-0.0000000000000187
 30
0.0
 40
3.5
 41
0.0
 71
     2
 72
     1
  1
\A1;%%c15.88 [5/8]
  7
SLDTEXTSTYLE0
 11
-3.580687802255623E-15
 21
1.0
 31
0.0
 73
     1
 44
1.0
  0
POINT
  5
DC
330
D3
100
AcDbEntity
  8
Defpoints
 62
     0
100
AcDbPoint
 10
-87.89999999999998
 20
7.9375
 30
0.0
  0
POINT
  5
DD
330
D3
100
AcDbEntity
  8
Defpoints
 62
     0
100
AcDbPoint
 10
-87.89999999999998
 20
-7.9375
 30
0.0
  0
POINT
  5
DE
330
D3
100
AcDbEntity
  8
Defpoints
 62
     0
100
AcDbPoint
 10
-111.607630002748
 20
-7.937500000000089
 30
0.0
  0
ENDBLK
  5
D5
330
D3
100
AcDbEntity
  8
0
100
AcDbBlockEnd
  0
BLOCK
  5
E8
330
E7
100
AcDbEntity
  8
0
100
AcDbBlockBegin
  2
_D_1
 70
     0
 10
0.0
 20
0.0
 30
0.0
  3
_D_1
  1
_D_1
  0
SOLID
  5
EA
330
E7
100
AcDbEntity
  8
치수문자_일반주서
100
AcDbTrace
 10
41.61875
 20
6.350000000000001
 30
0.0
 11
42.12675
 21
9.652000000000001
 31
0.0
 12
41.11075
 22
9.652000000000001
 32
0.0
 13
41.11075
 23
9.652000000000001
 33
0.0
  0
SOLID
  5
EB
330
E7
100
AcDbEntity
  8
치수문자_일반주서
100
AcDbTrace
 10
41.61875
 20
-6.318029694034223
 30
0.0
 11
41.11075
 21
-9.620029694034223
 31
0.0
 12
42.12675
 22
-9.620029694034223
 32
0.0
 13
42.12675
 23
-9.620029694034223
 33
0.0
  0
LINE
  5
EC
330
E7
100
AcDbEntity
  8
치수문자_일반주서
100
AcDbLine
 10
30.82586828395727
 20
-5.414366965548569
 30
0.0
 11
30.82586828395727
 21
-6.125304451113069
 31
0.0
  0
LINE
  5
ED
330
E7
100
AcDbEntity
  8
치수문자_일반주서
100
AcDbLine
 10
30.82586828395727
 20
-6.125304451113069
 30
0.0
 11
36.38211827501657
 21
-6.12530445111303
 31
0.0
  0
LINE
  5
EE
330
E7
100
AcDbEntity
  8
치수문자_일반주서
100
AcDbLine
 10
36.38211827501657
 20
-6.12530445111303
 30
0.0
 11
36.38211827501657
 21
-5.41436696554853
 31
0.0
  0
LINE
  5
EF
330
E7
100
AcDbEntity
  8
치수문자_일반주서
100
AcDbLine
 10
30.82586828395719
 20
5.414365896588689
 30
0.0
 11
30.82586828395718
 21
6.125303382153189
 31
0.0
  0
LINE
  5
F0
330
E7
100
AcDbEntity
  8
치수문자_일반주서
100
AcDbLine
 10
30.82586828395718
 20
6.125303382153189
 30
0.0
 11
36.38211827501649
 21
6.125303382153228
 31
0.0
  0
LINE
  5
F1
330
E7
100
AcDbEntity
  8
치수문자_일반주서
100
AcDbLine
 10
36.38211827501649
 20
6.125303382153228
 30
0.0
 11
36.3821182750165
 21
5.414365896588728
 31
0.0
  0
LINE
  5
F2
330
E7
100
AcDbEntity
  8
치수문자_일반주서
100
AcDbLine
 10
19.65000000000002
 20
6.350000000000001
 30
0.0
 11
42.61875
 21
6.350000000000001
 31
0.0
  0
LINE
  5
F3
330
E7
100
AcDbEntity
  8
치수문자_일반주서
100
AcDbLine
 10
20.28639672005896
 20
-6.318029694034223
 30
0.0
 11
42.61875
 21
-6.318029694034223
 31
0.0
  0
LINE
  5
F4
330
E7
100
AcDbEntity
  8
치수문자_일반주서
100
AcDbLine
 10
41.61875
 20
6.350000000000001
 30
0.0
 11
41.61875
 21
12.7
 31
0.0
  0
LINE
  5
F5
330
E7
100
AcDbEntity
  8
치수문자_일반주서
100
AcDbLine
 10
41.61875
 20
6.350000000000001
 30
0.0
 11
41.61875
 21
-6.318029694034223
 31
0.0
  0
LINE
  5
F6
330
E7
100
AcDbEntity
  8
치수문자_일반주서
100
AcDbLine
 10
41.61875
 20
-6.318029694034223
 30
0.0
 11
41.61875
 21
-12.66802969403422
 31
0.0
  0
MTEXT
  5
F7
330
E7
100
AcDbEntity
  8
치수문자_일반주서
100
AcDbMText
 10
37.0535407341383
 20
-6.639063176599722
 30
0.0
 40
3.5
 41
0.0
 71
     1
 72
     1
  1

  7
SLDTEXTSTYLE0
 11
-7.044195017643634E-15
 21
1.0
 31
0.0
 73
     1
 44
1.0
  0
MTEXT
  5
F8
330
E7
100
AcDbEntity
  8
치수문자_일반주서
100
AcDbMText
 10
31.87038136043767
 20
-4.525695064937191
 30
0.0
 40
3.5
 41
0.0
 71
     1
 72
     1
  1
0.50
  7
SLDTEXTSTYLE0
 11
-7.044195017643634E-15
 21
1.0
 31
0.0
 73
     1
 44
1.0
  0
MTEXT
  5
F9
330
E7
100
AcDbEntity
  8
치수문자_일반주서
100
AcDbMText
 10
37.10701291079815
 20
-5.818750778113882
 30
0.0
 40
3.5
 41
0.0
 71
     1
 72
     1
  1
12.67
  7
SLDTEXTSTYLE0
 11
-7.044195017643634E-15
 21
1.0
 31
0.0
 73
     1
 44
1.0
  0
MTEXT
  5
FA
330
E7
100
AcDbEntity
  8
치수문자_일반주서
100
AcDbMText
 10
37.0535407341382
 20
7.971006627293844
 30
0.0
 40
3.5
 41
0.0
 71
     1
 72
     1
  1

  7
SLDTEXTSTYLE0
 11
-7.044195017643634E-15
 21
1.0
 31
0.0
 73
     1
 44
1.0
  0
ENDBLK
  5
E9
330
E7
100
AcDbEntity
  8
0
100
AcDbBlockEnd
  0
BLOCK
  5
FC
330
FB
100
AcDbEntity
  8
0
100
AcDbBlockBegin
  2
SW_DOWELSYMBOL_0
 70
     0
 10
0.0
 20
0.0
 30
0.0
  3
SW_DOWELSYMBOL_0
  1
SW_DOWELSYMBOL_0
  0
CIRCLE
  5
FE
330
FB
100
AcDbEntity
  8
해칭선
 62
     0
100
AcDbCircle
 10
0.0
 20
0.0
 30
0.0
 40
3.0
  0
HATCH
  5
FF
330
FB
100
AcDbEntity
  8
0
  6
Continuous
 62
     0
370
     0
100
AcDbHatch
 10
0.0
 20
0.0
 30
0.0
210
0.0
220
0.0
230
1.0
  2
SOLID
 70
     1
 71
     0
 91
        1
 92
        0
 93
        3
 72
     2
 10
0.0
 20
0.0
 40
3.0
 50
0.0
 51
90.0
 73
     1
 72
     1
 10
0.0
 20
3.0
 11
0.0
 21
0.0
 72
     1
 10
0.0
 20
0.0
 11
2.999999999999999
 21
0.0
 97
        0
 75
     0
 76
     1
 98
        1
 10
0.0
 20
0.0
  0
HATCH
  5
100
330
FB
100
AcDbEntity
  8
0
  6
Continuous
 62
     0
370
     0
100
AcDbHatch
 10
0.0
 20
0.0
 30
0.0
210
0.0
220
0.0
230
1.0
  2
SOLID
 70
     1
 71
     0
 91
        1
 92
        0
 93
        3
 72
     2
 10
0.0
 20
0.0
 40
3.0
 50
180.0
 51
270.0000000000008
 73
     1
 72
     1
 10
0.0
 20
-3.0
 11
0.0
 21
0.0
 72
     1
 10
0.0
 20
0.0
 11
-2.999999999999999
 21
0.0
 97
        0
 75
     0
 76
     1
 98
        1
 10
0.0
 20
0.0
  0
ENDBLK
  5
FD
330
FB
100
AcDbEntity
  8
0
100
AcDbBlockEnd
  0
BLOCK
  5
145
330
144
100
AcDbEntity
  8
0
100
AcDbBlockBegin
  2
*D5
 70
     1
 10
0.0
 20
0.0
 30
0.0
  3
*D5
  1
*D5
  0
LINE
  5
147
330
144
100
AcDbEntity
  8
치수문자_일반주서
 62
     0
370
    -2
100
AcDbLine
 10
69.84999998729931
 20
7.992499999999991
 30
0.0
 11
69.84999998729931
 21
40.06811891400349
 31
0.0
  0
LINE
  5
148
330
144
100
AcDbEntity
  8
치수문자_일반주서
 62
     0
370
    -2
100
AcDbLine
 10
53.97499998729931
 20
6.299830438577061
 30
0.0
 11
53.97499998729931
 21
40.06811891400349
 31
0.0
  0
LINE
  5
149
330
144
100
AcDbEntity
  8
치수문자_일반주서
 62
     0
370
    -2
100
AcDbLine
 10
50.67299998729931
 20
40.06811891400349
 30
0.0
 11
21.99599998729931
 21
40.06811891400349
 31
0.0
  0
LINE
  5
14A
330
144
100
AcDbEntity
  8
치수문자_일반주서
 62
     0
370
    -2
100
AcDbLine
 10
69.84999998729931
 20
40.06811891400349
 30
0.0
 11
53.97499998729931
 21
40.06811891400349
 31
0.0
  0
LINE
  5
14B
330
144
100
AcDbEntity
  8
치수문자_일반주서
 62
     0
370
    -2
100
AcDbLine
 10
73.15199998729932
 20
40.06811891400349
 30
0.0
 11
76.45399998729931
 21
40.06811891400349
 31
0.0
  0
SOLID
  5
14C
330
144
100
AcDbEntity
  8
치수문자_일반주서
 62
     0
100
AcDbTrace
 10
73.15199998729932
 20
40.61845224733683
 30
0.0
 11
73.15199998729932
 21
39.51778558067016
 31
0.0
 12
69.84999998729931
 22
40.06811891400349
 32
0.0
 13
69.84999998729931
 23
40.06811891400349
 33
0.0
  0
SOLID
  5
14D
330
144
100
AcDbEntity
  8
치수문자_일반주서
 62
     0
100
AcDbTrace
 10
50.67299998729931
 20
39.51778558067016
 30
0.0
 11
50.67299998729931
 21
40.61845224733683
 31
0.0
 12
53.97499998729931
 22
40.06811891400349
 32
0.0
 13
53.97499998729931
 23
40.06811891400349
 33
0.0
  0
MTEXT
  5
14E
330
144
100
AcDbEntity
  8
치수문자_일반주서
 62
     0
100
AcDbMText
 10
34.68349998729931
 20
42.69311891400349
 30
0.0
 40
3.5
 41
0.0
 71
     5
 72
     1
  1
\A1;15.88 [5/8]
  7
SLDTEXTSTYLE0
 73
     1
 44
1.0
  0
POINT
  5
14F
330
144
100
AcDbEntity
  8
Defpoints
 62
     0
100
AcDbPoint
 10
69.84999998729931
 20
7.929999999999991
 30
0.0
  0
POINT
  5
150
330
144
100
AcDbEntity
  8
Defpoints
 62
     0
100
AcDbPoint
 10
53.97499998729931
 20
6.237330438577061
 30
0.0
  0
POINT
  5
185
330
144
100
AcDbEntity
  8
Defpoints
 62
     0
100
AcDbPoint
 10
53.97499998729931
 20
40.06811891400349
 30
0.0
  0
ENDBLK
  5
146
330
144
100
AcDbEntity
  8
0
100
AcDbBlockEnd
  0
BLOCK
  5
155
330
154
100
AcDbEntity
  8
0
100
AcDbBlockBegin
  2
*D6
 70
     1
 10
0.0
 20
0.0
 30
0.0
  3
*D6
  1
*D6
  0
LINE
  5
157
330
154
100
AcDbEntity
  8
치수문자_일반주서
 62
     0
370
    -2
100
AcDbLine
 10
69.91249998729931
 20
-7.937500000000005
 30
0.0
 11
89.12709968354324
 21
-7.937500000000008
 31
0.0
  0
LINE
  5
158
330
154
100
AcDbEntity
  8
치수문자_일반주서
 62
     0
370
    -2
100
AcDbLine
 10
69.91249998729931
 20
7.937499999999995
 30
0.0
 11
89.12709968354324
 21
7.937499999999994
 31
0.0
  0
LINE
  5
159
330
154
100
AcDbEntity
  8
치수문자_일반주서
 62
     0
370
    -2
100
AcDbLine
 10
89.12709968354324
 20
11.23949999999999
 30
0.0
 11
89.12709968354324
 21
39.91649999999999
 31
0.0
  0
LINE
  5
15A
330
154
100
AcDbEntity
  8
치수문자_일반주서
 62
     0
370
    -2
100
AcDbLine
 10
89.12709968354324
 20
-7.937500000000008
 30
0.0
 11
89.12709968354324
 21
7.937499999999994
 31
0.0
  0
LINE
  5
15B
330
154
100
AcDbEntity
  8
치수문자_일반주서
 62
     0
370
    -2
100
AcDbLine
 10
89.12709968354324
 20
-11.23950000000001
 30
0.0
 11
89.12709968354324
 21
-14.54150000000001
 31
0.0
  0
SOLID
  5
15C
330
154
100
AcDbEntity
  8
치수문자_일반주서
 62
     0
100
AcDbTrace
 10
89.67743301687656
 20
-11.23950000000001
 30
0.0
 11
88.57676635020991
 21
-11.23950000000001
 31
0.0
 12
89.12709968354324
 22
-7.937500000000008
 32
0.0
 13
89.12709968354324
 23
-7.937500000000008
 33
0.0
  0
SOLID
  5
15D
330
154
100
AcDbEntity
  8
치수문자_일반주서
 62
     0
100
AcDbTrace
 10
88.57676635020991
 20
11.23949999999999
 30
0.0
 11
89.67743301687656
 21
11.23949999999999
 31
0.0
 12
89.12709968354324
 22
7.937499999999994
 32
0.0
 13
89.12709968354324
 23
7.937499999999994
 33
0.0
  0
MTEXT
  5
15E
330
154
100
AcDbEntity
  8
치수문자_일반주서
 62
     0
100
AcDbMText
 10
86.50209968354324
 20
27.22899999999999
 30
0.0
 40
3.5
 41
0.0
 71
     5
 72
     1
  1
\A1;15.88 [5/8]
  7
SLDTEXTSTYLE0
 11
0.0
 21
1.0
 31
0.0
 73
     1
 44
1.0
  0
POINT
  5
15F
330
154
100
AcDbEntity
  8
Defpoints
 62
     0
100
AcDbPoint
 10
69.84999998729931
 20
-7.937500000000005
 30
0.0
  0
POINT
  5
160
330
154
100
AcDbEntity
  8
Defpoints
 62
     0
100
AcDbPoint
 10
69.84999998729931
 20
7.937499999999995
 30
0.0
  0
POINT
  5
161
330
154
100
AcDbEntity
  8
Defpoints
 62
     0
100
AcDbPoint
 10
89.12709968354324
 20
7.937499999999994
 30
0.0
  0
ENDBLK
  5
156
330
154
100
AcDbEntity
  8
0
100
AcDbBlockEnd
  0
BLOCK
  5
16B
330
16A
100
AcDbEntity
  8
0
100
AcDbBlockBegin
  2
*D7
 70
     1
 10
0.0
 20
0.0
 30
0.0
  3
*D7
  1
*D7
  0
LINE
  5
16D
330
16A
100
AcDbEntity
  8
치수문자_일반주서
 62
     0
370
    -2
100
AcDbLine
 10
69.84999998729931
 20
7.999999999999995
 30
0.0
 11
69.84999998729931
 21
53.57048482142579
 31
0.0
  0
LINE
  5
16E
330
16A
100
AcDbEntity
  8
치수문자_일반주서
 62
     0
370
    -2
100
AcDbLine
 10
0.0
 20
8.0
 30
0.0
 11
0.0
 21
53.57048482142579
 31
0.0
  0
LINE
  5
16F
330
16A
100
AcDbEntity
  8
치수문자_일반주서
 62
     0
370
    -2
100
AcDbLine
 10
66.5479999872993
 20
53.57048482142579
 30
0.0
 11
3.302
 21
53.57048482142579
 31
0.0
  0
SOLID
  5
170
330
16A
100
AcDbEntity
  8
치수문자_일반주서
 62
     0
100
AcDbTrace
 10
66.5479999872993
 20
53.02015148809246
 30
0.0
 11
66.5479999872993
 21
54.12081815475913
 31
0.0
 12
69.84999998729931
 22
53.57048482142579
 32
0.0
 13
69.84999998729931
 23
53.57048482142579
 33
0.0
  0
SOLID
  5
171
330
16A
100
AcDbEntity
  8
치수문자_일반주서
 62
     0
100
AcDbTrace
 10
3.302
 20
54.12081815475913
 30
0.0
 11
3.302
 21
53.02015148809246
 31
0.0
 12
0.0
 22
53.57048482142579
 32
0.0
 13
0.0
 23
53.57048482142579
 33
0.0
  0
MTEXT
  5
172
330
16A
100
AcDbEntity
  8
치수문자_일반주서
 62
     0
100
AcDbMText
 10
34.92499999364966
 20
56.19548482142579
 30
0.0
 40
3.5
 41
0.0
 71
     5
 72
     1
  1
\A1;69.85 [2 3/4]
  7
SLDTEXTSTYLE0
 73
     1
 44
1.0
  0
POINT
  5
173
330
16A
100
AcDbEntity
  8
Defpoints
 62
     0
100
AcDbPoint
 10
69.84999998729931
 20
7.937499999999995
 30
0.0
  0
POINT
  5
174
330
16A
100
AcDbEntity
  8
Defpoints
 62
     0
100
AcDbPoint
 10
0.0
 20
7.9375
 30
0.0
  0
POINT
  5
175
330
16A
100
AcDbEntity
  8
Defpoints
 62
     0
100
AcDbPoint
 10
0.0
 20
53.57048482142579
 30
0.0
  0
ENDBLK
  5
16C
330
16A
100
AcDbEntity
  8
0
100
AcDbBlockEnd
  0
BLOCK
  5
17A
330
179
100
AcDbEntity
  8
0
100
AcDbBlockBegin
  2
*D8
 70
     1
 10
0.0
 20
0.0
 30
0.0
  3
*D8
  1
*D8
  0
LINE
  5
17C
330
179
100
AcDbEntity
  8
치수문자_일반주서
 62
     0
370
    -2
100
AcDbLine
 10
-88.89999999999998
 20
6.999999999999999
 30
0.0
 11
-88.89999999999999
 21
68.70204616848135
 31
0.0
  0
LINE
  5
17D
330
179
100
AcDbEntity
  8
치수문자_일반주서
 62
     0
370
    -2
100
AcDbLine
 10
69.84999998729931
 20
7.999999999999995
 30
0.0
 11
69.84999998729931
 21
68.70204616848135
 31
0.0
  0
LINE
  5
17E
330
179
100
AcDbEntity
  8
치수문자_일반주서
 62
     0
370
    -2
100
AcDbLine
 10
-85.59799999999998
 20
68.70204616848135
 30
0.0
 11
66.5479999872993
 21
68.70204616848135
 31
0.0
  0
SOLID
  5
17F
330
179
100
AcDbEntity
  8
치수문자_일반주서
 62
     0
100
AcDbTrace
 10
-85.59799999999998
 20
69.25237950181467
 30
0.0
 11
-85.59799999999998
 21
68.15171283514802
 31
0.0
 12
-88.89999999999999
 22
68.70204616848135
 32
0.0
 13
-88.89999999999999
 23
68.70204616848135
 33
0.0
  0
SOLID
  5
180
330
179
100
AcDbEntity
  8
치수문자_일반주서
 62
     0
100
AcDbTrace
 10
66.5479999872993
 20
68.15171283514802
 30
0.0
 11
66.5479999872993
 21
69.25237950181467
 31
0.0
 12
69.84999998729931
 22
68.70204616848135
 32
0.0
 13
69.84999998729931
 23
68.70204616848135
 33
0.0
  0
MTEXT
  5
181
330
179
100
AcDbEntity
  8
치수문자_일반주서
 62
     0
100
AcDbMText
 10
-9.52500000635034
 20
71.32704616848135
 30
0.0
 40
3.5
 41
0.0
 71
     5
 72
     1
  1
\A1;158.75 [6 1/4]
  7
SLDTEXTSTYLE0
 73
     1
 44
1.0
  0
POINT
  5
182
330
179
100
AcDbEntity
  8
Defpoints
 62
     0
100
AcDbPoint
 10
-88.89999999999998
 20
6.937499999999999
 30
0.0
  0
POINT
  5
183
330
179
100
AcDbEntity
  8
Defpoints
 62
     0
100
AcDbPoint
 10
69.84999998729931
 20
7.937499999999995
 30
0.0
  0
POINT
  5
184
330
179
100
AcDbEntity
  8
Defpoints
 62
     0
100
AcDbPoint
 10
69.84999998729931
 20
68.70204616848135
 30
0.0
  0
ENDBLK
  5
17B
330
179
100
AcDbEntity
  8
0
100
AcDbBlockEnd
  0
ENDSEC
  0
SECTION
  2
ENTITIES
  0
LINE
  5
95
102
{ACAD_REACTORS
102
}
330
1F
100
AcDbEntity
  8
0
 62
     4
100
AcDbLine
 10
0.0
 20
7.9375
 30
0.0
 11
-87.89999999999998
 21
7.9375
 31
0.0
  0
LINE
  5
96
330
1F
100
AcDbEntity
  8
0
 62
     4
100
AcDbLine
 10
-87.89999999999998
 20
-7.9375
 30
0.0
 11
0.0
 21
-7.9375
 31
0.0
  0
LINE
  5
97
102
{ACAD_REACTORS
102
}
330
1F
100
AcDbEntity
  8
0
 62
     4
100
AcDbLine
 10
-87.89999999999998
 20
7.9375
 30
0.0
 11
-88.89999999999998
 21
6.937499999999999
 31
0.0
  0
LINE
  5
98
330
1F
100
AcDbEntity
  8
0
 62
     4
100
AcDbLine
 10
-88.89999999999998
 20
-6.937499999999999
 30
0.0
 11
-87.89999999999998
 21
-7.9375
 31
0.0
  0
ARC
  5
9F
330
1F
100
AcDbEntity
  8
0
  6
Continuous
 62
     1
370
    15
100
AcDbCircle
 10
61.9125
 20
0.0
 30
0.0
 40
7.937499999999998
100
AcDbArc
 50
335.2374083917803
 51
24.7690740618299
  0
LINE
  5
A2
330
1F
100
AcDbEntity
  8
0
 62
     4
100
AcDbLine
 10
0.0
 20
0.0
 30
0.0
 11
0.0
 21
-7.9375
 31
0.0
  0
LINE
  5
A3
330
1F
100
AcDbEntity
  8
0
 62
     4
100
AcDbLine
 10
0.0
 20
7.9375
 30
0.0
 11
0.0
 21
0.0
 31
0.0
  0
LINE
  5
A4
330
1F
100
AcDbEntity
  8
0
 62
     4
100
AcDbLine
 10
-87.89999999999998
 20
0.0
 30
0.0
 11
-87.89999999999998
 21
-7.9375
 31
0.0
  0
LINE
  5
A5
330
1F
100
AcDbEntity
  8
0
 62
     4
100
AcDbLine
 10
-87.89999999999998
 20
7.9375
 30
0.0
 11
-87.89999999999998
 21
0.0
 31
0.0
  0
LINE
  5
A6
330
1F
100
AcDbEntity
  8
0
 62
     4
100
AcDbLine
 10
-88.89999999999998
 20
0.0
 30
0.0
 11
-88.89999999999998
 21
-6.937499999999999
 31
0.0
  0
LINE
  5
A7
330
1F
100
AcDbEntity
  8
0
 62
     4
100
AcDbLine
 10
-88.89999999999998
 20
6.937499999999999
 30
0.0
 11
-88.89999999999998
 21
0.0
 31
0.0
  0
SPLINE
  5
AB
330
1F
100
AcDbEntity
  8
0
 62
     4
100
AcDbSpline
210
0.0
220
0.0
230
1.0
 70
     8
 71
     3
 72
    16
 73
    12
 74
     0
 42
0.000000001
 43
0.00000001
 40
0.0
 40
0.0
 40
0.0
 40
0.0
 40
0.125
 40
0.125
 40
0.2500000000000001
 40
0.2500000000000001
 40
0.5
 40
0.5
 40
0.75
 40
0.75
 40
1.0
 40
1.0
 40
1.0
 40
1.0
 10
50.77482936542266
 20
-4.565383808168871
 30
0.0
 10
50.57516445932509
 20
-4.567564043771182
 30
0.0
 10
50.37703828241999
 20
-4.563589785240811
 30
0.0
 10
49.97689399041335
 20
-4.543293146243143
 30
0.0
 10
49.77591497671308
 20
-4.52695614031882
 30
0.0
 10
49.17392418243101
 20
-4.459623032663753
 30
0.0
 10
48.77760442748215
 20
-4.390560375559512
 30
0.0
 10
47.97550541454849
 20
-4.20524150243203
 30
0.0
 10
47.5749122187616
 20
-4.089241981097233
 30
0.0
 10
46.77790825598409
 20
-3.814905070372277
 30
0.0
 10
46.37400800121218
 20
-3.655620001919614
 30
0.0
 10
45.97446733843581
 20
-3.478014897640548
 30
0.0
  0
LINE
  5
AC
330
1F
100
AcDbEntity
  8
0
 62
     4
100
AcDbLine
 10
45.975
 20
2.862511370595895
 30
0.0
 11
45.975
 21
-3.478047284406035
 31
0.0
  0
SPLINE
  5
AD
330
1F
100
AcDbEntity
  8
0
 62
     4
100
AcDbSpline
210
0.0
220
0.0
230
1.0
 70
     8
 71
     3
 72
    14
 73
    10
 74
     0
 42
0.000000001
 43
0.00000001
 40
0.0
 40
0.0
 40
0.0
 40
0.0
 40
0.2500000000000001
 40
0.2500000000000001
 40
0.5000000000000001
 40
0.5000000000000001
 40
0.75
 40
0.75
 40
1.0
 40
1.0
 40
1.0
 40
1.0
 10
45.97476755057144
 20
2.862120796279851
 30
0.0
 10
46.27595504520192
 20
2.60558314670851
 30
0.0
 10
46.57962122938468
 20
2.339511367204004
 30
0.0
 10
47.1835376672015
 20
1.795598751367881
 30
0.0
 10
47.48207908470545
 20
1.518326725609082
 30
0.0
 10
48.0862337013733
 20
0.9539984089738045
 30
0.0
 10
48.38986567431868
 20
0.6675324887458244
 30
0.0
 10
48.99186875155549
 20
0.0939141902134695
 30
0.0
 10
49.2914396990798
 20
-0.1936110645023597
 30
0.0
 10
49.59400017908551
 20
-0.4806064219460798
 30
0.0
  0
LINE
  5
AE
330
1F
100
AcDbEntity
  8
0
 62
     4
100
AcDbLine
 10
45.97446733843581
 20
5.135537701162651
 30
0.0
 11
45.97446733843581
 21
6.349999999999996
 31
0.0
  0
SPLINE
  5
AF
330
1F
100
AcDbEntity
  8
0
 62
     4
100
AcDbSpline
210
0.0
220
0.0
230
1.0
 70
     8
 71
     3
 72
    14
 73
    10
 74
     0
 42
0.000000001
 43
0.00000001
 40
0.0
 40
0.0
 40
0.0
 40
0.0
 40
0.25
 40
0.25
 40
0.5
 40
0.5
 40
0.75
 40
0.75
 40
1.0
 40
1.0
 40
1.0
 40
1.0
 10
49.59400017908551
 20
2.464821724196533
 30
0.0
 10
49.29141456728836
 20
2.73009710048641
 30
0.0
 10
48.99181918267374
 20
2.986911532586447
 30
0.0
 10
48.38976522929178
 20
3.481484493427818
 30
0.0
 10
48.08610772620622
 20
3.719507632030351
 30
0.0
 10
47.48190396024116
 20
4.170384128599324
 30
0.0
 10
47.18333786366455
 20
4.382840668128087
 30
0.0
 10
46.57936956050813
 20
4.781147965014751
 30
0.0
 10
46.27567820721833
 20
4.966504407059471
 30
0.0
 10
45.97446733843581
 20
5.135545503882847
 30
0.0
  0
LINE
  5
B0
330
1F
100
AcDbEntity
  8
0
 62
     4
100
AcDbLine
 10
45.97446733843581
 20
-6.349999999999996
 30
0.0
 11
45.97446733843581
 21
2.862150346257204
 31
0.0
  0
SPLINE
  5
B1
330
1F
100
AcDbEntity
  8
0
 62
     4
100
AcDbSpline
210
0.0
220
0.0
230
1.0
 70
     8
 71
     3
 72
     9
 73
     5
 74
     0
 42
0.000000001
 43
0.00000001
 40
0.0
 40
0.0
 40
0.0
 40
0.0
 40
0.2502566851549974
 40
1.0
 40
1.0
 40
1.0
 40
1.0
 10
47.58570053030251
 20
-4.077640207603324
 30
0.0
 10
47.45134631652284
 20
-4.179886966955102
 30
0.0
 10
46.91448068315743
 20
-4.588454511468252
 30
0.0
 10
46.37725140115563
 20
-4.901123797170341
 30
0.0
 10
45.97446733843582
 20
-5.135545503882845
 30
0.0
  0
SPLINE
  5
B2
330
1F
100
AcDbEntity
  8
0
 62
     4
100
AcDbSpline
210
0.0
220
0.0
230
1.0
 70
     8
 71
     3
 72
     9
 73
     5
 74
     0
 42
0.000000001
 43
0.00000001
 40
0.0
 40
0.0
 40
0.0
 40
0.0
 40
0.5691485716172866
 40
1.0
 40
1.0
 40
1.0
 40
1.0
 10
50.77482936541172
 20
4.565383808168993
 30
0.0
 10
50.16973832662382
 20
4.54400483432784
 30
0.0
 10
49.10658703544429
 20
4.506441753425435
 30
0.0
 10
48.04366290861105
 20
4.206758965040632
 30
0.0
 10
47.5857005303025
 20
4.077640207603325
 30
0.0
  0
SPLINE
  5
B3
330
1F
100
AcDbEntity
  8
0
  6
Continuous
 62
     1
370
    15
100
AcDbSpline
210
0.0
220
0.0
230
1.0
 70
     8
 71
     3
 72
    10
 73
     6
 74
     0
 42
0.000000001
 43
0.00000001
 40
0.0
 40
0.0
 40
0.0
 40
0.0
 40
0.5
 40
0.5
 40
1.0
 40
1.0
 40
1.0
 40
1.0
 10
64.95917252877419
 20
-2.530620989839611
 30
0.0
 10
65.55305117497585
 20
-2.766735029829956
 30
0.0
 10
66.15096350476871
 20
-2.989870846411525
 30
0.0
 10
67.34039811926608
 20
-3.456249662676764
 30
0.0
 10
67.93451964130276
 20
-3.691286797833313
 30
0.0
 10
68.50763650084608
 20
-3.991466339572595
 30
0.0
  0
SPLINE
  5
B4
330
1F
100
AcDbEntity
  8
0
  6
Continuous
 62
     1
370
    15
100
AcDbSpline
210
0.0
220
0.0
230
1.0
 70
     8
 71
     3
 72
    17
 73
    13
 74
     0
 42
0.000000001
 43
0.00000001
 40
0.0
 40
0.0
 40
0.0
 40
0.0
 40
0.1393292631595303
 40
0.2827017068045026
 40
0.4214392428903143
 40
0.5650191008913031
 40
0.6588506765473373
 40
0.7549861592808604
 40
0.8232697183564731
 40
0.8931703647047194
 40
0.9962545076146971
 40
1.0
 40
1.0
 40
1.0
 40
1.0
 10
61.9125
 20
-7.880524476587306
 30
0.0
 10
62.19378035902238
 20
-7.89982038472032
 30
0.0
 10
62.76450352071143
 20
-7.938972146811392
 30
0.0
 10
63.60829648045569
 20
-7.715158823274778
 30
0.0
 10
64.46467884569049
 20
-7.282723790767133
 30
0.0
 10
65.22334076868965
 20
-6.70929314960688
 30
0.0
 10
65.90408381242611
 20
-6.07855650515414
 30
0.0
 10
66.43599443639712
 20
-5.525295408331616
 30
0.0
 10
66.92192358443876
 20
-4.983984295867737
 30
0.0
 10
67.42033799128016
 20
-4.421219522857168
 30
0.0
 10
67.79926927020962
 20
-3.976966372259236
 30
0.0
 10
68.00214381987212
 20
-3.772638826156092
 30
0.0
 10
68.00925668774659
 20
-3.765475015609313
 30
0.0
  0
SPLINE
  5
B5
330
1F
100
AcDbEntity
  8
0
  6
Continuous
 62
     1
370
    15
100
AcDbSpline
210
0.0
220
0.0
230
1.0
 70
     8
 71
     3
 72
     9
 73
     5
 74
     0
 42
0.000000001
 43
0.00000001
 40
0.0
 40
0.0
 40
0.0
 40
0.0
 40
0.2804545688059725
 40
1.0
 40
1.0
 40
1.0
 40
1.0
 10
69.11369365028416
 20
-3.321939761542351
 30
0.0
 10
69.08217198539617
 20
-3.387886840844285
 30
0.0
 10
68.96977707943266
 20
-3.62303037793374
 30
0.0
 10
68.70101966819979
 20
-3.837293958845787
 30
0.0
 10
68.50763650084764
 20
-3.99146633956232
 30
0.0
  0
SPLINE
  5
B6
330
1F
100
AcDbEntity
  8
0
  6
Continuous
 62
     1
370
    15
100
AcDbSpline
210
0.0
220
0.0
230
1.0
 70
     8
 71
     3
 72
    22
 73
    18
 74
     0
 42
0.000000001
 43
0.00000001
 40
0.0
 40
0.0
 40
0.0
 40
0.0
 40
0.125
 40
0.125
 40
0.25
 40
0.25
 40
0.3749999999999999
 40
0.3749999999999999
 40
0.4999999999999999
 40
0.4999999999999999
 40
0.6249999999999999
 40
0.6249999999999999
 40
0.7499999999999999
 40
0.7499999999999999
 40
0.875
 40
0.875
 40
1.0
 40
1.0
 40
1.0
 40
1.0
 10
61.91250000000001
 20
-7.880524476587309
 30
0.0
 10
61.58327218324001
 20
-7.833456571576587
 30
0.0
 10
61.2526213066707
 20
-7.75720587656018
 30
0.0
 10
60.58883880242498
 20
-7.547591425831966
 30
0.0
 10
60.26023094383811
 20
-7.41480544547549
 30
0.0
 10
59.5996656221083
 20
-7.095160274317578
 30
0.0
 10
59.26637305279127
 20
-6.907898918244915
 30
0.0
 10
58.60481105205362
 20
-6.484625984130191
 30
0.0
 10
58.27693127330858
 20
-6.248904985019872
 30
0.0
 10
57.61339361038075
 20
-5.731156418029284
 30
0.0
 10
57.28107637733245
 20
-5.449841987105908
 30
0.0
 10
56.62409664283346
 20
-4.851420063679652
 30
0.0
 10
56.2912637006544
 20
-4.531827283933426
 30
0.0
 10
55.62790453433302
 20
-3.862120956248235
 30
0.0
 10
55.30024751103289
 20
-3.513118972188975
 30
0.0
 10
54.63827698973103
 20
-2.789445753740749
 30
0.0
 10
54.30501632707139
 20
-2.415063824413707
 30
0.0
 10
53.9750000000001
 20
-2.034366450349792
 30
0.0
  0
SPLINE
  5
B7
330
1F
100
AcDbEntity
  8
0
 62
     4
100
AcDbSpline
210
0.0
220
0.0
230
1.0
 70
     8
 71
     3
 72
    18
 73
    14
 74
     0
 42
0.000000001
 43
0.00000001
 40
0.0
 40
0.0
 40
0.0
 40
0.0
 40
0.2499999999999999
 40
0.2499999999999999
 40
0.3749999999999999
 40
0.3749999999999999
 40
0.5
 40
0.5
 40
0.6249999999999999
 40
0.6249999999999999
 40
0.7499999999999999
 40
0.7499999999999999
 40
1.0
 40
1.0
 40
1.0
 40
1.0
 10
49.59400017908551
 20
2.543325368038704
 30
0.0
 10
49.95175496268023
 20
2.289606849846545
 30
0.0
 10
50.31118661366135
 20
1.986230168589372
 30
0.0
 10
50.85937490271685
 20
1.467562309703484
 30
0.0
 10
51.0453144476575
 20
1.283312403854556
 30
0.0
 10
51.41487450383381
 20
0.9026888600873784
 30
0.0
 10
51.59867014695838
 20
0.7062731941984369
 30
0.0
 10
51.96548797225869
 20
0.3026135011943726
 30
0.0
 10
52.14816929272168
 20
0.0950308831890413
 30
0.0
 10
52.51602844445964
 20
-0.3279394283794517
 30
0.0
 10
52.70111901081964
 20
-0.5432828134505807
 30
0.0
 10
53.25004982152028
 20
-1.185330660338169
 30
0.0
 10
53.61041879922603
 20
-1.613796028881582
 30
0.0
 10
53.975
 20
-2.034366450349679
 30
0.0
  0
SPLINE
  5
B9
330
1F
100
AcDbEntity
  8
0
  6
Continuous
 62
     1
370
    15
100
AcDbSpline
210
0.0
220
0.0
230
1.0
 70
     8
 71
     3
 72
    30
 73
    26
 74
     0
 42
0.000000001
 43
0.00000001
 40
0.0
 40
0.0
 40
0.0
 40
0.0
 40
0.0625
 40
0.0625
 40
0.125
 40
0.125
 40
0.1875000000000001
 40
0.1875000000000001
 40
0.2500000000000001
 40
0.2500000000000001
 40
0.3125000000000001
 40
0.3125000000000001
 40
0.3750000000000001
 40
0.3750000000000001
 40
0.4375000000000001
 40
0.4375000000000001
 40
0.5000000000000001
 40
0.5000000000000001
 40
0.5625000000000001
 40
0.5625000000000001
 40
0.6250000000000001
 40
0.6250000000000001
 40
0.75
 40
0.75
 40
0.7850617871865045
 40
0.7850617871865045
 40
0.7850617871865045
 40
0.7850617871865045
 10
65.01115531616882
 20
-2.51170080253188
 30
0.0
 10
64.72035262089626
 20
-2.34443234965518
 30
0.0
 10
64.4260997652814
 20
-2.169222673127139
 30
0.0
 10
63.83831298194342
 20
-1.807333233626172
 30
0.0
 10
63.54662708711989
 20
-1.62106668101591
 30
0.0
 10
62.96292292146954
 20
-1.240188760515837
 30
0.0
 10
62.66825242916835
 20
-1.044981516037772
 30
0.0
 10
62.08092968100373
 20
-0.6500658394157444
 30
0.0
 10
61.79060868357129
 20
-0.4509025855059282
 30
0.0
 10
61.20522955947723
 20
-0.05005078646635
 30
0.0
 10
60.91036023833117
 20
0.1515992904181805
 30
0.0
 10
60.32393420145833
 20
0.5521001728124588
 30
0.0
 10
60.03400808989205
 20
0.7505856454201059
 30
0.0
 10
59.44738191653191
 20
1.143589270529306
 30
0.0
 10
59.15253306904523
 20
1.337669470284056
 30
0.0
 10
58.56743421790482
 20
1.715955514302582
 30
0.0
 10
58.27693201439276
 20
1.900245866444965
 30
0.0
 10
57.68948975724201
 20
2.258084179587657
 30
0.0
 10
57.39488063496395
 20
2.431112387355404
 30
0.0
 10
56.81153619292826
 20
2.760983066470303
 30
0.0
 10
56.51948832923977
 20
2.918479539848802
 30
0.0
 10
55.63775027261319
 20
3.36516209569653
 30
0.0
 10
55.0556730956398
 20
3.626246128771617
 30
0.0
 10
54.30303110667498
 20
3.904168781533643
 30
0.0
 10
54.13888373563245
 20
3.961444967296864
 30
0.0
 10
53.97499998729931
 20
4.015033332317861
 30
0.0
  0
SPLINE
  5
BB
330
1F
100
AcDbEntity
  8
0
 62
     4
100
AcDbSpline
210
0.0
220
0.0
230
1.0
 70
     8
 71
     3
 72
    18
 73
    14
 74
     0
 42
0.000000001
 43
0.00000001
 40
0.0
 40
0.0
 40
0.0
 40
0.0
 40
0.25
 40
0.25
 40
0.375
 40
0.375
 40
0.5
 40
0.5
 40
0.75
 40
0.75
 40
0.875
 40
0.875
 40
1.0
 40
1.0
 40
1.0
 40
1.0
 10
53.975
 20
-5.314443236720852
 30
0.0
 10
53.60702225369946
 20
-4.988246128397364
 30
0.0
 10
53.24749978125701
 20
-4.625769300472565
 30
0.0
 10
52.70492783865559
 20
-4.039643018332602
 30
0.0
 10
52.52382422084628
 20
-3.836942361958848
 30
0.0
 10
52.15921160428733
 20
-3.417606843351095
 30
0.0
 10
51.97765120854269
 20
-3.203091739262758
 30
0.0
 10
51.43547709043879
 20
-2.559259886219666
 30
0.0
 10
51.07598059944154
 20
-2.124923230242121
 30
0.0
 10
50.52444547424913
 20
-1.477926033592774
 30
0.0
 10
50.33897189063863
 20
-1.263797391782142
 30
0.0
 10
49.96854346678041
 20
-0.8551082943145643
 30
0.0
 10
49.78267034241131
 20
-0.6586892797039351
 30
0.0
 10
49.5940001790855
 20
-0.4729617082144259
 30
0.0
  0
SPLINE
  5
BC
330
1F
100
AcDbEntity
  8
0
 62
     4
100
AcDbSpline
210
0.0
220
0.0
230
1.0
 70
     8
 71
     3
 72
     9
 73
     5
 74
     0
 42
0.000000001
 43
0.00000001
 40
0.0
 40
0.0
 40
0.0
 40
0.0
 40
0.4996611563010592
 40
1.0
 40
1.0
 40
1.0
 40
1.0
 10
52.93601915642505
 20
-4.280024606869399
 30
0.0
 10
52.60572659675121
 20
-4.3578141661944
 30
0.0
 10
51.94469350360672
 20
-4.513498790352242
 30
0.0
 10
51.28361775059327
 20
-4.545699518792389
 30
0.0
 10
50.76083942952367
 20
-4.565526522493689
 30
0.0
  0
SPLINE
  5
BE
330
1F
100
AcDbEntity
  8
0
  6
Continuous
 62
     1
370
    15
100
AcDbSpline
210
0.0
220
0.0
230
1.0
 70
     8
 71
     3
 72
    12
 73
     8
 74
     0
 42
0.000000001
 43
0.00000001
 40
0.0
 40
0.0
 40
0.0
 40
0.0
 40
0.2357103564964848
 40
0.476998257498818
 40
0.7127087271974425
 40
0.9539997695232222
 40
1.0
 40
1.0
 40
1.0
 40
1.0
 10
53.975
 20
-5.314443236720852
 30
0.0
 10
54.41329296890535
 20
-5.681745411970434
 30
0.0
 10
55.3002501037097
 20
-6.425041125293023
 30
0.0
 10
56.62528929513844
 20
-7.232979075923626
 30
0.0
 10
57.95993930454587
 20
-7.747202662139179
 30
0.0
 10
58.93179888791112
 20
-7.967230310185081
 30
0.0
 10
59.46561330424717
 20
-7.921106241883738
 30
0.0
 10
59.55108609269543
 20
-7.913720992232084
 30
0.0
  0
SPLINE
  5
BF
330
1F
100
AcDbEntity
  8
0
 62
     4
100
AcDbSpline
210
0.0
220
0.0
230
1.0
 70
     8
 71
     3
 72
     9
 73
     5
 74
     0
 42
0.000000001
 43
0.00000001
 40
0.0
 40
0.0
 40
0.0
 40
0.0
 40
0.8090424994556255
 40
1.0
 40
1.0
 40
1.0
 40
1.0
 10
53.975
 20
5.314443236720853
 30
0.0
 10
53.69444902891852
 20
5.057427947233417
 30
0.0
 10
53.34767988975678
 20
4.739749593302228
 30
0.0
 10
53.00202462234081
 20
4.353736669900098
 30
0.0
 10
52.93601915642506
 20
4.280024606869398
 30
0.0
  0
SPLINE
  5
C0
330
1F
100
AcDbEntity
  8
0
  6
Continuous
 62
     1
370
    15
100
AcDbSpline
210
0.0
220
0.0
230
1.0
 70
     8
 71
     3
 72
    22
 73
    18
 74
     0
 42
0.000000001
 43
0.00000001
 40
0.0
 40
0.0
 40
0.0
 40
0.0
 40
0.1249999999999999
 40
0.1249999999999999
 40
0.2499999999999998
 40
0.2499999999999998
 40
0.3749999999999999
 40
0.3749999999999999
 40
0.4999999999999999
 40
0.4999999999999999
 40
0.6249999999999999
 40
0.6249999999999999
 40
0.75
 40
0.75
 40
0.875
 40
0.875
 40
1.0
 40
1.0
 40
1.0
 40
1.0
 10
53.97500000000001
 20
5.314443236720855
 30
0.0
 10
54.30501632707129
 20
5.60698911122673
 30
0.0
 10
54.63827698973095
 20
5.880751508823525
 30
0.0
 10
55.30024751103281
 20
6.38151566306747
 30
0.0
 10
55.62790453433296
 20
6.608443312638353
 30
0.0
 10
56.29126370065434
 20
7.013617440979754
 30
0.0
 10
56.62409664283341
 20
7.191055328779646
 30
0.0
 10
57.28107637733242
 20
7.490264512185521
 30
0.0
 10
57.61339361038072
 20
7.613291696173214
 30
0.0
 10
58.27693127330856
 20
7.801845180238293
 30
0.0
 10
58.60481105205361
 20
7.867264768001053
 30
0.0
 10
59.26637305279127
 20
7.940006068046082
 30
0.0
 10
59.5996656221083
 20
7.947071670930518
 30
0.0
 10
60.26023094383813
 20
7.902446567788572
 30
0.0
 10
60.58883880242502
 20
7.850932007351513
 30
0.0
 10
61.25262130667073
 20
7.689844272804082
 30
0.0
 10
61.58327218324006
 20
7.580541154500044
 30
0.0
 10
61.91250000000006
 20
7.443933211693873
 30
0.0
  0
SPLINE
  5
C1
330
1F
100
AcDbEntity
  8
0
  6
Continuous
 62
     1
370
    15
100
AcDbSpline
210
0.0
220
0.0
230
1.0
 70
     8
 71
     3
 72
    30
 73
    26
 74
     0
 42
0.000000001
 43
0.00000001
 40
0.0
 40
0.0
 40
0.0
 40
0.0
 40
0.0625000000000004
 40
0.0625000000000004
 40
0.1250000000000009
 40
0.1250000000000009
 40
0.1875000000000013
 40
0.1875000000000013
 40
0.2500000000000018
 40
0.2500000000000018
 40
0.3750000000000023
 40
0.3750000000000023
 40
0.4375000000000023
 40
0.4375000000000023
 40
0.5000000000000023
 40
0.5000000000000023
 40
0.5625000000000023
 40
0.5625000000000023
 40
0.6250000000000021
 40
0.6250000000000021
 40
0.7500000000000014
 40
0.7500000000000014
 40
0.8750000000000008
 40
0.8750000000000008
 40
1.0
 40
1.0
 40
1.0
 40
1.0
 10
69.09895882409938
 20
-1.023862002102484
 30
0.0
 10
69.052541520939
 20
-0.8216719388550896
 30
0.0
 10
68.98914979573372
 20
-0.6234707219524603
 30
0.0
 10
68.83732391753425
 20
-0.234799500636096
 30
0.0
 10
68.74864983562298
 20
-0.0432145100665472
 30
0.0
 10
68.55007962790117
 20
0.3415041728643663
 30
0.0
 10
68.44016434276112
 20
0.5345988355144359
 30
0.0
 10
68.20167800394525
 20
0.9274390607253109
 30
0.0
 10
68.07217968054027
 20
1.128417686705797
 30
0.0
 10
67.66420006432494
 20
1.734585607464159
 30
0.0
 10
67.36796130616997
 20
2.142715297631042
 30
0.0
 10
66.89405361973897
 20
2.769484201646761
 30
0.0
 10
66.7302991847365
 20
2.981903607789168
 30
0.0
 10
66.40128427778379
 20
3.399924231426382
 30
0.0
 10
66.23476424971854
 20
3.606527111339507
 30
0.0
 10
65.89758661691631
 20
4.014860316816568
 30
0.0
 10
65.72692768134758
 20
4.216589617703187
 30
0.0
 10
65.38092106240536
 20
4.614707645109126
 30
0.0
 10
65.20608019799992
 20
4.810422051306984
 30
0.0
 10
64.68686700284556
 20
5.373984070518837
 30
0.0
 10
64.34021884582396
 20
5.722141328900327
 30
0.0
 10
63.63787739979812
 20
6.358243815496309
 30
0.0
 10
63.29441864900702
 20
6.636404853294612
 30
0.0
 10
62.60474441980974
 20
7.107283220073493
 30
0.0
 10
62.25709193762594
 20
7.300950166792236
 30
0.0
 10
61.9125
 20
7.443933211693897
 30
0.0
  0
SPLINE
  5
C2
330
1F
100
AcDbEntity
  8
0
  6
Continuous
 62
     1
370
    15
100
AcDbSpline
210
0.0
220
0.0
230
1.0
 70
    24
 71
     3
 72
    18
 73
    14
 74
     0
 42
0.000000001
 43
0.00000001
 40
0.0
 40
0.0
 40
0.0
 40
0.0
 40
0.125
 40
0.125
 40
0.25
 40
0.25
 40
0.375
 40
0.375
 40
0.5
 40
0.5
 40
0.75
 40
0.75
 40
1.0
 40
1.0
 40
1.0
 40
1.0
 10
69.09895882410898
 20
-1.023862002114782
 30
0.0
 10
68.94085253637192
 20
-1.081407984701399
 30
0.0
 10
68.77285249747754
 20
-1.142554998214314
 30
0.0
 10
68.42482897649283
 20
-1.269225200677266
 30
0.0
 10
68.24747589239061
 20
-1.333776444245768
 30
0.0
 10
67.88700311881037
 20
-1.464977804092355
 30
0.0
 10
67.70297642686836
 20
-1.531958042269744
 30
0.0
 10
67.34060661238043
 20
-1.663849868539919
 30
0.0
 10
67.16095126673902
 20
-1.729239066780191
 30
0.0
 10
66.62618361995062
 20
-1.92387857245975
 30
0.0
 10
66.27354287723861
 20
-2.052229306196452
 30
0.0
 10
65.61311586961159
 20
-2.292605078878184
 30
0.0
 10
65.29860459016581
 20
-2.407077822937432
 30
0.0
 10
65.01115531617083
 20
-2.511700802533032
 30
0.0
  0
SPLINE
  5
C4
330
1F
100
AcDbEntity
  8
0
  6
Continuous
 62
     1
370
    15
100
AcDbSpline
210
0.0
220
0.0
230
1.0
 70
     8
 71
     3
 72
    23
 73
    19
 74
     0
 42
0.000000001
 43
0.00000001
 40
0.0
 40
0.0
 40
0.0
 40
0.0
 40
0.0052784424423674
 40
0.099514974631751
 40
0.1907050523959368
 40
0.2850779148949699
 40
0.3467519861104013
 40
0.4099403804966559
 40
0.4548221279876098
 40
0.5007667624109922
 40
0.5685224057172209
 40
0.6217843735145547
 40
0.6753409597893468
 40
0.7228126051489435
 40
0.7872331878192524
 40
0.8402290240290868
 40
0.8945322990772538
 40
1.0
 40
1.0
 40
1.0
 40
1.0
 10
62.70662638434314
 20
7.891748149870328
 30
0.0
 10
62.72281941812967
 20
7.892078574880265
 30
0.0
 10
63.02810821573853
 20
7.898308108846149
 30
0.0
 10
63.60798786074346
 20
7.702635887593769
 30
0.0
 10
64.46475648404551
 20
7.286227757833148
 30
0.0
 10
65.22335561677018
 20
6.708632982289969
 30
0.0
 10
65.9040178460816
 20
6.078855195495924
 30
0.0
 10
66.43623036199521
 20
5.524709061632674
 30
0.0
 10
66.92131421552537
 20
4.985437082914165
 30
0.0
 10
67.42317374170636
 20
4.414484620570098
 30
0.0
 10
67.95020572145407
 20
3.817770444522461
 30
0.0
 10
68.46412602184415
 20
3.290834693953069
 30
0.0
 10
68.84270193879775
 20
2.991564819848572
 30
0.0
 10
69.10998425744678
 20
2.897615171059988
 30
0.0
 10
69.20988362345135
 20
3.015593721421475
 30
0.0
 10
69.16306669452216
 20
3.253554476542256
 30
0.0
 10
68.97966316617187
 20
3.607065044551365
 30
0.0
 10
68.69532996903911
 20
3.838615626798615
 30
0.0
 10
68.50763650083955
 20
3.991466339567539
 30
0.0
  0
LINE
  5
C5
330
1F
100
AcDbEntity
  8
0
  6
Continuous
 62
     1
370
    15
100
AcDbLine
 10
68.0070311947395
 20
3.767721292210386
 30
0.0
 11
68.50763650084608
 21
3.991466339572591
 31
0.0
  0
ARC
  5
C6
330
1F
100
AcDbEntity
  8
0
  6
Continuous
 62
     1
370
    15
100
AcDbCircle
 10
63.5508930136452
 20
-0.1182849333213982
 30
0.0
 40
6.290535764435194
100
AcDbArc
 50
321.9960598556771
 51
354.0919290754692
  0
LINE
  5
C7
330
1F
100
AcDbEntity
  8
0
  6
Continuous
 62
     1
370
    15
100
AcDbLine
 10
69.09895882409938
 20
-1.023862002102485
 30
0.0
 11
69.8080155119939
 21
-0.7657864733170855
 31
0.0
  0
LINE
  5
C8
330
1F
100
AcDbEntity
  8
중심선
 62
     1
100
AcDbLine
 10
-91.89999999999998
 20
-0.0000000000000065
 30
0.0
 11
72.84999999999998
 21
-0.0000000000000061
 31
0.0
  0
CIRCLE
  5
C9
330
1F
100
AcDbEntity
  8
해칭선
100
AcDbCircle
 10
0.0
 20
0.0
 30
0.0
 40
3.000000000000001
  0
INSERT
  5
CA
330
1F
100
AcDbEntity
  8
0
  6
Continuous
 62
     7
100
AcDbBlockReference
 66
     1
  2
블럭10
 10
-15.06670205098957
 20
-52.04717430164393
 30
0.0
  0
ATTRIB
  5
CB
330
CA
100
AcDbEntity
  8
FORMAT
 62
     2
100
AcDbText
 10
-25.2083380631262
 20
-49.97180738881174
 30
0.0
 40
4.233333333333333
  1
EM084040 [ 2 FLUTE ]
 41
0.75
  7
SLDTEXTSTYLE0
 11
-25.2083380631262
 21
-52.08847405547841
 31
0.0
100
AcDbAttribute
  2
AUTOATTR0
 70
     0
 74
     1
  0
SEQEND
  5
CC
330
CA
100
AcDbEntity
  8
0
  6
Continuous
 62
     7
  0
HATCH
  5
CD
330
1F
100
AcDbEntity
  8
중심선
100
AcDbHatch
 10
0.0
 20
0.0
 30
0.0
210
0.0
220
0.0
230
1.0
  2
SOLID
 70
     1
 71
     0
 91
        1
 92
        0
 93
        4
 72
     1
 10
-9.35179274660872
 20
-35.8
 11
-12.798067990446
 21
-35.8
 72
     1
 10
-12.798067990446
 20
-35.8
 11
-14.92629784965002
 21
-38.33632558057259
 72
     1
 10
-14.92629784965002
 20
-38.33632558057259
 11
-11.47998952069959
 21
-38.3362861512701
 72
     1
 10
-11.47998952069959
 20
-38.3362861512701
 11
-9.35179274660872
 21
-35.8
 97
        0
 75
     0
 76
     1
 98
        1
 10
15.14908424869185
 20
0.0
  0
HATCH
  5
CE
330
1F
100
AcDbEntity
  8
중심선
100
AcDbHatch
 10
0.0
 20
0.0
 30
0.0
210
0.0
220
0.0
230
1.0
  2
SOLID
 70
     1
 71
     0
 91
        1
 92
        0
 93
        4
 72
     1
 10
-4.33902875557277
 20
-35.8
 11
-7.785303999410051
 21
-35.8
 72
     1
 10
-7.785303999410051
 20
-35.8
 11
-12.31644200776744
 21
-41.20000000000002
 72
     1
 10
-12.31644200776744
 20
-41.20000000000002
 11
-8.870166763930158
 21
-41.20000000000002
 72
     1
 10
-8.870166763930158
 20
-41.20000000000002
 11
-4.33902875557277
 21
-35.8
 97
        0
 75
     0
 76
     1
 98
        1
 10
15.14908424869185
 20
0.0
  0
HATCH
  5
CF
330
1F
100
AcDbEntity
  8
중심선
100
AcDbHatch
 10
0.0
 20
0.0
 30
0.0
210
0.0
220
0.0
230
1.0
  2
SOLID
 70
     1
 71
     0
 91
        1
 92
        0
 93
        4
 72
     1
 10
0.673735235463127
 20
-35.80000000000003
 11
-2.772540008373987
 21
-35.8
 72
     1
 10
-2.772540008373987
 20
-35.8
 11
-9.820976910263237
 21
-44.20000000000002
 72
     1
 10
-9.820976910263237
 20
-44.20000000000002
 11
-6.374701666425956
 21
-44.20000000000002
 72
     1
 10
-6.374701666425956
 20
-44.20000000000002
 11
0.673735235463127
 21
-35.80000000000003
 97
        0
 75
     0
 76
     1
 98
        1
 10
15.14908424869185
 20
0.0
  0
HATCH
  5
D0
330
1F
100
AcDbEntity
  8
중심선
100
AcDbHatch
 10
0.0
 20
0.0
 30
0.0
210
0.0
220
0.0
230
1.0
  2
SOLID
 70
     1
 71
     0
 91
        1
 92
        0
 93
        6
 72
     3
 10
5.473625666475327
 20
-40.00000000005127
 11
3.960054785062283
 21
1.540882976769353E-10
 40
0.3939339440162628
 50
17.09539180608437
 51
320.0019657685081
 73
     0
 72
     1
 10
7.156625322175922
 20
-38.5878940046383
 11
9.46192719587696
 21
-36.65356729459038
 72
     3
 10
5.47362566642248
 20
-40.00000000000015
 11
6.600054785286829
 21
-1.278976924368180E-13
 40
0.636358354079598
 50
39.9987384933741
 51
368.4976242363725
 73
     1
 72
     1
 10
11.89895815832309
 20
-39.03999999993002
 11
4.153692973258404
 21
-39.03999999992999
 72
     1
 10
4.153692973258403
 20
-39.03999999992999
 11
4.153667928812469
 21
-40.95999999992991
 72
     1
 10
4.153667928812469
 20
-40.95999999992991
 11
8.595047698284507
 21
-40.95999999992988
 97
        0
 75
     0
 76
     1
 98
        1
 10
15.14908424869185
 20
0.0
  0
DIMENSION
  5
D1
330
1F
100
AcDbEntity
  8
치수문자_일반주서
100
AcDbDimension
  2
_D
 10
-111.607630002748
 20
-7.937500000000089
 30
0.0
 11
-111.607630002748
 21
-0.0000000000000032
 31
0.0
 70
   160
  1
%%c<>
 71
     2
 42
15.875
 52
-270.0
  3
SLDDIMSTYLE0
100
AcDbAlignedDimension
 13
-87.89999999999998
 23
7.9375
 33
0.0
 14
-87.89999999999998
 24
-7.9375
 34
0.0
 50
90.0000000000002
100
AcDbRotatedDimension
1001
ACAD
1000
DSTYLE
1002
{
1070
   171
1070
     6
1070
   273
1070
     7
1002
}
  0
INSERT
  5
101
330
1F
100
AcDbEntity
  8
해칭선
100
AcDbBlockReference
  2
SW_DOWELSYMBOL_0
 10
0.0
 20
0.0
 30
0.0
  0
LINE
  5
12F
102
{ACAD_REACTORS
102
}
330
1F
100
AcDbEntity
  8
0
 62
     4
100
AcDbLine
 10
53.97499998729931
 20
-6.237330438577075
 30
0.0
 11
53.97499998729931
 21
6.237330438577061
 31
0.0
  0
LINE
  5
133
330
1F
100
AcDbEntity
  8
0
 62
     4
100
AcDbLine
 10
53.97499998729931
 20
6.237330438577058
 30
0.0
 11
0.0
 21
7.9375
 31
0.0
  0
LINE
  5
134
330
1F
100
AcDbEntity
  8
0
 62
     4
100
AcDbLine
 10
0.0
 20
-7.9375
 30
0.0
 11
53.9749999872993
 21
-6.237330438577071
 31
0.0
  0
ARC
  5
137
330
1F
100
AcDbEntity
  8
0
  6
Continuous
 62
     1
370
    15
100
AcDbCircle
 10
58.87199998729931
 20
-0.0000000000000075
 30
0.0
 40
7.930000000000001
100
AcDbArc
 50
231.8641330070521
 51
269.9999999999999
  0
ARC
  5
138
330
1F
100
AcDbEntity
  8
0
  6
Continuous
 62
     1
370
    15
100
AcDbCircle
 10
61.91999998729931
 20
-0.0000000000000061
 30
0.0
 40
7.930000000000001
100
AcDbArc
 50
270.0
 51
90.00000000000006
  0
LINE
  5
139
330
1F
100
AcDbEntity
  8
0
  6
Continuous
 62
     1
370
    15
100
AcDbLine
 10
58.87199998729931
 20
7.929999999999993
 30
0.0
 11
61.91999998729931
 21
7.929999999999995
 31
0.0
  0
LINE
  5
13C
330
1F
100
AcDbEntity
  8
0
  6
Continuous
 62
     1
370
    15
100
AcDbLine
 10
58.87199998729931
 20
-7.930000000000008
 30
0.0
 11
61.91999998729931
 21
-7.930000000000008
 31
0.0
  0
SPLINE
  5
13D
330
1F
100
AcDbEntity
  8
0
 62
     4
100
AcDbSpline
210
0.0
220
0.0
230
1.0
 70
     8
 71
     3
 72
     9
 73
     5
 74
     3
 42
0.000000001
 43
0.0000000001
 44
0.0
 40
0.0
 40
0.0
 40
0.0
 40
0.0
 40
1.072241363925391
 40
3.252188883143833
 40
3.252188883143833
 40
3.252188883143833
 40
3.252188883143833
 10
53.97499998729931
 20
4.015033332317861
 30
0.0
 10
53.62999371919022
 20
4.110212299872085
 30
0.0
 10
52.58356370118414
 20
4.398897283125997
 30
0.0
 10
51.50068483665461
 20
4.498571810021645
 30
0.0
 10
50.77482936541172
 20
4.565383808168993
 30
0.0
 11
53.97499998729931
 21
4.015033332317861
 31
0.0
 11
52.93601915642506
 21
4.280024606869398
 31
0.0
 11
50.77482936541172
 21
4.565383808168993
 31
0.0
  0
ARC
  5
13E
330
1F
100
AcDbEntity
  8
0
  6
Continuous
 62
     1
370
    15
100
AcDbCircle
 10
58.87199998729931
 20
-0.0000000000000075
 30
0.0
 40
7.930000000000001
100
AcDbArc
 50
90.0
 51
128.135866992948
  0
LINE
  5
140
102
{ACAD_REACTORS
102
}
330
1F
100
AcDbEntity
  8
0
  6
Continuous
 62
     1
370
    15
100
AcDbLine
 10
58.86449998729931
 20
-7.937500000000005
 30
0.0
 11
61.91249998729929
 21
-7.937500000000005
 31
0.0
  0
DIMENSION
  5
141
102
{ACAD_REACTORS
102
}
102
{ACAD_XDICTIONARY
360
142
102
}
330
1F
100
AcDbEntity
  8
치수문자_일반주서
100
AcDbDimension
  2
*D5
 10
53.97499998729931
 20
40.06811891400349
 30
0.0
 11
34.68349998729931
 21
42.69311891400349
 31
0.0
 70
    32
 71
     5
 42
15.87500000000001
  3
SLDDIMSTYLE0
100
AcDbAlignedDimension
 13
69.84999998729931
 23
7.929999999999991
 33
0.0
 14
53.97499998729931
 24
6.237330438577061
 34
0.0
100
AcDbRotatedDimension
1001
ACAD
1000
DSTYLE
1002
{
1070
   171
1070
     6
1070
   273
1070
     7
1002
}
  0
DIMENSION
  5
151
102
{ACAD_XDICTIONARY
360
152
102
}
330
1F
100
AcDbEntity
  8
치수문자_일반주서
100
AcDbDimension
  2
*D6
 10
89.12709968354324
 20
7.937499999999994
 30
0.0
 11
86.50209968354324
 21
27.22899999999999
 31
0.0
 70
    32
 71
     5
 42
15.875
  3
SLDDIMSTYLE0
100
AcDbAlignedDimension
 13
69.84999998729931
 23
-7.937500000000005
 33
0.0
 14
69.84999998729931
 24
7.937499999999995
 34
0.0
 50
90.0
100
AcDbRotatedDimension
1001
ACAD
1000
DSTYLE
1002
{
1070
   171
1070
     6
1070
   273
1070
     7
1002
}
  0
ARC
  5
163
330
1F
100
AcDbEntity
  8
0
  6
Continuous
 62
     1
370
    15
100
AcDbCircle
 10
61.91249998729929
 20
-0.0000000000000061
 30
0.0
 40
7.9375
100
AcDbArc
 50
270.0
 51
90.0
  0
ARC
  5
165
330
1F
100
AcDbEntity
  8
0
  6
Continuous
 62
     1
370
    15
100
AcDbCircle
 10
58.86449998729931
 20
-0.0000000000000057
 30
0.0
 40
7.9375
100
AcDbArc
 50
90.0
 51
128.1978281649949
  0
LINE
  5
166
102
{ACAD_REACTORS
102
}
330
1F
100
AcDbEntity
  8
0
  6
Continuous
 62
     1
370
    15
100
AcDbLine
 10
58.86449998729931
 20
7.937499999999995
 30
0.0
 11
61.91249998729929
 21
7.937499999999995
 31
0.0
  0
DIMENSION
  5
167
102
{ACAD_REACTORS
102
}
102
{ACAD_XDICTIONARY
360
168
102
}
330
1F
100
AcDbEntity
  8
치수문자_일반주서
100
AcDbDimension
  2
*D7
 10
0.0
 20
53.57048482142579
 30
0.0
 11
34.92499999364966
 21
56.19548482142579
 31
0.0
 70
    32
 71
     5
 42
69.84999998729931
  3
SLDDIMSTYLE0
100
AcDbAlignedDimension
 13
69.84999998729931
 23
7.937499999999995
 33
0.0
 14
0.0
 24
7.9375
 34
0.0
100
AcDbRotatedDimension
1001
ACAD
1000
DSTYLE
1002
{
1070
   171
1070
     6
1070
   273
1070
     7
1002
}
  0
DIMENSION
  5
176
102
{ACAD_REACTORS
102
}
102
{ACAD_XDICTIONARY
360
177
102
}
330
1F
100
AcDbEntity
  8
치수문자_일반주서
100
AcDbDimension
  2
*D8
 10
69.84999998729931
 20
68.70204616848135
 30
0.0
 11
-9.52500000635034
 21
71.32704616848135
 31
0.0
 70
    32
 71
     5
 42
158.7499999872993
  3
SLDDIMSTYLE0
100
AcDbAlignedDimension
 13
-88.89999999999998
 23
6.937499999999999
 33
0.0
 14
69.84999998729931
 24
7.937499999999995
 34
0.0
100
AcDbRotatedDimension
1001
ACAD
1000
DSTYLE
1002
{
1070
   171
1070
     6
1070
   273
1070
     7
1002
}
  0
ARC
  5
186
330
1F
100
AcDbEntity
  8
0
  6
Continuous
 62
     1
370
    15
100
AcDbCircle
 10
58.86449998729931
 20
-0.0000000000000057
 30
0.0
 40
7.9375
100
AcDbArc
 50
231.8021718350052
 51
270.0
  0
ENDSEC
  0
SECTION
  2
OBJECTS
  0
DICTIONARY
  5
C
330
0
100
AcDbDictionary
281
     1
  3
ACAD_DETAILVIEWSTYLE
350
12B
  3
ACAD_GROUP
350
D
  3
ACAD_IMAGE_VARS
350
125
  3
ACAD_LAYOUT
350
1A
  3
ACAD_MLINESTYLE
350
17
  3
ACAD_PLOTSETTINGS
350
19
  3
ACAD_PLOTSTYLENAME
350
E
  3
ACAD_SCALELIST
350
47
  3
ACAD_SECTIONVIEWSTYLE
350
12C
  3
AcDbVariableDictionary
350
126
  3
APPDATA
350
123
  3
DWGPROPS
350
187
  0
DICTIONARY
  5
142
330
141
100
AcDbDictionary
280
     1
281
     1
  0
DICTIONARY
  5
152
330
151
100
AcDbDictionary
280
     1
281
     1
  0
DICTIONARY
  5
168
330
167
100
AcDbDictionary
280
     1
281
     1
  0
DICTIONARY
  5
177
330
176
100
AcDbDictionary
280
     1
281
     1
  0
DICTIONARY
  5
12B
102
{ACAD_REACTORS
330
C
102
}
330
C
100
AcDbDictionary
281
     1
  0
DICTIONARY
  5
D
102
{ACAD_REACTORS
330
C
102
}
330
C
100
AcDbDictionary
281
     1
  0
RASTERVARIABLES
  5
125
102
{ACAD_REACTORS
330
C
102
}
330
C
100
AcDbRasterVariables
 90
        0
 70
     1
 71
     1
 72
     1
  0
DICTIONARY
  5
1A
102
{ACAD_REACTORS
330
C
102
}
330
C
100
AcDbDictionary
281
     1
  3
Layout1
350
1E
  3
Layout2
350
26
  3
Model
350
22
  0
DICTIONARY
  5
17
102
{ACAD_REACTORS
330
C
102
}
330
C
100
AcDbDictionary
281
     1
  3
Standard
350
18
  0
DICTIONARY
  5
19
102
{ACAD_REACTORS
330
C
102
}
330
C
100
AcDbDictionary
281
     1
  0
ACDBDICTIONARYWDFLT
  5
E
102
{ACAD_REACTORS
330
C
102
}
330
C
100
AcDbDictionary
281
     1
  3
Normal
350
F
100
AcDbDictionaryWithDefault
340
F
  0
DICTIONARY
  5
47
102
{ACAD_REACTORS
330
C
102
}
330
C
100
AcDbDictionary
281
     1
  3
A0
350
48
  3
A1
350
49
  3
A2
350
4A
  3
A3
350
4B
  3
A4
350
4C
  3
A5
350
4D
  3
A6
350
4E
  3
A7
350
4F
  3
A8
350
50
  3
A9
350
51
  3
B0
350
52
  3
B1
350
53
  3
B2
350
54
  3
B3
350
55
  3
B4
350
56
  3
B5
350
57
  3
B6
350
58
  3
B7
350
59
  3
B8
350
5A
  3
B9
350
5B
  3
C0
350
5C
  3
C1
350
5D
  3
C2
350
5E
  3
C3
350
5F
  3
C4
350
60
  3
C5
350
61
  3
C6
350
62
  3
C7
350
63
  3
C8
350
64
  3
C9
350
65
  3
D0
350
66
  3
D1
350
67
  3
D2
350
68
  0
DICTIONARY
  5
12C
102
{ACAD_REACTORS
330
C
102
}
330
C
100
AcDbDictionary
281
     1
  0
DICTIONARY
  5
126
102
{ACAD_REACTORS
330
C
102
}
330
C
100
AcDbDictionary
281
     1
  0
DICTIONARY
  5
123
102
{ACAD_REACTORS
330
C
102
}
330
C
100
AcDbDictionary
281
     1
  0
XRECORD
  5
187
102
{ACAD_REACTORS
330
C
102
}
330
C
100
AcDbXrecord
280
     1
  1
DWGPROPS COOKIE
  2

  3

  4

  6

  7

  8
12015048
  9

300
=
301
=
302
=
303
=
304
=
305
=
306
=
307
=
308
=
309
=
 40
0.0
 41
2458271.095675185
 42
2458297.144743253
  1

 90
        0
  0
LAYOUT
  5
1E
102
{ACAD_REACTORS
330
1A
102
}
330
1A
100
AcDbPlotSettings
  1

  2
none_device
  4

  6

 40
0.0
 41
0.0
 42
0.0
 43
0.0
 44
0.0
 45
0.0
 46
0.0
 47
0.0
 48
0.0
 49
0.0
140
0.0
141
0.0
142
1.0
143
1.0
 70
   688
 72
     1
 73
     0
 74
     5
  7

 75
    16
147
1.0
148
0.0
149
0.0
100
AcDbLayout
  1
Layout1
 70
     1
 71
     1
 10
0.0
 20
0.0
 11
420.0
 21
297.0
 12
0.0
 22
0.0
 32
0.0
 14
1.000000000000000E+20
 24
1.000000000000000E+20
 34
1.000000000000000E+20
 15
-1.000000000000000E+20
 25
-1.000000000000000E+20
 35
-1.000000000000000E+20
146
0.0
 13
0.0
 23
0.0
 33
0.0
 16
1.0
 26
0.0
 36
0.0
 17
0.0
 27
1.0
 37
0.0
 76
     0
330
1B
  0
LAYOUT
  5
26
102
{ACAD_REACTORS
330
1A
102
}
330
1A
100
AcDbPlotSettings
  1

  2
none_device
  4

  6

 40
0.0
 41
0.0
 42
0.0
 43
0.0
 44
0.0
 45
0.0
 46
0.0
 47
0.0
 48
0.0
 49
0.0
140
0.0
141
0.0
142
1.0
143
1.0
 70
   688
 72
     1
 73
     0
 74
     5
  7

 75
    16
147
1.0
148
0.0
149
0.0
100
AcDbLayout
  1
Layout2
 70
     1
 71
     2
 10
0.0
 20
0.0
 11
0.0
 21
0.0
 12
0.0
 22
0.0
 32
0.0
 14
0.0
 24
0.0
 34
0.0
 15
0.0
 25
0.0
 35
0.0
146
0.0
 13
0.0
 23
0.0
 33
0.0
 16
1.0
 26
0.0
 36
0.0
 17
0.0
 27
1.0
 37
0.0
 76
     0
330
23
  0
LAYOUT
  5
22
102
{ACAD_REACTORS
330
1A
102
}
330
1A
100
AcDbPlotSettings
  1

  2
none_device
  4
ANSI_A_(11.00_x_8.50_Inches)
  6

 40
6.35
 41
19.05
 42
6.35000508
 43
19.05000254
 44
279.4
 45
215.9
 46
215.4818275328105
 47
112.9060843138468
 48
0.0
 49
0.0
140
0.0
141
0.0
142
0.051889447319788
143
1.0
 70
  1696
 72
     0
 73
     0
 74
     0
  7

 75
     0
147
0.0235690232323232
148
0.0
149
0.0
100
AcDbLayout
  1
Model
 70
     1
 71
     0
 10
0.0
 20
0.0
 11
420.0
 21
297.0
 12
0.0
 22
0.0
 32
0.0
 14
-115.982630002748
 24
-49.97180738881174
 34
0.0
 15
89.67743301687659
 25
73.07704616848135
 35
0.0
146
0.0
 13
0.0
 23
0.0
 33
0.0
 16
1.0
 26
0.0
 36
0.0
 17
0.0
 27
1.0
 37
0.0
 76
     0
330
1F
331
29
  0
MLINESTYLE
  5
18
102
{ACAD_REACTORS
330
17
102
}
330
17
100
AcDbMlineStyle
  2
Standard
 70
     0
  3

 62
   256
 51
90.0
 52
90.0
 71
     2
 49
0.5
 62
   256
  6
BYLAYER
 49
-0.5
 62
   256
  6
BYLAYER
  0
ACDBPLACEHOLDER
  5
F
102
{ACAD_REACTORS
330
E
102
}
330
E
  0
SCALE
  5
48
102
{ACAD_REACTORS
330
47
102
}
330
47
100
AcDbScale
 70
     0
300
1:1
140
1.0
141
1.0
290
     1
  0
SCALE
  5
49
102
{ACAD_REACTORS
330
47
102
}
330
47
100
AcDbScale
 70
     0
300
1:2
140
1.0
141
2.0
290
     0
  0
SCALE
  5
4A
102
{ACAD_REACTORS
330
47
102
}
330
47
100
AcDbScale
 70
     0
300
1:4
140
1.0
141
4.0
290
     0
  0
SCALE
  5
4B
102
{ACAD_REACTORS
330
47
102
}
330
47
100
AcDbScale
 70
     0
300
1:5
140
1.0
141
5.0
290
     0
  0
SCALE
  5
4C
102
{ACAD_REACTORS
330
47
102
}
330
47
100
AcDbScale
 70
     0
300
1:8
140
1.0
141
8.0
290
     0
  0
SCALE
  5
4D
102
{ACAD_REACTORS
330
47
102
}
330
47
100
AcDbScale
 70
     0
300
1:10
140
1.0
141
10.0
290
     0
  0
SCALE
  5
4E
102
{ACAD_REACTORS
330
47
102
}
330
47
100
AcDbScale
 70
     0
300
1:16
140
1.0
141
16.0
290
     0
  0
SCALE
  5
4F
102
{ACAD_REACTORS
330
47
102
}
330
47
100
AcDbScale
 70
     0
300
1:20
140
1.0
141
20.0
290
     0
  0
SCALE
  5
50
102
{ACAD_REACTORS
330
47
102
}
330
47
100
AcDbScale
 70
     0
300
1:30
140
1.0
141
30.0
290
     0
  0
SCALE
  5
51
102
{ACAD_REACTORS
330
47
102
}
330
47
100
AcDbScale
 70
     0
300
1:40
140
1.0
141
40.0
290
     0
  0
SCALE
  5
52
102
{ACAD_REACTORS
330
47
102
}
330
47
100
AcDbScale
 70
     0
300
1:50
140
1.0
141
50.0
290
     0
  0
SCALE
  5
53
102
{ACAD_REACTORS
330
47
102
}
330
47
100
AcDbScale
 70
     0
300
1:100
140
1.0
141
100.0
290
     0
  0
SCALE
  5
54
102
{ACAD_REACTORS
330
47
102
}
330
47
100
AcDbScale
 70
     0
300
2:1
140
2.0
141
1.0
290
     0
  0
SCALE
  5
55
102
{ACAD_REACTORS
330
47
102
}
330
47
100
AcDbScale
 70
     0
300
4:1
140
4.0
141
1.0
290
     0
  0
SCALE
  5
56
102
{ACAD_REACTORS
330
47
102
}
330
47
100
AcDbScale
 70
     0
300
8:1
140
8.0
141
1.0
290
     0
  0
SCALE
  5
57
102
{ACAD_REACTORS
330
47
102
}
330
47
100
AcDbScale
 70
     0
300
10:1
140
10.0
141
1.0
290
     0
  0
SCALE
  5
58
102
{ACAD_REACTORS
330
47
102
}
330
47
100
AcDbScale
 70
     0
300
100:1
140
100.0
141
1.0
290
     0
  0
SCALE
  5
59
102
{ACAD_REACTORS
330
47
102
}
330
47
100
AcDbScale
 70
     0
300
1/128" = 1'-0"
140
0.0078125
141
12.0
290
     0
  0
SCALE
  5
5A
102
{ACAD_REACTORS
330
47
102
}
330
47
100
AcDbScale
 70
     0
300
1/64" = 1'-0"
140
0.015625
141
12.0
290
     0
  0
SCALE
  5
5B
102
{ACAD_REACTORS
330
47
102
}
330
47
100
AcDbScale
 70
     0
300
1/32" = 1'-0"
140
0.03125
141
12.0
290
     0
  0
SCALE
  5
5C
102
{ACAD_REACTORS
330
47
102
}
330
47
100
AcDbScale
 70
     0
300
1/16" = 1'-0"
140
0.0625
141
12.0
290
     0
  0
SCALE
  5
5D
102
{ACAD_REACTORS
330
47
102
}
330
47
100
AcDbScale
 70
     0
300
3/32" = 1'-0"
140
0.09375
141
12.0
290
     0
  0
SCALE
  5
5E
102
{ACAD_REACTORS
330
47
102
}
330
47
100
AcDbScale
 70
     0
300
1/8" = 1'-0"
140
0.125
141
12.0
290
     0
  0
SCALE
  5
5F
102
{ACAD_REACTORS
330
47
102
}
330
47
100
AcDbScale
 70
     0
300
3/16" = 1'-0"
140
0.1875
141
12.0
290
     0
  0
SCALE
  5
60
102
{ACAD_REACTORS
330
47
102
}
330
47
100
AcDbScale
 70
     0
300
1/4" = 1'-0"
140
0.25
141
12.0
290
     0
  0
SCALE
  5
61
102
{ACAD_REACTORS
330
47
102
}
330
47
100
AcDbScale
 70
     0
300
3/8" = 1'-0"
140
0.375
141
12.0
290
     0
  0
SCALE
  5
62
102
{ACAD_REACTORS
330
47
102
}
330
47
100
AcDbScale
 70
     0
300
1/2" = 1'-0"
140
0.5
141
12.0
290
     0
  0
SCALE
  5
63
102
{ACAD_REACTORS
330
47
102
}
330
47
100
AcDbScale
 70
     0
300
3/4" = 1'-0"
140
0.75
141
12.0
290
     0
  0
SCALE
  5
64
102
{ACAD_REACTORS
330
47
102
}
330
47
100
AcDbScale
 70
     0
300
1" = 1'-0"
140
1.0
141
12.0
290
     0
  0
SCALE
  5
65
102
{ACAD_REACTORS
330
47
102
}
330
47
100
AcDbScale
 70
     0
300
1-1/2" = 1'-0"
140
1.5
141
12.0
290
     0
  0
SCALE
  5
66
102
{ACAD_REACTORS
330
47
102
}
330
47
100
AcDbScale
 70
     0
300
3" = 1'-0"
140
3.0
141
12.0
290
     0
  0
SCALE
  5
67
102
{ACAD_REACTORS
330
47
102
}
330
47
100
AcDbScale
 70
     0
300
6" = 1'-0"
140
6.0
141
12.0
290
     0
  0
SCALE
  5
68
102
{ACAD_REACTORS
330
47
102
}
330
47
100
AcDbScale
 70
     0
300
1'-0" = 1'-0"
140
12.0
141
12.0
290
     0
  0
ENDSEC
  0
EOF
