  0
SECTION
  2
HEADER
  9
$ACADVER
  1
AC1015
  9
$ACADMAINTVER
 70
     6
  9
$DWGCODEPAGE
  3
ANSI_949
  9
$INSBASE
 10
0.0
 20
0.0
 30
0.0
  9
$EXTMIN
 10
-101.625
 20
-66.70888937865367
 30
0.0
  9
$EXTMAX
 10
92.06956566671178
 20
88.03727227786342
 30
0.0
  9
$LIMMIN
 10
0.0
 20
0.0
  9
$LIMMAX
 10
420.0
 20
297.0
  9
$ORTHOMODE
 70
     1
  9
$REGENMODE
 70
     1
  9
$FILLMODE
 70
     1
  9
$QTEXTMODE
 70
     0
  9
$MIRRTEXT
 70
     1
  9
$LTSCALE
 40
1.0
  9
$ATTMODE
 70
     1
  9
$TEXTSIZE
 40
3.5
  9
$TRACEWID
 40
1.0
  9
$TEXTSTYLE
  7
Standard
  9
$CLAYER
  8
0
  9
$CELTYPE
  6
ByLayer
  9
$CECOLOR
 62
   256
  9
$CELTSCALE
 40
1.0
  9
$DISPSILH
 70
     0
  9
$DIMSCALE
 40
1.0
  9
$DIMASZ
 40
3.302
  9
$DIMEXO
 40
1.0
  9
$DIMDLI
 40
3.75
  9
$DIMRND
 40
0.0
  9
$DIMDLE
 40
0.0
  9
$DIMEXE
 40
1.0
  9
$DIMTP
 40
0.0
  9
$DIMTM
 40
0.0
  9
$DIMTXT
 40
3.5
  9
$DIMCEN
 40
2.5
  9
$DIMTSZ
 40
0.0
  9
$DIMTOL
 70
     0
  9
$DIMLIM
 70
     0
  9
$DIMTIH
 70
     1
  9
$DIMTOH
 70
     1
  9
$DIMSE1
 70
     0
  9
$DIMSE2
 70
     0
  9
$DIMTAD
 70
     1
  9
$DIMZIN
 70
     0
  9
$DIMBLK
  1

  9
$DIMASO
 70
     1
  9
$DIMSHO
 70
     1
  9
$DIMPOST
  1

  9
$DIMAPOST
  1

  9
$DIMALT
 70
     0
  9
$DIMALTD
 70
     3
  9
$DIMALTF
 40
0.0393700787401575
  9
$DIMLFAC
 40
1.0
  9
$DIMTOFL
 70
     1
  9
$DIMTVP
 40
0.0
  9
$DIMTIX
 70
     0
  9
$DIMSOXD
 70
     0
  9
$DIMSAH
 70
     0
  9
$DIMBLK1
  1

  9
$DIMBLK2
  1

  9
$DIMSTYLE
  2
ISO-25
  9
$DIMCLRD
 70
     0
  9
$DIMCLRE
 70
     0
  9
$DIMCLRT
 70
     0
  9
$DIMTFAC
 40
1.0
  9
$DIMGAP
 40
1.524
  9
$DIMJUST
 70
     0
  9
$DIMSD1
 70
     0
  9
$DIMSD2
 70
     0
  9
$DIMTOLJ
 70
     0
  9
$DIMTZIN
 70
     0
  9
$DIMALTZ
 70
     0
  9
$DIMALTTZ
 70
     0
  9
$DIMUPT
 70
     0
  9
$DIMDEC
 70
     2
  9
$DIMTDEC
 70
     2
  9
$DIMALTU
 70
     2
  9
$DIMALTTD
 70
     3
  9
$DIMTXSTY
  7
Standard
  9
$DIMAUNIT
 70
     0
  9
$DIMADEC
 70
     2
  9
$DIMALTRND
 40
0.0
  9
$DIMAZIN
 70
     0
  9
$DIMDSEP
 70
    44
  9
$DIMATFIT
 70
     3
  9
$DIMFRAC
 70
     0
  9
$DIMLDRBLK
  1

  9
$DIMLUNIT
 70
     2
  9
$DIMLWD
 70
    -2
  9
$DIMLWE
 70
    -2
  9
$DIMTMOVE
 70
     0
  9
$LUNITS
 70
     2
  9
$LUPREC
 70
     2
  9
$SKETCHINC
 40
1.0
  9
$FILLETRAD
 40
10.0
  9
$AUNITS
 70
     0
  9
$AUPREC
 70
     2
  9
$MENU
  1
.
  9
$ELEVATION
 40
0.0
  9
$PELEVATION
 40
0.0
  9
$THICKNESS
 40
0.0
  9
$LIMCHECK
 70
     0
  9
$CHAMFERA
 40
0.0
  9
$CHAMFERB
 40
0.0
  9
$CHAMFERC
 40
0.0
  9
$CHAMFERD
 40
0.0
  9
$SKPOLY
 70
     0
  9
$TDCREATE
 40
2458274.800237188
  9
$TDUCREATE
 40
2458274.425237188
  9
$TDUPDATE
 40
2459724.482948704
  9
$TDUUPDATE
 40
2459724.107948704
  9
$TDINDWG
 40
0.0131244792
  9
$TDUSRTIMER
 40
0.0090075347
  9
$USRTIMER
 70
     1
  9
$ANGBASE
 50
0.0
  9
$ANGDIR
 70
     0
  9
$PDMODE
 70
     0
  9
$PDSIZE
 40
-1.0
  9
$PLINEWID
 40
0.0
  9
$SPLFRAME
 70
     0
  9
$SPLINETYPE
 70
     6
  9
$SPLINESEGS
 70
     8
  9
$HANDSEED
  5
33A
  9
$SURFTAB1
 70
     6
  9
$SURFTAB2
 70
     6
  9
$SURFTYPE
 70
     6
  9
$SURFU
 70
     6
  9
$SURFV
 70
     6
  9
$UCSBASE
  2

  9
$UCSNAME
  2

  9
$UCSORG
 10
0.0
 20
0.0
 30
0.0
  9
$UCSXDIR
 10
1.0
 20
0.0
 30
0.0
  9
$UCSYDIR
 10
0.0
 20
1.0
 30
0.0
  9
$UCSORTHOREF
  2

  9
$UCSORTHOVIEW
 70
     0
  9
$UCSORGTOP
 10
0.0
 20
0.0
 30
0.0
  9
$UCSORGBOTTOM
 10
0.0
 20
0.0
 30
0.0
  9
$UCSORGLEFT
 10
0.0
 20
0.0
 30
0.0
  9
$UCSORGRIGHT
 10
0.0
 20
0.0
 30
0.0
  9
$UCSORGFRONT
 10
0.0
 20
0.0
 30
0.0
  9
$UCSORGBACK
 10
0.0
 20
0.0
 30
0.0
  9
$PUCSBASE
  2

  9
$PUCSNAME
  2

  9
$PUCSORG
 10
0.0
 20
0.0
 30
0.0
  9
$PUCSXDIR
 10
1.0
 20
0.0
 30
0.0
  9
$PUCSYDIR
 10
0.0
 20
1.0
 30
0.0
  9
$PUCSORTHOREF
  2

  9
$PUCSORTHOVIEW
 70
     0
  9
$PUCSORGTOP
 10
0.0
 20
0.0
 30
0.0
  9
$PUCSORGBOTTOM
 10
0.0
 20
0.0
 30
0.0
  9
$PUCSORGLEFT
 10
0.0
 20
0.0
 30
0.0
  9
$PUCSORGRIGHT
 10
0.0
 20
0.0
 30
0.0
  9
$PUCSORGFRONT
 10
0.0
 20
0.0
 30
0.0
  9
$PUCSORGBACK
 10
0.0
 20
0.0
 30
0.0
  9
$USERI1
 70
     0
  9
$USERI2
 70
     0
  9
$USERI3
 70
     0
  9
$USERI4
 70
     0
  9
$USERI5
 70
     0
  9
$USERR1
 40
0.0
  9
$USERR2
 40
0.0
  9
$USERR3
 40
0.0
  9
$USERR4
 40
0.0
  9
$USERR5
 40
0.0
  9
$WORLDVIEW
 70
     1
  9
$SHADEDGE
 70
     3
  9
$SHADEDIF
 70
    70
  9
$TILEMODE
 70
     1
  9
$MAXACTVP
 70
    64
  9
$PINSBASE
 10
0.0
 20
0.0
 30
0.0
  9
$PLIMCHECK
 70
     0
  9
$PEXTMIN
 10
1.000000000000000E+20
 20
1.000000000000000E+20
 30
1.000000000000000E+20
  9
$PEXTMAX
 10
-1.000000000000000E+20
 20
-1.000000000000000E+20
 30
-1.000000000000000E+20
  9
$PLIMMIN
 10
0.0
 20
0.0
  9
$PLIMMAX
 10
0.0
 20
0.0
  9
$UNITMODE
 70
     0
  9
$VISRETAIN
 70
     1
  9
$PLINEGEN
 70
     0
  9
$PSLTSCALE
 70
     1
  9
$TREEDEPTH
 70
  3020
  9
$CMLSTYLE
  2
Standard
  9
$CMLJUST
 70
     0
  9
$CMLSCALE
 40
20.0
  9
$PROXYGRAPHICS
 70
     1
  9
$MEASUREMENT
 70
     1
  9
$CELWEIGHT
370
    -1
  9
$ENDCAPS
280
     0
  9
$JOINSTYLE
280
     0
  9
$LWDISPLAY
290
     1
  9
$INSUNITS
 70
     4
  9
$HYPERLINKBASE
  1

  9
$STYLESHEET
  1

  9
$XEDIT
290
     1
  9
$CEPSNTYPE
380
     0
  9
$PSTYLEMODE
290
     1
  9
$FINGERPRINTGUID
  2
{74AE1F0B-6E50-4D01-8B8A-D319168279F5}
  9
$VERSIONGUID
  2
{FAEB1C32-E019-11D5-929B-00C0DF256EC4}
  9
$EXTNAMES
290
     1
  9
$PSVPSCALE
 40
0.0
  9
$OLESTARTUP
290
     0
  0
ENDSEC
  0
SECTION
  2
CLASSES
  0
CLASS
  1
ACDBDICTIONARYWDFLT
  2
AcDbDictionaryWithDefault
  3
ObjectDBX Classes
 90
        0
280
     0
281
     0
  0
CLASS
  1
VISUALSTYLE
  2
AcDbVisualStyle
  3
ObjectDBX Classes
 90
     4095
280
     0
281
     0
  0
CLASS
  1
MATERIAL
  2
AcDbMaterial
  3
ObjectDBX Classes
 90
     1153
280
     0
281
     0
  0
CLASS
  1
SCALE
  2
AcDbScale
  3
ObjectDBX Classes
 90
     1153
280
     0
281
     0
  0
CLASS
  1
SUN
  2
AcDbSun
  3
SCENEOE
 90
     1153
280
     0
281
     0
  0
CLASS
  1
ACDBPLACEHOLDER
  2
AcDbPlaceHolder
  3
ObjectDBX Classes
 90
        0
280
     0
281
     0
  0
CLASS
  1
LAYOUT
  2
AcDbLayout
  3
ObjectDBX Classes
 90
        0
280
     0
281
     0
  0
CLASS
  1
TABLESTYLE
  2
AcDbTableStyle
  3
ObjectDBX Classes
 90
     4095
280
     0
281
     0
  0
CLASS
  1
MLEADERSTYLE
  2
AcDbMLeaderStyle
  3
ACDB_MLEADERSTYLE_CLASS
 90
     4095
280
     0
281
     0
  0
CLASS
  1
RASTERVARIABLES
  2
AcDbRasterVariables
  3
ISM
 90
        0
280
     0
281
     0
  0
CLASS
  1
DIMASSOC
  2
AcDbDimAssoc
  3
"AcDbDimAssoc|Product Desc:     AcDim ARX App For Dimension|Company:          Autodesk, Inc.|WEB Address:      www.autodesk.com"
 90
        0
280
     0
281
     0
  0
CLASS
  1
DICTIONARYVAR
  2
AcDbDictionaryVar
  3
ObjectDBX Classes
 90
        0
280
     0
281
     0
  0
ENDSEC
  0
SECTION
  2
TABLES
  0
TABLE
  2
VPORT
  5
8
330
0
100
AcDbSymbolTable
 70
     1
  0
VPORT
  5
29
330
8
100
AcDbSymbolTableRecord
100
AcDbViewportTableRecord
  2
*Active
 70
     0
 10
0.0
 20
0.0
 11
1.0
 21
1.0
 12
-4.777717166644123
 22
10.66419144960487
 13
0.0
 23
0.0
 14
10.0
 24
10.0
 15
10.0
 25
10.0
 16
0.0
 26
0.0
 36
1.0
 17
0.0
 27
0.0
 37
0.0
 40
157.8410848896474
 41
1.913499344692005
 42
50.0
 43
0.0
 44
0.0
 50
0.0
 51
0.0
 71
    16
 72
  2000
 73
     1
 74
     3
 75
     0
 76
     0
 77
     0
 78
     0
281
     0
 65
     1
110
0.0
120
0.0
130
0.0
111
1.0
121
0.0
131
0.0
112
0.0
122
1.0
132
0.0
 79
     0
146
0.0
  0
ENDTAB
  0
TABLE
  2
LTYPE
  5
5
330
0
100
AcDbSymbolTable
 70
     6
  0
LTYPE
  5
14
330
5
100
AcDbSymbolTableRecord
100
AcDbLinetypeTableRecord
  2
ByBlock
 70
     0
  3

 72
    65
 73
     0
 40
0.0
  0
LTYPE
  5
15
330
5
100
AcDbSymbolTableRecord
100
AcDbLinetypeTableRecord
  2
ByLayer
 70
     0
  3

 72
    65
 73
     0
 40
0.0
  0
LTYPE
  5
16
330
5
100
AcDbSymbolTableRecord
100
AcDbLinetypeTableRecord
  2
Continuous
 70
     0
  3
Solid line
 72
    65
 73
     0
 40
0.0
  0
LTYPE
  5
6A
330
5
100
AcDbSymbolTableRecord
100
AcDbLinetypeTableRecord
  2
HIDDEN
 70
     0
  3
Hidden __ __ __ __ __ __ __ __ __ __ __ __ __ __
 72
    65
 73
     2
 40
1.905
 49
1.27
 74
     0
 49
-0.635
 74
     0
  0
LTYPE
  5
6B
330
5
100
AcDbSymbolTableRecord
100
AcDbLinetypeTableRecord
  2
PHANTOM
 70
     0
  3
Phantom ______  __  __  ______  __  __  ______
 72
    65
 73
     6
 40
12.7
 49
6.35
 74
     0
 49
-1.27
 74
     0
 49
1.27
 74
     0
 49
-1.27
 74
     0
 49
1.27
 74
     0
 49
-1.27
 74
     0
  0
LTYPE
  5
6C
330
5
100
AcDbSymbolTableRecord
100
AcDbLinetypeTableRecord
  2
CENTER
 70
     0
  3
Center ____ _ ____ _ ____ _ ____ _ ____ _ ____
 72
    65
 73
     4
 40
10.16
 49
6.35
 74
     0
 49
-1.27
 74
     0
 49
1.27
 74
     0
 49
-1.27
 74
     0
  0
LTYPE
  5
6D
330
5
100
AcDbSymbolTableRecord
100
AcDbLinetypeTableRecord
  2
CENTERX2
 70
     0
  3
Center (2x) ________  __  ________  __  _____
 72
    65
 73
     4
 40
20.32
 49
12.7
 74
     0
 49
-2.54
 74
     0
 49
2.54
 74
     0
 49
-2.54
 74
     0
  0
LTYPE
  5
6E
330
5
100
AcDbSymbolTableRecord
100
AcDbLinetypeTableRecord
  2
DOT2
 70
     0
  3
Dot (.5x) ........................................
 72
    65
 73
     2
 40
0.635
 49
0.0
 74
     0
 49
-0.635
 74
     0
  0
ENDTAB
  0
TABLE
  2
LAYER
  5
2
102
{ACAD_XDICTIONARY
360
2FE
102
}
330
0
100
AcDbSymbolTable
 70
    17
  0
LAYER
  5
10
330
2
100
AcDbSymbolTableRecord
100
AcDbLayerTableRecord
  2
0
 70
     0
 62
     7
  6
Continuous
370
    -3
390
F
  0
LAYER
  5
6F
330
2
100
AcDbSymbolTableRecord
100
AcDbLayerTableRecord
  2
FORMAT
 70
     0
 62
     2
  6
Continuous
370
    -3
390
F
  0
LAYER
  5
70
330
2
100
AcDbSymbolTableRecord
100
AcDbLayerTableRecord
  2
외형선
 70
     0
 62
   100
  6
Continuous
370
    30
390
F
  0
LAYER
  5
71
330
2
100
AcDbSymbolTableRecord
100
AcDbLayerTableRecord
  2
숨은선
 70
     0
 62
     2
  6
HIDDEN
370
    15
390
F
  0
LAYER
  5
72
330
2
100
AcDbSymbolTableRecord
100
AcDbLayerTableRecord
  2
중심선
 70
     0
 62
     1
  6
CENTERX2
370
    -3
390
F
  0
LAYER
  5
73
330
2
100
AcDbSymbolTableRecord
100
AcDbLayerTableRecord
  2
파단선
 70
     0
 62
     4
  6
Continuous
370
    -3
390
F
  0
LAYER
  5
74
330
2
100
AcDbSymbolTableRecord
100
AcDbLayerTableRecord
  2
해칭선
 70
     0
 62
     4
  6
Continuous
370
    -3
390
F
  0
LAYER
  5
75
330
2
100
AcDbSymbolTableRecord
100
AcDbLayerTableRecord
  2
가는실선
 70
     0
 62
     4
  6
Continuous
370
    -3
390
F
  0
LAYER
  5
76
330
2
100
AcDbSymbolTableRecord
100
AcDbLayerTableRecord
  2
치수_보조선
 70
     0
 62
     4
  6
Continuous
370
    -3
390
F
  0
LAYER
  5
77
330
2
100
AcDbSymbolTableRecord
100
AcDbLayerTableRecord
  2
치수문자_일반주서
 70
     0
 62
     7
  6
Continuous
370
    15
390
F
  0
LAYER
  5
78
330
2
100
AcDbSymbolTableRecord
100
AcDbLayerTableRecord
  2
개별주서
 70
     0
 62
   100
  6
Continuous
370
    30
390
F
  0
LAYER
  5
79
330
2
100
AcDbSymbolTableRecord
100
AcDbLayerTableRecord
  2
중간선
 70
     0
 62
     2
  6
Continuous
370
    15
390
F
  0
LAYER
  5
7A
330
2
100
AcDbSymbolTableRecord
100
AcDbLayerTableRecord
  2
윤곽선
 70
     0
 62
     3
  6
Continuous
370
    40
390
F
  0
LAYER
  5
7B
330
2
100
AcDbSymbolTableRecord
100
AcDbLayerTableRecord
  2
중심마크
 70
     0
 62
   100
  6
Continuous
370
    30
390
F
  0
LAYER
  5
7C
330
2
100
AcDbSymbolTableRecord
100
AcDbLayerTableRecord
  2
가상선
 70
     0
 62
     4
  6
PHANTOM
370
    -3
390
F
  0
LAYER
  5
7D
330
2
100
AcDbSymbolTableRecord
100
AcDbLayerTableRecord
  2
특수지정선
 70
     0
 62
     5
  6
CENTERX2
370
    60
390
F
  0
LAYER
  5
27C
330
2
100
AcDbSymbolTableRecord
100
AcDbLayerTableRecord
  2
Defpoints
 70
     0
 62
     7
  6
Continuous
290
     0
370
    -3
390
F
  0
ENDTAB
  0
TABLE
  2
STYLE
  5
3
330
0
100
AcDbSymbolTable
 70
     2
  0
STYLE
  5
11
330
3
100
AcDbSymbolTableRecord
100
AcDbTextStyleTableRecord
  2
Standard
 70
     0
 40
0.0
 41
1.0
 50
0.0
 71
     0
 42
3.5
  3
txt
  4

  0
STYLE
  5
93
330
3
100
AcDbSymbolTableRecord
100
AcDbTextStyleTableRecord
  2
SLDTEXTSTYLE0
 70
     0
 40
0.0
 41
0.75
 50
0.0
 71
     0
 42
3.5
  3
TXT
  4

  0
ENDTAB
  0
TABLE
  2
VIEW
  5
6
330
0
100
AcDbSymbolTable
 70
     0
  0
ENDTAB
  0
TABLE
  2
UCS
  5
7
330
0
100
AcDbSymbolTable
 70
     0
  0
ENDTAB
  0
TABLE
  2
APPID
  5
9
330
0
100
AcDbSymbolTable
 70
     3
  0
APPID
  5
12
330
9
100
AcDbSymbolTableRecord
100
AcDbRegAppTableRecord
  2
ACAD
 70
     0
  0
APPID
  5
290
330
9
100
AcDbSymbolTableRecord
100
AcDbRegAppTableRecord
  2
PE_DIMMEASUREMENT
 70
     0
  0
APPID
  5
336
330
9
100
AcDbSymbolTableRecord
100
AcDbRegAppTableRecord
  2
PE_URL
 70
     0
  0
ENDTAB
  0
TABLE
  2
DIMSTYLE
  5
A
330
0
100
AcDbSymbolTable
 70
     3
100
AcDbDimStyleTable
  0
DIMSTYLE
105
27
330
A
100
AcDbSymbolTableRecord
100
AcDbDimStyleTableRecord
  2
ISO-25
 70
     0
 41
2.5
 42
0.625
 43
3.75
 44
1.25
 73
     0
 74
     0
 77
     1
 78
     8
140
2.5
141
2.5
143
0.03937007874016
147
0.625
171
     3
172
     1
178
     0
271
     2
272
     2
274
     3
278
    44
283
     0
284
     8
340
11
  0
DIMSTYLE
105
218
102
{ACAD_REACTORS
330
217
330
23F
330
280
102
}
330
A
100
AcDbSymbolTableRecord
100
AcDbDimStyleTableRecord
  2
SLDDIMSTYLE0
 70
     0
 41
3.302
 44
0.0
 45
0.000000001
 73
     0
 74
     0
 77
     1
 78
     4
 79
     1
140
3.5
143
0.0393700787401575
147
0.875
148
0.000000001
170
     1
173
     1
178
     0
271
     2
272
     2
276
     2
284
    12
340
93
  0
DIMSTYLE
105
22C
102
{ACAD_REACTORS
330
22B
102
}
330
A
100
AcDbSymbolTableRecord
100
AcDbDimStyleTableRecord
  2
SLDDIMSTYLE1
 70
     0
 41
3.302
 44
0.0
 45
0.000000001
 73
     0
 74
     0
 77
     1
 78
    12
 79
     3
140
3.5
143
0.0393700787401575
147
0.875
148
0.000000001
170
     1
173
     1
178
     0
271
     2
272
     2
276
     2
284
    12
340
93
  0
ENDTAB
  0
TABLE
  2
BLOCK_RECORD
  5
1
330
0
100
AcDbSymbolTable
 70
     7
  0
BLOCK_RECORD
  5
1F
102
{ACAD_XDICTIONARY
360
337
102
}
330
1
100
AcDbSymbolTableRecord
100
AcDbBlockTableRecord
  2
*Model_Space
340
22
  0
BLOCK_RECORD
  5
1B
330
1
100
AcDbSymbolTableRecord
100
AcDbBlockTableRecord
  2
*Paper_Space
340
1E
  0
BLOCK_RECORD
  5
23
330
1
100
AcDbSymbolTableRecord
100
AcDbBlockTableRecord
  2
*Paper_Space0
340
26
  0
BLOCK_RECORD
  5
7E
330
1
100
AcDbSymbolTableRecord
100
AcDbBlockTableRecord
  2
블럭10
340
0
102
{BLKREFS
331
20F
102
}
  0
BLOCK_RECORD
  5
219
330
1
100
AcDbSymbolTableRecord
100
AcDbBlockTableRecord
  2
_D
340
0
  0
BLOCK_RECORD
  5
22D
330
1
100
AcDbSymbolTableRecord
100
AcDbBlockTableRecord
  2
_D_1
340
0
  0
BLOCK_RECORD
  5
240
330
1
100
AcDbSymbolTableRecord
100
AcDbBlockTableRecord
  2
_D_2
340
0
  0
BLOCK_RECORD
  5
251
330
1
100
AcDbSymbolTableRecord
100
AcDbBlockTableRecord
  2
SW_DOWELSYMBOL_0
340
0
102
{BLKREFS
331
257
102
}
  0
BLOCK_RECORD
  5
283
330
1
100
AcDbSymbolTableRecord
100
AcDbBlockTableRecord
  2
*D6
340
0
  0
ENDTAB
  0
ENDSEC
  0
SECTION
  2
BLOCKS
  0
BLOCK
  5
20
330
1F
100
AcDbEntity
  8
0
100
AcDbBlockBegin
  2
*Model_Space
 70
     0
 10
0.0
 20
0.0
 30
0.0
  3
*Model_Space
  1
*Model_Space
  0
ENDBLK
  5
21
330
1F
100
AcDbEntity
  8
0
100
AcDbBlockEnd
  0
BLOCK
  5
1C
330
1B
100
AcDbEntity
 67
     1
  8
0
100
AcDbBlockBegin
  2
*Paper_Space
 70
     0
 10
0.0
 20
0.0
 30
0.0
  3
*Paper_Space
  1
*Paper_Space
  0
ENDBLK
  5
1D
330
1B
100
AcDbEntity
 67
     1
  8
0
100
AcDbBlockEnd
  0
BLOCK
  5
24
330
23
100
AcDbEntity
  8
0
100
AcDbBlockBegin
  2
*Paper_Space0
 70
     0
 10
0.0
 20
0.0
 30
0.0
  3
*Paper_Space0
  1
*Paper_Space0
  0
ENDBLK
  5
25
330
23
100
AcDbEntity
  8
0
100
AcDbBlockEnd
  0
BLOCK
  5
7F
330
7E
100
AcDbEntity
  8
0
100
AcDbBlockBegin
  2
블럭10
 70
     2
 10
0.0
 20
0.0
 30
0.0
  3
블럭10
  1
블럭10
  0
ELLIPSE
  5
81
330
7E
100
AcDbEntity
  8
중심선
100
AcDbEllipse
 10
20.54032771741204
 20
12.0471743016438
 30
0.0
 11
6.600054785286829
 21
-1.261213355974178E-13
 31
0.0
210
0.0
220
0.0
230
1.0
 40
0.636358354079598
 41
0.9219305317359503
 42
6.513795318482858
  0
ELLIPSE
  5
82
330
7E
100
AcDbEntity
  8
중심선
100
AcDbEllipse
 10
20.54032771746488
 20
12.04717430159265
 30
0.0
 11
3.960054785062283
 21
1.540847449632565E-10
 31
0.0
210
0.0
220
0.0
230
1.0
 40
0.3939339440162632
 41
1.131841032648279
 42
5.62031148352944
  0
LINE
  5
83
330
7E
100
AcDbEntity
  8
중심선
100
AcDbLine
 10
2.268634060543552
 20
16.24717430164393
 30
0.0
 11
5.714909304380834
 21
16.24717430164393
 31
0.0
  0
LINE
  5
84
330
7E
100
AcDbEntity
  8
중심선
100
AcDbLine
 10
5.245725140726316
 20
7.84717430164391
 30
0.0
 11
8.692000384563599
 21
7.84717430164391
 31
0.0
  0
LINE
  5
85
330
7E
100
AcDbEntity
  8
중심선
100
AcDbLine
 10
15.74043728645272
 20
16.24717430164393
 30
0.0
 11
8.692000384563599
 21
7.84717430164391
 31
0.0
  0
LINE
  5
86
330
7E
100
AcDbEntity
  8
중심선
100
AcDbLine
 10
0.1404042013395286
 20
13.71084872107135
 30
0.0
 11
3.58671253028996
 21
13.71088815037384
 31
0.0
  0
LINE
  5
87
330
7E
100
AcDbEntity
  8
중심선
100
AcDbLine
 10
2.750260043222114
 20
10.84717430164391
 30
0.0
 11
6.196535287059397
 21
10.84717430164391
 31
0.0
  0
LINE
  5
88
330
7E
100
AcDbEntity
  8
중심선
100
AcDbLine
 10
12.29416204261559
 20
16.24717430164393
 30
0.0
 11
5.245725140726316
 21
7.84717430164391
 31
0.0
  0
LINE
  5
89
330
7E
100
AcDbEntity
  8
중심선
100
AcDbLine
 10
10.72767329541681
 20
16.24717430164393
 30
0.0
 11
6.196535287059397
 21
10.84717430164391
 31
0.0
  0
LINE
  5
8A
330
7E
100
AcDbEntity
  8
중심선
100
AcDbLine
 10
7.28139805157953
 20
16.24717430164393
 30
0.0
 11
2.750260043222114
 21
10.84717430164391
 31
0.0
  0
LINE
  5
8B
330
7E
100
AcDbEntity
  8
중심선
100
AcDbLine
 10
5.714909304380834
 20
16.24717430164393
 30
0.0
 11
3.58671253028996
 21
13.71088815037384
 31
0.0
  0
LINE
  5
8C
330
7E
100
AcDbEntity
  8
중심선
100
AcDbLine
 10
2.268634060543552
 20
16.24717430164393
 30
0.0
 11
0.1404042013395286
 21
13.71084872107135
 31
0.0
  0
LINE
  5
8D
330
7E
100
AcDbEntity
  8
중심선
100
AcDbLine
 10
7.28139805157953
 20
16.24717430164393
 30
0.0
 11
10.72767329541681
 21
16.24717430164393
 31
0.0
  0
LINE
  5
8E
330
7E
100
AcDbEntity
  8
중심선
100
AcDbLine
 10
12.29416204261559
 20
16.24717430164393
 30
0.0
 11
15.74043728645272
 21
16.24717430164393
 31
0.0
  0
LINE
  5
8F
330
7E
100
AcDbEntity
  8
중심선
100
AcDbLine
 10
19.22036997980202
 20
11.08717430171403
 30
0.0
 11
23.66174974927406
 21
11.08717430171406
 31
0.0
  0
LINE
  5
90
330
7E
100
AcDbEntity
  8
중심선
100
AcDbLine
 10
19.22039502424796
 20
13.00717430171391
 30
0.0
 11
19.22036997980202
 21
11.08717430171403
 31
0.0
  0
LINE
  5
91
330
7E
100
AcDbEntity
  8
중심선
100
AcDbLine
 10
19.22039502424796
 20
13.00717430171391
 30
0.0
 11
26.96566020931264
 21
13.00717430171391
 31
0.0
  0
LINE
  5
92
330
7E
100
AcDbEntity
  8
중심선
100
AcDbLine
 10
22.22332737316547
 20
13.45928029700563
 30
0.0
 11
24.52862924686651
 21
15.39360700705356
 31
0.0
  0
ATTDEF
  5
94
330
7E
100
AcDbEntity
  8
FORMAT
 62
     2
100
AcDbText
 10
-9.34984418565004
 20
2.075366912832191
 30
0.0
 40
4.233333333333333
  1
EK191164 [ 3 FLUTE ]
 41
0.75
  7
SLDTEXTSTYLE0
 11
-9.34984418565004
 21
-0.0412997538344756
 31
0.0
100
AcDbAttributeDefinition
  3

  2
AUTOATTR0
 70
     0
 74
     1
  0
ENDBLK
  5
80
330
7E
100
AcDbEntity
  8
0
100
AcDbBlockEnd
  0
BLOCK
  5
21A
330
219
100
AcDbEntity
  8
0
100
AcDbBlockBegin
  2
_D
 70
     0
 10
0.0
 20
0.0
 30
0.0
  3
_D
  1
_D
  0
LINE
  5
21C
330
219
100
AcDbEntity
  8
치수문자_일반주서
 62
     0
370
    -2
100
AcDbLine
 10
65.8
 20
16.50910070075569
 30
0.0
 11
65.8
 21
64.21065667499487
 31
0.0
  0
LINE
  5
21D
330
219
100
AcDbEntity
  8
치수문자_일반주서
 62
     0
370
    -2
100
AcDbLine
 10
14.99999999999998
 20
25.46250000000001
 30
0.0
 11
14.99999999999998
 21
64.21065667499487
 31
0.0
  0
LINE
  5
21E
330
219
100
AcDbEntity
  8
치수문자_일반주서
 62
     0
370
    -2
100
AcDbLine
 10
62.498
 20
64.21065667499487
 30
0.0
 11
18.30199999999997
 21
64.21065667499487
 31
0.0
  0
SOLID
  5
21F
330
219
100
AcDbEntity
  8
치수문자_일반주서
 62
     0
100
AcDbTrace
 10
62.498
 20
63.66032334166153
 30
0.0
 11
62.498
 21
64.76099000832819
 31
0.0
 12
65.8
 22
64.21065667499487
 32
0.0
 13
65.8
 23
64.21065667499487
 33
0.0
  0
SOLID
  5
220
330
219
100
AcDbEntity
  8
치수문자_일반주서
 62
     0
100
AcDbTrace
 10
18.30199999999997
 20
64.76099000832819
 30
0.0
 11
18.30199999999997
 21
63.66032334166153
 31
0.0
 12
14.99999999999998
 22
64.21065667499487
 32
0.0
 13
14.99999999999998
 23
64.21065667499487
 33
0.0
  0
MTEXT
  5
221
330
219
100
AcDbEntity
  8
치수문자_일반주서
 62
     0
100
AcDbMText
 10
40.39999999999998
 20
68.58565667499487
 30
0.0
 40
3.5
 41
0.0
 71
     2
 72
     1
  1
\A1;50.80 [2]
  7
SLDTEXTSTYLE0
 73
     1
 44
1.0
  0
POINT
  5
222
330
219
100
AcDbEntity
  8
Defpoints
 62
     0
100
AcDbPoint
 10
65.8
 20
16.44660070075569
 30
0.0
  0
POINT
  5
223
330
219
100
AcDbEntity
  8
Defpoints
 62
     0
100
AcDbPoint
 10
14.99999999999998
 20
25.40000000000001
 30
0.0
  0
POINT
  5
224
330
219
100
AcDbEntity
  8
Defpoints
 62
     0
100
AcDbPoint
 10
14.99999999999998
 20
64.21065667499487
 30
0.0
  0
ENDBLK
  5
21B
330
219
100
AcDbEntity
  8
0
100
AcDbBlockEnd
  0
BLOCK
  5
22E
330
22D
100
AcDbEntity
  8
0
100
AcDbBlockBegin
  2
_D_1
 70
     0
 10
0.0
 20
0.0
 30
0.0
  3
_D_1
  1
_D_1
  0
LINE
  5
230
330
22D
100
AcDbEntity
  8
치수문자_일반주서
 62
     0
370
    -2
100
AcDbLine
 10
-80.25000000000004
 20
24.46249999999999
 30
0.0
 11
-80.25000000000004
 21
83.66227227786342
 31
0.0
  0
LINE
  5
231
330
22D
100
AcDbEntity
  8
치수문자_일반주서
 62
     0
370
    -2
100
AcDbLine
 10
65.8
 20
16.50910070075569
 30
0.0
 11
65.8
 21
83.66227227786342
 31
0.0
  0
LINE
  5
232
330
22D
100
AcDbEntity
  8
치수문자_일반주서
 62
     0
370
    -2
100
AcDbLine
 10
-76.94800000000004
 20
83.66227227786342
 30
0.0
 11
62.498
 21
83.66227227786342
 31
0.0
  0
SOLID
  5
233
330
22D
100
AcDbEntity
  8
치수문자_일반주서
 62
     0
100
AcDbTrace
 10
-76.94800000000004
 20
84.21260561119675
 30
0.0
 11
-76.94800000000004
 21
83.1119389445301
 31
0.0
 12
-80.25000000000004
 22
83.66227227786342
 32
0.0
 13
-80.25000000000004
 23
83.66227227786342
 33
0.0
  0
SOLID
  5
234
330
22D
100
AcDbEntity
  8
치수문자_일반주서
 62
     0
100
AcDbTrace
 10
62.498
 20
83.1119389445301
 30
0.0
 11
62.498
 21
84.21260561119675
 31
0.0
 12
65.8
 22
83.66227227786342
 32
0.0
 13
65.8
 23
83.66227227786342
 33
0.0
  0
MTEXT
  5
235
330
22D
100
AcDbEntity
  8
치수문자_일반주서
 62
     0
100
AcDbMText
 10
-7.225000000000023
 20
88.03727227786342
 30
0.0
 40
3.5
 41
0.0
 71
     2
 72
     1
  1
\A1;146.05 [5 3/4]
  7
SLDTEXTSTYLE0
 73
     1
 44
1.0
  0
POINT
  5
236
330
22D
100
AcDbEntity
  8
Defpoints
 62
     0
100
AcDbPoint
 10
-80.25000000000004
 20
24.39999999999999
 30
0.0
  0
POINT
  5
237
330
22D
100
AcDbEntity
  8
Defpoints
 62
     0
100
AcDbPoint
 10
65.8
 20
16.44660070075569
 30
0.0
  0
POINT
  5
238
330
22D
100
AcDbEntity
  8
Defpoints
 62
     0
100
AcDbPoint
 10
65.8
 20
83.66227227786342
 30
0.0
  0
ENDBLK
  5
22F
330
22D
100
AcDbEntity
  8
0
100
AcDbBlockEnd
  0
BLOCK
  5
241
330
240
100
AcDbEntity
  8
0
100
AcDbBlockBegin
  2
_D_2
 70
     0
 10
0.0
 20
0.0
 30
0.0
  3
_D_2
  1
_D_2
  0
LINE
  5
243
330
240
100
AcDbEntity
  8
치수문자_일반주서
 62
     0
370
    -2
100
AcDbLine
 10
-79.31250000000001
 20
25.4
 30
0.0
 11
-97.25000000000009
 21
25.39999999999994
 31
0.0
  0
LINE
  5
244
330
240
100
AcDbEntity
  8
치수문자_일반주서
 62
     0
370
    -2
100
AcDbLine
 10
-79.31250000000001
 20
-25.4
 30
0.0
 11
-97.24999999999991
 21
-25.40000000000006
 31
0.0
  0
LINE
  5
245
330
240
100
AcDbEntity
  8
치수문자_일반주서
 62
     0
370
    -2
100
AcDbLine
 10
-97.25000000000007
 20
22.09799999999994
 30
0.0
 11
-97.24999999999993
 21
-22.09800000000006
 31
0.0
  0
SOLID
  5
246
330
240
100
AcDbEntity
  8
치수문자_일반주서
 62
     0
100
AcDbTrace
 10
-96.69966666666674
 20
22.09799999999994
 30
0.0
 11
-97.8003333333334
 21
22.09799999999994
 31
0.0
 12
-97.25000000000009
 22
25.39999999999994
 32
0.0
 13
-97.25000000000009
 23
25.39999999999994
 33
0.0
  0
SOLID
  5
247
330
240
100
AcDbEntity
  8
치수문자_일반주서
 62
     0
100
AcDbTrace
 10
-97.80033333333326
 20
-22.09800000000006
 30
0.0
 11
-96.6996666666666
 21
-22.09800000000006
 31
0.0
 12
-97.24999999999991
 22
-25.40000000000006
 32
0.0
 13
-97.24999999999991
 23
-25.40000000000006
 33
0.0
  0
MTEXT
  5
248
330
240
100
AcDbEntity
  8
치수문자_일반주서
 62
     0
100
AcDbMText
 10
-101.625
 20
-0.4952928106420725
 30
0.0
 40
3.5
 41
0.0
 71
     2
 72
     1
  1
\A1;%%c50.80 [2]
  7
SLDTEXTSTYLE0
 11
-3.356894814614646E-15
 21
1.0
 31
0.0
 73
     1
 44
1.0
  0
POINT
  5
249
330
240
100
AcDbEntity
  8
Defpoints
 62
     0
100
AcDbPoint
 10
-79.25000000000001
 20
25.4
 30
0.0
  0
POINT
  5
24A
330
240
100
AcDbEntity
  8
Defpoints
 62
     0
100
AcDbPoint
 10
-79.25000000000001
 20
-25.4
 30
0.0
  0
POINT
  5
24B
330
240
100
AcDbEntity
  8
Defpoints
 62
     0
100
AcDbPoint
 10
-97.24999999999991
 20
-25.40000000000007
 30
0.0
  0
ENDBLK
  5
242
330
240
100
AcDbEntity
  8
0
100
AcDbBlockEnd
  0
BLOCK
  5
252
330
251
100
AcDbEntity
  8
0
100
AcDbBlockBegin
  2
SW_DOWELSYMBOL_0
 70
     0
 10
0.0
 20
0.0
 30
0.0
  3
SW_DOWELSYMBOL_0
  1
SW_DOWELSYMBOL_0
  0
CIRCLE
  5
254
330
251
100
AcDbEntity
  8
외형선
 62
     0
100
AcDbCircle
 10
0.0
 20
0.0
 30
0.0
 40
3.000000000000001
  0
HATCH
  5
255
330
251
100
AcDbEntity
  8
0
  6
Continuous
 62
     0
370
    30
100
AcDbHatch
 10
0.0
 20
0.0
 30
0.0
210
0.0
220
0.0
230
1.0
  2
SOLID
 70
     1
 71
     0
 91
        1
 92
        0
 93
        3
 72
     2
 10
0.0
 20
0.0
 40
3.000000000000001
 50
0.0
 51
90.0
 73
     1
 72
     1
 10
0.0
 20
3.000000000000001
 11
0.0
 21
0.0
 72
     1
 10
0.0
 20
0.0
 11
3.000000000000003
 21
0.0
 97
        0
 75
     0
 76
     1
 98
        1
 10
0.0
 20
0.0
  0
HATCH
  5
256
330
251
100
AcDbEntity
  8
0
  6
Continuous
 62
     0
370
    30
100
AcDbHatch
 10
0.0
 20
0.0
 30
0.0
210
0.0
220
0.0
230
1.0
  2
SOLID
 70
     1
 71
     0
 91
        1
 92
        0
 93
        3
 72
     2
 10
0.0
 20
0.0
 40
3.000000000000001
 50
180.0
 51
270.0000000000007
 73
     1
 72
     1
 10
0.0
 20
-3.000000000000001
 11
0.0
 21
0.0
 72
     1
 10
0.0
 20
0.0
 11
-3.000000000000003
 21
0.0
 97
        0
 75
     0
 76
     1
 98
        1
 10
0.0
 20
0.0
  0
ENDBLK
  5
253
330
251
100
AcDbEntity
  8
0
100
AcDbBlockEnd
  0
BLOCK
  5
284
330
283
100
AcDbEntity
  8
0
100
AcDbBlockBegin
  2
*D6
 70
     1
 10
0.0
 20
0.0
 30
0.0
  3
*D6
  1
*D6
  0
LINE
  5
286
330
283
100
AcDbEntity
  8
치수문자_일반주서
 62
     0
370
    -2
100
AcDbLine
 10
65.86249999999998
 20
25.39999969303609
 30
0.0
 11
91.51923233337845
 21
25.39999969303609
 31
0.0
  0
LINE
  5
287
330
283
100
AcDbEntity
  8
치수문자_일반주서
 62
     0
370
    -2
100
AcDbLine
 10
65.86249999999998
 20
-25.39999969303607
 30
0.0
 11
91.51923233337845
 21
-25.39999969303607
 31
0.0
  0
LINE
  5
288
330
283
100
AcDbEntity
  8
치수문자_일반주서
 62
     0
370
    -2
100
AcDbLine
 10
91.51923233337845
 20
22.09799969303609
 30
0.0
 11
91.51923233337845
 21
-22.09799969303607
 31
0.0
  0
SOLID
  5
289
330
283
100
AcDbEntity
  8
치수문자_일반주서
 62
     0
100
AcDbTrace
 10
92.06956566671178
 20
22.09799969303609
 30
0.0
 11
90.96889900004513
 21
22.09799969303609
 31
0.0
 12
91.51923233337845
 22
25.39999969303609
 32
0.0
 13
91.51923233337845
 23
25.39999969303609
 33
0.0
  0
SOLID
  5
28A
330
283
100
AcDbEntity
  8
치수문자_일반주서
 62
     0
100
AcDbTrace
 10
90.96889900004513
 20
-22.09799969303607
 30
0.0
 11
92.06956566671178
 21
-22.09799969303607
 31
0.0
 12
91.51923233337845
 22
-25.39999969303607
 32
0.0
 13
91.51923233337845
 23
-25.39999969303607
 33
0.0
  0
MTEXT
  5
28B
330
283
100
AcDbEntity
  8
치수문자_일반주서
 62
     0
100
AcDbMText
 10
88.89423233337845
 20
0.0000000000000107
 30
0.0
 40
3.5
 41
0.0
 71
     5
 72
     1
  1
\A1;{%%c50.80 [2]}
  7
SLDTEXTSTYLE0
 11
0.0
 21
1.0
 31
0.0
 73
     1
 44
1.0
  0
POINT
  5
28C
330
283
100
AcDbEntity
  8
Defpoints
 62
     0
100
AcDbPoint
 10
65.79999999999998
 20
25.39999969303609
 30
0.0
  0
POINT
  5
28D
330
283
100
AcDbEntity
  8
Defpoints
 62
     0
100
AcDbPoint
 10
65.79999999999998
 20
-25.39999969303607
 30
0.0
  0
POINT
  5
28E
330
283
100
AcDbEntity
  8
Defpoints
 62
     0
100
AcDbPoint
 10
91.51923233337845
 20
-25.39999969303607
 30
0.0
  0
ENDBLK
  5
285
330
283
100
AcDbEntity
  8
0
100
AcDbBlockEnd
  0
ENDSEC
  0
SECTION
  2
ENTITIES
  0
LINE
  5
95
330
1F
100
AcDbEntity
  8
0
  6
Continuous
 62
     4
370
    15
100
AcDbLine
 10
15.00000004749744
 20
25.39999969303609
 30
0.0
 11
-21.97605132024297
 21
25.39999969303609
 31
0.0
  0
LINE
  5
96
330
1F
100
AcDbEntity
  8
0
  6
Continuous
 62
     4
370
    15
100
AcDbLine
 10
-79.24999898672105
 20
-25.39999969303607
 30
0.0
 11
10.45001930184661
 21
-25.39999969303607
 31
0.0
  0
LINE
  5
98
330
1F
100
AcDbEntity
  8
0
  6
Continuous
 62
     4
370
    15
100
AcDbLine
 10
-80.25000101327898
 20
-24.3999995291233
 30
0.0
 11
-79.24999898672105
 21
-25.39999969303607
 31
0.0
  0
LINE
  5
99
330
1F
100
AcDbEntity
  8
0
  6
Continuous
 62
     1
370
    15
100
AcDbLine
 10
34.49178071320055
 20
-25.39999969303607
 30
0.0
 11
35.60969004034995
 21
-25.39999969303607
 31
0.0
  0
LINE
  5
9A
330
1F
100
AcDbEntity
  8
0
  6
Continuous
 62
     1
370
    15
100
AcDbLine
 10
23.58793982863425
 20
25.29018558561803
 30
0.0
 11
23.50153917074202
 21
25.34285187721254
 31
0.0
  0
SPLINE
  5
9B
330
1F
100
AcDbEntity
  8
0
  6
Continuous
 62
     1
370
    15
100
AcDbSpline
210
0.0
220
0.0
230
1.0
 70
     8
 71
     3
 72
     9
 73
     5
 74
     0
 42
0.000000001
 43
0.00000001
 40
0.0
 40
0.0
 40
0.0
 40
0.0
 40
0.4999955061007038
 40
1.0
 40
1.0
 40
1.0
 40
1.0
 10
23.50309354811906
 20
25.34153498709203
 30
0.0
 10
23.47960825774066
 20
25.35689886151329
 30
0.0
 10
23.43263725481793
 20
25.38762688653312
 30
0.0
 10
23.37671204123305
 20
25.39244690092331
 30
0.0
 10
23.34874918311833
 20
25.39485692977906
 30
0.0
  0
LINE
  5
9C
330
1F
100
AcDbEntity
  8
0
  6
Continuous
 62
     1
370
    15
100
AcDbLine
 10
23.25588980317115
 20
25.39999969303609
 30
0.0
 11
20.76346197724341
 21
25.39999969303609
 31
0.0
  0
SPLINE
  5
9D
330
1F
100
AcDbEntity
  8
0
  6
Continuous
 62
     1
370
    15
100
AcDbSpline
210
0.0
220
0.0
230
1.0
 70
     8
 71
     3
 72
     9
 73
     5
 74
     0
 42
0.000000001
 43
0.00000001
 40
0.0
 40
0.0
 40
0.0
 40
0.0
 40
0.4999983042326011
 40
1.0
 40
1.0
 40
1.0
 40
1.0
 10
35.59152552485465
 20
-25.39933472871779
 30
0.0
 10
35.61948805805678
 20
-25.3969244361744
 30
0.0
 10
35.67541331413351
 20
-25.39210383473837
 30
0.0
 10
35.72238431151349
 20
-25.36137029486076
 30
0.0
 10
35.74586988985537
 20
-25.34600347280501
 30
0.0
  0
SPLINE
  5
9E
330
1F
100
AcDbEntity
  8
0
  6
Continuous
 62
     1
370
    15
100
AcDbSpline
210
0.0
220
0.0
230
1.0
 70
     8
 71
     3
 72
    11
 73
     7
 74
     0
 42
0.000000001
 43
0.00000001
 40
0.0
 40
0.0
 40
0.0
 40
0.0
 40
0.2458418712548618
 40
0.4999616736079107
 40
0.7541012371062623
 40
1.0
 40
1.0
 40
1.0
 40
1.0
 10
35.74403332173823
 20
-25.34646727144717
 30
0.0
 10
35.7882885938828
 20
-25.31733647606199
 30
0.0
 10
35.8782892915444
 20
-25.25809399983138
 30
0.0
 10
36.04696721432212
 20
-25.23045328557701
 30
0.0
 10
36.21564656206233
 20
-25.2565003876411
 30
0.0
 10
36.30563176347224
 20
-25.31461203975854
 30
0.0
 10
36.34988287091254
 20
-25.34318901598452
 30
0.0
  0
SPLINE
  5
9F
330
1F
100
AcDbEntity
  8
0
  6
Continuous
 62
     1
370
    15
100
AcDbSpline
210
0.0
220
0.0
230
1.0
 70
     8
 71
     3
 72
     9
 73
     5
 74
     0
 42
0.000000001
 43
0.00000001
 40
0.0
 40
0.0
 40
0.0
 40
0.0
 40
0.4996554843653495
 40
1.0
 40
1.0
 40
1.0
 40
1.0
 10
36.34941348433494
 20
-25.34282952547073
 30
0.0
 10
36.37453982895144
 20
-25.35931634733817
 30
0.0
 10
36.42482716773333
 20
-25.39231272661015
 30
0.0
 10
36.48394957580426
 20
-25.39743619415098
 30
0.0
 10
36.51353114843367
 20
-25.39999969303607
 30
0.0
  0
LINE
  5
A0
330
1F
100
AcDbEntity
  8
0
  6
Continuous
 62
     1
370
    15
100
AcDbLine
 10
36.5134491920471
 20
-25.39999969303607
 30
0.0
 11
39.08738823235034
 21
-25.39999969303607
 31
0.0
  0
SPLINE
  5
A1
330
1F
100
AcDbEntity
  8
0
  6
Continuous
 62
     1
370
    15
100
AcDbSpline
210
0.0
220
0.0
230
1.0
 70
     8
 71
     3
 72
     9
 73
     5
 74
     0
 42
0.000000001
 43
0.00000001
 40
0.0
 40
0.0
 40
0.0
 40
0.0
 40
0.5003455977484802
 40
0.9999999999999999
 40
0.9999999999999999
 40
0.9999999999999999
 40
0.9999999999999999
 10
20.76353136077522
 20
25.39999969303609
 30
0.0
 10
20.73394907727072
 20
25.39743528279178
 30
0.0
 10
20.67482537629758
 20
25.39231000487219
 30
0.0
 10
20.62453778482696
 20
25.35931541670097
 30
0.0
 10
20.59941136837005
 20
25.34282952547074
 30
0.0
  0
SPLINE
  5
A2
330
1F
100
AcDbEntity
  8
0
  6
Continuous
 62
     1
370
    15
100
AcDbSpline
210
0.0
220
0.0
230
1.0
 70
     8
 71
     3
 72
    10
 73
     6
 74
     0
 42
0.000000001
 43
0.00000001
 40
0.0
 40
0.0
 40
0.0
 40
0.0
 40
0.2844476308373308
 40
0.5489860808989576
 40
1.0
 40
1.0
 40
1.0
 40
1.0
 10
20.59681484103202
 20
25.34052170813085
 30
0.0
 10
20.54444780860019
 20
25.30837736827204
 30
0.0
 10
20.44337903956729
 20
25.24633854899896
 30
0.0
 10
20.20703186155362
 20
25.22643938221669
 30
0.0
 10
20.08098685157553
 20
25.29784372898403
 30
0.0
 10
20.00154045969247
 20
25.34285001456739
 30
0.0
  0
SPLINE
  5
A3
330
1F
100
AcDbEntity
  8
0
  6
Continuous
 62
     1
370
    15
100
AcDbSpline
210
0.0
220
0.0
230
1.0
 70
     8
 71
     3
 72
     9
 73
     5
 74
     0
 42
0.000000001
 43
0.00000001
 40
0.0
 40
0.0
 40
0.0
 40
0.0
 40
0.4994865863881667
 40
1.0
 40
1.0
 40
1.0
 40
1.0
 10
20.00153859704732
 20
25.34285187721254
 30
0.0
 10
19.9764175466939
 20
25.35933128862124
 30
0.0
 10
19.92612380300186
 20
25.39232398924183
 30
0.0
 10
19.8670373407213
 20
25.39743937423248
 30
0.0
 10
19.83746377378701
 20
25.39999969303609
 30
0.0
  0
LINE
  5
A4
330
1F
100
AcDbEntity
  8
0
  6
Continuous
 62
     1
370
    15
100
AcDbLine
 10
19.83740649744867
 20
25.39999969303609
 30
0.0
 11
17.26345837675034
 21
25.39999969303609
 31
0.0
  0
SPLINE
  5
A5
330
1F
100
AcDbEntity
  8
0
  6
Continuous
 62
     1
370
    15
100
AcDbSpline
210
0.0
220
0.0
230
1.0
 70
     8
 71
     3
 72
     9
 73
     5
 74
     0
 42
0.000000001
 43
0.00000001
 40
0.0
 40
0.0
 40
0.0
 40
0.0
 40
0.5005134440404787
 40
1.0
 40
1.0
 40
1.0
 40
1.0
 10
39.08746460080145
 20
-25.39999969303607
 30
0.0
 10
39.11703816699131
 20
-25.39743937480621
 30
0.0
 10
39.17612462419237
 20
-25.39232399127289
 30
0.0
 10
39.22641837278896
 20
-25.35933128862827
 30
0.0
 10
39.25153942406176
 20
-25.34285187721251
 30
0.0
  0
SPLINE
  5
A6
330
1F
100
AcDbEntity
  8
0
  6
Continuous
 62
     1
370
    15
100
AcDbSpline
210
0.0
220
0.0
230
1.0
 70
     8
 71
     3
 72
    11
 73
     7
 74
     0
 42
0.000000001
 43
0.00000001
 40
0.0
 40
0.0
 40
0.0
 40
0.0
 40
0.2476889028926318
 40
0.499881814258208
 40
0.7521315665169866
 40
1.0
 40
1.0
 40
1.0
 40
1.0
 10
39.25153383612631
 20
-25.34285560250281
 30
0.0
 10
39.29491120076778
 20
-25.31474789348337
 30
0.0
 10
39.38245470990962
 20
-25.25802136106632
 30
0.0
 10
39.55051831568662
 20
-25.23090501214935
 30
0.0
 10
39.71857478740969
 20
-25.2580402052938
 30
0.0
 10
39.80607324365305
 20
-25.31474566880993
 30
0.0
 10
39.84943920373916
 20
-25.34285001456737
 30
0.0
  0
SPLINE
  5
A7
330
1F
100
AcDbEntity
  8
0
  6
Continuous
 62
     1
370
    15
100
AcDbSpline
210
0.0
220
0.0
230
1.0
 70
     8
 71
     3
 72
     9
 73
     5
 74
     0
 42
0.000000001
 43
0.00000001
 40
0.0
 40
0.0
 40
0.0
 40
0.0
 40
0.499655507967002
 40
0.9999999999999999
 40
0.9999999999999999
 40
0.9999999999999999
 40
0.9999999999999999
 10
39.84941312670706
 20
-25.34282952547072
 30
0.0
 10
39.87453947060947
 20
-25.35931634733257
 30
0.0
 10
39.9248268055868
 20
-25.39231272503474
 30
0.0
 10
39.98394921759954
 20
-25.3974361937062
 30
0.0
 10
40.0135307908058
 20
-25.39999969303607
 30
0.0
  0
LINE
  5
A8
330
1F
100
AcDbEntity
  8
0
  6
Continuous
 62
     1
370
    15
100
AcDbLine
 10
40.01345442235468
 20
-25.39999969303607
 30
0.0
 11
42.58738414943216
 21
-25.39999969303607
 31
0.0
  0
SPLINE
  5
A9
330
1F
100
AcDbEntity
  8
0
  6
Continuous
 62
     1
370
    15
100
AcDbSpline
210
0.0
220
0.0
230
1.0
 70
     8
 71
     3
 72
     9
 73
     5
 74
     0
 42
0.000000001
 43
0.00000001
 40
0.0
 40
0.0
 40
0.0
 40
0.0
 40
0.5003456995960568
 40
1.0
 40
1.0
 40
1.0
 40
1.0
 10
17.2635312527418
 20
25.39999969303609
 30
0.0
 10
17.23394895228379
 20
25.39743528471102
 30
0.0
 10
17.17482522946197
 20
25.39231001167052
 30
0.0
 10
17.12453781570643
 20
25.35931541672524
 30
0.0
 10
17.09941149316727
 20
25.34282952547075
 30
0.0
  0
SPLINE
  5
AA
330
1F
100
AcDbEntity
  8
0
  6
Continuous
 62
     1
370
    15
100
AcDbSpline
210
0.0
220
0.0
230
1.0
 70
     8
 71
     3
 72
    11
 73
     7
 74
     0
 42
0.000000001
 43
0.00000001
 40
0.0
 40
0.0
 40
0.0
 40
0.0
 40
0.2478748276941345
 40
0.5001187526816215
 40
0.7523047202671465
 40
0.9999999999999999
 40
0.9999999999999999
 40
0.9999999999999999
 40
0.9999999999999999
 10
17.09941242448984
 20
25.34282952547074
 30
0.0
 10
17.05605049323077
 20
25.31473003336229
 30
0.0
 10
16.9685623235893
 20
25.25803576119678
 30
0.0
 10
16.80050918128926
 20
25.23090547184878
 30
0.0
 10
16.63245208221239
 20
25.25802489273893
 30
0.0
 10
16.54491733474826
 20
25.31474357646943
 30
0.0
 10
16.50154314562677
 20
25.34284815192224
 30
0.0
  0
SPLINE
  5
AB
330
1F
100
AcDbEntity
  8
0
  6
Continuous
 62
     1
370
    15
100
AcDbSpline
210
0.0
220
0.0
230
1.0
 70
     8
 71
     3
 72
     9
 73
     5
 74
     0
 42
0.000000001
 43
0.00000001
 40
0.0
 40
0.0
 40
0.0
 40
0.0
 40
0.4994865817309429
 40
1.0
 40
1.0
 40
1.0
 40
1.0
 10
16.50153872184454
 20
25.34285187721254
 30
0.0
 10
16.47641767135041
 20
25.35933128862232
 30
0.0
 10
16.42612392690771
 20
25.39232398955269
 30
0.0
 10
16.36703746540459
 20
25.3974393743203
 30
0.0
 10
16.33746389858423
 20
25.39999969303609
 30
0.0
  0
LINE
  5
AC
330
1F
100
AcDbEntity
  8
0
  6
Continuous
 62
     1
370
    15
100
AcDbLine
 10
16.33738915994762
 20
25.39999969303609
 30
0.0
 11
15.00000004749744
 21
25.39999969303609
 31
0.0
  0
SPLINE
  5
AD
330
1F
100
AcDbEntity
  8
0
  6
Continuous
 62
     1
370
    15
100
AcDbSpline
210
0.0
220
0.0
230
1.0
 70
     8
 71
     3
 72
     9
 73
     5
 74
     0
 42
0.000000001
 43
0.00000001
 40
0.0
 40
0.0
 40
0.0
 40
0.0
 40
0.5005134486396304
 40
1.0
 40
1.0
 40
1.0
 40
1.0
 10
42.58746424317358
 20
-25.39999969303607
 30
0.0
 10
42.61703780925091
 20
-25.39743937489293
 30
0.0
 10
42.67612426568423
 20
-25.39232399157988
 30
0.0
 10
42.72641801502213
 20
-25.35933128862934
 30
0.0
 10
42.7515390664339
 20
-25.34285187721252
 30
0.0
  0
SPLINE
  5
AE
330
1F
100
AcDbEntity
  8
0
  6
Continuous
 62
     1
370
    15
100
AcDbSpline
210
0.0
220
0.0
230
1.0
 70
     8
 71
     3
 72
    11
 73
     7
 74
     0
 42
0.000000001
 43
0.00000001
 40
0.0
 40
0.0
 40
0.0
 40
0.0
 40
0.2476978485717052
 40
0.4998805616083243
 40
0.7521223572818369
 40
1.0
 40
1.0
 40
1.0
 40
1.0
 10
42.75155955553053
 20
-25.34283511340617
 30
0.0
 10
42.7949324712666
 20
-25.31473317334109
 30
0.0
 10
42.88246362101921
 20
-25.25802047412703
 30
0.0
 10
43.0505174896245
 20
-25.23090596281562
 30
0.0
 10
43.21857006021638
 20
-25.25803862060916
 30
0.0
 10
43.30605424333922
 20
-25.31473203872012
 30
0.0
 10
43.34941463172434
 20
-25.34283138811587
 30
0.0
  0
SPLINE
  5
AF
330
1F
100
AcDbEntity
  8
0
  6
Continuous
 62
     1
370
    15
100
AcDbSpline
210
0.0
220
0.0
230
1.0
 70
     8
 71
     3
 72
     9
 73
     5
 74
     0
 42
0.000000001
 43
0.00000001
 40
0.0
 40
0.0
 40
0.0
 40
0.0
 40
0.4996547926127499
 40
1.0
 40
1.0
 40
1.0
 40
1.0
 10
43.34941276907919
 20
-25.34282952547072
 30
0.0
 10
43.37453897972626
 20
-25.35931634750214
 30
0.0
 10
43.42482612000499
 20
-25.39231277278451
 30
0.0
 10
43.48394996389194
 20
-25.39743620718728
 30
0.0
 10
43.51353229582308
 20
-25.39999969303607
 30
0.0
  0
LINE
  5
B0
330
1F
100
AcDbEntity
  8
0
  6
Continuous
 62
     1
370
    15
100
AcDbLine
 10
43.51345406472681
 20
-25.39999969303607
 30
0.0
 11
46.08739310503004
 21
-25.39999969303607
 31
0.0
  0
SPLINE
  5
B1
330
1F
100
AcDbEntity
  8
0
  6
Continuous
 62
     1
370
    15
100
AcDbSpline
210
0.0
220
0.0
230
1.0
 70
     8
 71
     3
 72
     9
 73
     5
 74
     0
 42
0.000000001
 43
0.00000001
 40
0.0
 40
0.0
 40
0.0
 40
0.0
 40
0.500514179394669
 40
1.0
 40
1.0
 40
1.0
 40
1.0
 10
46.08746388554571
 20
-25.39999969303607
 30
0.0
 10
46.11703821000677
 20
-25.39743938867191
 30
0.0
 10
46.1761260953826
 20
-25.392324040357
 30
0.0
 10
46.22641965270224
 20
-25.35933128879866
 30
0.0
 10
46.25154057145118
 20
-25.34285187721252
 30
0.0
  0
SPLINE
  5
B2
330
1F
100
AcDbEntity
  8
0
  6
Continuous
 62
     1
370
    15
100
AcDbSpline
210
0.0
220
0.0
230
1.0
 70
     8
 71
     3
 72
    11
 73
     7
 74
     0
 42
0.000000001
 43
0.00000001
 40
0.0
 40
0.0
 40
0.0
 40
0.0
 40
0.2476927471049708
 40
0.4998817686217344
 40
0.7521277776664191
 40
1.0
 40
1.0
 40
1.0
 40
1.0
 10
46.25153684616088
 20
-25.34285373985767
 30
0.0
 10
46.29491267197991
 20
-25.31474683022293
 30
0.0
 10
46.38245170886839
 20
-25.25802279666552
 30
0.0
 10
46.55051208092645
 20
-25.23090524173399
 30
0.0
 10
46.71856509159769
 20
-25.25803840398647
 30
0.0
 10
46.8060591486646
 20
-25.31473731400171
 30
0.0
 10
46.84942358732221
 20
-25.34283883869647
 30
0.0
  0
SPLINE
  5
B3
330
1F
100
AcDbEntity
  8
0
  6
Continuous
 62
     1
370
    15
100
AcDbSpline
210
0.0
220
0.0
230
1.0
 70
     8
 71
     3
 72
     9
 73
     5
 74
     0
 42
0.000000001
 43
0.00000001
 40
0.0
 40
0.0
 40
0.0
 40
0.0
 40
0.4996568550773213
 40
1.0
 40
1.0
 40
1.0
 40
1.0
 10
46.84941241145132
 20
-25.34282952547072
 30
0.0
 10
46.87453964549179
 20
-25.35931634701318
 30
0.0
 10
46.9248286263896
 20
-25.39231263511556
 30
0.0
 10
46.98394940116746
 20
-25.39743616831963
 30
0.0
 10
47.01353007555006
 20
-25.39999969303607
 30
0.0
  0
LINE
  5
B4
330
1F
100
AcDbEntity
  8
0
  6
Continuous
 62
     1
370
    15
100
AcDbLine
 10
47.01345556974409
 20
-25.39999969303607
 30
0.0
 11
49.58741509914396
 21
-25.39999969303607
 31
0.0
  0
SPLINE
  5
B5
330
1F
100
AcDbEntity
  8
0
  6
Continuous
 62
     1
370
    15
100
AcDbSpline
210
0.0
220
0.0
230
1.0
 70
     8
 71
     3
 72
     9
 73
     5
 74
     0
 42
0.000000001
 43
0.00000001
 40
0.0
 40
0.0
 40
0.0
 40
0.0
 40
0.5005142182039631
 40
1.0
 40
1.0
 40
1.0
 40
1.0
 10
49.58746352791784
 20
-25.39999969303607
 30
0.0
 10
49.61703785142944
 20
-25.39743938940369
 30
0.0
 10
49.67612573032667
 20
-25.39232404294748
 30
0.0
 10
49.72641929390173
 20
-25.35933128880765
 30
0.0
 10
49.7515402138233
 20
-25.34285187721251
 30
0.0
  0
SPLINE
  5
B6
330
1F
100
AcDbEntity
  8
0
  6
Continuous
 62
     1
370
    15
100
AcDbSpline
210
0.0
220
0.0
230
1.0
 70
     8
 71
     3
 72
    10
 73
     6
 74
     0
 42
0.000000001
 43
0.00000001
 40
0.0
 40
0.0
 40
0.0
 40
0.0
 40
0.4764443825653185
 40
0.7345851658871065
 40
0.9999999999999999
 40
0.9999999999999999
 40
0.9999999999999999
 40
0.9999999999999999
 10
49.75155511498451
 20
-25.34284070134162
 30
0.0
 10
49.82806039157322
 20
-25.29778058674977
 30
0.0
 10
49.94601674356452
 20
-25.22830659783603
 30
0.0
 10
50.18919284116285
 20
-25.24432844217478
 30
0.0
 10
50.29437115980414
 20
-25.30871788020767
 30
0.0
 10
50.34769096970557
 20
-25.34135989844798
 30
0.0
  0
SPLINE
  5
B7
330
1F
100
AcDbEntity
  8
0
  6
Continuous
 62
     1
370
    15
100
AcDbSpline
210
0.0
220
0.0
230
1.0
 70
     8
 71
     3
 72
     9
 73
     5
 74
     0
 42
0.000000001
 43
0.00000001
 40
0.0
 40
0.0
 40
0.0
 40
0.0
 40
0.4996554037718618
 40
0.9999999999999999
 40
0.9999999999999999
 40
0.9999999999999999
 40
0.9999999999999999
 10
50.34941205382345
 20
-25.34282952547072
 30
0.0
 10
50.37453902197379
 20
-25.35931634735727
 30
0.0
 10
50.42482761679464
 20
-25.39231273198973
 30
0.0
 10
50.48395125188545
 20
-25.39743619566979
 30
0.0
 10
50.51353344321249
 20
-25.39999969303607
 30
0.0
  0
LINE
  5
B8
330
1F
100
AcDbEntity
  8
0
  6
Continuous
 62
     1
370
    15
100
AcDbLine
 10
50.51345521211622
 20
-25.39999969303607
 30
0.0
 11
52.79682347178457
 21
-25.39999969303607
 31
0.0
  0
LINE
  5
B9
330
1F
100
AcDbEntity
  8
0
  6
Continuous
 62
     1
370
    15
100
AcDbLine
 10
65.80000141263005
 20
24.29999969899655
 30
0.0
 11
64.70000141859052
 21
25.39999969303609
 31
0.0
  0
LINE
  5
BA
330
1F
100
AcDbEntity
  8
0
  6
Continuous
 62
     1
370
    15
100
AcDbLine
 10
64.70000141859052
 20
25.39999969303609
 30
0.0
 11
64.03266409039495
 21
25.39999969303609
 31
0.0
  0
SPLINE
  5
BB
330
1F
100
AcDbEntity
  8
0
  6
Continuous
 62
     4
370
    15
100
AcDbSpline
210
0.0
220
0.0
230
1.0
 70
     8
 71
     3
 72
    10
 73
     6
 74
     0
 42
0.000000001
 43
0.00000001
 40
0.0
 40
0.0
 40
0.0
 40
0.0
 40
0.5
 40
0.5
 40
1.0
 40
1.0
 40
1.0
 40
1.0
 10
14.99999999999998
 20
23.80520878092625
 30
0.0
 10
14.24054748709118
 20
24.04345281422466
 30
0.0
 10
13.48084084153228
 20
24.25585267758992
 30
0.0
 10
11.96830712491962
 20
24.62711551909818
 30
0.0
 10
11.20948859270732
 20
24.78648222479214
 30
0.0
 10
10.4500193111614
 20
24.91882079130688
 30
0.0
  0
SPLINE
  5
BC
330
1F
100
AcDbEntity
  8
0
  6
Continuous
 62
     4
370
    15
100
AcDbSpline
210
0.0
220
0.0
230
1.0
 70
     8
 71
     3
 72
    10
 73
     6
 74
     0
 42
0.000000001
 43
0.00000001
 40
0.0
 40
0.0
 40
0.0
 40
0.0
 40
0.5
 40
0.5
 40
1.0
 40
1.0
 40
1.0
 40
1.0
 10
14.99999999999998
 20
-5.813314106050371
 30
0.0
 10
14.24054748709118
 20
-5.148324287229305
 30
0.0
 10
13.48084084153229
 20
-4.476944939506203
 30
0.0
 10
11.96830712491963
 20
-3.127987690573368
 30
0.0
 10
11.20948859270732
 20
-2.448632255910987
 30
0.0
 10
10.45001931116141
 20
-1.767160519021728
 30
0.0
  0
SPLINE
  5
BD
330
1F
100
AcDbEntity
  8
0
  6
Continuous
 62
     4
370
    15
100
AcDbSpline
210
0.0
220
0.0
230
1.0
 70
     8
 71
     3
 72
    10
 73
     6
 74
     0
 42
0.000000001
 43
0.00000001
 40
0.0
 40
0.0
 40
0.0
 40
0.0
 40
0.5
 40
0.5
 40
1.0
 40
1.0
 40
1.0
 40
1.0
 10
14.99999999999998
 20
-19.57424216686948
 30
0.0
 10
14.24054748709118
 20
-19.13890803750634
 30
0.0
 10
13.48084084153229
 20
-18.68225475499136
 30
0.0
 10
11.96830712491962
 20
-17.73092785322128
 30
0.0
 10
11.20948859270732
 20
-17.23500950052394
 30
0.0
 10
10.4500193111614
 20
-16.72078080645444
 30
0.0
  0
LINE
  5
BE
330
1F
100
AcDbEntity
  8
0
  6
Continuous
 62
     4
370
    15
100
AcDbLine
 10
10.45001930184661
 20
-16.72077924013137
 30
0.0
 11
10.45001930184661
 21
-25.39999969303607
 31
0.0
  0
SPLINE
  5
BF
330
1F
100
AcDbEntity
  8
0
  6
Continuous
 62
     4
370
    15
100
AcDbSpline
210
0.0
220
0.0
230
1.0
 70
     8
 71
     3
 72
     9
 73
     5
 74
     0
 42
0.000000001
 43
0.00000001
 40
0.0
 40
0.0
 40
0.0
 40
0.0
 40
0.4511550102790586
 40
1.0
 40
1.0
 40
1.0
 40
1.0
 10
14.09822404535952
 20
-19.03523877263068
 30
0.0
 10
13.54960181911378
 20
-19.36395225069228
 30
0.0
 10
12.33356251167843
 20
-20.0925565453853
 30
0.0
 10
11.11746714879051
 20
-20.71728440145508
 30
0.0
 10
10.45001930184661
 20
-21.06016315519809
 30
0.0
  0
LINE
  5
C0
330
1F
100
AcDbEntity
  8
0
  6
Continuous
 62
     4
370
    15
100
AcDbLine
 10
-79.24999898672105
 20
22.86
 30
0.0
 11
-79.24999898672105
 21
-25.39999969303607
 31
0.0
  0
LINE
  5
C1
330
1F
100
AcDbEntity
  8
0
  6
Continuous
 62
     4
370
    15
100
AcDbLine
 10
15.00000004749744
 20
25.39999969303609
 30
0.0
 11
15.00000004749744
 21
23.80520850419999
 31
0.0
  0
LINE
  5
C2
330
1F
100
AcDbEntity
  8
0
  6
Continuous
 62
     1
370
    15
100
AcDbLine
 10
15.00000004749744
 20
-5.813314113765944
 30
0.0
 11
15.00000004749744
 21
-19.57424171268939
 31
0.0
  0
LINE
  5
C3
330
1F
100
AcDbEntity
  8
0
  6
Continuous
 62
     4
370
    15
100
AcDbLine
 10
10.45001930184661
 20
24.91882070899011
 30
0.0
 11
10.45001930184661
 21
-1.76715909037738
 31
0.0
  0
LINE
  5
C4
330
1F
100
AcDbEntity
  8
0
  6
Continuous
 62
     4
370
    15
100
AcDbLine
 10
-80.25000101327898
 20
22.86
 30
0.0
 11
-80.25000101327898
 21
-24.3999995291233
 31
0.0
  0
SPLINE
  5
C5
330
1F
100
AcDbEntity
  8
0
  6
Continuous
 62
     1
370
    15
100
AcDbSpline
210
0.0
220
0.0
230
1.0
 70
    24
 71
     3
 72
    22
 73
    18
 74
     0
 42
0.000000001
 43
0.00000001
 40
0.0
 40
0.0
 40
0.0
 40
0.0
 40
0.125
 40
0.125
 40
0.2499999999999999
 40
0.2499999999999999
 40
0.3749999999999999
 40
0.3749999999999999
 40
0.4999999999999998
 40
0.4999999999999998
 40
0.6249999999999998
 40
0.6249999999999998
 40
0.7499999999999999
 40
0.7499999999999999
 40
0.875
 40
0.875
 40
1.0
 40
1.0
 40
1.0
 40
1.0
 10
14.99999999999999
 20
23.80520878092625
 30
0.0
 10
14.99999999999999
 20
22.81130120702984
 30
0.0
 10
14.99999999999999
 20
21.74656472376797
 30
0.0
 10
14.99999999999999
 20
19.473530060055
 30
0.0
 10
14.99999999999999
 20
18.2649760097409
 30
0.0
 10
14.99999999999999
 20
15.71713340284004
 30
0.0
 10
14.99999999999999
 20
14.37756689385085
 30
0.0
 10
14.99999999999999
 20
11.60387744929428
 30
0.0
 10
14.99999999999999
 20
10.16957114289825
 30
0.0
 10
14.99999999999999
 20
7.273391658128873
 30
0.0
 10
14.99999999999999
 20
5.811620490746138
 30
0.0
 10
14.99999999999999
 20
2.960322594506943
 30
0.0
 10
15.0
 20
1.571360677319841
 30
0.0
 10
15.0
 20
-1.011108079971203
 30
0.0
 10
15.0
 20
-2.203613048864429
 30
0.0
 10
15.0
 20
-4.270478964527647
 30
0.0
 10
15.0
 20
-5.143772694955063
 30
0.0
 10
15.0
 20
-5.813314106050375
 30
0.0
  0
SPLINE
  5
C6
330
1F
100
AcDbEntity
  8
0
  6
Continuous
 62
     1
370
    15
100
AcDbSpline
210
0.0
220
0.0
230
1.0
 70
     8
 71
     3
 72
    14
 73
    10
 74
     0
 42
0.000000001
 43
0.00000001
 40
0.0000000000000002
 40
0.0000000000000002
 40
0.0000000000000002
 40
0.0000000000000002
 40
0.0000698239483058
 40
0.0000698239483058
 40
0.0000698239483058
 40
0.0001463538729408
 40
0.0001463538729408
 40
0.0001463538729408
 40
0.0002250975423228
 40
0.0002250975423228
 40
0.0002250975423228
 40
0.0002250975423228
 10
55.99893231487107
 20
-6.001851318358567
 30
0.0
 10
55.98445233647951
 20
-5.990456383063574
 30
0.0
 10
55.96907175820502
 20
-5.978063837533545
 30
0.0
 10
55.95319811828158
 20
-5.965031735456167
 30
0.0
 10
55.93580350433179
 20
-5.950750928679418
 30
0.0
 10
55.9176852882197
 20
-5.93559438913971
 30
0.0
 10
55.89925455257979
 20
-5.919927598806173
 30
0.0
 10
55.88029185986036
 20
-5.903808625760326
 30
0.0
 10
55.86085891805889
 20
-5.887031096648434
 30
0.0
 10
55.84135601288801
 20
-5.869950104171687
 30
0.0
  0
SPLINE
  5
C7
330
1F
100
AcDbEntity
  8
0
  6
Continuous
 62
     1
370
    15
100
AcDbSpline
210
0.0
220
0.0
230
1.0
 70
     8
 71
     3
 72
    18
 73
    14
 74
     0
 42
0.000000001
 43
0.00000001
 40
0.0
 40
0.0
 40
0.0
 40
0.0
 40
0.1249999999999999
 40
0.1249999999999999
 40
0.2499999999999999
 40
0.2499999999999999
 40
0.4999999999999997
 40
0.4999999999999997
 40
0.7499999999999997
 40
0.7499999999999997
 40
0.8749999999999998
 40
0.8749999999999998
 40
1.0
 40
1.0
 40
1.0
 40
1.0
 10
55.84135601288656
 20
-5.869950104170387
 30
0.0
 10
55.82618146733265
 20
-5.190446660655513
 30
0.0
 10
55.81135908323878
 20
-4.509572873948327
 30
0.0
 10
55.78136587179474
 20
-3.134030331886815
 30
0.0
 10
55.76614529019802
 20
-2.438555057001428
 30
0.0
 10
55.72003298989014
 20
-0.3393201456293513
 30
0.0
 10
55.68868875478892
 20
1.077283304613398
 30
0.0
 10
55.62607819274351
 20
3.886349895474584
 30
0.0
 10
55.59481782224628
 20
5.278546288667392
 30
0.0
 10
55.54894864105636
 20
7.306204400717657
 30
0.0
 10
55.53382847462068
 20
7.972027564290806
 30
0.0
 10
55.50407151306048
 20
9.277334316470203
 30
0.0
 10
55.48900785407487
 20
9.923015444316396
 30
0.0
 10
55.47374010836592
 20
10.5595006782389
 30
0.0
  0
SPLINE
  5
C8
330
1F
100
AcDbEntity
  8
0
  6
Continuous
 62
     1
370
    15
100
AcDbSpline
210
0.0
220
0.0
230
1.0
 70
     8
 71
     3
 72
    14
 73
    10
 74
     0
 42
0.000000001
 43
0.00000001
 40
0.0000000000000031
 40
0.0000000000000031
 40
0.0000000000000031
 40
0.0000000000000031
 40
0.000074203283895
 40
0.000074203283895
 40
0.000074203283895
 40
0.0001439363493806
 40
0.0001439363493806
 40
0.0001439363493806
 40
0.0002162186047866
 40
0.0002162186047866
 40
0.0002162186047866
 40
0.0002162186047866
 10
55.47374010836808
 20
10.5595006782368
 30
0.0
 10
55.49212691590866
 20
10.54445372959278
 30
0.0
 10
55.5107023856587
 20
10.528657315629
 30
0.0
 10
55.52909675128575
 20
10.51239328240681
 30
0.0
 10
55.54638198624156
 20
10.49710992655345
 30
0.0
 10
55.56363005383377
 20
10.48130470326251
 30
0.0
 10
55.58043460222436
 20
10.46528458148727
 30
0.0
 10
55.59783025336569
 20
10.44870094929638
 30
0.0
 10
55.61492165861567
 20
10.43172186572736
 30
0.0
 10
55.63102275630143
 20
10.41489117776865
 30
0.0
  0
SPLINE
  5
C9
330
1F
100
AcDbEntity
  8
0
  6
Continuous
 62
     1
370
    15
100
AcDbSpline
210
0.0
220
0.0
230
1.0
 70
     8
 71
     3
 72
    18
 73
    14
 74
     0
 42
0.000000001
 43
0.00000001
 40
0.0
 40
0.0
 40
0.0
 40
0.0
 40
0.1250000000000001
 40
0.1250000000000001
 40
0.2500000000000001
 40
0.2500000000000001
 40
0.5000000000000001
 40
0.5000000000000001
 40
0.7500000000000002
 40
0.7500000000000002
 40
0.8750000000000001
 40
0.8750000000000001
 40
1.0
 40
1.0
 40
1.0
 40
1.0
 10
55.99893231487127
 20
-6.001851318358574
 30
0.0
 10
55.98371800959108
 20
-5.323760482459401
 30
0.0
 10
55.96883438547396
 20
-4.643783242249399
 30
0.0
 10
55.93887931047936
 20
-3.272157260526374
 30
0.0
 10
55.92367247950673
 20
-2.57841195617779
 30
0.0
 10
55.87758470792375
 20
-0.4836363317712051
 30
0.0
 10
55.84623432795627
 20
0.9309772672578814
 30
0.0
 10
55.78356694643968
 20
3.73807308953798
 30
0.0
 10
55.75225592903507
 20
5.13028749294402
 30
0.0
 10
55.70628226066584
 20
7.159309862272811
 30
0.0
 10
55.69112255685349
 20
7.825808654912018
 30
0.0
 10
55.66127835558226
 20
9.13286021262729
 30
0.0
 10
55.64628070857
 20
9.777988404806457
 30
0.0
 10
55.63102275630219
 20
10.41489117776802
 30
0.0
  0
LWPOLYLINE
  5
CA
330
1F
100
AcDbEntity
  8
0
  6
Continuous
 62
     1
370
    15
100
AcDbPolyline
 90
        3
 70
   128
 43
0.0
 10
56.78528690338133
 20
-6.693921517580737
 10
56.78567060828207
 20
-6.694256328046311
 10
56.78597608208654
 20
-6.69451942667364
  0
SPLINE
  5
CB
330
1F
100
AcDbEntity
  8
0
  6
Continuous
 62
     1
370
    15
100
AcDbSpline
210
0.0
220
0.0
230
1.0
 70
     8
 71
     3
 72
    14
 73
    10
 74
     0
 42
0.000000001
 43
0.00000001
 40
0.0000009226237737
 40
0.0000009226237737
 40
0.0000009226237737
 40
0.0000009226237737
 40
0.0000743547468525
 40
0.0000743547468525
 40
0.0000743547468525
 40
0.0001441128554721
 40
0.0001441128554721
 40
0.0001441128554721
 40
0.0002164159085227
 40
0.0002164159085227
 40
0.0002164159085227
 40
0.0002164159085227
 10
56.78528704764688
 20
-6.693921124738883
 30
0.0
 10
56.7671072572703
 20
-6.678097780895192
 30
0.0
 10
56.74874580616848
 20
-6.661842207713932
 30
0.0
 10
56.73055962408729
 20
-6.645462364346855
 30
0.0
 10
56.71328419052379
 20
-6.629902809592296
 30
0.0
 10
56.69604501999719
 20
-6.614121165241574
 30
0.0
 10
56.67924746706151
 20
-6.598465578148582
 30
0.0
 10
56.66186029042437
 20
-6.582260452367096
 30
0.0
 10
56.64477561374806
 20
-6.566030429075715
 30
0.0
 10
56.62867858754009
 20
-6.550372898868778
 30
0.0
  0
SPLINE
  5
CC
330
1F
100
AcDbEntity
  8
0
  6
Continuous
 62
     1
370
    15
100
AcDbSpline
210
0.0
220
0.0
230
1.0
 70
     8
 71
     3
 72
    18
 73
    14
 74
     0
 42
0.000000001
 43
0.00000001
 40
0.0
 40
0.0
 40
0.0
 40
0.0
 40
0.1249999999999999
 40
0.1249999999999999
 40
0.25
 40
0.25
 40
0.5
 40
0.5
 40
0.75
 40
0.75
 40
0.875
 40
0.875
 40
1.0
 40
1.0
 40
1.0
 40
1.0
 10
56.62867858753994
 20
-6.55037289886856
 30
0.0
 10
56.61336853433654
 20
-5.874746779263494
 30
0.0
 10
56.59822658853427
 20
-5.194096105538759
 30
0.0
 10
56.56842382601053
 20
-3.829924889387298
 30
0.0
 10
56.55337564315127
 20
-3.14055523588661
 30
0.0
 10
56.50755690592526
 20
-1.053867190127637
 30
0.0
 10
56.47630305481782
 20
0.3591835339815626
 30
0.0
 10
56.41365006947776
 20
3.171171121935733
 30
0.0
 10
56.38225691005901
 20
4.569839005817976
 30
0.0
 10
56.33603434538887
 20
6.614011139106654
 30
0.0
 10
56.32077092001863
 20
7.28646302070009
 30
0.0
 10
56.29068121913366
 20
8.607047572348572
 30
0.0
 10
56.27588575416081
 20
9.25483295266597
 30
0.0
 10
56.26073018075575
 20
9.896544610865023
 30
0.0
  0
SPLINE
  5
CD
330
1F
100
AcDbEntity
  8
0
  6
Continuous
 62
     1
370
    15
100
AcDbSpline
210
0.0
220
0.0
230
1.0
 70
     8
 71
     3
 72
    14
 73
    10
 74
     0
 42
0.000000001
 43
0.00000001
 40
0.0
 40
0.0
 40
0.0
 40
0.0
 40
0.0000698372922036
 40
0.0000698372922036
 40
0.0000698372922036
 40
0.000146391540767
 40
0.000146391540767
 40
0.000146391540767
 40
0.0002251591008852
 40
0.0002251591008852
 40
0.0002251591008852
 40
0.0002251591008852
 10
56.26073018075578
 20
9.896544610864645
 30
0.0
 10
56.27521041487776
 20
9.8875877079968
 30
0.0
 10
56.29059075617911
 20
9.877387198212258
 30
0.0
 10
56.30646337577534
 20
9.866285141692599
 30
0.0
 10
56.32385908134945
 20
9.854117767220314
 30
0.0
 10
56.34197759797186
 20
9.840776033750586
 30
0.0
 10
56.36040765256092
 20
9.826606846325152
 30
0.0
 10
56.37936940056606
 20
9.81202888834351
 30
0.0
 10
56.39880026470675
 20
9.796468085800395
 30
0.0
 10
56.41830020413747
 20
9.780251413293183
 30
0.0
  0
SPLINE
  5
CE
330
1F
100
AcDbEntity
  8
0
  6
Continuous
 62
     1
370
    15
100
AcDbSpline
210
0.0
220
0.0
230
1.0
 70
     8
 71
     3
 72
    18
 73
    14
 74
     0
 42
0.000000001
 43
0.00000001
 40
0.0
 40
0.0
 40
0.0
 40
0.0
 40
0.125
 40
0.125
 40
0.2499999999999999
 40
0.2499999999999999
 40
0.5
 40
0.5
 40
0.75
 40
0.75
 40
0.875
 40
0.875
 40
1.0
 40
1.0
 40
1.0
 40
1.0
 10
56.78597446594443
 20
-6.694519310146467
 30
0.0
 10
56.77065622999167
 20
-6.01870824557216
 30
0.0
 10
56.75550094272843
 20
-5.337638149247211
 30
0.0
 10
56.72566167942686
 20
-3.972163408142162
 30
0.0
 10
56.71070140608733
 20
-3.283594268560162
 30
0.0
 10
56.66499199611144
 20
-1.196491239012208
 30
0.0
 10
56.63379231837188
 20
0.2177699926132242
 30
0.0
 10
56.57120335500651
 20
3.03418231523636
 30
0.0
 10
56.53982001188226
 20
4.436064923355732
 30
0.0
 10
56.49357815763245
 20
6.486460640253546
 30
0.0
 10
56.47830268343473
 20
7.161218436479171
 30
0.0
 10
56.44817810497548
 20
8.486836373990018
 30
0.0
 10
56.43341431281365
 20
9.136553441880983
 30
0.0
 10
56.41830020413848
 20
9.780251413292259
 30
0.0
  0
SPLINE
  5
CF
330
1F
100
AcDbEntity
  8
0
  6
Continuous
 62
     1
370
    15
100
AcDbSpline
210
0.0
220
0.0
230
1.0
 70
     8
 71
     3
 72
     8
 73
     4
 74
     0
 42
0.000000001
 43
0.00000001
 40
0.0
 40
0.0
 40
0.0
 40
0.0
 40
1.0
 40
1.0
 40
1.0
 40
1.0
 10
55.84135601288654
 20
-5.869950104170411
 30
0.0
 10
54.96693122496544
 20
-5.104113266370987
 30
0.0
 10
54.09008774215332
 20
-4.329098918869769
 30
0.0
 10
53.21649841263911
 20
-3.549927822601139
 30
0.0
  0
SPLINE
  5
D0
330
1F
100
AcDbEntity
  8
0
  6
Continuous
 62
     1
370
    15
100
AcDbSpline
210
0.0
220
0.0
230
1.0
 70
     8
 71
     3
 72
    16
 73
    12
 74
     0
 42
0.000000001
 43
0.00000001
 40
0.0
 40
0.0
 40
0.0
 40
0.0
 40
0.2500000000000001
 40
0.2500000000000001
 40
0.5000000000000002
 40
0.5000000000000002
 40
0.6250000000000002
 40
0.6250000000000002
 40
0.7500000000000003
 40
0.7500000000000003
 40
1.0
 40
1.0
 40
1.0
 40
1.0
 10
53.21649841263911
 20
-3.549927822601092
 30
0.0
 10
53.18642735288062
 20
-2.172165140284049
 30
0.0
 10
53.15549506177512
 20
-0.7652425046668255
 30
0.0
 10
53.0931367508102
 20
2.050305674313084
 30
0.0
 10
53.06171653659386
 20
3.458666231486294
 30
0.0
 10
53.01519520307576
 20
5.528662693229755
 30
0.0
 10
52.99978954106452
 20
6.211586408519275
 30
0.0
 10
52.96933498254466
 20
7.556555317415776
 30
0.0
 10
52.95436336133255
 20
8.217484579122342
 30
0.0
 10
52.90969722353006
 20
10.16697313074982
 30
0.0
 10
52.87896629150051
 20
11.44047011427717
 30
0.0
 10
52.84788290732509
 20
12.66005442038494
 30
0.0
  0
SPLINE
  5
D1
330
1F
100
AcDbEntity
  8
0
  6
Continuous
 62
     1
370
    15
100
AcDbSpline
210
0.0
220
0.0
230
1.0
 70
     8
 71
     3
 72
     8
 73
     4
 74
     0
 42
0.000000001
 43
0.00000001
 40
0.0
 40
0.0
 40
0.0
 40
0.0
 40
1.0
 40
1.0
 40
1.0
 40
1.0
 10
55.47374010836535
 20
10.55950067823825
 30
0.0
 10
54.59818590101224
 20
11.27601544916704
 30
0.0
 10
53.721007221085
 20
11.97769937608358
 30
0.0
 10
52.84788290732506
 20
12.66005442038481
 30
0.0
  0
SPLINE
  5
D2
330
1F
100
AcDbEntity
  8
0
  6
Continuous
 62
     1
370
    15
100
AcDbSpline
210
0.0
220
0.0
230
1.0
 70
     8
 71
     3
 72
     8
 73
     4
 74
     0
 42
0.000000001
 43
0.00000001
 40
0.0
 40
0.0
 40
0.0
 40
0.0
 40
1.0
 40
1.0
 40
1.0
 40
1.0
 10
59.4119433989988
 20
-8.9430898381499
 30
0.0
 10
58.53531478009415
 20
-8.205041452254358
 30
0.0
 10
57.65914454960286
 20
-7.45417863062158
 30
0.0
 10
56.78597446594427
 20
-6.694519310146328
 30
0.0
  0
SPLINE
  5
D3
330
1F
100
AcDbEntity
  8
0
  6
Continuous
 62
     1
370
    15
100
AcDbSpline
210
0.0
220
0.0
230
1.0
 70
     8
 71
     3
 72
     8
 73
     4
 74
     0
 42
0.000000001
 43
0.00000001
 40
0.0
 40
0.0
 40
0.0
 40
0.0
 40
1.0
 40
1.0
 40
1.0
 40
1.0
 10
59.04318987652366
 20
7.559141034191325
 30
0.0
 10
58.16646753260039
 20
8.312008162332159
 30
0.0
 10
57.29265946996012
 20
9.053110802527513
 30
0.0
 10
56.4183002041381
 20
9.780251413291406
 30
0.0
  0
SPLINE
  5
D4
330
1F
100
AcDbEntity
  8
0
  6
Continuous
 62
     1
370
    15
100
AcDbSpline
210
0.0
220
0.0
230
1.0
 70
     8
 71
     3
 72
    16
 73
    12
 74
     0
 42
0.000000001
 43
0.00000001
 40
0.0
 40
0.0
 40
0.0
 40
0.0
 40
0.25
 40
0.25
 40
0.375
 40
0.375
 40
0.5
 40
0.5
 40
0.75
 40
0.75
 40
1.0
 40
1.0
 40
1.0
 40
1.0
 10
59.41194339899339
 20
-8.943089838155535
 30
0.0
 10
59.3808185092588
 20
-7.626004382815612
 30
0.0
 10
59.34999714315308
 20
-6.271871662278435
 30
0.0
 10
59.30513099260836
 20
-4.228022376623057
 30
0.0
 10
59.29030262131988
 20
-3.543167991401675
 30
0.0
 10
59.25996649069777
 20
-2.156727865682169
 30
0.0
 10
59.24460888579841
 20
-1.457405538651795
 30
0.0
 10
59.19819584432298
 20
0.6483176373745237
 30
0.0
 10
59.16679955136464
 20
2.06244934039707
 30
0.0
 10
59.10438939920881
 20
4.853027397926906
 30
0.0
 10
59.07338138211961
 20
6.229214801883013
 30
0.0
 10
59.04318987652346
 20
7.559141034191454
 30
0.0
  0
SPLINE
  5
D5
330
1F
100
AcDbEntity
  8
0
  6
Continuous
 62
     1
370
    15
100
AcDbSpline
210
0.0
220
0.0
230
1.0
 70
     8
 71
     3
 72
    12
 73
     8
 74
     0
 42
0.000000001
 43
0.00000001
 40
0.0
 40
0.0
 40
0.0
 40
0.0
 40
0.4999999999999991
 40
0.4999999999999991
 40
0.7499999999999996
 40
0.7499999999999996
 40
1.0
 40
1.0
 40
1.0
 40
1.0
 10
56.62867858753994
 20
-6.550372898868627
 30
0.0
 10
56.52906356566363
 20
-6.453477659093243
 30
0.0
 10
56.41622462442277
 20
-6.352156537160218
 30
0.0
 10
56.2527381896587
 20
-6.210625609317013
 30
0.0
 10
56.19802861959514
 20
-6.164254689693259
 30
0.0
 10
56.09446529999452
 20
-6.078266723673855
 30
0.0
 10
56.04516569168472
 20
-6.038234406993887
 30
0.0
 10
55.99893231487127
 20
-6.001851318358531
 30
0.0
  0
SPLINE
  5
D6
330
1F
100
AcDbEntity
  8
0
  6
Continuous
 62
     1
370
    15
100
AcDbSpline
210
0.0
220
0.0
230
1.0
 70
     8
 71
     3
 72
    12
 73
     8
 74
     0
 42
0.000000001
 43
0.00000001
 40
0.0
 40
0.0
 40
0.0
 40
0.0
 40
0.4999999999999999
 40
0.4999999999999999
 40
0.7499999999999999
 40
0.7499999999999999
 40
1.0
 40
1.0
 40
1.0
 40
1.0
 10
55.63102275630219
 20
10.41489117776789
 30
0.0
 10
55.73066357555303
 20
10.31073532644068
 30
0.0
 10
55.84353251489232
 20
10.20991746970837
 30
0.0
 10
56.00701342722044
 20
10.07653989065913
 30
0.0
 10
56.06171257003128
 20
10.03425735116198
 30
0.0
 10
56.16524189590917
 20
9.958770079108549
 30
0.0
 10
56.21451963959878
 20
9.925128632720003
 30
0.0
 10
56.26073018075575
 20
9.896544610864623
 30
0.0
  0
SPLINE
  5
D7
330
1F
100
AcDbEntity
  8
0
  6
Continuous
 62
     1
370
    15
100
AcDbSpline
210
0.0
220
0.0
230
1.0
 70
     8
 71
     3
 72
    14
 73
    10
 74
     0
 42
0.000000001
 43
0.00000001
 40
0.0000000000000002
 40
0.0000000000000002
 40
0.0000000000000002
 40
0.0000000000000002
 40
0.000069816520442
 40
0.000069816520442
 40
0.000069816520442
 40
0.0001463471783823
 40
0.0001463471783823
 40
0.0001463471783823
 40
0.00022509186167
 40
0.00022509186167
 40
0.00022509186167
 40
0.00022509186167
 10
59.56957513542027
 20
-9.062939312061923
 30
0.0
 10
59.5550907058211
 20
-9.053438063044469
 30
0.0
 10
59.53970555891274
 20
-9.042745666041181
 30
0.0
 10
59.52382741075866
 20
-9.031208017858054
 30
0.0
 10
59.50642585003354
 20
-9.018563401903139
 30
0.0
 10
59.48830055554669
 20
-9.004808384195695
 30
0.0
 10
59.46986291324052
 20
-8.990294377128581
 30
0.0
 10
59.45089304573757
 20
-8.975361405416264
 30
0.0
 10
59.43145304351255
 20
-8.959515336168353
 30
0.0
 10
59.41194339899455
 20
-8.94308983814633
 30
0.0
  0
SPLINE
  5
D8
330
1F
100
AcDbEntity
  8
0
  6
Continuous
 62
     1
370
    15
100
AcDbSpline
210
0.0
220
0.0
230
1.0
 70
     8
 71
     3
 72
    14
 73
    10
 74
     0
 42
0.000000001
 43
0.00000001
 40
0.0000000000000023
 40
0.0000000000000023
 40
0.0000000000000023
 40
0.0000000000000023
 40
0.0000741572247466
 40
0.0000741572247466
 40
0.0000741572247466
 40
0.0001438821342007
 40
0.0001438821342007
 40
0.0001438821342007
 40
0.0002161581086343
 40
0.0002161581086343
 40
0.0002161581086343
 40
0.0002161581086343
 10
59.0431898765256
 20
7.559141034190501
 30
0.0
 10
59.06156812138425
 20
7.543359097613942
 30
0.0
 10
59.08013515676141
 20
7.52706417204436
 30
0.0
 10
59.09852139866733
 20
7.510567095597412
 30
0.0
 10
59.115807650854
 20
7.495056986176262
 30
0.0
 10
59.1330569397023
 20
7.479257749658708
 30
0.0
 10
59.14986253006654
 20
7.463509729127625
 30
0.0
 10
59.1672597672392
 20
7.447207293911631
 30
0.0
 10
59.18435268055248
 20
7.430798167418329
 30
0.0
 10
59.20045465074025
 20
7.414869644168912
 30
0.0
  0
SPLINE
  5
D9
330
1F
100
AcDbEntity
  8
0
  6
Continuous
 62
     1
370
    15
100
AcDbSpline
210
0.0
220
0.0
230
1.0
 70
     8
 71
     3
 72
    16
 73
    12
 74
     0
 42
0.000000001
 43
0.00000001
 40
0.0
 40
0.0
 40
0.0
 40
0.0
 40
0.2499999999999998
 40
0.2499999999999998
 40
0.3749999999999998
 40
0.3749999999999998
 40
0.4999999999999999
 40
0.4999999999999999
 40
0.7499999999999999
 40
0.7499999999999999
 40
1.0
 40
1.0
 40
1.0
 40
1.0
 10
59.56957513542046
 20
-9.062939312061843
 30
0.0
 10
59.5384069135029
 20
-7.75027474481708
 30
0.0
 10
59.50751985588083
 20
-6.399589465373439
 30
0.0
 10
59.46252788374695
 20
-4.359433799959884
 30
0.0
 10
59.44773083414805
 20
-3.676749532929025
 30
0.0
 10
59.41742437602159
 20
-2.293878622623984
 30
0.0
 10
59.40207632061006
 20
-1.596111971531646
 30
0.0
 10
59.35567551665933
 20
0.5056673847455473
 30
0.0
 10
59.32426530885924
 20
1.918142694549353
 30
0.0
 10
59.26178474774243
 20
4.707348996997943
 30
0.0
 10
59.23072027386996
 20
6.083819546515164
 30
0.0
 10
59.20045465074097
 20
7.414869644168508
 30
0.0
  0
SPLINE
  5
DA
330
1F
100
AcDbEntity
  8
0
  6
Continuous
 62
     1
370
    15
100
AcDbSpline
210
0.0
220
0.0
230
1.0
 70
     8
 71
     3
 72
    14
 73
    10
 74
     0
 42
0.000000001
 43
0.00000001
 40
0.0000000000000004
 40
0.0000000000000004
 40
0.0000000000000004
 40
0.0000000000000004
 40
0.0000742558060293
 40
0.0000742558060293
 40
0.0000742558060293
 40
0.0001440001279585
 40
0.0001440001279585
 40
0.0001440001279585
 40
0.0002162912501088
 40
0.0002162912501088
 40
0.0002162912501088
 40
0.0002162912501088
 10
53.21649841263864
 20
-3.549927822601128
 30
0.0
 10
53.19810739476818
 20
-3.533524520647355
 30
0.0
 10
53.17952780730462
 20
-3.516920249799673
 30
0.0
 10
53.16112951255946
 20
-3.500456727416783
 30
0.0
 10
53.14384995655105
 20
-3.484994296737651
 30
0.0
 10
53.12660769692364
 20
-3.469546316170906
 30
0.0
 10
53.10980849327267
 20
-3.45448738770239
 30
0.0
 10
53.09241902266788
 20
-3.438899339638717
 30
0.0
 10
53.07533349027808
 20
-3.423575107933052
 30
0.0
 10
53.05923702519116
 20
-3.409143395976216
 30
0.0
  0
SPLINE
  5
DB
330
1F
100
AcDbEntity
  8
0
  6
Continuous
 62
     1
370
    15
100
AcDbSpline
210
0.0
220
0.0
230
1.0
 70
     8
 71
     3
 72
    16
 73
    12
 74
     0
 42
0.000000001
 43
0.00000001
 40
0.0
 40
0.0
 40
0.0
 40
0.0
 40
0.2499999999999999
 40
0.2499999999999999
 40
0.4999999999999997
 40
0.4999999999999997
 40
0.6249999999999998
 40
0.6249999999999998
 40
0.7499999999999997
 40
0.7499999999999997
 40
1.0
 40
1.0
 40
1.0
 40
1.0
 10
53.05923702519102
 20
-3.409143395976098
 30
0.0
 10
53.0290889364552
 20
-2.03141239235145
 30
0.0
 10
52.99809700138806
 20
-0.625411351958559
 30
0.0
 10
52.93566175314956
 20
2.186340976812585
 30
0.0
 10
52.90422428708678
 20
3.591826335186262
 30
0.0
 10
52.85771041748882
 20
5.656109992434394
 30
0.0
 10
52.84231275245844
 20
6.33689825593941
 30
0.0
 10
52.81188489079844
 20
7.67716917859819
 30
0.0
 10
52.79697362878936
 20
8.334946672902213
 30
0.0
 10
52.75217717907724
 20
10.27904422743257
 30
0.0
 10
52.72137724208147
 20
11.54797753143906
 30
0.0
 10
52.69024709326469
 20
12.76208755371875
 30
0.0
  0
SPLINE
  5
DC
330
1F
100
AcDbEntity
  8
0
  6
Continuous
 62
     1
370
    15
100
AcDbSpline
210
0.0
220
0.0
230
1.0
 70
     8
 71
     3
 72
    14
 73
    10
 74
     0
 42
0.000000001
 43
0.00000001
 40
0.0
 40
0.0
 40
0.0
 40
0.0
 40
0.0000699367159474
 40
0.0000699367159474
 40
0.0000699367159474
 40
0.0001465204835848
 40
0.0001465204835848
 40
0.0001465204835848
 40
0.0002253137111493
 40
0.0002253137111493
 40
0.0002253137111493
 40
0.0002253137111493
 10
52.69024709326471
 20
12.76208755371866
 30
0.0
 10
52.70474405676417
 20
12.75518317258097
 30
0.0
 10
52.72014215346916
 20
12.74686462227678
 30
0.0
 10
52.73603326876749
 20
12.73745619100209
 30
0.0
 10
52.75343132148263
 20
12.72715556828236
 30
0.0
 10
52.77155168994484
 20
12.71547148218041
 30
0.0
 10
52.78998421635617
 20
12.70272945844082
 30
0.0
 10
52.80894736277361
 20
12.68962062808104
 30
0.0
 10
52.82837998037196
 20
12.67529614527657
 30
0.0
 10
52.84788290732408
 20
12.6600544203874
 30
0.0
  0
SPLINE
  5
DD
330
1F
100
AcDbEntity
  8
0
  6
Continuous
 62
     1
370
    15
100
AcDbSpline
210
0.0
220
0.0
230
1.0
 70
     8
 71
     3
 72
    14
 73
    10
 74
     0
 42
0.000000001
 43
0.00000001
 40
0.0000000000000002
 40
0.0000000000000002
 40
0.0000000000000002
 40
0.0000000000000002
 40
0.0000742779531346
 40
0.0000742779531346
 40
0.0000742779531346
 40
0.0001440227341949
 40
0.0001440227341949
 40
0.0001440227341949
 40
0.0002163148476532
 40
0.0002163148476532
 40
0.0002163148476532
 40
0.0002163148476532
 10
60.35683684805462
 20
-9.733723631939466
 30
0.0
 10
60.33843610731165
 20
-9.718422194041782
 30
0.0
 10
60.31984595756315
 20
-9.702436211323404
 30
0.0
 10
60.30143646590713
 20
-9.686056456889903
 30
0.0
 10
60.28415142438728
 20
-9.670677176421002
 30
0.0
 10
60.26690300629304
 20
-9.654841291502908
 30
0.0
 10
60.2500972395949
 20
-9.638865231956144
 30
0.0
 10
60.23270087984961
 20
-9.622327737167618
 30
0.0
 10
60.21560791604362
 20
-9.60547571154855
 30
0.0
 10
60.19950430955401
 20
-9.588865669247953
 30
0.0
  0
SPLINE
  5
DE
330
1F
100
AcDbEntity
  8
0
  6
Continuous
 62
     1
370
    15
100
AcDbSpline
210
0.0
220
0.0
230
1.0
 70
     8
 71
     3
 72
    16
 73
    12
 74
     0
 42
0.000000001
 43
0.00000001
 40
0.0
 40
0.0
 40
0.0
 40
0.0
 40
0.2500000000000001
 40
0.2500000000000001
 40
0.375
 40
0.375
 40
0.5
 40
0.5
 40
0.75
 40
0.75
 40
1.0
 40
1.0
 40
1.0
 40
1.0
 10
60.19950430955384
 20
-9.588865669247763
 30
0.0
 10
60.16828265838228
 20
-8.287243864468808
 30
0.0
 10
60.1372546212974
 20
-6.94385643096868
 30
0.0
 10
60.09193400544532
 20
-4.908838723645811
 30
0.0
 10
60.07718075251543
 20
-4.229509703369295
 30
0.0
 10
60.04710239682881
 20
-2.854309180630286
 30
0.0
 10
60.03184904949408
 20
-2.159474278491365
 30
0.0
 10
59.98566960771614
 20
-0.0636055408186344
 30
0.0
 10
59.95432252656271
 20
1.348810210199971
 30
0.0
 10
59.89179091760322
 20
4.145810435198505
 30
0.0
 10
59.86061230600106
 20
5.53013126581134
 30
0.0
 10
59.83015162664379
 20
6.872531059409629
 30
0.0
  0
SPLINE
  5
DF
330
1F
100
AcDbEntity
  8
0
  6
Continuous
 62
     1
370
    15
100
AcDbSpline
210
0.0
220
0.0
230
1.0
 70
     8
 71
     3
 72
    14
 73
    10
 74
     0
 42
0.000000001
 43
0.00000001
 40
0.0000000000000001
 40
0.0000000000000001
 40
0.0000000000000001
 40
0.0000000000000001
 40
0.0000697892052781
 40
0.0000697892052781
 40
0.0000697892052781
 40
0.0001463162075416
 40
0.0001463162075416
 40
0.0001463162075416
 40
0.0002250583608787
 40
0.0002250583608787
 40
0.0002250583608787
 40
0.0002250583608787
 10
59.83015162664381
 20
6.872531059409558
 30
0.0
 10
59.84462820106777
 20
6.861659968995495
 30
0.0
 10
59.86000503487814
 20
6.849735462851852
 30
0.0
 10
59.87587454102459
 20
6.837112402927358
 30
0.0
 10
59.89327256803227
 20
6.823273513710579
 30
0.0
 10
59.91139436661071
 20
6.808490624810344
 30
0.0
 10
59.9298282670912
 20
6.793126040974575
 30
0.0
 10
59.94879459028715
 20
6.777317684891217
 30
0.0
 10
59.96823084200742
 20
6.760777354528964
 30
0.0
 10
59.98773637993217
 20
6.74385484747212
 30
0.0
  0
SPLINE
  5
E0
330
1F
100
AcDbEntity
  8
0
  6
Continuous
 62
     1
370
    15
100
AcDbSpline
210
0.0
220
0.0
230
1.0
 70
     8
 71
     3
 72
    16
 73
    12
 74
     0
 42
0.000000001
 43
0.00000001
 40
0.0
 40
0.0
 40
0.0
 40
0.0
 40
0.2499999999999998
 40
0.2499999999999998
 40
0.3749999999999998
 40
0.3749999999999998
 40
0.4999999999999999
 40
0.4999999999999999
 40
0.7499999999999999
 40
0.7499999999999999
 40
1.0
 40
1.0
 40
1.0
 40
1.0
 10
60.35683684805509
 20
-9.733723631939739
 30
0.0
 10
60.32563141869931
 20
-8.433203268396849
 30
0.0
 10
60.29459842531839
 20
-7.090015142688299
 30
0.0
 10
60.24923940617838
 20
-5.053866572538645
 30
0.0
 10
60.23447810019496
 20
-4.374072867358282
 30
0.0
 10
60.20448367577075
 20
-2.99914548060104
 30
0.0
 10
60.18926795595237
 20
-2.304223721039971
 30
0.0
 10
60.1431865878352
 20
-0.2073736564325231
 30
0.0
 10
60.11188495725882
 20
1.206666042546163
 30
0.0
 10
60.04939864125068
 20
4.008934137960394
 30
0.0
 10
60.01821985258963
 20
5.396898804906249
 30
0.0
 10
59.98773637993317
 20
6.743854847470547
 30
0.0
  0
SPLINE
  5
E1
330
1F
100
AcDbEntity
  8
0
  6
Continuous
 62
     1
370
    15
100
AcDbSpline
210
0.0
220
0.0
230
1.0
 70
     8
 71
     3
 72
    12
 73
     8
 74
     0
 42
0.000000001
 43
0.00000001
 40
0.0
 40
0.0
 40
0.0
 40
0.0
 40
0.5
 40
0.5
 40
0.75
 40
0.75
 40
1.0
 40
1.0
 40
1.0
 40
1.0
 10
60.19950430955384
 20
-9.588865669247783
 30
0.0
 10
60.09985608835557
 20
-9.486083651421499
 30
0.0
 10
59.98697266099441
 20
-9.38495334875081
 30
0.0
 10
59.82343491717906
 20
-9.249538418463494
 30
0.0
 10
59.7687106385259
 20
-9.206283442009479
 30
0.0
 10
59.66512480460645
 20
-9.128366489624929
 30
0.0
 10
59.61581633632698
 20
-9.093271826136402
 30
0.0
 10
59.56957513542046
 20
-9.062939312061832
 30
0.0
  0
SPLINE
  5
E2
330
1F
100
AcDbEntity
  8
0
  6
Continuous
 62
     1
370
    15
100
AcDbSpline
210
0.0
220
0.0
230
1.0
 70
     8
 71
     3
 72
    12
 73
     8
 74
     0
 42
0.000000001
 43
0.00000001
 40
0.0
 40
0.0
 40
0.0
 40
0.0
 40
0.4999999999999998
 40
0.4999999999999998
 40
0.7499999999999999
 40
0.7499999999999999
 40
1.0
 40
1.0
 40
1.0
 40
1.0
 10
59.200454650741
 20
7.414869644168196
 30
0.0
 10
59.30007367978441
 20
7.316323689747756
 30
0.0
 10
59.41293289346763
 20
7.215033141529056
 30
0.0
 10
59.57641718665224
 20
7.075170595111553
 30
0.0
 10
59.63112000208913
 20
7.029656494632586
 30
0.0
 10
59.7346562356183
 20
6.945899644213357
 30
0.0
 10
59.78393767002238
 20
6.907235132770417
 30
0.0
 10
59.83015162664379
 20
6.872531059409549
 30
0.0
  0
SPLINE
  5
E3
330
1F
100
AcDbEntity
  8
0
  6
Continuous
 62
     1
370
    15
100
AcDbSpline
210
0.0
220
0.0
230
1.0
 70
     8
 71
     3
 72
     8
 73
     4
 74
     0
 42
0.000000001
 43
0.00000001
 40
0.0
 40
0.0
 40
0.0
 40
0.0
 40
1.0
 40
1.0
 40
1.0
 40
1.0
 10
62.98323912714498
 20
-11.87385135087061
 30
0.0
 10
62.10599495168453
 20
-11.17615687136376
 30
0.0
 10
61.23318358440616
 20
-10.46246414029221
 30
0.0
 10
60.35683684805179
 20
-9.733723631936732
 30
0.0
  0
SPLINE
  5
E4
330
1F
100
AcDbEntity
  8
0
  6
Continuous
 62
     1
370
    15
100
AcDbSpline
210
0.0
220
0.0
230
1.0
 70
     8
 71
     3
 72
     8
 73
     4
 74
     0
 42
0.000000001
 43
0.00000001
 40
0.0
 40
0.0
 40
0.0
 40
0.0
 40
1.0
 40
1.0
 40
1.0
 40
1.0
 10
62.61365473736227
 20
4.437053156979729
 30
0.0
 10
61.7370026846809
 20
5.21391770161363
 30
0.0
 10
60.86459154570897
 20
5.983117676932753
 30
0.0
 10
59.98773637993318
 20
6.74385484747056
 30
0.0
  0
SPLINE
  5
E5
330
1F
100
AcDbEntity
  8
0
  6
Continuous
 62
     1
370
    15
100
AcDbSpline
210
0.0
220
0.0
230
1.0
 70
     8
 71
     3
 72
    16
 73
    12
 74
     0
 42
0.000000001
 43
0.00000001
 40
0.0
 40
0.0
 40
0.0
 40
0.0
 40
0.2500000000000002
 40
0.2500000000000002
 40
0.3750000000000002
 40
0.3750000000000002
 40
0.5000000000000003
 40
0.5000000000000003
 40
0.7500000000000001
 40
0.7500000000000001
 40
1.0
 40
1.0
 40
1.0
 40
1.0
 10
62.98323912714501
 20
-11.87385135087057
 30
0.0
 10
62.95206835289574
 20
-10.6301343395964
 30
0.0
 10
62.92070354756006
 20
-9.32887314604993
 30
0.0
 10
62.87433065630937
 20
-7.331319640798048
 30
0.0
 10
62.85898526287245
 20
-6.657916821217208
 30
0.0
 10
62.82867086444426
 20
-5.303156410575652
 30
0.0
 10
62.81384786179054
 20
-4.624027595673473
 30
0.0
 10
62.76904727210569
 20
-2.568521806806783
 30
0.0
 10
62.73826757559558
 20
-1.166584721515285
 30
0.0
 10
62.67609205658682
 20
1.644610891677358
 30
0.0
 10
62.64470193615501
 20
3.05360804982239
 30
0.0
 10
62.61365473736221
 20
4.437053156979759
 30
0.0
  0
SPLINE
  5
E6
330
1F
100
AcDbEntity
  8
0
  6
Continuous
 62
     1
370
    15
100
AcDbSpline
210
0.0
220
0.0
230
1.0
 70
     8
 71
     3
 72
    12
 73
     8
 74
     0
 42
0.000000001
 43
0.00000001
 40
0.0
 40
0.0
 40
0.0
 40
0.0
 40
0.4999999999999911
 40
0.4999999999999911
 40
0.7499999999999956
 40
0.7499999999999956
 40
1.0
 40
1.0
 40
1.0
 40
1.0
 10
53.05923702519102
 20
-3.409143395976062
 30
0.0
 10
52.95957909321145
 20
-3.319792438434936
 30
0.0
 10
52.84670720790887
 20
-3.219958029157888
 30
0.0
 10
52.68324183846543
 20
-3.074595113991731
 30
0.0
 10
52.62855073621197
 20
-3.025847164005635
 30
0.0
 10
52.52503245823475
 20
-2.933133425963822
 30
0.0
 10
52.47575955327355
 20
-2.888773264156952
 30
0.0
 10
52.42954324456802
 20
-2.846891588758025
 30
0.0
  0
SPLINE
  5
E7
330
1F
100
AcDbEntity
  8
0
  6
Continuous
 62
     1
370
    15
100
AcDbSpline
210
0.0
220
0.0
230
1.0
 70
     8
 71
     3
 72
    16
 73
    12
 74
     0
 42
0.000000001
 43
0.00000001
 40
0.0
 40
0.0
 40
0.0
 40
0.0
 40
0.2499999999999999
 40
0.2499999999999999
 40
0.4999999999999999
 40
0.4999999999999999
 40
0.6249999999999999
 40
0.6249999999999999
 40
0.7499999999999998
 40
0.7499999999999998
 40
1.0
 40
1.0
 40
1.0
 40
1.0
 10
52.42954324456802
 20
-2.846891588758049
 30
0.0
 10
52.3991881968186
 20
-1.462485474560198
 30
0.0
 10
52.36806954147909
 20
-0.0535393881307682
 30
0.0
 10
52.30555838086561
 20
2.756095493306761
 30
0.0
 10
52.27417177610066
 20
4.156517516227606
 30
0.0
 10
52.22786236577406
 20
6.207596373540523
 30
0.0
 10
52.21255402204826
 20
6.883056650957896
 30
0.0
 10
52.18234415354733
 20
8.210978344195459
 30
0.0
 10
52.16759058747296
 20
8.861372026672976
 30
0.0
 10
52.12244853886344
 20
10.79317694274576
 30
0.0
 10
52.09149547768704
 20
12.05008786822155
 30
0.0
 10
52.06029969992105
 20
13.24866010404445
 30
0.0
  0
SPLINE
  5
E8
330
1F
100
AcDbEntity
  8
0
  6
Continuous
 62
     1
370
    15
100
AcDbSpline
210
0.0
220
0.0
230
1.0
 70
     8
 71
     3
 72
    12
 73
     8
 74
     0
 42
0.000000001
 43
0.00000001
 40
0.0
 40
0.0
 40
0.0
 40
0.0
 40
0.4999999999999912
 40
0.4999999999999912
 40
0.7499999999999956
 40
0.7499999999999956
 40
1.0
 40
1.0
 40
1.0
 40
1.0
 10
52.06029969992107
 20
13.24866010404416
 30
0.0
 10
52.16000194964229
 20
13.1404573238371
 30
0.0
 10
52.27291028346919
 20
13.04163717599495
 30
0.0
 10
52.43642574758787
 20
12.91674449132366
 30
0.0
 10
52.49113094472583
 20
12.87832032565124
 30
0.0
 10
52.59469537581004
 20
12.81222471844432
 30
0.0
 10
52.64400184156862
 20
12.78411250008274
 30
0.0
 10
52.69024709326469
 20
12.76208755371864
 30
0.0
  0
SPLINE
  5
E9
330
1F
100
AcDbEntity
  8
0
  6
Continuous
 62
     1
370
    15
100
AcDbSpline
210
0.0
220
0.0
230
1.0
 70
     8
 71
     3
 72
    14
 73
    10
 74
     0
 42
0.000000001
 43
0.00000001
 40
0.0000000000000002
 40
0.0000000000000002
 40
0.0000000000000002
 40
0.0000000000000002
 40
0.0000699123108469
 40
0.0000699123108469
 40
0.0000699123108469
 40
0.000146487087229
 40
0.000146487087229
 40
0.000146487087229
 40
0.0002252723149788
 40
0.0002252723149788
 40
0.0002252723149788
 40
0.0002252723149788
 10
52.42954324456783
 20
-2.846891588758084
 30
0.0
 10
52.41505416460934
 20
-2.833761441399996
 30
0.0
 10
52.39966422958543
 20
-2.819841983255613
 30
0.0
 10
52.38378132264515
 20
-2.80549851639402
 30
0.0
 10
52.36638825994773
 20
-2.789791264606938
 30
0.0
 10
52.3482726581
 20
-2.773456938010934
 30
0.0
 10
52.32984478703067
 20
-2.756869163401001
 30
0.0
 10
52.31088613025324
 20
-2.739803604153928
 30
0.0
 10
52.29145783220695
 20
-2.722344589938934
 30
0.0
 10
52.271959187919
 20
-2.704862636464503
 30
0.0
  0
SPLINE
  5
EA
330
1F
100
AcDbEntity
  8
0
  6
Continuous
 62
     1
370
    15
100
AcDbSpline
210
0.0
220
0.0
230
1.0
 70
     8
 71
     3
 72
    16
 73
    12
 74
     0
 42
0.000000001
 43
0.00000001
 40
0.0
 40
0.0
 40
0.0
 40
0.0
 40
0.2500000000000001
 40
0.2500000000000001
 40
0.5000000000000002
 40
0.5000000000000002
 40
0.6250000000000002
 40
0.6250000000000002
 40
0.7500000000000002
 40
0.7500000000000002
 40
1.0
 40
1.0
 40
1.0
 40
1.0
 10
52.27195918791757
 20
-2.70486263646327
 30
0.0
 10
52.24157845576232
 20
-1.317097331120774
 30
0.0
 10
52.21045665749937
 20
0.0942303902753521
 30
0.0
 10
52.14798511954199
 20
2.906575337882258
 30
0.0
 10
52.116641264904
 20
4.307326332518349
 30
0.0
 10
52.07042634895723
 20
6.3574924317463
 30
0.0
 10
52.05515451741302
 20
7.032416204817489
 30
0.0
 10
52.02502653662913
 20
8.358844669198167
 30
0.0
 10
52.01029285572135
 20
9.00865849634136
 30
0.0
 10
51.9651086657076
 20
10.93969880834205
 30
0.0
 10
51.93414803830445
 20
12.19515515454362
 30
0.0
 10
51.90296593513698
 20
13.39142368601206
 30
0.0
  0
SPLINE
  5
EB
330
1F
100
AcDbEntity
  8
0
  6
Continuous
 62
     1
370
    15
100
AcDbSpline
210
0.0
220
0.0
230
1.0
 70
     8
 71
     3
 72
    14
 73
    10
 74
     0
 42
0.000000001
 43
0.00000001
 40
0.0000000000000026
 40
0.0000000000000026
 40
0.0000000000000026
 40
0.0000000000000026
 40
0.0000743419098334
 40
0.0000743419098334
 40
0.0000743419098334
 40
0.0001441006940574
 40
0.0001441006940574
 40
0.0001441006940574
 40
0.0002164032993551
 40
0.0002164032993551
 40
0.0002164032993551
 40
0.0002164032993551
 10
51.90296593513915
 20
13.39142368601049
 30
0.0
 10
51.92137655852305
 20
13.37732924007911
 30
0.0
 10
51.93997594596032
 20
13.36225916081118
 30
0.0
 10
51.95839381514882
 20
13.3464621579673
 30
0.0
 10
51.97567540535034
 20
13.33163974139098
 30
0.0
 10
51.99291967206065
 20
13.31607169843303
 30
0.0
 10
52.0097213555409
 20
13.30002632359013
 30
0.0
 10
52.02711256604999
 20
13.28341795860584
 30
0.0
 10
52.04420021114926
 20
13.26613222177358
 30
0.0
 10
52.06029969992033
 20
13.24866010404494
 30
0.0
  0
SPLINE
  5
EC
330
1F
100
AcDbEntity
  8
0
  6
Continuous
 62
     1
370
    15
100
AcDbSpline
210
0.0
220
0.0
230
1.0
 70
     8
 71
     3
 72
     8
 73
     4
 74
     0
 42
0.000000001
 43
0.00000001
 40
0.0
 40
0.0
 40
0.0
 40
0.0
 40
1.0
 40
1.0
 40
1.0
 40
1.0
 10
52.27195918791759
 20
-2.704862636463256
 30
0.0
 10
51.39909425273731
 20
-1.92227570575456
 30
0.0
 10
50.52194412881193
 20
-1.13450621103189
 30
0.0
 10
49.64618686941041
 20
-0.346649209327869
 30
0.0
  0
SPLINE
  5
ED
330
1F
100
AcDbEntity
  8
0
  6
Continuous
 62
     1
370
    15
100
AcDbSpline
210
0.0
220
0.0
230
1.0
 70
     8
 71
     3
 72
    16
 73
    12
 74
     0
 42
0.000000001
 43
0.00000001
 40
0.0
 40
0.0
 40
0.0
 40
0.0
 40
0.2500000000000001
 40
0.2500000000000001
 40
0.5000000000000001
 40
0.5000000000000001
 40
0.6250000000000001
 40
0.6250000000000001
 40
0.7500000000000002
 40
0.7500000000000002
 40
1.0
 40
1.0
 40
1.0
 40
1.0
 10
49.64618686941039
 20
-0.3466492093278039
 30
0.0
 10
49.61519425176954
 20
1.057477385411506
 30
0.0
 10
49.5838100361938
 20
2.469072945199481
 30
0.0
 10
49.52154816399081
 20
5.24910173782612
 30
0.0
 10
49.49067626483919
 20
6.617280882587087
 30
0.0
 10
49.4456729533044
 20
8.596759105191907
 30
0.0
 10
49.43093109189125
 20
9.243994010666169
 30
0.0
 10
49.40073301595099
 20
10.52644235600473
 30
0.0
 10
49.38543470923509
 20
11.15931460808108
 30
0.0
 10
49.33916748430908
 20
13.02248796477578
 30
0.0
 10
49.30782523526427
 20
14.21703292047984
 30
0.0
 10
49.27662760286716
 20
15.33878227524831
 30
0.0
  0
SPLINE
  5
EE
330
1F
100
AcDbEntity
  8
0
  6
Continuous
 62
     1
370
    15
100
AcDbSpline
210
0.0
220
0.0
230
1.0
 70
     8
 71
     3
 72
     8
 73
     4
 74
     0
 42
0.000000001
 43
0.00000001
 40
0.0
 40
0.0
 40
0.0
 40
0.0
 40
1.0
 40
1.0
 40
1.0
 40
1.0
 10
51.90296593513631
 20
13.39142368601192
 30
0.0
 10
51.0291137135068
 20
14.06041042442216
 30
0.0
 10
50.15177348109234
 20
14.71094477194588
 30
0.0
 10
49.27662760286722
 20
15.33878227524866
 30
0.0
  0
SPLINE
  5
EF
330
1F
100
AcDbEntity
  8
0
  6
Continuous
 62
     1
370
    15
100
AcDbSpline
210
0.0
220
0.0
230
1.0
 70
     8
 71
     3
 72
    14
 73
    10
 74
     0
 42
0.000000001
 43
0.00000001
 40
0.0000000000000002
 40
0.0000000000000002
 40
0.0000000000000002
 40
0.0000000000000002
 40
0.0000698179175993
 40
0.0000698179175993
 40
0.0000698179175993
 40
0.0001463556418628
 40
0.0001463556418628
 40
0.0001463556418628
 40
0.0002251073745275
 40
0.0002251073745275
 40
0.0002251073745275
 40
0.0002251073745275
 10
63.14087556055497
 20
-11.97980880851734
 30
0.0
 10
63.12639083254842
 20
-11.97234590965327
 30
0.0
 10
63.11100551334172
 20
-11.96351675974785
 30
0.0
 10
63.09512741539036
 20
-11.95364986151438
 30
0.0
 10
63.07772465326233
 20
-11.94283551313181
 30
0.0
 10
63.05959832732047
 20
-11.93069341506282
 30
0.0
 10
63.04115993358879
 20
-11.91755550980268
 30
0.0
 10
63.02218933644549
 20
-11.90403839374453
 30
0.0
 10
63.0027489139875
 20
-11.88936797777692
 30
0.0
 10
62.98323912714645
 20
-11.87385135087179
 30
0.0
  0
SPLINE
  5
F0
330
1F
100
AcDbEntity
  8
0
  6
Continuous
 62
     1
370
    15
100
AcDbSpline
210
0.0
220
0.0
230
1.0
 70
     8
 71
     3
 72
    14
 73
    10
 74
     0
 42
0.000000001
 43
0.00000001
 40
0.0000000000000023
 40
0.0000000000000023
 40
0.0000000000000023
 40
0.0000000000000023
 40
0.0000742490648981
 40
0.0000742490648981
 40
0.0000742490648981
 40
0.0001439891433666
 40
0.0001439891433666
 40
0.0001439891433666
 40
0.0002162774406266
 40
0.0002162774406266
 40
0.0002162774406266
 40
0.0002162774406266
 10
62.61365473736438
 20
4.43705315697871
 30
0.0
 10
62.63205093867219
 20
4.420750957596077
 30
0.0
 10
62.65063641079417
 20
4.404179567414267
 30
0.0
 10
62.6690411838301
 20
4.387674621740597
 30
0.0
 10
62.68632731993584
 20
4.372172842024211
 30
0.0
 10
62.70357674933572
 20
4.356619618135479
 30
0.0
 10
62.72038325519169
 20
4.341382717366634
 30
0.0
 10
62.73778063164828
 20
4.325610129002386
 30
0.0
 10
62.75487437486832
 20
4.310021273447075
 30
0.0
 10
62.77097833060502
 20
4.295237000130718
 30
0.0
  0
SPLINE
  5
F1
330
1F
100
AcDbEntity
  8
0
  6
Continuous
 62
     1
370
    15
100
AcDbSpline
210
0.0
220
0.0
230
1.0
 70
     8
 71
     3
 72
    16
 73
    12
 74
     0
 42
0.000000001
 43
0.00000001
 40
0.0
 40
0.0
 40
0.0
 40
0.0
 40
0.2499999999999999
 40
0.2499999999999999
 40
0.3749999999999998
 40
0.3749999999999998
 40
0.4999999999999998
 40
0.4999999999999998
 40
0.7499999999999999
 40
0.7499999999999999
 40
1.0
 40
1.0
 40
1.0
 40
1.0
 10
63.14087556055517
 20
-11.97980880851725
 30
0.0
 10
63.10969408050052
 20
-10.74175499519801
 30
0.0
 10
63.07829531902758
 20
-9.44529488241991
 30
0.0
 10
63.03183980022087
 20
-7.453484697528378
 30
0.0
 10
63.01646163116947
 20
-6.781755400728196
 30
0.0
 10
62.98607226839786
 20
-5.429858427649179
 30
0.0
 10
62.97118053804976
 20
-4.751508430095712
 30
0.0
 10
62.9264359158807
 20
-2.701855230121972
 30
0.0
 10
62.89567319662874
 20
-1.3029506439532
 30
0.0
 10
62.83348833639951
 20
1.504099196930898
 30
0.0
 10
62.80207189399092
 20
2.911983405751484
 30
0.0
 10
62.77097833060572
 20
4.295237000130737
 30
0.0
  0
SPLINE
  5
F2
330
1F
100
AcDbEntity
  8
0
  6
Continuous
 62
     1
370
    15
100
AcDbSpline
210
0.0
220
0.0
230
1.0
 70
     8
 71
     3
 72
    14
 73
    10
 74
     0
 42
0.000000001
 43
0.00000001
 40
0.0000000000000004
 40
0.0000000000000004
 40
0.0000000000000004
 40
0.0000000000000004
 40
0.0000742180583144
 40
0.0000742180583144
 40
0.0000742180583144
 40
0.0001439530148246
 40
0.0001439530148246
 40
0.0001439530148246
 40
0.0002162370422868
 40
0.0002162370422868
 40
0.0002162370422868
 40
0.0002162370422868
 10
63.92811775841339
 20
-12.61842238061193
 30
0.0
 10
63.90972498410532
 20
-12.60406332674308
 30
0.0
 10
63.89114319160173
 20
-12.58879240237018
 30
0.0
 10
63.87274227635201
 20
-12.57286747877759
 30
0.0
 10
63.85545384710783
 20
-12.55790534721986
 30
0.0
 10
63.83820232614495
 20
-12.54225913337776
 30
0.0
 10
63.8213941381682
 20
-12.52620863315084
 30
0.0
 10
63.80399477156412
 20
-12.50959360373701
 30
0.0
 10
63.7868994156571
 20
-12.49237921668779
 30
0.0
 10
63.77079441319985
 20
-12.47507250590926
 30
0.0
  0
SPLINE
  5
F3
330
1F
100
AcDbEntity
  8
0
  6
Continuous
 62
     1
370
    15
100
AcDbSpline
210
0.0
220
0.0
230
1.0
 70
     8
 71
     3
 72
    16
 73
    12
 74
     0
 42
0.000000001
 43
0.00000001
 40
0.0
 40
0.0
 40
0.0
 40
0.0
 40
0.25
 40
0.25
 40
0.5
 40
0.5
 40
0.625
 40
0.625
 40
0.75
 40
0.75
 40
1.0
 40
1.0
 40
1.0
 40
1.0
 10
63.77079441319969
 20
-12.47507250590906
 30
0.0
 10
63.73968327497117
 20
-11.25306573731102
 30
0.0
 10
63.70826773168839
 20
-9.969322820561361
 30
0.0
 10
63.64612150043386
 20
-7.33134766730448
 30
0.0
 10
63.61539648623282
 20
-5.977375782315255
 30
0.0
 10
63.57073228597532
 20
-3.936765251960217
 30
0.0
 10
63.55578272103049
 20
-3.250476182923875
 30
0.0
 10
63.52535232994804
 20
-1.864058009291624
 30
0.0
 10
63.50995788615568
 20
-1.16523586236429
 30
0.0
 10
63.46346708518113
 20
0.937477139636057
 30
0.0
 10
63.43206302106682
 20
2.347571680836371
 30
0.0
 10
63.40089481742113
 20
3.736886520576316
 30
0.0
  0
SPLINE
  5
F4
330
1F
100
AcDbEntity
  8
0
  6
Continuous
 62
     1
370
    15
100
AcDbSpline
210
0.0
220
0.0
230
1.0
 70
     8
 71
     3
 72
    14
 73
    10
 74
     0
 42
0.000000001
 43
0.00000001
 40
0.0
 40
0.0
 40
0.0
 40
0.0
 40
0.000069813090574
 40
0.000069813090574
 40
0.000069813090574
 40
0.0001463445415372
 40
0.0001463445415372
 40
0.0001463445415372
 40
0.0002250901696362
 40
0.0002250901696362
 40
0.0002250901696362
 40
0.0002250901696362
 10
63.40089481742114
 20
3.736886520576297
 30
0.0
 10
63.41537902493435
 20
3.724254466840983
 30
0.0
 10
63.43076391710375
 20
3.710774745205001
 30
0.0
 10
63.44664176089518
 20
3.696810140517086
 30
0.0
 10
63.46404401765666
 20
3.681504810678605
 30
0.0
 10
63.48217003189069
 20
3.665501362027334
 30
0.0
 10
63.50060833978949
 20
3.649171631137766
 30
0.0
 10
63.51957892609217
 20
3.632370492397669
 30
0.0
 10
63.53901960276598
 20
3.615100461326983
 30
0.0
 10
63.55852984049847
 20
3.597728344424619
 30
0.0
  0
SPLINE
  5
F5
330
1F
100
AcDbEntity
  8
0
  6
Continuous
 62
     1
370
    15
100
AcDbSpline
210
0.0
220
0.0
230
1.0
 70
     8
 71
     3
 72
    16
 73
    12
 74
     0
 42
0.000000001
 43
0.00000001
 40
0.0
 40
0.0
 40
0.0
 40
0.0
 40
0.2500000000000001
 40
0.2500000000000001
 40
0.5000000000000002
 40
0.5000000000000002
 40
0.6250000000000001
 40
0.6250000000000001
 40
0.7500000000000001
 40
0.7500000000000001
 40
1.0
 40
1.0
 40
1.0
 40
1.0
 10
63.92811775841386
 20
-12.61842238061095
 30
0.0
 10
63.89705197984122
 20
-11.39878953952308
 30
0.0
 10
63.86566170033775
 20
-10.11661410133218
 30
0.0
 10
63.803522732475
 20
-7.479882261362159
 30
0.0
 10
63.77277972281458
 20
-6.125585109463555
 30
0.0
 10
63.72805816100477
 20
-4.083044009425516
 30
0.0
 10
63.7131880731657
 20
-3.397444671086634
 30
0.0
 10
63.68283167794875
 20
-2.010794699854335
 30
0.0
 10
63.6674694980764
 20
-1.311620353688375
 30
0.0
 10
63.62105973084489
 20
0.7928964582667576
 30
0.0
 10
63.5896884813972
 20
2.20519878432734
 30
0.0
 10
63.55852984049952
 20
3.597728344423609
 30
0.0
  0
SPLINE
  5
F6
330
1F
100
AcDbEntity
  8
0
  6
Continuous
 62
     1
370
    15
100
AcDbSpline
210
0.0
220
0.0
230
1.0
 70
     8
 71
     3
 72
    12
 73
     8
 74
     0
 42
0.000000001
 43
0.00000001
 40
0.0
 40
0.0
 40
0.0
 40
0.0
 40
0.4999999999999982
 40
0.4999999999999982
 40
0.7499999999999991
 40
0.7499999999999991
 40
1.0
 40
1.0
 40
1.0
 40
1.0
 10
63.77079441319969
 20
-12.47507250590908
 30
0.0
 10
63.67113961243955
 20
-12.36798175450889
 30
0.0
 10
63.55824626792797
 20
-12.26859735638077
 30
0.0
 10
63.39470905159908
 20
-12.1413791423551
 30
0.0
 10
63.33998762731419
 20
-12.1019041922464
 30
0.0
 10
63.23641187132927
 20
-12.03325113721658
 30
0.0
 10
63.18710998063523
 20
-12.00362995316972
 30
0.0
 10
63.14087556055517
 20
-11.97980880851723
 30
0.0
  0
SPLINE
  5
F7
330
1F
100
AcDbEntity
  8
0
  6
Continuous
 62
     1
370
    15
100
AcDbSpline
210
0.0
220
0.0
230
1.0
 70
     8
 71
     3
 72
    12
 73
     8
 74
     0
 42
0.000000001
 43
0.00000001
 40
0.0
 40
0.0
 40
0.0
 40
0.0
 40
0.5000000000000014
 40
0.5000000000000014
 40
0.7500000000000011
 40
0.7500000000000011
 40
1.0
 40
1.0
 40
1.0
 40
1.0
 10
62.77097833060574
 20
4.295237000130056
 30
0.0
 10
62.8706254775792
 20
4.203755709437396
 30
0.0
 10
62.98351032579363
 20
4.103497658770434
 30
0.0
 10
63.14704616903238
 20
3.959218193226592
 30
0.0
 10
63.20176903369628
 20
3.911143007843964
 30
0.0
 10
63.30535049315705
 20
3.820339735662181
 30
0.0
 10
63.35465628872205
 20
3.777212342933932
 30
0.0
 10
63.40089481742114
 20
3.736886520576273
 30
0.0
  0
LINE
  5
F8
330
1F
100
AcDbEntity
  8
0
  6
Continuous
 62
     1
370
    15
100
AcDbLine
 10
64.70000141859052
 20
-13.21640610694884
 30
0.0
 11
64.70000141859052
 21
2.57843011058868
 31
0.0
  0
SPLINE
  5
F9
330
1F
100
AcDbEntity
  8
0
  6
Continuous
 62
     1
370
    15
100
AcDbSpline
210
0.0
220
0.0
230
1.0
 70
     8
 71
     3
 72
     8
 73
     4
 74
     0
 42
0.000000001
 43
0.00000001
 40
0.0
 40
0.0
 40
0.0
 40
0.0
 40
1.0
 40
1.0
 40
1.0
 40
1.0
 10
64.7
 20
-13.21640621660076
 30
0.0
 10
64.44286632969988
 20
-13.0187416254775
 30
0.0
 10
64.18552419470521
 20
-12.81937699588536
 30
0.0
 10
63.92811775841334
 20
-12.61842238061151
 30
0.0
  0
SPLINE
  5
FA
330
1F
100
AcDbEntity
  8
0
  6
Continuous
 62
     1
370
    15
100
AcDbSpline
210
0.0
220
0.0
230
1.0
 70
     8
 71
     3
 72
     8
 73
     4
 74
     0
 42
0.000000001
 43
0.00000001
 40
0.0
 40
0.0
 40
0.0
 40
0.0
 40
1.0
 40
1.0
 40
1.0
 40
1.0
 10
64.69999999999997
 20
2.57843000649625
 30
0.0
 10
64.31981033705856
 20
2.918901715713574
 30
0.0
 10
63.93916485541478
 20
3.258807001336981
 30
0.0
 10
63.55852984049953
 20
3.597728344423611
 30
0.0
  0
SPLINE
  5
FB
330
1F
100
AcDbEntity
  8
0
  6
Continuous
 62
     1
370
    15
100
AcDbSpline
210
0.0
220
0.0
230
1.0
 70
     8
 71
     3
 72
    14
 73
    10
 74
     0
 42
0.000000001
 43
0.00000001
 40
0.0000000000000004
 40
0.0000000000000004
 40
0.0000000000000004
 40
0.0000000000000004
 40
0.0000742317957732
 40
0.0000742317957732
 40
0.0000742317957732
 40
0.0001439701690607
 40
0.0001439701690607
 40
0.0001439701690607
 40
0.0002162566830434
 40
0.0002162566830434
 40
0.0002162566830434
 40
0.0002162566830434
 10
49.64618686940991
 20
-0.3466492093278367
 30
0.0
 10
49.62779222685268
 20
-0.3301008475792115
 30
0.0
 10
49.60920881322611
 20
-0.3136010107200997
 30
0.0
 10
49.59080656513714
 20
-0.2975084485905056
 30
0.0
 10
49.57351921464078
 20
-0.2823908520569773
 30
0.0
 10
49.55626902129917
 20
-0.2675255677801572
 30
0.0
 10
49.53946219919439
 20
-0.2533072892905061
 30
0.0
 10
49.52206448641525
 20
-0.2385891275919492
 30
0.0
 10
49.50497089351022
 20
-0.2244206424023107
 30
0.0
 10
49.48886735180263
 20
-0.2114514861297394
 30
0.0
  0
SPLINE
  5
FC
330
1F
100
AcDbEntity
  8
0
  6
Continuous
 62
     1
370
    15
100
AcDbSpline
210
0.0
220
0.0
230
1.0
 70
     8
 71
     3
 72
    16
 73
    12
 74
     0
 42
0.000000001
 43
0.00000001
 40
0.0
 40
0.0
 40
0.0
 40
0.0
 40
0.2499999999999998
 40
0.2499999999999998
 40
0.4999999999999997
 40
0.4999999999999997
 40
0.6249999999999996
 40
0.6249999999999996
 40
0.7499999999999996
 40
0.7499999999999996
 40
1.0
 40
1.0
 40
1.0
 40
1.0
 10
49.48886735180248
 20
-0.2114514861296112
 30
0.0
 10
49.457825339174
 20
1.191307945612718
 30
0.0
 10
49.42641158135477
 20
2.600598648836796
 30
0.0
 10
49.36413398169348
 20
5.374154765985184
 30
0.0
 10
49.33327589804692
 20
6.738166976397806
 30
0.0
 10
49.28832417191359
 20
8.710198311528927
 30
0.0
 10
49.27354199222394
 20
9.355660414153023
 30
0.0
 10
49.24326603229812
 20
10.63415174935104
 30
0.0
 10
49.22793340830847
 20
11.2648106534726
 30
0.0
 10
49.18157875537958
 20
13.12065957873515
 30
0.0
 10
49.15019911405127
 20
14.30940098410322
 30
0.0
 10
49.11898733293751
 20
15.42458050674111
 30
0.0
  0
SPLINE
  5
FD
330
1F
100
AcDbEntity
  8
0
  6
Continuous
 62
     1
370
    15
100
AcDbSpline
210
0.0
220
0.0
230
1.0
 70
     8
 71
     3
 72
    14
 73
    10
 74
     0
 42
0.000000001
 43
0.00000001
 40
0.000000000000002
 40
0.000000000000002
 40
0.000000000000002
 40
0.000000000000002
 40
0.0000698570129777
 40
0.0000698570129777
 40
0.0000698570129777
 40
0.0001464052282028
 40
0.0001464052282028
 40
0.0001464052282028
 40
0.0002251659365436
 40
0.0002251659365436
 40
0.0002251659365436
 40
0.0002251659365436
 10
49.11898733293759
 20
15.42458050673907
 30
0.0
 10
49.13347657445566
 20
15.41988520895575
 30
0.0
 10
49.14886673850918
 20
15.41363139866173
 30
0.0
 10
49.16474997225506
 20
15.40611816128233
 30
0.0
 10
49.18215105727216
 20
15.39788693554554
 30
0.0
 10
49.2002754728566
 20
15.38808273931098
 30
0.0
 10
49.21871224251278
 20
15.37700469519209
 30
0.0
 10
49.2376807238219
 20
15.36560716315533
 30
0.0
 10
49.25711919837738
 20
15.35277777962695
 30
0.0
 10
49.27662760286614
 20
15.33878227525181
 30
0.0
  0
SPLINE
  5
FE
330
1F
100
AcDbEntity
  8
0
  6
Continuous
 62
     1
370
    15
100
AcDbSpline
210
0.0
220
0.0
230
1.0
 70
     8
 71
     3
 72
     8
 73
     4
 74
     0
 42
0.000000001
 43
0.00000001
 40
0.0
 40
0.0
 40
0.0
 40
0.0
 40
1.0
 40
1.0
 40
1.0
 40
1.0
 10
65.8
 20
-13.57967313396504
 30
0.0
 10
65.43426014247947
 20
-13.46836417560286
 30
0.0
 10
65.06755530973778
 20
-13.34724913691883
 30
0.0
 10
64.69999999999997
 20
-13.21640621660073
 30
0.0
  0
SPLINE
  5
FF
330
1F
100
AcDbEntity
  8
0
  6
Continuous
 62
     1
370
    15
100
AcDbSpline
210
0.0
220
0.0
230
1.0
 70
     8
 71
     3
 72
    11
 73
     7
 74
     0
 42
0.000000001
 43
0.00000001
 40
0.0
 40
0.0
 40
0.0
 40
0.0
 40
0.1486565737713089
 40
0.4207599734365784
 40
0.7002134426815191
 40
1.0
 40
1.0
 40
1.0
 40
1.0
 10
62.08768630027769
 20
-11.15355733782052
 30
0.0
 10
61.86668100538363
 20
-11.20196901318146
 30
0.0
 10
61.24114404021699
 20
-11.33899420300069
 30
0.0
 10
60.07220785533371
 20
-11.79377636067231
 30
0.0
 10
58.60639611836454
 20
-12.48193789325849
 30
0.0
 10
57.58570053746897
 20
-13.09054020843833
 30
0.0
 10
57.05743798613548
 20
-13.40552326291799
 30
0.0
  0
SPLINE
  5
100
330
1F
100
AcDbEntity
  8
0
  6
Continuous
 62
     1
370
    15
100
AcDbSpline
210
0.0
220
0.0
230
1.0
 70
     8
 71
     3
 72
    10
 73
     6
 74
     0
 42
0.000000001
 43
0.00000001
 40
0.0
 40
0.0
 40
0.0
 40
0.0
 40
0.5
 40
0.5
 40
1.0
 40
1.0
 40
1.0
 40
1.0
 10
65.8
 20
-14.8490476329966
 30
0.0
 10
64.29916861530674
 20
-14.85137577501803
 30
0.0
 10
62.81900231922028
 20
-14.73893221327489
 30
0.0
 10
59.90224062521524
 20
-14.27205695644758
 30
0.0
 10
58.46692522418044
 20
-13.91051629483724
 30
0.0
 10
57.05743897074583
 20
-13.40552329516679
 30
0.0
  0
LINE
  5
101
330
1F
100
AcDbEntity
  8
0
  6
Continuous
 62
     1
370
    15
100
AcDbLine
 10
65.80000141263005
 20
-21.83608524501323
 30
0.0
 11
65.80000141263005
 21
-14.84904717653989
 31
0.0
  0
SPLINE
  5
102
330
1F
100
AcDbEntity
  8
0
  6
Continuous
 62
     1
370
    15
100
AcDbSpline
210
0.0
220
0.0
230
1.0
 70
     8
 71
     3
 72
     8
 73
     4
 74
     0
 42
0.000000001
 43
0.00000001
 40
0.0
 40
0.0
 40
0.0
 40
0.0
 40
1.0
 40
1.0
 40
1.0
 40
1.0
 10
64.70392192738458
 20
-23.16780700479615
 30
0.0
 10
65.06479347695893
 20
-22.72420517515088
 30
0.0
 10
65.42981370479964
 20
-22.28007788731083
 30
0.0
 10
65.8
 20
-21.83608602026723
 30
0.0
  0
SPLINE
  5
103
330
1F
100
AcDbEntity
  8
0
  6
Continuous
 62
     1
370
    15
100
AcDbSpline
210
0.0
220
0.0
230
1.0
 70
     8
 71
     3
 72
    14
 73
    10
 74
     0
 42
0.000000001
 43
0.00000001
 40
0.0000000000000002
 40
0.0000000000000002
 40
0.0000000000000002
 40
0.0000000000000002
 40
0.0000698452795922
 40
0.0000698452795922
 40
0.0000698452795922
 40
0.0001464003028283
 40
0.0001464003028283
 40
0.0001464003028283
 40
0.0001641342253694
 40
0.0001641342253694
 40
0.0001641342253694
 40
0.0001641342253694
 10
64.59129800339613
 20
-23.16653412180659
 30
0.0
 10
64.60578599530288
 20
-23.17083710443993
 30
0.0
 10
64.62117454298522
 20
-23.17326368883147
 30
0.0
 10
64.63705564994035
 20
-23.17397616561437
 30
0.0
 10
64.65445885432061
 20
-23.17475692851107
 30
0.0
 10
64.67258512443557
 20
-23.17348662171996
 30
0.0
 10
64.69102312893335
 20
-23.17031956980971
 30
0.0
 10
64.69530302895446
 20
-23.16958442162493
 30
0.0
 10
64.69960418016687
 20
-23.16874642076636
 30
0.0
 10
64.70392192738461
 20
-23.16780700479617
 30
0.0
  0
SPLINE
  5
104
330
1F
100
AcDbEntity
  8
0
  6
Continuous
 62
     1
370
    15
100
AcDbSpline
210
0.0
220
0.0
230
1.0
 70
     8
 71
     3
 72
    12
 73
     8
 74
     0
 42
0.000000001
 43
0.00000001
 40
0.0
 40
0.0
 40
0.0
 40
0.0
 40
0.4999999999999878
 40
0.4999999999999878
 40
0.7499999999999939
 40
0.7499999999999939
 40
1.0
 40
1.0
 40
1.0
 40
1.0
 10
63.96135221971433
 20
-23.39024114850354
 30
0.0
 10
64.06102171887007
 20
-23.28867113126356
 30
0.0
 10
64.17392578863485
 20
-23.22235353225055
 30
0.0
 10
64.33746726759946
 20
-23.16645321306756
 30
0.0
 10
64.39218836850205
 20
-23.15511932197839
 30
0.0
 10
64.49576304580162
 20
-23.14848479758388
 30
0.0
 10
64.54506411312535
 20
-23.15280249990957
 30
0.0
 10
64.5912980033959
 20
-23.16653412180638
 30
0.0
  0
SPLINE
  5
105
330
1F
100
AcDbEntity
  8
0
  6
Continuous
 62
     1
370
    15
100
AcDbSpline
210
0.0
220
0.0
230
1.0
 70
     8
 71
     3
 72
    14
 73
    10
 74
     0
 42
0.000000001
 43
0.00000001
 40
0.0000000000000015
 40
0.0000000000000015
 40
0.0000000000000015
 40
0.0000000000000015
 40
0.0000742252357499
 40
0.0000742252357499
 40
0.0000742252357499
 40
0.0001439618312224
 40
0.0001439618312224
 40
0.0001439618312224
 40
0.0002162470173673
 40
0.0002162470173673
 40
0.0002162470173673
 40
0.0002162470173673
 10
63.80402174530039
 20
-23.49103316918121
 30
0.0
 10
63.82241665895728
 20
-23.48473982010459
 30
0.0
 10
63.84100045078426
 20
-23.47665505305462
 30
0.0
 10
63.8594031794094
 20
-23.46681405623653
 30
0.0
 10
63.87669205811175
 20
-23.45756869899827
 30
0.0
 10
63.89394387509089
 20
-23.44670636181605
 30
0.0
 10
63.91075228966143
 20
-23.43425807332449
 30
0.0
 10
63.92815176774192
 20
-23.42137204401818
 30
0.0
 10
63.94524713529506
 20
-23.40665332791621
 30
0.0
 10
63.96135221971433
 20
-23.39024114850353
 30
0.0
  0
SPLINE
  5
106
330
1F
100
AcDbEntity
  8
0
  6
Continuous
 62
     1
370
    15
100
AcDbSpline
210
0.0
220
0.0
230
1.0
 70
     8
 71
     3
 72
     8
 73
     4
 74
     0
 42
0.000000001
 43
0.00000001
 40
0.0
 40
0.0
 40
0.0
 40
0.0
 40
1.0
 40
1.0
 40
1.0
 40
1.0
 10
63.80402174529909
 20
-23.49103316918151
 30
0.0
 10
62.9272677988108
 20
-23.79099210034926
 30
0.0
 10
62.05128786297279
 20
-24.05685203343656
 30
0.0
 10
61.17787585945381
 20
-24.28741289420763
 30
0.0
  0
SPLINE
  5
107
330
1F
100
AcDbEntity
  8
0
  6
Continuous
 62
     1
370
    15
100
AcDbSpline
210
0.0
220
0.0
230
1.0
 70
     8
 71
     3
 72
    14
 73
    10
 74
     0
 42
0.000000001
 43
0.00000001
 40
0.0000000000000002
 40
0.0000000000000002
 40
0.0000000000000002
 40
0.0000000000000002
 40
0.0000698956768814
 40
0.0000698956768814
 40
0.0000698956768814
 40
0.0001464847618289
 40
0.0001464847618289
 40
0.0001464847618289
 40
0.0002252849909611
 40
0.0002252849909611
 40
0.0002252849909611
 40
0.0002252849909611
 10
61.02026161325782
 20
-24.2794938157845
 30
0.0
 10
61.03475146217002
 20
-24.28599514463767
 30
0.0
 10
61.05014162271643
 20
-24.29060952415598
 30
0.0
 10
61.06602386269286
 20
-24.29345742641431
 30
0.0
 10
61.08342355235682
 20
-24.29657742809933
 30
0.0
 10
61.10154530483261
 20
-24.29760239595033
 30
0.0
 10
61.11997818132156
 20
-24.29664276283511
 30
0.0
 10
61.13894208771089
 20
-24.29565548379724
 30
0.0
 10
61.15837446822915
 20
-24.29256081698922
 30
0.0
 10
61.17787585945253
 20
-24.28741289421228
 30
0.0
  0
SPLINE
  5
108
330
1F
100
AcDbEntity
  8
0
  6
Continuous
 62
     1
370
    15
100
AcDbSpline
210
0.0
220
0.0
230
1.0
 70
     8
 71
     3
 72
    12
 73
     8
 74
     0
 42
0.000000001
 43
0.00000001
 40
0.0
 40
0.0
 40
0.0
 40
0.0
 40
0.500000000000002
 40
0.500000000000002
 40
0.750000000000001
 40
0.750000000000001
 40
1.0
 40
1.0
 40
1.0
 40
1.0
 10
60.39045112907186
 20
-24.43598035461264
 30
0.0
 10
60.49011754223987
 20
-24.34072764638303
 30
0.0
 10
60.6030070524097
 20
-24.2846040698069
 30
0.0
 10
60.76650816390207
 20
-24.2462199612929
 30
0.0
 10
60.82121274977025
 20
-24.24124777384756
 30
0.0
 10
60.92475592260391
 20
-24.24769031961754
 30
0.0
 10
60.97404163277711
 20
-24.25875576016244
 30
0.0
 10
61.02026161325766
 20
-24.27949381578431
 30
0.0
  0
SPLINE
  5
109
330
1F
100
AcDbEntity
  8
0
  6
Continuous
 62
     1
370
    15
100
AcDbSpline
210
0.0
220
0.0
230
1.0
 70
     8
 71
     3
 72
    14
 73
    10
 74
     0
 42
0.000000001
 43
0.00000001
 40
0.0000000000000019
 40
0.0000000000000019
 40
0.0000000000000019
 40
0.0000000000000019
 40
0.0000742378568427
 40
0.0000742378568427
 40
0.0000742378568427
 40
0.000143978128271
 40
0.000143978128271
 40
0.000143978128271
 40
0.000216266081281
 40
0.000216266081281
 40
0.000216266081281
 40
0.000216266081281
 10
60.23315929193551
 20
-24.52286380303776
 30
0.0
 10
60.2515515599133
 20
-24.5185506638508
 30
0.0
 10
60.27013248327012
 20
-24.51235653105689
 30
0.0
 10
60.28853217478913
 20
-24.50426916133336
 30
0.0
 10
60.30581619280773
 20
-24.49667217287949
 30
0.0
 10
60.32306297516377
 20
-24.48734930181246
 30
0.0
 10
60.33986648182583
 20
-24.47627891567807
 30
0.0
 10
60.35726064344809
 20
-24.46481939776226
 30
0.0
 10
60.37435072603022
 20
-24.45136775488678
 30
0.0
 10
60.39045112907172
 20
-24.43598035461278
 30
0.0
  0
SPLINE
  5
10A
330
1F
100
AcDbEntity
  8
0
  6
Continuous
 62
     1
370
    15
100
AcDbSpline
210
0.0
220
0.0
230
1.0
 70
     8
 71
     3
 72
     8
 73
     4
 74
     0
 42
0.000000001
 43
0.00000001
 40
0.0
 40
0.0
 40
0.0
 40
0.0
 40
1.0
 40
1.0
 40
1.0
 40
1.0
 10
60.23315929193115
 20
-24.52286380303869
 30
0.0
 10
59.35858119503131
 20
-24.72795961102872
 30
0.0
 10
58.48166912933791
 20
-24.89782537292463
 30
0.0
 10
57.60809723932748
 20
-25.0314029046491
 30
0.0
  0
SPLINE
  5
10B
330
1F
100
AcDbEntity
  8
0
  6
Continuous
 62
     1
370
    15
100
AcDbSpline
210
0.0
220
0.0
230
1.0
 70
     8
 71
     3
 72
    14
 73
    10
 74
     0
 42
0.000000001
 43
0.00000001
 40
0.0000000000000002
 40
0.0000000000000002
 40
0.0000000000000002
 40
0.0000000000000002
 40
0.0000698356466308
 40
0.0000698356466308
 40
0.0000698356466308
 40
0.0001463698931524
 40
0.0001463698931524
 40
0.0001463698931524
 40
0.000225117452567
 40
0.000225117452567
 40
0.000225117452567
 40
0.000225117452567
 10
57.45056009471291
 20
-25.00360766555995
 30
0.0
 10
57.46503748961243
 20
-25.01220628758997
 30
0.0
 10
57.48041537592071
 20
-25.01894214173167
 30
0.0
 10
57.49628629569009
 20
-25.02389016944151
 30
0.0
 10
57.51367601225223
 20
-25.02931170774339
 30
0.0
 10
57.53178910943501
 20
-25.03262945504568
 30
0.0
 10
57.55021475096019
 20
-25.0339065134804
 30
0.0
 10
57.5691720676111
 20
-25.03522042166078
 30
0.0
 10
57.58859958342146
 20
-25.03438428349607
 30
0.0
 10
57.60809723932618
 20
-25.03140290465386
 30
0.0
  0
SPLINE
  5
10C
330
1F
100
AcDbEntity
  8
0
  6
Continuous
 62
     1
370
    15
100
AcDbSpline
210
0.0
220
0.0
230
1.0
 70
     8
 71
     3
 72
    12
 73
     8
 74
     0
 42
0.000000001
 43
0.00000001
 40
0.0
 40
0.0
 40
0.0
 40
0.0
 40
0.5000000000000004
 40
0.5000000000000004
 40
0.7500000000000002
 40
0.7500000000000002
 40
1.0
 40
1.0
 40
1.0
 40
1.0
 10
56.82095123927852
 20
-25.09025220516175
 30
0.0
 10
56.9205643915644
 20
-25.00288685464381
 30
0.0
 10
57.03336166942271
 20
-24.9578498447429
 30
0.0
 10
57.19680560429248
 20
-24.93758533881477
 30
0.0
 10
57.25150199440329
 20
-24.93905324369846
 30
0.0
 10
57.35504415002387
 20
-24.95849327063505
 30
0.0
 10
57.40433477578152
 20
-24.97615286112378
 30
0.0
 10
57.45056009471269
 20
-25.00360766555976
 30
0.0
  0
SPLINE
  5
10D
330
1F
100
AcDbEntity
  8
0
  6
Continuous
 62
     1
370
    15
100
AcDbSpline
210
0.0
220
0.0
230
1.0
 70
     8
 71
     3
 72
    14
 73
    10
 74
     0
 42
0.000000001
 43
0.00000001
 40
0.0000000000000019
 40
0.0000000000000019
 40
0.0000000000000019
 40
0.0000000000000019
 40
0.0000743236056607
 40
0.0000743236056607
 40
0.0000743236056607
 40
0.0001440797180424
 40
0.0001440797180424
 40
0.0001440797180424
 40
0.0002163801588134
 40
0.0002163801588134
 40
0.0002163801588134
 40
0.0002163801588134
 10
56.66368822247944
 20
-25.16184845244995
 30
0.0
 10
56.68208823131013
 20
-25.15958202250136
 30
0.0
 10
56.70067684705288
 20
-25.15537335424242
 30
0.0
 10
56.71908401524853
 20
-25.14916262628511
 30
0.0
 10
56.73635913612612
 20
-25.14333386028157
 30
0.0
 10
56.75359691276649
 20
-25.13569898544434
 30
0.0
 10
56.77039216009118
 20
-25.12618373450567
 30
0.0
 10
56.78777685443688
 20
-25.11633453574167
 30
0.0
 10
56.80485799951837
 20
-25.10436672217432
 30
0.0
 10
56.82095123927838
 20
-25.09025220516187
 30
0.0
  0
SPLINE
  5
10E
330
1F
100
AcDbEntity
  8
0
  6
Continuous
 62
     1
370
    15
100
AcDbSpline
210
0.0
220
0.0
230
1.0
 70
     8
 71
     3
 72
     8
 73
     4
 74
     0
 42
0.000000001
 43
0.00000001
 40
0.0
 40
0.0
 40
0.0
 40
0.0
 40
1.0
 40
1.0
 40
1.0
 40
1.0
 10
56.66368822247777
 20
-25.16184845245009
 30
0.0
 10
55.79082576726773
 20
-25.26936370570675
 30
0.0
 10
54.91376432920913
 20
-25.34074013178681
 30
0.0
 10
54.03818033673704
 20
-25.37540232738334
 30
0.0
  0
SPLINE
  5
10F
330
1F
100
AcDbEntity
  8
0
  6
Continuous
 62
     1
370
    15
100
AcDbSpline
210
0.0
220
0.0
230
1.0
 70
     8
 71
     3
 72
    14
 73
    10
 74
     0
 42
0.000000001
 43
0.00000001
 40
0.0000000000000003
 40
0.0000000000000003
 40
0.0000000000000003
 40
0.0000000000000003
 40
0.0000698213029945
 40
0.0000698213029945
 40
0.0000698213029945
 40
0.000146351936902
 40
0.000146351936902
 40
0.000146351936902
 40
0.0002250964099903
 40
0.0002250964099903
 40
0.0002250964099903
 40
0.0002250964099903
 10
53.88056622603512
 20
-25.328212251386
 30
0.0
 10
53.89504952275067
 20
-25.33877018530556
 30
0.0
 10
53.91043352808656
 20
-25.34751722766423
 30
0.0
 10
53.92631058548611
 20
-25.35448247267087
 30
0.0
 10
53.9437097605335
 20
-25.36211546876509
 30
0.0
 10
53.96183262164604
 20
-25.36766801458519
 30
0.0
 10
53.98026791936216
 20
-25.37115596705877
 30
0.0
 10
53.99923532684869
 20
-25.37474459453193
 30
0.0
 10
54.01867293375719
 20
-25.37617457702185
 30
0.0
 10
54.03818033673573
 20
-25.37540232738812
 30
0.0
  0
SPLINE
  5
110
330
1F
100
AcDbEntity
  8
0
  6
Continuous
 62
     1
370
    15
100
AcDbSpline
210
0.0
220
0.0
230
1.0
 70
     8
 71
     3
 72
    12
 73
     8
 74
     0
 42
0.000000001
 43
0.00000001
 40
0.0
 40
0.0
 40
0.0
 40
0.0
 40
0.5
 40
0.5
 40
0.75
 40
0.75
 40
1.0
 40
1.0
 40
1.0
 40
1.0
 10
53.2506915740743
 20
-25.34348799281022
 30
0.0
 10
53.35032874065054
 20
-25.2654230074294
 30
0.0
 10
53.46319647817219
 20
-25.23222425388444
 30
0.0
 10
53.62671810607551
 20
-25.23047830918366
 30
0.0
 10
53.68143823384724
 20
-25.23838726800875
 30
0.0
 10
53.78501897666828
 20
-25.27053506856933
 30
0.0
 10
53.83432601586439
 20
-25.29450438134779
 30
0.0
 10
53.88056622603492
 20
-25.3282122513858
 30
0.0
  0
SPLINE
  5
111
330
1F
100
AcDbEntity
  8
0
  6
Continuous
 62
     1
370
    15
100
AcDbSpline
210
0.0
220
0.0
230
1.0
 70
     8
 71
     3
 72
    14
 73
    10
 74
     0
 42
0.000000001
 43
0.00000001
 40
0.0000000000000019
 40
0.0000000000000019
 40
0.0000000000000019
 40
0.0000000000000019
 40
0.0000743161469016
 40
0.0000743161469016
 40
0.0000743161469016
 40
0.0001440674965298
 40
0.0001440674965298
 40
0.0001440674965298
 40
0.0002163649941458
 40
0.0002163649941458
 40
0.0002163649941458
 40
0.0002163649941458
 10
53.09336895221515
 20
-25.39859313954339
 30
0.0
 10
53.11177291331792
 20
-25.39841862026274
 30
0.0
 10
53.13036649471059
 20
-25.39627482025902
 30
0.0
 10
53.14877955910363
 20
-25.3920547036093
 30
0.0
 10
53.16606074072865
 20
-25.38809400479535
 30
0.0
 10
53.1833054668854
 20
-25.38227485818995
 30
0.0
 10
53.20010802079372
 20
-25.37447134986977
 30
0.0
 10
53.21750071721465
 20
-25.36639376523761
 30
0.0
 10
53.23459043515913
 20
-25.35610311643541
 30
0.0
 10
53.25069157407415
 20
-25.34348799281031
 30
0.0
  0
SPLINE
  5
112
330
1F
100
AcDbEntity
  8
0
  6
Continuous
 62
     1
370
    15
100
AcDbSpline
210
0.0
220
0.0
230
1.0
 70
     8
 71
     3
 72
     8
 73
     4
 74
     0
 42
0.000000001
 43
0.00000001
 40
0.0
 40
0.0
 40
0.0
 40
0.0
 40
1.0
 40
1.0
 40
1.0
 40
1.0
 10
53.09336895221353
 20
-25.39859313954339
 30
0.0
 10
52.21829041345499
 20
-25.40689124863612
 30
0.0
 10
51.3442890965941
 20
-25.37849196565137
 30
0.0
 10
50.46704663616988
 20
-25.31338125145401
 30
0.0
  0
SPLINE
  5
113
330
1F
100
AcDbEntity
  8
0
  6
Continuous
 62
     1
370
    15
100
AcDbSpline
210
0.0
220
0.0
230
1.0
 70
     8
 71
     3
 72
    14
 73
    10
 74
     0
 42
0.000000001
 43
0.00000001
 40
0.0000000000000002
 40
0.0000000000000002
 40
0.0000000000000002
 40
0.0000000000000002
 40
0.0000698161774656
 40
0.0000698161774656
 40
0.0000698161774656
 40
0.0001463497145377
 40
0.0001463497145377
 40
0.0001463497145377
 40
0.0002250973045916
 40
0.0002250973045916
 40
0.0002250973045916
 40
0.0002250973045916
 10
50.30940600974343
 20
-25.24756276443255
 30
0.0
 10
50.32389112135667
 20
-25.25991024113255
 30
0.0
 10
50.33927691756204
 20
-25.27052728933979
 30
0.0
 10
50.35515562252901
 20
-25.27939686961109
 30
0.0
 10
50.37255853148211
 20
-25.28911784485652
 30
0.0
 10
50.39068512643043
 20
-25.29681494624244
 30
0.0
 10
50.40912394090811
 20
-25.30245664887732
 30
0.0
 10
50.42809500564558
 20
-25.30826120350558
 30
0.0
 10
50.44753607266735
 20
-25.3119331378739
 30
0.0
 10
50.4670466361686
 20
-25.3133812514587
 30
0.0
  0
SPLINE
  5
114
330
1F
100
AcDbEntity
  8
0
  6
Continuous
 62
     1
370
    15
100
AcDbSpline
210
0.0
220
0.0
230
1.0
 70
     8
 71
     3
 72
    12
 73
     8
 74
     0
 42
0.000000001
 43
0.00000001
 40
0.0
 40
0.0
 40
0.0
 40
0.0
 40
0.4999999999999996
 40
0.4999999999999996
 40
0.7499999999999998
 40
0.7499999999999998
 40
1.0
 40
1.0
 40
1.0
 40
1.0
 10
49.6794586919099
 20
-25.19132771665301
 30
0.0
 10
49.77911339173244
 20
-25.12377745027645
 30
0.0
 10
49.89200602888568
 20
-25.10294090839681
 30
0.0
 10
50.05554979287191
 20
-25.11971723636259
 30
0.0
 10
50.11027475500592
 20
-25.13393249536307
 30
0.0
 10
50.21385943916218
 20
-25.17825843502334
 30
0.0
 10
50.26316645439853
 20
-25.20814699412389
 30
0.0
 10
50.30940600974323
 20
-25.24756276443234
 30
0.0
  0
SPLINE
  5
115
330
1F
100
AcDbEntity
  8
0
  6
Continuous
 62
     1
370
    15
100
AcDbSpline
210
0.0
220
0.0
230
1.0
 70
     8
 71
     3
 72
    14
 73
    10
 74
     0
 42
0.000000001
 43
0.00000001
 40
0.0000000000000019
 40
0.0000000000000019
 40
0.0000000000000019
 40
0.0000000000000019
 40
0.0000742450747514
 40
0.0000742450747514
 40
0.0000742450747514
 40
0.0001439843826971
 40
0.0001439843826971
 40
0.0001439843826971
 40
0.0002162719976065
 40
0.0002162719976065
 40
0.0002162719976065
 40
0.0002162719976065
 10
49.52212559647756
 20
-25.22908123559446
 30
0.0
 10
49.54052262388042
 20
-25.23099840603603
 30
0.0
 10
49.55910885751585
 20
-25.23095159748878
 30
0.0
 10
49.57751431049147
 20
-25.22878944999638
 30
0.0
 10
49.59480181919808
 20
-25.22675863099674
 30
0.0
 10
49.61205255117014
 20
-25.22284573363214
 30
0.0
 10
49.62886024112243
 20
-25.21687599613317
 30
0.0
 10
49.64625887137602
 20
-25.21069636908445
 30
0.0
 10
49.66335375808539
 20
-25.20224433746221
 30
0.0
 10
49.67945869190976
 20
-25.19132771665308
 30
0.0
  0
SPLINE
  5
116
330
1F
100
AcDbEntity
  8
0
  6
Continuous
 62
     1
370
    15
100
AcDbSpline
210
0.0
220
0.0
230
1.0
 70
     8
 71
     3
 72
     8
 73
     4
 74
     0
 42
0.000000001
 43
0.00000001
 40
0.0
 40
0.0
 40
0.0
 40
0.0
 40
1.0
 40
1.0
 40
1.0
 40
1.0
 10
49.52212559647592
 20
-25.22908123559432
 30
0.0
 10
48.64507977678272
 20
-25.13768351765174
 30
0.0
 10
47.77252107923044
 20
-25.0099626388848
 30
0.0
 10
46.89587333224814
 20
-24.84607274407565
 30
0.0
  0
SPLINE
  5
117
330
1F
100
AcDbEntity
  8
0
  6
Continuous
 62
     1
370
    15
100
AcDbSpline
210
0.0
220
0.0
230
1.0
 70
     8
 71
     3
 72
    14
 73
    10
 74
     0
 42
0.000000001
 43
0.00000001
 40
0.0000000000000003
 40
0.0000000000000003
 40
0.0000000000000003
 40
0.0000000000000003
 40
0.0000698197137053
 40
0.0000698197137053
 40
0.0000698197137053
 40
0.0001463624161251
 40
0.0001463624161251
 40
0.0001463624161251
 40
0.0002251190940138
 40
0.0002251190940138
 40
0.0002251190940138
 40
0.0002251190940138
 10
46.73825707666148
 20
-24.76266881478328
 30
0.0
 10
46.75273982099257
 20
-24.7766094536796
 30
0.0
 10
46.76812298093663
 20
-24.78892761268364
 30
0.0
 10
46.78399874364125
 20
-24.7995604922315
 30
0.0
 10
46.80139963007272
 20
-24.81121483179896
 30
0.0
 10
46.81952390195809
 20
-24.82093433198611
 30
0.0
 10
46.83796006774352
 20
-24.82864066431772
 30
0.0
 10
46.8569283360606
 20
-24.83656941594146
 30
0.0
 10
46.87636621473816
 20
-24.84242587514371
 30
0.0
 10
46.89587333224681
 20
-24.84607274408014
 30
0.0
  0
SPLINE
  5
118
330
1F
100
AcDbEntity
  8
0
  6
Continuous
 62
     1
370
    15
100
AcDbSpline
210
0.0
220
0.0
230
1.0
 70
     8
 71
     3
 72
    12
 73
     8
 74
     0
 42
0.000000001
 43
0.00000001
 40
0.0
 40
0.0
 40
0.0
 40
0.0
 40
0.5000000000000069
 40
0.5000000000000069
 40
0.7500000000000034
 40
0.7500000000000034
 40
1.0
 40
1.0
 40
1.0
 40
1.0
 10
46.10843057108993
 20
-24.63583628605241
 30
0.0
 10
46.2080761796019
 20
-24.57987556621652
 30
0.0
 10
46.32095915395005
 20
-24.57173211299708
 30
0.0
 10
46.48447317430603
 20
-24.60675881154464
 30
0.0
 10
46.53918538386834
 20
-24.6270517748402
 30
0.0
 10
46.64274133766644
 20
-24.68284532536902
 30
0.0
 10
46.69203283990394
 20
-24.71817480327787
 30
0.0
 10
46.73825707666129
 20
-24.76266881478309
 30
0.0
  0
SPLINE
  5
119
330
1F
100
AcDbEntity
  8
0
  6
Continuous
 62
     1
370
    15
100
AcDbSpline
210
0.0
220
0.0
230
1.0
 70
     8
 71
     3
 72
    14
 73
    10
 74
     0
 42
0.000000001
 43
0.00000001
 40
0.0000000000000018
 40
0.0000000000000018
 40
0.0000000000000018
 40
0.0000000000000018
 40
0.0000741905462645
 40
0.0000741905462645
 40
0.0000741905462645
 40
0.0001439212573457
 40
0.0001439212573457
 40
0.0001439212573457
 40
0.0002162017960032
 40
0.0002162017960032
 40
0.0002162017960032
 40
0.0002162017960032
 10
45.95113284035965
 20
-24.65565088371036
 30
0.0
 10
45.96951936274333
 20
-24.65962530496681
 30
0.0
 10
45.98809470762044
 20
-24.66167205536014
 30
0.0
 10
46.00648911336646
 20
-24.66159791367636
 30
0.0
 10
46.02377675261653
 20
-24.66152823299734
 30
0.0
 10
46.0410273683848
 20
-24.65958322131066
 30
0.0
 10
46.05783442128786
 20
-24.6555419801083
 30
0.0
 10
46.07523283188144
 20
-24.65135854746534
 30
0.0
 10
46.09232701231769
 20
-24.64488000362582
 30
0.0
 10
46.10843057108979
 20
-24.63583628605249
 30
0.0
  0
SPLINE
  5
11A
330
1F
100
AcDbEntity
  8
0
  6
Continuous
 62
     1
370
    15
100
AcDbSpline
210
0.0
220
0.0
230
1.0
 70
     8
 71
     3
 72
     8
 73
     4
 74
     0
 42
0.000000001
 43
0.00000001
 40
0.0
 40
0.0
 40
0.0
 40
0.0
 40
1.0
 40
1.0
 40
1.0
 40
1.0
 10
45.95113284035806
 20
-24.65565088371012
 30
0.0
 10
45.07447646411561
 20
-24.46615329064926
 30
0.0
 10
44.19953269712151
 20
-24.24111450212138
 30
0.0
 10
43.32583820006487
 20
-23.98158730005873
 30
0.0
  0
SPLINE
  5
11B
330
1F
100
AcDbEntity
  8
0
  6
Continuous
 62
     1
370
    15
100
AcDbSpline
210
0.0
220
0.0
230
1.0
 70
     8
 71
     3
 72
    14
 73
    10
 74
     0
 42
0.000000001
 43
0.00000001
 40
0.0000000000000002
 40
0.0000000000000002
 40
0.0000000000000002
 40
0.0000000000000002
 40
0.0000698324896819
 40
0.0000698324896819
 40
0.0000698324896819
 40
0.0001463909330763
 40
0.0001463909330763
 40
0.0001463909330763
 40
0.0002251629611827
 40
0.0002251629611827
 40
0.0002251629611827
 40
0.0002251629611827
 10
43.16829680935646
 20
-23.88189881292394
 30
0.0
 10
43.18277310256832
 20
-23.89721320792763
 30
0.0
 10
43.19814929871994
 20
-23.91103894175498
 30
0.0
 10
43.21401762627031
 20
-23.92326848311248
 30
0.0
 10
43.23141076696253
 20
-23.93667318078823
 30
0.0
 10
43.24952668326829
 20
-23.948263169254
 30
0.0
 10
43.2679540541047
 20
-23.95791459931181
 30
0.0
 10
43.28691308494012
 20
-23.96784448902295
 30
0.0
 10
43.30634113196867
 20
-23.97579577963076
 30
0.0
 10
43.32583820006355
 20
-23.98158730006299
 30
0.0
  0
SPLINE
  5
11C
330
1F
100
AcDbEntity
  8
0
  6
Continuous
 62
     1
370
    15
100
AcDbSpline
210
0.0
220
0.0
230
1.0
 70
     8
 71
     3
 72
    12
 73
     8
 74
     0
 42
0.000000001
 43
0.00000001
 40
0.0
 40
0.0
 40
0.0
 40
0.0
 40
0.4999999999999982
 40
0.4999999999999982
 40
0.7499999999999991
 40
0.7499999999999991
 40
1.0
 40
1.0
 40
1.0
 40
1.0
 10
42.53874966199031
 20
-23.68640703827623
 30
0.0
 10
42.63836764190039
 20
-23.6429481425956
 30
0.0
 10
42.7512114096602
 20
-23.64764122024666
 30
0.0
 10
42.9146520897798
 20
-23.70037640683761
 30
0.0
 10
42.96933694226509
 20
-23.72642903225345
 30
0.0
 10
43.07283710899306
 20
-23.79281351055995
 30
0.0
 10
43.12210021314456
 20
-23.83302767499771
 30
0.0
 10
43.16829680935624
 20
-23.88189881292372
 30
0.0
  0
SPLINE
  5
11D
330
1F
100
AcDbEntity
  8
0
  6
Continuous
 62
     1
370
    15
100
AcDbSpline
210
0.0
220
0.0
230
1.0
 70
     8
 71
     3
 72
    14
 73
    10
 74
     0
 42
0.000000001
 43
0.00000001
 40
0.0000000000000025
 40
0.0000000000000025
 40
0.0000000000000025
 40
0.0000000000000025
 40
0.0000741816553888
 40
0.0000741816553888
 40
0.0000741816553888
 40
0.0001439112087329
 40
0.0001439112087329
 40
0.0001439112087329
 40
0.000216190630762
 40
0.000216190630762
 40
0.000216190630762
 40
0.000216190630762
 10
42.38150487866348
 20
-23.68794929987126
 30
0.0
 10
42.39988455672727
 20
-23.69391948989199
 30
0.0
 10
42.41845277817114
 20
-23.69802809814269
 30
0.0
 10
42.43683992983359
 20
-23.70004278497043
 30
0.0
 10
42.45412252812719
 20
-23.70193644548787
 30
0.0
 10
42.47136792936796
 20
-23.70199219385663
 30
0.0
 10
42.48816972591673
 20
-23.69994627942718
 30
0.0
 10
42.50556272046957
 20
-23.69782837623608
 30
0.0
 10
42.52265138423097
 20
-23.69343000114308
 30
0.0
 10
42.53874966199018
 20
-23.68640703827629
 30
0.0
  0
SPLINE
  5
11E
330
1F
100
AcDbEntity
  8
0
  6
Continuous
 62
     1
370
    15
100
AcDbSpline
210
0.0
220
0.0
230
1.0
 70
     8
 71
     3
 72
     8
 73
     4
 74
     0
 42
0.000000001
 43
0.00000001
 40
0.0
 40
0.0
 40
0.0
 40
0.0
 40
1.0
 40
1.0
 40
1.0
 40
1.0
 10
42.3815048786614
 20
-23.68794929987074
 30
0.0
 10
41.50656322996007
 20
-23.40374585072476
 30
0.0
 10
40.62956210905254
 20
-23.08509719178376
 30
0.0
 10
39.75617724918771
 20
-22.73412534266431
 30
0.0
  0
SPLINE
  5
11F
330
1F
100
AcDbEntity
  8
0
  6
Continuous
 62
     1
370
    15
100
AcDbSpline
210
0.0
220
0.0
230
1.0
 70
     8
 71
     3
 72
    14
 73
    10
 74
     0
 42
0.000000001
 43
0.00000001
 40
0.0000000000000003
 40
0.0000000000000003
 40
0.0000000000000003
 40
0.0000000000000003
 40
0.0000698976423024
 40
0.0000698976423024
 40
0.0000698976423024
 40
0.0001464623379448
 40
0.0001464623379448
 40
0.0001464623379448
 40
0.0002252379750811
 40
0.0002252379750811
 40
0.0002252379750811
 40
0.0002252379750811
 10
39.59856612894783
 20
-22.61976401107142
 30
0.0
 10
39.61305684011298
 20
-22.63621562378069
 30
0.0
 10
39.62844849042963
 20
-22.65133475882283
 30
0.0
 10
39.64433318035616
 20
-22.66497062566254
 30
0.0
 10
39.66172954015452
 20
-22.67990415265007
 30
0.0
 10
39.67984865769174
 20
-22.69317301436868
 30
0.0
 10
39.69828007319644
 20
-22.70460935928063
 30
0.0
 10
39.71724255915606
 20
-22.71637522337105
 30
0.0
 10
39.73667479853503
 20
-22.72628823501719
 30
0.0
 10
39.75617724918646
 20
-22.73412534266831
 30
0.0
  0
SPLINE
  5
120
330
1F
100
AcDbEntity
  8
0
  6
Continuous
 62
     1
370
    15
100
AcDbSpline
210
0.0
220
0.0
230
1.0
 70
     8
 71
     3
 72
    12
 73
     8
 74
     0
 42
0.000000001
 43
0.00000001
 40
0.0
 40
0.0
 40
0.0
 40
0.0
 40
0.4999999999999981
 40
0.4999999999999981
 40
0.749999999999999
 40
0.749999999999999
 40
1.0
 40
1.0
 40
1.0
 40
1.0
 10
38.96869590150056
 20
-22.35835118565878
 30
0.0
 10
39.06837070527602
 20
-22.32816729182923
 30
0.0
 10
39.18122747242487
 20
-22.34572735251772
 30
0.0
 10
39.34471814796643
 20
-22.41540867243724
 30
0.0
 10
39.39943012119183
 20
-22.44682195843295
 30
0.0
 10
39.5030086908561
 20
-22.52277934305287
 30
0.0
 10
39.55231935596984
 20
-22.56725906570209
 30
0.0
 10
39.5985661289476
 20
-22.61976401107122
 30
0.0
  0
SPLINE
  5
121
330
1F
100
AcDbEntity
  8
0
  6
Continuous
 62
     1
370
    15
100
AcDbSpline
210
0.0
220
0.0
230
1.0
 70
     8
 71
     3
 72
    14
 73
    10
 74
     0
 42
0.000000001
 43
0.00000001
 40
0.0000000000000019
 40
0.0000000000000019
 40
0.0000000000000019
 40
0.0000000000000019
 40
0.000074357728262
 40
0.000074357728262
 40
0.000074357728262
 40
0.0001441195878074
 40
0.0001441195878074
 40
0.0001441195878074
 40
0.0002164246178957
 40
0.0002164246178957
 40
0.0002164246178957
 40
0.0002164246178957
 10
38.81137665729173
 20
-22.34147182501013
 30
0.0
 10
38.82978760703194
 20
-22.34936651779413
 30
0.0
 10
38.84838729698367
 20
-22.35549122928322
 30
0.0
 10
38.86680543729521
 20
-22.35957698212319
 30
0.0
 10
38.88408438695448
 20
-22.36341002478918
 30
0.0
 10
38.90132599232859
 20
-22.36547431244646
 30
0.0
 10
38.91812518294124
 20
-22.36546715193764
 30
0.0
 10
38.93551363583752
 20
-22.36545974026089
 30
0.0
 10
38.95259864187087
 20
-22.36322581753363
 30
0.0
 10
38.96869590150044
 20
-22.35835118565877
 30
0.0
  0
SPLINE
  5
122
330
1F
100
AcDbEntity
  8
0
  6
Continuous
 62
     1
370
    15
100
AcDbSpline
210
0.0
220
0.0
230
1.0
 70
     8
 71
     3
 72
     8
 73
     4
 74
     0
 42
0.000000001
 43
0.00000001
 40
0.0
 40
0.0
 40
0.0
 40
0.0
 40
1.0
 40
1.0
 40
1.0
 40
1.0
 10
38.81137665729009
 20
-22.34147182500964
 30
0.0
 10
37.93800075339109
 20
-21.96696455929783
 30
0.0
 10
37.06070019082684
 20
-21.55963812584124
 30
0.0
 10
36.18515628073975
 20
-21.1220535835635
 30
0.0
  0
SPLINE
  5
123
330
1F
100
AcDbEntity
  8
0
  6
Continuous
 62
     1
370
    15
100
AcDbSpline
210
0.0
220
0.0
230
1.0
 70
     8
 71
     3
 72
    14
 73
    10
 74
     0
 42
0.000000001
 43
0.00000001
 40
0.0000000000000001
 40
0.0000000000000001
 40
0.0000000000000001
 40
0.0000000000000001
 40
0.0000698456424455
 40
0.0000698456424455
 40
0.0000698456424455
 40
0.0001463884738149
 40
0.0001463884738149
 40
0.0001463884738149
 40
0.0002251442215501
 40
0.0002251442215501
 40
0.0002251442215501
 40
0.0002251442215501
 10
36.02751468160874
 20
-20.99495002463211
 30
0.0
 10
36.04200297842449
 20
-21.01224990398388
 30
0.0
 10
36.05739216170095
 20
-21.02839758939725
 30
0.0
 10
36.07327440985061
 20
-21.04320142674129
 30
0.0
 10
36.09067601009233
 20
-21.0594214515814
 30
0.0
 10
36.10880106673628
 20
-21.07415228140872
 30
0.0
 10
36.12723848385728
 20
-21.08718484935199
 30
0.0
 10
36.14620776933902
 20
-21.10059337074377
 30
0.0
 10
36.16564710001131
 20
-21.11230316920129
 30
0.0
 10
36.18515628073847
 20
-21.12205358356713
 30
0.0
  0
SPLINE
  5
124
330
1F
100
AcDbEntity
  8
0
  6
Continuous
 62
     1
370
    15
100
AcDbSpline
210
0.0
220
0.0
230
1.0
 70
     8
 71
     3
 72
    12
 73
     8
 74
     0
 42
0.000000001
 43
0.00000001
 40
0.0
 40
0.0
 40
0.0
 40
0.0
 40
0.4999999999999984
 40
0.4999999999999984
 40
0.7499999999999992
 40
0.7499999999999992
 40
1.0
 40
1.0
 40
1.0
 40
1.0
 10
35.39755395244052
 20
-20.67260514306706
 30
0.0
 10
35.49720559098751
 20
-20.65608594741363
 30
0.0
 10
35.61008581823626
 20
-20.68602300946478
 30
0.0
 10
35.77362640446109
 20
-20.77133455707614
 30
0.0
 10
35.82835320101959
 20
-20.80755155774746
 30
0.0
 10
35.93194959039729
 20
-20.89175072301996
 30
0.0
 10
35.98126526683255
 20
-20.9397255005977
 30
0.0
 10
36.02751468160854
 20
-20.99495002463194
 30
0.0
  0
SPLINE
  5
125
330
1F
100
AcDbEntity
  8
0
  6
Continuous
 62
     1
370
    15
100
AcDbSpline
210
0.0
220
0.0
230
1.0
 70
     8
 71
     3
 72
    14
 73
    10
 74
     0
 42
0.000000001
 43
0.00000001
 40
0.000000000000002
 40
0.000000000000002
 40
0.000000000000002
 40
0.000000000000002
 40
0.0000743490436289
 40
0.0000743490436289
 40
0.0000743490436289
 40
0.0001441063187583
 40
0.0001441063187583
 40
0.0001441063187583
 40
0.0002164085883389
 40
0.0002164085883389
 40
0.0002164085883389
 40
0.0002164085883389
 10
35.24021521517805
 20
-20.63770720246271
 30
0.0
 10
35.25862506277378
 20
-20.64737916960483
 30
0.0
 10
35.27722465167096
 20
-20.65540535696157
 30
0.0
 10
35.29564371667093
 20
-20.66148497175524
 30
0.0
 10
35.31292438817278
 20
-20.66718883490504
 30
0.0
 10
35.33016865234048
 20
-20.67121841041059
 30
0.0
 10
35.34697101600635
 20
-20.673236825803
 30
0.0
 10
35.36436319323543
 20
-20.67532609365394
 30
0.0
 10
35.38145261936192
 20
-20.6752742519275
 30
0.0
 10
35.39755395244038
 20
-20.67260514306706
 30
0.0
  0
SPLINE
  5
126
330
1F
100
AcDbEntity
  8
0
  6
Continuous
 62
     1
370
    15
100
AcDbSpline
210
0.0
220
0.0
230
1.0
 70
     8
 71
     3
 72
     8
 73
     4
 74
     0
 42
0.000000001
 43
0.00000001
 40
0.0
 40
0.0
 40
0.0
 40
0.0
 40
1.0
 40
1.0
 40
1.0
 40
1.0
 10
35.24021521517636
 20
-20.63770720246205
 30
0.0
 10
34.36561931580412
 20
-20.17822144314254
 30
0.0
 10
33.49106010272735
 20
-19.68892931262253
 30
0.0
 10
32.61391751490679
 20
-19.17137978696961
 30
0.0
  0
SPLINE
  5
127
330
1F
100
AcDbEntity
  8
0
  6
Continuous
 62
     1
370
    15
100
AcDbSpline
210
0.0
220
0.0
230
1.0
 70
     8
 71
     3
 72
    14
 73
    10
 74
     0
 42
0.000000001
 43
0.00000001
 40
0.0000000000000002
 40
0.0000000000000002
 40
0.0000000000000002
 40
0.0000000000000002
 40
0.0000698025976655
 40
0.0000698025976655
 40
0.0000698025976655
 40
0.0001463299111855
 40
0.0001463299111855
 40
0.0001463299111855
 40
0.0002250718159142
 40
0.0002250718159142
 40
0.0002250718159142
 40
0.0002250718159142
 10
32.456296325229
 20
-19.03354512536018
 30
0.0
 10
32.47077805208151
 20
-19.05141853575396
 30
0.0
 10
32.48616036936941
 20
-19.06833822791865
 30
0.0
 10
32.50203561542266
 20
-19.08407486368097
 30
0.0
 10
32.51943668654403
 20
-19.10132400219464
 30
0.0
 10
32.53756161081056
 20
-19.11728355514365
 30
0.0
 10
32.55599885057287
 20
-19.13170657638016
 30
0.0
 10
32.57496846590269
 20
-19.1465460625656
 30
0.0
 10
32.59440822381579
 20
-19.1598685178934
 30
0.0
 10
32.61391751490541
 20
-19.17137978697277
 30
0.0
  0
SPLINE
  5
128
330
1F
100
AcDbEntity
  8
0
  6
Continuous
 62
     1
370
    15
100
AcDbSpline
210
0.0
220
0.0
230
1.0
 70
     8
 71
     3
 72
    12
 73
     8
 74
     0
 42
0.000000001
 43
0.00000001
 40
0.0
 40
0.0
 40
0.0
 40
0.0
 40
0.5000000000000029
 40
0.5000000000000029
 40
0.7500000000000014
 40
0.7500000000000014
 40
1.0
 40
1.0
 40
1.0
 40
1.0
 10
31.82644200812522
 20
-18.65544221280729
 30
0.0
 10
31.92607869241734
 20
-18.65278902563461
 30
0.0
 10
32.03895425151148
 20
-18.69464677112858
 30
0.0
 10
32.20247568009691
 20
-18.79423983109345
 30
0.0
 10
32.25719344609927
 20
-18.8346841724315
 30
0.0
 10
32.36076376589727
 20
-18.92578168929311
 30
0.0
 10
32.41006370543533
 20
-18.97648462452567
 30
0.0
 10
32.45629632522879
 20
-19.03354512536003
 30
0.0
  0
SPLINE
  5
129
330
1F
100
AcDbEntity
  8
0
  6
Continuous
 62
     1
370
    15
100
AcDbSpline
210
0.0
220
0.0
230
1.0
 70
     8
 71
     3
 72
    14
 73
    10
 74
     0
 42
0.000000001
 43
0.00000001
 40
0.0000000000000019
 40
0.0000000000000019
 40
0.0000000000000019
 40
0.0000000000000019
 40
0.0000742269886909
 40
0.0000742269886909
 40
0.0000742269886909
 40
0.0001439633799804
 40
0.0001439633799804
 40
0.0001439633799804
 40
0.000216248721015
 40
0.000216248721015
 40
0.000216248721015
 40
0.000216248721015
 10
31.66913540707029
 20
-18.60320345022485
 30
0.0
 10
31.6875268480966
 20
-18.61447247991552
 30
0.0
 10
31.7061074813641
 20
-18.62424852079312
 30
0.0
 10
31.72450743911658
 20
-18.63220548122494
 30
0.0
 10
31.74179325269198
 20
-18.63968063614114
 30
0.0
 10
31.75904233729408
 20
-18.64560217059975
 30
0.0
 10
31.77584835013046
 20
-18.64960510429065
 30
0.0
 10
31.79324542108903
 20
-18.65374881893262
 30
0.0
 10
31.81033873367558
 20
-18.65587102074594
 30
0.0
 10
31.82644200812507
 20
-18.65544221280728
 30
0.0
  0
SPLINE
  5
12A
330
1F
100
AcDbEntity
  8
0
  6
Continuous
 62
     1
370
    15
100
AcDbSpline
210
0.0
220
0.0
230
1.0
 70
     8
 71
     3
 72
     8
 73
     4
 74
     0
 42
0.000000001
 43
0.00000001
 40
0.0
 40
0.0
 40
0.0
 40
0.0
 40
1.0
 40
1.0
 40
1.0
 40
1.0
 10
31.66913540706868
 20
-18.60320345022409
 30
0.0
 10
30.79250851122762
 20
-18.06606584894262
 30
0.0
 10
29.92025070274257
 20
-17.5029412246058
 30
0.0
 10
29.04364038863349
 20
-16.91440415617257
 30
0.0
  0
SPLINE
  5
12B
330
1F
100
AcDbEntity
  8
0
  6
Continuous
 62
     1
370
    15
100
AcDbSpline
210
0.0
220
0.0
230
1.0
 70
     8
 71
     3
 72
    14
 73
    10
 74
     0
 42
0.000000001
 43
0.00000001
 40
0.0000000000000018
 40
0.0000000000000018
 40
0.0000000000000018
 40
0.0000000000000018
 40
0.0000697685349885
 40
0.0000697685349885
 40
0.0000697685349885
 40
0.0001462867045516
 40
0.0001462867045516
 40
0.0001462867045516
 40
0.0002250208376241
 40
0.0002250208376241
 40
0.0002250208376241
 40
0.0002250208376241
 10
28.88609013383529
 20
-16.76799981476361
 30
0.0
 10
28.900561181455
 20
-16.78616523515245
 30
0.0
 10
28.91593228111784
 20
-16.80359051767813
 30
0.0
 10
28.93179601125992
 20
-16.82001233900088
 30
0.0
 10
28.94919082494927
 20
-16.83801910788756
 30
0.0
 10
28.96730958494867
 20
-16.85495685440069
 30
0.0
 10
28.98574050585706
 20
-16.87054464954674
 30
0.0
 10
29.00470401846339
 20
-16.88658287960731
 30
0.0
 10
29.02413757427101
 20
-16.90131039147085
 30
0.0
 10
29.04364038863199
 20
-16.91440415617516
 30
0.0
  0
SPLINE
  5
12C
330
1F
100
AcDbEntity
  8
0
  6
Continuous
 62
     1
370
    15
100
AcDbSpline
210
0.0
220
0.0
230
1.0
 70
     8
 71
     3
 72
    12
 73
     8
 74
     0
 42
0.000000001
 43
0.00000001
 40
0.0
 40
0.0
 40
0.0
 40
0.0
 40
0.5000000000000022
 40
0.5000000000000022
 40
0.7500000000000011
 40
0.7500000000000011
 40
1.0
 40
1.0
 40
1.0
 40
1.0
 10
28.25653383262843
 20
-16.3400491347574
 30
0.0
 10
28.35612926710575
 20
-16.35132468420521
 30
0.0
 10
28.46896588527851
 20
-16.40445860036739
 30
0.0
 10
28.63241671643176
 20
-16.51677447778039
 30
0.0
 10
28.68710801589341
 20
-16.56081051812658
 30
0.0
 10
28.79061992150518
 20
-16.65737199114148
 30
0.0
 10
28.83988880388582
 20
-16.71000355885243
 30
0.0
 10
28.88609013383516
 20
-16.76799981476359
 30
0.0
  0
SPLINE
  5
12D
330
1F
100
AcDbEntity
  8
0
  6
Continuous
 62
     1
370
    15
100
AcDbSpline
210
0.0
220
0.0
230
1.0
 70
     8
 71
     3
 72
    14
 73
    10
 74
     0
 42
0.000000001
 43
0.00000001
 40
0.000000000000002
 40
0.000000000000002
 40
0.000000000000002
 40
0.000000000000002
 40
0.000074124061828
 40
0.000074124061828
 40
0.000074124061828
 40
0.0001438429809451
 40
0.0001438429809451
 40
0.0001438429809451
 40
0.0002161141518352
 40
0.0002161141518352
 40
0.0002161141518352
 40
0.0002161141518352
 10
28.09930343619684
 20
-16.27127783470933
 30
0.0
 10
28.11767351812946
 20
-16.28396580013189
 30
0.0
 10
28.1362322797293
 20
-16.29533674402703
 30
0.0
 10
28.15461031589383
 20
-16.3050442210404
 30
0.0
 10
28.17189505709388
 20
-16.31417420785615
 30
0.0
 10
28.1891428216075
 20
-16.32189651887479
 30
0.0
 10
28.20594669428976
 20
-16.32782368369475
 30
0.0
 10
28.22334248650796
 20
-16.33395963399624
 30
0.0
 10
28.24043379387253
 20
-16.3382263927406
 30
0.0
 10
28.25653383262832
 20
-16.3400491347574
 30
0.0
  0
SPLINE
  5
12E
330
1F
100
AcDbEntity
  8
0
  6
Continuous
 62
     1
370
    15
100
AcDbSpline
210
0.0
220
0.0
230
1.0
 70
     8
 71
     3
 72
     8
 73
     4
 74
     0
 42
0.000000001
 43
0.00000001
 40
0.0
 40
0.0
 40
0.0
 40
0.0
 40
1.0
 40
1.0
 40
1.0
 40
1.0
 10
28.09930343619512
 20
-16.27127783470848
 30
0.0
 10
27.22254334519792
 20
-15.66571157978627
 30
0.0
 10
26.34829520025047
 20
-15.03719510687918
 30
0.0
 10
25.47411840410638
 20
-14.38793102759274
 30
0.0
  0
SPLINE
  5
12F
330
1F
100
AcDbEntity
  8
0
  6
Continuous
 62
     1
370
    15
100
AcDbSpline
210
0.0
220
0.0
230
1.0
 70
     8
 71
     3
 72
    14
 73
    10
 74
     0
 42
0.000000001
 43
0.00000001
 40
0.0000000000000003
 40
0.0000000000000003
 40
0.0000000000000003
 40
0.0000000000000003
 40
0.0000698648056912
 40
0.0000698648056912
 40
0.0000698648056912
 40
0.0001464334472253
 40
0.0001464334472253
 40
0.0001464334472253
 40
0.0002252143516944
 40
0.0002252143516944
 40
0.0002252143516944
 40
0.0002252143516944
 10
25.31651663413212
 20
-14.23510221936631
 30
0.0
 10
25.33100264608362
 20
-14.25330451218751
 30
0.0
 10
25.34638893560845
 20
-14.27099031591117
 30
0.0
 10
25.36226746863005
 20
-14.28786642170557
 30
0.0
 10
25.37966610483304
 20
-14.30635813154048
 30
0.0
 10
25.39778724475921
 20
-14.32401851850394
 30
0.0
 10
25.41621976972266
 20
-14.34053793738806
 30
0.0
 10
25.43518371319422
 20
-14.35753361901729
 30
0.0
 10
25.45461652625771
 20
-14.37344669350956
 30
0.0
 10
25.47411840410518
 20
-14.387931027595
 30
0.0
  0
SPLINE
  5
130
330
1F
100
AcDbEntity
  8
0
  6
Continuous
 62
     1
370
    15
100
AcDbSpline
210
0.0
220
0.0
230
1.0
 70
     8
 71
     3
 72
    12
 73
     8
 74
     0
 42
0.000000001
 43
0.00000001
 40
0.0
 40
0.0
 40
0.0
 40
0.0
 40
0.5000000000000021
 40
0.5000000000000021
 40
0.750000000000001
 40
0.750000000000001
 40
1.0
 40
1.0
 40
1.0
 40
1.0
 10
24.68669742208841
 20
-13.7633446873529
 30
0.0
 10
24.78635957144517
 20
-13.7884995466354
 30
0.0
 10
24.8992479185731
 20
-13.85220635011423
 30
0.0
 10
25.06275436362527
 20
-13.97563998009167
 30
0.0
 10
25.11746180952291
 20
-14.02262584397778
 30
0.0
 10
25.2210091143745
 20
-14.12323825761179
 30
0.0
 10
25.27029628069205
 20
-14.17702437085757
 30
0.0
 10
25.31651663413191
 20
-14.23510221936618
 30
0.0
  0
SPLINE
  5
131
330
1F
100
AcDbEntity
  8
0
  6
Continuous
 62
     1
370
    15
100
AcDbSpline
210
0.0
220
0.0
230
1.0
 70
     8
 71
     3
 72
    14
 73
    10
 74
     0
 42
0.000000001
 43
0.00000001
 40
0.0000000000000018
 40
0.0000000000000018
 40
0.0000000000000018
 40
0.0000000000000018
 40
0.0000742322235797
 40
0.0000742322235797
 40
0.0000742322235797
 40
0.0001439704817415
 40
0.0001439704817415
 40
0.0001439704817415
 40
0.0002162568590865
 40
0.0002162568590865
 40
0.0002162568590865
 40
0.0002162568590865
 10
24.52939036748552
 20
-13.67893584159295
 30
0.0
 10
24.54778374597509
 20
-13.69288214413864
 30
0.0
 10
24.56636584184752
 20
-13.70570496401472
 30
0.0
 10
24.58476674695045
 20
-13.71704143786841
 30
0.0
 10
24.60205270821183
 20
-13.72769101443975
 30
0.0
 10
24.61930148138253
 20
-13.73710352321682
 30
0.0
 10
24.63610689445945
 20
-13.74487511729795
 30
0.0
 10
24.65350314472701
 20
-13.75291994160512
 30
0.0
 10
24.67059527082203
 20
-13.75928048291946
 30
0.0
 10
24.68669742208831
 20
-13.76334468735278
 30
0.0
  0
SPLINE
  5
132
330
1F
100
AcDbEntity
  8
0
  6
Continuous
 62
     1
370
    15
100
AcDbSpline
210
0.0
220
0.0
230
1.0
 70
     8
 71
     3
 72
     8
 73
     4
 74
     0
 42
0.000000001
 43
0.00000001
 40
0.0
 40
0.0
 40
0.0
 40
0.0
 40
1.0
 40
1.0
 40
1.0
 40
1.0
 10
24.52939036747645
 20
-13.67893584158651
 30
0.0
 10
23.65389840147583
 20
-13.01511674814625
 30
0.0
 10
22.77662192993918
 20
-12.33106751735743
 30
0.0
 10
21.90324182050998
 20
-11.63126308575912
 30
0.0
  0
SPLINE
  5
133
330
1F
100
AcDbEntity
  8
0
  6
Continuous
 62
     1
370
    15
100
AcDbSpline
210
0.0
220
0.0
230
1.0
 70
     8
 71
     3
 72
    14
 73
    10
 74
     0
 42
0.000000001
 43
0.00000001
 40
0.0000000000000001
 40
0.0000000000000001
 40
0.0000000000000001
 40
0.0000000000000001
 40
0.0000699341000458
 40
0.0000699341000458
 40
0.0000699341000458
 40
0.0001465171150478
 40
0.0001465171150478
 40
0.0001465171150478
 40
0.0002253096906583
 40
0.0002253096906583
 40
0.0002253096906583
 40
0.0002253096906583
 10
21.74559630613193
 20
-11.47454425526193
 30
0.0
 10
21.76009389546979
 20
-11.49248570154354
 30
0.0
 10
21.77549264872117
 20
-11.5101428268707
 30
0.0
 10
21.79138443173921
 20
-11.52719676060183
 30
0.0
 10
21.80878369186754
 20
-11.54586841178548
 30
0.0
 10
21.82690532735578
 20
-11.56395887007415
 30
0.0
 10
21.84533912179094
 20
-11.58113422309891
 30
0.0
 10
21.86430360262618
 20
-11.59880403353442
 30
0.0
 10
21.8837375734894
 20
-11.61563511535956
 30
0.0
 10
21.90324182050878
 20
-11.63126308576084
 30
0.0
  0
SPLINE
  5
134
330
1F
100
AcDbEntity
  8
0
  6
Continuous
 62
     1
370
    15
100
AcDbSpline
210
0.0
220
0.0
230
1.0
 70
     8
 71
     3
 72
    12
 73
     8
 74
     0
 42
0.000000001
 43
0.00000001
 40
0.0
 40
0.0
 40
0.0
 40
0.0
 40
0.5000000000000011
 40
0.5000000000000011
 40
0.7500000000000006
 40
0.7500000000000006
 40
1.0
 40
1.0
 40
1.0
 40
1.0
 10
21.11561807417504
 20
-10.96617483151232
 30
0.0
 10
21.21532223341921
 20
-11.00488211256912
 30
0.0
 10
21.32822903224811
 20
-11.07821793208111
 30
0.0
 10
21.49174100146568
 20
-11.21089868182897
 30
0.0
 10
21.54644912838139
 20
-11.26011548453945
 30
0.0
 10
21.6500303633932
 20
-11.36321218251116
 30
0.0
 10
21.69934436140121
 20
-11.41730530591208
 30
0.0
 10
21.74559630613171
 20
-11.47454425526183
 30
0.0
  0
SPLINE
  5
135
330
1F
100
AcDbEntity
  8
0
  6
Continuous
 62
     1
370
    15
100
AcDbSpline
210
0.0
220
0.0
230
1.0
 70
     8
 71
     3
 72
    14
 73
    10
 74
     0
 42
0.000000001
 43
0.00000001
 40
0.000000000000002
 40
0.000000000000002
 40
0.000000000000002
 40
0.000000000000002
 40
0.0000743576842791
 40
0.0000743576842791
 40
0.0000743576842791
 40
0.00014411944451
 40
0.00014411944451
 40
0.00014411944451
 40
0.0002164244131037
 40
0.0002164244131037
 40
0.0002164244131037
 40
0.0002164244131037
 10
20.95827873334138
 20
-10.86737520498563
 30
0.0
 10
20.97669200786591
 20
-10.88237181484761
 30
0.0
 10
20.9952940648011
 20
-10.89645706163698
 30
0.0
 10
21.01371456413225
 20
-10.90925718334136
 30
0.0
 10
21.03099571213394
 20
-10.92126558732849
 30
0.0
 10
21.04823952536132
 20
-10.93222719395917
 30
0.0
 10
21.0650408688853
 20
-10.9417283450225
 30
0.0
 10
21.08243155900106
 20
-10.95156277127833
 30
0.0
 10
21.09951876841415
 20
-10.95992473765841
 30
0.0
 10
21.11561807417486
 20
-10.96617483151232
 30
0.0
  0
SPLINE
  5
136
330
1F
100
AcDbEntity
  8
0
  6
Continuous
 62
     1
370
    15
100
AcDbSpline
210
0.0
220
0.0
230
1.0
 70
     8
 71
     3
 72
     8
 73
     4
 74
     0
 42
0.000000001
 43
0.00000001
 40
0.0
 40
0.0
 40
0.0
 40
0.0
 40
1.0
 40
1.0
 40
1.0
 40
1.0
 10
20.9582787333397
 20
-10.86737520498457
 30
0.0
 10
20.08459879196483
 20
-10.15581044730654
 30
0.0
 10
19.20727218978949
 20
-9.427564213250527
 30
0.0
 10
18.33198094080367
 20
-8.687327877997967
 30
0.0
  0
SPLINE
  5
137
330
1F
100
AcDbEntity
  8
0
  6
Continuous
 62
     1
370
    15
100
AcDbSpline
210
0.0
220
0.0
230
1.0
 70
     8
 71
     3
 72
    14
 73
    10
 74
     0
 42
0.000000001
 43
0.00000001
 40
0.0000000000000001
 40
0.0000000000000001
 40
0.0000000000000001
 40
0.0000000000000001
 40
0.0000698440407368
 40
0.0000698440407368
 40
0.0000698440407368
 40
0.0001463867354088
 40
0.0001463867354088
 40
0.0001463867354088
 40
0.0002251424283898
 40
0.0002251424283898
 40
0.0002251424283898
 40
0.0002251424283898
 10
18.17435190995027
 20
-8.529530439050042
 30
0.0
 10
18.1888386826982
 20
-8.546870495213728
 30
0.0
 10
18.20422629406629
 20
-8.564164203287156
 30
0.0
 10
18.22010696730675
 20
-8.581073128462048
 30
0.0
 10
18.23750720749372
 20
-8.599600010470862
 30
0.0
 10
18.25563091884084
 20
-8.61780570527372
 30
0.0
 10
18.27406702344306
 20
-8.63533700499151
 30
0.0
 10
18.29303497940629
 20
-8.653374053934337
 30
0.0
 10
18.31247301145715
 20
-8.670829965854189
 30
0.0
 10
18.3319809408024
 20
-8.687327877999081
 30
0.0
  0
SPLINE
  5
138
330
1F
100
AcDbEntity
  8
0
  6
Continuous
 62
     1
370
    15
100
AcDbSpline
210
0.0
220
0.0
230
1.0
 70
     8
 71
     3
 72
    12
 73
     8
 74
     0
 42
0.000000001
 43
0.00000001
 40
0.0
 40
0.0
 40
0.0
 40
0.0
 40
0.5000000000000001
 40
0.5000000000000001
 40
0.75
 40
0.75
 40
1.0
 40
1.0
 40
1.0
 40
1.0
 10
17.54445797838268
 20
-7.994355878020404
 30
0.0
 10
17.64409744344519
 20
-8.045797705977456
 30
0.0
 10
17.7569645766215
 20
-8.12728454041896
 30
0.0
 10
17.92048792862916
 20
-8.26662546163653
 30
0.0
 10
17.97520922139109
 20
-8.317127870042253
 30
0.0
 10
18.0787956096889
 20
-8.420774750233669
 30
0.0
 10
18.12810670548575
 20
-8.474176879173893
 30
0.0
 10
18.17435190995004
 20
-8.529530439049966
 30
0.0
  0
SPLINE
  5
139
330
1F
100
AcDbEntity
  8
0
  6
Continuous
 62
     1
370
    15
100
AcDbSpline
210
0.0
220
0.0
230
1.0
 70
     8
 71
     3
 72
    14
 73
    10
 74
     0
 42
0.000000001
 43
0.00000001
 40
0.0000000000000019
 40
0.0000000000000019
 40
0.0000000000000019
 40
0.0000000000000019
 40
0.0000743476623832
 40
0.0000743476623832
 40
0.0000743476623832
 40
0.0001441050016791
 40
0.0001441050016791
 40
0.0001441050016791
 40
0.0002164073813894
 40
0.0002164073813894
 40
0.0002164073813894
 40
0.0002164073813894
 10
17.38713950647524
 20
-7.882951143719257
 30
0.0
 10
17.40554657996967
 20
-7.89872558053889
 30
0.0
 10
17.42414342326831
 20
-7.913816094218501
 30
0.0
 10
17.44255982951835
 20
-7.9278447535185
 30
0.0
 10
17.45983834175458
 20
-7.941006624411335
 30
0.0
 10
17.47708050429368
 20
-7.953326426132771
 30
0.0
 10
17.49388086822313
 20
-7.96438689257638
 30
0.0
 10
17.51127098633293
 20
-7.975835621818888
 30
0.0
 10
17.52835844409363
 20
-7.986044016123516
 30
0.0
 10
17.54445797838251
 20
-7.994355878020396
 30
0.0
  0
SPLINE
  5
13A
330
1F
100
AcDbEntity
  8
0
  6
Continuous
 62
     1
370
    15
100
AcDbSpline
210
0.0
220
0.0
230
1.0
 70
     8
 71
     3
 72
     8
 73
     4
 74
     0
 42
0.000000001
 43
0.00000001
 40
0.0
 40
0.0
 40
0.0
 40
0.0
 40
1.0
 40
1.0
 40
1.0
 40
1.0
 10
17.38713950647823
 20
-7.882951143722251
 30
0.0
 10
16.59251683856959
 20
-7.201977871452318
 30
0.0
 10
15.79727170097006
 20
-6.511419063197206
 30
0.0
 10
15.0
 20
-5.813314106050375
 30
0.0
  0
SPLINE
  5
13B
330
1F
100
AcDbEntity
  8
0
  6
Continuous
 62
     1
370
    15
100
AcDbSpline
210
0.0
220
0.0
230
1.0
 70
     8
 71
     3
 72
     8
 73
     4
 74
     0
 42
0.000000001
 43
0.00000001
 40
0.0
 40
0.0
 40
0.0
 40
0.0
 40
1.0
 40
1.0
 40
1.0
 40
1.0
 10
16.56616974612099
 20
23.27716348665288
 30
0.0
 10
16.04503870122423
 20
23.46511083523837
 30
0.0
 10
15.52258068735421
 20
23.64127261827894
 30
0.0
 10
14.99999999999998
 20
23.80520878092625
 30
0.0
  0
SPLINE
  5
13C
330
1F
100
AcDbEntity
  8
0
  6
Continuous
 62
     1
370
    15
100
AcDbSpline
210
0.0
220
0.0
230
1.0
 70
     8
 71
     3
 72
    14
 73
    10
 74
     0
 42
0.000000001
 43
0.00000001
 40
0.0000000000000001
 40
0.0000000000000001
 40
0.0000000000000001
 40
0.0000000000000001
 40
0.0000699258559648
 40
0.0000699258559648
 40
0.0000699258559648
 40
0.0001465051242872
 40
0.0001465051242872
 40
0.0001465051242872
 40
0.0002252942663432
 40
0.0002252942663432
 40
0.0002252942663432
 40
0.0002252942663432
 10
16.72381613243827
 20
23.16843049264175
 30
0.0
 10
16.7093193011283
 20
23.18446775971326
 30
0.0
 10
16.69392132367067
 20
23.19910599306676
 30
0.0
 10
16.67803030712947
 20
23.21221159038358
 30
0.0
 10
16.6606306962444
 20
23.22656135165516
 30
0.0
 10
16.64250860116349
 20
23.23918359262049
 30
0.0
 10
16.62407432262697
 20
23.24992786626589
 30
0.0
 10
16.60510924329696
 20
23.26098151296135
 30
0.0
 10
16.58567461501261
 20
23.27012900189394
 30
0.0
 10
16.56616974612244
 20
23.27716348665237
 30
0.0
  0
SPLINE
  5
13D
330
1F
100
AcDbEntity
  8
0
  6
Continuous
 62
     1
370
    15
100
AcDbSpline
210
0.0
220
0.0
230
1.0
 70
     8
 71
     3
 72
    12
 73
     8
 74
     0
 42
0.000000001
 43
0.00000001
 40
0.0
 40
0.0
 40
0.0
 40
0.0
 40
0.5000000000000022
 40
0.5000000000000022
 40
0.7500000000000011
 40
0.7500000000000011
 40
1.0
 40
1.0
 40
1.0
 40
1.0
 10
17.35379733896517
 20
22.93270332770326
 30
0.0
 10
17.25409840717397
 20
22.89717115199517
 30
0.0
 10
17.14120704207259
 20
22.90966120749195
 30
0.0
 10
16.97769911095925
 20
22.97274758562951
 30
0.0
 10
16.9229815129603
 20
23.00208881318165
 30
0.0
 10
16.81938975397399
 20
23.07438821048697
 30
0.0
 10
16.77007146499839
 20
23.11726006057367
 30
0.0
 10
16.72381613243849
 20
23.16843049264157
 30
0.0
  0
SPLINE
  5
13E
330
1F
100
AcDbEntity
  8
0
  6
Continuous
 62
     1
370
    15
100
AcDbSpline
210
0.0
220
0.0
230
1.0
 70
     8
 71
     3
 72
    14
 73
    10
 74
     0
 42
0.000000001
 43
0.00000001
 40
0.0000000000000007
 40
0.0000000000000007
 40
0.0000000000000007
 40
0.0000000000000007
 40
0.000074369626189
 40
0.000074369626189
 40
0.000074369626189
 40
0.0001441336467502
 40
0.0001441336467502
 40
0.0001441336467502
 40
0.0002164404075083
 40
0.0002164404075083
 40
0.0002164404075083
 40
0.0002164404075083
 10
17.51113728519132
 20
22.92311925944834
 30
0.0
 10
17.49272242315931
 20
22.93026755575712
 30
0.0
 10
17.47411877185074
 20
22.93560378397533
 30
0.0
 10
17.45569670589422
 20
22.93887264720475
 30
0.0
 10
17.43841628872525
 20
22.94193893306032
 30
0.0
 10
17.42117321599308
 20
22.94320647103627
 30
0.0
 10
17.40437251701622
 20
22.94238743069291
 30
0.0
 10
17.38698262255814
 20
22.94153966685002
 30
0.0
 10
17.36989613831213
 20
22.93844085524551
 30
0.0
 10
17.35379733896534
 20
22.93270332770334
 30
0.0
  0
SPLINE
  5
13F
330
1F
100
AcDbEntity
  8
0
  6
Continuous
 62
     1
370
    15
100
AcDbSpline
210
0.0
220
0.0
230
1.0
 70
     8
 71
     3
 72
     8
 73
     4
 74
     0
 42
0.000000001
 43
0.00000001
 40
0.0
 40
0.0
 40
0.0
 40
0.0
 40
1.0
 40
1.0
 40
1.0
 40
1.0
 10
20.13739925544538
 20
21.80745148150732
 30
0.0
 10
19.26195421150256
 20
22.21137227337034
 30
0.0
 10
18.38463966496463
 20
22.58404238630961
 30
0.0
 10
17.5111372851952
 20
22.92311925944704
 30
0.0
  0
SPLINE
  5
140
330
1F
100
AcDbEntity
  8
0
  6
Continuous
 62
     1
370
    15
100
AcDbSpline
210
0.0
220
0.0
230
1.0
 70
     8
 71
     3
 72
    14
 73
    10
 74
     0
 42
0.000000001
 43
0.00000001
 40
0.0000000000000004
 40
0.0000000000000004
 40
0.0000000000000004
 40
0.0000000000000004
 40
0.0000698356322205
 40
0.0000698356322205
 40
0.0000698356322205
 40
0.0001463746805012
 40
0.0001463746805012
 40
0.0001463746805012
 40
0.0002251270512863
 40
0.0002251270512863
 40
0.0002251270512863
 40
0.0002251270512863
 10
20.29502315097299
 20
21.68523494063669
 30
0.0
 10
20.2805377474001
 20
21.70222169377247
 30
0.0
 10
20.26515155292011
 20
21.71798262831864
 30
0.0
 10
20.24927230205016
 20
21.73234199185185
 30
0.0
 10
20.23187236476547
 20
21.74807648883612
 30
0.0
 10
20.21374886499283
 20
21.76224856769584
 30
0.0
 10
20.19531295278212
 20
21.77466512036267
 30
0.0
 10
20.17634509208464
 20
21.78743993934834
 30
0.0
 10
20.15690710650443
 20
21.79845077186607
 30
0.0
 10
20.1373992554469
 20
21.80745148150662
 30
0.0
  0
SPLINE
  5
141
330
1F
100
AcDbEntity
  8
0
  6
Continuous
 62
     1
370
    15
100
AcDbSpline
210
0.0
220
0.0
230
1.0
 70
     8
 71
     3
 72
    12
 73
     8
 74
     0
 42
0.000000001
 43
0.00000001
 40
0.0
 40
0.0
 40
0.0
 40
0.0
 40
0.4999999999999996
 40
0.4999999999999996
 40
0.7499999999999998
 40
0.7499999999999998
 40
1.0
 40
1.0
 40
1.0
 40
1.0
 10
20.92489429875211
 20
21.38681259950397
 30
0.0
 10
20.82525890251804
 20
21.36478472285388
 30
0.0
 10
20.71239427588729
 20
21.3897853099034
 30
0.0
 10
20.54887543199764
 20
21.46896290904411
 30
0.0
 10
20.49415588106166
 20
21.50331472035404
 30
0.0
 10
20.39057403865273
 20
21.58435183545583
 30
0.0
 10
20.3412655655125
 20
21.63100735379496
 30
0.0
 10
20.29502315097323
 20
21.68523494063651
 30
0.0
  0
SPLINE
  5
142
330
1F
100
AcDbEntity
  8
0
  6
Continuous
 62
     1
370
    15
100
AcDbSpline
210
0.0
220
0.0
230
1.0
 70
     8
 71
     3
 72
    14
 73
    10
 74
     0
 42
0.000000001
 43
0.00000001
 40
0.0000000000000004
 40
0.0000000000000004
 40
0.0000000000000004
 40
0.0000000000000004
 40
0.000074330183826
 40
0.000074330183826
 40
0.000074330183826
 40
0.0001440845063289
 40
0.0001440845063289
 40
0.0001440845063289
 40
0.000216384454608
 40
0.000216384454608
 40
0.000216384454608
 40
0.000216384454608
 10
21.08220659028623
 20
21.35907045165786
 30
0.0
 10
21.06380237431072
 20
21.36804765893649
 30
0.0
 10
21.04520845451324
 20
21.37532669292298
 30
0.0
 10
21.02679497606036
 20
21.38061884465571
 30
0.0
 10
21.00951591606282
 20
21.38558495725306
 30
0.0
 10
20.99227323725177
 20
21.38883531247091
 30
0.0
 10
20.97547250939289
 20
21.39004592096223
 30
0.0
 10
20.95808185044553
 20
21.39129903806336
 30
0.0
 10
20.94099398007462
 20
21.3903719951372
 30
0.0
 10
20.92489429875224
 20
21.38681259950394
 30
0.0
  0
SPLINE
  5
143
330
1F
100
AcDbEntity
  8
0
  6
Continuous
 62
     1
370
    15
100
AcDbSpline
210
0.0
220
0.0
230
1.0
 70
     8
 71
     3
 72
     8
 73
     4
 74
     0
 42
0.000000001
 43
0.00000001
 40
0.0
 40
0.0
 40
0.0
 40
0.0
 40
1.0
 40
1.0
 40
1.0
 40
1.0
 10
23.70770813923469
 20
19.98878102072088
 30
0.0
 10
22.83088101332178
 20
20.47540435720859
 30
0.0
 10
21.95633328079123
 20
20.93268899107629
 30
0.0
 10
21.0822065902867
 20
21.35907045165786
 30
0.0
  0
SPLINE
  5
144
330
1F
100
AcDbEntity
  8
0
  6
Continuous
 62
     1
370
    15
100
AcDbSpline
210
0.0
220
0.0
230
1.0
 70
     8
 71
     3
 72
    14
 73
    10
 74
     0
 42
0.000000001
 43
0.00000001
 40
0.0000000000000002
 40
0.0000000000000002
 40
0.0000000000000002
 40
0.0000000000000002
 40
0.0000697547389349
 40
0.0000697547389349
 40
0.0000697547389349
 40
0.0001462600325114
 40
0.0001462600325114
 40
0.0001462600325114
 40
0.0002249817879468
 40
0.0002249817879468
 40
0.0002249817879468
 40
0.0002249817879468
 10
23.86525907452126
 20
19.85503325677707
 30
0.0
 10
23.8507891706609
 20
19.87269759213557
 30
0.0
 10
23.8354190718321
 20
19.88932840795518
 30
0.0
 10
23.81955606025683
 20
19.90471085080958
 30
0.0
 10
23.80216153492308
 20
19.92157841033045
 30
0.0
 10
23.78404267329381
 20
19.93707396885193
 30
0.0
 10
23.76561127856863
 20
19.95096484449633
 30
0.0
 10
23.74664708032767
 20
19.96525726910059
 30
0.0
 10
23.72721237709341
 20
19.97795651835087
 30
0.0
 10
23.70770813923622
 20
19.98878102072003
 30
0.0
  0
SPLINE
  5
145
330
1F
100
AcDbEntity
  8
0
  6
Continuous
 62
     1
370
    15
100
AcDbSpline
210
0.0
220
0.0
230
1.0
 70
     8
 71
     3
 72
    12
 73
     8
 74
     0
 42
0.000000001
 43
0.00000001
 40
0.0
 40
0.0
 40
0.0
 40
0.0
 40
0.4999999999999947
 40
0.4999999999999947
 40
0.7499999999999973
 40
0.7499999999999973
 40
1.0
 40
1.0
 40
1.0
 40
1.0
 10
24.49482379636053
 20
19.49881181140666
 30
0.0
 10
24.3952388545634
 20
19.49055154094507
 30
0.0
 10
24.28241216507438
 20
19.52766066468953
 30
0.0
 10
24.11895925768247
 20
19.62166204665527
 30
0.0
 10
24.06426445973883
 20
19.66047147648276
 30
0.0
 10
23.9607422294607
 20
19.74893883402879
 30
0.0
 10
23.91146691149886
 20
19.79862440040582
 30
0.0
 10
23.86525907452143
 20
19.8550332567769
 30
0.0
  0
SPLINE
  5
146
330
1F
100
AcDbEntity
  8
0
  6
Continuous
 62
     1
370
    15
100
AcDbSpline
210
0.0
220
0.0
230
1.0
 70
     8
 71
     3
 72
    14
 73
    10
 74
     0
 42
0.000000001
 43
0.00000001
 40
0.0000000000000003
 40
0.0000000000000003
 40
0.0000000000000003
 40
0.0000000000000003
 40
0.00007415791406
 40
0.00007415791406
 40
0.00007415791406
 40
0.0001438826528929
 40
0.0001438826528929
 40
0.0001438826528929
 40
0.0002161587431815
 40
0.0002161587431815
 40
0.0002161587431815
 40
0.0002161587431815
 10
24.65205649876767
 20
19.45350306416415
 30
0.0
 10
24.63368265530879
 20
19.46413545115198
 30
0.0
 10
24.61511979122099
 20
19.47321324328119
 30
0.0
 10
24.59673739684281
 20
19.48042082569684
 30
0.0
 10
24.5794549680314
 20
19.48719712085393
 30
0.0
 10
24.56220923584634
 20
19.49236720016845
 30
0.0
 10
24.54540690137868
 20
19.49557680228917
 30
0.0
 10
24.5280129708846
 20
19.49889941179376
 30
0.0
 10
24.51092305801575
 20
19.50014719658738
 30
0.0
 10
24.49482379636065
 20
19.49881181140663
 30
0.0
  0
SPLINE
  5
147
330
1F
100
AcDbEntity
  8
0
  6
Continuous
 62
     1
370
    15
100
AcDbSpline
210
0.0
220
0.0
230
1.0
 70
     8
 71
     3
 72
     8
 73
     4
 74
     0
 42
0.000000001
 43
0.00000001
 40
0.0
 40
0.0
 40
0.0
 40
0.0
 40
1.0
 40
1.0
 40
1.0
 40
1.0
 10
27.27722916118497
 20
17.85071763173286
 30
0.0
 10
26.40065401117539
 20
18.41189009968293
 30
0.0
 10
25.52849763080714
 20
18.94633311309746
 30
0.0
 10
24.65205649876814
 20
19.45350306416417
 30
0.0
  0
SPLINE
  5
148
330
1F
100
AcDbEntity
  8
0
  6
Continuous
 62
     1
370
    15
100
AcDbSpline
210
0.0
220
0.0
230
1.0
 70
     8
 71
     3
 72
    14
 73
    10
 74
     0
 42
0.000000001
 43
0.00000001
 40
0.0000000000000001
 40
0.0000000000000001
 40
0.0000000000000001
 40
0.0000000000000001
 40
0.0000698009344862
 40
0.0000698009344862
 40
0.0000698009344862
 40
0.0001463304728612
 40
0.0001463304728612
 40
0.0001463304728612
 40
0.000225074661797
 40
0.000225074661797
 40
0.000225074661797
 40
0.000225074661797
 10
27.43482503184091
 20
17.70743946339405
 30
0.0
 10
27.42034575005911
 20
17.72552759175423
 30
0.0
 10
27.4049661287704
 20
17.74278836196215
 30
0.0
 10
27.38909382478639
 20
17.75897156466509
 30
0.0
 10
27.37169506165815
 20
17.77671112602733
 30
0.0
 10
27.35357269111224
 20
17.79329134481085
 30
0.0
 10
27.33513827183938
 20
17.8084444935686
 30
0.0
 10
27.3161715549275
 20
17.82403519260596
 30
0.0
 10
27.29673500126374
 20
17.83823023642352
 30
0.0
 10
27.27722916118633
 20
17.850717631732
 30
0.0
  0
SPLINE
  5
149
330
1F
100
AcDbEntity
  8
0
  6
Continuous
 62
     1
370
    15
100
AcDbSpline
210
0.0
220
0.0
230
1.0
 70
     8
 71
     3
 72
    12
 73
     8
 74
     0
 42
0.000000001
 43
0.00000001
 40
0.0
 40
0.0
 40
0.0
 40
0.0
 40
0.5
 40
0.5
 40
0.75
 40
0.75
 40
1.0
 40
1.0
 40
1.0
 40
1.0
 10
28.06462706189022
 20
17.2985456779436
 30
0.0
 10
27.96498776923518
 20
17.30427460924366
 30
0.0
 10
27.85211133537253
 20
17.35300853927816
 30
0.0
 10
27.68860220006965
 20
17.46046466501129
 30
0.0
 10
27.63389087618778
 20
17.50315376580764
 30
0.0
 10
27.53033722983953
 20
17.59772806110691
 30
0.0
 10
27.48104715347656
 20
17.6496968431574
 30
0.0
 10
27.43482503184109
 20
17.70743946339391
 30
0.0
  0
SPLINE
  5
14A
330
1F
100
AcDbEntity
  8
0
  6
Continuous
 62
     1
370
    15
100
AcDbSpline
210
0.0
220
0.0
230
1.0
 70
     8
 71
     3
 72
    14
 73
    10
 74
     0
 42
0.000000001
 43
0.00000001
 40
0.0000000000000003
 40
0.0000000000000003
 40
0.0000000000000003
 40
0.0000000000000003
 40
0.0000741969090563
 40
0.0000741969090563
 40
0.0000741969090563
 40
0.0001439279774121
 40
0.0001439279774121
 40
0.0001439279774121
 40
0.0002162088304156
 40
0.0002162088304156
 40
0.0002162088304156
 40
0.0002162088304156
 10
28.22193141345377
 20
17.23624743888962
 30
0.0
 10
28.20354330995581
 20
17.24839615899664
 30
0.0
 10
28.18496631720049
 20
17.25915436360876
 30
0.0
 10
28.16657022860717
 20
17.26818290514588
 30
0.0
 10
28.1492823963762
 20
17.2766675300482
 30
0.0
 10
28.13203153829344
 20
17.28368370863808
 30
0.0
 10
28.11522419185886
 20
17.28885225628702
 30
0.0
 10
28.09782549433415
 20
17.294202654551
 30
0.0
 10
28.08073096999471
 20
17.29761975624407
 30
0.0
 10
28.06462706189037
 20
17.29854567794359
 30
0.0
  0
SPLINE
  5
14B
330
1F
100
AcDbEntity
  8
0
  6
Continuous
 62
     1
370
    15
100
AcDbSpline
210
0.0
220
0.0
230
1.0
 70
     8
 71
     3
 72
     8
 73
     4
 74
     0
 42
0.000000001
 43
0.00000001
 40
0.0
 40
0.0
 40
0.0
 40
0.0
 40
1.0
 40
1.0
 40
1.0
 40
1.0
 10
30.84811172153936
 20
15.42669862482655
 30
0.0
 10
29.97340589729932
 20
16.05290322980261
 30
0.0
 10
29.09906756303047
 20
16.65673788924084
 30
0.0
 10
28.22193141345424
 20
17.23624743888965
 30
0.0
  0
SPLINE
  5
14C
330
1F
100
AcDbEntity
  8
0
  6
Continuous
 62
     1
370
    15
100
AcDbSpline
210
0.0
220
0.0
230
1.0
 70
     8
 71
     3
 72
    14
 73
    10
 74
     0
 42
0.000000001
 43
0.00000001
 40
0.0000000000000002
 40
0.0000000000000002
 40
0.0000000000000002
 40
0.0000000000000002
 40
0.0000698869312245
 40
0.0000698869312245
 40
0.0000698869312245
 40
0.0001464667517127
 40
0.0001464667517127
 40
0.0001464667517127
 40
0.0002252579910139
 40
0.0002252579910139
 40
0.0002252579910139
 40
0.0002252579910139
 10
31.00575520563189
 20
15.276057396084
 30
0.0
 10
30.99126303692669
 20
15.29429575515676
 30
0.0
 10
30.97587035817221
 20
15.31192623823192
 30
0.0
 10
30.95998539958978
 20
15.32866705719238
 30
0.0
 10
30.94258266649716
 20
15.34700742632896
 30
0.0
 10
30.92445759279057
 20
15.36441970361677
 30
0.0
 10
30.9060212059272
 20
15.38060558654487
 30
0.0
 10
30.8870535655579
 20
15.39725787360715
 30
0.0
 10
30.86761718475061
 20
15.41273460338455
 30
0.0
 10
30.8481117215406
 20
15.42669862482567
 30
0.0
  0
SPLINE
  5
14D
330
1F
100
AcDbEntity
  8
0
  6
Continuous
 62
     1
370
    15
100
AcDbSpline
210
0.0
220
0.0
230
1.0
 70
     8
 71
     3
 72
    12
 73
     8
 74
     0
 42
0.000000001
 43
0.00000001
 40
0.0
 40
0.0
 40
0.0
 40
0.0
 40
0.5000000000000006
 40
0.5000000000000006
 40
0.7500000000000002
 40
0.7500000000000002
 40
1.0
 40
1.0
 40
1.0
 40
1.0
 10
31.6357113351583
 20
14.82062611211754
 30
0.0
 10
31.53602702778631
 20
14.84031533740861
 30
0.0
 10
31.42311603719858
 20
14.899969045396
 30
0.0
 10
31.25957678438942
 20
15.01926496927378
 30
0.0
 10
31.20485821740604
 20
15.06518505032736
 30
0.0
 10
31.10128743271352
 20
15.16442019189628
 30
0.0
 10
31.0519880782866
 20
15.2178734382794
 30
0.0
 10
31.0057552056321
 20
15.27605739608389
 30
0.0
  0
SPLINE
  5
14E
330
1F
100
AcDbEntity
  8
0
  6
Continuous
 62
     1
370
    15
100
AcDbSpline
210
0.0
220
0.0
230
1.0
 70
     8
 71
     3
 72
    14
 73
    10
 74
     0
 42
0.000000001
 43
0.00000001
 40
0.0000000000000004
 40
0.0000000000000004
 40
0.0000000000000004
 40
0.0000000000000004
 40
0.0000742549677311
 40
0.0000742549677311
 40
0.0000742549677311
 40
0.0001439973006683
 40
0.0001439973006683
 40
0.0001439973006683
 40
0.0002162869364014
 40
0.0002162869364014
 40
0.0002162869364014
 40
0.0002162869364014
 10
31.7930457905952
 20
14.74225366068093
 30
0.0
 10
31.77464634761625
 20
14.75573578422189
 30
0.0
 10
31.75605811052082
 20
14.76801377068375
 30
0.0
 10
31.73765111863276
 20
14.77873018571588
 30
0.0
 10
31.72036369842429
 20
14.78879479436653
 30
0.0
 10
31.7031134637292
 20
14.79755240049319
 30
0.0
 10
31.68630647394294
 20
14.80460499082771
 30
0.0
 10
31.66890881869755
 20
14.81190543765296
 30
0.0
 10
31.65181519147513
 20
14.81744534612297
 30
0.0
 10
31.63571133515844
 20
14.82062611211748
 30
0.0
  0
SPLINE
  5
14F
330
1F
100
AcDbEntity
  8
0
  6
Continuous
 62
     1
370
    15
100
AcDbSpline
210
0.0
220
0.0
230
1.0
 70
     8
 71
     3
 72
     8
 73
     4
 74
     0
 42
0.000000001
 43
0.00000001
 40
0.0
 40
0.0
 40
0.0
 40
0.0
 40
1.0
 40
1.0
 40
1.0
 40
1.0
 10
34.41935413176077
 20
12.75650558606021
 30
0.0
 10
33.54603372717214
 20
13.437252363688
 30
0.0
 10
32.66870367690896
 20
14.10061859507376
 30
0.0
 10
31.79304579059567
 20
14.7422536606809
 30
0.0
  0
SPLINE
  5
150
330
1F
100
AcDbEntity
  8
0
  6
Continuous
 62
     1
370
    15
100
AcDbSpline
210
0.0
220
0.0
230
1.0
 70
     8
 71
     3
 72
    14
 73
    10
 74
     0
 42
0.000000001
 43
0.00000001
 40
0.0000000000000003
 40
0.0000000000000003
 40
0.0000000000000003
 40
0.0000000000000003
 40
0.0000699320793365
 40
0.0000699320793365
 40
0.0000699320793365
 40
0.0001465152778862
 40
0.0001465152778862
 40
0.0001465152778862
 40
0.0002253081370175
 40
0.0002253081370175
 40
0.0002253081370175
 40
0.0002253081370175
 10
34.57698934669519
 20
12.601001382241
 30
0.0
 10
34.56249313088367
 20
12.61909028526868
 30
0.0
 10
34.54709580170248
 20
12.63680104320741
 30
0.0
 10
34.53120545909971
 20
12.65382426475013
 30
0.0
 10
34.51380723484328
 20
12.67246287018304
 30
0.0
 10
34.49568662101161
 20
12.6904189514756
 30
0.0
 10
34.47725383511546
 20
12.70736766510311
 30
0.0
 10
34.45829036815104
 20
12.72480433326468
 30
0.0
 10
34.43885739843104
 20
12.74130293435381
 30
0.0
 10
34.41935413176223
 20
12.75650558605908
 30
0.0
  0
SPLINE
  5
151
330
1F
100
AcDbEntity
  8
0
  6
Continuous
 62
     1
370
    15
100
AcDbSpline
210
0.0
220
0.0
230
1.0
 70
     8
 71
     3
 72
    12
 73
     8
 74
     0
 42
0.000000001
 43
0.00000001
 40
0.0
 40
0.0
 40
0.0
 40
0.0
 40
0.5000000000000037
 40
0.5000000000000037
 40
0.7500000000000018
 40
0.7500000000000018
 40
1.0
 40
1.0
 40
1.0
 40
1.0
 10
35.20690384382448
 20
12.10601970845541
 30
0.0
 10
35.10720882687949
 20
12.13941763754463
 30
0.0
 10
34.9943073831804
 20
12.20909423147174
 30
0.0
 10
34.83080250937989
 20
12.33840351886221
 30
0.0
 10
34.77610114765051
 20
12.38684982842189
 30
0.0
 10
34.6725386670917
 20
12.48920062647531
 30
0.0
 10
34.62323339194356
 20
12.54329638798731
 30
0.0
 10
34.57698934669538
 20
12.6010013822409
 30
0.0
  0
SPLINE
  5
152
330
1F
100
AcDbEntity
  8
0
  6
Continuous
 62
     1
370
    15
100
AcDbSpline
210
0.0
220
0.0
230
1.0
 70
     8
 71
     3
 72
    14
 73
    10
 74
     0
 42
0.000000001
 43
0.00000001
 40
0.0000000000000003
 40
0.0000000000000003
 40
0.0000000000000003
 40
0.0000000000000003
 40
0.0000743296195204
 40
0.0000743296195204
 40
0.0000743296195204
 40
0.0001440866927245
 40
0.0001440866927245
 40
0.0001440866927245
 40
0.0002163879432979
 40
0.0002163879432979
 40
0.0002163879432979
 40
0.0002163879432979
 10
35.36422254206725
 20
12.01273754450645
 30
0.0
 10
35.34581532170447
 20
12.02735018367283
 30
0.0
 10
35.32721937648203
 20
12.04096458397603
 30
0.0
 10
35.30880491687623
 20
12.05321045840286
 30
0.0
 10
35.29152410656841
 20
12.06470244011471
 30
0.0
 10
35.27428062134138
 20
12.07506978870276
 30
0.0
 10
35.25747976717898
 20
12.08390198228136
 30
0.0
 10
35.24008931480922
 20
12.09304412709521
 30
0.0
 10
35.22300246916619
 20
12.10062665307441
 30
0.0
 10
35.20690384382466
 20
12.10601970845539
 30
0.0
  0
SPLINE
  5
153
330
1F
100
AcDbEntity
  8
0
  6
Continuous
 62
     1
370
    15
100
AcDbSpline
210
0.0
220
0.0
230
1.0
 70
     8
 71
     3
 72
     8
 73
     4
 74
     0
 42
0.000000001
 43
0.00000001
 40
0.0
 40
0.0
 40
0.0
 40
0.0
 40
1.0
 40
1.0
 40
1.0
 40
1.0
 10
37.98983960254552
 20
9.882054153845532
 30
0.0
 10
37.1148867562536
 20
10.60749855204023
 30
0.0
 10
36.23778851643233
 20
11.31925400272905
 30
0.0
 10
35.36422254206772
 20
12.01273754450646
 30
0.0
  0
SPLINE
  5
154
330
1F
100
AcDbEntity
  8
0
  6
Continuous
 62
     1
370
    15
100
AcDbSpline
210
0.0
220
0.0
230
1.0
 70
     8
 71
     3
 72
    14
 73
    10
 74
     0
 42
0.000000001
 43
0.00000001
 40
0.0000000000000003
 40
0.0000000000000003
 40
0.0000000000000003
 40
0.0000000000000003
 40
0.0000698039695613
 40
0.0000698039695613
 40
0.0000698039695613
 40
0.0001463285351408
 40
0.0001463285351408
 40
0.0001463285351408
 40
0.0002250676690032
 40
0.0002250676690032
 40
0.0002250676690032
 40
0.0002250676690032
 10
38.14740565572743
 20
9.724512537486131
 30
0.0
 10
38.13292921979229
 20
9.742104616336487
 30
0.0
 10
38.11755229676579
 20
9.759555559404491
 30
0.0
 10
38.10168233589199
 20
9.776534379581124
 30
0.0
 10
38.0842880211271
 20
9.795144062669657
 30
0.0
 10
38.06616984231216
 20
9.813328103146537
 30
0.0
 10
38.0477390910658
 20
9.830739909439544
 30
0.0
 10
38.02877614445011
 20
9.848654488655729
 30
0.0
 10
38.00934282541402
 20
9.86588356381121
 30
0.0
 10
37.98983960254714
 20
9.882054153844175
 30
0.0
  0
SPLINE
  5
155
330
1F
100
AcDbEntity
  8
0
  6
Continuous
 62
     1
370
    15
100
AcDbSpline
210
0.0
220
0.0
230
1.0
 70
     8
 71
     3
 72
    12
 73
     8
 74
     0
 42
0.000000001
 43
0.00000001
 40
0.0
 40
0.0
 40
0.0
 40
0.0
 40
0.499999999999996
 40
0.499999999999996
 40
0.749999999999998
 40
0.749999999999998
 40
1.0
 40
1.0
 40
1.0
 40
1.0
 10
38.77703752149072
 20
9.199515144801603
 30
0.0
 10
38.67744447057175
 20
9.245910313058673
 30
0.0
 10
38.56462175193195
 20
9.324208310597049
 30
0.0
 10
38.40116086335803
 20
9.461022436159643
 30
0.0
 10
38.34646051190809
 20
9.511062739251772
 30
0.0
 10
38.24291761554969
 20
9.614602511446327
 30
0.0
 10
38.19362866867008
 20
9.668341329874636
 30
0.0
 10
38.14740565572762
 20
9.724512537486058
 30
0.0
  0
SPLINE
  5
156
330
1F
100
AcDbEntity
  8
0
  6
Continuous
 62
     1
370
    15
100
AcDbSpline
210
0.0
220
0.0
230
1.0
 70
     8
 71
     3
 72
    14
 73
    10
 74
     0
 42
0.000000001
 43
0.00000001
 40
0.0000000000000002
 40
0.0000000000000002
 40
0.0000000000000002
 40
0.0000000000000002
 40
0.0000742890486657
 40
0.0000742890486657
 40
0.0000742890486657
 40
0.0001440366173066
 40
0.0001440366173066
 40
0.0001440366173066
 40
0.0002163312508175
 40
0.0002163312508175
 40
0.0002163312508175
 40
0.0002163312508175
 10
38.93428857012383
 20
9.09298556240144
 30
0.0
 10
38.91589701948357
 20
9.108468449832774
 30
0.0
 10
38.8973158438917
 20
9.123175388047773
 30
0.0
 10
38.87891491743007
 20
9.136729671067712
 30
0.0
 10
38.86163979674591
 20
9.149454675726847
 30
0.0
 10
38.84440099035145
 20
9.161253282652002
 30
0.0
 10
38.82760423540431
 20
9.171708559380662
 30
0.0
 10
38.81021729125204
 20
9.182531204180188
 30
0.0
 10
38.79313320775587
 20
9.192017010488087
 30
0.0
 10
38.77703752149088
 20
9.199515144801559
 30
0.0
  0
SPLINE
  5
157
330
1F
100
AcDbEntity
  8
0
  6
Continuous
 62
     1
370
    15
100
AcDbSpline
210
0.0
220
0.0
230
1.0
 70
     8
 71
     3
 72
     8
 73
     4
 74
     0
 42
0.000000001
 43
0.00000001
 40
0.0
 40
0.0
 40
0.0
 40
0.0
 40
1.0
 40
1.0
 40
1.0
 40
1.0
 10
41.55927502042901
 20
6.849634150082235
 30
0.0
 10
40.68277420236289
 20
7.608828106936386
 30
0.0
 10
39.80770994755441
 20
8.3576976505003
 30
0.0
 10
38.93428857012417
 20
9.092985562401562
 30
0.0
  0
SPLINE
  5
158
330
1F
100
AcDbEntity
  8
0
  6
Continuous
 62
     1
370
    15
100
AcDbSpline
210
0.0
220
0.0
230
1.0
 70
     8
 71
     3
 72
    14
 73
    10
 74
     0
 42
0.000000001
 43
0.00000001
 40
0.0000000000000001
 40
0.0000000000000001
 40
0.0000000000000001
 40
0.0000000000000001
 40
0.0000697831593546
 40
0.0000697831593546
 40
0.0000697831593546
 40
0.0001462975093535
 40
0.0001462975093535
 40
0.0001462975093535
 40
0.0002250271621149
 40
0.0002250271621149
 40
0.0002250271621149
 40
0.0002250271621149
 10
41.71685966783657
 20
6.692399781473901
 30
0.0
 10
41.702383068538
 20
6.709244254720395
 30
0.0
 10
41.68700603634976
 20
6.726185739093133
 30
0.0
 10
41.67113603572875
 20
6.742876747568658
 30
0.0
 10
41.6537388373831
 20
6.761173960780676
 30
0.0
 10
41.63561760931361
 20
6.779309186619403
 30
0.0
 10
41.61718392532217
 20
6.796920279289934
 30
0.0
 10
41.59821771508346
 20
6.815040134565634
 30
0.0
 10
41.57878116261082
 20
6.832738620767515
 30
0.0
 10
41.55927502043041
 20
6.849634150081013
 30
0.0
  0
SPLINE
  5
159
330
1F
100
AcDbEntity
  8
0
  6
Continuous
 62
     1
370
    15
100
AcDbSpline
210
0.0
220
0.0
230
1.0
 70
     8
 71
     3
 72
    12
 73
     8
 74
     0
 42
0.000000001
 43
0.00000001
 40
0.0
 40
0.0
 40
0.0
 40
0.0
 40
0.5000000000000009
 40
0.5000000000000009
 40
0.7500000000000004
 40
0.7500000000000004
 40
1.0
 40
1.0
 40
1.0
 40
1.0
 10
42.34662794805739
 20
6.145430348534742
 30
0.0
 10
42.24700662957316
 20
6.204034809654711
 30
0.0
 10
42.13414841947453
 20
6.289749816959135
 30
0.0
 10
41.97064788067994
 20
6.431996100519887
 30
0.0
 10
41.91593641765252
 20
6.48287895029329
 30
0.0
 10
41.81237878989293
 20
6.58604485267909
 30
0.0
 10
41.76308531125523
 20
6.638613212003625
 30
0.0
 10
41.71685966783675
 20
6.692399781473845
 30
0.0
  0
SPLINE
  5
15A
330
1F
100
AcDbEntity
  8
0
  6
Continuous
 62
     1
370
    15
100
AcDbSpline
210
0.0
220
0.0
230
1.0
 70
     8
 71
     3
 72
    14
 73
    10
 74
     0
 42
0.000000001
 43
0.00000001
 40
0.0000000000000004
 40
0.0000000000000004
 40
0.0000000000000004
 40
0.0000000000000004
 40
0.0000742336233805
 40
0.0000742336233805
 40
0.0000742336233805
 40
0.0001439705650131
 40
0.0001439705650131
 40
0.0001439705650131
 40
0.0002162563895848
 40
0.0002162563895848
 40
0.0002162563895848
 40
0.0002162563895848
 10
42.50392656395501
 20
6.027512772050404
 30
0.0
 10
42.4855352930666
 20
6.04359446011978
 30
0.0
 10
42.46695476595573
 20
6.059135432291814
 30
0.0
 10
42.44855484496418
 20
6.073759382481751
 30
0.0
 10
42.4312704685842
 20
6.087496716427963
 30
0.0
 10
42.4140227534054
 20
6.100521801358231
 30
0.0
 10
42.39721799463396
 20
6.112418545914291
 30
0.0
 10
42.37982224548735
 20
6.124733675620892
 30
0.0
 10
42.36273014667176
 20
6.135957871287934
 30
0.0
 10
42.34662794805757
 20
6.145430348534673
 30
0.0
  0
SPLINE
  5
15B
330
1F
100
AcDbEntity
  8
중심선
  6
Continuous
 62
     1
370
    15
100
AcDbSpline
210
0.0
220
0.0
230
1.0
 70
     8
 71
     3
 72
     8
 73
     4
 74
     0
 42
0.000000001
 43
0.00000001
 40
0.0
 40
0.0
 40
0.0
 40
0.0
 40
1.0
 40
1.0
 40
1.0
 40
1.0
 10
45.13003155423434
 20
3.706367847618097
 30
0.0
 10
44.25299331891527
 20
4.487061943295056
 30
0.0
 10
43.38045012405796
 20
5.261063375237791
 30
0.0
 10
42.5039265639555
 20
6.027512772050407
 30
0.0
  0
SPLINE
  5
15C
330
1F
100
AcDbEntity
  8
0
  6
Continuous
 62
     1
370
    15
100
AcDbSpline
210
0.0
220
0.0
230
1.0
 70
     8
 71
     3
 72
    14
 73
    10
 74
     0
 42
0.000000001
 43
0.00000001
 40
0.0000000000000002
 40
0.0000000000000002
 40
0.0000000000000002
 40
0.0000000000000002
 40
0.0000698223801262
 40
0.0000698223801262
 40
0.0000698223801262
 40
0.0001463621763624
 40
0.0001463621763624
 40
0.0001463621763624
 40
0.0002251158000539
 40
0.0002251158000539
 40
0.0002251158000539
 40
0.0002251158000539
 10
45.28766769994519
 20
3.551803143429572
 30
0.0
 10
45.27318243840978
 20
3.567650502853666
 30
0.0
 10
45.25779659899138
 20
3.583831807545585
 30
0.0
 10
45.2419180211526
 20
3.599988202209502
 30
0.0
 10
45.22451536872634
 20
3.617695337171595
 30
0.0
 10
45.20638925293281
 20
3.635506838116807
 30
0.0
 10
45.18795113339863
 20
3.653050966278841
 30
0.0
 10
45.16898087552349
 20
3.67110143150176
 30
0.0
 10
45.14954087923298
 20
3.689001655103611
 30
0.0
 10
45.13003155423582
 20
3.706367847616771
 30
0.0
  0
SPLINE
  5
15D
330
1F
100
AcDbEntity
  8
0
  6
Continuous
 62
     1
370
    15
100
AcDbSpline
210
0.0
220
0.0
230
1.0
 70
     8
 71
     3
 72
    12
 73
     8
 74
     0
 42
0.000000001
 43
0.00000001
 40
0.0
 40
0.0
 40
0.0
 40
0.0
 40
0.4999999999999911
 40
0.4999999999999911
 40
0.7499999999999956
 40
0.7499999999999956
 40
1.0
 40
1.0
 40
1.0
 40
1.0
 10
45.91760441888228
 20
2.991084951153999
 30
0.0
 10
45.81794407108935
 20
3.061051907038699
 30
0.0
 10
45.7050464113998
 20
3.152909373320842
 30
0.0
 10
45.54150517882517
 20
3.298442725291084
 30
0.0
 10
45.48678273253112
 20
3.349396477878143
 30
0.0
 10
45.38320523856412
 20
3.450622158632521
 30
0.0
 10
45.33390266212503
 20
3.501220552163951
 30
0.0
 10
45.28766769994538
 20
3.55180314342954
 30
0.0
  0
SPLINE
  5
15E
330
1F
100
AcDbEntity
  8
0
  6
Continuous
 62
     1
370
    15
100
AcDbSpline
210
0.0
220
0.0
230
1.0
 70
     8
 71
     3
 72
    14
 73
    10
 74
     0
 42
0.000000001
 43
0.00000001
 40
0.0000000000000004
 40
0.0000000000000004
 40
0.0000000000000004
 40
0.0000000000000004
 40
0.0000742245556972
 40
0.0000742245556972
 40
0.0000742245556972
 40
0.0001439604973109
 40
0.0001439604973109
 40
0.0001439604973109
 40
0.0002162452679201
 40
0.0002162452679201
 40
0.0002162452679201
 40
0.0002162452679201
 10
46.07493641121687
 20
2.86355098496425
 30
0.0
 10
46.05654165600914
 20
2.879991667965607
 30
0.0
 10
46.0379579012197
 20
2.896135281864708
 30
0.0
 10
46.01955508407345
 20
2.911611485487607
 30
0.0
 10
46.00226612927933
 20
2.926150965106097
 30
0.0
 10
45.98501412047
 20
2.940204214923226
 30
0.0
 10
45.96820544914279
 20
2.953362638216095
 30
0.0
 10
45.95080564762404
 20
2.96698381916123
 30
0.0
 10
45.93370986975361
 20
2.979778053319757
 30
0.0
 10
45.91760441888245
 20
2.991084951153867
 30
0.0
  0
SPLINE
  5
15F
330
1F
100
AcDbEntity
  8
0
  6
Continuous
 62
     1
370
    15
100
AcDbSpline
210
0.0
220
0.0
230
1.0
 70
     8
 71
     3
 72
     8
 73
     4
 74
     0
 42
0.000000001
 43
0.00000001
 40
0.0
 40
0.0
 40
0.0
 40
0.0
 40
1.0
 40
1.0
 40
1.0
 40
1.0
 10
48.70131857445775
 20
0.5039017029456377
 30
0.0
 10
47.82608497076856
 20
1.292250840648534
 30
0.0
 10
46.95221757850259
 20
2.079463270203237
 30
0.0
 10
46.07493641121734
 20
2.863550984964215
 30
0.0
  0
SPLINE
  5
160
330
1F
100
AcDbEntity
  8
0
  6
Continuous
 62
     1
370
    15
100
AcDbSpline
210
0.0
220
0.0
230
1.0
 70
     8
 71
     3
 72
    14
 73
    10
 74
     0
 42
0.000000001
 43
0.00000001
 40
0.0000000000000001
 40
0.0000000000000001
 40
0.0000000000000001
 40
0.0000000000000001
 40
0.0000698704275128
 40
0.0000698704275128
 40
0.0000698704275128
 40
0.000146442051956
 40
0.000146442051956
 40
0.000146442051956
 40
0.0002252257335059
 40
0.0002252257335059
 40
0.0002252257335059
 40
0.0002252257335059
 10
48.85895545795898
 20
0.3543918279012228
 30
0.0
 10
48.84446569137213
 20
0.368996470342468
 30
0.0
 10
48.82907544734049
 20
0.3841674969710136
 30
0.0
 10
48.81319285934394
 20
0.3995400531264309
 30
0.0
 10
48.79579049584935
 20
0.4163835807754441
 30
0.0
 10
48.77766553796903
 20
0.4335965282309321
 30
0.0
 10
48.75922913888408
 20
0.4508032501989216
 30
0.0
 10
48.74026127860456
 20
0.4685059857848479
 30
0.0
 10
48.72082448066688
 20
0.4863321486286357
 30
0.0
 10
48.70131857446194
 20
0.5039017029418706
 30
0.0
  0
SPLINE
  5
161
330
1F
100
AcDbEntity
  8
0
  6
Continuous
 62
     1
370
    15
100
AcDbSpline
210
0.0
220
0.0
230
1.0
 70
     8
 71
     3
 72
    12
 73
     8
 74
     0
 42
0.000000001
 43
0.00000001
 40
0.0
 40
0.0
 40
0.0
 40
0.0
 40
0.5000000000000001
 40
0.5000000000000001
 40
0.7500000000000002
 40
0.7500000000000002
 40
1.0
 40
1.0
 40
1.0
 40
1.0
 10
49.48886735180246
 20
-0.2114514861296087
 30
0.0
 10
49.38919449848344
 20
-0.1311789079414789
 30
0.0
 10
49.2762918606641
 20
-0.0345887202425844
 30
0.0
 10
49.11276176567172
 20
0.1119891379432689
 30
0.0
 10
49.05804592005634
 20
0.1622272099212764
 30
0.0
 10
48.95448124157006
 20
0.2599493286377352
 30
0.0
 10
48.90518506640881
 20
0.3077957079735123
 30
0.0
 10
48.85895545795918
 20
0.3543918279012375
 30
0.0
  0
SPLINE
  5
162
330
1F
100
AcDbEntity
  8
0
  6
Continuous
 62
     4
370
    15
100
AcDbSpline
210
0.0
220
0.0
230
1.0
 70
    24
 71
     3
 72
    22
 73
    18
 74
     0
 42
0.000000001
 43
0.00000001
 40
0.0
 40
0.0
 40
0.0
 40
0.0
 40
0.125
 40
0.125
 40
0.2499999999999999
 40
0.2499999999999999
 40
0.3749999999999999
 40
0.3749999999999999
 40
0.4999999999999998
 40
0.4999999999999998
 40
0.6249999999999998
 40
0.6249999999999998
 40
0.7499999999999999
 40
0.7499999999999999
 40
0.875
 40
0.875
 40
1.0
 40
1.0
 40
1.0
 40
1.0
 10
14.99999999999999
 20
23.80520878092625
 30
0.0
 10
14.99999999999999
 20
22.81130120702984
 30
0.0
 10
14.99999999999999
 20
21.74656472376797
 30
0.0
 10
14.99999999999999
 20
19.473530060055
 30
0.0
 10
14.99999999999999
 20
18.2649760097409
 30
0.0
 10
14.99999999999999
 20
15.71713340284004
 30
0.0
 10
14.99999999999999
 20
14.37756689385085
 30
0.0
 10
14.99999999999999
 20
11.60387744929428
 30
0.0
 10
14.99999999999999
 20
10.16957114289825
 30
0.0
 10
14.99999999999999
 20
7.273391658128873
 30
0.0
 10
14.99999999999999
 20
5.811620490746138
 30
0.0
 10
14.99999999999999
 20
2.960322594506943
 30
0.0
 10
15.0
 20
1.571360677319841
 30
0.0
 10
15.0
 20
-1.011108079971203
 30
0.0
 10
15.0
 20
-2.203613048864429
 30
0.0
 10
15.0
 20
-4.270478964527647
 30
0.0
 10
15.0
 20
-5.143772694955063
 30
0.0
 10
15.0
 20
-5.813314106050375
 30
0.0
  0
SPLINE
  5
163
330
1F
100
AcDbEntity
  8
0
  6
Continuous
 62
     1
370
    15
100
AcDbSpline
210
0.0
220
0.0
230
1.0
 70
     8
 71
     3
 72
    14
 73
    10
 74
     0
 42
0.000000001
 43
0.00000001
 40
0.0
 40
0.0
 40
0.0
 40
0.0
 40
0.2500000000000001
 40
0.2500000000000001
 40
0.5000000000000002
 40
0.5000000000000002
 40
0.7500000000000001
 40
0.7500000000000001
 40
1.0
 40
1.0
 40
1.0
 40
1.0
 10
48.85895545795919
 20
0.3543918279013174
 30
0.0
 10
48.82782577147918
 20
1.758368700420915
 30
0.0
 10
48.79641103617993
 20
3.164934476752514
 30
0.0
 10
48.73430501171424
 20
5.925376324694434
 30
0.0
 10
48.70361937007319
 20
7.279005628093795
 30
0.0
 10
48.64417919287774
 20
9.881186278948181
 30
0.0
 10
48.61364264833165
 20
11.15563707753383
 30
0.0
 10
48.55160515045288
 20
13.60323450241421
 30
0.0
 10
48.52019537577218
 20
14.77489349814784
 30
0.0
 10
48.48904101209666
 20
15.87000978422987
 30
0.0
  0
SPLINE
  5
164
330
1F
100
AcDbEntity
  8
0
  6
Continuous
 62
     1
370
    15
100
AcDbSpline
210
0.0
220
0.0
230
1.0
 70
     8
 71
     3
 72
    12
 73
     8
 74
     0
 42
0.000000001
 43
0.00000001
 40
0.0
 40
0.0
 40
0.0
 40
0.0
 40
0.4999999999999976
 40
0.4999999999999976
 40
0.7499999999999988
 40
0.7499999999999988
 40
1.0
 40
1.0
 40
1.0
 40
1.0
 10
48.48904101209666
 20
15.87000978423008
 30
0.0
 10
48.58868993438464
 20
15.75972070261719
 30
0.0
 10
48.70156449146065
 20
15.66470860781555
 30
0.0
 10
48.86509933741459
 20
15.55070098885054
 30
0.0
 10
48.91982473452848
 20
15.5169036058391
 30
0.0
 10
49.02342060816395
 20
15.46155981772946
 30
0.0
 10
49.07273684254473
 20
15.43956816670377
 30
0.0
 10
49.11898733293756
 20
15.42458050673907
 30
0.0
  0
SPLINE
  5
165
330
1F
100
AcDbEntity
  8
0
  6
Continuous
 62
     1
370
    15
100
AcDbSpline
210
0.0
220
0.0
230
1.0
 70
     8
 71
     3
 72
     8
 73
     4
 74
     0
 42
0.000000001
 43
0.00000001
 40
0.0
 40
0.0
 40
0.0
 40
0.0
 40
1.0
 40
1.0
 40
1.0
 40
1.0
 10
64.69999999999997
 20
2.578430006496248
 30
0.0
 10
65.06214863972767
 20
2.26274254801239
 30
0.0
 10
65.42847259560725
 20
1.964423157561724
 30
0.0
 10
65.8
 20
1.684597797938234
 30
0.0
  0
LINE
  5
166
330
1F
100
AcDbEntity
  8
0
  6
Continuous
 62
     1
370
    15
100
AcDbLine
 10
65.80000141263005
 20
1.684597809799026
 30
0.0
 11
65.80000141263005
 21
-13.57967313379048
 31
0.0
  0
SPLINE
  5
167
330
1F
100
AcDbEntity
  8
0
  6
Continuous
 62
     1
370
    15
100
AcDbSpline
210
0.0
220
0.0
230
1.0
 70
     8
 71
     3
 72
    14
 73
    10
 74
     0
 42
0.000000001
 43
0.00000001
 40
0.0
 40
0.0
 40
0.0
 40
0.0
 40
0.25
 40
0.25
 40
0.5
 40
0.5
 40
0.75
 40
0.75
 40
1.0
 40
1.0
 40
1.0
 40
1.0
 10
48.70131857446042
 20
0.503901702948594
 30
0.0
 10
48.67019498248792
 20
1.909837436627067
 30
0.0
 10
48.63880962542738
 20
3.317326075900532
 30
0.0
 10
48.57680529783667
 20
6.077641189224014
 30
0.0
 10
48.54623300876752
 20
7.429630119699556
 30
0.0
 10
48.4868875761636
 20
10.02929921836293
 30
0.0
 10
48.45624424791189
 20
11.30404349270312
 30
0.0
 10
48.39420757720078
 20
13.74793962033517
 30
0.0
 10
48.36281984739504
 20
14.91684182935049
 30
0.0
 10
48.331707841541
 20
16.00847338627393
 30
0.0
  0
SPLINE
  5
168
330
1F
100
AcDbEntity
  8
0
  6
Continuous
 62
     1
370
    15
100
AcDbSpline
210
0.0
220
0.0
230
1.0
 70
     8
 71
     3
 72
    14
 73
    10
 74
     0
 42
0.000000001
 43
0.00000001
 40
0.0000000000000022
 40
0.0000000000000022
 40
0.0000000000000022
 40
0.0000000000000022
 40
0.0000743736063382
 40
0.0000743736063382
 40
0.0000743736063382
 40
0.0001441353430739
 40
0.0001441353430739
 40
0.0001441353430739
 40
0.0002164412498984
 40
0.0002164412498984
 40
0.0002164412498984
 40
0.0002164412498984
 10
48.33170784154314
 20
16.00847338627343
 30
0.0
 10
48.35011986925522
 20
15.9955843829579
 30
0.0
 10
48.36872175459749
 20
15.98151170811484
 30
0.0
 10
48.38714318417378
 20
15.96646601107879
 30
0.0
 10
48.40442149985294
 20
15.95235395197255
 30
0.0
 10
48.42166349505119
 20
15.93728514295075
 30
0.0
 10
48.43846388545759
 20
15.92148517109861
 30
0.0
 10
48.45585378762433
 20
15.90513079134316
 30
0.0
 10
48.47294119096863
 20
15.88782868729063
 30
0.0
 10
48.48904101209595
 20
15.87000978423089
 30
0.0
  0
SPLINE
  5
169
330
1F
100
AcDbEntity
  8
0
  6
Continuous
 62
     1
370
    15
100
AcDbSpline
210
0.0
220
0.0
230
1.0
 70
     8
 71
     3
 72
    16
 73
    12
 74
     0
 42
0.000000001
 43
0.00000001
 40
0.0
 40
0.0
 40
0.0
 40
0.0
 40
0.2499999999999999
 40
0.2499999999999999
 40
0.3749999999999999
 40
0.3749999999999999
 40
0.4999999999999999
 40
0.4999999999999999
 40
0.7499999999999998
 40
0.7499999999999998
 40
1.0
 40
1.0
 40
1.0
 40
1.0
 10
46.07493641121734
 20
2.863550984964206
 30
0.0
 10
46.04370908803065
 20
4.262731729053525
 30
0.0
 10
46.01258598024737
 20
5.646964568369373
 30
0.0
 10
45.96699853966754
 20
7.659454485809958
 30
0.0
 10
45.95209384494117
 20
8.31812528168853
 30
0.0
 10
45.9222936443353
 20
9.615343559196269
 30
0.0
 10
45.90716050313256
 20
10.25726782225397
 30
0.0
 10
45.86127918552277
 20
12.15247046671314
 30
0.0
 10
45.83004675838286
 20
13.37491976762816
 30
0.0
 10
45.76756130763806
 20
15.68529210908011
 30
0.0
 10
45.73631418247313
 20
16.7729964925374
 30
0.0
 10
45.70569822763129
 20
17.77243973396308
 30
0.0
  0
SPLINE
  5
16A
330
1F
100
AcDbEntity
  8
0
  6
Continuous
 62
     1
370
    15
100
AcDbSpline
210
0.0
220
0.0
230
1.0
 70
     8
 71
     3
 72
     8
 73
     4
 74
     0
 42
0.000000001
 43
0.00000001
 40
0.0
 40
0.0
 40
0.0
 40
0.0
 40
1.0
 40
1.0
 40
1.0
 40
1.0
 10
48.33170784154128
 20
16.00847338627402
 30
0.0
 10
47.45804574274072
 20
16.62006456265437
 30
0.0
 10
46.58250779846131
 20
17.20897724537047
 30
0.0
 10
45.70569822763132
 20
17.77243973396313
 30
0.0
  0
SPLINE
  5
16B
330
1F
100
AcDbEntity
  8
0
  6
Continuous
 62
     1
370
    15
100
AcDbSpline
210
0.0
220
0.0
230
1.0
 70
     8
 71
     3
 72
    14
 73
    10
 74
     0
 42
0.000000001
 43
0.00000001
 40
0.0
 40
0.0
 40
0.0
 40
0.0
 40
0.0000742583209353
 40
0.0000742583209353
 40
0.0000742583209353
 40
0.0001440014466922
 40
0.0001440014466922
 40
0.0001440014466922
 40
0.0002162917029028
 40
0.0002162917029028
 40
0.0002162917029028
 40
0.0002162917029028
 10
62.73774446837562
 20
25.37329066171372
 30
0.0
 10
62.71934480826725
 20
25.37253153992146
 30
0.0
 10
62.7007563671377
 20
25.36980890613846
 30
0.0
 10
62.68234918952523
 20
25.36502928845868
 30
0.0
 10
62.66506217439427
 20
25.36054053277379
 30
0.0
 10
62.64781235943883
 20
25.35420422345031
 30
0.0
 10
62.63100576129779
 20
25.34590911844461
 30
0.0
 10
62.61360855772241
 20
25.33732251280007
 30
0.0
 10
62.5965153658575
 20
25.32654518091282
 30
0.0
 10
62.58041185684809
 20
25.31348948016614
 30
0.0
  0
SPLINE
  5
16C
330
1F
100
AcDbEntity
  8
0
  6
Continuous
 62
     1
370
    15
100
AcDbSpline
210
0.0
220
0.0
230
1.0
 70
     8
 71
     3
 72
     8
 73
     4
 74
     0
 42
0.000000001
 43
0.00000001
 40
0.0
 40
0.0
 40
0.0
 40
0.0
 40
1.0
 40
1.0
 40
1.0
 40
1.0
 10
64.69999999999999
 20
25.39290313354293
 30
0.0
 10
64.046472115824
 20
25.40680891033671
 30
0.0
 10
63.3915971181562
 20
25.40026690977766
 30
0.0
 10
62.73774446837562
 20
25.37329066171372
 30
0.0
  0
SPLINE
  5
16D
330
1F
100
AcDbEntity
  8
0
  6
Continuous
 62
     1
370
    15
100
AcDbSpline
210
0.0
220
0.0
230
1.0
 70
     8
 71
     3
 72
     8
 73
     4
 74
     0
 42
0.000000001
 43
0.00000001
 40
0.0
 40
0.0
 40
0.0
 40
0.0
 40
1.0
 40
1.0
 40
1.0
 40
1.0
 10
65.8
 20
24.24153729158242
 30
0.0
 10
65.43426014247945
 20
24.63278844526602
 30
0.0
 10
65.06755530973778
 20
25.01653507731516
 30
0.0
 10
64.69999999999996
 20
25.39290313354293
 30
0.0
  0
LINE
  5
16E
330
1F
100
AcDbEntity
  8
0
  6
Continuous
 62
     1
370
    15
100
AcDbLine
 10
65.80000141263005
 20
16.44660159945489
 30
0.0
 11
65.80000141263005
 21
24.24153685569764
 31
0.0
  0
SPLINE
  5
16F
330
1F
100
AcDbEntity
  8
0
  6
Continuous
 62
     1
370
    15
100
AcDbSpline
210
0.0
220
0.0
230
1.0
 70
     8
 71
     3
 72
    26
 73
    22
 74
     0
 42
0.000000001
 43
0.00000001
 40
0.0
 40
0.0
 40
0.0
 40
0.0
 40
0.2500000000000015
 40
0.2500000000000015
 40
0.3125000000000019
 40
0.3125000000000019
 40
0.3750000000000022
 40
0.3750000000000022
 40
0.5000000000000024
 40
0.5000000000000024
 40
0.5625000000000021
 40
0.5625000000000021
 40
0.6250000000000019
 40
0.6250000000000019
 40
0.750000000000001
 40
0.750000000000001
 40
0.8125000000000008
 40
0.8125000000000008
 40
0.8750000000000004
 40
0.8750000000000004
 40
1.0
 40
1.0
 40
1.0
 40
1.0
 10
65.8
 20
16.44660070075599
 30
0.0
 10
65.41749696350882
 20
15.41547534879691
 30
0.0
 10
64.94702995843778
 20
14.45687360069159
 30
0.0
 10
64.22197200252756
 20
13.37155245708029
 30
0.0
 10
64.07004225152218
 20
13.16019203970863
 30
0.0
 10
63.75131952770079
 20
12.74972547711772
 30
0.0
 10
63.58465065413965
 20
12.55096770171466
 30
0.0
 10
63.07079318774128
 20
11.98470258254012
 30
0.0
 10
62.70696641405189
 20
11.64333959692274
 30
0.0
 10
62.12885120344855
 20
11.1863530741245
 30
0.0
 10
61.93074030720377
 20
11.04321753883318
 30
0.0
 10
61.52348185500198
 20
10.77571573407151
 30
0.0
 10
61.31356562170076
 20
10.65102296806619
 30
0.0
 10
60.67784103291354
 20
10.31140574027743
 30
0.0
 10
60.24342603660102
 20
10.12863991056685
 30
0.0
 10
59.57708262902513
 20
9.915112726606782
 30
0.0
 10
59.35250605656388
 20
9.85407608044674
 30
0.0
 10
58.89852796214043
 20
9.751872205632496
 30
0.0
 10
58.66829923117339
 20
9.710611546571727
 30
0.0
 10
57.97726750405288
 20
9.61721028150299
 30
0.0
 10
57.51711299274482
 20
9.595040902924836
 30
0.0
 10
57.0574389707458
 20
9.608998430068024
 30
0.0
  0
SPLINE
  5
170
330
1F
100
AcDbEntity
  8
0
  6
Continuous
 62
     1
370
    15
100
AcDbSpline
210
0.0
220
0.0
230
1.0
 70
     8
 71
     3
 72
    10
 73
     6
 74
     0
 42
0.000000001
 43
0.00000001
 40
0.0
 40
0.0
 40
0.0
 40
0.0
 40
0.5
 40
0.5
 40
1.0
 40
1.0
 40
1.0
 40
1.0
 10
65.8
 20
4.899670470115377
 30
0.0
 10
64.29916861530674
 20
5.814235003241977
 30
0.0
 10
62.81900231922027
 20
6.667530512895331
 30
0.0
 10
59.90224062521518
 20
8.24494006903995
 30
0.0
 10
58.46692522418042
 20
8.965259108376356
 30
0.0
 10
57.05743897074583
 20
9.608998430068024
 30
0.0
  0
LINE
  5
171
330
1F
100
AcDbEntity
  8
0
  6
Continuous
 62
     1
370
    15
100
AcDbLine
 10
65.80000141263005
 20
1.684597809799026
 30
0.0
 11
65.80000141263005
 21
4.899670369923125
 31
0.0
  0
SPLINE
  5
172
330
1F
100
AcDbEntity
  8
0
  6
Continuous
 62
     1
370
    15
100
AcDbSpline
210
0.0
220
0.0
230
1.0
 70
     8
 71
     3
 72
    14
 73
    10
 74
     0
 42
0.000000001
 43
0.00000001
 40
0.000000000000002
 40
0.000000000000002
 40
0.000000000000002
 40
0.000000000000002
 40
0.0000697864699251
 40
0.0000697864699251
 40
0.0000697864699251
 40
0.0001463055369829
 40
0.0001463055369829
 40
0.0001463055369829
 40
0.0002250398260842
 40
0.0002250398260842
 40
0.0002250398260842
 40
0.0002250398260842
 10
45.54810430388358
 20
17.84072367586393
 30
0.0
 10
45.56258169736793
 20
17.83830152260758
 30
0.0
 10
45.57795956027377
 20
17.83420119119909
 30
0.0
 10
45.59383038287093
 20
17.8286920428395
 30
0.0
 10
45.61122873136947
 20
17.82265265310379
 30
0.0
 10
45.62935112221057
 20
17.81487556903188
 30
0.0
 10
45.64778595572012
 20
17.80562882391937
 30
0.0
 10
45.66675330086856
 20
17.79611497580364
 30
0.0
 10
45.68619096666262
 20
17.78497564846404
 30
0.0
 10
45.70569822763024
 20
17.77243973396671
 30
0.0
  0
SPLINE
  5
173
330
1F
100
AcDbEntity
  8
0
  6
Continuous
 62
     1
370
    15
100
AcDbSpline
210
0.0
220
0.0
230
1.0
 70
     8
 71
     3
 72
    12
 73
     8
 74
     0
 42
0.000000001
 43
0.00000001
 40
0.0
 40
0.0
 40
0.0
 40
0.0
 40
0.5000000000000071
 40
0.5000000000000071
 40
0.7500000000000036
 40
0.7500000000000036
 40
1.0
 40
1.0
 40
1.0
 40
1.0
 10
44.91836331835491
 20
18.23787266328721
 30
0.0
 10
45.01797824343203
 20
18.12732346900077
 30
0.0
 10
45.13083215779901
 20
18.03767717310184
 30
0.0
 10
45.29432599379938
 20
17.93637955182876
 30
0.0
 10
45.34903504212864
 20
17.90773742637013
 30
0.0
 10
45.45258828838827
 20
17.86399614380245
 30
0.0
 10
45.50187990095251
 20
17.84845729091023
 30
0.0
 10
45.54810430388356
 20
17.84072367586392
 30
0.0
  0
SPLINE
  5
174
330
1F
100
AcDbEntity
  8
0
  6
Continuous
 62
     1
370
    15
100
AcDbSpline
210
0.0
220
0.0
230
1.0
 70
     8
 71
     3
 72
    14
 73
    10
 74
     0
 42
0.000000001
 43
0.00000001
 40
0.0000000000000023
 40
0.0000000000000023
 40
0.0000000000000023
 40
0.0000000000000023
 40
0.0000742139157661
 40
0.0000742139157661
 40
0.0000742139157661
 40
0.0001439481645232
 40
0.0001439481645232
 40
0.0001439481645232
 40
0.0002162318718361
 40
0.0002162318718361
 40
0.0002162318718361
 40
0.0002162318718361
 10
44.76108581210757
 20
18.36958130237415
 30
0.0
 10
44.77947193624801
 20
18.35815112110165
 30
0.0
 10
44.79804727075805
 20
18.34535031270649
 30
0.0
 10
44.81644206138285
 20
18.33134798685235
 30
0.0
 10
44.83372551747358
 20
18.31819162160719
 30
0.0
 10
44.85097232108767
 20
18.30388019962375
 30
0.0
 10
44.86777609273215
 20
18.28859397547256
 30
0.0
 10
44.88517098151389
 20
18.27277001793324
 30
0.0
 10
44.9022621588166
 20
18.25574117257592
 30
0.0
 10
44.91836331835419
 20
18.23787266328805
 30
0.0
  0
SPLINE
  5
175
330
1F
100
AcDbEntity
  8
0
  6
Continuous
 62
     1
370
    15
100
AcDbSpline
210
0.0
220
0.0
230
1.0
 70
     8
 71
     3
 72
     8
 73
     4
 74
     0
 42
0.000000001
 43
0.00000001
 40
0.0
 40
0.0
 40
0.0
 40
0.0
 40
1.0
 40
1.0
 40
1.0
 40
1.0
 10
44.7610858121055
 20
18.36958130237488
 30
0.0
 10
43.88499700043277
 20
18.91422322100939
 30
0.0
 10
43.01281643474208
 20
19.43153143853953
 30
0.0
 10
42.13614448479777
 20
19.92089825651422
 30
0.0
  0
SPLINE
  5
176
330
1F
100
AcDbEntity
  8
0
  6
Continuous
 62
     1
370
    15
100
AcDbSpline
210
0.0
220
0.0
230
1.0
 70
     8
 71
     3
 72
    14
 73
    10
 74
     0
 42
0.000000001
 43
0.00000001
 40
0.0000000000000002
 40
0.0000000000000002
 40
0.0000000000000002
 40
0.0000000000000002
 40
0.0000697674451318
 40
0.0000697674451318
 40
0.0000697674451318
 40
0.000146279206045
 40
0.000146279206045
 40
0.000146279206045
 40
0.0002250068974871
 40
0.0002250068974871
 40
0.0002250068974871
 40
0.0002250068974871
 10
41.9785916149475
 20
19.9706906692315
 30
0.0
 10
41.99306344576429
 20
19.9705668283785
 30
0.0
 10
42.00843539680567
 20
19.96867064009266
 30
0.0
 10
42.02430007681067
 20
19.96523808871207
 30
0.0
 10
42.04169474930305
 20
19.96147450148183
 30
0.0
 10
42.05981340098531
 20
19.95583665590299
 30
0.0
 10
42.07824430202698
 20
19.94855722086328
 30
0.0
 10
42.09720782303202
 20
19.94106742321486
 30
0.0
 10
42.11664149347354
 20
19.93178501616105
 30
0.0
 10
42.13614448479676
 20
19.92089825651811
 30
0.0
  0
SPLINE
  5
177
330
1F
100
AcDbEntity
  8
0
  6
Continuous
 62
     1
370
    15
100
AcDbSpline
210
0.0
220
0.0
230
1.0
 70
     8
 71
     3
 72
    12
 73
     8
 74
     0
 42
0.000000001
 43
0.00000001
 40
0.0
 40
0.0
 40
0.0
 40
0.0
 40
0.5000000000000068
 40
0.5000000000000068
 40
0.7500000000000033
 40
0.7500000000000033
 40
1.0
 40
1.0
 40
1.0
 40
1.0
 10
41.34894127666715
 20
20.31374692346827
 30
0.0
 10
41.44855175135583
 20
20.20460924954945
 30
0.0
 10
41.56140100721149
 20
20.12167205285133
 30
0.0
 10
41.72487483497358
 20
20.03457007988024
 30
0.0
 10
41.77957480218482
 20
20.01149563870965
 30
0.0
 10
41.88310450446055
 20
19.97996699749516
 30
0.0
 10
41.93238223800481
 20
19.97108610010194
 30
0.0
 10
41.97859161494749
 20
19.97069066923148
 30
0.0
  0
SPLINE
  5
178
330
1F
100
AcDbEntity
  8
0
  6
Continuous
 62
     1
370
    15
100
AcDbSpline
210
0.0
220
0.0
230
1.0
 70
     8
 71
     3
 72
    14
 73
    10
 74
     0
 42
0.000000001
 43
0.00000001
 40
0.0000000000000023
 40
0.0000000000000023
 40
0.0000000000000023
 40
0.0000000000000023
 40
0.0000741658550913
 40
0.0000741658550913
 40
0.0000741658550913
 40
0.0001438913360307
 40
0.0001438913360307
 40
0.0001438913360307
 40
0.0002161677787029
 40
0.0002161677787029
 40
0.0002161677787029
 40
0.0002161677787029
 10
41.19167010143282
 20
20.43674911561555
 30
0.0
 10
41.21005025802556
 20
20.42693137255498
 30
0.0
 10
41.22861926267454
 20
20.41557637239567
 30
0.0
 10
41.24700749330549
 20
20.40280935514394
 30
0.0
 10
41.26429375311579
 20
20.39080744035152
 30
0.0
 10
41.28154308889917
 20
20.37747133941472
 30
0.0
 10
41.29834878424332
 20
20.36293259105355
 30
0.0
 10
41.31574609664202
 20
20.34788202980359
 30
0.0
 10
41.33283914430562
 20
20.33138913706633
 30
0.0
 10
41.34894127666641
 20
20.31374692346906
 30
0.0
  0
SPLINE
  5
179
330
1F
100
AcDbEntity
  8
0
  6
Continuous
 62
     1
370
    15
100
AcDbSpline
210
0.0
220
0.0
230
1.0
 70
     8
 71
     3
 72
     8
 73
     4
 74
     0
 42
0.000000001
 43
0.00000001
 40
0.0
 40
0.0
 40
0.0
 40
0.0
 40
1.0
 40
1.0
 40
1.0
 40
1.0
 10
41.19167010143067
 20
20.43674911561618
 30
0.0
 10
40.31458479785052
 20
20.90524339144862
 30
0.0
 10
39.44100198116892
 20
21.34355373318643
 30
0.0
 10
38.56590007436687
 20
21.75068664481713
 30
0.0
  0
SPLINE
  5
17A
330
1F
100
AcDbEntity
  8
0
  6
Continuous
 62
     1
370
    15
100
AcDbSpline
210
0.0
220
0.0
230
1.0
 70
     8
 71
     3
 72
    14
 73
    10
 74
     0
 42
0.000000001
 43
0.00000001
 40
0.0000000000000001
 40
0.0000000000000001
 40
0.0000000000000001
 40
0.0000000000000001
 40
0.0000698638016819
 40
0.0000698638016819
 40
0.0000698638016819
 40
0.0001464304128195
 40
0.0001464304128195
 40
0.0001464304128195
 40
0.0002252093110567
 40
0.0002252093110567
 40
0.0002252093110567
 40
0.0002252093110567
 10
38.40827298236829
 20
21.78131250380786
 30
0.0
 10
38.42276135737963
 20
21.78347881786251
 30
0.0
 10
38.43815016663602
 20
21.78380335457657
 30
0.0
 10
38.45403133642713
 20
21.78248640389258
 30
0.0
 10
38.47143265014301
 20
21.78104339482575
 30
0.0
 10
38.48955661407891
 20
21.77762005217583
 30
0.0
 10
38.50799206010763
 20
21.77241046554084
 30
0.0
 10
38.52695902658826
 20
21.76705067902252
 30
0.0
 10
38.54639499374437
 20
21.75976119968538
 30
0.0
 10
38.56590007436579
 20
21.75068664482135
 30
0.0
  0
SPLINE
  5
17B
330
1F
100
AcDbEntity
  8
0
  6
Continuous
 62
     1
370
    15
100
AcDbSpline
210
0.0
220
0.0
230
1.0
 70
     8
 71
     3
 72
    12
 73
     8
 74
     0
 42
0.000000001
 43
0.00000001
 40
0.0
 40
0.0
 40
0.0
 40
0.0
 40
0.4999999999999956
 40
0.4999999999999956
 40
0.7499999999999978
 40
0.7499999999999978
 40
1.0
 40
1.0
 40
1.0
 40
1.0
 10
37.77836690762732
 20
22.06523558771238
 30
0.0
 10
37.87803893594322
 20
21.95915832022337
 30
0.0
 10
37.99094010731893
 20
21.88419252208023
 30
0.0
 10
38.15446911016275
 20
21.81257748424676
 30
0.0
 10
38.20918477445615
 20
21.79540448991953
 30
0.0
 10
38.31274871010777
 20
21.77651910074916
 30
0.0
 10
38.36204431151351
 20
21.77440035394127
 30
0.0
 10
38.40827298236827
 20
21.78131250380781
 30
0.0
  0
SPLINE
  5
17C
330
1F
100
AcDbEntity
  8
0
  6
Continuous
 62
     1
370
    15
100
AcDbSpline
210
0.0
220
0.0
230
1.0
 70
     8
 71
     3
 72
    14
 73
    10
 74
     0
 42
0.000000001
 43
0.00000001
 40
0.0000000000000022
 40
0.0000000000000022
 40
0.0000000000000022
 40
0.0000000000000022
 40
0.000074236915396
 40
0.000074236915396
 40
0.000074236915396
 40
0.000143975791601
 40
0.000143975791601
 40
0.000143975791601
 40
0.000216262701169
 40
0.000216262701169
 40
0.000216262701169
 40
0.000216262701169
 10
37.62104143031438
 20
22.17767016620413
 30
0.0
 10
37.63943748099467
 20
22.16960201174948
 30
0.0
 10
37.65802232232252
 20
22.15985191318993
 30
0.0
 10
37.67642598872063
 20
22.14849939271848
 30
0.0
 10
37.69371360924161
 20
22.13783531841819
 30
0.0
 10
37.71096407798277
 20
22.12568041048516
 30
0.0
 10
37.72777119414089
 20
22.11211485993268
 30
0.0
 10
37.74516918010782
 20
22.09807239982677
 30
0.0
 10
37.76226306398664
 20
22.08237431518016
 30
0.0
 10
37.77836690762661
 20
22.06523558771316
 30
0.0
  0
SPLINE
  5
17D
330
1F
100
AcDbEntity
  8
0
  6
Continuous
 62
     1
370
    15
100
AcDbSpline
210
0.0
220
0.0
230
1.0
 70
     8
 71
     3
 72
     8
 73
     4
 74
     0
 42
0.000000001
 43
0.00000001
 40
0.0
 40
0.0
 40
0.0
 40
0.0
 40
1.0
 40
1.0
 40
1.0
 40
1.0
 10
37.62104143031229
 20
22.17767016620462
 30
0.0
 10
36.74504981650664
 20
22.56186326089791
 30
0.0
 10
35.8677109487761
 20
22.91415403527198
 30
0.0
 10
34.99470647999662
 20
23.23237139454703
 30
0.0
  0
SPLINE
  5
17E
330
1F
100
AcDbEntity
  8
0
  6
Continuous
 62
     1
370
    15
100
AcDbSpline
210
0.0
220
0.0
230
1.0
 70
     8
 71
     3
 72
    14
 73
    10
 74
     0
 42
0.000000001
 43
0.00000001
 40
0.0000000000000002
 40
0.0000000000000002
 40
0.0000000000000002
 40
0.0000000000000002
 40
0.0000699601202207
 40
0.0000699601202207
 40
0.0000699601202207
 40
0.0001465560586455
 40
0.0001465560586455
 40
0.0001465560586455
 40
0.000225360582503
 40
0.000225360582503
 40
0.000225360582503
 40
0.000225360582503
 10
34.83705801287903
 20
23.24328496633161
 30
0.0
 10
34.85155841373857
 20
23.2477125488343
 30
0.0
 10
34.8669600511253
 20
23.2502588072056
 30
0.0
 10
34.88285468520462
 20
23.25108483912041
 30
0.0
 10
34.90025356080664
 20
23.25198904531083
 30
0.0
 10
34.91837448740809
 20
23.25084029066068
 30
0.0
 10
34.93680748603826
 20
23.24779039484262
 30
0.0
 10
34.95577082821659
 20
23.24465274919058
 30
0.0
 10
34.97520346812419
 20
23.2394804039065
 30
0.0
 10
34.99470647999563
 20
23.23237139455147
 30
0.0
  0
SPLINE
  5
17F
330
1F
100
AcDbEntity
  8
0
  6
Continuous
 62
     1
370
    15
100
AcDbSpline
210
0.0
220
0.0
230
1.0
 70
     8
 71
     3
 72
    12
 73
     8
 74
     0
 42
0.000000001
 43
0.00000001
 40
0.0
 40
0.0
 40
0.0
 40
0.0
 40
0.5000000000000062
 40
0.5000000000000062
 40
0.7500000000000031
 40
0.7500000000000031
 40
1.0
 40
1.0
 40
1.0
 40
1.0
 10
34.20708864137573
 20
23.46353140488289
 30
0.0
 10
34.30679543118613
 20
23.36220615278876
 30
0.0
 10
34.41971356824391
 20
23.29641242339046
 30
0.0
 10
34.58324521274202
 20
23.24142901111972
 30
0.0
 10
34.63795875921269
 20
23.23043154085177
 30
0.0
 10
34.74152389574643
 20
23.22449170789867
 30
0.0
 10
34.79081971900814
 20
23.22916646968584
 30
0.0
 10
34.83705801287902
 20
23.24328496633157
 30
0.0
  0
SPLINE
  5
180
330
1F
100
AcDbEntity
  8
0
  6
Continuous
 62
     1
370
    15
100
AcDbSpline
210
0.0
220
0.0
230
1.0
 70
     8
 71
     3
 72
    14
 73
    10
 74
     0
 42
0.000000001
 43
0.00000001
 40
0.0000000000000009
 40
0.0000000000000009
 40
0.0000000000000009
 40
0.0000000000000009
 40
0.0000743246765735
 40
0.0000743246765735
 40
0.0000743246765735
 40
0.0001440804352344
 40
0.0001440804352344
 40
0.0001440804352344
 40
0.0002163806528234
 40
0.0002163806528234
 40
0.0002163806528234
 40
0.0002163806528234
 10
34.04975453260658
 20
23.56361267407908
 30
0.0
 10
34.0681629529449
 20
23.55742264709794
 30
0.0
 10
34.08676013305655
 20
23.54943223484722
 30
0.0
 10
34.10517583778218
 20
23.53967391516955
 30
0.0
 10
34.12245863314064
 20
23.53051591418377
 30
0.0
 10
34.13970412108273
 20
23.51973464407848
 30
0.0
 10
34.15650689192745
 20
23.50735771459411
 30
0.0
 10
34.17389940335763
 20
23.49454638189686
 30
0.0
 10
34.1909882519852
 20
23.47989313929338
 30
0.0
 10
34.20708864137502
 20
23.46353140488361
 30
0.0
  0
SPLINE
  5
181
330
1F
100
AcDbEntity
  8
0
  6
Continuous
 62
     1
370
    15
100
AcDbSpline
210
0.0
220
0.0
230
1.0
 70
     8
 71
     3
 72
     8
 73
     4
 74
     0
 42
0.000000001
 43
0.00000001
 40
0.0
 40
0.0
 40
0.0
 40
0.0
 40
1.0
 40
1.0
 40
1.0
 40
1.0
 10
34.04975453260337
 20
23.56361267407982
 30
0.0
 10
33.17571324207391
 20
23.85751834721198
 30
0.0
 10
32.29846299630611
 20
24.1177536588737
 30
0.0
 10
31.42368452554166
 20
24.34260429950928
 30
0.0
  0
SPLINE
  5
182
330
1F
100
AcDbEntity
  8
0
  6
Continuous
 62
     1
370
    15
100
AcDbSpline
210
0.0
220
0.0
230
1.0
 70
     8
 71
     3
 72
    14
 73
    10
 74
     0
 42
0.000000001
 43
0.00000001
 40
0.0000000000000001
 40
0.0000000000000001
 40
0.0000000000000001
 40
0.0000000000000001
 40
0.0000698423144806
 40
0.0000698423144806
 40
0.0000698423144806
 40
0.0001463842132946
 40
0.0001463842132946
 40
0.0001463842132946
 40
0.0002251391951637
 40
0.0002251391951637
 40
0.0002251391951637
 40
0.0002251391951637
 10
31.26607854598163
 20
24.3334400820638
 30
0.0
 10
31.28056282199398
 20
24.34007125658921
 30
0.0
 10
31.29594785127248
 20
24.34481829900185
 30
0.0
 10
31.31182593530325
 20
24.3477981583353
 30
0.0
 10
31.32922358540915
 20
24.35106319648146
 30
0.0
 10
31.34734469897194
 20
24.35223284325476
 30
0.0
 10
31.36577825259548
 20
24.35141387599428
 30
0.0
 10
31.38474360910368
 20
24.35057128175658
 30
0.0
 10
31.4041790800007
 20
24.34761792533121
 30
0.0
 10
31.42368452554071
 20
24.34260429951392
 30
0.0
  0
SPLINE
  5
183
330
1F
100
AcDbEntity
  8
0
  6
Continuous
 62
     1
370
    15
100
AcDbSpline
210
0.0
220
0.0
230
1.0
 70
     8
 71
     3
 72
    12
 73
     8
 74
     0
 42
0.000000001
 43
0.00000001
 40
0.0
 40
0.0
 40
0.0
 40
0.0
 40
0.4999999999999991
 40
0.4999999999999991
 40
0.7499999999999996
 40
0.7499999999999996
 40
1.0
 40
1.0
 40
1.0
 40
1.0
 10
30.63628182977061
 20
24.48585281832143
 30
0.0
 10
30.73590431463045
 20
24.39103648394983
 30
0.0
 10
30.84875187130142
 20
24.3355209216082
 30
0.0
 10
31.01224973758787
 20
24.29817221767651
 30
0.0
 10
31.06696298651243
 20
24.2935748275945
 30
0.0
 10
31.1705349596718
 20
24.30079811382136
 30
0.0
 10
31.21983948093116
 20
24.31227096667407
 30
0.0
 10
31.26607854598159
 20
24.33344008206372
 30
0.0
  0
SPLINE
  5
184
330
1F
100
AcDbEntity
  8
0
  6
Continuous
 62
     1
370
    15
100
AcDbSpline
210
0.0
220
0.0
230
1.0
 70
     8
 71
     3
 72
    14
 73
    10
 74
     0
 42
0.000000001
 43
0.00000001
 40
0.0000000000000023
 40
0.0000000000000023
 40
0.0000000000000023
 40
0.0000000000000023
 40
0.000074355053394
 40
0.000074355053394
 40
0.000074355053394
 40
0.0001441139341973
 40
0.0001441139341973
 40
0.0001441139341973
 40
0.0002164176302588
 40
0.0002164176302588
 40
0.0002164176302588
 40
0.0002164176302588
 10
30.47898860998419
 20
24.5719246834856
 30
0.0
 10
30.49739334695376
 20
24.56772056925505
 30
0.0
 10
30.51598792327162
 20
24.56162875243085
 30
0.0
 10
30.53440218098781
 20
24.55363338742282
 30
0.0
 10
30.55167735005922
 20
24.54613260816632
 30
0.0
 10
30.56891626282587
 20
24.53690197707073
 30
0.0
 10
30.58571359380255
 20
24.52591591387867
 30
0.0
 10
30.60310050629356
 20
24.51454424300987
 30
0.0
 10
30.62018494721714
 20
24.5011731287982
 30
0.0
 10
30.63628182976989
 20
24.4858528183221
 30
0.0
  0
SPLINE
  5
185
330
1F
100
AcDbEntity
  8
0
  6
Continuous
 62
     1
370
    15
100
AcDbSpline
210
0.0
220
0.0
230
1.0
 70
     8
 71
     3
 72
     8
 73
     4
 74
     0
 42
0.000000001
 43
0.00000001
 40
0.0
 40
0.0
 40
0.0
 40
0.0
 40
1.0
 40
1.0
 40
1.0
 40
1.0
 10
30.47898860998206
 20
24.57192468348585
 30
0.0
 10
29.60624479156131
 20
24.77128176816051
 30
0.0
 10
28.73023776782421
 20
24.93543493594451
 30
0.0
 10
27.85396614089087
 20
25.06334333236765
 30
0.0
  0
SPLINE
  5
186
330
1F
100
AcDbEntity
  8
0
  6
Continuous
 62
     1
370
    15
100
AcDbSpline
210
0.0
220
0.0
230
1.0
 70
     8
 71
     3
 72
    14
 73
    10
 74
     0
 42
0.000000001
 43
0.00000001
 40
0.0000000000000001
 40
0.0000000000000001
 40
0.0000000000000001
 40
0.0000000000000001
 40
0.0000697562196331
 40
0.0000697562196331
 40
0.0000697562196331
 40
0.0001462563574528
 40
0.0001462563574528
 40
0.0001462563574528
 40
0.000224972833588
 40
0.000224972833588
 40
0.000224972833588
 40
0.000224972833588
 10
27.69642756648181
 20
25.03433718003232
 30
0.0
 10
27.71089705607086
 20
25.04305577672661
 30
0.0
 10
27.72626675024944
 20
25.04991646165596
 30
0.0
 10
27.74212942829854
 20
25.0549906744185
 30
0.0
 10
27.75952205205828
 20
25.06055429193521
 30
0.0
 10
27.77763897057943
 20
25.06401392448297
 30
0.0
 10
27.79606850319837
 20
25.0654295858552
 30
0.0
 10
27.8150307839583
 20
25.06688617018406
 30
0.0
 10
27.83446364547354
 20
25.06619008997377
 30
0.0
 10
27.85396614088987
 20
25.0633433323724
 30
0.0
  0
SPLINE
  5
187
330
1F
100
AcDbEntity
  8
0
  6
Continuous
 62
     1
370
    15
100
AcDbSpline
210
0.0
220
0.0
230
1.0
 70
     8
 71
     3
 72
    12
 73
     8
 74
     0
 42
0.000000001
 43
0.00000001
 40
0.0
 40
0.0
 40
0.0
 40
0.0
 40
0.5000000000000004
 40
0.5000000000000004
 40
0.7500000000000002
 40
0.7500000000000002
 40
1.0
 40
1.0
 40
1.0
 40
1.0
 10
27.06682270456351
 20
25.11657971536304
 30
0.0
 10
27.16641462535472
 20
25.02977119221924
 30
0.0
 10
27.27924325672474
 20
24.98543483857791
 30
0.0
 10
27.44270446395685
 20
24.96631986808648
 30
0.0
 10
27.49740318675828
 20
24.96819307418285
 30
0.0
 10
27.60093485231587
 20
24.98843396592501
 30
0.0
 10
27.65021522479906
 20
25.00649191521134
 30
0.0
 10
27.69642756648177
 20
25.03433718003224
 30
0.0
  0
SPLINE
  5
188
330
1F
100
AcDbEntity
  8
0
  6
Continuous
 62
     1
370
    15
100
AcDbSpline
210
0.0
220
0.0
230
1.0
 70
     8
 71
     3
 72
    14
 73
    10
 74
     0
 42
0.000000001
 43
0.00000001
 40
0.0000000000000022
 40
0.0000000000000022
 40
0.0000000000000022
 40
0.0000000000000022
 40
0.0000742121489415
 40
0.0000742121489415
 40
0.0000742121489415
 40
0.0001439452825975
 40
0.0001439452825975
 40
0.0001439452825975
 40
0.0002162281267701
 40
0.0002162281267701
 40
0.0002162281267701
 40
0.0002162281267701
 10
26.90956005071782
 20
25.1871936889891
 30
0.0
 10
26.92794421192197
 20
25.18505561372483
 30
0.0
 10
26.9465176107032
 20
25.18097631599313
 30
0.0
 10
26.96491053771042
 20
25.17489293965374
 30
0.0
 10
26.98219237344459
 20
25.16917705166238
 30
0.0
 10
26.99943761162654
 20
25.1616498689157
 30
0.0
 10
27.01623986721288
 20
25.15223408126859
 30
0.0
 10
27.03363325183817
 20
25.14248703181712
 30
0.0
 10
27.05072297674692
 20
25.13061291789254
 30
0.0
 10
27.06682270456281
 20
25.11657971536364
 30
0.0
  0
SPLINE
  5
189
330
1F
100
AcDbEntity
  8
0
  6
Continuous
 62
     1
370
    15
100
AcDbSpline
210
0.0
220
0.0
230
1.0
 70
     8
 71
     3
 72
     8
 73
     4
 74
     0
 42
0.000000001
 43
0.00000001
 40
0.0
 40
0.0
 40
0.0
 40
0.0
 40
1.0
 40
1.0
 40
1.0
 40
1.0
 10
26.90956005071579
 20
25.18719368898924
 30
0.0
 10
26.03352315159179
 20
25.28907665246037
 30
0.0
 10
25.16093074559384
 20
25.35444327135982
 30
0.0
 10
24.28393148609282
 20
25.38316513574767
 30
0.0
  0
SPLINE
  5
18A
330
1F
100
AcDbEntity
  8
0
  6
Continuous
 62
     1
370
    15
100
AcDbSpline
210
0.0
220
0.0
230
1.0
 70
     8
 71
     3
 72
    14
 73
    10
 74
     0
 42
0.000000001
 43
0.00000001
 40
0.0
 40
0.0
 40
0.0
 40
0.0
 40
0.0000698057908841
 40
0.0000698057908841
 40
0.0000698057908841
 40
0.0001463359407724
 40
0.0001463359407724
 40
0.0001463359407724
 40
0.0002250805437675
 40
0.0002250805437675
 40
0.0002250805437675
 40
0.0002250805437675
 10
24.12631486011171
 20
25.33483127265987
 30
0.0
 10
24.14079666177798
 20
25.34550063148417
 30
0.0
 10
24.15617895590977
 20
25.35436351043849
 30
0.0
 10
24.17205403794928
 20
25.36144619765939
 30
0.0
 10
24.18945478153551
 20
25.3692095606408
 30
0.0
 10
24.20757919155242
 20
25.37489449099238
 30
0.0
 10
24.22601573163996
 20
25.37851413451487
 30
0.0
 10
24.24498457711946
 20
25.38223828548587
 30
0.0
 10
24.26442334711286
 20
25.38380403038775
 30
0.0
 10
24.28393148609169
 20
25.38316513575241
 30
0.0
  0
SPLINE
  5
18B
330
1F
100
AcDbEntity
  8
0
  6
Continuous
 62
     1
370
    15
100
AcDbSpline
210
0.0
220
0.0
230
1.0
 70
     8
 71
     3
 72
    10
 73
     6
 74
     0
 42
0.000000001
 43
0.00000001
 40
0.0
 40
0.0
 40
0.0
 40
0.0
 40
0.1625020702370521
 40
0.5777516286137226
 40
0.9999999999999999
 40
0.9999999999999999
 40
0.9999999999999999
 40
0.9999999999999999
 10
23.59210656583308
 20
25.29796957969667
 30
0.0
 10
23.62085373208145
 20
25.28195982092464
 30
0.0
 10
23.72305995070869
 20
25.22503953559685
 30
0.0
 10
23.91717911447818
 20
25.22532433553259
 30
0.0
 10
24.05621577525171
 20
25.29812619947323
 30
0.0
 10
24.12631505727767
 20
25.33483132719995
 30
0.0
  0
LINE
  5
18C
330
1F
100
AcDbEntity
  8
0
  6
Continuous
 62
     1
370
    15
100
AcDbLine
 10
23.33912023901938
 20
25.39988979697229
 30
0.0
 11
23.25588980317115
 21
25.39815567433835
 31
0.0
  0
LINE
  5
18D
330
1F
100
AcDbEntity
  8
0
  6
Continuous
 62
     1
370
    15
100
AcDbLine
 10
43.6429321169853
 20
19.04625818133355
 30
0.0
 11
43.93966266512869
 21
19.22516897320748
 31
0.0
  0
SPLINE
  5
18E
330
1F
100
AcDbEntity
  8
0
  6
Continuous
 62
     1
370
    15
100
AcDbSpline
210
0.0
220
0.0
230
1.0
 70
     8
 71
     3
 72
    14
 73
    10
 74
     0
 42
0.000000001
 43
0.00000001
 40
0.0000000000000012
 40
0.0000000000000012
 40
0.0000000000000012
 40
0.0000000000000012
 40
0.0000698984616363
 40
0.0000698984616363
 40
0.0000698984616363
 40
0.0001464854317222
 40
0.0001464854317222
 40
0.0001464854317222
 40
0.0002252833917446
 40
0.0002252833917446
 40
0.0002252833917446
 40
0.0002252833917446
 10
44.09729446137617
 20
19.28156547703662
 30
0.0
 10
44.08280233355899
 20
19.28063951819232
 30
0.0
 10
44.0674097774662
 20
19.27796575629181
 30
0.0
 10
44.05152506110743
 20
19.27379369671159
 30
0.0
 10
44.03412382669234
 20
19.26922332950394
 30
0.0
 10
44.01600050845378
 20
19.26282155549686
 30
0.0
 10
43.99756602214335
 20
19.25483419049082
 30
0.0
 10
43.97860048587592
 20
19.24661673012048
 30
0.0
 10
43.95916642219711
 20
19.23666105880586
 30
0.0
 10
43.93966332039732
 20
19.2251697460709
 30
0.0
  0
SPLINE
  5
18F
330
1F
100
AcDbEntity
  8
0
  6
Continuous
 62
     1
370
    15
100
AcDbSpline
210
0.0
220
0.0
230
1.0
 70
     8
 71
     3
 72
    12
 73
     8
 74
     0
 42
0.000000001
 43
0.00000001
 40
0.0
 40
0.0
 40
0.0
 40
0.0
 40
0.5000000000000044
 40
0.5000000000000044
 40
0.7500000000000022
 40
0.7500000000000022
 40
1.0
 40
1.0
 40
1.0
 40
1.0
 10
44.72721328232046
 20
19.64421545292247
 30
0.0
 10
44.6275298435099
 20
19.53430656855783
 30
0.0
 10
44.51462348126044
 20
19.44886521081059
 30
0.0
 10
44.3510953599534
 20
19.35664521000581
 30
0.0
 10
44.29638117826536
 20
19.33158670585396
 30
0.0
 10
44.19281873248984
 20
19.29573944844579
 30
0.0
 10
44.14352347357214
 20
19.28451922980695
 30
0.0
 10
44.09729446137725
 20
19.28156547703594
 30
0.0
  0
SPLINE
  5
190
330
1F
100
AcDbEntity
  8
0
  6
Continuous
 62
     1
370
    15
100
AcDbSpline
210
0.0
220
0.0
230
1.0
 70
     8
 71
     3
 72
    14
 73
    10
 74
     0
 42
0.000000001
 43
0.00000001
 40
0.0000000000000001
 40
0.0000000000000001
 40
0.0000000000000001
 40
0.0000000000000001
 40
0.0000742643510087
 40
0.0000742643510087
 40
0.0000742643510087
 40
0.0001440085111132
 40
0.0001440085111132
 40
0.0001440085111132
 40
0.0002162995632734
 40
0.0002162995632734
 40
0.0002162995632734
 40
0.0002162995632734
 10
44.88454111123141
 20
19.77047016200238
 30
0.0
 10
44.86614116811203
 20
19.76007344634895
 30
0.0
 10
44.84755246736979
 20
19.74819122494406
 30
0.0
 10
44.82914505918863
 20
19.73496411696508
 30
0.0
 10
44.81185896737608
 20
19.72254275917865
 30
0.0
 10
44.79461009754029
 20
19.70884624309285
 30
0.0
 10
44.77780439707777
 20
19.69402259301464
 30
0.0
 10
44.76040818721451
 20
19.67867807772499
 30
0.0
 10
44.74331596078541
 20
19.661969930963
 30
0.0
 10
44.72721328232048
 20
19.6442154529225
 30
0.0
  0
SPLINE
  5
191
330
1F
100
AcDbEntity
  8
0
  6
Continuous
 62
     1
370
    15
100
AcDbSpline
210
0.0
220
0.0
230
1.0
 70
     8
 71
     3
 72
     8
 73
     4
 74
     0
 42
0.000000001
 43
0.00000001
 40
0.0
 40
0.0
 40
0.0
 40
0.0
 40
1.0
 40
1.0
 40
1.0
 40
1.0
 10
47.51087027060878
 20
21.16655025914861
 30
0.0
 10
46.63710564839879
 20
20.731359762873
 30
0.0
 10
45.75976850824395
 20
20.26500921137825
 30
0.0
 10
44.88454111123133
 20
19.77047016200231
 30
0.0
  0
SPLINE
  5
192
330
1F
100
AcDbEntity
  8
0
  6
Continuous
 62
     1
370
    15
100
AcDbSpline
210
0.0
220
0.0
230
1.0
 70
     8
 71
     3
 72
    14
 73
    10
 74
     0
 42
0.000000001
 43
0.00000001
 40
0.000000000000001
 40
0.000000000000001
 40
0.000000000000001
 40
0.000000000000001
 40
0.0000699166551935
 40
0.0000699166551935
 40
0.0000699166551935
 40
0.0001464920633096
 40
0.0001464920633096
 40
0.0001464920633096
 40
0.0002252777007131
 40
0.0002252777007131
 40
0.0002252777007131
 40
0.0002252777007131
 10
47.66851559163404
 20
21.20385474713911
 30
0.0
 10
47.6540198499841
 20
21.20523465688714
 30
0.0
 10
47.63862299173343
 20
21.20479084844559
 30
0.0
 10
47.62273308881433
 20
21.20273707618967
 30
0.0
 10
47.60533329623213
 20
21.2004881504759
 30
0.0
 10
47.58721089998324
 20
21.19629306863151
 30
0.0
 10
47.56877629237493
 20
21.19035927284333
 30
0.0
 10
47.54981076277567
 20
21.18425458203309
 30
0.0
 10
47.53037561974835
 20
21.17626516675213
 30
0.0
 10
47.51087027061057
 20
21.1665502591495
 30
0.0
  0
SPLINE
  5
193
330
1F
100
AcDbEntity
  8
0
  6
Continuous
 62
     1
370
    15
100
AcDbSpline
210
0.0
220
0.0
230
1.0
 70
     8
 71
     3
 72
    12
 73
     8
 74
     0
 42
0.000000001
 43
0.00000001
 40
0.0
 40
0.0
 40
0.0
 40
0.0
 40
0.4999999999999896
 40
0.4999999999999896
 40
0.7499999999999948
 40
0.7499999999999948
 40
1.0
 40
1.0
 40
1.0
 40
1.0
 10
48.29848530761029
 20
21.50914630371277
 30
0.0
 10
48.19879620433698
 20
21.40169931147316
 30
0.0
 10
48.0859274873176
 20
21.32375760922172
 30
0.0
 10
47.92241027451438
 20
21.24654282660788
 30
0.0
 10
47.86768945126582
 20
21.22726414926089
 30
0.0
 10
47.76409230768545
 20
21.20392523419433
 30
0.0
 10
47.71477213525731
 20
21.19945139496744
 30
0.0
 10
47.66851559163512
 20
21.20385474713838
 30
0.0
  0
SPLINE
  5
194
330
1F
100
AcDbEntity
  8
0
  6
Continuous
 62
     1
370
    15
100
AcDbSpline
210
0.0
220
0.0
230
1.0
 70
     8
 71
     3
 72
    14
 73
    10
 74
     0
 42
0.000000001
 43
0.00000001
 40
0.0000000000000001
 40
0.0000000000000001
 40
0.0000000000000001
 40
0.0000000000000001
 40
0.0000743767616796
 40
0.0000743767616796
 40
0.0000743767616796
 40
0.0001441422860202
 40
0.0001441422860202
 40
0.0001441422860202
 40
0.0002164502395807
 40
0.0002164502395807
 40
0.0002164502395807
 40
0.0002164502395807
 10
48.45582106843367
 20
21.62554919974464
 30
0.0
 10
48.43740581062741
 20
21.61684261544701
 30
0.0
 10
48.41880176851798
 20
21.60649605804843
 30
0.0
 10
48.40037932597102
 20
21.5946050984235
 30
0.0
 10
48.3830998318237
 20
21.58345186688423
 30
0.0
 10
48.36585769031146
 20
21.57085979642701
 30
0.0
 10
48.34905784940613
 20
21.55692613647848
 30
0.0
 10
48.33166892783404
 20
21.54250389751665
 30
0.0
 10
48.31458336427841
 20
21.52649712454568
 30
0.0
 10
48.29848530761033
 20
21.50914630371279
 30
0.0
  0
SPLINE
  5
195
330
1F
100
AcDbEntity
  8
0
  6
Continuous
 62
     1
370
    15
100
AcDbSpline
210
0.0
220
0.0
230
1.0
 70
     8
 71
     3
 72
     8
 73
     4
 74
     0
 42
0.000000001
 43
0.00000001
 40
0.0
 40
0.0
 40
0.0
 40
0.0
 40
1.0
 40
1.0
 40
1.0
 40
1.0
 10
51.08187186464507
 20
22.76982966689788
 30
0.0
 10
50.20633804325894
 20
22.42070546451691
 30
0.0
 10
49.32909438747332
 20
22.03842573110159
 30
0.0
 10
48.45582106843385
 20
21.62554919974472
 30
0.0
  0
SPLINE
  5
196
330
1F
100
AcDbEntity
  8
0
  6
Continuous
 62
     1
370
    15
100
AcDbSpline
210
0.0
220
0.0
230
1.0
 70
     8
 71
     3
 72
    14
 73
    10
 74
     0
 42
0.000000001
 43
0.00000001
 40
0.0000000000000011
 40
0.0000000000000011
 40
0.0000000000000011
 40
0.0000000000000011
 40
0.0000698161190263
 40
0.0000698161190263
 40
0.0000698161190263
 40
0.0001463465491021
 40
0.0001463465491021
 40
0.0001463465491021
 40
0.0002250910609695
 40
0.0002250910609695
 40
0.0002250910609695
 40
0.0002250910609695
 10
51.23947383148902
 20
22.78735077118354
 30
0.0
 10
51.22499259921086
 20
22.79102447313259
 30
0.0
 10
51.20961071978219
 20
22.79283079876514
 30
0.0
 10
51.19373579728153
 20
22.79294309387379
 30
0.0
 10
51.176337724253
 20
22.79306616335655
 30
0.0
 10
51.15821588846042
 20
22.79115688077425
 30
0.0
 10
51.13978157421289
 20
22.78738120548438
 30
0.0
 10
51.12081511701659
 20
22.78349653785797
 30
0.0
 10
51.10137840655509
 20
22.77760801391213
 30
0.0
 10
51.08187186464681
 20
22.76982966689858
 30
0.0
  0
SPLINE
  5
197
330
1F
100
AcDbEntity
  8
0
  6
Continuous
 62
     1
370
    15
100
AcDbSpline
210
0.0
220
0.0
230
1.0
 70
     8
 71
     3
 72
    12
 73
     8
 74
     0
 42
0.000000001
 43
0.00000001
 40
0.0
 40
0.0
 40
0.0
 40
0.0
 40
0.5
 40
0.5
 40
0.75
 40
0.75
 40
1.0
 40
1.0
 40
1.0
 40
1.0
 10
51.8692518957052
 20
23.02943785546368
 30
0.0
 10
51.7696329834602
 20
22.92635796179008
 30
0.0
 10
51.65678261122189
 20
22.8573285695288
 30
0.0
 10
51.49328494872626
 20
22.79662223065372
 30
0.0
 10
51.43857276165534
 20
22.78352020269776
 30
0.0
 10
51.33500723403178
 20
22.77321498448314
 30
0.0
 10
51.28570740787236
 20
22.77562190885848
 30
0.0
 10
51.23947383149012
 20
22.78735077118275
 30
0.0
  0
SPLINE
  5
198
330
1F
100
AcDbEntity
  8
0
  6
Continuous
 62
     1
370
    15
100
AcDbSpline
210
0.0
220
0.0
230
1.0
 70
     8
 71
     3
 72
    14
 73
    10
 74
     0
 42
0.000000001
 43
0.00000001
 40
0.0000000000000008
 40
0.0000000000000008
 40
0.0000000000000008
 40
0.0000000000000008
 40
0.0000742956867967
 40
0.0000742956867967
 40
0.0000742956867967
 40
0.0001440441471938
 40
0.0001440441471938
 40
0.0001440441471938
 40
0.0002163394034977
 40
0.0002163394034977
 40
0.0002163394034977
 40
0.0002163394034977
 10
52.02653982965993
 20
23.13393180926636
 30
0.0
 10
52.00814279923677
 20
23.12708661323569
 30
0.0
 10
51.98955617602947
 20
23.11847880820671
 30
0.0
 10
51.97114995071095
 20
23.10815661565354
 30
0.0
 10
51.95387116987154
 20
23.09846669282461
 30
0.0
 10
51.93662879639618
 20
23.08719599534361
 30
0.0
 10
51.91982860792421
 20
23.07438988308184
 30
0.0
 10
51.90243818062677
 20
23.061133855352
 30
0.0
 10
51.88535073586645
 20
23.04609600495249
 30
0.0
 10
51.86925189570523
 20
23.02943785546371
 30
0.0
  0
SPLINE
  5
199
330
1F
100
AcDbEntity
  8
0
  6
Continuous
 62
     1
370
    15
100
AcDbSpline
210
0.0
220
0.0
230
1.0
 70
     8
 71
     3
 72
     8
 73
     4
 74
     0
 42
0.000000001
 43
0.00000001
 40
0.0
 40
0.0
 40
0.0
 40
0.0
 40
1.0
 40
1.0
 40
1.0
 40
1.0
 10
54.65153854628636
 20
24.00853285863863
 30
0.0
 10
53.77481033618143
 20
23.75110180627639
 30
0.0
 10
52.90078755243878
 20
23.45922327773384
 30
0.0
 10
52.02653982965874
 20
23.13393180926592
 30
0.0
  0
SPLINE
  5
19A
330
1F
100
AcDbEntity
  8
0
  6
Continuous
 62
     1
370
    15
100
AcDbSpline
210
0.0
220
0.0
230
1.0
 70
     8
 71
     3
 72
    14
 73
    10
 74
     0
 42
0.000000001
 43
0.00000001
 40
0.0000000000000011
 40
0.0000000000000011
 40
0.0000000000000011
 40
0.0000000000000011
 40
0.0000697528943588
 40
0.0000697528943588
 40
0.0000697528943588
 40
0.0001462533375606
 40
0.0001462533375606
 40
0.0001462533375606
 40
0.000224970250991
 40
0.000224970250991
 40
0.000224970250991
 40
0.000224970250991
 10
54.80908093960002
 20
24.00608523821282
 30
0.0
 10
54.79461146296382
 20
24.01198318500199
 30
0.0
 10
54.77924182536447
 20
24.01599880017435
 30
0.0
 10
54.76337927269537
 20
24.01826278765803
 30
0.0
 10
54.74598589291604
 20
24.02074526289015
 30
0.0
 10
54.72786822742543
 20
24.02114201781099
 30
0.0
 10
54.70943803549907
 20
24.01957487718443
 30
0.0
 10
54.69047504420854
 20
24.01796243200906
 30
0.0
 10
54.67104155243516
 20
24.01425946734034
 30
0.0
 10
54.65153854628873
 20
24.00853285863934
 30
0.0
  0
SPLINE
  5
19B
330
1F
100
AcDbEntity
  8
0
  6
Continuous
 62
     1
370
    15
100
AcDbSpline
210
0.0
220
0.0
230
1.0
 70
     8
 71
     3
 72
    12
 73
     8
 74
     0
 42
0.000000001
 43
0.00000001
 40
0.0
 40
0.0
 40
0.0
 40
0.0
 40
0.4999999999999991
 40
0.4999999999999991
 40
0.7499999999999996
 40
0.7499999999999996
 40
1.0
 40
1.0
 40
1.0
 40
1.0
 10
55.43869726705999
 20
24.1814815469883
 30
0.0
 10
55.33910067300594
 20
24.08435841904326
 30
0.0
 10
55.22626515376301
 20
24.0252910387317
 30
0.0
 10
55.06279961951737
 20
23.98196201580191
 30
0.0
 10
55.00810048666934
 20
23.97521073152277
 30
0.0
 10
54.90457027699208
 20
23.97803407301557
 30
0.0
 10
54.85529144653242
 20
23.98724923482057
 30
0.0
 10
54.80908093960111
 20
24.00608523821201
 30
0.0
  0
SPLINE
  5
19C
330
1F
100
AcDbEntity
  8
0
  6
Continuous
 62
     1
370
    15
100
AcDbSpline
210
0.0
220
0.0
230
1.0
 70
     8
 71
     3
 72
    14
 73
    10
 74
     0
 42
0.000000001
 43
0.00000001
 40
0.0000000000000003
 40
0.0000000000000003
 40
0.0000000000000003
 40
0.0000000000000003
 40
0.0000741853131831
 40
0.0000741853131831
 40
0.0000741853131831
 40
0.0001439138452186
 40
0.0001439138452186
 40
0.0001439138452186
 40
0.0002161929064416
 40
0.0002161929064416
 40
0.0002161929064416
 40
0.0002161929064416
 10
55.59596185632201
 20
24.27239957303386
 30
0.0
 10
55.57758052711196
 20
24.26752566569043
 30
0.0
 10
55.5590101245918
 20
24.26079455961742
 30
0.0
 10
55.54062029651031
 20
24.25220709303353
 30
0.0
 10
55.52333629303653
 20
24.24413601147641
 30
0.0
 10
55.50608901280437
 20
24.23436642631573
 30
0.0
 10
55.48928504268285
 20
24.22289149477287
 30
0.0
 10
55.47188964876889
 20
24.21101269750769
 30
0.0
 10
55.45479820471752
 20
24.19718262033319
 30
0.0
 10
55.43869726706005
 20
24.18148154698832
 30
0.0
  0
SPLINE
  5
19D
330
1F
100
AcDbEntity
  8
0
  6
Continuous
 62
     1
370
    15
100
AcDbSpline
210
0.0
220
0.0
230
1.0
 70
     8
 71
     3
 72
     8
 73
     4
 74
     0
 42
0.000000001
 43
0.00000001
 40
0.0
 40
0.0
 40
0.0
 40
0.0
 40
1.0
 40
1.0
 40
1.0
 40
1.0
 10
58.22163739867506
 20
24.8632083630619
 30
0.0
 10
57.3450026779749
 20
24.70186902759453
 30
0.0
 10
56.472682723505
 20
24.50486678059365
 30
0.0
 10
55.59596185632179
 20
24.2723995730338
 30
0.0
  0
SPLINE
  5
19E
330
1F
100
AcDbEntity
  8
0
  6
Continuous
 62
     1
370
    15
100
AcDbSpline
210
0.0
220
0.0
230
1.0
 70
     8
 71
     3
 72
    14
 73
    10
 74
     0
 42
0.000000001
 43
0.00000001
 40
0.000000000000001
 40
0.000000000000001
 40
0.000000000000001
 40
0.000000000000001
 40
0.0000698194033014
 40
0.0000698194033014
 40
0.0000698194033014
 40
0.0001463588293712
 40
0.0001463588293712
 40
0.0001463588293712
 40
0.0002251122025635
 40
0.0002251122025635
 40
0.0002251122025635
 40
0.0002251122025635
 10
58.37925696076727
 20
24.84090856216708
 30
0.0
 10
58.36477358926268
 20
24.84893441562691
 30
0.0
 10
58.3493897566179
 20
24.85508881452325
 30
0.0
 10
58.33351326564234
 20
24.85945925146228
 30
0.0
 10
58.31611224682737
 20
24.86424935624821
 30
0.0
 10
58.29798782265809
 20
24.8669342599438
 30
0.0
 10
58.27955145787836
 20
24.86759044143516
 30
0.0
 10
58.26058297296007
 20
24.86826556198476
 30
0.0
 10
58.24114482101123
 20
24.86679858654038
 30
0.0
 10
58.22163739867691
 20
24.86320836306226
 30
0.0
  0
SPLINE
  5
19F
330
1F
100
AcDbEntity
  8
0
  6
Continuous
 62
     1
370
    15
100
AcDbSpline
210
0.0
220
0.0
230
1.0
 70
     8
 71
     3
 72
    12
 73
     8
 74
     0
 42
0.000000001
 43
0.00000001
 40
0.0
 40
0.0
 40
0.0
 40
0.0
 40
0.4999999999999911
 40
0.4999999999999911
 40
0.7499999999999956
 40
0.7499999999999956
 40
1.0
 40
1.0
 40
1.0
 40
1.0
 10
59.00914000261831
 20
24.94711439999019
 30
0.0
 10
58.90948541204653
 20
24.85742389212998
 30
0.0
 10
58.79659453863073
 20
24.80922724426959
 30
0.0
 10
58.63306660337797
 20
24.78390196893543
 30
0.0
 10
58.57834922429271
 20
24.78358529340506
 30
0.0
 10
58.47478272826719
 20
24.79944129481064
 30
0.0
 10
58.42548599351246
 20
24.81529108475173
 30
0.0
 10
58.37925696076834
 20
24.84090856216625
 30
0.0
  0
SPLINE
  5
1A0
330
1F
100
AcDbEntity
  8
0
  6
Continuous
 62
     1
370
    15
100
AcDbSpline
210
0.0
220
0.0
230
1.0
 70
     8
 71
     3
 72
    14
 73
    10
 74
     0
 42
0.000000001
 43
0.00000001
 40
0.0
 40
0.0
 40
0.0
 40
0.0
 40
0.0000742135542574
 40
0.0000742135542574
 40
0.0000742135542574
 40
0.0001439476481143
 40
0.0001439476481143
 40
0.0001439476481143
 40
0.0002162308927538
 40
0.0002162308927538
 40
0.0002162308927538
 40
0.0002162308927538
 10
59.16646142793829
 20
25.02308092126547
 30
0.0
 10
59.14806916143025
 20
25.02024149114067
 30
0.0
 10
59.12948798175763
 20
25.01547652954106
 30
0.0
 10
59.11108777224158
 20
25.00873937288303
 30
0.0
 10
59.09379917512854
 20
25.00240922826992
 30
0.0
 10
59.07654757638994
 20
24.99429161973762
 30
0.0
 10
59.05973941524539
 20
24.98432701996546
 30
0.0
 10
59.04234004890971
 20
24.974011928366
 30
0.0
 10
59.02524480222763
 20
24.96160894206459
 30
0.0
 10
59.00914000261835
 20
24.94711439999025
 30
0.0
  0
SPLINE
  5
1A1
330
1F
100
AcDbEntity
  8
0
  6
Continuous
 62
     1
370
    15
100
AcDbSpline
210
0.0
220
0.0
230
1.0
 70
     8
 71
     3
 72
     8
 73
     4
 74
     0
 42
0.000000001
 43
0.00000001
 40
0.0
 40
0.0
 40
0.0
 40
0.0
 40
1.0
 40
1.0
 40
1.0
 40
1.0
 10
61.79280790924177
 20
25.320048554246
 30
0.0
 10
60.91833010684704
 20
25.25756225856088
 30
0.0
 10
60.04358804438669
 20
25.15849325540724
 30
0.0
 10
59.16646142793827
 20
25.02308092126552
 30
0.0
  0
SPLINE
  5
1A2
330
1F
100
AcDbEntity
  8
0
  6
Continuous
 62
     1
370
    15
100
AcDbSpline
210
0.0
220
0.0
230
1.0
 70
     8
 71
     3
 72
    14
 73
    10
 74
     0
 42
0.000000001
 43
0.00000001
 40
0.000000000000001
 40
0.000000000000001
 40
0.000000000000001
 40
0.000000000000001
 40
0.0000698950777616
 40
0.0000698950777616
 40
0.0000698950777616
 40
0.0001464800430403
 40
0.0001464800430403
 40
0.0001464800430403
 40
0.0002252761279592
 40
0.0002252761279592
 40
0.0002252761279592
 40
0.0002252761279592
 10
61.95045424432671
 20
25.2782255436969
 30
0.0
 10
61.93596106775739
 20
25.28825572967041
 30
0.0
 10
61.9205673738786
 20
25.29645496309517
 30
0.0
 10
61.9046814437455
 20
25.30286618672446
 30
0.0
 10
61.88727849663051
 20
25.30988964615225
 30
0.0
 10
61.86915333014658
 20
25.31482200984535
 30
0.0
 10
61.85071692078409
 20
25.31769339208887
 30
0.0
 10
61.83174936201699
 20
25.32064749830208
 30
0.0
 10
61.81231316887876
 20
25.3214423133759
 30
0.0
 10
61.79280790924349
 20
25.32004855424613
 30
0.0
  0
SPLINE
  5
1A3
330
1F
100
AcDbEntity
  8
0
  6
Continuous
 62
     1
370
    15
100
AcDbSpline
210
0.0
220
0.0
230
1.0
 70
     8
 71
     3
 72
    12
 73
     8
 74
     0
 42
0.000000001
 43
0.00000001
 40
0.0
 40
0.0
 40
0.0
 40
0.0
 40
0.499999999999991
 40
0.499999999999991
 40
0.7499999999999954
 40
0.7499999999999954
 40
1.0
 40
1.0
 40
1.0
 40
1.0
 10
62.58041185684804
 20
25.3134894801661
 30
0.0
 10
62.48072557036368
 20
25.23267018021548
 30
0.0
 10
62.36781361207294
 20
25.19612439715496
 30
0.0
 10
62.20427484737366
 20
25.18922057223891
 30
0.0
 10
62.14955672427488
 20
25.19534778866193
 30
0.0
 10
62.04598645159464
 20
25.2239928236744
 30
0.0
 10
61.99668722315135
 20
25.24622942652296
 30
0.0
 10
61.95045424432778
 20
25.27822554369599
 30
0.0
  0
SPLINE
  5
1A4
330
1F
100
AcDbEntity
  8
0
  6
Continuous
 62
     1
370
    15
100
AcDbSpline
210
0.0
220
0.0
230
1.0
 70
     8
 71
     3
 72
    16
 73
    12
 74
     0
 42
0.000000001
 43
0.00000001
 40
0.0
 40
0.0
 40
0.0
 40
0.0
 40
0.2500000000000002
 40
0.2500000000000002
 40
0.3750000000000002
 40
0.3750000000000002
 40
0.5000000000000003
 40
0.5000000000000003
 40
0.7500000000000001
 40
0.7500000000000001
 40
1.0
 40
1.0
 40
1.0
 40
1.0
 10
45.91760441888228
 20
2.991084951153943
 30
0.0
 10
45.88635673836794
 20
4.387587624318168
 30
0.0
 10
45.85523436640062
 20
5.768215281744506
 30
0.0
 10
45.80967930131798
 20
7.774051433297575
 30
0.0
 10
45.79482099001883
 20
8.429874279553964
 30
0.0
 10
45.76493342304327
 20
9.723701015625489
 30
0.0
 10
45.74976080321328
 20
10.36369747306421
 30
0.0
 10
45.70377553529165
 20
12.25242633699384
 30
0.0
 10
45.6724933041476
 20
13.46963090713834
 30
0.0
 10
45.60995354828285
 20
15.76788797772322
 30
0.0
 10
45.57870194743565
 20
16.84872396094005
 30
0.0
 10
45.54810430388348
 20
17.84072367586597
 30
0.0
  0
SPLINE
  5
1A5
330
1F
100
AcDbEntity
  8
0
  6
Continuous
 62
     1
370
    15
100
AcDbSpline
210
0.0
220
0.0
230
1.0
 70
     8
 71
     3
 72
    16
 73
    12
 74
     0
 42
0.000000001
 43
0.00000001
 40
0.0
 40
0.0
 40
0.0
 40
0.0
 40
0.2500000000000003
 40
0.2500000000000003
 40
0.3750000000000003
 40
0.3750000000000003
 40
0.5000000000000003
 40
0.5000000000000003
 40
0.7500000000000001
 40
0.7500000000000001
 40
1.0
 40
1.0
 40
1.0
 40
1.0
 10
45.28766769994538
 20
3.551803143429481
 30
0.0
 10
45.25645605845449
 20
4.943960136479692
 30
0.0
 10
45.22545753165785
 20
6.316331942182297
 30
0.0
 10
45.18020746464665
 20
8.304639181174759
 30
0.0
 10
45.16546192990904
 20
8.953949965748635
 30
0.0
 10
45.1353312305818
 20
10.24016395918415
 30
0.0
 10
45.12005596713468
 20
10.87540079297749
 30
0.0
 10
45.0738246366226
 20
12.74704509754316
 30
0.0
 10
45.04246161179106
 20
13.94908763650733
 30
0.0
 10
44.97993753923954
 20
16.21054691234557
 30
0.0
 10
44.94878240210208
 20
17.2697578649132
 30
0.0
 10
44.91836331835486
 20
18.23787266328858
 30
0.0
  0
SPLINE
  5
1A6
330
1F
100
AcDbEntity
  8
0
  6
Continuous
 62
     1
370
    15
100
AcDbSpline
210
0.0
220
0.0
230
1.0
 70
     8
 71
     3
 72
    16
 73
    12
 74
     0
 42
0.000000001
 43
0.00000001
 40
0.0
 40
0.0
 40
0.0
 40
0.0
 40
0.2499999999999999
 40
0.2499999999999999
 40
0.375
 40
0.375
 40
0.5000000000000001
 40
0.5000000000000001
 40
0.75
 40
0.75
 40
1.0
 40
1.0
 40
1.0
 40
1.0
 10
45.13003155423438
 20
3.706367847618161
 30
0.0
 10
45.09885870708195
 20
5.099001216567034
 30
0.0
 10
45.06792154929568
 20
6.470819886151654
 30
0.0
 10
45.02279154155715
 20
8.456969456481984
 30
0.0
 10
45.00805459869368
 20
9.105870236692258
 30
0.0
 10
44.97789016175282
 20
10.39164790353363
 30
0.0
 10
44.96260324089663
 20
11.02642146764475
 30
0.0
 10
44.91635322831741
 20
12.89596203042767
 30
0.0
 10
44.88499966135228
 20
14.09564291760888
 30
0.0
 10
44.82253737211998
 20
16.35076295429711
 30
0.0
 10
44.79143452867781
 20
17.40599950109899
 30
0.0
 10
44.7610858121054
 20
18.36958130237467
 30
0.0
  0
SPLINE
  5
1A7
330
1F
100
AcDbEntity
  8
0
  6
Continuous
 62
     1
370
    15
100
AcDbSpline
210
0.0
220
0.0
230
1.0
 70
     8
 71
     3
 72
    18
 73
    14
 74
     0
 42
0.000000001
 43
0.00000001
 40
0.0
 40
0.0
 40
0.0
 40
0.0
 40
0.1250000000000001
 40
0.1250000000000001
 40
0.2500000000000002
 40
0.2500000000000002
 40
0.5000000000000001
 40
0.5000000000000001
 40
0.75
 40
0.75
 40
0.875
 40
0.875
 40
1.0
 40
1.0
 40
1.0
 40
1.0
 10
42.5039265639555
 20
6.027512772050465
 30
0.0
 10
42.48854670609553
 20
6.708904857001855
 30
0.0
 10
42.47331375291205
 20
7.381222153478127
 30
0.0
 10
42.44328966355433
 20
8.701297664663326
 30
0.0
 10
42.42849301253867
 20
9.349234148621086
 30
0.0
 10
42.38302828749965
 20
11.27446702606949
 30
0.0
 10
42.3519295709433
 20
12.52344806099677
 30
0.0
 10
42.28940476724888
 20
14.89805929084312
 30
0.0
 10
42.2579845826094
 20
16.02345289758642
 30
0.0
 10
42.2115878806836
 20
17.5849883545201
 30
0.0
 10
42.19624434292308
 20
18.08450480182015
 30
0.0
 10
42.16595303706218
 20
19.03730754198954
 30
0.0
 10
42.15116686734895
 20
19.48910979265099
 30
0.0
 10
42.13614448479779
 20
19.92089825651422
 30
0.0
  0
SPLINE
  5
1A8
330
1F
100
AcDbEntity
  8
0
  6
Continuous
 62
     1
370
    15
100
AcDbSpline
210
0.0
220
0.0
230
1.0
 70
     8
 71
     3
 72
     8
 73
     4
 74
     0
 42
0.000000001
 43
0.00000001
 40
0.0
 40
0.0
 40
0.0
 40
0.0
 40
1.0
 40
1.0
 40
1.0
 40
1.0
 10
17.75664353086436
 20
-21.06060656947312
 30
0.0
 10
16.881170631676
 20
-20.61976371711012
 30
0.0
 10
16.00757186211874
 20
-20.14880357148042
 30
0.0
 10
15.13026986947645
 20
-19.64870825909935
 30
0.0
  0
SPLINE
  5
1A9
330
1F
100
AcDbEntity
  8
0
  6
Continuous
 62
     1
370
    15
100
AcDbSpline
210
0.0
220
0.0
230
1.0
 70
     8
 71
     3
 72
    10
 73
     6
 74
     0
 42
0.000000001
 43
0.00000001
 40
0.0
 40
0.0
 40
0.0
 40
0.0
 40
0.5
 40
0.5
 40
1.0
 40
1.0
 40
1.0
 40
1.0
 10
15.13026986947642
 20
-19.64870825909937
 30
0.0
 10
15.10804670622571
 20
-19.01204886403543
 30
0.0
 10
15.08597441441488
 20
-18.33057911932546
 30
0.0
 10
15.04258235963074
 20
-16.89426708710994
 30
0.0
 10
15.02157000985256
 20
-16.14341819443049
 30
0.0
 10
14.99999999999999
 20
-15.3508883338778
 30
0.0
  0
SPLINE
  5
1AA
330
1F
100
AcDbEntity
  8
0
  6
Continuous
 62
     1
370
    15
100
AcDbSpline
210
0.0
220
0.0
230
1.0
 70
     8
 71
     3
 72
    16
 73
    12
 74
     0
 42
0.000000001
 43
0.00000001
 40
0.0
 40
0.0
 40
0.0
 40
0.0
 40
0.2500000000000004
 40
0.2500000000000004
 40
0.3750000000000003
 40
0.3750000000000003
 40
0.5000000000000003
 40
0.5000000000000003
 40
0.7500000000000001
 40
0.7500000000000001
 40
1.0
 40
1.0
 40
1.0
 40
1.0
 10
17.75664353086446
 20
-21.06060656947305
 30
0.0
 10
17.72541683169054
 20
-20.27357839596848
 30
0.0
 10
17.69412347423597
 20
-19.38831625757317
 30
0.0
 10
17.64804155477413
 20
-17.94249506080646
 30
0.0
 10
17.63282350975516
 20
-17.44101350416607
 30
0.0
 10
17.60282026004479
 20
-16.40495776695885
 30
0.0
 10
17.58807589006372
 20
-15.87103498145885
 30
0.0
 10
17.54277049701907
 20
-14.20484269476973
 30
0.0
 10
17.51176609081582
 20
-13.01477326548552
 30
0.0
 10
17.44939449111997
 20
-10.52051390733606
 30
0.0
 10
17.41803312503669
 20
-9.216546922343124
 30
0.0
 10
17.38713950647359
 20
-7.88295114371824
 30
0.0
  0
LINE
  5
1AB
330
1F
100
AcDbEntity
  8
0
  6
Continuous
 62
     4
370
    15
100
AcDbLine
 10
15.00000004749744
 20
-15.35088848322629
 30
0.0
 11
15.00000004749744
 21
-5.813314113765944
 31
0.0
  0
SPLINE
  5
1AC
330
1F
100
AcDbEntity
  8
0
  6
Continuous
 62
     1
370
    15
100
AcDbSpline
210
0.0
220
0.0
230
1.0
 70
     8
 71
     3
 72
    18
 73
    14
 74
     0
 42
0.000000001
 43
0.00000001
 40
0.0
 40
0.0
 40
0.0
 40
0.0
 40
0.125
 40
0.125
 40
0.25
 40
0.25
 40
0.5
 40
0.5
 40
0.75
 40
0.75
 40
0.875
 40
0.875
 40
1.0
 40
1.0
 40
1.0
 40
1.0
 10
42.34662794805739
 20
6.145430348534948
 30
0.0
 10
42.33125362300721
 20
6.824819396665113
 30
0.0
 10
42.31603139714006
 20
7.494921772805466
 30
0.0
 10
42.28603873598189
 20
8.81018230187231
 30
0.0
 10
42.2711919532171
 20
9.456538330396107
 30
0.0
 10
42.22561073770798
 20
11.37599381246252
 30
0.0
 10
42.19445251404824
 20
12.62019600297604
 30
0.0
 10
42.13185256838089
 20
14.98356185279118
 30
0.0
 10
42.100416787995
 20
16.10249046683014
 30
0.0
 10
42.05403095867718
 20
17.65337834152288
 30
0.0
 10
42.0386967063241
 20
18.14918907612208
 30
0.0
 10
42.00843492606643
 20
19.09433722601716
 30
0.0
 10
41.99365801710019
 20
19.54233540081507
 30
0.0
 10
41.97859161494747
 20
19.97069066923162
 30
0.0
  0
SPLINE
  5
1AD
330
1F
100
AcDbEntity
  8
0
  6
Continuous
 62
     1
370
    15
100
AcDbSpline
210
0.0
220
0.0
230
1.0
 70
     8
 71
     3
 72
    16
 73
    12
 74
     0
 42
0.000000001
 43
0.00000001
 40
0.0
 40
0.0
 40
0.0
 40
0.0
 40
0.2499999999999999
 40
0.2499999999999999
 40
0.4999999999999998
 40
0.4999999999999998
 40
0.7499999999999997
 40
0.7499999999999997
 40
0.8749999999999998
 40
0.8749999999999998
 40
1.0
 40
1.0
 40
1.0
 40
1.0
 10
41.71685966783678
 20
6.692399781473947
 30
0.0
 10
41.68628112931736
 20
8.04090841441123
 30
0.0
 10
41.6568755288166
 20
9.342171081573127
 30
0.0
 10
41.59570107122698
 20
11.88178534517007
 30
0.0
 10
41.56442421956327
 20
13.11231214363238
 30
0.0
 10
41.50176514391057
 20
15.44149459756383
 30
0.0
 10
41.47038889895828
 20
16.53992415446519
 30
0.0
 10
41.42421993516046
 20
18.05629706574663
 30
0.0
 10
41.40897903872031
 20
18.53998157517733
 30
0.0
 10
41.37894296791845
 20
19.45991759676179
 30
0.0
 10
41.36412032394466
 20
19.89665307841022
 30
0.0
 10
41.34894127666715
 20
20.31374692346834
 30
0.0
  0
SPLINE
  5
1AE
330
1F
100
AcDbEntity
  8
0
  6
Continuous
 62
     1
370
    15
100
AcDbSpline
210
0.0
220
0.0
230
1.0
 70
     8
 71
     3
 72
    18
 73
    14
 74
     0
 42
0.000000001
 43
0.00000001
 40
0.0
 40
0.0
 40
0.0
 40
0.0
 40
0.1249999999999998
 40
0.1249999999999998
 40
0.2499999999999997
 40
0.2499999999999997
 40
0.4999999999999993
 40
0.4999999999999993
 40
0.7499999999999992
 40
0.7499999999999992
 40
0.8749999999999996
 40
0.8749999999999996
 40
1.0
 40
1.0
 40
1.0
 40
1.0
 10
41.55927502042898
 20
6.849634150082216
 30
0.0
 10
41.54402282764983
 20
7.523306257829612
 30
0.0
 10
41.52901407613444
 20
8.185615538929513
 30
0.0
 10
41.49921479968865
 20
9.487294800193284
 30
0.0
 10
41.4840765213032
 20
10.13165876468661
 30
0.0
 10
41.43816303929007
 20
12.03473278037572
 30
0.0
 10
41.4068866381429
 20
13.26317127271142
 30
0.0
 10
41.34427317934227
 20
15.58644508597331
 30
0.0
 10
41.31294208007129
 20
16.68105720612224
 30
0.0
 10
41.26687003133885
 20
18.19076667785018
 30
0.0
 10
41.25166626038706
 20
18.67207522980101
 30
0.0
 10
41.22171289769744
 20
19.58702090143634
 30
0.0
 10
41.20686150706729
 20
20.02186629297261
 30
0.0
 10
41.19167010143067
 20
20.43674911561618
 30
0.0
  0
SPLINE
  5
1AF
330
1F
100
AcDbEntity
  8
0
  6
Continuous
 62
     1
370
    15
100
AcDbSpline
210
0.0
220
0.0
230
1.0
 70
     8
 71
     3
 72
    16
 73
    12
 74
     0
 42
0.000000001
 43
0.00000001
 40
0.0
 40
0.0
 40
0.0
 40
0.0
 40
0.25
 40
0.25
 40
0.5
 40
0.5
 40
0.75
 40
0.75
 40
0.875
 40
0.875
 40
1.0
 40
1.0
 40
1.0
 40
1.0
 10
38.93428857012429
 20
9.092985562401815
 30
0.0
 10
38.90439464887705
 20
10.38991081090123
 30
0.0
 10
38.87357909413425
 20
11.65900306335482
 30
0.0
 10
38.8113178502402
 20
14.08618526306789
 30
0.0
 10
38.77987790020124
 20
15.24402742307958
 30
0.0
 10
38.71767599225458
 20
17.4005890129078
 30
0.0
 10
38.68691973503329
 20
18.39913713251169
 30
0.0
 10
38.64220637233167
 20
19.75222951580328
 30
0.0
 10
38.62725682992521
 20
20.18217565168592
 30
0.0
 10
38.59681040390791
 20
21.00034889462923
 30
0.0
 10
38.58140692710979
 20
21.38763070948664
 30
0.0
 10
38.56590007436683
 20
21.75068664481709
 30
0.0
  0
SPLINE
  5
1B0
330
1F
100
AcDbEntity
  8
0
  6
Continuous
 62
     1
370
    15
100
AcDbSpline
210
0.0
220
0.0
230
1.0
 70
     8
 71
     3
 72
    14
 73
    10
 74
     0
 42
0.000000001
 43
0.00000001
 40
0.0000000000000001
 40
0.0000000000000001
 40
0.0000000000000001
 40
0.0000000000000001
 40
0.0000698698878214
 40
0.0000698698878214
 40
0.0000698698878214
 40
0.0001464400464659
 40
0.0001464400464659
 40
0.0001464400464659
 40
0.0002252222684895
 40
0.0002252222684895
 40
0.0002252222684895
 40
0.0002252222684895
 10
17.91428759548233
 20
-21.09901541878514
 30
0.0
 10
17.89979709414496
 20
-21.10026483672486
 30
0.0
 10
17.88440606518753
 20
-21.09969527092101
 30
0.0
 10
17.8685226487457
 20
-21.0975222530735
 30
0.0
 10
17.85111957614872
 20
-21.09514133033606
 30
0.0
 10
17.83299386534663
 20
-21.0908187561742
 30
0.0
 10
17.81455667695472
 20
-21.08476463665686
 30
0.0
 10
17.79558799456999
 20
-21.07853599334083
 30
0.0
 10
17.77615032625402
 20
-21.07042918228951
 30
0.0
 10
17.75664353086597
 20
-21.06060656947393
 30
0.0
  0
SPLINE
  5
1B1
330
1F
100
AcDbEntity
  8
0
  6
Continuous
 62
     1
370
    15
100
AcDbSpline
210
0.0
220
0.0
230
1.0
 70
     8
 71
     3
 72
    16
 73
    12
 74
     0
 42
0.000000001
 43
0.00000001
 40
0.0
 40
0.0
 40
0.0
 40
0.0
 40
0.2500000000000008
 40
0.2500000000000008
 40
0.3750000000000009
 40
0.3750000000000009
 40
0.5000000000000011
 40
0.5000000000000011
 40
0.7500000000000006
 40
0.7500000000000006
 40
1.0
 40
1.0
 40
1.0
 40
1.0
 10
17.91428759548233
 20
-21.09901541878529
 30
0.0
 10
17.88304194908617
 20
-20.31990991635701
 30
0.0
 10
17.85170645420817
 20
-19.44205888346997
 30
0.0
 10
17.80553054530415
 20
-18.00623178696357
 30
0.0
 10
17.79027608771264
 20
-17.50789615313413
 30
0.0
 10
17.76019100939619
 20
-16.47772445639412
 30
0.0
 10
17.74545143190938
 20
-15.94711953443518
 30
0.0
 10
17.70019159500097
 20
-14.29108187066615
 30
0.0
 10
17.66919664602526
 20
-13.10719239657383
 30
0.0
 10
17.60680051511003
 20
-10.62368500143621
 30
0.0
 10
17.57540516739103
 20
-9.324287969389024
 30
0.0
 10
17.54445797838266
 20
-7.994355878019481
 30
0.0
  0
SPLINE
  5
1B2
330
1F
100
AcDbEntity
  8
0
  6
Continuous
 62
     1
370
    15
100
AcDbSpline
210
0.0
220
0.0
230
1.0
 70
     8
 71
     3
 72
    12
 73
     8
 74
     0
 42
0.000000001
 43
0.00000001
 40
0.0
 40
0.0
 40
0.0
 40
0.0
 40
0.5000000000000016
 40
0.5000000000000016
 40
0.7500000000000008
 40
0.7500000000000008
 40
1.0
 40
1.0
 40
1.0
 40
1.0
 10
18.54423623092428
 20
-21.40728833135641
 30
0.0
 10
18.44455850114205
 20
-21.29975363022337
 30
0.0
 10
18.33165048605392
 20
-21.22143687573474
 30
0.0
 10
18.16811101419094
 20
-21.14345653522774
 30
0.0
 10
18.11339174013066
 20
-21.12387796739834
 30
0.0
 10
18.00982014703994
 20
-21.09987177433429
 30
0.0
 10
17.96052051087229
 20
-21.09502906713659
 30
0.0
 10
17.91428759548233
 20
-21.09901541878509
 30
0.0
  0
SPLINE
  5
1B3
330
1F
100
AcDbEntity
  8
0
  6
Continuous
 62
     1
370
    15
100
AcDbSpline
210
0.0
220
0.0
230
1.0
 70
     8
 71
     3
 72
    16
 73
    12
 74
     0
 42
0.000000001
 43
0.00000001
 40
0.0
 40
0.0
 40
0.0
 40
0.0
 40
0.2500000000000003
 40
0.2500000000000003
 40
0.3750000000000003
 40
0.3750000000000003
 40
0.5000000000000002
 40
0.5000000000000002
 40
0.7500000000000001
 40
0.7500000000000001
 40
1.0
 40
1.0
 40
1.0
 40
1.0
 10
18.54423623092428
 20
-21.40728833135636
 30
0.0
 10
18.51302991632153
 20
-20.65486604515742
 30
0.0
 10
18.4816459346646
 20
-19.80167014001586
 30
0.0
 10
18.43527050285464
 20
-18.39832907701759
 30
0.0
 10
18.41992859586178
 20
-17.91007824640027
 30
0.0
 10
18.38962966870933
 20
-16.89842554181244
 30
0.0
 10
18.37483086388078
 20
-16.37695611028381
 30
0.0
 10
18.32991949999713
 20
-14.75352754690109
 30
0.0
 10
18.29907980629856
 20
-13.58896356686415
 30
0.0
 10
18.23681952147517
 20
-11.13742956494804
 30
0.0
 10
18.20540467741658
 20
-9.850669578342057
 30
0.0
 10
18.17435190995005
 20
-8.529530439050184
 30
0.0
  0
SPLINE
  5
1B4
330
1F
100
AcDbEntity
  8
0
  6
Continuous
 62
     1
370
    15
100
AcDbSpline
210
0.0
220
0.0
230
1.0
 70
     8
 71
     3
 72
    14
 73
    10
 74
     0
 42
0.000000001
 43
0.00000001
 40
0.0
 40
0.0
 40
0.0
 40
0.0
 40
0.0000742385554319
 40
0.0000742385554319
 40
0.0000742385554319
 40
0.0001439778875562
 40
0.0001439778875562
 40
0.0001439778875562
 40
0.0002162651764681
 40
0.0002162651764681
 40
0.0002162651764681
 40
0.0002162651764681
 10
18.70156667346343
 20
-21.52418584423041
 30
0.0
 10
18.68316989495737
 20
-21.51539829669861
 30
0.0
 10
18.6645843056114
 20
-21.50498269663341
 30
0.0
 10
18.64617988745239
 20
-21.49303706749775
 30
0.0
 10
18.62889182747487
 20
-21.48181602529025
 30
0.0
 10
18.6116409107701
 20
-21.46916416656527
 30
0.0
 10
18.59483333617544
 20
-21.45518223801145
 30
0.0
 10
18.57743489721102
 20
-21.44070877967999
 30
0.0
 10
18.56034054845127
 20
-21.42466205140397
 30
0.0
 10
18.54423623092453
 20
-21.40728833135666
 30
0.0
  0
SPLINE
  5
1B5
330
1F
100
AcDbEntity
  8
0
  6
Continuous
 62
     1
370
    15
100
AcDbSpline
210
0.0
220
0.0
230
1.0
 70
     8
 71
     3
 72
    16
 73
    12
 74
     0
 42
0.000000001
 43
0.00000001
 40
0.0
 40
0.0
 40
0.0
 40
0.0
 40
0.2499999999999997
 40
0.2499999999999997
 40
0.3749999999999997
 40
0.3749999999999997
 40
0.4999999999999998
 40
0.4999999999999998
 40
0.7499999999999999
 40
0.7499999999999999
 40
1.0
 40
1.0
 40
1.0
 40
1.0
 10
18.70156667346342
 20
-21.5241858442301
 30
0.0
 10
18.67039847845838
 20
-20.77722214325559
 30
0.0
 10
18.63903211960819
 20
-19.92897832701161
 30
0.0
 10
18.59265085680315
 20
-18.53193569940957
 30
0.0
 10
18.57730167497463
 20
-18.04559719403269
 30
0.0
 10
18.54697783139724
 20
-17.03735054476456
 30
0.0
 10
18.53214513260553
 20
-16.51716325518894
 30
0.0
 10
18.48736195132285
 20
-14.89994384267855
 30
0.0
 10
18.45659029416184
 20
-13.73890059290547
 30
0.0
 10
18.39442266286443
 20
-11.29267519828024
 30
0.0
 10
18.36303238573945
 20
-10.00769974502477
 30
0.0
 10
18.33198094080365
 20
-8.687327877997975
 30
0.0
  0
SPLINE
  5
1B6
330
1F
100
AcDbEntity
  8
0
  6
Continuous
 62
     1
370
    15
100
AcDbSpline
210
0.0
220
0.0
230
1.0
 70
     8
 71
     3
 72
     8
 73
     4
 74
     0
 42
0.000000001
 43
0.00000001
 40
0.0
 40
0.0
 40
0.0
 40
0.0
 40
1.0
 40
1.0
 40
1.0
 40
1.0
 10
21.32766765988238
 20
-22.68426895081358
 30
0.0
 10
20.45485334630784
 20
-22.33012763152783
 30
0.0
 10
19.57759301723582
 20
-21.94263536420824
 30
0.0
 10
18.70156667346345
 20
-21.52418584423044
 30
0.0
  0
SPLINE
  5
1B7
330
1F
100
AcDbEntity
  8
0
  6
Continuous
 62
     1
370
    15
100
AcDbSpline
210
0.0
220
0.0
230
1.0
 70
     8
 71
     3
 72
    16
 73
    12
 74
     0
 42
0.000000001
 43
0.00000001
 40
0.0
 40
0.0
 40
0.0
 40
0.0
 40
0.2500000000000004
 40
0.2500000000000004
 40
0.5000000000000008
 40
0.5000000000000008
 40
0.6250000000000008
 40
0.6250000000000008
 40
0.7500000000000007
 40
0.7500000000000007
 40
1.0
 40
1.0
 40
1.0
 40
1.0
 10
21.32766765988239
 20
-22.6842689508136
 30
0.0
 10
21.29691356037033
 20
-22.05400900979138
 30
0.0
 10
21.2656027167231
 20
-21.31574163977635
 30
0.0
 10
21.20314729871394
 20
-19.65047003719971
 30
0.0
 10
21.17200860460325
 20
-18.72363203572401
 30
0.0
 10
21.12637658778161
 20
-17.2238403620401
 30
0.0
 10
21.11142453347286
 20
-16.70670903087436
 30
0.0
 10
21.08167182953586
 20
-15.63823815397553
 30
0.0
 10
21.06655927390957
 20
-15.0831233521188
 30
0.0
 10
21.02072921850201
 20
-13.36210751529646
 30
0.0
 10
20.98951684457045
 20
-12.14017926578015
 30
0.0
 10
20.95827873333974
 20
-10.86737520498453
 30
0.0
  0
SPLINE
  5
1B8
330
1F
100
AcDbEntity
  8
0
  6
Continuous
 62
     1
370
    15
100
AcDbSpline
210
0.0
220
0.0
230
1.0
 70
     8
 71
     3
 72
    14
 73
    10
 74
     0
 42
0.000000001
 43
0.00000001
 40
0.0
 40
0.0
 40
0.0
 40
0.0
 40
0.2500000000000001
 40
0.2500000000000001
 40
0.5000000000000001
 40
0.5000000000000001
 40
0.7500000000000002
 40
0.7500000000000002
 40
1.0
 40
1.0
 40
1.0
 40
1.0
 10
38.77703752149071
 20
9.199515144801587
 30
0.0
 10
38.74706337853953
 20
10.49283029417548
 30
0.0
 10
38.71618459678932
 20
11.75740577116487
 30
0.0
 10
38.6538389114401
 20
14.17387002080449
 30
0.0
 10
38.62237779329617
 20
15.32551211700912
 30
0.0
 10
38.56017821938632
 20
17.46837040002702
 30
0.0
 10
38.52944545420043
 20
18.45941859022147
 30
0.0
 10
38.46991582043121
 20
20.24780643270465
 30
0.0
 10
38.4393373631649
 20
21.06303922818337
 30
0.0
 10
38.40827298236827
 20
21.78131250380787
 30
0.0
  0
SPLINE
  5
1B9
330
1F
100
AcDbEntity
  8
0
  6
Continuous
 62
     1
370
    15
100
AcDbSpline
210
0.0
220
0.0
230
1.0
 70
     8
 71
     3
 72
    16
 73
    12
 74
     0
 42
0.000000001
 43
0.00000001
 40
0.0
 40
0.0
 40
0.0
 40
0.0
 40
0.2499999999999995
 40
0.2499999999999995
 40
0.499999999999999
 40
0.499999999999999
 40
0.624999999999999
 40
0.624999999999999
 40
0.7499999999999989
 40
0.7499999999999989
 40
1.0
 40
1.0
 40
1.0
 40
1.0
 10
38.14740565572763
 20
9.72451253748592
 30
0.0
 10
38.11720983629728
 20
11.00905712381047
 30
0.0
 10
38.08618827155363
 20
12.26101032396749
 30
0.0
 10
38.02373396229209
 20
14.64522537397488
 30
0.0
 10
37.9923070786228
 20
15.77724787848844
 30
0.0
 10
37.94583821191306
 20
17.35097064458774
 30
0.0
 10
37.93046035890101
 20
17.85491993360036
 30
0.0
 10
37.90008108150584
 20
18.81721124319019
 30
0.0
 10
37.88522371886661
 20
19.27418523939146
 30
0.0
 10
37.84034810554364
 20
20.58201346230914
 30
0.0
 10
37.80951275004062
 20
21.37365434111915
 30
0.0
 10
37.77836690762731
 20
22.06523558771242
 30
0.0
  0
SPLINE
  5
1BA
330
1F
100
AcDbEntity
  8
0
  6
Continuous
 62
     1
370
    15
100
AcDbSpline
210
0.0
220
0.0
230
1.0
 70
     8
 71
     3
 72
    16
 73
    12
 74
     0
 42
0.000000001
 43
0.00000001
 40
0.0
 40
0.0
 40
0.0
 40
0.0
 40
0.2500000000000001
 40
0.2500000000000001
 40
0.5000000000000001
 40
0.5000000000000001
 40
0.6250000000000001
 40
0.6250000000000001
 40
0.7500000000000002
 40
0.7500000000000002
 40
1.0
 40
1.0
 40
1.0
 40
1.0
 10
37.98983960254569
 20
9.882054153845706
 30
0.0
 10
37.95961379617191
 20
11.16579069216855
 30
0.0
 10
37.92858452195829
 20
12.4159148477609
 30
0.0
 10
37.86616079366665
 20
14.79465138662189
 30
0.0
 10
37.83477219107959
 20
15.92302696342766
 30
0.0
 10
37.78839163802794
 20
17.49025824198986
 30
0.0
 10
37.77304832328544
 20
17.99187510160109
 30
0.0
 10
37.74274721668682
 20
18.94923500288364
 30
0.0
 10
37.72794818336798
 20
19.40349123992077
 30
0.0
 10
37.68302471750098
 20
20.70498744214195
 30
0.0
 10
37.65217770212977
 20
21.49163459307434
 30
0.0
 10
37.62104143031223
 20
22.17767016620459
 30
0.0
  0
SPLINE
  5
1BB
330
1F
100
AcDbEntity
  8
0
  6
Continuous
 62
     1
370
    15
100
AcDbSpline
210
0.0
220
0.0
230
1.0
 70
     8
 71
     3
 72
    16
 73
    12
 74
     0
 42
0.000000001
 43
0.00000001
 40
0.0
 40
0.0
 40
0.0
 40
0.0
 40
0.2499999999999998
 40
0.2499999999999998
 40
0.4999999999999997
 40
0.4999999999999997
 40
0.6249999999999998
 40
0.6249999999999998
 40
0.7499999999999999
 40
0.7499999999999999
 40
1.0
 40
1.0
 40
1.0
 40
1.0
 10
35.36422254206772
 20
12.01273754450645
 30
0.0
 10
35.3333151317397
 20
13.24897173394708
 30
0.0
 10
35.301949605706
 20
14.43591391219212
 30
0.0
 10
35.2395895136433
 20
16.66133824084231
 30
0.0
 10
35.20860076762409
 20
17.69962715697712
 30
0.0
 10
35.16333216549474
 20
19.11758775485912
 30
0.0
 10
35.14859681200373
 20
19.56574606000184
 30
0.0
 10
35.11856765615595
 20
20.42282783690241
 30
0.0
 10
35.10333881713895
 20
20.8309092820611
 30
0.0
 10
35.05723153208032
 20
21.98598481145826
 30
0.0
 10
35.02593070473524
 20
22.66328939149641
 30
0.0
 10
34.99470647999664
 20
23.23237139454704
 30
0.0
  0
SPLINE
  5
1BC
330
1F
100
AcDbEntity
  8
0
  6
Continuous
 62
     1
370
    15
100
AcDbSpline
210
0.0
220
0.0
230
1.0
 70
     8
 71
     3
 72
    14
 73
    10
 74
     0
 42
0.000000001
 43
0.00000001
 40
0.0000000000000001
 40
0.0000000000000001
 40
0.0000000000000001
 40
0.0000000000000001
 40
0.0000699420047881
 40
0.0000699420047881
 40
0.0000699420047881
 40
0.0001465304854461
 40
0.0001465304854461
 40
0.0001465304854461
 40
0.0002253282727238
 40
0.0002253282727238
 40
0.0002253282727238
 40
0.0002253282727238
 10
21.48528102876301
 20
-22.70312726106352
 30
0.0
 10
21.47078604355078
 20
-22.7066545713119
 30
0.0
 10
21.45539001217662
 20
-22.70831219388138
 30
0.0
 10
21.43950101036747
 20
-22.70827748595307
 30
0.0
 10
21.42210551172611
 20
-22.70823948723377
 30
0.0
 10
21.40398779686884
 20
-22.70617415019083
 30
0.0
 10
21.38555792973104
 20
-22.70225044501545
 30
0.0
 10
21.36659758571617
 20
-22.69821380170263
 30
0.0
 10
21.34716781703726
 20
-22.69218107057792
 30
0.0
 10
21.3276676598839
 20
-22.6842689508142
 30
0.0
  0
SPLINE
  5
1BD
330
1F
100
AcDbEntity
  8
0
  6
Continuous
 62
     1
370
    15
100
AcDbSpline
210
0.0
220
0.0
230
1.0
 70
     8
 71
     3
 72
    16
 73
    12
 74
     0
 42
0.000000001
 43
0.00000001
 40
0.0
 40
0.0
 40
0.0
 40
0.0
 40
0.2499999999999997
 40
0.2499999999999997
 40
0.4999999999999993
 40
0.4999999999999993
 40
0.6249999999999993
 40
0.6249999999999993
 40
0.7499999999999994
 40
0.7499999999999994
 40
1.0
 40
1.0
 40
1.0
 40
1.0
 10
21.485281028763
 20
-22.70312726106343
 30
0.0
 10
21.45454009709534
 20
-22.0812494964751
 30
0.0
 10
21.42321939768028
 20
-21.35107828964162
 30
0.0
 10
21.36069917502067
 20
-19.70083271334309
 30
0.0
 10
21.32950556433114
 20
-18.78092138335113
 30
0.0
 10
21.28376262526954
 20
-17.2903373884317
 30
0.0
 10
21.2687166966311
 20
-16.77545585330555
 30
0.0
 10
21.23900137077124
 20
-15.7138544452403
 30
0.0
 10
21.22390252699498
 20
-15.16204462575366
 30
0.0
 10
21.17809790915135
 20
-13.45046130875754
 30
0.0
 10
21.14688137538981
 20
-12.23417117423378
 30
0.0
 10
21.11561807417503
 20
-10.96617483151246
 30
0.0
  0
SPLINE
  5
1BE
330
1F
100
AcDbEntity
  8
0
  6
Continuous
 62
     1
370
    15
100
AcDbSpline
210
0.0
220
0.0
230
1.0
 70
     8
 71
     3
 72
    12
 73
     8
 74
     0
 42
0.000000001
 43
0.00000001
 40
0.0
 40
0.0
 40
0.0
 40
0.0
 40
0.4999999999999982
 40
0.4999999999999982
 40
0.7499999999999991
 40
0.7499999999999991
 40
1.0
 40
1.0
 40
1.0
 40
1.0
 10
22.11509111170093
 20
-22.94937779799263
 30
0.0
 10
22.01541394768102
 20
-22.84593869602205
 30
0.0
 10
21.90252190170077
 20
-22.77633391292168
 30
0.0
 10
21.73902614762846
 20
-22.71456775971998
 30
0.0
 10
21.68432458985097
 20
-22.70107043175267
 30
0.0
 10
21.5807851928023
 20
-22.68992214195149
 30
0.0
 10
21.53150100423288
 20
-22.69187977162023
 30
0.0
 10
21.48528102876301
 20
-22.70312726106348
 30
0.0
  0
SPLINE
  5
1BF
330
1F
100
AcDbEntity
  8
0
  6
Continuous
 62
     1
370
    15
100
AcDbSpline
210
0.0
220
0.0
230
1.0
 70
     8
 71
     3
 72
    16
 73
    12
 74
     0
 42
0.000000001
 43
0.00000001
 40
0.0
 40
0.0
 40
0.0
 40
0.0
 40
0.2500000000000001
 40
0.2500000000000001
 40
0.5000000000000001
 40
0.5000000000000001
 40
0.6250000000000001
 40
0.6250000000000001
 40
0.7500000000000002
 40
0.7500000000000002
 40
1.0
 40
1.0
 40
1.0
 40
1.0
 10
22.11509111170092
 20
-22.94937779799257
 30
0.0
 10
22.0845111171746
 20
-22.35661339673689
 30
0.0
 10
22.05326791473115
 20
-21.65438938507349
 30
0.0
 10
21.99072529789531
 20
-20.05533643869073
 30
0.0
 10
21.95943180850207
 20
-19.1586562292119
 30
0.0
 10
21.91341602656479
 20
-17.6980740073202
 30
0.0
 10
21.89823098502659
 20
-17.19206369141427
 30
0.0
 10
21.86831448161895
 20
-16.147817917537
 30
0.0
 10
21.85347793781941
 20
-15.60850539323432
 30
0.0
 10
21.80795330164311
 20
-13.92730059259425
 30
0.0
 10
21.77684230221356
 20
-12.72854432066892
 30
0.0
 10
21.74559630613169
 20
-11.47454425526207
 30
0.0
  0
SPLINE
  5
1C0
330
1F
100
AcDbEntity
  8
0
  6
Continuous
 62
     1
370
    15
100
AcDbSpline
210
0.0
220
0.0
230
1.0
 70
     8
 71
     3
 72
    14
 73
    10
 74
     0
 42
0.000000001
 43
0.00000001
 40
0.0
 40
0.0
 40
0.0
 40
0.0
 40
0.0000742756307716
 40
0.0000742756307716
 40
0.0000742756307716
 40
0.0001440231026665
 40
0.0001440231026665
 40
0.0001440231026665
 40
0.0002163167380793
 40
0.0002163167380793
 40
0.0002163167380793
 40
0.0002163167380793
 10
22.27238219824362
 20
-23.05460618154488
 30
0.0
 10
22.25398514562128
 20
-23.04765210088881
 30
0.0
 10
22.23539944714114
 20
-23.03894176327573
 30
0.0
 10
22.21699509420409
 20
-23.02852669732368
 30
0.0
 10
22.19971365851294
 20
-23.01874709284181
 30
0.0
 10
22.18246951471517
 20
-23.00739382942571
 30
0.0
 10
22.16566835333353
 20
-22.99451576436972
 30
0.0
 10
22.14827703469856
 20
-22.98118534466224
 30
0.0
 10
22.13118958859175
 20
-22.96608385106958
 30
0.0
 10
22.11509111170118
 20
-22.94937779799287
 30
0.0
  0
SPLINE
  5
1C1
330
1F
100
AcDbEntity
  8
0
  6
Continuous
 62
     1
370
    15
100
AcDbSpline
210
0.0
220
0.0
230
1.0
 70
     8
 71
     3
 72
    16
 73
    12
 74
     0
 42
0.000000001
 43
0.00000001
 40
0.0
 40
0.0
 40
0.0
 40
0.0
 40
0.2499999999999999
 40
0.2499999999999999
 40
0.4999999999999998
 40
0.4999999999999998
 40
0.6249999999999998
 40
0.6249999999999998
 40
0.7499999999999997
 40
0.7499999999999997
 40
1.0
 40
1.0
 40
1.0
 40
1.0
 10
22.2723821982436
 20
-23.05460618154478
 30
0.0
 10
22.24186866743259
 20
-22.46805670161997
 30
0.0
 10
22.21067342808581
 20
-21.77174549886758
 30
0.0
 10
22.14818363865789
 20
-20.18332696832664
 30
0.0
 10
22.11689498786632
 20
-19.29136446460369
 30
0.0
 10
22.07085386159866
 20
-17.8366159851798
 30
0.0
 10
22.05565498635503
 20
-17.33234451405463
 30
0.0
 10
22.02570055403005
 20
-16.29112770330207
 30
0.0
 10
22.01091842201447
 20
-15.75403972008077
 30
0.0
 10
21.96550789381846
 20
-14.07863848861473
 30
0.0
 10
21.93445376622806
 20
-12.88304180786179
 30
0.0
 10
21.90324182051008
 20
-11.63126308575902
 30
0.0
  0
SPLINE
  5
1C2
330
1F
100
AcDbEntity
  8
0
  6
Continuous
 62
     1
370
    15
100
AcDbSpline
210
0.0
220
0.0
230
1.0
 70
     8
 71
     3
 72
     8
 73
     4
 74
     0
 42
0.000000001
 43
0.00000001
 40
0.0
 40
0.0
 40
0.0
 40
0.0
 40
1.0
 40
1.0
 40
1.0
 40
1.0
 10
24.89739391538861
 20
-23.94490940816007
 30
0.0
 10
24.02307787848407
 20
-23.68231838168251
 30
0.0
 10
23.14618267645221
 20
-23.38490251365353
 30
0.0
 10
22.27238219824362
 20
-23.05460618154489
 30
0.0
  0
SPLINE
  5
1C3
330
1F
100
AcDbEntity
  8
0
  6
Continuous
 62
     1
370
    15
100
AcDbSpline
210
0.0
220
0.0
230
1.0
 70
     8
 71
     3
 72
    18
 73
    14
 74
     0
 42
0.000000001
 43
0.00000001
 40
0.0
 40
0.0
 40
0.0
 40
0.0
 40
0.1250000000000001
 40
0.1250000000000001
 40
0.2500000000000003
 40
0.2500000000000003
 40
0.5000000000000006
 40
0.5000000000000006
 40
0.7500000000000009
 40
0.7500000000000009
 40
0.8750000000000006
 40
0.8750000000000006
 40
1.0
 40
1.0
 40
1.0
 40
1.0
 10
24.89739391538865
 20
-23.94490940816006
 30
0.0
 10
24.88248602684779
 20
-23.71335360599042
 30
0.0
 10
24.86752196681758
 20
-23.45475240954886
 30
0.0
 10
24.83705630449011
 20
-22.88166962403209
 30
0.0
 10
24.82164360713589
 20
-22.56763679028469
 30
0.0
 10
24.77509700624135
 20
-21.54645333664147
 30
0.0
 10
24.74365435595157
 20
-20.75970517703792
 30
0.0
 10
24.68124271320849
 20
-19.00567051824872
 30
0.0
 10
24.65027955240146
 20
-18.03857433856619
 30
0.0
 10
24.6051231658857
 20
-16.48679648952776
 30
0.0
 10
24.59036492702463
 20
-15.95387652397991
 30
0.0
 10
24.56014524480829
 20
-14.8449860462949
 30
0.0
 10
24.54483188626715
 20
-14.27063459831786
 30
0.0
 10
24.52939036748388
 20
-13.67893584159225
 30
0.0
  0
SPLINE
  5
1C4
330
1F
100
AcDbEntity
  8
0
  6
Continuous
 62
     1
370
    15
100
AcDbSpline
210
0.0
220
0.0
230
1.0
 70
     8
 71
     3
 72
    16
 73
    12
 74
     0
 42
0.000000001
 43
0.00000001
 40
0.0
 40
0.0
 40
0.0
 40
0.0
 40
0.2499999999999993
 40
0.2499999999999993
 40
0.4999999999999987
 40
0.4999999999999987
 40
0.6249999999999988
 40
0.6249999999999988
 40
0.7499999999999991
 40
0.7499999999999991
 40
1.0
 40
1.0
 40
1.0
 40
1.0
 10
35.20690384382448
 20
12.10601970845554
 30
0.0
 10
35.17594299693854
 20
13.33748868805075
 30
0.0
 10
35.1445436475795
 20
14.51881642983518
 30
0.0
 10
35.08215936297331
 20
16.73161527602529
 30
0.0
 10
35.05118025413189
 20
17.76289584885977
 30
0.0
 10
35.00595747034994
 20
19.1696784906539
 30
0.0
 10
34.99122097675565
 20
19.61424629085025
 30
0.0
 10
34.96111005119287
 20
20.46462879410484
 30
0.0
 10
34.9458448443326
 20
20.86918219547325
 30
0.0
 10
34.89964374804929
 20
22.01321218062442
 30
0.0
 10
34.8683009614671
 20
22.68253242187483
 30
0.0
 10
34.83705801287901
 20
23.24328496633169
 30
0.0
  0
SPLINE
  5
1C5
330
1F
100
AcDbEntity
  8
0
  6
Continuous
 62
     1
370
    15
100
AcDbSpline
210
0.0
220
0.0
230
1.0
 70
     8
 71
     3
 72
    16
 73
    12
 74
     0
 42
0.000000001
 43
0.00000001
 40
0.0
 40
0.0
 40
0.0
 40
0.0
 40
0.2499999999999999
 40
0.2499999999999999
 40
0.4999999999999997
 40
0.4999999999999997
 40
0.6249999999999998
 40
0.6249999999999998
 40
0.7499999999999998
 40
0.7499999999999998
 40
1.0
 40
1.0
 40
1.0
 40
1.0
 10
34.5769893466954
 20
12.60100138224078
 30
0.0
 10
34.54592483258832
 20
13.81847955434657
 30
0.0
 10
34.51450810597292
 20
14.98219097324245
 30
0.0
 10
34.45226402782441
 20
17.15391101052262
 30
0.0
 10
34.42144241255608
 20
18.16174232141222
 30
0.0
 10
34.37657132754197
 20
19.53059138525328
 30
0.0
 10
34.36175234809855
 20
19.96425184144656
 30
0.0
 10
34.3314290707679
 20
20.79199546358463
 30
0.0
 10
34.31607724210052
 20
21.18450287263973
 30
0.0
 10
34.269679303234
 20
22.2905300662542
 30
0.0
 10
34.23829008207169
 20
22.93201146815728
 30
0.0
 10
34.20708864137575
 20
23.46353140488261
 30
0.0
  0
SPLINE
  5
1C6
330
1F
100
AcDbEntity
  8
0
  6
Continuous
 62
     1
370
    15
100
AcDbSpline
210
0.0
220
0.0
230
1.0
 70
     8
 71
     3
 72
    16
 73
    12
 74
     0
 42
0.000000001
 43
0.00000001
 40
0.0
 40
0.0
 40
0.0
 40
0.0
 40
0.2499999999999998
 40
0.2499999999999998
 40
0.4999999999999996
 40
0.4999999999999996
 40
0.6249999999999997
 40
0.6249999999999997
 40
0.7499999999999998
 40
0.7499999999999998
 40
1.0
 40
1.0
 40
1.0
 40
1.0
 10
34.41935413176082
 20
12.75650558606026
 30
0.0
 10
34.38829167164766
 20
13.97171976281951
 30
0.0
 10
34.35690029015475
 20
15.13220363549881
 30
0.0
 10
34.29475041091734
 20
17.29594157893953
 30
0.0
 10
34.26399759846814
 20
18.29902220564507
 30
0.0
 10
34.21925576672177
 20
19.66002854364548
 30
0.0
 10
34.20439712804575
 20
20.09179400229092
 30
0.0
 10
34.17404954875158
 20
20.91488765469181
 30
0.0
 10
34.15869076987196
 20
21.30488470312952
 30
0.0
 10
34.11228800988585
 20
22.40290774802799
 30
0.0
 10
34.08091713287074
 20
23.03841911006784
 30
0.0
 10
34.04975453260451
 20
23.5636126740782
 30
0.0
  0
SPLINE
  5
1C7
330
1F
100
AcDbEntity
  8
0
  6
Continuous
 62
     1
370
    15
100
AcDbSpline
210
0.0
220
0.0
230
1.0
 70
     8
 71
     3
 72
    16
 73
    12
 74
     0
 42
0.000000001
 43
0.00000001
 40
0.0
 40
0.0
 40
0.0
 40
0.0
 40
0.2499999999999994
 40
0.2499999999999994
 40
0.3749999999999994
 40
0.3749999999999994
 40
0.4999999999999993
 40
0.4999999999999993
 40
0.7499999999999997
 40
0.7499999999999997
 40
1.0
 40
1.0
 40
1.0
 40
1.0
 10
31.79304579059567
 20
14.74225366068099
 30
0.0
 10
31.76180894044312
 20
15.88896837676714
 30
0.0
 10
31.73060795675379
 20
16.96674237298778
 30
0.0
 10
31.68480903980663
 20
18.44948773389613
 30
0.0
 10
31.66970918456375
 20
18.9215267783266
 30
0.0
 10
31.63998610560785
 20
19.81758596125515
 30
0.0
 10
31.62499840232332
 20
20.24529635386232
 30
0.0
 10
31.57933422788967
 20
21.46453229845575
 30
0.0
 10
31.54818337571248
 20
22.18938591837682
 30
0.0
 10
31.48572383372665
 20
23.42852564517158
 30
0.0
 10
31.45442102701536
 20
23.94268581413442
 30
0.0
 10
31.42368452554171
 20
24.3426042995093
 30
0.0
  0
SPLINE
  5
1C8
330
1F
100
AcDbEntity
  8
0
  6
Continuous
 62
     1
370
    15
100
AcDbSpline
210
0.0
220
0.0
230
1.0
 70
     8
 71
     3
 72
    14
 73
    10
 74
     0
 42
0.000000001
 43
0.00000001
 40
0.0000000000000002
 40
0.0000000000000002
 40
0.0000000000000002
 40
0.0000000000000002
 40
0.0000698053372034
 40
0.0000698053372034
 40
0.0000698053372034
 40
0.0001463257534072
 40
0.0001463257534072
 40
0.0001463257534072
 40
0.0002250606323535
 40
0.0002250606323535
 40
0.0002250606323535
 40
0.0002250606323535
 10
25.05493325477058
 20
-23.94370440065031
 30
0.0
 10
25.04045869464591
 20
-23.94946894107737
 30
0.0
 10
25.02508372273464
 20
-23.95334962239468
 30
0.0
 10
25.00921569923201
 20
-23.95548029863437
 30
0.0
 10
24.9918247869613
 20
-23.95781546051233
 30
0.0
 10
24.97371011360814
 20
-23.95806776243552
 30
0.0
 10
24.95528282665061
 20
-23.9563618132635
 30
0.0
 10
24.93632344730074
 20
-23.95460660439426
 30
0.0
 10
24.9168936751233
 20
-23.95076594253503
 30
0.0
 10
24.89739391539012
 20
-23.94490940816052
 30
0.0
  0
SPLINE
  5
1C9
330
1F
100
AcDbEntity
  8
0
  6
Continuous
 62
     1
370
    15
100
AcDbSpline
210
0.0
220
0.0
230
1.0
 70
     8
 71
     3
 72
    18
 73
    14
 74
     0
 42
0.000000001
 43
0.00000001
 40
0.0
 40
0.0
 40
0.0
 40
0.0
 40
0.1250000000000001
 40
0.1250000000000001
 40
0.2500000000000002
 40
0.2500000000000002
 40
0.5000000000000001
 40
0.5000000000000001
 40
0.75
 40
0.75
 40
0.875
 40
0.875
 40
1.0
 40
1.0
 40
1.0
 40
1.0
 10
25.05493325477057
 20
-23.94370440065022
 30
0.0
 10
25.03997833862328
 20
-23.71608325251027
 30
0.0
 10
25.0250708638886
 20
-23.46191369403015
 30
0.0
 10
24.99462847984351
 20
-22.89723806875255
 30
0.0
 10
24.97922184156014
 20
-22.58735842722659
 30
0.0
 10
24.93267628636278
 20
-21.5783626074401
 30
0.0
 10
24.90121129333716
 20
-20.79937126498594
 30
0.0
 10
24.83871152584959
 20
-19.05956398113197
 30
0.0
 10
24.80768262989598
 20
-18.09893573032006
 30
0.0
 10
24.76240137484017
 20
-16.55563823319235
 30
0.0
 10
24.7476363012513
 20
-16.02578682683115
 30
0.0
 10
24.71744215428916
 20
-14.9233770419122
 30
0.0
 10
24.70213648605811
 20
-14.35212099982524
 30
0.0
 10
24.6866974220884
 20
-13.76334468735255
 30
0.0
  0
SPLINE
  5
1CA
330
1F
100
AcDbEntity
  8
0
  6
Continuous
 62
     1
370
    15
100
AcDbSpline
210
0.0
220
0.0
230
1.0
 70
     8
 71
     3
 72
    12
 73
     8
 74
     0
 42
0.000000001
 43
0.00000001
 40
0.0
 40
0.0
 40
0.0
 40
0.0
 40
0.500000000000001
 40
0.500000000000001
 40
0.7500000000000004
 40
0.7500000000000004
 40
1.0
 40
1.0
 40
1.0
 40
1.0
 10
25.68454775595183
 20
-24.12345515033723
 30
0.0
 10
25.58495544120357
 20
-24.02588181935914
 30
0.0
 10
25.47213987816766
 20
-23.96614171563724
 30
0.0
 10
25.30868549878955
 20
-23.92167332527337
 30
0.0
 10
25.2539864698493
 20
-23.91451153909565
 30
0.0
 10
25.15044455781367
 20
-23.91650377322883
 30
0.0
 10
25.10115574197529
 20
-23.92529614548837
 30
0.0
 10
25.05493325477059
 20
-23.94370440065026
 30
0.0
  0
SPLINE
  5
1CB
330
1F
100
AcDbEntity
  8
0
  6
Continuous
 62
     1
370
    15
100
AcDbSpline
210
0.0
220
0.0
230
1.0
 70
     8
 71
     3
 72
    18
 73
    14
 74
     0
 42
0.000000001
 43
0.00000001
 40
0.0
 40
0.0
 40
0.0
 40
0.0
 40
0.1250000000000002
 40
0.1250000000000002
 40
0.2500000000000004
 40
0.2500000000000004
 40
0.5000000000000004
 40
0.5000000000000004
 40
0.7500000000000004
 40
0.7500000000000004
 40
0.8750000000000003
 40
0.8750000000000003
 40
1.0
 40
1.0
 40
1.0
 40
1.0
 10
25.68454775595183
 20
-24.12345515033714
 30
0.0
 10
25.66946805287095
 20
-23.90990075335446
 30
0.0
 10
25.65469542439731
 20
-23.67075826230996
 30
0.0
 10
25.62445572782961
 20
-23.13587275323429
 30
0.0
 10
25.60913037258299
 20
-22.84067779767859
 30
0.0
 10
25.56276434633007
 20
-21.87462785741867
 30
0.0
 10
25.53133250009218
 20
-21.12277092764372
 30
0.0
 10
25.4687213298878
 20
-19.4319670756475
 30
0.0
 10
25.43754795428596
 20
-18.49319505864519
 30
0.0
 10
25.39193120621587
 20
-16.97757031718838
 30
0.0
 10
25.37706337310723
 20
-16.45634036549752
 30
0.0
 10
25.34709512057431
 20
-15.37551528515107
 30
0.0
 10
25.33188304127123
 20
-14.81443820119169
 30
0.0
 10
25.31651663413189
 20
-14.23510221936615
 30
0.0
  0
SPLINE
  5
1CC
330
1F
100
AcDbEntity
  8
0
  6
Continuous
 62
     1
370
    15
100
AcDbSpline
210
0.0
220
0.0
230
1.0
 70
     8
 71
     3
 72
    14
 73
    10
 74
     0
 42
0.000000001
 43
0.00000001
 40
0.0000000000000001
 40
0.0000000000000001
 40
0.0000000000000001
 40
0.0000000000000001
 40
0.0000743388464854
 40
0.0000743388464854
 40
0.0000743388464854
 40
0.0001440941973574
 40
0.0001440941973574
 40
0.0001440941973574
 40
0.00021639508642
 40
0.00021639508642
 40
0.00021639508642
 40
0.00021639508642
 10
25.84181446254156
 20
-24.21531844162207
 30
0.0
 10
25.82341484340743
 20
-24.21030861525186
 30
0.0
 10
25.80482541735604
 20
-24.20344289947194
 30
0.0
 10
25.78641622961589
 20
-24.19472453261942
 30
0.0
 10
25.76914294693963
 20
-24.18654411655518
 30
0.0
 10
25.75190588701928
 20
-24.17667329887247
 30
0.0
 10
25.73511046011076
 20
-24.16510763757643
 30
0.0
 10
25.7177253210802
 20
-24.15313588891489
 30
0.0
 10
25.70064268869727
 20
-24.13922379878974
 30
0.0
 10
25.68454775595206
 20
-24.12345515033745
 30
0.0
  0
SPLINE
  5
1CD
330
1F
100
AcDbEntity
  8
0
  6
Continuous
 62
     1
370
    15
100
AcDbSpline
210
0.0
220
0.0
230
1.0
 70
     8
 71
     3
 72
    18
 73
    14
 74
     0
 42
0.000000001
 43
0.00000001
 40
0.0
 40
0.0
 40
0.0
 40
0.0
 40
0.1249999999999999
 40
0.1249999999999999
 40
0.2499999999999998
 40
0.2499999999999998
 40
0.4999999999999999
 40
0.4999999999999999
 40
0.7499999999999999
 40
0.7499999999999999
 40
0.875
 40
0.875
 40
1.0
 40
1.0
 40
1.0
 40
1.0
 10
25.84181446254157
 20
-24.2153184416222
 30
0.0
 10
25.82671935553753
 20
-24.00488384455058
 30
0.0
 10
25.81196089464875
 20
-23.76888606513175
 30
0.0
 10
25.78179865895497
 20
-23.24054041241116
 30
0.0
 10
25.76650762951425
 20
-22.94855978093979
 30
0.0
 10
25.72022971291777
 20
-21.99186870676167
 30
0.0
 10
25.68883659534884
 20
-21.2458686257525
 30
0.0
 10
25.62625794815053
 20
-19.56542920170437
 30
0.0
 10
25.59507835449065
 20
-18.63116104633134
 30
0.0
 10
25.54941944631329
 20
-17.12095632588396
 30
0.0
 10
25.53450465964119
 20
-16.60096946202536
 30
0.0
 10
25.50462377749566
 20
-15.52450394657161
 30
0.0
 10
25.48945083923629
 20
-14.96544502537268
 30
0.0
 10
25.47411840410649
 20
-14.38793102759262
 30
0.0
  0
SPLINE
  5
1CE
330
1F
100
AcDbEntity
  8
0
  6
Continuous
 62
     1
370
    15
100
AcDbSpline
210
0.0
220
0.0
230
1.0
 70
     8
 71
     3
 72
     8
 73
     4
 74
     0
 42
0.000000001
 43
0.00000001
 40
0.0
 40
0.0
 40
0.0
 40
0.0
 40
1.0
 40
1.0
 40
1.0
 40
1.0
 10
28.46738722079573
 20
-24.82301394833735
 30
0.0
 10
27.59102709840298
 20
-24.65594188733135
 30
0.0
 10
26.71449667015081
 20
-24.45293131309656
 30
0.0
 10
25.84181446254163
 20
-24.21531844162211
 30
0.0
  0
SPLINE
  5
1CF
330
1F
100
AcDbEntity
  8
0
  6
Continuous
 62
     1
370
    15
100
AcDbSpline
210
0.0
220
0.0
230
1.0
 70
     8
 71
     3
 72
    16
 73
    12
 74
     0
 42
0.000000001
 43
0.00000001
 40
0.0
 40
0.0
 40
0.0
 40
0.0
 40
0.1250000000000002
 40
0.1250000000000002
 40
0.2500000000000003
 40
0.2500000000000003
 40
0.5000000000000002
 40
0.5000000000000002
 40
0.7500000000000001
 40
0.7500000000000001
 40
1.0
 40
1.0
 40
1.0
 40
1.0
 10
28.46738722079561
 20
-24.82301394833738
 30
0.0
 10
28.45192923377046
 20
-24.67414690025768
 30
0.0
 10
28.43659362800398
 20
-24.49715025982194
 30
0.0
 10
28.40631864786653
 20
-24.08986288611305
 30
0.0
 10
28.39154042338035
 20
-23.86056462957818
 30
0.0
 10
28.34648483189117
 20
-23.08956368237222
 30
0.0
 10
28.31556788370337
 20
-22.4635908561875
 30
0.0
 10
28.25320061600984
 20
-21.00542858776596
 30
0.0
 10
28.22175610061941
 20
-20.17334578573704
 30
0.0
 10
28.15964243391437
 20
-18.33827656914013
 30
0.0
 10
28.12904472690602
 20
-17.33627763426101
 30
0.0
 10
28.09930343619519
 20
-16.27127783470811
 30
0.0
  0
SPLINE
  5
1D0
330
1F
100
AcDbEntity
  8
0
  6
Continuous
 62
     1
370
    15
100
AcDbSpline
210
0.0
220
0.0
230
1.0
 70
     8
 71
     3
 72
    14
 73
    10
 74
     0
 42
0.000000001
 43
0.00000001
 40
0.0
 40
0.0
 40
0.0
 40
0.0
 40
0.2500000000000001
 40
0.2500000000000001
 40
0.5000000000000002
 40
0.5000000000000002
 40
0.7500000000000001
 40
0.7500000000000001
 40
1.0
 40
1.0
 40
1.0
 40
1.0
 10
31.6357113351583
 20
14.82062611211758
 30
0.0
 10
31.60445000185847
 20
15.96154890415173
 30
0.0
 10
31.57324554574135
 20
17.03279625553079
 30
0.0
 10
31.51221548342821
 20
18.99571250922132
 30
0.0
 10
31.48287288122091
 20
19.88400458178287
 30
0.0
 10
31.42184091050024
 20
21.4958594880982
 30
0.0
 10
31.39063592242475
 20
22.21314523051953
 30
0.0
 10
31.32811310773666
 20
23.43629669268109
 30
0.0
 10
31.29680119555745
 20
23.94204021394243
 30
0.0
 10
31.26607854598161
 20
24.33344008206373
 30
0.0
  0
SPLINE
  5
1D1
330
1F
100
AcDbEntity
  8
0
  6
Continuous
 62
     1
370
    15
100
AcDbSpline
210
0.0
220
0.0
230
1.0
 70
     8
 71
     3
 72
    16
 73
    12
 74
     0
 42
0.000000001
 43
0.00000001
 40
0.0
 40
0.0
 40
0.0
 40
0.0
 40
0.2500000000000001
 40
0.2500000000000001
 40
0.3749999999999998
 40
0.3749999999999998
 40
0.4999999999999997
 40
0.4999999999999997
 40
0.7499999999999998
 40
0.7499999999999998
 40
1.0
 40
1.0
 40
1.0
 40
1.0
 10
31.00575520563209
 20
15.27605739608393
 30
0.0
 10
30.97451253302839
 20
16.39828607992362
 30
0.0
 10
30.94341480503471
 20
17.44768080291984
 30
0.0
 10
30.8979236594435
 20
18.88382334615699
 30
0.0
 10
30.88310749209951
 20
19.33820084249377
 30
0.0
 10
30.85316284117097
 20
20.20584805939056
 30
0.0
 10
30.83796584765169
 20
20.6195948066828
 30
0.0
 10
30.79192116787042
 20
21.79265080356569
 30
0.0
 10
30.76061777593299
 20
22.48326344032682
 30
0.0
 10
30.69807540139778
 20
23.64954820608161
 30
0.0
 10
30.66684234334744
 20
24.12511412851717
 30
0.0
 10
30.63628182977061
 20
24.48585281832139
 30
0.0
  0
SPLINE
  5
1D2
330
1F
100
AcDbEntity
  8
0
  6
Continuous
 62
     1
370
    15
100
AcDbSpline
210
0.0
220
0.0
230
1.0
 70
     8
 71
     3
 72
    16
 73
    12
 74
     0
 42
0.000000001
 43
0.00000001
 40
0.0
 40
0.0
 40
0.0
 40
0.0
 40
0.2499999999999992
 40
0.2499999999999992
 40
0.3749999999999993
 40
0.3749999999999993
 40
0.4999999999999993
 40
0.4999999999999993
 40
0.7499999999999997
 40
0.7499999999999997
 40
1.0
 40
1.0
 40
1.0
 40
1.0
 10
30.8481117215392
 20
15.42669862482641
 30
0.0
 10
30.81690330188309
 20
16.54532039651653
 30
0.0
 10
30.78586261695649
 20
17.59026407549709
 30
0.0
 10
30.74048577039095
 20
19.01886592045944
 30
0.0
 10
30.72571800529549
 20
19.47056097358768
 30
0.0
 10
30.69573555318751
 20
20.33387974574374
 30
0.0
 10
30.68052479615277
 20
20.74525842223501
 30
0.0
 10
30.63445499691403
 20
21.91067251061964
 30
0.0
 10
30.60315661262873
 20
22.59546923353158
 30
0.0
 10
30.54066741157724
 20
23.74921030743456
 30
0.0
 10
30.50948249324539
 20
24.21805264928041
 30
0.0
 10
30.47898860998203
 20
24.57192468348585
 30
0.0
  0
SPLINE
  5
1D3
330
1F
100
AcDbEntity
  8
0
  6
Continuous
 62
     1
370
    15
100
AcDbSpline
210
0.0
220
0.0
230
1.0
 70
     8
 71
     3
 72
     8
 73
     4
 74
     0
 42
0.000000001
 43
0.00000001
 40
0.0
 40
0.0
 40
0.0
 40
0.0
 40
1.0
 40
1.0
 40
1.0
 40
1.0
 10
15.13026986947642
 20
-19.64870825909937
 30
0.0
 10
15.08621314367678
 20
-19.62359425931817
 30
0.0
 10
15.04176035372813
 20
-19.59072068705203
 30
0.0
 10
15.0
 20
-19.55001208309393
 30
0.0
  0
SPLINE
  5
1D4
330
1F
100
AcDbEntity
  8
0
  6
Continuous
 62
     4
370
    15
100
AcDbSpline
210
0.0
220
0.0
230
1.0
 70
    24
 71
     3
 72
     8
 73
     4
 74
     0
 42
0.000000001
 43
0.00000001
 40
0.0
 40
0.0
 40
0.0
 40
0.0
 40
1.0
 40
1.0
 40
1.0
 40
1.0
 10
14.99999999999999
 20
-15.35088833387762
 30
0.0
 10
14.99999999999999
 20
-16.90894330363185
 30
0.0
 10
14.99999999999999
 20
-18.32402789641763
 30
0.0
 10
14.99999999999999
 20
-19.55001208309395
 30
0.0
  0
SPLINE
  5
1D5
330
1F
100
AcDbEntity
  8
0
  6
Continuous
 62
     1
370
    15
100
AcDbSpline
210
0.0
220
0.0
230
1.0
 70
     8
 71
     3
 72
    18
 73
    14
 74
     0
 42
0.000000001
 43
0.00000001
 40
0.0
 40
0.0
 40
0.0
 40
0.0
 40
0.1250000000000001
 40
0.1250000000000001
 40
0.2500000000000002
 40
0.2500000000000002
 40
0.5000000000000001
 40
0.5000000000000001
 40
0.75
 40
0.75
 40
0.875
 40
0.875
 40
1.0
 40
1.0
 40
1.0
 40
1.0
 10
28.22193141345424
 20
17.23624743888971
 30
0.0
 10
28.20649751000281
 20
17.75197191411734
 30
0.0
 10
28.19119422076091
 20
18.24645203641724
 30
0.0
 10
28.16099924552783
 20
19.18880153238833
 30
0.0
 10
28.14624525200496
 20
19.63547313142562
 30
0.0
 10
28.10104757931288
 20
20.91698169162194
 30
0.0
 10
28.07006592330281
 20
21.68815873170589
 30
0.0
 10
28.00763779398745
 20
23.02604152462693
 30
0.0
 10
27.97619716274715
 20
23.59259408775591
 30
0.0
 10
27.92966876939284
 20
24.27230753187753
 30
0.0
 10
27.91426464846294
 20
24.47066775017811
 30
0.0
 10
27.8838208617705
 20
24.80997642886053
 30
0.0
 10
27.86888929145344
 20
24.95066862616235
 30
0.0
 10
27.85396614089086
 20
25.06334333236765
 30
0.0
  0
SPLINE
  5
1D6
330
1F
100
AcDbEntity
  8
0
  6
Continuous
 62
     1
370
    15
100
AcDbSpline
210
0.0
220
0.0
230
1.0
 70
     8
 71
     3
 72
    14
 73
    10
 74
     0
 42
0.000000001
 43
0.00000001
 40
0.0
 40
0.0
 40
0.0
 40
0.0
 40
0.0000698080571177
 40
0.0000698080571177
 40
0.0000698080571177
 40
0.0001463338622749
 40
0.0001463338622749
 40
0.0001463338622749
 40
0.0002250740140186
 40
0.0002250740140186
 40
0.0002250740140186
 40
0.0002250740140186
 10
28.62500261738824
 20
-24.80189074749793
 30
0.0
 10
28.61052056331732
 20
-24.80979219013814
 30
0.0
 10
28.59513786707362
 20
-24.81582110172043
 30
0.0
 10
28.57926216053778
 20
-24.82006742265085
 30
0.0
 10
28.56186227942747
 20
-24.82472141894252
 30
0.0
 10
28.54373858453151
 20
-24.8272708953648
 30
0.0
 10
28.5253024849813
 20
-24.82779480280004
 30
0.0
 10
28.50633409623729
 20
-24.82833383655121
 30
0.0
 10
28.4868954914127
 20
-24.82673306664876
 30
0.0
 10
28.46738722079709
 20
-24.82301394833764
 30
0.0
  0
SPLINE
  5
1D7
330
1F
100
AcDbEntity
  8
0
  6
Continuous
 62
     1
370
    15
100
AcDbSpline
210
0.0
220
0.0
230
1.0
 70
     8
 71
     3
 72
    16
 73
    12
 74
     0
 42
0.000000001
 43
0.00000001
 40
0.0
 40
0.0
 40
0.0
 40
0.0
 40
0.125
 40
0.125
 40
0.25
 40
0.25
 40
0.5
 40
0.5
 40
0.75
 40
0.75
 40
1.0
 40
1.0
 40
1.0
 40
1.0
 10
28.62500261738823
 20
-24.80189074749795
 30
0.0
 10
28.60951667100481
 20
-24.65718941225441
 30
0.0
 10
28.59414773788664
 20
-24.48429251331839
 30
0.0
 10
28.5637964438763
 20
-24.08499892006892
 30
0.0
 10
28.54897332606673
 20
-23.85954359727372
 30
0.0
 10
28.50397673128294
 20
-23.10111521690946
 30
0.0
 10
28.4730780957608
 20
-22.48345813423487
 30
0.0
 10
28.41070264381701
 20
-21.04115827481935
 30
0.0
 10
28.37923162832718
 20
-20.21661810517484
 30
0.0
 10
28.3170234343054
 20
-18.39533869666804
 30
0.0
 10
28.28629194796384
 20
-17.39880682324806
 30
0.0
 10
28.25653383262843
 20
-16.34004913475766
 30
0.0
  0
SPLINE
  5
1D8
330
1F
100
AcDbEntity
  8
0
  6
Continuous
 62
     1
370
    15
100
AcDbSpline
210
0.0
220
0.0
230
1.0
 70
     8
 71
     3
 72
    12
 73
     8
 74
     0
 42
0.000000001
 43
0.00000001
 40
0.0
 40
0.0
 40
0.0
 40
0.0
 40
0.5000000000000032
 40
0.5000000000000032
 40
0.7500000000000016
 40
0.7500000000000016
 40
1.0
 40
1.0
 40
1.0
 40
1.0
 10
29.25487889313797
 20
-24.91234303971067
 30
0.0
 10
29.15524016734964
 20
-24.82216512087902
 30
0.0
 10
29.04236674134043
 20
-24.77327947032132
 30
0.0
 10
28.87884190773557
 20
-24.7468410466829
 30
0.0
 10
28.82412172221377
 20
-24.74613127628432
 30
0.0
 10
28.72054405458145
 20
-24.76120536177949
 30
0.0
 10
28.67123966167823
 20
-24.77666370777543
 30
0.0
 10
28.62500261738825
 20
-24.8018907474979
 30
0.0
  0
SPLINE
  5
1D9
330
1F
100
AcDbEntity
  8
0
  6
Continuous
 62
     1
370
    15
100
AcDbSpline
210
0.0
220
0.0
230
1.0
 70
     8
 71
     3
 72
    14
 73
    10
 74
     0
 42
0.000000001
 43
0.00000001
 40
0.0
 40
0.0
 40
0.0
 40
0.0
 40
0.2499999999999999
 40
0.2499999999999999
 40
0.5
 40
0.5
 40
0.7500000000000001
 40
0.7500000000000001
 40
1.0
 40
1.0
 40
1.0
 40
1.0
 10
29.25487889313796
 20
-24.91234303971069
 30
0.0
 10
29.22380539659702
 20
-24.65344001434565
 30
0.0
 10
29.1931554055006
 20
-24.28032962139761
 30
0.0
 10
29.13368486137693
 20
-23.32951125628321
 30
0.0
 10
29.10297380335171
 20
-22.74172052455754
 30
0.0
 10
29.04079913871962
 20
-21.35591731710495
 30
0.0
 10
29.00934120732215
 20
-20.55799026540332
 30
0.0
 10
28.94698295376897
 20
-18.78446920870201
 30
0.0
 10
28.91608842599134
 20
-17.80907099817625
 30
0.0
 10
28.88609013383502
 20
-16.76799981476216
 30
0.0
  0
SPLINE
  5
1DA
330
1F
100
AcDbEntity
  8
0
  6
Continuous
 62
     1
370
    15
100
AcDbSpline
210
0.0
220
0.0
230
1.0
 70
     8
 71
     3
 72
    14
 73
    10
 74
     0
 42
0.000000001
 43
0.00000001
 40
0.0000000000000001
 40
0.0000000000000001
 40
0.0000000000000001
 40
0.0000000000000001
 40
0.0000742751080888
 40
0.0000742751080888
 40
0.0000742751080888
 40
0.0001440193120836
 40
0.0001440193120836
 40
0.0001440193120836
 40
0.0002163109903448
 40
0.0002163109903448
 40
0.0002163109903448
 40
0.0002163109903448
 10
29.41220106479292
 20
-24.98926629512397
 30
0.0
 10
29.3938019709962
 20
-24.98629909219771
 30
0.0
 10
29.37521345695102
 20
-24.98140817191099
 30
0.0
 10
29.35680555416761
 20
-24.97454932265256
 30
0.0
 10
29.33952148937947
 20
-24.96810921938008
 30
0.0
 10
29.32227401774319
 20
-24.95988704090752
 30
0.0
 10
29.30546916936654
 20
-24.94982600794592
 30
0.0
 10
29.2880737225072
 20
-24.93941138471868
 30
0.0
 10
29.2709816431431
 20
-24.9269168158348
 30
0.0
 10
29.2548788931382
 20
-24.91234303971094
 30
0.0
  0
SPLINE
  5
1DB
330
1F
100
AcDbEntity
  8
0
  6
Continuous
 62
     1
370
    15
100
AcDbSpline
210
0.0
220
0.0
230
1.0
 70
     8
 71
     3
 72
    14
 73
    10
 74
     0
 42
0.000000001
 43
0.00000001
 40
0.0
 40
0.0
 40
0.0
 40
0.0
 40
0.25
 40
0.25
 40
0.5
 40
0.5
 40
0.75
 40
0.75
 40
1.0
 40
1.0
 40
1.0
 40
1.0
 10
29.41220106479293
 20
-24.98926629512401
 30
0.0
 10
29.38113229281252
 20
-24.73733285760245
 30
0.0
 10
29.3504304186437
 20
-24.37071340021259
 30
0.0
 10
29.29095873101129
 20
-23.43249802959769
 30
0.0
 10
29.26041123612123
 20
-22.85183370537113
 30
0.0
 10
29.19834464600363
 20
-21.47851454597017
 30
0.0
 10
29.16691973416894
 20
-20.68639887055708
 30
0.0
 10
29.10458139711193
 20
-18.92306060863623
 30
0.0
 10
29.07367376407592
 20
-17.95203030950046
 30
0.0
 10
29.04364038863321
 20
-16.91440415617324
 30
0.0
  0
SPLINE
  5
1DC
330
1F
100
AcDbEntity
  8
0
  6
Continuous
 62
     1
370
    15
100
AcDbSpline
210
0.0
220
0.0
230
1.0
 70
     8
 71
     3
 72
     8
 73
     4
 74
     0
 42
0.000000001
 43
0.00000001
 40
0.0
 40
0.0
 40
0.0
 40
0.0
 40
1.0
 40
1.0
 40
1.0
 40
1.0
 10
32.03854532582299
 20
-25.30408993904046
 30
0.0
 10
31.16128025607854
 20
-25.23556992525144
 30
0.0
 10
30.28835010563392
 20
-25.1305619494939
 30
0.0
 10
29.41220106479303
 20
-24.98926629512396
 30
0.0
  0
SPLINE
  5
1DD
330
1F
100
AcDbEntity
  8
0
  6
Continuous
 62
     1
370
    15
100
AcDbSpline
210
0.0
220
0.0
230
1.0
 70
     8
 71
     3
 72
    16
 73
    12
 74
     0
 42
0.000000001
 43
0.00000001
 40
0.0
 40
0.0
 40
0.0
 40
0.0
 40
0.25
 40
0.25
 40
0.375
 40
0.375
 40
0.5
 40
0.5
 40
0.75
 40
0.75
 40
1.0
 40
1.0
 40
1.0
 40
1.0
 10
32.03854532582304
 20
-25.30408993904046
 30
0.0
 10
32.00730899653162
 20
-25.18183876873872
 30
0.0
 10
31.97607426981443
 20
-24.94215824508639
 30
0.0
 10
31.93017675809701
 20
-24.41736561338371
 30
0.0
 10
31.91503611372477
 20
-24.21503745403077
 30
0.0
 10
31.8852169581453
 20
-23.75901498685812
 30
0.0
 10
31.87034121469013
 20
-23.50448282165209
 30
0.0
 10
31.8247931629732
 20
-22.65673924420244
 30
0.0
 10
31.79368846449837
 20
-21.9812315901273
 30
0.0
 10
31.73125257049287
 20
-20.43147804290606
 30
0.0
 10
31.69992724341308
 20
-19.55736571375332
 30
0.0
 10
31.66913540706866
 20
-18.60320345022412
 30
0.0
  0
SPLINE
  5
1DE
330
1F
100
AcDbEntity
  8
0
  6
Continuous
 62
     1
370
    15
100
AcDbSpline
210
0.0
220
0.0
230
1.0
 70
     8
 71
     3
 72
    18
 73
    14
 74
     0
 42
0.000000001
 43
0.00000001
 40
0.0
 40
0.0
 40
0.0
 40
0.0
 40
0.1250000000000001
 40
0.1250000000000001
 40
0.2500000000000002
 40
0.2500000000000002
 40
0.5000000000000001
 40
0.5000000000000001
 40
0.75
 40
0.75
 40
0.875
 40
0.875
 40
1.0
 40
1.0
 40
1.0
 40
1.0
 10
28.06462706189022
 20
17.29854567794344
 30
0.0
 10
28.04919604743925
 20
17.81093895047091
 30
0.0
 10
28.03390087442908
 20
18.30194630852759
 30
0.0
 10
28.00373225593481
 20
19.23713180623588
 30
0.0
 10
27.98896583407079
 20
19.68044198182501
 30
0.0
 10
27.94364454813905
 20
20.95224822445953
 30
0.0
 10
27.91259807187426
 20
21.71624480480081
 30
0.0
 10
27.8500836931381
 20
23.03877381466728
 30
0.0
 10
27.81862167850774
 20
23.59715632574538
 30
0.0
 10
27.77209570696134
 20
24.26433174370222
 30
0.0
 10
27.75669809329636
 20
24.45846654232805
 30
0.0
 10
27.72627844550381
 20
24.7893156878949
 30
0.0
 10
27.71139728923589
 20
24.92572043648665
 30
0.0
 10
27.69642756648178
 20
25.03433718003227
 30
0.0
  0
SPLINE
  5
1DF
330
1F
100
AcDbEntity
  8
0
  6
Continuous
 62
     1
370
    15
100
AcDbSpline
210
0.0
220
0.0
230
1.0
 70
     8
 71
     3
 72
    18
 73
    14
 74
     0
 42
0.000000001
 43
0.00000001
 40
0.0
 40
0.0
 40
0.0
 40
0.0
 40
0.125
 40
0.125
 40
0.2500000000000001
 40
0.2500000000000001
 40
0.5000000000000001
 40
0.5000000000000001
 40
0.7500000000000002
 40
0.7500000000000002
 40
0.8750000000000001
 40
0.8750000000000001
 40
1.0
 40
1.0
 40
1.0
 40
1.0
 10
27.43482503184111
 20
17.70743946339406
 30
0.0
 10
27.41946838776847
 20
18.20831888075353
 30
0.0
 10
27.40426845165884
 20
18.68720284950209
 30
0.0
 10
27.37432884210452
 20
19.5972051954924
 30
0.0
 10
27.35943678395304
 20
20.03001503601209
 30
0.0
 10
27.31378541871486
 20
21.26786265370123
 30
0.0
 10
27.2825982722826
 20
22.00622481877223
 30
0.0
 10
27.21998002681369
 20
23.27337780602604
 30
0.0
 10
27.18855488091465
 20
23.80203362102155
 30
0.0
 10
27.14221358422332
 20
24.42341717041834
 30
0.0
 10
27.12689889646198
 20
24.60209091078146
 30
0.0
 10
27.09668502565104
 20
24.90194879168228
 30
0.0
 10
27.08191534744462
 20
25.02300889398417
 30
0.0
 10
27.06682270456349
 20
25.11657971536314
 30
0.0
  0
SPLINE
  5
1E0
330
1F
100
AcDbEntity
  8
0
  6
Continuous
 62
     1
370
    15
100
AcDbSpline
210
0.0
220
0.0
230
1.0
 70
     8
 71
     3
 72
    18
 73
    14
 74
     0
 42
0.000000001
 43
0.00000001
 40
0.0
 40
0.0
 40
0.0
 40
0.0
 40
0.1250000000000002
 40
0.1250000000000002
 40
0.2500000000000004
 40
0.2500000000000004
 40
0.5000000000000002
 40
0.5000000000000002
 40
0.75
 40
0.75
 40
0.875
 40
0.875
 40
1.0
 40
1.0
 40
1.0
 40
1.0
 10
27.27722916118487
 20
17.85071763173276
 30
0.0
 10
27.2619069075431
 20
18.34914446233629
 30
0.0
 10
27.24674650648817
 20
18.82541295641169
 30
0.0
 10
27.21689499549099
 20
19.72993512718512
 30
0.0
 10
27.20195017553358
 20
20.16084497184641
 30
0.0
 10
27.15625809163696
 20
21.39134151605305
 30
0.0
 10
27.12506570916975
 20
22.12401698660656
 30
0.0
 10
27.06248186385702
 20
23.37873362379432
 30
0.0
 10
27.03109634059593
 20
23.90064391370212
 30
0.0
 10
26.98484434084413
 20
24.51158768937287
 30
0.0
 10
26.96956434925836
 20
24.6867284402472
 30
0.0
 10
26.9394286185693
 20
24.97949301323787
 30
0.0
 10
26.92466762352183
 20
25.09711236277727
 30
0.0
 10
26.90956005071568
 20
25.18719368898922
 30
0.0
  0
SPLINE
  5
1E1
330
1F
100
AcDbEntity
  8
0
  6
Continuous
 62
     1
370
    15
100
AcDbSpline
210
0.0
220
0.0
230
1.0
 70
     8
 71
     3
 72
    16
 73
    12
 74
     0
 42
0.000000001
 43
0.00000001
 40
0.0
 40
0.0
 40
0.0
 40
0.0
 40
0.25
 40
0.25
 40
0.5
 40
0.5
 40
0.75
 40
0.75
 40
0.875
 40
0.875
 40
1.0
 40
1.0
 40
1.0
 40
1.0
 10
24.65205649876815
 20
19.45350306416405
 30
0.0
 10
24.62234711097381
 20
20.34493664571998
 30
0.0
 10
24.59166861776868
 20
21.15846703588015
 30
0.0
 10
24.52953348197227
 20
22.58896538990343
 30
0.0
 10
24.4980884288878
 20
23.20569817449319
 30
0.0
 10
24.43574057003085
 20
24.21596919574647
 30
0.0
 10
24.40484355622704
 20
24.60944697624285
 30
0.0
 10
24.3598312428157
 20
25.02648348489313
 30
0.0
 10
24.34503976105513
 20
25.13707498868938
 30
0.0
 10
24.31474138280565
 20
25.30291172332016
 30
0.0
 10
24.29939638968473
 20
25.35759214384783
 30
0.0
 10
24.2839314860927
 20
25.38316513574767
 30
0.0
  0
SPLINE
  5
1E2
330
1F
100
AcDbEntity
  8
0
  6
Continuous
 62
     1
370
    15
100
AcDbSpline
210
0.0
220
0.0
230
1.0
 70
     8
 71
     3
 72
    14
 73
    10
 74
     0
 42
0.000000001
 43
0.00000001
 40
0.0
 40
0.0
 40
0.0
 40
0.0
 40
0.0000698198403177
 40
0.0000698198403177
 40
0.0000698198403177
 40
0.0001463574896387
 40
0.0001463574896387
 40
0.0001463574896387
 40
0.0002251090627191
 40
0.0002251090627191
 40
0.0002251090627191
 40
0.0002251090627191
 10
32.19618632619683
 20
-25.26340046722034
 30
0.0
 10
32.18170087971671
 20
-25.27331167527573
 30
0.0
 10
32.16631480257874
 20
-25.28139120866053
 30
0.0
 10
32.15043591864875
 20
-25.28768383812911
 30
0.0
 10
32.13303278843247
 20
-25.29458050986797
 30
0.0
 10
32.11490609575991
 20
-25.29938454700002
 30
0.0
 10
32.09646731666206
 20
-25.30212813679129
 30
0.0
 10
32.0774963439227
 20
-25.3049509140946
 30
0.0
 10
32.05805552865039
 20
-25.30561381068744
 30
0.0
 10
32.03854532582451
 20
-25.30408993904059
 30
0.0
  0
SPLINE
  5
1E3
330
1F
100
AcDbEntity
  8
0
  6
Continuous
 62
     1
370
    15
100
AcDbSpline
210
0.0
220
0.0
230
1.0
 70
     8
 71
     3
 72
    16
 73
    12
 74
     0
 42
0.000000001
 43
0.00000001
 40
0.0
 40
0.0
 40
0.0
 40
0.0
 40
0.2499999999999997
 40
0.2499999999999997
 40
0.3749999999999996
 40
0.3749999999999996
 40
0.4999999999999996
 40
0.4999999999999996
 40
0.7499999999999998
 40
0.7499999999999998
 40
1.0
 40
1.0
 40
1.0
 40
1.0
 10
32.19618632619682
 20
-25.26340046722038
 30
0.0
 10
32.16492645045875
 20
-25.14950988116795
 30
0.0
 10
32.13364510016544
 20
-24.91816582649894
 30
0.0
 10
32.08764748066829
 20
-24.40536231178727
 30
0.0
 10
32.07246848508789
 20
-24.20694536855372
 30
0.0
 10
32.04256388086554
 20
-23.75850898563056
 30
0.0
 10
32.02773211924367
 20
-23.50816885386538
 30
0.0
 10
31.9822234758974
 20
-22.67258953938798
 30
0.0
 10
31.95112389096514
 20
-22.00503902328666
 30
0.0
 10
31.88865487340448
 20
-20.47029681532234
 30
0.0
 10
31.85729132180025
 20
-19.60323512997377
 30
0.0
 10
31.82644200812519
 20
-18.65544221280662
 30
0.0
  0
SPLINE
  5
1E4
330
1F
100
AcDbEntity
  8
0
  6
Continuous
 62
     1
370
    15
100
AcDbSpline
210
0.0
220
0.0
230
1.0
 70
     8
 71
     3
 72
    12
 73
     8
 74
     0
 42
0.000000001
 43
0.00000001
 40
0.0
 40
0.0
 40
0.0
 40
0.0
 40
0.5000000000000008
 40
0.5000000000000008
 40
0.7500000000000007
 40
0.7500000000000007
 40
1.0
 40
1.0
 40
1.0
 40
1.0
 10
32.82613200884411
 20
-25.30290604080317
 30
0.0
 10
32.72647334278099
 20
-25.22153938238663
 30
0.0
 10
32.61357648898583
 20
-25.18426828626867
 30
0.0
 10
32.45003284778738
 20
-25.17625315078709
 30
0.0
 10
32.39530900351572
 20
-25.18199717691914
 30
0.0
 10
32.29172802360024
 20
-25.20989475617352
 30
0.0
 10
32.24242340966069
 20
-25.2317642070116
 30
0.0
 10
32.19618632619679
 20
-25.26340046722034
 30
0.0
  0
SPLINE
  5
1E5
330
1F
100
AcDbEntity
  8
0
  6
Continuous
 62
     1
370
    15
100
AcDbSpline
210
0.0
220
0.0
230
1.0
 70
     8
 71
     3
 72
    16
 73
    12
 74
     0
 42
0.000000001
 43
0.00000001
 40
0.0
 40
0.0
 40
0.0
 40
0.0
 40
0.2500000000000001
 40
0.2500000000000001
 40
0.3750000000000001
 40
0.3750000000000001
 40
0.5
 40
0.5
 40
0.75
 40
0.75
 40
1.0
 40
1.0
 40
1.0
 40
1.0
 10
32.82613200884411
 20
-25.30290604080322
 30
0.0
 10
32.7948940404973
 20
-25.22033490350788
 30
0.0
 10
32.76354664940256
 20
-25.02012265286801
 30
0.0
 10
32.71732475370489
 20
-24.55185260446053
 30
0.0
 10
32.70205031908115
 20
-24.3679214108427
 30
0.0
 10
32.67191666074228
 20
-23.94746843309558
 30
0.0
 10
32.6571816882152
 20
-23.71181280549622
 30
0.0
 10
32.6119982746322
 20
-22.92068605395346
 30
0.0
 10
32.58103695434949
 20
-22.28206405121787
 30
0.0
 10
32.51866899407393
 20
-20.80129499115514
 30
0.0
 10
32.48726817055041
 20
-19.95926193901479
 30
0.0
 10
32.45629632522878
 20
-19.03354512536002
 30
0.0
  0
SPLINE
  5
1E6
330
1F
100
AcDbEntity
  8
0
  6
Continuous
 62
     1
370
    15
100
AcDbSpline
210
0.0
220
0.0
230
1.0
 70
     8
 71
     3
 72
    14
 73
    10
 74
     0
 42
0.000000001
 43
0.00000001
 40
0.0000000000000001
 40
0.0000000000000001
 40
0.0000000000000001
 40
0.0000000000000001
 40
0.000074228528181
 40
0.000074228528181
 40
0.000074228528181
 40
0.0001439651432589
 40
0.0001439651432589
 40
0.0001439651432589
 40
0.000216250508956
 40
0.000216250508956
 40
0.000216250508956
 40
0.000216250508956
 10
32.9834639403826
 20
-25.36370445030739
 30
0.0
 10
32.96506885945344
 20
-25.36282013008726
 30
0.0
 10
32.94648471216889
 20
-25.35997461158066
 30
0.0
 10
32.92808144325102
 20
-25.35507707707135
 30
0.0
 10
32.91079281836955
 20
-25.35047617506023
 30
0.0
 10
32.89354108120837
 20
-25.34403017668983
 30
0.0
 10
32.87673260303117
 20
-25.33563084952861
 30
0.0
 10
32.85933302674871
 20
-25.32693614605085
 30
0.0
 10
32.84223739563157
 20
-25.31605533887397
 30
0.0
 10
32.82613200884433
 20
-25.30290604080339
 30
0.0
  0
SPLINE
  5
1E7
330
1F
100
AcDbEntity
  8
0
  6
Continuous
 62
     1
370
    15
100
AcDbSpline
210
0.0
220
0.0
230
1.0
 70
     8
 71
     3
 72
    16
 73
    12
 74
     0
 42
0.000000001
 43
0.00000001
 40
0.0
 40
0.0
 40
0.0
 40
0.0
 40
0.2499999999999998
 40
0.2499999999999998
 40
0.3749999999999997
 40
0.3749999999999997
 40
0.4999999999999998
 40
0.4999999999999998
 40
0.7499999999999999
 40
0.7499999999999999
 40
1.0
 40
1.0
 40
1.0
 40
1.0
 10
32.9834639403826
 20
-25.36370445030745
 30
0.0
 10
32.95225999918084
 20
-25.2884901509125
 30
0.0
 10
32.92092596382834
 20
-25.09556156534894
 30
0.0
 10
32.87469201223381
 20
-24.63764706501389
 30
0.0
 10
32.85940825734188
 20
-24.45707294207907
 30
0.0
 10
32.8292457196718
 20
-24.04307554560165
 30
0.0
 10
32.81451562489656
 20
-23.81061624762956
 30
0.0
 10
32.76945494683868
 20
-23.02963372885128
 30
0.0
 10
32.73855753367872
 20
-22.39757297628054
 30
0.0
 10
32.67627346935475
 20
-20.92888779346107
 30
0.0
 10
32.64489258998954
 20
-20.09237297492586
 30
0.0
 10
32.61391751490672
 20
-19.17137978696966
 30
0.0
  0
SPLINE
  5
1E8
330
1F
100
AcDbEntity
  8
0
  6
Continuous
 62
     1
370
    15
100
AcDbSpline
210
0.0
220
0.0
230
1.0
 70
     8
 71
     3
 72
     9
 73
     5
 74
     0
 42
0.000000001
 43
0.00000001
 40
0.0
 40
0.0
 40
0.0
 40
0.0
 40
0.9758679205549486
 40
1.0
 40
1.0
 40
1.0
 40
1.0
 10
32.98346468806265
 20
-25.36370418965815
 30
0.0
 10
33.47425471925872
 20
-25.38583658541745
 30
0.0
 10
33.97718141749158
 20
-25.40851628959986
 30
0.0
 10
34.47965498124111
 20
-25.39956562795684
 30
0.0
 10
34.49178071320055
 20
-25.39934962987899
 30
0.0
  0
SPLINE
  5
1E9
330
1F
100
AcDbEntity
  8
0
  6
Continuous
 62
     1
370
    15
100
AcDbSpline
210
0.0
220
0.0
230
1.0
 70
     8
 71
     3
 72
    16
 73
    12
 74
     0
 42
0.000000001
 43
0.00000001
 40
0.0
 40
0.0
 40
0.0
 40
0.0
 40
0.25
 40
0.25
 40
0.5
 40
0.5
 40
0.75
 40
0.75
 40
0.875
 40
0.875
 40
1.0
 40
1.0
 40
1.0
 40
1.0
 10
24.49482379636053
 20
19.49881181140662
 30
0.0
 10
24.46503660108887
 20
20.38392914130414
 30
0.0
 10
24.43428492312094
 20
21.19055333304186
 30
0.0
 10
24.37205680854712
 20
22.6061041893327
 30
0.0
 10
24.34058607759213
 20
23.21485726700531
 30
0.0
 10
24.27823166512564
 20
24.20873804574555
 30
0.0
 10
24.24735377137027
 20
24.59380961609994
 30
0.0
 10
24.20240157540199
 20
24.9984105533563
 30
0.0
 10
24.1875591926375
 20
25.10507723969588
 30
0.0
 10
24.15718524739475
 20
25.26281633396028
 30
0.0
 10
24.1418073187801
 20
25.31338766905384
 30
0.0
 10
24.12631486011168
 20
25.33483127265986
 30
0.0
  0
SPLINE
  5
1EA
330
1F
100
AcDbEntity
  8
0
  6
Continuous
 62
     1
370
    15
100
AcDbSpline
210
0.0
220
0.0
230
1.0
 70
     8
 71
     3
 72
    14
 73
    10
 74
     0
 42
0.000000001
 43
0.00000001
 40
0.0
 40
0.0
 40
0.0
 40
0.0
 40
0.2499999999999999
 40
0.2499999999999999
 40
0.4999999999999998
 40
0.4999999999999998
 40
0.7499999999999999
 40
0.7499999999999999
 40
1.0
 40
1.0
 40
1.0
 40
1.0
 10
23.70770813923484
 20
19.9887810207198
 30
0.0
 10
23.67764919578156
 20
20.84716785811689
 30
0.0
 10
23.64672516284019
 20
21.62317096209358
 30
0.0
 10
23.58437456429178
 20
22.97196166744514
 30
0.0
 10
23.55295379951561
 20
23.54459356395519
 30
0.0
 10
23.49091552204908
 20
24.46380015877698
 30
0.0
 10
23.4604471499201
 20
24.80997923056944
 30
0.0
 10
23.40091919095846
 20
25.27398734137188
 30
0.0
 10
23.37019795312207
 20
25.39573896257544
 30
0.0
 10
23.33911987765379
 20
25.39988943798601
 30
0.0
  0
LINE
  5
1EB
330
1F
100
AcDbEntity
  8
0
  6
Continuous
 62
     1
370
    15
100
AcDbLine
 10
65.80000141263005
 20
4.899670369923125
 30
0.0
 11
65.80000141263005
 21
16.44660159945489
 31
0.0
  0
LINE
  5
1EC
330
1F
100
AcDbEntity
  8
0
  6
Continuous
 62
     1
370
    15
100
AcDbLine
 10
65.80000141263005
 20
-13.57967313379048
 30
0.0
 11
65.80000141263005
 21
-14.84904717653989
 31
0.0
  0
LINE
  5
1ED
330
1F
100
AcDbEntity
  8
0
  6
Continuous
 62
     1
370
    15
100
AcDbLine
 10
50.34986653923986
 20
-25.28846822679042
 30
0.0
 11
50.34830936789511
 21
-25.28689429163932
 31
0.0
  0
LINE
  5
1EE
330
1F
100
AcDbEntity
  8
0
  6
Continuous
 62
     1
370
    15
100
AcDbLine
 10
64.70000141859052
 20
25.39290301501752
 30
0.0
 11
64.70000141859052
 21
25.39999969303609
 31
0.0
  0
LINE
  5
1EF
330
1F
100
AcDbEntity
  8
0
  6
Continuous
 62
     1
370
    15
100
AcDbLine
 10
65.80000141263005
 20
24.29999969899655
 30
0.0
 11
65.80000141263005
 21
24.24153685569764
 31
0.0
  0
SPLINE
  5
1F0
330
1F
100
AcDbEntity
  8
0
  6
Continuous
 62
     1
370
    15
100
AcDbSpline
210
0.0
220
0.0
230
1.0
 70
     8
 71
     3
 72
    13
 73
     9
 74
     0
 42
0.000000001
 43
0.00000001
 40
0.0
 40
0.0
 40
0.0
 40
0.0
 40
0.146074352567196
 40
0.3558242504691334
 40
0.563754539307898
 40
0.7717578376165536
 40
0.9815332502173141
 40
1.0
 40
1.0
 40
1.0
 40
1.0
 10
35.58740162849425
 20
-25.35423077642917
 30
0.0
 10
35.57038565069248
 20
-25.35216627849335
 30
0.0
 10
35.52893622825172
 20
-25.34713734344966
 30
0.0
 10
35.46284770020265
 20
-24.84186278313942
 30
0.0
 10
35.39155616645441
 20
-23.92196869062513
 30
0.0
 10
35.32016379449255
 20
-22.58399256198444
 30
0.0
 10
35.26902887196347
 20
-21.3910699518947
 30
0.0
 10
35.2423724794744
 20
-20.69409873763149
 30
0.0
 10
35.24021574854849
 20
-20.63770778477191
 30
0.0
  0
SPLINE
  5
1F1
330
1F
100
AcDbEntity
  8
0
  6
Continuous
 62
     1
370
    15
100
AcDbSpline
210
0.0
220
0.0
230
1.0
 70
     8
 71
     3
 72
    13
 73
     9
 74
     0
 42
0.000000001
 43
0.00000001
 40
0.0
 40
0.0
 40
0.0
 40
0.0
 40
0.1892827634155501
 40
0.3798701328549571
 40
0.5702930607690484
 40
0.759089883194434
 40
0.8858314576422132
 40
0.9999999999999999
 40
0.9999999999999999
 40
0.9999999999999999
 40
0.9999999999999999
 10
23.86525882035493
 20
19.85503360629083
 30
0.0
 10
23.84245899615422
 20
20.4756205052635
 30
0.0
 10
23.7967022030268
 20
21.72107161505762
 30
0.0
 10
23.72653494803767
 20
23.17391330208203
 30
0.0
 10
23.65657414658672
 20
24.29164415996415
 30
0.0
 10
23.59588063748343
 20
24.94043125646914
 30
0.0
 10
23.54469395276015
 20
25.26931578311937
 30
0.0
 10
23.51530037086545
 20
25.31362076460473
 30
0.0
 10
23.50137060135602
 20
25.33461712300779
 30
0.0
  0
SPLINE
  5
1F2
330
1F
100
AcDbEntity
  8
0
  6
Continuous
 62
     1
370
    15
100
AcDbSpline
210
0.0
220
0.0
230
1.0
 70
     8
 71
     3
 72
    12
 73
     8
 74
     0
 42
0.000000001
 43
0.00000001
 40
0.0
 40
0.0
 40
0.0
 40
0.0
 40
0.2322387959884667
 40
0.4645193460489309
 40
0.694810962253869
 40
0.9252889129495271
 40
1.0
 40
1.0
 40
1.0
 40
1.0
 10
21.08220666274427
 20
21.35907113552095
 30
0.0
 10
21.05737218648164
 20
21.93081367661421
 30
0.0
 10
21.00769876898098
 20
23.07440155204475
 30
0.0
 10
20.93286099521175
 20
24.28703469093122
 30
0.0
 10
20.86019237748189
 20
25.06834905327893
 30
0.0
 10
20.80423844992454
 20
25.42077758682335
 30
0.0
 10
20.77148107068731
 20
25.36478755257943
 30
0.0
 10
20.76346197724341
 20
25.35108104348184
 30
0.0
  0
SPLINE
  5
1F3
330
1F
100
AcDbEntity
  8
0
  6
Continuous
 62
     1
370
    15
100
AcDbSpline
210
0.0
220
0.0
230
1.0
 70
     8
 71
     3
 72
    13
 73
     9
 74
     0
 42
0.000000001
 43
0.00000001
 40
0.0
 40
0.0
 40
0.0
 40
0.0
 40
0.1496790884634162
 40
0.360693543235294
 40
0.5699083145162186
 40
0.779101150749489
 40
0.9901081912273638
 40
1.0
 40
1.0
 40
1.0
 40
1.0
 10
35.7457991093397
 20
-25.30068531632422
 30
0.0
 10
35.72831814160023
 20
-25.30308431813227
 30
0.0
 10
35.68619287040928
 20
-25.30886538261666
 30
0.0
 10
35.61915613406618
 20
-24.81048665892289
 30
0.0
 10
35.54715020011943
 20
-23.89315576029701
 30
0.0
 10
35.47516941374197
 20
-22.55165625841629
 30
0.0
 10
35.42459753710984
 20
-21.37446012686091
 30
0.0
 10
35.39871251089202
 20
-20.70268634479963
 30
0.0
 10
35.39755338430403
 20
-20.67260444164275
 30
0.0
  0
SPLINE
  5
1F4
330
1F
100
AcDbEntity
  8
0
  6
Continuous
 62
     1
370
    15
100
AcDbSpline
210
0.0
220
0.0
230
1.0
 70
     8
 71
     3
 72
    13
 73
     9
 74
     0
 42
0.000000001
 43
0.00000001
 40
0.0
 40
0.0
 40
0.0
 40
0.0
 40
0.0461037281827148
 40
0.2378712685881957
 40
0.4289344069303113
 40
0.6182825854860722
 40
0.8084721191271025
 40
1.0
 40
1.0
 40
1.0
 40
1.0
 10
36.35005609691142
 20
-25.31497180461882
 30
0.0
 10
36.34507648417384
 20
-25.31993007658835
 30
0.0
 10
36.31938427129526
 20
-25.34551218219863
 30
0.0
 10
36.27262884349068
 20
-25.08336614675564
 30
0.0
 10
36.21072147875517
 20
-24.52302400501816
 30
0.0
 10
36.15078262600801
 20
-23.63759393124525
 30
0.0
 10
36.08978920125475
 20
-22.49087402207551
 30
0.0
 10
36.04832144735496
 20
-21.49475556837002
 30
0.0
 10
36.02751487493514
 20
-20.99495008587837
 30
0.0
  0
SPLINE
  5
1F5
330
1F
100
AcDbEntity
  8
0
  6
Continuous
 62
     1
370
    15
100
AcDbSpline
210
0.0
220
0.0
230
1.0
 70
     8
 71
     3
 72
    13
 73
     9
 74
     0
 42
0.000000001
 43
0.00000001
 40
0.0
 40
0.0
 40
0.0
 40
0.0
 40
0.0622165619340412
 40
0.2507508302081425
 40
0.4386501703747129
 40
0.6248658591694951
 40
0.8117462922109405
 40
0.9999999999999999
 40
0.9999999999999999
 40
0.9999999999999999
 40
0.9999999999999999
 10
36.51299470663069
 20
-25.36563202738761
 30
0.0
 10
36.50616997624609
 20
-25.37489776228153
 30
0.0
 10
36.47866432892826
 20
-25.41224136734288
 30
0.0
 10
36.43007094434046
 20
-25.15934302609003
 30
0.0
 10
36.36815297803636
 20
-24.61048247048539
 30
0.0
 10
36.30817512946497
 20
-23.73939436548315
 30
0.0
 10
36.24735522054803
 20
-22.60560378034236
 30
0.0
 10
36.20593969213774
 20
-21.61777550342651
 30
0.0
 10
36.18515612185001
 20
-21.12205326557159
 30
0.0
  0
SPLINE
  5
1F6
330
1F
100
AcDbEntity
  8
0
  6
Continuous
 62
     1
370
    15
100
AcDbSpline
210
0.0
220
0.0
230
1.0
 70
     8
 71
     3
 72
    12
 73
     8
 74
     0
 42
0.000000001
 43
0.00000001
 40
0.0
 40
0.0
 40
0.0
 40
0.0
 40
0.1099736388859386
 40
0.3338494031482759
 40
0.5567575825053109
 40
0.777712608254831
 40
1.0
 40
1.0
 40
1.0
 40
1.0
 10
39.08738823235034
 20
-25.3610424697399
 30
0.0
 10
39.07720039071214
 20
-25.3687233561718
 30
0.0
 10
39.04627293496242
 20
-25.39204039266266
 30
0.0
 10
38.99431383693076
 20
-25.09536696821004
 30
0.0
 10
38.93247880640378
 20
-24.48944368163454
 30
0.0
 10
38.87269143134764
 20
-23.59167201096874
 30
0.0
 10
38.83185531839957
 20
-22.75903906584422
 30
0.0
 10
38.81137588620184
 20
-22.34147116541861
 30
0.0
  0
SPLINE
  5
1F7
330
1F
100
AcDbEntity
  8
0
  6
Continuous
 62
     1
370
    15
100
AcDbSpline
210
0.0
220
0.0
230
1.0
 70
     8
 71
     3
 72
    13
 73
     9
 74
     0
 42
0.000000001
 43
0.00000001
 40
0.0
 40
0.0
 40
0.0
 40
0.0
 40
0.2256722972906703
 40
0.4513322253878848
 40
0.6750596820597953
 40
0.8294460505788133
 40
0.9850353328460513
 40
0.9999999999999999
 40
0.9999999999999999
 40
0.9999999999999999
 40
0.9999999999999999
 10
20.92489417269825
 20
21.38681337237359
 30
0.0
 10
20.90037650245708
 20
21.94578819917039
 30
0.0
 10
20.85134250579856
 20
23.06370721511883
 30
0.0
 10
20.77753937407449
 20
24.24086748939223
 30
0.0
 10
20.71322129358606
 20
24.95719641586293
 30
0.0
 10
20.65666767485794
 20
25.27651637496595
 30
0.0
 10
20.62147256764104
 20
25.38450515156569
 30
0.0
 10
20.60289431889438
 20
25.33911904789547
 30
0.0
 10
20.60126423463224
 20
25.33513680100442
 30
0.0
  0
SPLINE
  5
1F8
330
1F
100
AcDbEntity
  8
0
  6
Continuous
 62
     1
370
    15
100
AcDbSpline
210
0.0
220
0.0
230
1.0
 70
     8
 71
     3
 72
    12
 73
     8
 74
     0
 42
0.000000001
 43
0.00000001
 40
0.0
 40
0.0
 40
0.0
 40
0.0
 40
0.2343813189660018
 40
0.4685344951065727
 40
0.7006897273521454
 40
0.8846034201892276
 40
1.0
 40
1.0
 40
1.0
 40
1.0
 10
20.29502302035688
 20
21.68523520231248
 30
0.0
 10
20.27185092311676
 20
22.19398046408115
 30
0.0
 10
20.2255292839654
 20
23.21097578355547
 30
0.0
 10
20.15602492964681
 20
24.29391117437629
 30
0.0
 10
20.09312771452299
 20
24.96652719141524
 30
0.0
 10
20.0420048021805
 20
25.29138388054605
 30
0.0
 10
20.01246871123828
 20
25.30819984120795
 30
0.0
 10
20.00108131766318
 20
25.31468309462072
 30
0.0
  0
SPLINE
  5
1F9
330
1F
100
AcDbEntity
  8
0
  6
Continuous
 62
     1
370
    15
100
AcDbSpline
210
0.0
220
0.0
230
1.0
 70
     8
 71
     3
 72
    12
 73
     8
 74
     0
 42
0.000000001
 43
0.00000001
 40
0.0
 40
0.0
 40
0.0
 40
0.0
 40
0.2261796447124287
 40
0.4520887138924484
 40
0.6760741669263747
 40
0.8596411619711617
 40
1.0
 40
1.0
 40
1.0
 40
1.0
 10
20.13739946857094
 20
21.80745080113412
 30
0.0
 10
20.11458312016736
 20
22.30452858834211
 30
0.0
 10
20.06897771823736
 20
23.29808951558242
 30
0.0
 10
20.00059426068288
 20
24.35717023759689
 30
0.0
 10
19.93811963729133
 20
25.02641833187985
 30
0.0
 10
19.88431770150991
 20
25.36054217688383
 30
0.0
 10
19.85168968295551
 20
25.37198544194042
 30
0.0
 10
19.83755178377031
 20
25.37694387137891
 30
0.0
  0
SPLINE
  5
1FA
330
1F
100
AcDbEntity
  8
0
  6
Continuous
 62
     1
370
    15
100
AcDbSpline
210
0.0
220
0.0
230
1.0
 70
     8
 71
     3
 72
    12
 73
     8
 74
     0
 42
0.000000001
 43
0.00000001
 40
0.0
 40
0.0
 40
0.0
 40
0.0
 40
0.203746015454056
 40
0.4067392985974413
 40
0.6081626538541656
 40
0.8993212670570925
 40
1.0
 40
1.0
 40
1.0
 40
1.0
 10
17.51113732904194
 20
22.92311936616899
 30
0.0
 10
17.4941016256522
 20
23.23552493617966
 30
0.0
 10
17.46009315666488
 20
23.85918190508234
 30
0.0
 10
17.40952256133265
 20
24.55082829384762
 30
0.0
 10
17.35297523422848
 20
25.10986180915272
 30
0.0
 10
17.30462460063612
 20
25.41662386602192
 30
0.0
 10
17.27187345889046
 20
25.36447319287788
 30
0.0
 10
17.26345837675034
 20
25.35107359290124
 30
0.0
  0
SPLINE
  5
1FB
330
1F
100
AcDbEntity
  8
0
  6
Continuous
 62
     1
370
    15
100
AcDbSpline
210
0.0
220
0.0
230
1.0
 70
     8
 71
     3
 72
    12
 73
     8
 74
     0
 42
0.000000001
 43
0.00000001
 40
0.0
 40
0.0
 40
0.0
 40
0.0
 40
0.1268219055447971
 40
0.3464624038887643
 40
0.565220931556548
 40
0.7820310532883047
 40
1.0
 40
1.0
 40
1.0
 40
1.0
 10
39.2503529191017
 20
-25.3056976944208
 30
0.0
 10
39.23837425773889
 20
-25.31875914839791
 30
0.0
 10
39.20564997565765
 20
-25.35444149147383
 30
0.0
 10
39.15183213385307
 20
-25.06735104155554
 30
0.0
 10
39.08986777365766
 20
-24.47542027638812
 30
0.0
 10
39.02997531766795
 20
-23.5935686576965
 30
0.0
 10
38.98915920731029
 20
-22.77082081826525
 30
0.0
 10
38.96869675815104
 20
-22.35835045576095
 30
0.0
  0
SPLINE
  5
1FC
330
1F
100
AcDbEntity
  8
0
  6
Continuous
 62
     1
370
    15
100
AcDbSpline
210
0.0
220
0.0
230
1.0
 70
     8
 71
     3
 72
    11
 73
     7
 74
     0
 42
0.000000001
 43
0.00000001
 40
0.0
 40
0.0
 40
0.0
 40
0.0
 40
0.1476330772750787
 40
0.4334377155158015
 40
0.7169593105330203
 40
1.0
 40
1.0
 40
1.0
 40
1.0
 10
39.85012465715407
 20
-25.29063634574412
 30
0.0
 10
39.8376371614459
 20
-25.29126450866997
 30
0.0
 10
39.80097497359368
 20
-25.29310873970935
 30
0.0
 10
39.73986697251514
 20
-24.831944891395
 30
0.0
 10
39.66916116621957
 20
-23.98034504204328
 30
0.0
 10
39.62208505524482
 20
-23.07303389427225
 30
0.0
 10
39.59856697916983
 20
-22.61976338922976
 30
0.0
  0
SPLINE
  5
1FD
330
1F
100
AcDbEntity
  8
0
  6
Continuous
 62
     1
370
    15
100
AcDbSpline
210
0.0
220
0.0
230
1.0
 70
     8
 71
     3
 72
    11
 73
     7
 74
     0
 42
0.000000001
 43
0.00000001
 40
0.0
 40
0.0
 40
0.0
 40
0.0
 40
0.1726464464397815
 40
0.4500853045741867
 40
0.7253893694498733
 40
1.0
 40
1.0
 40
1.0
 40
1.0
 10
40.01305954158305
 20
-25.3511182963848
 30
0.0
 10
39.99815504737813
 20
-25.35447532798968
 30
0.0
 10
39.95929937468938
 20
-25.36322703196914
 30
0.0
 10
39.89619467411446
 20
-24.90414196241622
 30
0.0
 10
39.82602409857337
 20
-24.06817340303972
 30
0.0
 10
39.77943949276879
 20
-23.17843453588229
 30
0.0
 10
39.75617656111716
 20
-22.73412607610225
 30
0.0
  0
SPLINE
  5
1FE
330
1F
100
AcDbEntity
  8
0
  6
Continuous
 62
     1
370
    15
100
AcDbSpline
210
0.0
220
0.0
230
1.0
 70
     8
 71
     3
 72
    11
 73
     7
 74
     0
 42
0.000000001
 43
0.00000001
 40
0.0
 40
0.0
 40
0.0
 40
0.0
 40
0.1159505547019005
 40
0.4122096403041485
 40
0.7074207486825839
 40
1.0
 40
1.0
 40
1.0
 40
1.0
 10
42.58738414943216
 20
-25.363951921463
 30
0.0
 10
42.57939358516155
 20
-25.3731286428488
 30
0.0
 10
42.5509867557825
 20
-25.4057523162011
 30
0.0
 10
42.50177954725348
 20
-25.14148407967105
 30
0.0
 10
42.4407607496021
 20
-24.60407566031633
 30
0.0
 10
42.40119727977315
 20
-23.9924119057753
 30
0.0
 10
42.38150411844252
 20
-23.68794940412043
 30
0.0
  0
SPLINE
  5
1FF
330
1F
100
AcDbEntity
  8
0
  6
Continuous
 62
     1
370
    15
100
AcDbSpline
210
0.0
220
0.0
230
1.0
 70
     8
 71
     3
 72
    11
 73
     7
 74
     0
 42
0.000000001
 43
0.00000001
 40
0.0
 40
0.0
 40
0.0
 40
0.0
 40
0.2920184875157508
 40
0.5815367211640696
 40
0.8699140696890753
 40
1.0
 40
1.0
 40
1.0
 40
1.0
 10
17.35379736497997
 20
22.93270267546178
 30
0.0
 10
17.32872600320525
 20
23.37446796235152
 30
0.0
 10
17.2787979399322
 20
24.25421615448648
 30
0.0
 10
17.20596757973112
 20
25.01263972406129
 30
0.0
 10
17.1468743693499
 20
25.37595330211416
 30
0.0
 10
17.11100030414962
 20
25.3088809934209
 30
0.0
 10
17.09984828345476
 20
25.28803050518037
 30
0.0
  0
SPLINE
  5
200
330
1F
100
AcDbEntity
  8
0
  6
Continuous
 62
     1
370
    15
100
AcDbSpline
210
0.0
220
0.0
230
1.0
 70
     8
 71
     3
 72
    11
 73
     7
 74
     0
 42
0.000000001
 43
0.00000001
 40
0.0
 40
0.0
 40
0.0
 40
0.0
 40
0.3042550825606707
 40
0.6059178042672229
 40
0.8655826662691629
 40
1.0
 40
1.0
 40
1.0
 40
1.0
 10
16.72381608374415
 20
23.16842973232271
 30
0.0
 10
16.70088561594653
 20
23.55440237147743
 30
0.0
 10
16.65522005604255
 20
24.32305902646436
 30
0.0
 10
16.5915581036434
 20
24.97556877173401
 30
0.0
 10
16.54065244992709
 20
25.30427601262097
 30
0.0
 10
16.5110543458371
 20
25.30729862903107
 30
0.0
 10
16.5009587407112
 20
25.30832961201669
 30
0.0
  0
SPLINE
  5
201
330
1F
100
AcDbEntity
  8
0
  6
Continuous
 62
     1
370
    15
100
AcDbSpline
210
0.0
220
0.0
230
1.0
 70
     8
 71
     3
 72
    11
 73
     7
 74
     0
 42
0.000000001
 43
0.00000001
 40
0.0
 40
0.0
 40
0.0
 40
0.0
 40
0.2895965277618427
 40
0.5767347706065904
 40
0.8332189703814751
 40
1.0
 40
1.0
 40
1.0
 40
1.0
 10
16.56616971455513
 20
23.27716350555421
 30
0.0
 10
16.54379871115869
 20
23.64970871461859
 30
0.0
 10
16.49924660408821
 20
24.39163672511955
 30
0.0
 10
16.43645453387754
 20
25.03605603467216
 30
0.0
 10
16.38311459908104
 20
25.3717559020237
 30
0.0
 10
16.35050002704387
 20
25.36842122109848
 30
0.0
 10
16.33764876611529
 20
25.36710724234582
 30
0.0
  0
SPLINE
  5
202
330
1F
100
AcDbEntity
  8
0
  6
Continuous
 62
     1
370
    15
100
AcDbSpline
210
0.0
220
0.0
230
1.0
 70
     8
 71
     3
 72
    11
 73
     7
 74
     0
 42
0.000000001
 43
0.00000001
 40
0.0
 40
0.0
 40
0.0
 40
0.0
 40
0.147575454625575
 40
0.433187705942189
 40
0.7178491156113889
 40
0.9999999999999999
 40
0.9999999999999999
 40
0.9999999999999999
 40
0.9999999999999999
 10
42.75030785799026
 20
-25.30677244067191
 30
0.0
 10
42.73986510586677
 20
-25.32071741262342
 30
0.0
 10
42.7092118251598
 20
-25.36165098402544
 30
0.0
 10
42.65794268267905
 20
-25.10254391206843
 30
0.0
 10
42.59747983270914
 20
-24.57841127193922
 30
0.0
 10
42.55826904314433
 20
-23.98286257841943
 30
0.0
 10
42.53875048458574
 20
-23.68640713393687
 30
0.0
  0
SPLINE
  5
203
330
1F
100
AcDbEntity
  8
0
  6
Continuous
 62
     1
370
    15
100
AcDbSpline
210
0.0
220
0.0
230
1.0
 70
     8
 71
     3
 72
    10
 73
     6
 74
     0
 42
0.000000001
 43
0.00000001
 40
0.0
 40
0.0
 40
0.0
 40
0.0
 40
0.2072110557431096
 40
0.6052139319660413
 40
1.0
 40
1.0
 40
1.0
 40
1.0
 10
43.35010753571986
 20
-25.29034949839114
 30
0.0
 10
43.33748532347024
 20
-25.29004622357294
 30
0.0
 10
43.30061886053797
 20
-25.28916043036786
 30
0.0
 10
43.23924452416855
 20
-24.8499580618017
 30
0.0
 10
43.19188185227299
 20
-24.20371141574652
 30
0.0
 10
43.16829660534857
 20
-23.88189919292926
 30
0.0
  0
SPLINE
  5
204
330
1F
100
AcDbEntity
  8
0
  6
Continuous
 62
     1
370
    15
100
AcDbSpline
210
0.0
220
0.0
230
1.0
 70
     8
 71
     3
 72
    10
 73
     6
 74
     0
 42
0.000000001
 43
0.00000001
 40
0.0
 40
0.0
 40
0.0
 40
0.0
 40
0.2382147453540186
 40
0.6205815171946932
 40
1.0
 40
1.0
 40
1.0
 40
1.0
 10
43.51306104660032
 20
-25.35110525786876
 30
0.0
 10
43.49813182514997
 20
-25.35350279576533
 30
0.0
 10
43.45923919117621
 20
-25.35974870511562
 30
0.0
 10
43.39608299296583
 20
-24.92608264760457
 30
0.0
 10
43.34919201755196
 20
-24.29560615905666
 30
0.0
 10
43.32583726942539
 20
-23.9815879613161
 30
0.0
  0
SPLINE
  5
205
330
1F
100
AcDbEntity
  8
0
  6
Continuous
 62
     1
370
    15
100
AcDbSpline
210
0.0
220
0.0
230
1.0
 70
     8
 71
     3
 72
    10
 73
     6
 74
     0
 42
0.000000001
 43
0.00000001
 40
0.0
 40
0.0
 40
0.0
 40
0.0
 40
0.1380003793584558
 40
0.5695742006050241
 40
1.0
 40
1.0
 40
1.0
 40
1.0
 10
46.08739310503004
 20
-25.36983229219912
 30
0.0
 10
46.08114661372039
 20
-25.37811825225104
 30
0.0
 10
46.05536523318493
 20
-25.41231720949125
 30
0.0
 10
46.00958164064952
 20
-25.204989782402
 30
0.0
 10
45.97059868207508
 20
-24.83860147472426
 30
0.0
 10
45.9511331617832
 20
-24.65565130114554
 30
0.0
  0
SPLINE
  5
206
330
1F
100
AcDbEntity
  8
0
  6
Continuous
 62
     1
370
    15
100
AcDbSpline
210
0.0
220
0.0
230
1.0
 70
     8
 71
     3
 72
    10
 73
     6
 74
     0
 42
0.000000001
 43
0.00000001
 40
0.0
 40
0.0
 40
0.0
 40
0.0
 40
0.1818888804619243
 40
0.5914401569607315
 40
0.9999999999999999
 40
0.9999999999999999
 40
0.9999999999999999
 40
0.9999999999999999
 10
46.25019574165342
 20
-25.31051635742186
 30
0.0
 10
46.24163382259754
 20
-25.3236140186588
 30
0.0
 10
46.21379340301035
 20
-25.36620311370472
 30
0.0
 10
46.16618623578171
 20
-25.16665184639217
 30
0.0
 10
46.12766639798276
 20
-24.81263192969082
 30
0.0
 10
46.10842981934545
 20
-24.63583648204802
 30
0.0
  0
SPLINE
  5
207
330
1F
100
AcDbEntity
  8
0
  6
Continuous
 62
     1
370
    15
100
AcDbSpline
210
0.0
220
0.0
230
1.0
 70
     8
 71
     3
 72
     9
 73
     5
 74
     0
 42
0.000000001
 43
0.00000001
 40
0.0
 40
0.0
 40
0.0
 40
0.0
 40
0.3457554702976269
 40
1.0
 40
1.0
 40
1.0
 40
1.0
 10
46.85012394189832
 20
-25.28989315032958
 30
0.0
 10
46.83723532045276
 20
-25.29147023605196
 30
0.0
 10
46.79995862477396
 20
-25.29603151087726
 30
0.0
 10
46.76265977074104
 20
-24.97361126217399
 30
0.0
 10
46.73825719952581
 20
-24.76266957819461
 30
0.0
  0
SPLINE
  5
208
330
1F
100
AcDbEntity
  8
0
  6
Continuous
 62
     1
370
    15
100
AcDbSpline
210
0.0
220
0.0
230
1.0
 70
     8
 71
     3
 72
     9
 73
     5
 74
     0
 42
0.000000001
 43
0.00000001
 40
0.0
 40
0.0
 40
0.0
 40
0.0
 40
0.3846782373696034
 40
1.0
 40
1.0
 40
1.0
 40
1.0
 10
47.01306441426275
 20
-25.35106427967547
 30
0.0
 10
46.99804769520021
 20
-25.35636188860722
 30
0.0
 10
46.95901060496807
 20
-25.37013342132501
 30
0.0
 10
46.91992466285117
 20
-25.04570259063409
 30
0.0
 10
46.89587423205374
 20
-24.84607324004172
 30
0.0
  0
SPLINE
  5
209
330
1F
100
AcDbEntity
  8
0
  6
Continuous
 62
     1
370
    15
100
AcDbSpline
210
0.0
220
0.0
230
1.0
 70
     8
 71
     3
 72
     9
 73
     5
 74
     0
 42
0.000000001
 43
0.00000001
 40
0.0
 40
0.0
 40
0.0
 40
0.0
 40
0.1613351337578936
 40
1.0
 40
1.0
 40
1.0
 40
1.0
 10
49.58741509914396
 20
-25.38138814270495
 30
0.0
 10
49.58392511880224
 20
-25.38734855348262
 30
0.0
 10
49.56229325065028
 20
-25.42429283610006
 30
0.0
 10
49.54044718722969
 20
-25.31812268612512
 30
0.0
 10
49.52212566137312
 20
-25.22908151149749
 30
0.0
  0
SPLINE
  5
20A
330
1F
100
AcDbEntity
  8
0
  6
Continuous
 62
     1
370
    15
100
AcDbSpline
210
0.0
220
0.0
230
1.0
 70
     8
 71
     3
 72
     9
 73
     5
 74
     0
 42
0.000000001
 43
0.00000001
 40
0.0
 40
0.0
 40
0.0
 40
0.0
 40
0.2380863042703023
 40
1.0
 40
1.0
 40
1.0
 40
1.0
 10
49.74997186660764
 20
-25.31921118497847
 30
0.0
 10
49.74440960004188
 20
-25.33025007752177
 30
0.0
 10
49.72104720386029
 20
-25.37661516591748
 30
0.0
 10
49.6974435323963
 20
-25.27145246163813
 30
0.0
 10
49.67945957183836
 20
-25.19132755696772
 30
0.0
  0
LINE
  5
20B
330
1F
100
AcDbEntity
  8
0
  6
Continuous
 62
     1
370
    15
100
AcDbLine
 10
50.34830936789511
 20
-25.28689429163932
 30
0.0
 11
50.30940616130827
 21
-25.24756267666816
 31
0.0
  0
LINE
  5
20C
330
1F
100
AcDbEntity
  8
0
  6
Continuous
 62
     1
370
    15
100
AcDbLine
 10
50.51307150721548
 20
-25.35091526806353
 30
0.0
 11
50.46704554557798
 21
-25.31338110566138
 31
0.0
  0
LINE
  5
20D
330
1F
100
AcDbEntity
  8
중심선
  6
CENTER
370
    15
100
AcDbLine
 10
-87.25000000000006
 20
0.0000000000000008
 30
0.0
 11
72.8
 21
0.0000000000000008
 31
0.0
  0
CIRCLE
  5
20E
330
1F
100
AcDbEntity
  8
외형선
100
AcDbCircle
 10
0.0
 20
0.0
 30
0.0
 40
3.000000000000001
  0
INSERT
  5
20F
330
1F
100
AcDbEntity
  8
0
  6
Continuous
 62
     7
100
AcDbBlockReference
 66
     1
  2
블럭10
 10
-17.75640375699104
 20
-68.78425629148586
 30
0.0
  0
ATTRIB
  5
210
330
20F
100
AcDbEntity
  8
FORMAT
 62
     2
100
AcDbText
 10
-27.10624794264108
 20
-66.70888937865367
 30
0.0
 40
4.233333333333333
  1
EK191164 [ 3 FLUTE ]
 41
0.75
  7
SLDTEXTSTYLE0
 11
-27.10624794264108
 21
-68.82555604532033
 31
0.0
100
AcDbAttribute
  2
AUTOATTR0
 70
     0
 74
     1
  0
SEQEND
  5
211
330
20F
100
AcDbEntity
  8
0
  6
Continuous
 62
     7
  0
HATCH
  5
212
330
1F
100
AcDbEntity
  8
중심선
100
AcDbHatch
 10
0.0
 20
0.0
 30
0.0
210
0.0
220
0.0
230
1.0
  2
SOLID
 70
     1
 71
     0
 91
        1
 92
        0
 93
        4
 72
     1
 10
-12.04149445261021
 20
-52.53708198984192
 11
-15.48776969644749
 21
-52.53708198984192
 72
     1
 10
-15.48776969644749
 20
-52.53708198984192
 11
-17.61599955565151
 21
-55.07340757041449
 72
     1
 10
-17.61599955565151
 20
-55.07340757041449
 11
-14.16969122670108
 21
-55.073368141112
 72
     1
 10
-14.16969122670108
 20
-55.073368141112
 11
-12.04149445261021
 21
-52.53708198984192
 97
        0
 75
     0
 76
     1
 98
        1
 10
-10.75955270775557
 20
-16.73708198984192
  0
HATCH
  5
213
330
1F
100
AcDbEntity
  8
중심선
100
AcDbHatch
 10
0.0
 20
0.0
 30
0.0
210
0.0
220
0.0
230
1.0
  2
SOLID
 70
     1
 71
     0
 91
        1
 92
        0
 93
        4
 72
     1
 10
-7.028730461574226
 20
-52.53708198984192
 11
-10.47500570541151
 21
-52.53708198984192
 72
     1
 10
-10.47500570541151
 20
-52.53708198984192
 11
-15.00614371376892
 21
-57.93708198984194
 72
     1
 10
-15.00614371376892
 20
-57.93708198984194
 11
-11.55986846993164
 21
-57.93708198984194
 72
     1
 10
-11.55986846993164
 20
-57.93708198984194
 11
-7.028730461574225
 21
-52.53708198984192
 97
        0
 75
     0
 76
     1
 98
        1
 10
-10.75955270775557
 20
-16.73708198984192
  0
HATCH
  5
214
330
1F
100
AcDbEntity
  8
중심선
100
AcDbHatch
 10
0.0
 20
0.0
 30
0.0
210
0.0
220
0.0
230
1.0
  2
SOLID
 70
     1
 71
     0
 91
        1
 92
        0
 93
        4
 72
     1
 10
-2.015966470538386
 20
-52.53708198984192
 11
-5.462241714375446
 21
-52.53708198984192
 72
     1
 10
-5.462241714375446
 20
-52.53708198984192
 11
-12.51067861626472
 21
-60.93708198984194
 72
     1
 10
-12.51067861626472
 20
-60.93708198984194
 11
-9.06440337242744
 21
-60.93708198984194
 72
     1
 10
-9.06440337242744
 20
-60.93708198984194
 11
-2.015966470538385
 21
-52.53708198984192
 97
        0
 75
     0
 76
     1
 98
        1
 10
-10.75955270775557
 20
-16.73708198984192
  0
HATCH
  5
215
330
1F
100
AcDbEntity
  8
중심선
100
AcDbHatch
 10
0.0
 20
0.0
 30
0.0
210
0.0
220
0.0
230
1.0
  2
SOLID
 70
     1
 71
     0
 91
        1
 92
        0
 93
        6
 72
     3
 10
2.783923960473841
 20
-56.73708198989319
 11
3.960054785062285
 21
1.540882976769353E-10
 40
0.3939339440162626
 50
17.09539180608438
 51
320.0019657685082
 73
     0
 72
     1
 10
4.466923616174409
 20
-55.32497599448025
 11
6.772225489875474
 21
-53.3906492844323
 72
     3
 10
2.783923960420994
 20
-56.73708198984207
 11
6.600054785286828
 21
-1.278976924368180E-13
 40
0.6363583540795982
 50
39.99873849337411
 51
368.4976242363724
 73
     1
 72
     1
 10
9.209256452321604
 20
-55.77708198977194
 11
1.463991267256917
 21
-55.77708198977194
 72
     1
 10
1.463991267256917
 20
-55.77708198977194
 11
1.463966222810983
 21
-57.69708198977183
 72
     1
 10
1.463966222810983
 20
-57.69708198977183
 11
5.905345992283021
 21
-57.6970819897718
 97
        0
 75
     0
 76
     1
 98
        1
 10
-10.75955270775557
 20
-16.73708198984192
  0
POINT
  5
216
330
1F
100
AcDbEntity
  8
치수문자_일반주서
100
AcDbPoint
 10
26.99999999999998
 20
-0.0132435212649362
 30
0.0
  0
DIMENSION
  5
217
330
1F
100
AcDbEntity
  8
치수문자_일반주서
100
AcDbDimension
  2
_D
 10
14.99999999999998
 20
64.21065667499487
 30
0.0
 11
40.39999999999998
 21
64.21065667499487
 31
0.0
 70
   160
  1
<>
 71
     2
 42
50.80000000000003
  3
SLDDIMSTYLE0
100
AcDbAlignedDimension
 13
65.8
 23
16.44660070075569
 33
0.0
 14
14.99999999999998
 24
25.40000000000001
 34
0.0
 50
0.000000000000012
100
AcDbRotatedDimension
1001
ACAD
1000
DSTYLE
1002
{
1070
   171
1070
     6
1070
   273
1070
     7
1002
}
  0
DIMENSION
  5
22B
330
1F
100
AcDbEntity
  8
치수문자_일반주서
100
AcDbDimension
  2
_D_1
 10
65.8
 20
83.66227227786342
 30
0.0
 11
-7.225000000000023
 21
83.66227227786342
 31
0.0
 70
   160
  1
<>
 71
     2
 42
146.05
  3
SLDDIMSTYLE1
100
AcDbAlignedDimension
 13
-80.25000000000004
 23
24.39999999999999
 33
0.0
 14
65.8
 24
16.44660070075569
 34
0.0
100
AcDbRotatedDimension
1001
ACAD
1000
DSTYLE
1002
{
1070
   171
1070
     6
1070
   273
1070
     7
1002
}
  0
DIMENSION
  5
23F
330
1F
100
AcDbEntity
  8
치수문자_일반주서
100
AcDbDimension
  2
_D_2
 10
-97.24999999999991
 20
-25.40000000000006
 30
0.0
 11
-97.25
 21
-0.495292810642058
 31
0.0
 70
   160
  1
%%c<>
 71
     2
 42
50.8
 52
-270.0
  3
SLDDIMSTYLE0
100
AcDbAlignedDimension
 13
-79.25000000000001
 23
25.4
 33
0.0
 14
-79.25000000000001
 24
-25.4
 34
0.0
 50
90.0000000000002
100
AcDbRotatedDimension
1001
ACAD
1000
DSTYLE
1002
{
1070
   171
1070
     6
1070
   273
1070
     7
1002
}
  0
INSERT
  5
257
330
1F
100
AcDbEntity
  8
외형선
100
AcDbBlockReference
  2
SW_DOWELSYMBOL_0
 10
0.0
 20
0.0
 30
0.0
  0
LINE
  5
27F
330
1F
100
AcDbEntity
  8
0
100
AcDbLine
 10
65.79999999999998
 20
25.39999969303609
 30
0.0
 11
65.79999999999998
 21
-25.39999969303607
 31
0.0
  0
DIMENSION
  5
280
330
1F
100
AcDbEntity
  8
치수문자_일반주서
100
AcDbDimension
  2
*D6
 10
91.51923233337845
 20
-25.39999969303607
 30
0.0
 11
88.89423233337845
 21
0.0000000000000107
 31
0.0
 70
    32
  1
{%%c<>[]}
 71
     5
 42
50.79999938607216
  3
SLDDIMSTYLE0
100
AcDbAlignedDimension
 13
65.79999999999998
 23
25.39999969303609
 33
0.0
 14
65.79999999999998
 24
-25.39999969303607
 34
0.0
 50
90.0
100
AcDbRotatedDimension
1001
ACAD
1000
DSTYLE
1002
{
1070
   283
1070
     1
1070
   170
1070
     1
1070
   171
1070
     6
1070
   273
1070
     7
1002
}
  0
LINE
  5
291
330
1F
100
AcDbEntity
  8
0
100
AcDbLine
 10
15.0
 20
0.0000000000000008
 30
0.0
 11
15.0
 21
58.24635401186126
 31
0.0
  0
LINE
  5
30D
330
1F
100
AcDbEntity
  8
0
  6
Continuous
 62
     4
370
    15
100
AcDbLine
 10
-42.32145101327899
 20
22.86
 30
0.0
 11
-24.51605101327897
 21
22.86
 31
0.0
  0
LINE
  5
30E
330
1F
100
AcDbEntity
  8
0
  6
Continuous
 62
     4
370
    15
100
AcDbLine
 10
-42.32145101327899
 20
22.8600000000001
 30
0.0
 11
-44.86145101327895
 21
25.40000000000001
 31
0.0
  0
LINE
  5
30F
330
1F
100
AcDbEntity
  8
0
  6
Continuous
 62
     4
370
    15
100
AcDbLine
 10
-24.51605101327897
 20
22.8600000000001
 30
0.0
 11
-21.97605101327906
 21
25.40000000000001
 31
0.0
  0
LINE
  5
310
330
1F
100
AcDbEntity
  8
0
  6
Continuous
 62
     4
370
    15
100
AcDbLine
 10
-80.25000101327896
 20
22.86
 30
0.0
 11
-58.81875101327898
 21
22.86
 31
0.0
  0
LINE
  5
311
330
1F
100
AcDbEntity
  8
0
  6
Continuous
 62
     4
370
    15
100
AcDbLine
 10
-58.81875101327898
 20
22.86
 30
0.0
 11
-56.27875101327896
 21
25.40000000000001
 31
0.0
  0
LINE
  5
312
330
1F
100
AcDbEntity
  8
0
  6
Continuous
 62
     4
370
    15
100
AcDbLine
 10
-56.27875101327896
 20
25.40000000000001
 30
0.0
 11
-44.86145101327895
 21
25.40000000000001
 31
0.0
  0
LINE
  5
313
330
1F
100
AcDbEntity
  8
0
  6
Continuous
 62
     4
370
    15
100
AcDbLine
 10
-44.86145070631504
 20
25.39999969303609
 30
0.0
 11
-56.27875132024288
 21
25.39999969303609
 31
0.0
  0
ENDSEC
  0
SECTION
  2
OBJECTS
  0
DICTIONARY
  5
C
330
0
100
AcDbDictionary
281
     1
  3
ACAD_DETAILVIEWSTYLE
350
299
  3
ACAD_GROUP
350
D
  3
ACAD_IMAGE_VARS
350
27B
  3
ACAD_LAYOUT
350
1A
  3
ACAD_MLINESTYLE
350
17
  3
ACAD_PLOTSETTINGS
350
19
  3
ACAD_PLOTSTYLENAME
350
E
  3
ACAD_SCALELIST
350
47
  3
ACAD_SECTIONVIEWSTYLE
350
29A
  3
AcDbVariableDictionary
350
294
  3
APPDATA
350
279
  3
DWGPROPS
350
339
  0
DICTIONARY
  5
2FE
330
2
100
AcDbDictionary
280
     1
281
     1
  3
ACAD_LAYERSTATES
360
2FF
  0
DICTIONARY
  5
337
330
1F
100
AcDbDictionary
280
     1
281
     1
  3
DIM_BOUNDING_BOXES_V1
360
338
  0
DICTIONARY
  5
299
102
{ACAD_REACTORS
330
C
102
}
330
C
100
AcDbDictionary
281
     1
  0
DICTIONARY
  5
D
102
{ACAD_REACTORS
330
C
102
}
330
C
100
AcDbDictionary
281
     1
  0
RASTERVARIABLES
  5
27B
102
{ACAD_REACTORS
330
C
102
}
330
C
100
AcDbRasterVariables
 90
        0
 70
     1
 71
     1
 72
     1
  0
DICTIONARY
  5
1A
102
{ACAD_REACTORS
330
C
102
}
330
C
100
AcDbDictionary
281
     1
  3
Layout1
350
1E
  3
Layout2
350
26
  3
Model
350
22
  0
DICTIONARY
  5
17
102
{ACAD_REACTORS
330
C
102
}
330
C
100
AcDbDictionary
281
     1
  3
Standard
350
18
  0
DICTIONARY
  5
19
102
{ACAD_REACTORS
330
C
102
}
330
C
100
AcDbDictionary
281
     1
  0
ACDBDICTIONARYWDFLT
  5
E
102
{ACAD_REACTORS
330
C
102
}
330
C
100
AcDbDictionary
281
     1
  3
Normal
350
F
100
AcDbDictionaryWithDefault
340
F
  0
DICTIONARY
  5
47
102
{ACAD_REACTORS
330
C
102
}
330
C
100
AcDbDictionary
281
     1
  3
A0
350
48
  3
A1
350
49
  3
A2
350
4A
  3
A3
350
4B
  3
A4
350
4C
  3
A5
350
4D
  3
A6
350
4E
  3
A7
350
4F
  3
A8
350
50
  3
A9
350
51
  3
B0
350
52
  3
B1
350
53
  3
B2
350
54
  3
B3
350
55
  3
B4
350
56
  3
B5
350
57
  3
B6
350
58
  3
B7
350
59
  3
B8
350
5A
  3
B9
350
5B
  3
C0
350
5C
  3
C1
350
5D
  3
C2
350
5E
  3
C3
350
5F
  3
C4
350
60
  3
C5
350
61
  3
C6
350
62
  3
C7
350
63
  3
C8
350
64
  3
C9
350
65
  3
D0
350
66
  3
D1
350
67
  3
D2
350
68
  0
DICTIONARY
  5
29A
102
{ACAD_REACTORS
330
C
102
}
330
C
100
AcDbDictionary
281
     1
  0
DICTIONARY
  5
294
102
{ACAD_REACTORS
330
C
102
}
330
C
100
AcDbDictionary
281
     1
  0
DICTIONARY
  5
279
102
{ACAD_REACTORS
330
C
102
}
330
C
100
AcDbDictionary
281
     1
  0
XRECORD
  5
339
102
{ACAD_REACTORS
330
C
102
}
330
C
100
AcDbXrecord
280
     1
  1
DWGPROPS COOKIE
  2

  3

  4

  6

  7

  8
12014102
  9

300
=
301
=
302
=
303
=
304
=
305
=
306
=
307
=
308
=
309
=
 40
0.0
 41
2458274.425237188
 42
2459724.107948704
  1

 90
        0
  0
DICTIONARY
  5
2FF
102
{ACAD_REACTORS
330
2FE
102
}
330
2FE
100
AcDbDictionary
281
     1
  0
DICTIONARY
  5
338
102
{ACAD_REACTORS
330
337
102
}
330
337
100
AcDbDictionary
281
     1
  0
LAYOUT
  5
1E
102
{ACAD_REACTORS
330
1A
102
}
330
1A
100
AcDbPlotSettings
  1

  2
none_device
  4

  6

 40
0.0
 41
0.0
 42
0.0
 43
0.0
 44
0.0
 45
0.0
 46
0.0
 47
0.0
 48
0.0
 49
0.0
140
0.0
141
0.0
142
1.0
143
1.0
 70
   688
 72
     1
 73
     0
 74
     5
  7

 75
    16
147
1.0
148
0.0
149
0.0
100
AcDbLayout
  1
Layout1
 70
     1
 71
     1
 10
0.0
 20
0.0
 11
420.0
 21
297.0
 12
0.0
 22
0.0
 32
0.0
 14
1.000000000000000E+20
 24
1.000000000000000E+20
 34
1.000000000000000E+20
 15
-1.000000000000000E+20
 25
-1.000000000000000E+20
 35
-1.000000000000000E+20
146
0.0
 13
0.0
 23
0.0
 33
0.0
 16
1.0
 26
0.0
 36
0.0
 17
0.0
 27
1.0
 37
0.0
 76
     0
330
1B
  0
LAYOUT
  5
26
102
{ACAD_REACTORS
330
1A
102
}
330
1A
100
AcDbPlotSettings
  1

  2
none_device
  4

  6

 40
0.0
 41
0.0
 42
0.0
 43
0.0
 44
0.0
 45
0.0
 46
0.0
 47
0.0
 48
0.0
 49
0.0
140
0.0
141
0.0
142
1.0
143
1.0
 70
   688
 72
     1
 73
     0
 74
     5
  7

 75
    16
147
1.0
148
0.0
149
0.0
100
AcDbLayout
  1
Layout2
 70
     1
 71
     2
 10
0.0
 20
0.0
 11
0.0
 21
0.0
 12
0.0
 22
0.0
 32
0.0
 14
0.0
 24
0.0
 34
0.0
 15
0.0
 25
0.0
 35
0.0
146
0.0
 13
0.0
 23
0.0
 33
0.0
 16
1.0
 26
0.0
 36
0.0
 17
0.0
 27
1.0
 37
0.0
 76
     0
330
23
  0
LAYOUT
  5
22
102
{ACAD_REACTORS
330
1A
102
}
330
1A
100
AcDbPlotSettings
  1

  2
none_device
  4
ANSI_A_(11.00_x_8.50_Inches)
  6

 40
6.35
 41
19.05
 42
6.35000508
 43
19.05000254
 44
279.4
 45
215.9
 46
164.891268069314
 47
81.64910503216089
 48
0.0
 49
0.0
140
0.0
141
0.0
142
0.0602180185178609
143
1.0
 70
  1696
 72
     0
 73
     0
 74
     0
  7

 75
     0
147
0.0235690232323232
148
0.0
149
0.0
100
AcDbLayout
  1
Model
 70
     1
 71
     0
 10
0.0
 20
0.0
 11
420.0
 21
297.0
 12
0.0
 22
0.0
 32
0.0
 14
-101.625
 24
-66.70888937865367
 34
0.0
 15
92.06956566671178
 25
88.03727227786342
 35
0.0
146
0.0
 13
0.0
 23
0.0
 33
0.0
 16
1.0
 26
0.0
 36
0.0
 17
0.0
 27
1.0
 37
0.0
 76
     0
330
1F
331
29
  0
MLINESTYLE
  5
18
102
{ACAD_REACTORS
330
17
102
}
330
17
100
AcDbMlineStyle
  2
Standard
 70
     0
  3

 62
   256
 51
90.0
 52
90.0
 71
     2
 49
0.5
 62
   256
  6
BYLAYER
 49
-0.5
 62
   256
  6
BYLAYER
  0
ACDBPLACEHOLDER
  5
F
102
{ACAD_REACTORS
330
E
102
}
330
E
  0
SCALE
  5
48
102
{ACAD_REACTORS
330
47
102
}
330
47
100
AcDbScale
 70
     0
300
1:1
140
1.0
141
1.0
290
     1
  0
SCALE
  5
49
102
{ACAD_REACTORS
330
47
102
}
330
47
100
AcDbScale
 70
     0
300
1:2
140
1.0
141
2.0
290
     0
  0
SCALE
  5
4A
102
{ACAD_REACTORS
330
47
102
}
330
47
100
AcDbScale
 70
     0
300
1:4
140
1.0
141
4.0
290
     0
  0
SCALE
  5
4B
102
{ACAD_REACTORS
330
47
102
}
330
47
100
AcDbScale
 70
     0
300
1:5
140
1.0
141
5.0
290
     0
  0
SCALE
  5
4C
102
{ACAD_REACTORS
330
47
102
}
330
47
100
AcDbScale
 70
     0
300
1:8
140
1.0
141
8.0
290
     0
  0
SCALE
  5
4D
102
{ACAD_REACTORS
330
47
102
}
330
47
100
AcDbScale
 70
     0
300
1:10
140
1.0
141
10.0
290
     0
  0
SCALE
  5
4E
102
{ACAD_REACTORS
330
47
102
}
330
47
100
AcDbScale
 70
     0
300
1:16
140
1.0
141
16.0
290
     0
  0
SCALE
  5
4F
102
{ACAD_REACTORS
330
47
102
}
330
47
100
AcDbScale
 70
     0
300
1:20
140
1.0
141
20.0
290
     0
  0
SCALE
  5
50
102
{ACAD_REACTORS
330
47
102
}
330
47
100
AcDbScale
 70
     0
300
1:30
140
1.0
141
30.0
290
     0
  0
SCALE
  5
51
102
{ACAD_REACTORS
330
47
102
}
330
47
100
AcDbScale
 70
     0
300
1:40
140
1.0
141
40.0
290
     0
  0
SCALE
  5
52
102
{ACAD_REACTORS
330
47
102
}
330
47
100
AcDbScale
 70
     0
300
1:50
140
1.0
141
50.0
290
     0
  0
SCALE
  5
53
102
{ACAD_REACTORS
330
47
102
}
330
47
100
AcDbScale
 70
     0
300
1:100
140
1.0
141
100.0
290
     0
  0
SCALE
  5
54
102
{ACAD_REACTORS
330
47
102
}
330
47
100
AcDbScale
 70
     0
300
2:1
140
2.0
141
1.0
290
     0
  0
SCALE
  5
55
102
{ACAD_REACTORS
330
47
102
}
330
47
100
AcDbScale
 70
     0
300
4:1
140
4.0
141
1.0
290
     0
  0
SCALE
  5
56
102
{ACAD_REACTORS
330
47
102
}
330
47
100
AcDbScale
 70
     0
300
8:1
140
8.0
141
1.0
290
     0
  0
SCALE
  5
57
102
{ACAD_REACTORS
330
47
102
}
330
47
100
AcDbScale
 70
     0
300
10:1
140
10.0
141
1.0
290
     0
  0
SCALE
  5
58
102
{ACAD_REACTORS
330
47
102
}
330
47
100
AcDbScale
 70
     0
300
100:1
140
100.0
141
1.0
290
     0
  0
SCALE
  5
59
102
{ACAD_REACTORS
330
47
102
}
330
47
100
AcDbScale
 70
     0
300
1/128" = 1'-0"
140
0.0078125
141
12.0
290
     0
  0
SCALE
  5
5A
102
{ACAD_REACTORS
330
47
102
}
330
47
100
AcDbScale
 70
     0
300
1/64" = 1'-0"
140
0.015625
141
12.0
290
     0
  0
SCALE
  5
5B
102
{ACAD_REACTORS
330
47
102
}
330
47
100
AcDbScale
 70
     0
300
1/32" = 1'-0"
140
0.03125
141
12.0
290
     0
  0
SCALE
  5
5C
102
{ACAD_REACTORS
330
47
102
}
330
47
100
AcDbScale
 70
     0
300
1/16" = 1'-0"
140
0.0625
141
12.0
290
     0
  0
SCALE
  5
5D
102
{ACAD_REACTORS
330
47
102
}
330
47
100
AcDbScale
 70
     0
300
3/32" = 1'-0"
140
0.09375
141
12.0
290
     0
  0
SCALE
  5
5E
102
{ACAD_REACTORS
330
47
102
}
330
47
100
AcDbScale
 70
     0
300
1/8" = 1'-0"
140
0.125
141
12.0
290
     0
  0
SCALE
  5
5F
102
{ACAD_REACTORS
330
47
102
}
330
47
100
AcDbScale
 70
     0
300
3/16" = 1'-0"
140
0.1875
141
12.0
290
     0
  0
SCALE
  5
60
102
{ACAD_REACTORS
330
47
102
}
330
47
100
AcDbScale
 70
     0
300
1/4" = 1'-0"
140
0.25
141
12.0
290
     0
  0
SCALE
  5
61
102
{ACAD_REACTORS
330
47
102
}
330
47
100
AcDbScale
 70
     0
300
3/8" = 1'-0"
140
0.375
141
12.0
290
     0
  0
SCALE
  5
62
102
{ACAD_REACTORS
330
47
102
}
330
47
100
AcDbScale
 70
     0
300
1/2" = 1'-0"
140
0.5
141
12.0
290
     0
  0
SCALE
  5
63
102
{ACAD_REACTORS
330
47
102
}
330
47
100
AcDbScale
 70
     0
300
3/4" = 1'-0"
140
0.75
141
12.0
290
     0
  0
SCALE
  5
64
102
{ACAD_REACTORS
330
47
102
}
330
47
100
AcDbScale
 70
     0
300
1" = 1'-0"
140
1.0
141
12.0
290
     0
  0
SCALE
  5
65
102
{ACAD_REACTORS
330
47
102
}
330
47
100
AcDbScale
 70
     0
300
1-1/2" = 1'-0"
140
1.5
141
12.0
290
     0
  0
SCALE
  5
66
102
{ACAD_REACTORS
330
47
102
}
330
47
100
AcDbScale
 70
     0
300
3" = 1'-0"
140
3.0
141
12.0
290
     0
  0
SCALE
  5
67
102
{ACAD_REACTORS
330
47
102
}
330
47
100
AcDbScale
 70
     0
300
6" = 1'-0"
140
6.0
141
12.0
290
     0
  0
SCALE
  5
68
102
{ACAD_REACTORS
330
47
102
}
330
47
100
AcDbScale
 70
     0
300
1'-0" = 1'-0"
140
12.0
141
12.0
290
     0
  0
ENDSEC
  0
EOF
