  0
SECTION
  2
HEADER
  9
$ACADVER
  1
AC1015
  9
$ACADMAINTVER
 70
     6
  9
$DWGCODEPAGE
  3
ANSI_949
  9
$INSBASE
 10
0.0
 20
0.0
 30
0.0
  9
$EXTMIN
 10
-72.87500000000003
 20
-49.97180738881174
 30
0.0
  9
$EXTMAX
 10
78.00033474596344
 20
44.25404880660642
 30
0.0
  9
$LIMMIN
 10
0.0
 20
0.0
  9
$LIMMAX
 10
420.0
 20
297.0
  9
$ORTHOMODE
 70
     0
  9
$REGENMODE
 70
     1
  9
$FILLMODE
 70
     1
  9
$QTEXTMODE
 70
     0
  9
$MIRRTEXT
 70
     1
  9
$LTSCALE
 40
1.0
  9
$ATTMODE
 70
     1
  9
$TEXTSIZE
 40
3.5
  9
$TRACEWID
 40
1.0
  9
$TEXTSTYLE
  7
Standard
  9
$CLAYER
  8
0
  9
$CELTYPE
  6
ByLayer
  9
$CECOLOR
 62
   256
  9
$CELTSCALE
 40
1.0
  9
$DISPSILH
 70
     0
  9
$DIMSCALE
 40
1.0
  9
$DIMASZ
 40
3.302
  9
$DIMEXO
 40
1.0
  9
$DIMDLI
 40
3.75
  9
$DIMRND
 40
0.0
  9
$DIMDLE
 40
0.0
  9
$DIMEXE
 40
1.0
  9
$DIMTP
 40
0.0
  9
$DIMTM
 40
0.0
  9
$DIMTXT
 40
3.5
  9
$DIMCEN
 40
2.5
  9
$DIMTSZ
 40
0.0
  9
$DIMTOL
 70
     0
  9
$DIMLIM
 70
     0
  9
$DIMTIH
 70
     1
  9
$DIMTOH
 70
     1
  9
$DIMSE1
 70
     0
  9
$DIMSE2
 70
     0
  9
$DIMTAD
 70
     1
  9
$DIMZIN
 70
     0
  9
$DIMBLK
  1

  9
$DIMASO
 70
     1
  9
$DIMSHO
 70
     1
  9
$DIMPOST
  1

  9
$DIMAPOST
  1

  9
$DIMALT
 70
     0
  9
$DIMALTD
 70
     3
  9
$DIMALTF
 40
0.0393700787401575
  9
$DIMLFAC
 40
1.0
  9
$DIMTOFL
 70
     1
  9
$DIMTVP
 40
0.0
  9
$DIMTIX
 70
     0
  9
$DIMSOXD
 70
     0
  9
$DIMSAH
 70
     0
  9
$DIMBLK1
  1

  9
$DIMBLK2
  1

  9
$DIMSTYLE
  2
ISO-25
  9
$DIMCLRD
 70
     0
  9
$DIMCLRE
 70
     0
  9
$DIMCLRT
 70
     0
  9
$DIMTFAC
 40
1.0
  9
$DIMGAP
 40
1.524
  9
$DIMJUST
 70
     0
  9
$DIMSD1
 70
     0
  9
$DIMSD2
 70
     0
  9
$DIMTOLJ
 70
     0
  9
$DIMTZIN
 70
     0
  9
$DIMALTZ
 70
     0
  9
$DIMALTTZ
 70
     0
  9
$DIMUPT
 70
     0
  9
$DIMDEC
 70
     2
  9
$DIMTDEC
 70
     2
  9
$DIMALTU
 70
     2
  9
$DIMALTTD
 70
     3
  9
$DIMTXSTY
  7
Standard
  9
$DIMAUNIT
 70
     0
  9
$DIMADEC
 70
     2
  9
$DIMALTRND
 40
0.0
  9
$DIMAZIN
 70
     0
  9
$DIMDSEP
 70
    44
  9
$DIMATFIT
 70
     3
  9
$DIMFRAC
 70
     0
  9
$DIMLDRBLK
  1

  9
$DIMLUNIT
 70
     2
  9
$DIMLWD
 70
    -2
  9
$DIMLWE
 70
    -2
  9
$DIMTMOVE
 70
     0
  9
$LUNITS
 70
     2
  9
$LUPREC
 70
     2
  9
$SKETCHINC
 40
1.0
  9
$FILLETRAD
 40
10.0
  9
$AUNITS
 70
     0
  9
$AUPREC
 70
     2
  9
$MENU
  1
.
  9
$ELEVATION
 40
0.0
  9
$PELEVATION
 40
0.0
  9
$THICKNESS
 40
0.0
  9
$LIMCHECK
 70
     0
  9
$CHAMFERA
 40
0.0
  9
$CHAMFERB
 40
0.0
  9
$CHAMFERC
 40
0.0
  9
$CHAMFERD
 40
0.0
  9
$SKPOLY
 70
     0
  9
$TDCREATE
 40
2458274.79905257
  9
$TDUCREATE
 40
2458274.42405257
  9
$TDUPDATE
 40
2459726.377496215
  9
$TDUUPDATE
 40
2459726.002496215
  9
$TDINDWG
 40
0.000718912
  9
$TDUSRTIMER
 40
0.0043484491
  9
$USRTIMER
 70
     1
  9
$ANGBASE
 50
0.0
  9
$ANGDIR
 70
     0
  9
$PDMODE
 70
     0
  9
$PDSIZE
 40
-1.0
  9
$PLINEWID
 40
0.0
  9
$SPLFRAME
 70
     0
  9
$SPLINETYPE
 70
     6
  9
$SPLINESEGS
 70
     8
  9
$HANDSEED
  5
ABD
  9
$SURFTAB1
 70
     6
  9
$SURFTAB2
 70
     6
  9
$SURFTYPE
 70
     6
  9
$SURFU
 70
     6
  9
$SURFV
 70
     6
  9
$UCSBASE
  2

  9
$UCSNAME
  2

  9
$UCSORG
 10
0.0
 20
0.0
 30
0.0
  9
$UCSXDIR
 10
1.0
 20
0.0
 30
0.0
  9
$UCSYDIR
 10
0.0
 20
1.0
 30
0.0
  9
$UCSORTHOREF
  2

  9
$UCSORTHOVIEW
 70
     0
  9
$UCSORGTOP
 10
0.0
 20
0.0
 30
0.0
  9
$UCSORGBOTTOM
 10
0.0
 20
0.0
 30
0.0
  9
$UCSORGLEFT
 10
0.0
 20
0.0
 30
0.0
  9
$UCSORGRIGHT
 10
0.0
 20
0.0
 30
0.0
  9
$UCSORGFRONT
 10
0.0
 20
0.0
 30
0.0
  9
$UCSORGBACK
 10
0.0
 20
0.0
 30
0.0
  9
$PUCSBASE
  2

  9
$PUCSNAME
  2

  9
$PUCSORG
 10
0.0
 20
0.0
 30
0.0
  9
$PUCSXDIR
 10
1.0
 20
0.0
 30
0.0
  9
$PUCSYDIR
 10
0.0
 20
1.0
 30
0.0
  9
$PUCSORTHOREF
  2

  9
$PUCSORTHOVIEW
 70
     0
  9
$PUCSORGTOP
 10
0.0
 20
0.0
 30
0.0
  9
$PUCSORGBOTTOM
 10
0.0
 20
0.0
 30
0.0
  9
$PUCSORGLEFT
 10
0.0
 20
0.0
 30
0.0
  9
$PUCSORGRIGHT
 10
0.0
 20
0.0
 30
0.0
  9
$PUCSORGFRONT
 10
0.0
 20
0.0
 30
0.0
  9
$PUCSORGBACK
 10
0.0
 20
0.0
 30
0.0
  9
$USERI1
 70
     0
  9
$USERI2
 70
     0
  9
$USERI3
 70
     0
  9
$USERI4
 70
     0
  9
$USERI5
 70
     0
  9
$USERR1
 40
0.0
  9
$USERR2
 40
0.0
  9
$USERR3
 40
0.0
  9
$USERR4
 40
0.0
  9
$USERR5
 40
0.0
  9
$WORLDVIEW
 70
     1
  9
$SHADEDGE
 70
     3
  9
$SHADEDIF
 70
    70
  9
$TILEMODE
 70
     1
  9
$MAXACTVP
 70
    64
  9
$PINSBASE
 10
0.0
 20
0.0
 30
0.0
  9
$PLIMCHECK
 70
     0
  9
$PEXTMIN
 10
1.000000000000000E+20
 20
1.000000000000000E+20
 30
1.000000000000000E+20
  9
$PEXTMAX
 10
-1.000000000000000E+20
 20
-1.000000000000000E+20
 30
-1.000000000000000E+20
  9
$PLIMMIN
 10
0.0
 20
0.0
  9
$PLIMMAX
 10
0.0
 20
0.0
  9
$UNITMODE
 70
     0
  9
$VISRETAIN
 70
     1
  9
$PLINEGEN
 70
     0
  9
$PSLTSCALE
 70
     1
  9
$TREEDEPTH
 70
  3020
  9
$CMLSTYLE
  2
Standard
  9
$CMLJUST
 70
     0
  9
$CMLSCALE
 40
20.0
  9
$PROXYGRAPHICS
 70
     1
  9
$MEASUREMENT
 70
     1
  9
$CELWEIGHT
370
    -1
  9
$ENDCAPS
280
     0
  9
$JOINSTYLE
280
     0
  9
$LWDISPLAY
290
     1
  9
$INSUNITS
 70
     4
  9
$HYPERLINKBASE
  1

  9
$STYLESHEET
  1

  9
$XEDIT
290
     1
  9
$CEPSNTYPE
380
     0
  9
$PSTYLEMODE
290
     1
  9
$FINGERPRINTGUID
  2
{DE552223-4378-4176-A2F1-439C4ABF564F}
  9
$VERSIONGUID
  2
{FAEB1C32-E019-11D5-929B-00C0DF256EC4}
  9
$EXTNAMES
290
     1
  9
$PSVPSCALE
 40
0.0
  9
$OLESTARTUP
290
     0
  0
ENDSEC
  0
SECTION
  2
CLASSES
  0
CLASS
  1
ACDBDICTIONARYWDFLT
  2
AcDbDictionaryWithDefault
  3
ObjectDBX Classes
 90
        0
280
     0
281
     0
  0
CLASS
  1
VISUALSTYLE
  2
AcDbVisualStyle
  3
ObjectDBX Classes
 90
     4095
280
     0
281
     0
  0
CLASS
  1
MATERIAL
  2
AcDbMaterial
  3
ObjectDBX Classes
 90
     1153
280
     0
281
     0
  0
CLASS
  1
SCALE
  2
AcDbScale
  3
ObjectDBX Classes
 90
     1153
280
     0
281
     0
  0
CLASS
  1
SUN
  2
AcDbSun
  3
SCENEOE
 90
     1153
280
     0
281
     0
  0
CLASS
  1
ACDBPLACEHOLDER
  2
AcDbPlaceHolder
  3
ObjectDBX Classes
 90
        0
280
     0
281
     0
  0
CLASS
  1
LAYOUT
  2
AcDbLayout
  3
ObjectDBX Classes
 90
        0
280
     0
281
     0
  0
CLASS
  1
TABLESTYLE
  2
AcDbTableStyle
  3
ObjectDBX Classes
 90
     4095
280
     0
281
     0
  0
CLASS
  1
MLEADERSTYLE
  2
AcDbMLeaderStyle
  3
ACDB_MLEADERSTYLE_CLASS
 90
     4095
280
     0
281
     0
  0
CLASS
  1
RASTERVARIABLES
  2
AcDbRasterVariables
  3
ISM
 90
        0
280
     0
281
     0
  0
CLASS
  1
DIMASSOC
  2
AcDbDimAssoc
  3
"AcDbDimAssoc|Product Desc:     AcDim ARX App For Dimension|Company:          Autodesk, Inc.|WEB Address:      www.autodesk.com"
 90
        0
280
     0
281
     0
  0
CLASS
  1
BREAKDATA
  2
AcDbBreakData
  3
ObjectDBX Classes
 90
     1024
280
     0
281
     0
  0
CLASS
  1
SORTENTSTABLE
  2
AcDbSortentsTable
  3
ObjectDBX Classes
 90
        0
280
     0
281
     0
  0
CLASS
  1
DICTIONARYVAR
  2
AcDbDictionaryVar
  3
ObjectDBX Classes
 90
        0
280
     0
281
     0
  0
ENDSEC
  0
SECTION
  2
TABLES
  0
TABLE
  2
VPORT
  5
8
330
0
100
AcDbSymbolTable
 70
     1
  0
VPORT
  5
29
330
8
100
AcDbSymbolTableRecord
100
AcDbViewportTableRecord
  2
*Active
 70
     0
 10
0.0
 20
0.0
 11
1.0
 21
1.0
 12
2.562667372981707
 22
-2.85887929110266
 13
0.0
 23
0.0
 14
10.0
 24
10.0
 15
10.0
 25
10.0
 16
0.0
 26
0.0
 36
1.0
 17
0.0
 27
0.0
 37
0.0
 40
96.11037331932653
 41
1.933774834437086
 42
50.0
 43
0.0
 44
0.0
 50
0.0
 51
0.0
 71
    16
 72
  2000
 73
     1
 74
     3
 75
     0
 76
     0
 77
     0
 78
     0
281
     0
 65
     1
110
0.0
120
0.0
130
0.0
111
1.0
121
0.0
131
0.0
112
0.0
122
1.0
132
0.0
 79
     0
146
0.0
  0
ENDTAB
  0
TABLE
  2
LTYPE
  5
5
330
0
100
AcDbSymbolTable
 70
     6
  0
LTYPE
  5
14
330
5
100
AcDbSymbolTableRecord
100
AcDbLinetypeTableRecord
  2
ByBlock
 70
     0
  3

 72
    65
 73
     0
 40
0.0
  0
LTYPE
  5
15
330
5
100
AcDbSymbolTableRecord
100
AcDbLinetypeTableRecord
  2
ByLayer
 70
     0
  3

 72
    65
 73
     0
 40
0.0
  0
LTYPE
  5
16
330
5
100
AcDbSymbolTableRecord
100
AcDbLinetypeTableRecord
  2
Continuous
 70
     0
  3
Solid line
 72
    65
 73
     0
 40
0.0
  0
LTYPE
  5
6A
330
5
100
AcDbSymbolTableRecord
100
AcDbLinetypeTableRecord
  2
HIDDEN
 70
     0
  3
Hidden __ __ __ __ __ __ __ __ __ __ __ __ __ __
 72
    65
 73
     2
 40
1.905
 49
1.27
 74
     0
 49
-0.635
 74
     0
  0
LTYPE
  5
6B
330
5
100
AcDbSymbolTableRecord
100
AcDbLinetypeTableRecord
  2
PHANTOM
 70
     0
  3
Phantom ______  __  __  ______  __  __  ______
 72
    65
 73
     6
 40
12.7
 49
6.35
 74
     0
 49
-1.27
 74
     0
 49
1.27
 74
     0
 49
-1.27
 74
     0
 49
1.27
 74
     0
 49
-1.27
 74
     0
  0
LTYPE
  5
6C
330
5
100
AcDbSymbolTableRecord
100
AcDbLinetypeTableRecord
  2
CENTER
 70
     0
  3
Center ____ _ ____ _ ____ _ ____ _ ____ _ ____
 72
    65
 73
     4
 40
10.16
 49
6.35
 74
     0
 49
-1.27
 74
     0
 49
1.27
 74
     0
 49
-1.27
 74
     0
  0
LTYPE
  5
6D
330
5
100
AcDbSymbolTableRecord
100
AcDbLinetypeTableRecord
  2
CENTERX2
 70
     0
  3
Center (2x) ________  __  ________  __  _____
 72
    65
 73
     4
 40
20.32
 49
12.7
 74
     0
 49
-2.54
 74
     0
 49
2.54
 74
     0
 49
-2.54
 74
     0
  0
LTYPE
  5
6E
330
5
100
AcDbSymbolTableRecord
100
AcDbLinetypeTableRecord
  2
DOT2
 70
     0
  3
Dot (.5x) ........................................
 72
    65
 73
     2
 40
0.635
 49
0.0
 74
     0
 49
-0.635
 74
     0
  0
ENDTAB
  0
TABLE
  2
LAYER
  5
2
102
{ACAD_XDICTIONARY
360
159
102
}
330
0
100
AcDbSymbolTable
 70
    17
  0
LAYER
  5
10
330
2
100
AcDbSymbolTableRecord
100
AcDbLayerTableRecord
  2
0
 70
     0
 62
     7
  6
Continuous
370
    -3
390
F
  0
LAYER
  5
6F
330
2
100
AcDbSymbolTableRecord
100
AcDbLayerTableRecord
  2
FORMAT
 70
     0
 62
     2
  6
Continuous
370
    -3
390
F
  0
LAYER
  5
70
330
2
100
AcDbSymbolTableRecord
100
AcDbLayerTableRecord
  2
외형선
 70
     0
 62
   100
  6
Continuous
370
    30
390
F
  0
LAYER
  5
71
330
2
100
AcDbSymbolTableRecord
100
AcDbLayerTableRecord
  2
숨은선
 70
     0
 62
     2
  6
HIDDEN
370
    15
390
F
  0
LAYER
  5
72
330
2
100
AcDbSymbolTableRecord
100
AcDbLayerTableRecord
  2
중심선
 70
     0
 62
     1
  6
CENTERX2
370
    -3
390
F
  0
LAYER
  5
73
330
2
100
AcDbSymbolTableRecord
100
AcDbLayerTableRecord
  2
파단선
 70
     0
 62
     4
  6
Continuous
370
    -3
390
F
  0
LAYER
  5
74
330
2
100
AcDbSymbolTableRecord
100
AcDbLayerTableRecord
  2
해칭선
 70
     0
 62
     4
  6
Continuous
370
    -3
390
F
  0
LAYER
  5
75
330
2
100
AcDbSymbolTableRecord
100
AcDbLayerTableRecord
  2
가는실선
 70
     0
 62
     4
  6
Continuous
370
    -3
390
F
  0
LAYER
  5
76
330
2
100
AcDbSymbolTableRecord
100
AcDbLayerTableRecord
  2
치수_보조선
 70
     0
 62
     4
  6
Continuous
370
    -3
390
F
  0
LAYER
  5
77
330
2
100
AcDbSymbolTableRecord
100
AcDbLayerTableRecord
  2
치수문자_일반주서
 70
     0
 62
     7
  6
Continuous
370
    15
390
F
  0
LAYER
  5
78
330
2
100
AcDbSymbolTableRecord
100
AcDbLayerTableRecord
  2
개별주서
 70
     0
 62
   100
  6
Continuous
370
    30
390
F
  0
LAYER
  5
79
330
2
100
AcDbSymbolTableRecord
100
AcDbLayerTableRecord
  2
중간선
 70
     0
 62
     2
  6
Continuous
370
    15
390
F
  0
LAYER
  5
7A
330
2
100
AcDbSymbolTableRecord
100
AcDbLayerTableRecord
  2
윤곽선
 70
     0
 62
     3
  6
Continuous
370
    40
390
F
  0
LAYER
  5
7B
330
2
100
AcDbSymbolTableRecord
100
AcDbLayerTableRecord
  2
중심마크
 70
     0
 62
   100
  6
Continuous
370
    30
390
F
  0
LAYER
  5
7C
330
2
100
AcDbSymbolTableRecord
100
AcDbLayerTableRecord
  2
가상선
 70
     0
 62
     4
  6
PHANTOM
370
    -3
390
F
  0
LAYER
  5
7D
330
2
100
AcDbSymbolTableRecord
100
AcDbLayerTableRecord
  2
특수지정선
 70
     0
 62
     5
  6
CENTERX2
370
    60
390
F
  0
LAYER
  5
191
330
2
100
AcDbSymbolTableRecord
100
AcDbLayerTableRecord
  2
Defpoints
 70
     0
 62
     7
  6
Continuous
290
     0
370
    -3
390
F
  0
ENDTAB
  0
TABLE
  2
STYLE
  5
3
330
0
100
AcDbSymbolTable
 70
     2
  0
STYLE
  5
11
330
3
100
AcDbSymbolTableRecord
100
AcDbTextStyleTableRecord
  2
Standard
 70
     0
 40
0.0
 41
1.0
 50
0.0
 71
     0
 42
3.5
  3
txt
  4

  0
STYLE
  5
93
330
3
100
AcDbSymbolTableRecord
100
AcDbTextStyleTableRecord
  2
SLDTEXTSTYLE0
 70
     0
 40
0.0
 41
0.75
 50
0.0
 71
     0
 42
3.5
  3
TXT
  4

  0
ENDTAB
  0
TABLE
  2
VIEW
  5
6
330
0
100
AcDbSymbolTable
 70
     0
  0
ENDTAB
  0
TABLE
  2
UCS
  5
7
330
0
100
AcDbSymbolTable
 70
     0
  0
ENDTAB
  0
TABLE
  2
APPID
  5
9
330
0
100
AcDbSymbolTable
 70
     3
  0
APPID
  5
12
330
9
100
AcDbSymbolTableRecord
100
AcDbRegAppTableRecord
  2
ACAD
 70
     0
  0
APPID
  5
91B
330
9
100
AcDbSymbolTableRecord
100
AcDbRegAppTableRecord
  2
ENABLE_CUSTOM_SPLIT
 70
     0
  0
APPID
  5
91C
330
9
100
AcDbSymbolTableRecord
100
AcDbRegAppTableRecord
  2
PE_URL
 70
     0
  0
ENDTAB
  0
TABLE
  2
DIMSTYLE
  5
A
330
0
100
AcDbSymbolTable
 70
     3
100
AcDbDimStyleTable
  0
DIMSTYLE
105
27
330
A
100
AcDbSymbolTableRecord
100
AcDbDimStyleTableRecord
  2
ISO-25
 70
     0
 41
2.5
 42
0.625
 43
3.75
 44
1.25
 73
     0
 74
     0
 77
     1
 78
     8
140
2.5
141
2.5
143
0.03937007874016
147
0.625
171
     3
172
     1
178
     0
271
     2
272
     2
274
     3
278
    44
283
     0
284
     8
340
11
  0
DIMSTYLE
105
C9
102
{ACAD_REACTORS
330
3BA
330
3C7
330
3EB
330
8A0
330
8AD
330
8D1
102
}
330
A
100
AcDbSymbolTableRecord
100
AcDbDimStyleTableRecord
  2
SLDDIMSTYLE0
 70
     0
 41
3.302
 44
0.0
 45
0.000000001
 73
     0
 74
     0
 77
     1
 78
     4
 79
     1
140
3.5
143
0.0393700787401575
147
0.875
148
0.000000001
170
     1
173
     1
178
     0
271
     2
272
     2
276
     2
284
    12
340
93
  0
DIMSTYLE
105
F0
102
{ACAD_REACTORS
330
EF
330
3D4
330
8BA
330
90A
330
C8
330
DC
102
}
330
A
100
AcDbSymbolTableRecord
100
AcDbDimStyleTableRecord
  2
SLDDIMSTYLE1
 70
     0
 41
3.302
 44
0.0
 45
0.000000001
 73
     0
 74
     0
 77
     1
 78
    12
 79
     3
140
3.5
143
0.0393700787401575
147
0.875
148
0.000000001
170
     1
173
     1
178
     0
271
     2
272
     2
276
     2
284
    12
340
93
  0
ENDTAB
  0
TABLE
  2
BLOCK_RECORD
  5
1
330
0
100
AcDbSymbolTable
 70
    19
  0
BLOCK_RECORD
  5
1F
102
{ACAD_XDICTIONARY
360
ABA
102
}
330
1
100
AcDbSymbolTableRecord
100
AcDbBlockTableRecord
  2
*Model_Space
340
22
  0
BLOCK_RECORD
  5
1B
330
1
100
AcDbSymbolTableRecord
100
AcDbBlockTableRecord
  2
*Paper_Space
340
1E
  0
BLOCK_RECORD
  5
23
330
1
100
AcDbSymbolTableRecord
100
AcDbBlockTableRecord
  2
*Paper_Space0
340
26
  0
BLOCK_RECORD
  5
7E
330
1
100
AcDbSymbolTableRecord
100
AcDbBlockTableRecord
  2
블럭10
340
0
102
{BLKREFS
331
C0
102
}
  0
BLOCK_RECORD
  5
CA
330
1
100
AcDbSymbolTableRecord
100
AcDbBlockTableRecord
  2
_D
340
0
  0
BLOCK_RECORD
  5
DD
330
1
100
AcDbSymbolTableRecord
100
AcDbBlockTableRecord
  2
_D_1
340
0
  0
BLOCK_RECORD
  5
F1
330
1
100
AcDbSymbolTableRecord
100
AcDbBlockTableRecord
  2
_D_2
340
0
  0
BLOCK_RECORD
  5
102
330
1
100
AcDbSymbolTableRecord
100
AcDbBlockTableRecord
  2
SW_DOWELSYMBOL_0
340
0
102
{BLKREFS
331
108
331
3E4
331
0
331
8CA
102
}
  0
BLOCK_RECORD
  5
3EC
330
1
100
AcDbSymbolTableRecord
100
AcDbBlockTableRecord
  2
*D7
340
0
  0
BLOCK_RECORD
  5
3FF
330
1
100
AcDbSymbolTableRecord
100
AcDbBlockTableRecord
  2
*D8
340
0
  0
BLOCK_RECORD
  5
40B
330
1
100
AcDbSymbolTableRecord
100
AcDbBlockTableRecord
  2
*D9
340
0
  0
BLOCK_RECORD
  5
417
330
1
100
AcDbSymbolTableRecord
100
AcDbBlockTableRecord
  2
*D10
340
0
  0
BLOCK_RECORD
  5
645
330
1
100
AcDbSymbolTableRecord
100
AcDbBlockTableRecord
  2
*D11
340
0
  0
BLOCK_RECORD
  5
651
330
1
100
AcDbSymbolTableRecord
100
AcDbBlockTableRecord
  2
*D12
340
0
  0
BLOCK_RECORD
  5
65D
330
1
100
AcDbSymbolTableRecord
100
AcDbBlockTableRecord
  2
*D13
340
0
  0
BLOCK_RECORD
  5
66A
330
1
100
AcDbSymbolTableRecord
100
AcDbBlockTableRecord
  2
*D14
340
0
  0
BLOCK_RECORD
  5
8D2
330
1
100
AcDbSymbolTableRecord
100
AcDbBlockTableRecord
  2
*D16
340
0
  0
BLOCK_RECORD
  5
8E5
330
1
100
AcDbSymbolTableRecord
100
AcDbBlockTableRecord
  2
*D17
340
0
  0
BLOCK_RECORD
  5
8F1
330
1
100
AcDbSymbolTableRecord
100
AcDbBlockTableRecord
  2
*D18
340
0
  0
BLOCK_RECORD
  5
8FD
330
1
100
AcDbSymbolTableRecord
100
AcDbBlockTableRecord
  2
*D19
340
0
  0
BLOCK_RECORD
  5
90D
330
1
100
AcDbSymbolTableRecord
100
AcDbBlockTableRecord
  2
*D20
340
0
  0
ENDTAB
  0
ENDSEC
  0
SECTION
  2
BLOCKS
  0
BLOCK
  5
20
330
1F
100
AcDbEntity
  8
0
100
AcDbBlockBegin
  2
*Model_Space
 70
     0
 10
0.0
 20
0.0
 30
0.0
  3
*Model_Space
  1
*Model_Space
  0
ENDBLK
  5
21
330
1F
100
AcDbEntity
  8
0
100
AcDbBlockEnd
  0
BLOCK
  5
1C
330
1B
100
AcDbEntity
 67
     1
  8
0
100
AcDbBlockBegin
  2
*Paper_Space
 70
     0
 10
0.0
 20
0.0
 30
0.0
  3
*Paper_Space
  1
*Paper_Space
  0
ENDBLK
  5
1D
330
1B
100
AcDbEntity
 67
     1
  8
0
100
AcDbBlockEnd
  0
BLOCK
  5
24
330
23
100
AcDbEntity
  8
0
100
AcDbBlockBegin
  2
*Paper_Space0
 70
     0
 10
0.0
 20
0.0
 30
0.0
  3
*Paper_Space0
  1
*Paper_Space0
  0
ENDBLK
  5
25
330
23
100
AcDbEntity
  8
0
100
AcDbBlockEnd
  0
BLOCK
  5
7F
330
7E
100
AcDbEntity
  8
0
100
AcDbBlockBegin
  2
블럭10
 70
     2
 10
0.0
 20
0.0
 30
0.0
  3
블럭10
  1
블럭10
  0
ELLIPSE
  5
81
330
7E
100
AcDbEntity
  8
중심선
100
AcDbEllipse
 10
20.54032771741204
 20
12.0471743016438
 30
0.0
 11
6.600054785286829
 21
-1.261213355974178E-13
 31
0.0
210
0.0
220
0.0
230
1.0
 40
0.636358354079598
 41
0.9219305317359503
 42
6.513795318482858
  0
ELLIPSE
  5
82
330
7E
100
AcDbEntity
  8
중심선
100
AcDbEllipse
 10
20.54032771746488
 20
12.04717430159265
 30
0.0
 11
3.960054785062283
 21
1.540847449632565E-10
 31
0.0
210
0.0
220
0.0
230
1.0
 40
0.3939339440162632
 41
1.131841032648279
 42
5.62031148352944
  0
LINE
  5
83
330
7E
100
AcDbEntity
  8
중심선
100
AcDbLine
 10
2.268634060543552
 20
16.24717430164393
 30
0.0
 11
5.714909304380834
 21
16.24717430164393
 31
0.0
  0
LINE
  5
84
330
7E
100
AcDbEntity
  8
중심선
100
AcDbLine
 10
5.245725140726316
 20
7.84717430164391
 30
0.0
 11
8.692000384563599
 21
7.84717430164391
 31
0.0
  0
LINE
  5
85
330
7E
100
AcDbEntity
  8
중심선
100
AcDbLine
 10
15.74043728645272
 20
16.24717430164393
 30
0.0
 11
8.692000384563599
 21
7.84717430164391
 31
0.0
  0
LINE
  5
86
330
7E
100
AcDbEntity
  8
중심선
100
AcDbLine
 10
0.1404042013395286
 20
13.71084872107135
 30
0.0
 11
3.58671253028996
 21
13.71088815037384
 31
0.0
  0
LINE
  5
87
330
7E
100
AcDbEntity
  8
중심선
100
AcDbLine
 10
2.750260043222114
 20
10.84717430164391
 30
0.0
 11
6.196535287059397
 21
10.84717430164391
 31
0.0
  0
LINE
  5
88
330
7E
100
AcDbEntity
  8
중심선
100
AcDbLine
 10
12.29416204261559
 20
16.24717430164393
 30
0.0
 11
5.245725140726316
 21
7.84717430164391
 31
0.0
  0
LINE
  5
89
330
7E
100
AcDbEntity
  8
중심선
100
AcDbLine
 10
10.72767329541681
 20
16.24717430164393
 30
0.0
 11
6.196535287059397
 21
10.84717430164391
 31
0.0
  0
LINE
  5
8A
330
7E
100
AcDbEntity
  8
중심선
100
AcDbLine
 10
7.28139805157953
 20
16.24717430164393
 30
0.0
 11
2.750260043222114
 21
10.84717430164391
 31
0.0
  0
LINE
  5
8B
330
7E
100
AcDbEntity
  8
중심선
100
AcDbLine
 10
5.714909304380834
 20
16.24717430164393
 30
0.0
 11
3.58671253028996
 21
13.71088815037384
 31
0.0
  0
LINE
  5
8C
330
7E
100
AcDbEntity
  8
중심선
100
AcDbLine
 10
2.268634060543552
 20
16.24717430164393
 30
0.0
 11
0.1404042013395286
 21
13.71084872107135
 31
0.0
  0
LINE
  5
8D
330
7E
100
AcDbEntity
  8
중심선
100
AcDbLine
 10
7.28139805157953
 20
16.24717430164393
 30
0.0
 11
10.72767329541681
 21
16.24717430164393
 31
0.0
  0
LINE
  5
8E
330
7E
100
AcDbEntity
  8
중심선
100
AcDbLine
 10
12.29416204261559
 20
16.24717430164393
 30
0.0
 11
15.74043728645272
 21
16.24717430164393
 31
0.0
  0
LINE
  5
8F
330
7E
100
AcDbEntity
  8
중심선
100
AcDbLine
 10
19.22036997980202
 20
11.08717430171403
 30
0.0
 11
23.66174974927406
 21
11.08717430171406
 31
0.0
  0
LINE
  5
90
330
7E
100
AcDbEntity
  8
중심선
100
AcDbLine
 10
19.22039502424796
 20
13.00717430171391
 30
0.0
 11
19.22036997980202
 21
11.08717430171403
 31
0.0
  0
LINE
  5
91
330
7E
100
AcDbEntity
  8
중심선
100
AcDbLine
 10
19.22039502424796
 20
13.00717430171391
 30
0.0
 11
26.96566020931264
 21
13.00717430171391
 31
0.0
  0
LINE
  5
92
330
7E
100
AcDbEntity
  8
중심선
100
AcDbLine
 10
22.22332737316547
 20
13.45928029700563
 30
0.0
 11
24.52862924686651
 21
15.39360700705356
 31
0.0
  0
ATTDEF
  5
94
330
7E
100
AcDbEntity
  8
FORMAT
 62
     2
100
AcDbText
 10
-9.34984418565004
 20
2.075366912832191
 30
0.0
 40
4.233333333333333
  1
EK191116 [ 3 FLUTE ]
 41
0.75
  7
SLDTEXTSTYLE0
 11
-9.34984418565004
 21
-0.0412997538344756
 31
0.0
100
AcDbAttributeDefinition
  3

  2
AUTOATTR0
 70
     0
 74
     1
  0
ENDBLK
  5
80
330
7E
100
AcDbEntity
  8
0
100
AcDbBlockEnd
  0
BLOCK
  5
CB
330
CA
100
AcDbEntity
  8
0
100
AcDbBlockBegin
  2
_D
 70
     0
 10
0.0
 20
0.0
 30
0.0
  3
_D
  1
_D
  0
LINE
  5
CD
330
CA
100
AcDbEntity
  8
치수문자_일반주서
 62
     0
370
    -2
100
AcDbLine
 10
62.80000000000003
 20
10.35486895923693
 30
0.0
 11
62.80000000000004
 21
24.5215240693906
 31
0.0
  0
LINE
  5
CE
330
CA
100
AcDbEntity
  8
치수문자_일반주서
 62
     0
370
    -2
100
AcDbLine
 10
12.00000000000001
 20
11.99748363831598
 30
0.0
 11
12.00000000000002
 21
24.5215240693906
 31
0.0
  0
LINE
  5
CF
330
CA
100
AcDbEntity
  8
치수문자_일반주서
 62
     0
370
    -2
100
AcDbLine
 10
59.49800000000004
 20
24.5215240693906
 30
0.0
 11
15.30200000000002
 21
24.5215240693906
 31
0.0
  0
SOLID
  5
D0
330
CA
100
AcDbEntity
  8
치수문자_일반주서
 62
     0
100
AcDbTrace
 10
59.49800000000004
 20
23.97119073605727
 30
0.0
 11
59.49800000000004
 21
25.07185740272394
 31
0.0
 12
62.80000000000004
 22
24.5215240693906
 32
0.0
 13
62.80000000000004
 23
24.5215240693906
 33
0.0
  0
SOLID
  5
D1
330
CA
100
AcDbEntity
  8
치수문자_일반주서
 62
     0
100
AcDbTrace
 10
15.30200000000002
 20
25.07185740272394
 30
0.0
 11
15.30200000000002
 21
23.97119073605727
 31
0.0
 12
12.00000000000002
 22
24.5215240693906
 32
0.0
 13
12.00000000000002
 23
24.5215240693906
 33
0.0
  0
MTEXT
  5
D2
330
CA
100
AcDbEntity
  8
치수문자_일반주서
 62
     0
100
AcDbMText
 10
31.95247057532184
 20
28.8965240693906
 30
0.0
 40
3.5
 41
0.0
 71
     2
 72
     1
  1
\A1;50.8 [2]
  7
SLDTEXTSTYLE0
 73
     1
 44
1.0
  0
POINT
  5
D3
330
CA
100
AcDbEntity
  8
Defpoints
 62
     0
100
AcDbPoint
 10
62.80000000000003
 20
10.29236895923693
 30
0.0
  0
POINT
  5
D4
330
CA
100
AcDbEntity
  8
Defpoints
 62
     0
100
AcDbPoint
 10
12.00000000000001
 20
11.93498363831598
 30
0.0
  0
POINT
  5
D5
330
CA
100
AcDbEntity
  8
Defpoints
 62
     0
100
AcDbPoint
 10
12.00000000000001
 20
24.52152406939059
 30
0.0
  0
ENDBLK
  5
CC
330
CA
100
AcDbEntity
  8
0
100
AcDbBlockEnd
  0
BLOCK
  5
DE
330
DD
100
AcDbEntity
  8
0
100
AcDbBlockBegin
  2
_D_1
 70
     0
 10
0.0
 20
0.0
 30
0.0
  3
_D_1
  1
_D_1
  0
LINE
  5
E0
330
DD
100
AcDbEntity
  8
치수문자_일반주서
 62
     0
370
    -2
100
AcDbLine
 10
-51.49999999999999
 20
14.95074352126494
 30
0.0
 11
-51.49999999999999
 21
39.87904880660641
 31
0.0
  0
LINE
  5
E1
330
DD
100
AcDbEntity
  8
치수문자_일반주서
 62
     0
370
    -2
100
AcDbLine
 10
62.80000000000003
 20
10.35486895923693
 30
0.0
 11
62.80000000000004
 21
39.87904880660641
 31
0.0
  0
LINE
  5
E2
330
DD
100
AcDbEntity
  8
치수문자_일반주서
 62
     0
370
    -2
100
AcDbLine
 10
-48.19799999999999
 20
39.87904880660641
 30
0.0
 11
59.49800000000004
 21
39.87904880660641
 31
0.0
  0
SOLID
  5
E3
330
DD
100
AcDbEntity
  8
치수문자_일반주서
 62
     0
100
AcDbTrace
 10
-48.19799999999999
 20
40.42938213993975
 30
0.0
 11
-48.19799999999999
 21
39.32871547327308
 31
0.0
 12
-51.49999999999999
 22
39.87904880660641
 32
0.0
 13
-51.49999999999999
 23
39.87904880660641
 33
0.0
  0
SOLID
  5
E4
330
DD
100
AcDbEntity
  8
치수문자_일반주서
 62
     0
100
AcDbTrace
 10
59.49800000000004
 20
39.32871547327308
 30
0.0
 11
59.49800000000004
 21
40.42938213993975
 31
0.0
 12
62.80000000000004
 22
39.87904880660641
 32
0.0
 13
62.80000000000004
 23
39.87904880660641
 33
0.0
  0
MTEXT
  5
E5
330
DD
100
AcDbEntity
  8
치수문자_일반주서
 62
     0
100
AcDbMText
 10
6.90763195993615
 20
44.25404880660641
 30
0.0
 40
3.5
 41
0.0
 71
     2
 72
     1
  1
\A1;114.3 [4 1/2]
  7
SLDTEXTSTYLE0
 73
     1
 44
1.0
  0
POINT
  5
E6
330
DD
100
AcDbEntity
  8
Defpoints
 62
     0
100
AcDbPoint
 10
-51.49999999999999
 20
14.88824352126494
 30
0.0
  0
POINT
  5
E7
330
DD
100
AcDbEntity
  8
Defpoints
 62
     0
100
AcDbPoint
 10
62.80000000000003
 20
10.29236895923693
 30
0.0
  0
POINT
  5
E8
330
DD
100
AcDbEntity
  8
Defpoints
 62
     0
100
AcDbPoint
 10
62.80000000000003
 20
39.87904880660641
 30
0.0
  0
ENDBLK
  5
DF
330
DD
100
AcDbEntity
  8
0
100
AcDbBlockEnd
  0
BLOCK
  5
F2
330
F1
100
AcDbEntity
  8
0
100
AcDbBlockBegin
  2
_D_2
 70
     0
 10
0.0
 20
0.0
 30
0.0
  3
_D_2
  1
_D_2
  0
LINE
  5
F4
330
F1
100
AcDbEntity
  8
치수문자_일반주서
 62
     0
370
    -2
100
AcDbLine
 10
-50.56249999999999
 20
15.88824352126494
 30
0.0
 11
-68.50000000000003
 21
15.88824352126488
 31
0.0
  0
LINE
  5
F5
330
F1
100
AcDbEntity
  8
치수문자_일반주서
 62
     0
370
    -2
100
AcDbLine
 10
-50.56249999999999
 20
-15.86175647873506
 30
0.0
 11
-68.49999999999991
 21
-15.86175647873512
 31
0.0
  0
LINE
  5
F6
330
F1
100
AcDbEntity
  8
치수문자_일반주서
 62
     0
370
    -2
100
AcDbLine
 10
-68.50000000000001
 20
12.58624352126488
 30
0.0
 11
-68.49999999999993
 21
-12.55975647873512
 31
0.0
  0
SOLID
  5
F7
330
F1
100
AcDbEntity
  8
치수문자_일반주서
 62
     0
100
AcDbTrace
 10
-67.94966666666669
 20
12.58624352126488
 30
0.0
 11
-69.05033333333334
 21
12.58624352126488
 31
0.0
 12
-68.50000000000003
 22
15.88824352126488
 32
0.0
 13
-68.50000000000003
 23
15.88824352126488
 33
0.0
  0
SOLID
  5
F8
330
F1
100
AcDbEntity
  8
치수문자_일반주서
 62
     0
100
AcDbTrace
 10
-69.05033333333326
 20
-12.55975647873512
 30
0.0
 11
-67.9496666666666
 21
-12.55975647873512
 31
0.0
 12
-68.49999999999991
 22
-15.86175647873512
 32
0.0
 13
-68.49999999999991
 23
-15.86175647873512
 33
0.0
  0
MTEXT
  5
F9
330
F1
100
AcDbEntity
  8
치수문자_일반주서
 62
     0
100
AcDbMText
 10
-72.87499999999997
 20
-0.2963144853863606
 30
0.0
 40
3.5
 41
0.0
 71
     2
 72
     1
  1
\A1;%%c31.75 [1 1/4]
  7
SLDTEXTSTYLE0
 11
-3.580687802255623E-15
 21
1.0
 31
0.0
 73
     1
 44
1.0
  0
POINT
  5
FA
330
F1
100
AcDbEntity
  8
Defpoints
 62
     0
100
AcDbPoint
 10
-50.49999999999999
 20
15.88824352126494
 30
0.0
  0
POINT
  5
FB
330
F1
100
AcDbEntity
  8
Defpoints
 62
     0
100
AcDbPoint
 10
-50.49999999999999
 20
-15.86175647873506
 30
0.0
  0
POINT
  5
FC
330
F1
100
AcDbEntity
  8
Defpoints
 62
     0
100
AcDbPoint
 10
-68.49999999999997
 20
-15.86175647873512
 30
0.0
  0
ENDBLK
  5
F3
330
F1
100
AcDbEntity
  8
0
100
AcDbBlockEnd
  0
BLOCK
  5
103
330
102
100
AcDbEntity
  8
0
100
AcDbBlockBegin
  2
SW_DOWELSYMBOL_0
 70
     0
 10
0.0
 20
0.0
 30
0.0
  3
SW_DOWELSYMBOL_0
  1
SW_DOWELSYMBOL_0
  0
CIRCLE
  5
105
330
102
100
AcDbEntity
  8
외형선
 62
     0
100
AcDbCircle
 10
0.0
 20
0.0
 30
0.0
 40
3.000000000000001
  0
HATCH
  5
106
330
102
100
AcDbEntity
  8
0
  6
Continuous
 62
     0
370
    30
100
AcDbHatch
 10
0.0
 20
0.0
 30
0.0
210
0.0
220
0.0
230
1.0
  2
SOLID
 70
     1
 71
     0
 91
        1
 92
        0
 93
        3
 72
     2
 10
0.0
 20
0.0
 40
3.000000000000001
 50
0.0
 51
90.0
 73
     1
 72
     1
 10
0.0
 20
3.000000000000001
 11
0.0
 21
0.0
 72
     1
 10
0.0
 20
0.0
 11
3.000000000000003
 21
0.0
 97
        0
 75
     0
 76
     1
 98
        1
 10
0.0
 20
0.0
  0
HATCH
  5
107
330
102
100
AcDbEntity
  8
0
  6
Continuous
 62
     0
370
    30
100
AcDbHatch
 10
0.0
 20
0.0
 30
0.0
210
0.0
220
0.0
230
1.0
  2
SOLID
 70
     1
 71
     0
 91
        1
 92
        0
 93
        3
 72
     2
 10
0.0
 20
0.0
 40
3.000000000000001
 50
180.0
 51
270.0000000000007
 73
     1
 72
     1
 10
0.0
 20
-3.000000000000001
 11
0.0
 21
0.0
 72
     1
 10
0.0
 20
0.0
 11
-3.000000000000003
 21
0.0
 97
        0
 75
     0
 76
     1
 98
        1
 10
0.0
 20
0.0
  0
ENDBLK
  5
104
330
102
100
AcDbEntity
  8
0
100
AcDbBlockEnd
  0
BLOCK
  5
3ED
330
3EC
100
AcDbEntity
  8
0
100
AcDbBlockBegin
  2
*D7
 70
     1
 10
0.0
 20
0.0
 30
0.0
  3
*D7
  1
*D6
  0
LINE
  5
3EE
330
3EC
100
AcDbEntity
  8
치수문자_일반주서
 62
     0
370
    -2
100
AcDbLine
 10
119.8625000000001
 20
6.603999882280899
 30
0.0
 11
142.3611990436587
 21
6.603999882280899
 31
0.0
  0
LINE
  5
3EF
330
3EC
100
AcDbEntity
  8
치수문자_일반주서
 62
     0
370
    -2
100
AcDbLine
 10
119.8625000000001
 20
25.65400011771925
 30
0.0
 11
142.3611990436587
 21
25.65400011771925
 31
0.0
  0
LINE
  5
3F0
330
3EC
100
AcDbEntity
  8
치수문자_일반주서
 62
     0
370
    -2
100
AcDbLine
 10
142.3611990436587
 20
25.65400011771925
 30
0.0
 11
142.3611990436587
 21
56.51850011771925
 31
0.0
  0
LINE
  5
3F1
330
3EC
100
AcDbEntity
  8
치수문자_일반주서
 62
     0
370
    -2
100
AcDbLine
 10
142.3611990436587
 20
9.905999882280899
 30
0.0
 11
142.3611990436587
 21
22.35200011771925
 31
0.0
  0
SOLID
  5
3F2
330
3EC
100
AcDbEntity
  8
치수문자_일반주서
 62
     0
100
AcDbTrace
 10
141.8108657103254
 20
9.905999882280899
 30
0.0
 11
142.911532376992
 21
9.905999882280899
 31
0.0
 12
142.3611990436587
 22
6.603999882280899
 32
0.0
 13
142.3611990436587
 23
6.603999882280899
 33
0.0
  0
SOLID
  5
3F3
330
3EC
100
AcDbEntity
  8
치수문자_일반주서
 62
     0
100
AcDbTrace
 10
142.911532376992
 20
22.35200011771925
 30
0.0
 11
141.8108657103254
 21
22.35200011771925
 31
0.0
 12
142.3611990436587
 22
25.65400011771925
 32
0.0
 13
142.3611990436587
 23
25.65400011771925
 33
0.0
  0
MTEXT
  5
3F4
330
3EC
100
AcDbEntity
  8
치수문자_일반주서
 62
     0
100
AcDbMText
 10
139.7361990436587
 20
42.73725011771925
 30
0.0
 40
3.5
 41
0.0
 71
     5
 72
     1
  1
\A1;{%%c19.05 [3/4]}
  7
SLDTEXTSTYLE0
 11
0.0
 21
1.0
 31
0.0
 73
     1
 44
1.0
  0
POINT
  5
3F5
330
3EC
100
AcDbEntity
  8
Defpoints
 62
     0
100
AcDbPoint
 10
119.8000000000001
 20
6.603999882280899
 30
0.0
  0
POINT
  5
3F6
330
3EC
100
AcDbEntity
  8
Defpoints
 62
     0
100
AcDbPoint
 10
119.8000000000001
 20
25.65400011771925
 30
0.0
  0
POINT
  5
3F7
330
3EC
100
AcDbEntity
  8
Defpoints
 62
     0
100
AcDbPoint
 10
142.3611990436587
 20
25.65400011771925
 30
0.0
  0
ENDBLK
  5
3F8
330
3EC
100
AcDbEntity
  8
0
100
AcDbBlockEnd
  0
BLOCK
  5
400
330
3FF
100
AcDbEntity
  8
0
100
AcDbBlockBegin
  2
*D8
 70
     1
 10
0.0
 20
0.0
 30
0.0
  3
*D8
  1

  0
LINE
  5
402
330
3FF
100
AcDbEntity
  8
치수문자_일반주서
 62
     0
370
    -2
100
AcDbLine
 10
119.8625000000001
 20
25.71650011771925
 30
0.0
 11
119.8625000000001
 21
36.5256303729364
 31
0.0
  0
LINE
  5
403
330
3FF
100
AcDbEntity
  8
치수문자_일반주서
 62
     0
370
    -2
100
AcDbLine
 10
78.52500000000012
 20
25.71650000000007
 30
0.0
 11
78.52500000000012
 21
36.5256303729364
 31
0.0
  0
LINE
  5
404
330
3FF
100
AcDbEntity
  8
치수문자_일반주서
 62
     0
370
    -2
100
AcDbLine
 10
116.5605000000001
 20
36.5256303729364
 30
0.0
 11
81.82700000000013
 21
36.5256303729364
 31
0.0
  0
SOLID
  5
405
330
3FF
100
AcDbEntity
  8
치수문자_일반주서
 62
     0
100
AcDbTrace
 10
116.5605000000001
 20
35.97529703960306
 30
0.0
 11
116.5605000000001
 21
37.07596370626973
 31
0.0
 12
119.8625000000001
 22
36.5256303729364
 32
0.0
 13
119.8625000000001
 23
36.5256303729364
 33
0.0
  0
SOLID
  5
406
330
3FF
100
AcDbEntity
  8
치수문자_일반주서
 62
     0
100
AcDbTrace
 10
81.82700000000013
 20
37.07596370626973
 30
0.0
 11
81.82700000000013
 21
35.97529703960306
 31
0.0
 12
78.52500000000012
 22
36.5256303729364
 32
0.0
 13
78.52500000000012
 23
36.5256303729364
 33
0.0
  0
MTEXT
  5
407
330
3FF
100
AcDbEntity
  8
치수문자_일반주서
 62
     0
100
AcDbMText
 10
99.16250000000012
 20
40.9006303729364
 30
0.0
 40
3.5
 41
0.0
 71
     2
 72
     1
  1
\A1;41.34 [1 5/8]
  7
SLDTEXTSTYLE0
 73
     1
 44
1.0
  0
POINT
  5
408
330
3FF
100
AcDbEntity
  8
Defpoints
 62
     0
100
AcDbPoint
 10
119.8625000000001
 20
25.65400011771925
 30
0.0
  0
POINT
  5
409
330
3FF
100
AcDbEntity
  8
Defpoints
 62
     0
100
AcDbPoint
 10
78.52500000000012
 20
25.65400000000007
 30
0.0
  0
POINT
  5
40A
330
3FF
100
AcDbEntity
  8
Defpoints
 62
     0
100
AcDbPoint
 10
78.52500000000012
 20
36.5256303729364
 30
0.0
  0
ENDBLK
  5
401
330
3FF
100
AcDbEntity
  8
0
100
AcDbBlockEnd
  0
BLOCK
  5
40C
330
40B
100
AcDbEntity
  8
0
100
AcDbBlockBegin
  2
*D9
 70
     1
 10
0.0
 20
0.0
 30
0.0
  3
*D9
  1

  0
LINE
  5
40E
330
40B
100
AcDbEntity
  8
치수문자_일반주서
 62
     0
370
    -2
100
AcDbLine
 10
21.37500000000011
 20
24.71650000000007
 30
0.0
 11
21.37500000000011
 21
49.64480528534154
 31
0.0
  0
LINE
  5
40F
330
40B
100
AcDbEntity
  8
치수문자_일반주서
 62
     0
370
    -2
100
AcDbLine
 10
119.8625000000001
 20
25.71650011771925
 30
0.0
 11
119.8625000000001
 21
49.64480528534154
 31
0.0
  0
LINE
  5
410
330
40B
100
AcDbEntity
  8
치수문자_일반주서
 62
     0
370
    -2
100
AcDbLine
 10
24.67700000000011
 20
49.64480528534154
 30
0.0
 11
116.5605000000001
 21
49.64480528534154
 31
0.0
  0
SOLID
  5
411
330
40B
100
AcDbEntity
  8
치수문자_일반주서
 62
     0
100
AcDbTrace
 10
24.67700000000011
 20
50.19513861867487
 30
0.0
 11
24.67700000000011
 21
49.09447195200821
 31
0.0
 12
21.37500000000011
 22
49.64480528534154
 32
0.0
 13
21.37500000000011
 23
49.64480528534154
 33
0.0
  0
SOLID
  5
412
330
40B
100
AcDbEntity
  8
치수문자_일반주서
 62
     0
100
AcDbTrace
 10
116.5605000000001
 20
49.09447195200821
 30
0.0
 11
116.5605000000001
 21
50.19513861867487
 31
0.0
 12
119.8625000000001
 22
49.64480528534154
 32
0.0
 13
119.8625000000001
 23
49.64480528534154
 33
0.0
  0
MTEXT
  5
413
330
40B
100
AcDbEntity
  8
치수문자_일반주서
 62
     0
100
AcDbMText
 10
70.58750000000012
 20
54.01980528534154
 30
0.0
 40
3.5
 41
0.0
 71
     2
 72
     1
  1
\A1;98.49 [3 7/8]
  7
SLDTEXTSTYLE0
 73
     1
 44
1.0
  0
POINT
  5
414
330
40B
100
AcDbEntity
  8
Defpoints
 62
     0
100
AcDbPoint
 10
21.37500000000011
 20
24.65400000000007
 30
0.0
  0
POINT
  5
415
330
40B
100
AcDbEntity
  8
Defpoints
 62
     0
100
AcDbPoint
 10
119.8625000000001
 20
25.65400011771925
 30
0.0
  0
POINT
  5
416
330
40B
100
AcDbEntity
  8
Defpoints
 62
     0
100
AcDbPoint
 10
119.8625000000001
 20
49.64480528534154
 30
0.0
  0
ENDBLK
  5
40D
330
40B
100
AcDbEntity
  8
0
100
AcDbBlockEnd
  0
BLOCK
  5
418
330
417
100
AcDbEntity
  8
0
100
AcDbBlockBegin
  2
*D10
 70
     1
 10
0.0
 20
0.0
 30
0.0
  3
*D10
  1

  0
LINE
  5
41A
330
417
100
AcDbEntity
  8
치수문자_일반주서
 62
     0
370
    -2
100
AcDbLine
 10
22.31250000000013
 20
25.65400000000007
 30
0.0
 11
4.375000000000128
 21
25.654
 31
0.0
  0
LINE
  5
41B
330
417
100
AcDbEntity
  8
치수문자_일반주서
 62
     0
370
    -2
100
AcDbLine
 10
22.31250000000013
 20
6.604000000000067
 30
0.0
 11
4.375000000000195
 21
6.603999999999999
 31
0.0
  0
LINE
  5
41C
330
417
100
AcDbEntity
  8
치수문자_일반주서
 62
     0
370
    -2
100
AcDbLine
 10
4.375000000000128
 20
25.654
 30
0.0
 11
4.375000000000009
 21
59.8205
 31
0.0
  0
LINE
  5
41D
330
417
100
AcDbEntity
  8
치수문자_일반주서
 62
     0
370
    -2
100
AcDbLine
 10
4.375000000000139
 20
22.352
 30
0.0
 11
4.375000000000183
 21
9.905999999999999
 31
0.0
  0
SOLID
  5
41E
330
417
100
AcDbEntity
  8
치수문자_일반주서
 62
     0
100
AcDbTrace
 10
4.925333333333473
 20
22.352
 30
0.0
 11
3.824666666666806
 21
22.352
 31
0.0
 12
4.375000000000128
 22
25.654
 32
0.0
 13
4.375000000000128
 23
25.654
 33
0.0
  0
SOLID
  5
41F
330
417
100
AcDbEntity
  8
치수문자_일반주서
 62
     0
100
AcDbTrace
 10
3.824666666666849
 20
9.905999999999997
 30
0.0
 11
4.925333333333517
 21
9.906
 31
0.0
 12
4.375000000000195
 22
6.603999999999999
 32
0.0
 13
4.375000000000195
 23
6.603999999999999
 33
0.0
  0
MTEXT
  5
420
330
417
100
AcDbEntity
  8
치수문자_일반주서
 62
     0
100
AcDbMText
 10
0.0000000000000568
 20
46.03924999999998
 30
0.0
 40
3.5
 41
0.0
 71
     2
 72
     1
  1
\A1;%%c19.05 [3/4]
  7
SLDTEXTSTYLE0
 11
-3.496765431890257E-15
 21
1.0
 31
0.0
 73
     1
 44
1.0
  0
POINT
  5
421
330
417
100
AcDbEntity
  8
Defpoints
 62
     0
100
AcDbPoint
 10
22.37500000000013
 20
25.65400000000007
 30
0.0
  0
POINT
  5
422
330
417
100
AcDbEntity
  8
Defpoints
 62
     0
100
AcDbPoint
 10
22.37500000000013
 20
6.604000000000067
 30
0.0
  0
POINT
  5
423
330
417
100
AcDbEntity
  8
Defpoints
 62
     0
100
AcDbPoint
 10
4.375000000000192
 20
6.603999999999999
 30
0.0
  0
ENDBLK
  5
419
330
417
100
AcDbEntity
  8
0
100
AcDbBlockEnd
  0
BLOCK
  5
646
330
645
100
AcDbEntity
  8
0
100
AcDbBlockBegin
  2
*D11
 70
     1
 10
0.0
 20
0.0
 30
0.0
  3
*D11
  1

  0
LINE
  5
648
330
645
100
AcDbEntity
  8
치수문자_일반주서
 62
     0
370
    -2
100
AcDbLine
 10
214.956032161372
 20
-13.85793840402413
 30
0.0
 11
214.956032161372
 21
-3.048808148806977
 31
0.0
  0
LINE
  5
649
330
645
100
AcDbEntity
  8
치수문자_일반주서
 62
     0
370
    -2
100
AcDbLine
 10
173.6185321613721
 20
-13.8579385217433
 30
0.0
 11
173.6185321613721
 21
-3.048808148806977
 31
0.0
  0
LINE
  5
64A
330
645
100
AcDbEntity
  8
치수문자_일반주서
 62
     0
370
    -2
100
AcDbLine
 10
211.654032161372
 20
-3.048808148806977
 30
0.0
 11
176.9205321613721
 21
-3.048808148806977
 31
0.0
  0
SOLID
  5
64B
330
645
100
AcDbEntity
  8
치수문자_일반주서
 62
     0
100
AcDbTrace
 10
211.654032161372
 20
-3.59914148214031
 30
0.0
 11
211.654032161372
 21
-2.498474815473643
 31
0.0
 12
214.956032161372
 22
-3.048808148806977
 32
0.0
 13
214.956032161372
 23
-3.048808148806977
 33
0.0
  0
SOLID
  5
64C
330
645
100
AcDbEntity
  8
치수문자_일반주서
 62
     0
100
AcDbTrace
 10
176.9205321613721
 20
-2.498474815473643
 30
0.0
 11
176.9205321613721
 21
-3.59914148214031
 31
0.0
 12
173.6185321613721
 22
-3.048808148806977
 32
0.0
 13
173.6185321613721
 23
-3.048808148806977
 33
0.0
  0
MTEXT
  5
64D
330
645
100
AcDbEntity
  8
치수문자_일반주서
 62
     0
100
AcDbMText
 10
194.256032161372
 20
1.326191851193023
 30
0.0
 40
3.5
 41
0.0
 71
     2
 72
     1
  1
\A1;41.34 [1 5/8]
  7
SLDTEXTSTYLE0
 73
     1
 44
1.0
  0
POINT
  5
64E
330
645
100
AcDbEntity
  8
Defpoints
 62
     0
100
AcDbPoint
 10
214.956032161372
 20
-13.92043840402413
 30
0.0
  0
POINT
  5
64F
330
645
100
AcDbEntity
  8
Defpoints
 62
     0
100
AcDbPoint
 10
173.6185321613721
 20
-13.9204385217433
 30
0.0
  0
POINT
  5
650
330
645
100
AcDbEntity
  8
Defpoints
 62
     0
100
AcDbPoint
 10
173.6185321613721
 20
-3.048808148806977
 30
0.0
  0
ENDBLK
  5
647
330
645
100
AcDbEntity
  8
0
100
AcDbBlockEnd
  0
BLOCK
  5
652
330
651
100
AcDbEntity
  8
0
100
AcDbBlockBegin
  2
*D12
 70
     1
 10
0.0
 20
0.0
 30
0.0
  3
*D12
  1

  0
LINE
  5
654
330
651
100
AcDbEntity
  8
치수문자_일반주서
 62
     0
370
    -2
100
AcDbLine
 10
116.4685321613721
 20
-14.8579385217433
 30
0.0
 11
116.4685321613721
 21
10.07036676359817
 31
0.0
  0
LINE
  5
655
330
651
100
AcDbEntity
  8
치수문자_일반주서
 62
     0
370
    -2
100
AcDbLine
 10
214.956032161372
 20
-13.85793840402413
 30
0.0
 11
214.956032161372
 21
10.07036676359817
 31
0.0
  0
LINE
  5
656
330
651
100
AcDbEntity
  8
치수문자_일반주서
 62
     0
370
    -2
100
AcDbLine
 10
119.7705321613721
 20
10.07036676359817
 30
0.0
 11
211.654032161372
 21
10.07036676359817
 31
0.0
  0
SOLID
  5
657
330
651
100
AcDbEntity
  8
치수문자_일반주서
 62
     0
100
AcDbTrace
 10
119.7705321613721
 20
10.6207000969315
 30
0.0
 11
119.7705321613721
 21
9.520033430264833
 31
0.0
 12
116.4685321613721
 22
10.07036676359817
 32
0.0
 13
116.4685321613721
 23
10.07036676359817
 33
0.0
  0
SOLID
  5
658
330
651
100
AcDbEntity
  8
치수문자_일반주서
 62
     0
100
AcDbTrace
 10
211.654032161372
 20
9.520033430264833
 30
0.0
 11
211.654032161372
 21
10.6207000969315
 31
0.0
 12
214.956032161372
 22
10.07036676359817
 32
0.0
 13
214.956032161372
 23
10.07036676359817
 33
0.0
  0
MTEXT
  5
659
330
651
100
AcDbEntity
  8
치수문자_일반주서
 62
     0
100
AcDbMText
 10
165.6810321613721
 20
14.44536676359817
 30
0.0
 40
3.5
 41
0.0
 71
     2
 72
     1
  1
\A1;98.49 [3 7/8]
  7
SLDTEXTSTYLE0
 73
     1
 44
1.0
  0
POINT
  5
65A
330
651
100
AcDbEntity
  8
Defpoints
 62
     0
100
AcDbPoint
 10
116.4685321613721
 20
-14.9204385217433
 30
0.0
  0
POINT
  5
65B
330
651
100
AcDbEntity
  8
Defpoints
 62
     0
100
AcDbPoint
 10
214.956032161372
 20
-13.92043840402413
 30
0.0
  0
POINT
  5
65C
330
651
100
AcDbEntity
  8
Defpoints
 62
     0
100
AcDbPoint
 10
214.956032161372
 20
10.07036676359817
 30
0.0
  0
ENDBLK
  5
653
330
651
100
AcDbEntity
  8
0
100
AcDbBlockEnd
  0
BLOCK
  5
65E
330
65D
100
AcDbEntity
  8
0
100
AcDbBlockBegin
  2
*D13
 70
     1
 10
0.0
 20
0.0
 30
0.0
  3
*D13
  1

  0
LINE
  5
660
330
65D
100
AcDbEntity
  8
치수문자_일반주서
 62
     0
370
    -2
100
AcDbLine
 10
117.4060321613721
 20
-13.92043852174331
 30
0.0
 11
99.46853216137207
 21
-13.92043852174337
 31
0.0
  0
LINE
  5
661
330
65D
100
AcDbEntity
  8
치수문자_일반주서
 62
     0
370
    -2
100
AcDbLine
 10
117.4060321613721
 20
-32.9704385217433
 30
0.0
 11
99.46853216137214
 21
-32.97043852174338
 31
0.0
  0
LINE
  5
662
330
65D
100
AcDbEntity
  8
치수문자_일반주서
 62
     0
370
    -2
100
AcDbLine
 10
99.46853216137207
 20
-13.92043852174337
 30
0.0
 11
99.46853216137194
 21
20.24606147825662
 31
0.0
  0
LINE
  5
663
330
65D
100
AcDbEntity
  8
치수문자_일반주서
 62
     0
370
    -2
100
AcDbLine
 10
99.46853216137208
 20
-17.22243852174337
 30
0.0
 11
99.46853216137212
 21
-29.66843852174338
 31
0.0
  0
SOLID
  5
664
330
65D
100
AcDbEntity
  8
치수문자_일반주서
 62
     0
100
AcDbTrace
 10
100.0188654947054
 20
-17.22243852174337
 30
0.0
 11
98.91819882803875
 21
-17.22243852174338
 31
0.0
 12
99.46853216137207
 22
-13.92043852174337
 32
0.0
 13
99.46853216137207
 23
-13.92043852174337
 33
0.0
  0
SOLID
  5
665
330
65D
100
AcDbEntity
  8
치수문자_일반주서
 62
     0
100
AcDbTrace
 10
98.9181988280388
 20
-29.66843852174338
 30
0.0
 11
100.0188654947055
 21
-29.66843852174337
 31
0.0
 12
99.46853216137214
 22
-32.97043852174338
 32
0.0
 13
99.46853216137214
 23
-32.97043852174338
 33
0.0
  0
MTEXT
  5
666
330
65D
100
AcDbEntity
  8
치수문자_일반주서
 62
     0
100
AcDbMText
 10
95.093532161372
 20
6.464811478256605
 30
0.0
 40
3.5
 41
0.0
 71
     2
 72
     1
  1
\A1;%%c19.05 [3/4]
  7
SLDTEXTSTYLE0
 11
-3.729883127349609E-15
 21
1.0
 31
0.0
 73
     1
 44
1.0
  0
POINT
  5
667
330
65D
100
AcDbEntity
  8
Defpoints
 62
     0
100
AcDbPoint
 10
117.4685321613721
 20
-13.92043852174331
 30
0.0
  0
POINT
  5
668
330
65D
100
AcDbEntity
  8
Defpoints
 62
     0
100
AcDbPoint
 10
117.4685321613721
 20
-32.9704385217433
 30
0.0
  0
POINT
  5
669
330
65D
100
AcDbEntity
  8
Defpoints
 62
     0
100
AcDbPoint
 10
99.46853216137214
 20
-32.97043852174337
 30
0.0
  0
ENDBLK
  5
65F
330
65D
100
AcDbEntity
  8
0
100
AcDbBlockEnd
  0
BLOCK
  5
66B
330
66A
100
AcDbEntity
  8
0
100
AcDbBlockBegin
  2
*D14
 70
     1
 10
0.0
 20
0.0
 30
0.0
  3
*D14
  1

  0
LINE
  5
66D
330
66A
100
AcDbEntity
  8
치수문자_일반주서
 62
     0
370
    -2
100
AcDbLine
 10
214.956032161372
 20
-32.97043863946247
 30
0.0
 11
237.4547312050306
 21
-32.97043863946247
 31
0.0
  0
LINE
  5
66E
330
66A
100
AcDbEntity
  8
치수문자_일반주서
 62
     0
370
    -2
100
AcDbLine
 10
214.956032161372
 20
-13.92043840402413
 30
0.0
 11
237.4547312050306
 21
-13.92043840402413
 31
0.0
  0
LINE
  5
66F
330
66A
100
AcDbEntity
  8
치수문자_일반주서
 62
     0
370
    -2
100
AcDbLine
 10
237.4547312050306
 20
-13.92043840402413
 30
0.0
 11
237.4547312050306
 21
16.94406159597587
 31
0.0
  0
LINE
  5
670
330
66A
100
AcDbEntity
  8
치수문자_일반주서
 62
     0
370
    -2
100
AcDbLine
 10
237.4547312050306
 20
-29.66843863946247
 30
0.0
 11
237.4547312050306
 21
-17.22243840402413
 31
0.0
  0
SOLID
  5
671
330
66A
100
AcDbEntity
  8
치수문자_일반주서
 62
     0
100
AcDbTrace
 10
236.9043978716973
 20
-29.66843863946247
 30
0.0
 11
238.005064538364
 21
-29.66843863946247
 31
0.0
 12
237.4547312050306
 22
-32.97043863946247
 32
0.0
 13
237.4547312050306
 23
-32.97043863946247
 33
0.0
  0
SOLID
  5
672
330
66A
100
AcDbEntity
  8
치수문자_일반주서
 62
     0
100
AcDbTrace
 10
238.005064538364
 20
-17.22243840402413
 30
0.0
 11
236.9043978716973
 21
-17.22243840402413
 31
0.0
 12
237.4547312050306
 22
-13.92043840402413
 32
0.0
 13
237.4547312050306
 23
-13.92043840402413
 33
0.0
  0
MTEXT
  5
673
330
66A
100
AcDbEntity
  8
치수문자_일반주서
 62
     0
100
AcDbMText
 10
234.8297312050306
 20
3.162811595975873
 30
0.0
 40
3.5
 41
0.0
 71
     5
 72
     1
  1
\A1;{%%c19.05 [3/4]}
  7
SLDTEXTSTYLE0
 11
0.0
 21
1.0
 31
0.0
 73
     1
 44
1.0
  0
POINT
  5
674
330
66A
100
AcDbEntity
  8
Defpoints
 62
     0
100
AcDbPoint
 10
214.893532161372
 20
-32.97043863946247
 30
0.0
  0
POINT
  5
675
330
66A
100
AcDbEntity
  8
Defpoints
 62
     0
100
AcDbPoint
 10
214.893532161372
 20
-13.92043840402413
 30
0.0
  0
POINT
  5
676
330
66A
100
AcDbEntity
  8
Defpoints
 62
     0
100
AcDbPoint
 10
237.4547312050306
 20
-13.92043840402413
 30
0.0
  0
ENDBLK
  5
66C
330
66A
100
AcDbEntity
  8
0
100
AcDbBlockEnd
  0
BLOCK
  5
8D3
330
8D2
100
AcDbEntity
  8
0
100
AcDbBlockBegin
  2
*D16
 70
     1
 10
0.0
 20
0.0
 30
0.0
  3
*D16
  1
*D6
  0
LINE
  5
8D4
330
8D2
100
AcDbEntity
  8
치수문자_일반주서
 62
     0
370
    -2
100
AcDbLine
 10
119.8625000000001
 20
6.603999882280899
 30
0.0
 11
142.3611990436587
 21
6.603999882280899
 31
0.0
  0
LINE
  5
8D5
330
8D2
100
AcDbEntity
  8
치수문자_일반주서
 62
     0
370
    -2
100
AcDbLine
 10
119.8625000000001
 20
25.65400011771925
 30
0.0
 11
142.3611990436587
 21
25.65400011771925
 31
0.0
  0
LINE
  5
8D6
330
8D2
100
AcDbEntity
  8
치수문자_일반주서
 62
     0
370
    -2
100
AcDbLine
 10
142.3611990436587
 20
25.65400011771925
 30
0.0
 11
142.3611990436587
 21
56.51850011771925
 31
0.0
  0
LINE
  5
8D7
330
8D2
100
AcDbEntity
  8
치수문자_일반주서
 62
     0
370
    -2
100
AcDbLine
 10
142.3611990436587
 20
9.905999882280899
 30
0.0
 11
142.3611990436587
 21
22.35200011771925
 31
0.0
  0
SOLID
  5
8D8
330
8D2
100
AcDbEntity
  8
치수문자_일반주서
 62
     0
100
AcDbTrace
 10
141.8108657103254
 20
9.905999882280899
 30
0.0
 11
142.911532376992
 21
9.905999882280899
 31
0.0
 12
142.3611990436587
 22
6.603999882280899
 32
0.0
 13
142.3611990436587
 23
6.603999882280899
 33
0.0
  0
SOLID
  5
8D9
330
8D2
100
AcDbEntity
  8
치수문자_일반주서
 62
     0
100
AcDbTrace
 10
142.911532376992
 20
22.35200011771925
 30
0.0
 11
141.8108657103254
 21
22.35200011771925
 31
0.0
 12
142.3611990436587
 22
25.65400011771925
 32
0.0
 13
142.3611990436587
 23
25.65400011771925
 33
0.0
  0
MTEXT
  5
8DA
330
8D2
100
AcDbEntity
  8
치수문자_일반주서
 62
     0
100
AcDbMText
 10
139.7361990436587
 20
42.73725011771925
 30
0.0
 40
3.5
 41
0.0
 71
     5
 72
     1
  1
\A1;{%%c19.05 [3/4]}
  7
SLDTEXTSTYLE0
 11
0.0
 21
1.0
 31
0.0
 73
     1
 44
1.0
  0
POINT
  5
8DB
330
8D2
100
AcDbEntity
  8
Defpoints
 62
     0
100
AcDbPoint
 10
119.8000000000001
 20
6.603999882280899
 30
0.0
  0
POINT
  5
8DC
330
8D2
100
AcDbEntity
  8
Defpoints
 62
     0
100
AcDbPoint
 10
119.8000000000001
 20
25.65400011771925
 30
0.0
  0
POINT
  5
8DD
330
8D2
100
AcDbEntity
  8
Defpoints
 62
     0
100
AcDbPoint
 10
142.3611990436587
 20
25.65400011771925
 30
0.0
  0
ENDBLK
  5
8DE
330
8D2
100
AcDbEntity
  8
0
100
AcDbBlockEnd
  0
BLOCK
  5
8E6
330
8E5
100
AcDbEntity
  8
0
100
AcDbBlockBegin
  2
*D17
 70
     1
 10
0.0
 20
0.0
 30
0.0
  3
*D17
  1

  0
LINE
  5
8E8
330
8E5
100
AcDbEntity
  8
치수문자_일반주서
 62
     0
370
    -2
100
AcDbLine
 10
119.8625000000001
 20
25.71650011771925
 30
0.0
 11
119.8625000000001
 21
36.5256303729364
 31
0.0
  0
LINE
  5
8E9
330
8E5
100
AcDbEntity
  8
치수문자_일반주서
 62
     0
370
    -2
100
AcDbLine
 10
78.52500000000012
 20
25.71650000000007
 30
0.0
 11
78.52500000000012
 21
36.5256303729364
 31
0.0
  0
LINE
  5
8EA
330
8E5
100
AcDbEntity
  8
치수문자_일반주서
 62
     0
370
    -2
100
AcDbLine
 10
116.5605000000001
 20
36.5256303729364
 30
0.0
 11
81.82700000000013
 21
36.5256303729364
 31
0.0
  0
SOLID
  5
8EB
330
8E5
100
AcDbEntity
  8
치수문자_일반주서
 62
     0
100
AcDbTrace
 10
116.5605000000001
 20
35.97529703960306
 30
0.0
 11
116.5605000000001
 21
37.07596370626973
 31
0.0
 12
119.8625000000001
 22
36.5256303729364
 32
0.0
 13
119.8625000000001
 23
36.5256303729364
 33
0.0
  0
SOLID
  5
8EC
330
8E5
100
AcDbEntity
  8
치수문자_일반주서
 62
     0
100
AcDbTrace
 10
81.82700000000013
 20
37.07596370626973
 30
0.0
 11
81.82700000000013
 21
35.97529703960306
 31
0.0
 12
78.52500000000012
 22
36.5256303729364
 32
0.0
 13
78.52500000000012
 23
36.5256303729364
 33
0.0
  0
MTEXT
  5
8ED
330
8E5
100
AcDbEntity
  8
치수문자_일반주서
 62
     0
100
AcDbMText
 10
99.16250000000012
 20
40.9006303729364
 30
0.0
 40
3.5
 41
0.0
 71
     2
 72
     1
  1
\A1;41.34 [1 5/8]
  7
SLDTEXTSTYLE0
 73
     1
 44
1.0
  0
POINT
  5
8EE
330
8E5
100
AcDbEntity
  8
Defpoints
 62
     0
100
AcDbPoint
 10
119.8625000000001
 20
25.65400011771925
 30
0.0
  0
POINT
  5
8EF
330
8E5
100
AcDbEntity
  8
Defpoints
 62
     0
100
AcDbPoint
 10
78.52500000000012
 20
25.65400000000007
 30
0.0
  0
POINT
  5
8F0
330
8E5
100
AcDbEntity
  8
Defpoints
 62
     0
100
AcDbPoint
 10
78.52500000000012
 20
36.5256303729364
 30
0.0
  0
ENDBLK
  5
8E7
330
8E5
100
AcDbEntity
  8
0
100
AcDbBlockEnd
  0
BLOCK
  5
8F2
330
8F1
100
AcDbEntity
  8
0
100
AcDbBlockBegin
  2
*D18
 70
     1
 10
0.0
 20
0.0
 30
0.0
  3
*D18
  1

  0
LINE
  5
8F4
330
8F1
100
AcDbEntity
  8
치수문자_일반주서
 62
     0
370
    -2
100
AcDbLine
 10
21.37500000000011
 20
24.71650000000007
 30
0.0
 11
21.37500000000011
 21
49.64480528534154
 31
0.0
  0
LINE
  5
8F5
330
8F1
100
AcDbEntity
  8
치수문자_일반주서
 62
     0
370
    -2
100
AcDbLine
 10
119.8625000000001
 20
25.71650011771925
 30
0.0
 11
119.8625000000001
 21
49.64480528534154
 31
0.0
  0
LINE
  5
8F6
330
8F1
100
AcDbEntity
  8
치수문자_일반주서
 62
     0
370
    -2
100
AcDbLine
 10
24.67700000000011
 20
49.64480528534154
 30
0.0
 11
116.5605000000001
 21
49.64480528534154
 31
0.0
  0
SOLID
  5
8F7
330
8F1
100
AcDbEntity
  8
치수문자_일반주서
 62
     0
100
AcDbTrace
 10
24.67700000000011
 20
50.19513861867487
 30
0.0
 11
24.67700000000011
 21
49.09447195200821
 31
0.0
 12
21.37500000000011
 22
49.64480528534154
 32
0.0
 13
21.37500000000011
 23
49.64480528534154
 33
0.0
  0
SOLID
  5
8F8
330
8F1
100
AcDbEntity
  8
치수문자_일반주서
 62
     0
100
AcDbTrace
 10
116.5605000000001
 20
49.09447195200821
 30
0.0
 11
116.5605000000001
 21
50.19513861867487
 31
0.0
 12
119.8625000000001
 22
49.64480528534154
 32
0.0
 13
119.8625000000001
 23
49.64480528534154
 33
0.0
  0
MTEXT
  5
8F9
330
8F1
100
AcDbEntity
  8
치수문자_일반주서
 62
     0
100
AcDbMText
 10
70.58750000000012
 20
54.01980528534154
 30
0.0
 40
3.5
 41
0.0
 71
     2
 72
     1
  1
\A1;98.49 [3 7/8]
  7
SLDTEXTSTYLE0
 73
     1
 44
1.0
  0
POINT
  5
8FA
330
8F1
100
AcDbEntity
  8
Defpoints
 62
     0
100
AcDbPoint
 10
21.37500000000011
 20
24.65400000000007
 30
0.0
  0
POINT
  5
8FB
330
8F1
100
AcDbEntity
  8
Defpoints
 62
     0
100
AcDbPoint
 10
119.8625000000001
 20
25.65400011771925
 30
0.0
  0
POINT
  5
8FC
330
8F1
100
AcDbEntity
  8
Defpoints
 62
     0
100
AcDbPoint
 10
119.8625000000001
 20
49.64480528534154
 30
0.0
  0
ENDBLK
  5
8F3
330
8F1
100
AcDbEntity
  8
0
100
AcDbBlockEnd
  0
BLOCK
  5
8FE
330
8FD
100
AcDbEntity
  8
0
100
AcDbBlockBegin
  2
*D19
 70
     1
 10
0.0
 20
0.0
 30
0.0
  3
*D19
  1

  0
LINE
  5
900
330
8FD
100
AcDbEntity
  8
치수문자_일반주서
 62
     0
370
    -2
100
AcDbLine
 10
22.31250000000013
 20
25.65400000000007
 30
0.0
 11
4.375000000000128
 21
25.654
 31
0.0
  0
LINE
  5
901
330
8FD
100
AcDbEntity
  8
치수문자_일반주서
 62
     0
370
    -2
100
AcDbLine
 10
22.31250000000013
 20
6.604000000000067
 30
0.0
 11
4.375000000000195
 21
6.603999999999999
 31
0.0
  0
LINE
  5
902
330
8FD
100
AcDbEntity
  8
치수문자_일반주서
 62
     0
370
    -2
100
AcDbLine
 10
4.375000000000128
 20
25.654
 30
0.0
 11
4.375000000000009
 21
59.8205
 31
0.0
  0
LINE
  5
903
330
8FD
100
AcDbEntity
  8
치수문자_일반주서
 62
     0
370
    -2
100
AcDbLine
 10
4.375000000000139
 20
22.352
 30
0.0
 11
4.375000000000183
 21
9.905999999999999
 31
0.0
  0
SOLID
  5
904
330
8FD
100
AcDbEntity
  8
치수문자_일반주서
 62
     0
100
AcDbTrace
 10
4.925333333333473
 20
22.352
 30
0.0
 11
3.824666666666806
 21
22.352
 31
0.0
 12
4.375000000000128
 22
25.654
 32
0.0
 13
4.375000000000128
 23
25.654
 33
0.0
  0
SOLID
  5
905
330
8FD
100
AcDbEntity
  8
치수문자_일반주서
 62
     0
100
AcDbTrace
 10
3.824666666666849
 20
9.905999999999997
 30
0.0
 11
4.925333333333517
 21
9.906
 31
0.0
 12
4.375000000000195
 22
6.603999999999999
 32
0.0
 13
4.375000000000195
 23
6.603999999999999
 33
0.0
  0
MTEXT
  5
906
330
8FD
100
AcDbEntity
  8
치수문자_일반주서
 62
     0
100
AcDbMText
 10
0.0000000000000568
 20
46.03924999999998
 30
0.0
 40
3.5
 41
0.0
 71
     2
 72
     1
  1
\A1;%%c19.05 [3/4]
  7
SLDTEXTSTYLE0
 11
-3.496765431890257E-15
 21
1.0
 31
0.0
 73
     1
 44
1.0
  0
POINT
  5
907
330
8FD
100
AcDbEntity
  8
Defpoints
 62
     0
100
AcDbPoint
 10
22.37500000000013
 20
25.65400000000007
 30
0.0
  0
POINT
  5
908
330
8FD
100
AcDbEntity
  8
Defpoints
 62
     0
100
AcDbPoint
 10
22.37500000000013
 20
6.604000000000067
 30
0.0
  0
POINT
  5
909
330
8FD
100
AcDbEntity
  8
Defpoints
 62
     0
100
AcDbPoint
 10
4.375000000000192
 20
6.603999999999999
 30
0.0
  0
ENDBLK
  5
8FF
330
8FD
100
AcDbEntity
  8
0
100
AcDbBlockEnd
  0
BLOCK
  5
90E
330
90D
100
AcDbEntity
  8
0
100
AcDbBlockBegin
  2
*D20
 70
     1
 10
0.0
 20
0.0
 30
0.0
  3
*D20
  1

  0
LINE
  5
910
330
90D
100
AcDbEntity
  8
치수문자_일반주서
 62
     0
370
    -2
100
AcDbLine
 10
62.86250000000003
 20
15.88824393398068
 30
0.0
 11
77.4500014126301
 21
15.88824393398068
 31
0.0
  0
LINE
  5
911
330
90D
100
AcDbEntity
  8
치수문자_일반주서
 62
     0
370
    -2
100
AcDbLine
 10
62.8625014126301
 20
-15.86175698537453
 30
0.0
 11
77.4500014126301
 21
-15.86175698537453
 31
0.0
  0
LINE
  5
912
330
90D
100
AcDbEntity
  8
치수문자_일반주서
 62
     0
370
    -2
100
AcDbLine
 10
77.4500014126301
 20
12.58624393398068
 30
0.0
 11
77.4500014126301
 21
-12.55975698537453
 31
0.0
  0
SOLID
  5
913
330
90D
100
AcDbEntity
  8
치수문자_일반주서
 62
     0
100
AcDbTrace
 10
78.00033474596343
 20
12.58624393398068
 30
0.0
 11
76.89966807929677
 21
12.58624393398068
 31
0.0
 12
77.4500014126301
 22
15.88824393398068
 32
0.0
 13
77.4500014126301
 23
15.88824393398068
 33
0.0
  0
SOLID
  5
914
330
90D
100
AcDbEntity
  8
치수문자_일반주서
 62
     0
100
AcDbTrace
 10
76.89966807929677
 20
-12.55975698537453
 30
0.0
 11
78.00033474596343
 21
-12.55975698537453
 31
0.0
 12
77.4500014126301
 22
-15.86175698537453
 32
0.0
 13
77.4500014126301
 23
-15.86175698537453
 33
0.0
  0
MTEXT
  5
915
330
90D
100
AcDbEntity
  8
치수문자_일반주서
 62
     0
100
AcDbMText
 10
74.8250014126301
 20
0.013243474303076
 30
0.0
 40
3.5
 41
0.0
 71
     5
 72
     1
  1
\A1;31.75 [1 1/4]
  7
SLDTEXTSTYLE0
 11
0.0
 21
1.0
 31
0.0
 73
     1
 44
1.0
  0
POINT
  5
916
330
90D
100
AcDbEntity
  8
Defpoints
 62
     0
100
AcDbPoint
 10
62.80000000000003
 20
15.88824393398068
 30
0.0
  0
POINT
  5
917
330
90D
100
AcDbEntity
  8
Defpoints
 62
     0
100
AcDbPoint
 10
62.8000014126301
 20
-15.86175698537453
 30
0.0
  0
POINT
  5
918
330
90D
100
AcDbEntity
  8
Defpoints
 62
     0
100
AcDbPoint
 10
77.4500014126301
 20
-15.86175698537453
 30
0.0
  0
ENDBLK
  5
90F
330
90D
100
AcDbEntity
  8
0
100
AcDbBlockEnd
  0
ENDSEC
  0
SECTION
  2
ENTITIES
  0
LINE
  5
95
102
{ACAD_REACTORS
102
}
330
1F
100
AcDbEntity
  8
0
  6
Continuous
 62
     4
370
    15
100
AcDbLine
 10
7.449948288500326
 20
15.88824363492797
 30
0.0
 11
-13.58732499999994
 21
15.88824352126495
 31
0.0
  0
LINE
  5
96
102
{ACAD_REACTORS
102
}
330
1F
100
AcDbEntity
  8
0
  6
Continuous
 62
     4
370
    15
100
AcDbLine
 10
-50.50000169873236
 20
-15.86175698537453
 30
0.0
 11
12.00000004749747
 21
-15.86175698537453
 31
0.0
  0
LINE
  5
98
330
1F
100
AcDbEntity
  8
0
  6
Continuous
 62
     4
370
    15
100
AcDbLine
 10
-51.49999999999999
 20
-14.86175682146176
 30
0.0
 11
-50.50000169873236
 21
-15.86175698537453
 31
0.0
  0
LINE
  5
99
330
1F
100
AcDbEntity
  8
0
  6
Continuous
 62
     1
370
    15
100
AcDbLine
 10
43.23201259970666
 20
-15.86175698537453
 30
0.0
 11
54.6721332371235
 21
-15.86175698537453
 31
0.0
  0
LINE
  5
9A
330
1F
100
AcDbEntity
  8
0
  6
Continuous
 62
     1
370
    15
100
AcDbLine
 10
36.20970441401006
 20
15.88824402790443
 30
0.0
 11
24.7694636359811
 21
15.88824402790443
 31
0.0
  0
LINE
  5
9B
330
1F
100
AcDbEntity
  8
0
  6
Continuous
 62
     1
370
    15
100
AcDbLine
 10
12.00000004749747
 20
-15.86175698537453
 30
0.0
 11
17.74755498766901
 21
-15.86175698537453
 31
0.0
  0
LINE
  5
9C
330
1F
100
AcDbEntity
  8
0
  6
Continuous
 62
     1
370
    15
100
AcDbLine
 10
62.80000141263009
 20
14.78824310254232
 30
0.0
 11
61.70000141859055
 21
15.88824402790443
 31
0.0
  0
LINE
  5
9D
330
1F
100
AcDbEntity
  8
0
  6
Continuous
 62
     4
370
    15
100
AcDbLine
 10
7.449948288500326
 20
15.88824402790443
 30
0.0
 11
7.449948288500326
 21
14.21566412102357
 31
0.0
1001
PE_URL
1000

  0
SPLINE
  5
9E
330
1F
100
AcDbEntity
  8
0
  6
Continuous
 62
     4
370
    15
100
AcDbSpline
210
0.0
220
0.0
230
1.0
 70
     8
 71
     3
 72
    10
 73
     6
 74
     0
 42
0.000000001
 43
0.00000001
 40
0.0
 40
0.0
 40
0.0
 40
0.0
 40
0.5
 40
0.5
 40
1.0
 40
1.0
 40
1.0
 40
1.0
 10
12.00000000000001
 20
11.93498363831598
 30
0.0
 10
11.24012393562068
 20
12.38619993455237
 30
0.0
 10
10.485743622716
 20
12.80324919978847
 30
0.0
 10
8.96739210424312
 20
13.56590555293905
 30
0.0
 10
8.205361847157137
 20
13.91097093830788
 30
0.0
 10
7.449948256537091
 20
14.21566995540294
 30
0.0
1001
PE_URL
1000

  0
SPLINE
  5
9F
330
1F
100
AcDbEntity
  8
0
  6
Continuous
 62
     4
370
    15
100
AcDbSpline
210
0.0
220
0.0
230
1.0
 70
     8
 71
     3
 72
    10
 73
     6
 74
     0
 42
0.000000001
 43
0.00000001
 40
0.0
 40
0.0
 40
0.0
 40
0.0
 40
0.5
 40
0.5
 40
1.0
 40
1.0
 40
1.0
 40
1.0
 10
12.00000000000001
 20
3.176639026341862
 30
0.0
 10
11.24012393562068
 20
3.84625455813585
 30
0.0
 10
10.485743622716
 20
4.505477329904025
 30
0.0
 10
8.967392104243112
 20
5.798144130966262
 30
0.0
 10
8.205361847157137
 20
6.430945664043833
 30
0.0
 10
7.449948256537088
 20
7.042428746989915
 30
0.0
  0
SPLINE
  5
A0
330
1F
100
AcDbEntity
  8
0
  6
Continuous
 62
     4
370
    15
100
AcDbSpline
210
0.0
220
0.0
230
1.0
 70
     8
 71
     3
 72
    10
 73
     6
 74
     0
 42
0.000000001
 43
0.00000001
 40
0.0
 40
0.0
 40
0.0
 40
0.0
 40
0.5
 40
0.5
 40
1.0
 40
1.0
 40
1.0
 40
1.0
 10
12.00000000000002
 20
-15.02594153433588
 30
0.0
 10
11.24012393562068
 20
-14.80714314153419
 30
0.0
 10
10.485743622716
 20
-14.54714442400376
 30
0.0
 10
8.96739210424312
 20
-13.94679905360009
 30
0.0
 10
8.20536184715714
 20
-13.60648378120465
 30
0.0
 10
7.449948256537095
 20
-13.23044731376689
 30
0.0
  0
LINE
  5
A1
330
1F
100
AcDbEntity
  8
0
  6
Continuous
 62
     4
370
    15
100
AcDbLine
 10
-50.50000169873236
 20
13.50064352126493
 30
0.0
 11
-50.50000169873236
 21
-15.86175698537453
 31
0.0
  0
LINE
  5
A2
330
1F
100
AcDbEntity
  8
0
  6
Continuous
 62
     1
370
    15
100
AcDbLine
 10
12.00000004749747
 20
-15.02594154078587
 30
0.0
 11
12.00000004749747
 21
-15.86175698537453
 31
0.0
  0
LINE
  5
A3
330
1F
100
AcDbEntity
  8
0
  6
Continuous
 62
     1
370
    15
100
AcDbLine
 10
12.00000004749747
 20
11.93498365830556
 30
0.0
 11
12.00000004749747
 21
3.176638970784104
 31
0.0
  0
LINE
  5
A4
330
1F
100
AcDbEntity
  8
0
  6
Continuous
 62
     4
370
    15
100
AcDbLine
 10
7.449948288500326
 20
7.042435577771819
 30
0.0
 11
7.449948288500326
 21
-13.23045499373301
 31
0.0
  0
LINE
  5
A5
330
1F
100
AcDbEntity
  8
0
  6
Continuous
 62
     4
370
    15
100
AcDbLine
 10
-51.49999999999999
 20
13.50064352126493
 30
0.0
 11
-51.49999999999999
 21
-14.86175682146176
 31
0.0
  0
SPLINE
  5
A7
330
1F
100
AcDbEntity
  8
0
  6
Continuous
 62
     1
370
    15
100
AcDbSpline
210
0.0
220
0.0
230
1.0
 70
     8
 71
     3
 72
    15
 73
    11
 74
     0
 42
0.000000001
 43
0.00000001
 40
0.0
 40
0.0
 40
0.0
 40
0.0
 40
0.1234993327473783
 40
0.2481660764943537
 40
0.3729274289130059
 40
0.4977286586004246
 40
0.6232418397429866
 40
0.748779399090996
 40
0.874445087657053
 40
1.0
 40
1.0
 40
1.0
 40
1.0
 10
30.48886737227442
 20
-11.89201220620497
 30
0.0
 10
29.72770196661645
 20
-12.32646625809441
 30
0.0
 10
28.19817603248237
 20
-13.19948115684709
 30
0.0
 10
25.90076545530108
 20
-14.23270579917013
 30
0.0
 10
23.59409342039532
 20
-15.04047237375607
 30
0.0
 10
21.28162858978112
 20
-15.58786065031101
 30
0.0
 10
18.9660504814233
 20
-15.87059466901978
 30
0.0
 10
16.64491261278324
 20
-15.87336317466926
 30
0.0
 10
14.32161909149686
 20
-15.6200922543184
 30
0.0
 10
12.77364553482546
 20
-15.22393354964074
 30
0.0
 10
12.00000004749747
 20
-15.02594154078587
 30
0.0
  0
SPLINE
  5
A8
330
1F
100
AcDbEntity
  8
0
  6
Continuous
 62
     1
370
    15
100
AcDbSpline
210
0.0
220
0.0
230
1.0
 70
     8
 71
     3
 72
    21
 73
    17
 74
     0
 42
0.000000001
 43
0.00000001
 40
0.0
 40
0.0
 40
0.0
 40
0.0
 40
0.0743272350957944
 40
0.1487200519541557
 40
0.2230370161783929
 40
0.2973395491584956
 40
0.3712206133214827
 40
0.4450780785850497
 40
0.5188795371448068
 40
0.5927186533190606
 40
0.6666125374641633
 40
0.7404262586613075
 40
0.8142380549950858
 40
0.888129939783899
 40
0.9619726157891323
 40
1.0
 40
1.0
 40
1.0
 40
1.0
 10
12.00000004749747
 20
3.176638970784104
 30
0.0
 10
12.77364555286892
 20
2.488434045274785
 30
0.0
 10
14.32161918063342
 20
1.111416964726297
 30
0.0
 10
16.64491248617204
 20
-0.985449704461068
 30
0.0
 10
18.96605083304327
 20
-3.062950503827126
 30
0.0
 10
21.28162731985122
 20
-5.083810687451746
 30
0.0
 10
23.59409815167031
 20
-7.010780086194258
 30
0.0
 10
25.90074838553899
 20
-8.814137799694734
 30
0.0
 10
28.2058233646733
 20
-10.46735341113062
 30
0.0
 10
30.51196316848211
 20
-11.94101229928902
 30
0.0
 10
32.81963527774726
 20
-13.20985592058166
 30
0.0
 10
35.12508321525783
 20
-14.25291132809976
 30
0.0
 10
37.43047476087956
 20
-15.05570348746852
 30
0.0
 10
39.73809630726643
 20
-15.58665392524066
 30
0.0
 10
41.67190085320407
 20
-15.85207285496992
 30
0.0
 10
42.83622887555485
 20
-15.83400574810861
 30
0.0
 10
43.23201259970666
 20
-15.82786429423913
 30
0.0
  0
SPLINE
  5
AA
330
1F
100
AcDbEntity
  8
0
  6
Continuous
 62
     1
370
    15
100
AcDbSpline
210
0.0
220
0.0
230
1.0
 70
     8
 71
     3
 72
    64
 73
    60
 74
     0
 42
0.000000001
 43
0.00000001
 40
0.0
 40
0.0
 40
0.0
 40
0.0
 40
0.0312500000000001
 40
0.0312500000000001
 40
0.0625000000000001
 40
0.0625000000000001
 40
0.0937500000000002
 40
0.0937500000000002
 40
0.1250000000000003
 40
0.1250000000000003
 40
0.1562500000000003
 40
0.1562500000000003
 40
0.1875000000000004
 40
0.1875000000000004
 40
0.2187500000000005
 40
0.2187500000000005
 40
0.2500000000000006
 40
0.2500000000000006
 40
0.2812500000000006
 40
0.2812500000000006
 40
0.3125000000000007
 40
0.3125000000000007
 40
0.3437500000000008
 40
0.3437500000000008
 40
0.3750000000000008
 40
0.3750000000000008
 40
0.4375000000000007
 40
0.4375000000000007
 40
0.5000000000000007
 40
0.5000000000000007
 40
0.5625000000000006
 40
0.5625000000000006
 40
0.5937500000000006
 40
0.5937500000000006
 40
0.6250000000000004
 40
0.6250000000000004
 40
0.6562500000000004
 40
0.6562500000000004
 40
0.6875000000000004
 40
0.6875000000000004
 40
0.7187500000000003
 40
0.7187500000000003
 40
0.7500000000000003
 40
0.7500000000000003
 40
0.7812500000000003
 40
0.7812500000000003
 40
0.8125000000000002
 40
0.8125000000000002
 40
0.8437500000000002
 40
0.8437500000000002
 40
0.8750000000000001
 40
0.8750000000000001
 40
0.9062500000000001
 40
0.9062500000000001
 40
0.9375000000000001
 40
0.9375000000000001
 40
0.96875
 40
0.96875
 40
1.0
 40
1.0
 40
1.0
 40
1.0
 10
61.70000000000002
 20
-14.61781652646852
 30
0.0
 10
61.18155147835236
 20
-14.79878338378821
 30
0.0
 10
60.66207623891458
 20
-14.96089236747718
 30
0.0
 10
59.62711045120092
 20
-15.24558158849539
 30
0.0
 10
59.11225998644848
 20
-15.3681788316883
 30
0.0
 10
58.07582304166586
 20
-15.57381923504087
 30
0.0
 10
57.55628176434985
 20
-15.65664921355682
 30
0.0
 10
56.52059427451599
 20
-15.78139481413924
 30
0.0
 10
56.00593766237255
 20
-15.82333332716984
 30
0.0
 10
54.97007629784953
 20
-15.86635875785906
 30
0.0
 10
54.45052721557339
 20
-15.86733926919691
 30
0.0
 10
53.41423322680013
 20
-15.82820736896537
 30
0.0
 10
52.89946471288465
 20
-15.788201024999
 30
0.0
 10
51.86429419640776
 20
-15.66734285452264
 30
0.0
 10
51.3447955450112
 20
-15.58644570110524
 30
0.0
 10
50.30801048589084
 20
-15.38459289090396
 30
0.0
 10
49.79282435733248
 20
-15.26384480795875
 30
0.0
 10
48.75845970007153
 20
-14.98292511365407
 30
0.0
 10
48.23906969651769
 20
-14.82266517866246
 30
0.0
 10
47.20190917827197
 20
-14.46430409278663
 30
0.0
 10
46.68599987709688
 20
-14.26647148973423
 30
0.0
 10
45.65255579114825
 20
-13.83428191475235
 30
0.0
 10
45.13333261174017
 20
-13.59963864973813
 30
0.0
 10
44.09591238529578
 20
-13.09584576483292
 30
0.0
 10
43.57897462169334
 20
-12.82693225571564
 30
0.0
 10
42.03036090593756
 20
-11.97197072793425
 30
0.0
 10
40.98736212191224
 20
-11.33477144237805
 30
0.0
 10
38.92484169354753
 20
-9.954765571491217
 30
0.0
 10
37.88123005257497
 20
-9.206624707116202
 30
0.0
 10
35.81749187630819
 20
-7.628554272741903
 30
0.0
 10
34.77573698097144
 20
-6.793227091879111
 30
0.0
 10
33.22629837595856
 20
-5.497520082830419
 30
0.0
 10
32.70993102189071
 20
-5.057977371908462
 30
0.0
 10
31.67263075848652
 20
-4.165606403524434
 30
0.0
 10
31.15331397375673
 20
-3.713231221136721
 30
0.0
 10
30.11937911300433
 20
-2.801392238257445
 30
0.0
 10
29.60388224849807
 20
-2.34168314116953
 30
0.0
 10
28.5669016189864
 20
-1.415588078367314
 30
0.0
 10
28.04744811485432
 20
-0.9498015090957715
 30
0.0
 10
27.01265201606332
 20
-0.0181717284852688
 30
0.0
 10
26.49772019838086
 20
0.4475460220508298
 30
0.0
 10
25.46117488674571
 20
1.378658326395618
 30
0.0
 10
24.94164286327743
 20
1.843423251088236
 30
0.0
 10
23.90610039862692
 20
2.765970777892053
 30
0.0
 10
23.39142797547169
 20
3.223367623749567
 30
0.0
 10
22.35543350375931
 20
4.130641927623933
 30
0.0
 10
21.83588119040904
 20
4.57998256067187
 30
0.0
 10
20.79970750920366
 20
5.464844128289216
 30
0.0
 10
20.28498873205983
 20
5.899848179759296
 30
0.0
 10
19.24966041752381
 20
6.755179139332376
 30
0.0
 10
18.73014605134075
 20
7.175171576040317
 30
0.0
 10
17.69345653744644
 20
7.994903668933778
 30
0.0
 10
17.17838567499349
 20
8.394122417662384
 30
0.0
 10
16.14383858739955
 20
9.171029213975054
 30
0.0
 10
15.6244203912287
 20
9.548661725411522
 30
0.0
 10
14.58733062032558
 20
10.2778359627678
 30
0.0
 10
14.07160207183926
 20
10.62895794938887
 30
0.0
 10
13.03795099096305
 20
11.30340792400516
 30
0.0
 10
12.51868715165724
 20
11.62698591809915
 30
0.0
 10
11.99999999999998
 20
11.934983638316
 30
0.0
1001
PE_URL
1000

  0
SPLINE
  5
AB
330
1F
100
AcDbEntity
  8
0
  6
Continuous
 62
     1
370
    15
100
AcDbSpline
210
0.0
220
0.0
230
1.0
 70
     8
 71
     3
 72
     8
 73
     4
 74
     0
 42
0.000000001
 43
0.00000001
 40
0.0
 40
0.0
 40
0.0
 40
0.0
 40
1.0
 40
1.0
 40
1.0
 40
1.0
 10
61.7
 20
-14.61781652646852
 30
0.0
 10
62.05966777888888
 20
-14.1783717445789
 30
0.0
 10
62.42545478838984
 20
-13.73788975560426
 30
0.0
 10
62.80000000000003
 20
-13.29810006588107
 30
0.0
  0
SPLINE
  5
AC
330
1F
100
AcDbEntity
  8
0
  6
Continuous
 62
     1
370
    15
100
AcDbSpline
210
0.0
220
0.0
230
1.0
 70
     8
 71
     3
 72
    64
 73
    60
 74
     0
 42
0.000000001
 43
0.00000001
 40
0.0
 40
0.0
 40
0.0
 40
0.0
 40
0.03125
 40
0.03125
 40
0.0625000000000001
 40
0.0625000000000001
 40
0.0937500000000001
 40
0.0937500000000001
 40
0.1250000000000002
 40
0.1250000000000002
 40
0.1562500000000002
 40
0.1562500000000002
 40
0.1875000000000003
 40
0.1875000000000003
 40
0.2187500000000003
 40
0.2187500000000003
 40
0.2500000000000004
 40
0.2500000000000004
 40
0.2812500000000004
 40
0.2812500000000004
 40
0.3125000000000005
 40
0.3125000000000005
 40
0.3437500000000006
 40
0.3437500000000006
 40
0.3750000000000006
 40
0.3750000000000006
 40
0.4375000000000006
 40
0.4375000000000006
 40
0.5000000000000007
 40
0.5000000000000007
 40
0.5625000000000007
 40
0.5625000000000007
 40
0.5937500000000006
 40
0.5937500000000006
 40
0.6250000000000006
 40
0.6250000000000006
 40
0.6562500000000004
 40
0.6562500000000004
 40
0.6875000000000004
 40
0.6875000000000004
 40
0.7187500000000003
 40
0.7187500000000003
 40
0.7500000000000002
 40
0.7500000000000002
 40
0.7812500000000002
 40
0.7812500000000002
 40
0.8125000000000001
 40
0.8125000000000001
 40
0.8437500000000001
 40
0.8437500000000001
 40
0.875
 40
0.875
 40
0.90625
 40
0.90625
 40
0.9374999999999999
 40
0.9374999999999999
 40
0.96875
 40
0.96875
 40
1.0
 40
1.0
 40
1.0
 40
1.0
 10
61.7
 20
-7.927494182562961
 30
0.0
 10
61.18155147835233
 20
-7.523670698070913
 30
0.0
 10
60.66207623891454
 20
-7.109282757384903
 30
0.0
 10
59.62711045120086
 20
-6.264230826093951
 30
0.0
 10
59.11225998644839
 20
-5.833774460958832
 30
0.0
 10
58.07582304166576
 20
-4.956989741771658
 30
0.0
 10
57.55628176434976
 20
-4.511212691217621
 30
0.0
 10
56.52059427451589
 20
-3.610081248611551
 30
0.0
 10
56.00593766237244
 20
-3.155180903599178
 30
0.0
 10
54.97007629784933
 20
-2.236450941236154
 30
0.0
 10
54.45052721557322
 20
-1.773097381671399
 30
0.0
 10
53.41423322679992
 20
-0.8437985557189025
 30
0.0
 10
52.89946471288442
 20
-0.3784523380954126
 30
0.0
 10
51.86429419640751
 20
0.553736867214191
 30
0.0
 10
51.34479554501098
 20
1.020308270746542
 30
0.0
 10
50.30801048589055
 20
1.948977050054939
 30
0.0
 10
49.79282435733221
 20
2.410451609039668
 30
0.0
 10
48.75845970007121
 20
3.327207761351811
 30
0.0
 10
48.23906969651737
 20
3.782539261600369
 30
0.0
 10
47.20190917827159
 20
4.681791703590486
 30
0.0
 10
46.68599987709654
 20
5.125186760049097
 30
0.0
 10
45.65255579114787
 20
5.998110807055644
 30
0.0
 10
45.13333261173978
 20
6.428095622940921
 30
0.0
 10
44.09591238529534
 20
7.270052908399365
 30
0.0
 10
43.5789746216929
 20
7.681696446467305
 30
0.0
 10
42.03036090593709
 20
8.884801286593442
 30
0.0
 10
40.98736212191172
 20
9.647607750289229
 30
0.0
 10
38.92484169354697
 20
11.06042987330547
 30
0.0
 10
37.88123005257439
 20
11.71586514952342
 30
0.0
 10
35.81749187630756
 20
12.89445118426673
 30
0.0
 10
34.77573698097081
 20
13.42174443420578
 30
0.0
 10
33.22629837595787
 20
14.10267345722418
 30
0.0
 10
32.70993102189003
 20
14.31174123921345
 30
0.0
 10
31.67263075848579
 20
14.69292983348725
 30
0.0
 10
31.15331397375598
 20
14.86480763243732
 30
0.0
 10
30.11937911300357
 20
15.16925641277251
 30
0.0
 10
29.60388224849729
 20
15.30197609981841
 30
0.0
 10
28.5669016189856
 20
15.52802429452515
 30
0.0
 10
28.04744811485351
 20
15.62114059598382
 30
0.0
 10
27.01265201606248
 20
15.76655978307027
 30
0.0
 10
26.49772019838002
 20
15.81892025774356
 30
0.0
 10
25.46117488674485
 20
15.88285974767963
 30
0.0
 10
24.94164286327655
 20
15.89431823003007
 30
0.0
 10
23.90610039862601
 20
15.87611910037361
 30
0.0
 10
23.39142797547078
 20
15.8465525140858
 30
0.0
 10
22.35543350375838
 20
15.74645206300851
 30
0.0
 10
21.8358811904081
 20
15.67589258381445
 30
0.0
 10
20.79970750920269
 20
15.49456854270966
 30
0.0
 10
20.28498873205886
 20
15.3839958850218
 30
0.0
 10
19.24966041752281
 20
15.12302003351549
 30
0.0
 10
18.73014605133974
 20
14.97262998286427
 30
0.0
 10
17.69345653744541
 20
14.6337431894032
 30
0.0
 10
17.17838567499244
 20
14.44554631297466
 30
0.0
 10
16.14383858739847
 20
14.03185510862622
 30
0.0
 10
15.62442039122761
 20
13.80630129221396
 30
0.0
 10
14.58733062032446
 20
13.32031111028574
 30
0.0
 10
14.07160207183814
 20
13.06023203825558
 30
0.0
 10
13.0379509909619
 20
12.50672497225718
 30
0.0
 10
12.51868715165607
 20
12.21300815407427
 30
0.0
 10
11.99999999999882
 20
11.90397745008321
 30
0.0
  0
SPLINE
  5
AD
330
1F
100
AcDbEntity
  8
0
  6
Continuous
 62
     1
370
    15
100
AcDbSpline
210
0.0
220
0.0
230
1.0
 70
     8
 71
     3
 72
     8
 73
     4
 74
     0
 42
0.000000001
 43
0.00000001
 40
0.0
 40
0.0
 40
0.0
 40
0.0
 40
1.0
 40
1.0
 40
1.0
 40
1.0
 10
62.80000000000003
 20
-8.308912633421924
 30
0.0
 10
62.43497020121539
 20
-8.197486248388856
 30
0.0
 10
62.06819346717707
 20
-8.07027877637926
 30
0.0
 10
61.70000000000002
 20
-7.927494182562972
 30
0.0
  0
SPLINE
  5
AE
330
1F
100
AcDbEntity
  8
0
  6
Continuous
 62
     1
370
    15
100
AcDbSpline
210
0.0
220
0.0
230
1.0
 70
     8
 71
     3
 72
    11
 73
     7
 74
     0
 42
0.000000001
 43
0.00000001
 40
0.0
 40
0.0
 40
0.0
 40
0.0
 40
0.1543089496241206
 40
0.4248859732670849
 40
0.7027846447088723
 40
1.0
 40
1.0
 40
1.0
 40
1.0
 10
60.49687793850899
 20
-6.953617909290635
 30
0.0
 10
60.35266248818813
 20
-6.985166666128635
 30
0.0
 10
59.95556872195493
 20
-7.072035407618563
 30
0.0
 10
59.21819651599983
 20
-7.358526441136684
 30
0.0
 10
58.30245185860669
 20
-7.788990025781088
 30
0.0
 10
57.66530565106695
 20
-8.168781538262257
 30
0.0
 10
57.33603245019913
 20
-8.365055431910598
 30
0.0
  0
SPLINE
  5
AF
330
1F
100
AcDbEntity
  8
0
  6
Continuous
 62
     1
370
    15
100
AcDbSpline
210
0.0
220
0.0
230
1.0
 70
     8
 71
     3
 72
    10
 73
     6
 74
     0
 42
0.000000001
 43
0.00000001
 40
0.0
 40
0.0
 40
0.0
 40
0.0
 40
0.5
 40
0.5
 40
1.0
 40
1.0
 40
1.0
 40
1.0
 10
62.80000000000003
 20
-9.267411249357936
 30
0.0
 10
61.86198083550975
 20
-9.269188015061987
 30
0.0
 10
60.93694643167505
 20
-9.198741148667928
 30
0.0
 10
59.11417437051246
 20
-8.906017880511971
 30
0.0
 10
58.21685413490128
 20
-8.681419702223314
 30
0.0
 10
57.33603219012087
 20
-8.365054989393242
 30
0.0
  0
LINE
  5
B0
330
1F
100
AcDbEntity
  8
0
  6
Continuous
 62
     1
370
    15
100
AcDbLine
 10
62.80000141263009
 20
-15.86175698537453
 30
0.0
 11
62.80000141263009
 21
0.0132435212649344
 31
0.0
  0
SPLINE
  5
B1
330
1F
100
AcDbEntity
  8
0
  6
Continuous
 62
     1
370
    15
100
AcDbSpline
210
0.0
220
0.0
230
1.0
 70
     8
 71
     3
 72
    18
 73
    14
 74
     0
 42
0.000000001
 43
0.00000001
 40
0.0
 40
0.0
 40
0.0
 40
0.0
 40
0.0999273902859414
 40
0.1999155948450682
 40
0.2998489317441586
 40
0.3997421025656703
 40
0.4996429526588212
 40
0.590174325229286
 40
0.6806674453714509
 40
0.7710967830515524
 40
0.8615769386564799
 40
0.9521173830019323
 40
1.0
 40
1.0
 40
1.0
 40
1.0
 10
61.70000141859055
 20
1.993908893949545
 30
0.0
 10
60.85100868607105
 20
2.748541343726035
 30
0.0
 10
59.15250653710963
 20
4.258265500984274
 30
0.0
 10
56.60369208958416
 20
6.421801831094789
 30
0.0
 10
54.05629227853845
 20
8.45568171999219
 30
0.0
 10
51.5099733541349
 20
10.31257709505168
 30
0.0
 10
49.04366516135774
 20
11.90364554166024
 30
0.0
 10
46.65595449392904
 20
13.22002255853711
 30
0.0
 10
44.34939131822624
 20
14.26603554440815
 30
0.0
 10
42.04432250735721
 20
15.07239932580858
 30
0.0
 10
39.73811962412196
 20
15.60766037943175
 30
0.0
 10
37.7921768079875
 20
15.87678907761838
 30
0.0
 10
36.61641729697387
 20
15.86017897667233
 30
0.0
 10
36.20970441401006
 20
15.85443329315559
 30
0.0
  0
LINE
  5
B2
330
1F
100
AcDbEntity
  8
0
  6
Continuous
 62
     1
370
    15
100
AcDbLine
 10
61.70000141859055
 20
-7.927494009324156
 30
0.0
 11
61.70000141859055
 21
1.993908893949545
 31
0.0
  0
SPLINE
  5
B3
330
1F
100
AcDbEntity
  8
0
  6
Continuous
 62
     1
370
    15
100
AcDbSpline
210
0.0
220
0.0
230
1.0
 70
     8
 71
     3
 72
     8
 73
     4
 74
     0
 42
0.000000001
 43
0.00000001
 40
0.0
 40
0.0
 40
0.0
 40
0.0
 40
1.0
 40
1.0
 40
1.0
 40
1.0
 10
61.7
 20
1.993908958311105
 30
0.0
 10
62.05966777888888
 20
1.672991355672329
 30
0.0
 10
62.42545478838984
 20
1.379453573856377
 30
0.0
 10
62.80000000000003
 20
1.116297222558569
 30
0.0
  0
LINE
  5
B4
330
1F
100
AcDbEntity
  8
0
  6
Continuous
 62
     1
370
    15
100
AcDbLine
 10
62.80000141263009
 20
1.116297205611325
 30
0.0
 11
62.80000141263009
 21
-8.308912513145053
 31
0.0
  0
SPLINE
  5
B5
330
1F
100
AcDbEntity
  8
0
  6
Continuous
 62
     1
370
    15
100
AcDbSpline
210
0.0
220
0.0
230
1.0
 70
     8
 71
     3
 72
    13
 73
     9
 74
     0
 42
0.000000001
 43
0.00000001
 40
0.0
 40
0.0
 40
0.0
 40
0.0
 40
0.0008105456008868
 40
0.2005929295203652
 40
0.4003600133323489
 40
0.6002073994823999
 40
0.800164521135281
 40
1.0
 40
1.0
 40
1.0
 40
1.0
 10
48.95350342988969
 20
11.91904034715072
 30
0.0
 10
48.9569480842936
 20
11.92123572920689
 30
0.0
 10
49.80942734925628
 20
12.46454645420802
 30
0.0
 10
51.5099076065421
 20
13.34166601659766
 30
0.0
 10
54.05630977654346
 20
14.47742342809147
 30
0.0
 10
56.60368749913797
 20
15.27904300888936
 30
0.0
 10
59.15250750239196
 20
15.79317444394601
 30
0.0
 10
60.85100904456281
 20
15.85655935341901
 30
0.0
 10
61.70000141859055
 20
15.88824216525928
 30
0.0
  0
SPLINE
  5
B6
330
1F
100
AcDbEntity
  8
0
  6
Continuous
 62
     1
370
    15
100
AcDbSpline
210
0.0
220
0.0
230
1.0
 70
     8
 71
     3
 72
     8
 73
     4
 74
     0
 42
0.000000001
 43
0.00000001
 40
0.0
 40
0.0
 40
0.0
 40
0.0
 40
1.0
 40
1.0
 40
1.0
 40
1.0
 10
62.80000000000003
 20
14.74701077652121
 30
0.0
 10
62.43497020121539
 20
15.13966669899611
 30
0.0
 10
62.06819346717707
 20
15.51996069559752
 30
0.0
 10
61.70000000000002
 20
15.88824308098561
 30
0.0
  0
LINE
  5
B7
330
1F
100
AcDbEntity
  8
0
  6
Continuous
 62
     1
370
    15
100
AcDbLine
 10
62.80000141263009
 20
10.29236905526296
 30
0.0
 11
62.80000141263009
 21
14.74701065819637
 31
0.0
  0
SPLINE
  5
B8
330
1F
100
AcDbEntity
  8
0
  6
Continuous
 62
     1
370
    15
100
AcDbSpline
210
0.0
220
0.0
230
1.0
 70
     8
 71
     3
 72
    20
 73
    16
 74
     0
 42
0.000000001
 43
0.00000001
 40
0.0
 40
0.0
 40
0.0
 40
0.0
 40
0.25
 40
0.25
 40
0.375
 40
0.375
 40
0.5
 40
0.5
 40
0.625
 40
0.625
 40
0.75
 40
0.75
 40
0.875
 40
0.875
 40
1.0
 40
1.0
 40
1.0
 40
1.0
 10
62.80000000000003
 20
10.29236895923745
 30
0.0
 10
62.56100449602801
 20
9.647882996153562
 30
0.0
 10
62.26700653228831
 20
9.048750618628564
 30
0.0
 10
61.72323182130307
 20
8.23479990171582
 30
0.0
 10
61.52258817639178
 20
7.975588639819967
 30
0.0
 10
61.09434058368396
 20
7.503724712807656
 30
0.0
 10
60.86693464091606
 20
7.290396467532748
 30
0.0
 10
60.38516925463178
 20
6.909609772215933
 30
0.0
 10
60.12852163361229
 20
6.741004577498991
 30
0.0
 10
59.59876037455957
 20
6.457907553679277
 30
0.0
 10
59.3272558810764
 20
6.3436784934238
 30
0.0
 10
58.77197885522489
 20
6.165818648692818
 30
0.0
 10
58.48681262405517
 20
6.102007280895661
 30
0.0
 10
57.91093521828527
 20
6.024140308622504
 30
0.0
 10
57.62333272460435
 20
6.010205091587789
 30
0.0
 10
57.33603219012087
 20
6.018721542108667
 30
0.0
  0
SPLINE
  5
B9
330
1F
100
AcDbEntity
  8
0
  6
Continuous
 62
     1
370
    15
100
AcDbSpline
210
0.0
220
0.0
230
1.0
 70
     8
 71
     3
 72
    10
 73
     6
 74
     0
 42
0.000000001
 43
0.00000001
 40
0.0
 40
0.0
 40
0.0
 40
0.0
 40
0.5
 40
0.5
 40
1.0
 40
1.0
 40
1.0
 40
1.0
 10
62.80000000000003
 20
3.075537565087054
 30
0.0
 10
61.86198083550977
 20
3.647276589639144
 30
0.0
 10
60.93694643167506
 20
4.180471991609278
 30
0.0
 10
59.11417437051247
 20
5.165835849963855
 30
0.0
 10
58.2168541349013
 20
5.616765242684964
 30
0.0
 10
57.33603219012087
 20
6.018721542108661
 30
0.0
  0
LINE
  5
BA
330
1F
100
AcDbEntity
  8
0
  6
Continuous
 62
     1
370
    15
100
AcDbLine
 10
62.80000141263009
 20
1.116297205611325
 30
0.0
 11
62.80000141263009
 21
3.075537618882215
 31
0.0
  0
LINE
  5
BB
330
1F
100
AcDbEntity
  8
0
  6
Continuous
 62
     1
370
    15
100
AcDbLine
 10
62.80000141263009
 20
3.075537618882215
 30
0.0
 11
62.80000141263009
 21
10.29236905526296
 31
0.0
  0
LINE
  5
BC
330
1F
100
AcDbEntity
  8
0
  6
Continuous
 62
     1
370
    15
100
AcDbLine
 10
62.80000141263009
 20
-8.308912513145053
 30
0.0
 11
62.80000141263009
 21
-9.267411080487811
 31
0.0
  0
LINE
  5
BD
330
1F
100
AcDbEntity
  8
0
  6
Continuous
 62
     1
370
    15
100
AcDbLine
 10
62.80000141263009
 20
14.78824310254232
 30
0.0
 11
62.80000141263009
 21
14.74701065819637
 31
0.0
  0
LINE
  5
BE
330
1F
100
AcDbEntity
  8
중심선
100
AcDbLine
 10
-58.49999999999999
 20
0.0132435212649371
 30
0.0
 11
69.80000000000003
 21
0.0132435212649371
 31
0.0
  0
CIRCLE
  5
BF
330
1F
100
AcDbEntity
  8
외형선
100
AcDbCircle
 10
0.0
 20
0.0
 30
0.0
 40
3.000000000000001
  0
INSERT
  5
C0
330
1F
100
AcDbEntity
  8
0
  6
Continuous
 62
     7
100
AcDbBlockReference
 66
     1
  2
블럭10
 10
-6.996851049235465
 20
-52.04717430164393
 30
0.0
  0
ATTRIB
  5
C1
330
C0
100
AcDbEntity
  8
FORMAT
 62
     2
100
AcDbText
 10
-16.34669523488551
 20
-49.97180738881174
 30
0.0
 40
4.233333333333333
  1
EK191116 [ 3 FLUTE ]
 41
0.75
  7
SLDTEXTSTYLE0
 11
-16.34669523488551
 21
-52.08847405547841
 31
0.0
100
AcDbAttribute
  2
AUTOATTR0
 70
     0
 74
     1
  0
SEQEND
  5
C2
330
C0
100
AcDbEntity
  8
0
  6
Continuous
 62
     7
  0
HATCH
  5
C3
330
1F
100
AcDbEntity
  8
중심선
100
AcDbHatch
 10
0.0
 20
0.0
 30
0.0
210
0.0
220
0.0
230
1.0
  2
SOLID
 70
     1
 71
     0
 91
        1
 92
        0
 93
        4
 72
     1
 10
-1.281941744854631
 20
-35.8
 11
-4.728216988691914
 21
-35.8
 72
     1
 10
-4.728216988691914
 20
-35.8
 11
-6.856446847895937
 21
-38.33632558057257
 72
     1
 10
-6.856446847895937
 20
-38.33632558057257
 11
-3.410138518945505
 21
-38.33628615127008
 72
     1
 10
-3.410138518945505
 20
-38.33628615127008
 11
-1.281941744854631
 21
-35.8
 97
        0
 75
     0
 76
     1
 98
        1
 10
0.0
 20
0.0
  0
HATCH
  5
C4
330
1F
100
AcDbEntity
  8
중심선
100
AcDbHatch
 10
0.0
 20
0.0
 30
0.0
210
0.0
220
0.0
230
1.0
  2
SOLID
 70
     1
 71
     0
 91
        1
 92
        0
 93
        4
 72
     1
 10
3.730822246181348
 20
-35.8
 11
0.2845470023440653
 21
-35.8
 72
     1
 10
0.2845470023440655
 20
-35.8
 11
-4.24659100601335
 21
-41.20000000000002
 72
     1
 10
-4.24659100601335
 20
-41.20000000000002
 11
-0.8003157621760684
 21
-41.20000000000002
 72
     1
 10
-0.8003157621760681
 20
-41.20000000000002
 11
3.730822246181348
 21
-35.8
 97
        0
 75
     0
 76
     1
 98
        1
 10
0.0
 20
0.0
  0
HATCH
  5
C5
330
1F
100
AcDbEntity
  8
중심선
100
AcDbHatch
 10
0.0
 20
0.0
 30
0.0
210
0.0
220
0.0
230
1.0
  2
SOLID
 70
     1
 71
     0
 91
        1
 92
        0
 93
        4
 72
     1
 10
8.743586237217189
 20
-35.8
 11
5.297310993380128
 21
-35.8
 72
     1
 10
5.297310993380128
 20
-35.8
 11
-1.751125908509149
 21
-44.20000000000002
 72
     1
 10
-1.751125908509149
 20
-44.20000000000002
 11
1.695149335328133
 21
-44.20000000000002
 72
     1
 10
1.695149335328133
 20
-44.20000000000002
 11
8.743586237217189
 21
-35.8
 97
        0
 75
     0
 76
     1
 98
        1
 10
0.0
 20
0.0
  0
HATCH
  5
C6
330
1F
100
AcDbEntity
  8
중심선
100
AcDbHatch
 10
0.0
 20
0.0
 30
0.0
210
0.0
220
0.0
230
1.0
  2
SOLID
 70
     1
 71
     0
 91
        1
 92
        0
 93
        6
 72
     3
 10
13.54347666822941
 20
-40.00000000005127
 11
3.960054785062284
 21
1.540850780301639E-10
 40
0.3939339440162633
 50
17.09539180608433
 51
320.0019657685081
 73
     0
 72
     1
 10
15.22647632392998
 20
-38.58789400463833
 11
17.53177819763105
 21
-36.65356729459038
 72
     3
 10
13.54347666817657
 20
-40.00000000000015
 11
6.600054785286829
 21
-1.249000902703301E-13
 40
0.6363583540795982
 50
39.99873849337408
 51
368.4976242363724
 73
     1
 72
     1
 10
19.96880916007718
 20
-39.03999999993002
 11
12.22354397501249
 21
-39.03999999993002
 72
     1
 10
12.22354397501249
 20
-39.03999999993002
 11
12.22351893056656
 21
-40.95999999992991
 72
     1
 10
12.22351893056656
 20
-40.95999999992991
 11
16.6648987000386
 21
-40.95999999992988
 97
        0
 75
     0
 76
     1
 98
        1
 10
0.0
 20
0.0
  0
POINT
  5
C7
330
1F
100
AcDbEntity
  8
치수문자_일반주서
100
AcDbPoint
 10
24.00000000000001
 20
0.0
 30
0.0
  0
DIMENSION
  5
C8
330
1F
100
AcDbEntity
  8
치수문자_일반주서
100
AcDbDimension
  2
_D
 10
12.00000000000002
 20
24.5215240693906
 30
0.0
 11
31.95247057532184
 21
24.5215240693906
 31
0.0
 70
   160
  1
<>
 71
     2
 42
50.80000000000003
  3
SLDDIMSTYLE1
100
AcDbAlignedDimension
 13
62.80000000000003
 23
10.29236895923693
 33
0.0
 14
12.00000000000001
 24
11.93498363831598
 34
0.0
 50
0.000000000000016
100
AcDbRotatedDimension
1001
PE_URL
1000

1001
ACAD
1000
DSTYLE
1002
{
1070
   171
1070
     6
1070
   273
1070
     7
1002
}
  0
DIMENSION
  5
DC
330
1F
100
AcDbEntity
  8
치수문자_일반주서
100
AcDbDimension
  2
_D_1
 10
62.80000000000004
 20
39.87904880660641
 30
0.0
 11
6.90763195993615
 21
39.87904880660641
 31
0.0
 70
   160
  1
<>
 71
     2
 42
114.3
  3
SLDDIMSTYLE1
100
AcDbAlignedDimension
 13
-51.49999999999999
 23
14.88824352126494
 33
0.0
 14
62.80000000000003
 24
10.29236895923693
 34
0.0
 50
-0.0000000000000036
100
AcDbRotatedDimension
1001
PE_URL
1000

1001
ACAD
1000
DSTYLE
1002
{
1070
   171
1070
     6
1070
   273
1070
     7
1002
}
  0
DIMENSION
  5
EF
330
1F
100
AcDbEntity
  8
치수문자_일반주서
100
AcDbDimension
  2
_D_2
 10
-68.49999999999991
 20
-15.86175647873512
 30
0.0
 11
-68.49999999999997
 21
-0.2963144853863451
 31
0.0
 70
   160
  1
%%c<>
 71
     2
 42
31.75
  3
SLDDIMSTYLE1
100
AcDbAlignedDimension
 13
-50.49999999999999
 23
15.88824352126494
 33
0.0
 14
-50.49999999999999
 24
-15.86175647873506
 34
0.0
 50
90.0000000000002
100
AcDbRotatedDimension
1001
PE_URL
1000

1001
ACAD
1000
DSTYLE
1002
{
1070
   171
1070
     6
1070
   273
1070
     7
1002
}
  0
INSERT
  5
108
330
1F
100
AcDbEntity
  8
외형선
100
AcDbBlockReference
  2
SW_DOWELSYMBOL_0
 10
0.0
 20
0.0
 30
0.0
  0
LINE
  5
168
330
1F
100
AcDbEntity
  8
0
  6
Continuous
 62
     4
370
    15
100
AcDbLine
 10
-36.41240000000009
 20
15.88824352126494
 30
0.0
 11
-31.468925
 21
15.88824352126494
 31
0.0
  0
LINE
  5
169
330
1F
100
AcDbEntity
  8
0
  6
Continuous
 62
     4
370
    15
100
AcDbLine
 10
-29.08132499999998
 20
13.50064352126493
 30
0.0
 11
-15.97492499999997
 21
13.50064352126493
 31
0.0
  0
LINE
  5
16A
330
1F
100
AcDbEntity
  8
0
  6
Continuous
 62
     4
370
    15
100
AcDbLine
 10
-15.97492499999997
 20
13.50064352126493
 30
0.0
 11
-13.58732499999995
 21
15.88824352126495
 31
0.0
  0
LINE
  5
16B
330
1F
100
AcDbEntity
  8
0
  6
Continuous
 62
     4
370
    15
100
AcDbLine
 10
-29.08132499999998
 20
13.50064352126493
 30
0.0
 11
-31.468925
 21
15.88824352126495
 31
0.0
  0
LINE
  5
16C
330
1F
100
AcDbEntity
  8
0
  6
Continuous
 62
     4
370
    15
100
AcDbLine
 10
-51.49999999999999
 20
13.50064352126493
 30
0.0
 11
-38.8
 21
13.50064352126493
 31
0.0
  0
LINE
  5
16D
330
1F
100
AcDbEntity
  8
0
  6
Continuous
 62
     4
370
    15
100
AcDbLine
 10
-38.8
 20
13.50064352126493
 30
0.0
 11
-36.41240000000009
 21
15.88824352126493
 31
0.0
  0
DIMENSION
  5
90A
102
{ACAD_REACTORS
102
}
102
{ACAD_XDICTIONARY
360
90B
102
}
330
1F
100
AcDbEntity
  8
치수문자_일반주서
100
AcDbDimension
  2
*D20
 10
77.4500014126301
 20
-15.86175698537453
 30
0.0
 11
74.8250014126301
 21
0.013243474303076
 31
0.0
 70
    32
 71
     5
 42
31.75000091935521
  3
SLDDIMSTYLE1
100
AcDbAlignedDimension
 13
62.80000000000003
 23
15.88824393398068
 33
0.0
 14
62.8000014126301
 24
-15.86175698537453
 34
0.0
 50
90.0
100
AcDbRotatedDimension
1001
ACAD
1000
DSTYLE
1002
{
1070
   171
1070
     6
1070
   273
1070
     7
1002
}
1001
ENABLE_CUSTOM_SPLIT
1070
     1
1001
PE_URL
1000

  0
LINE
  5
939
330
1F
100
AcDbEntity
  8
0
  6
Continuous
 62
     1
370
    15
100
AcDbLine
 10
58.60129260011792
 20
4.717758721250101
 30
0.0
 11
59.06394898447112
 21
-5.791365861577688
 31
0.0
1001
PE_URL
1000

  0
LINE
  5
93A
330
1F
100
AcDbEntity
  8
0
  6
Continuous
 62
     1
370
    15
100
AcDbLine
 10
58.76402216990815
 20
4.577601514312652
 30
0.0
 11
59.22701079669436
 21
-5.927964971808197
 31
0.0
1001
PE_URL
1000

  0
LINE
  5
93B
330
1F
100
AcDbEntity
  8
0
  6
Continuous
 62
     1
370
    15
100
AcDbLine
 10
59.39485014355444
 20
4.030264004109993
 30
0.0
 11
59.88459505611316
 21
-6.473641208294888
 31
0.0
1001
PE_URL
1000

  0
LINE
  5
93C
330
1F
100
AcDbEntity
  8
0
  6
Continuous
 62
     1
370
    15
100
AcDbLine
 10
59.55204906754552
 20
3.892941097222253
 30
0.0
 11
60.04632576453099
 21
-6.606401095802741
 31
0.0
1001
PE_URL
1000

  0
LINE
  5
952
330
1F
100
AcDbEntity
  8
0
  6
Continuous
 62
     1
370
    15
100
AcDbLine
 10
54.85038624994323
 20
7.811447342757979
 30
0.0
 11
55.30584326810247
 21
-2.534145429403257
 31
0.0
1001
PE_URL
1000

  0
LINE
  5
953
330
1F
100
AcDbEntity
  8
0
  6
Continuous
 62
     1
370
    15
100
AcDbLine
 10
55.01255161511304
 20
7.683905496400204
 30
0.0
 11
55.46926138395349
 21
-2.679188894749324
 31
0.0
1001
PE_URL
1000

  0
LINE
  5
954
330
1F
100
AcDbEntity
  8
0
  6
Continuous
 62
     1
370
    15
100
AcDbLine
 10
55.64068665753188
 20
7.183938903334475
 30
0.0
 11
56.12772940399908
 21
-3.262011043450335
 31
0.0
1001
PE_URL
1000

  0
LINE
  5
955
330
1F
100
AcDbEntity
  8
0
  6
Continuous
 62
     1
370
    15
100
AcDbLine
 10
55.79724683536548
 20
7.05790955093435
 30
0.0
 11
56.2898047491355
 21
-3.404922539056027
 31
0.0
1001
PE_URL
1000

  0
LINE
  5
96B
330
1F
100
AcDbEntity
  8
0
  6
Continuous
 62
     1
370
    15
100
AcDbLine
 10
51.04820299556597
 20
10.59064262633516
 30
0.0
 11
51.47468017044274
 21
0.9033197792112846
 31
0.0
1001
PE_URL
1000

  0
LINE
  5
96C
330
1F
100
AcDbEntity
  8
0
  6
Continuous
 62
     1
370
    15
100
AcDbLine
 10
51.2095845015107
 20
10.48180231908589
 30
0.0
 11
51.63818644225051
 21
0.7564960717646327
 31
0.0
1001
PE_URL
1000

  0
LINE
  5
96D
330
1F
100
AcDbEntity
  8
0
  6
Continuous
 62
     1
370
    15
100
AcDbLine
 10
51.83667825850132
 20
10.05062425580635
 30
0.0
 11
52.29766733576957
 21
0.1634657628651413
 31
0.0
1001
PE_URL
1000

  0
LINE
  5
96E
330
1F
100
AcDbEntity
  8
0
  6
Continuous
 62
     1
370
    15
100
AcDbLine
 10
51.99280515903953
 20
9.941278063077496
 30
0.0
 11
52.45999624520159
 21
0.0172838447323809
 31
0.0
1001
PE_URL
1000

  0
LINE
  5
984
330
1F
100
AcDbEntity
  8
0
  6
Continuous
 62
     1
370
    15
100
AcDbLine
 10
46.53090230561263
 20
13.24489703012834
 30
0.0
 11
46.89639524925603
 21
4.942815812200633
 31
0.0
1001
PE_URL
1000

  0
LINE
  5
985
330
1F
100
AcDbEntity
  8
0
  6
Continuous
 62
     1
370
    15
100
AcDbLine
 10
46.69107534207181
 20
13.16473024673918
 30
0.0
 11
47.0595935543434
 21
4.802769808878702
 31
0.0
1001
PE_URL
1000

  0
LINE
  5
986
330
1F
100
AcDbEntity
  8
0
  6
Continuous
 62
     1
370
    15
100
AcDbLine
 10
47.31608829980065
 20
12.84158653761531
 30
0.0
 11
47.71737700955514
 21
4.234864013337797
 31
0.0
1001
PE_URL
1000

  0
LINE
  5
987
330
1F
100
AcDbEntity
  8
0
  6
Continuous
 62
     1
370
    15
100
AcDbLine
 10
47.47144157206212
 20
12.75874653578381
 30
0.0
 11
47.87933786769368
 21
4.094282252474018
 31
0.0
1001
PE_URL
1000

  0
LINE
  5
99D
330
1F
100
AcDbEntity
  8
0
  6
Continuous
 62
     1
370
    15
100
AcDbLine
 10
42.2717283735188
 20
14.9596915950541
 30
0.0
 11
42.55736190251028
 21
8.47159709831271
 31
0.0
1001
PE_URL
1000

  0
LINE
  5
99E
330
1F
100
AcDbEntity
  8
0
  6
Continuous
 62
     1
370
    15
100
AcDbLine
 10
42.43053317866897
 20
14.91101887898227
 30
0.0
 11
42.71979518065519
 21
8.347442544788624
 31
0.0
1001
PE_URL
1000

  0
LINE
  5
99F
330
1F
100
AcDbEntity
  8
0
  6
Continuous
 62
     1
370
    15
100
AcDbLine
 10
43.05090731838059
 20
14.70887670555183
 30
0.0
 11
43.37107397551302
 21
7.842036167849509
 31
0.0
1001
PE_URL
1000

  0
LINE
  5
9A0
330
1F
100
AcDbEntity
  8
0
  6
Continuous
 62
     1
370
    15
100
AcDbLine
 10
43.2049841122273
 20
14.65575883107988
 30
0.0
 11
43.53169963072124
 21
7.715722917267822
 31
0.0
1001
PE_URL
1000

  0
LINE
  5
9B6
330
1F
100
AcDbEntity
  8
0
  6
Continuous
 62
     1
370
    15
100
AcDbLine
 10
37.54153599555357
 20
15.84536542285223
 30
0.0
 11
37.71989410265664
 21
11.79400542589934
 31
0.0
1001
PE_URL
1000

  0
LINE
  5
9B7
330
1F
100
AcDbEntity
  8
0
  6
Continuous
 62
     1
370
    15
100
AcDbLine
 10
37.69860996414903
 20
15.83677675182488
 30
0.0
 11
37.88108364517188
 21
11.69630919593813
 31
0.0
1001
PE_URL
1000

  0
LINE
  5
9B8
330
1F
100
AcDbEntity
  8
0
  6
Continuous
 62
     1
370
    15
100
AcDbLine
 10
38.31384909000439
 20
15.78459833066859
 30
0.0
 11
38.5230449207288
 21
11.29782752323097
 31
0.0
1001
PE_URL
1000

  0
LINE
  5
9B9
330
1F
100
AcDbEntity
  8
0
  6
Continuous
 62
     1
370
    15
100
AcDbLine
 10
38.46649384822682
 20
15.76743889868865
 30
0.0
 11
38.68165297309456
 21
11.19706507423821
 31
0.0
1001
PE_URL
1000

  0
LINE
  5
9CF
330
1F
100
AcDbEntity
  8
0
  6
Continuous
 62
     1
370
    15
100
AcDbLine
 10
32.60966782946355
 20
15.88824402790443
 30
0.0
 11
32.67881791445999
 21
14.31751706353614
 31
0.0
1001
PE_URL
1000

  0
LINE
  5
9D0
330
1F
100
AcDbEntity
  8
0
  6
Continuous
 62
     1
370
    15
100
AcDbLine
 10
32.76644273209591
 20
15.88824402790443
 30
0.0
 11
32.83844018302789
 21
14.2545667325301
 31
0.0
1001
PE_URL
1000

  0
LINE
  5
9D1
330
1F
100
AcDbEntity
  8
0
  6
Continuous
 62
     1
370
    15
100
AcDbLine
 10
33.3835875695275
 20
15.88824402790443
 30
0.0
 11
33.47195003210253
 21
13.99307185271298
 31
0.0
1001
PE_URL
1000

  0
LINE
  5
9D2
330
1F
100
AcDbEntity
  8
0
  6
Continuous
 62
     1
370
    15
100
AcDbLine
 10
33.53616849622576
 20
15.88824402790443
 30
0.0
 11
33.62856378858351
 21
13.92559881843968
 31
0.0
1001
PE_URL
1000

  0
LINE
  5
9E8
330
1F
100
AcDbEntity
  8
0
  6
Continuous
 62
     1
370
    15
100
AcDbLine
 10
42.63557230961455
 20
-12.16618581385411
 30
0.0
 11
42.79702763234385
 21
-15.83360327205022
 31
0.0
1001
PE_URL
1000

  0
LINE
  5
9E9
330
1F
100
AcDbEntity
  8
0
  6
Continuous
 62
     1
370
    15
100
AcDbLine
 10
42.79711447326283
 20
-12.27640618000822
 30
0.0
 11
42.95380863945094
 21
-15.83191680302966
 31
0.0
1001
PE_URL
1000

  0
LINE
  5
9EA
330
1F
100
AcDbEntity
  8
0
  6
Continuous
 62
     1
370
    15
100
AcDbLine
 10
43.43132415072196
 20
-12.74259881410184
 30
0.0
 11
43.5767549990547
 21
-15.86175698537453
 31
0.0
1001
PE_URL
1000

  0
LINE
  5
9EB
330
1F
100
AcDbEntity
  8
0
  6
Continuous
 62
     1
370
    15
100
AcDbLine
 10
43.58720396796735
 20
-12.82575367936729
 30
0.0
 11
43.73012965402863
 21
-15.86175698537453
 31
0.0
1001
PE_URL
1000

  0
LINE
  5
A47
330
1F
100
AcDbEntity
  8
0
  6
Continuous
 62
     1
370
    15
100
AcDbLine
 10
37.35058626180201
 20
-8.79695470717132
 30
0.0
 11
37.62657656052595
 21
-15.06600562926482
 31
0.0
1001
PE_URL
1000

  0
LINE
  5
A48
330
1F
100
AcDbEntity
  8
0
  6
Continuous
 62
     1
370
    15
100
AcDbLine
 10
37.51256377885031
 20
-8.917890720349929
 30
0.0
 11
37.78544293436596
 21
-15.10972772257904
 31
0.0
1001
PE_URL
1000

  0
LINE
  5
A49
330
1F
100
AcDbEntity
  8
0
  6
Continuous
 62
     1
370
    15
100
AcDbLine
 10
38.14468545682649
 20
-9.382145234220134
 30
0.0
 11
38.41929666393133
 21
-15.27192584393207
 31
0.0
1001
PE_URL
1000

  0
LINE
  5
A4A
330
1F
100
AcDbEntity
  8
0
  6
Continuous
 62
     1
370
    15
100
AcDbLine
 10
38.30163365960088
 20
-9.495520365643358
 30
0.0
 11
38.57531147961173
 21
-15.30893843786841
 31
0.0
1001
PE_URL
1000

  0
LINE
  5
A60
330
1F
100
AcDbEntity
  8
0
  6
Continuous
 62
     1
370
    15
100
AcDbLine
 10
32.08051270621613
 20
-4.516414632383242
 30
0.0
 11
32.45338160243738
 21
-12.98603877672257
 31
0.0
1001
PE_URL
1000

  0
LINE
  5
A61
330
1F
100
AcDbEntity
  8
0
  6
Continuous
 62
     1
370
    15
100
AcDbLine
 10
32.2432613698326
 20
-4.656493985280354
 30
0.0
 11
32.61398303458548
 21
-13.06845244728649
 31
0.0
1001
PE_URL
1000

  0
LINE
  5
A62
330
1F
100
AcDbEntity
  8
0
  6
Continuous
 62
     1
370
    15
100
AcDbLine
 10
32.87500741014695
 20
-5.197009540002916
 30
0.0
 11
33.25688834597288
 21
-13.38747982254849
 31
0.0
1001
PE_URL
1000

  0
LINE
  5
A63
330
1F
100
AcDbEntity
  8
0
  6
Continuous
 62
     1
370
    15
100
AcDbLine
 10
33.03224905019854
 20
-5.330659828129718
 30
0.0
 11
33.41510841947611
 21
-13.46329394656363
 31
0.0
1001
PE_URL
1000

  0
LINE
  5
A79
330
1F
100
AcDbEntity
  8
0
  6
Continuous
 62
     1
370
    15
100
AcDbLine
 10
26.62917595753341
 20
0.0132435212649371
 30
0.0
 11
27.05390331561922
 21
-9.63433267310471
 31
0.0
1001
PE_URL
1000

  0
LINE
  5
A7A
330
1F
100
AcDbEntity
  8
0
  6
Continuous
 62
     1
370
    15
100
AcDbLine
 10
26.78574401933939
 20
0.0132435212649367
 30
0.0
 11
27.21601403822913
 21
-9.749912696647712
 31
0.0
1001
PE_URL
1000

  0
LINE
  5
A7B
330
1F
100
AcDbEntity
  8
0
  6
Continuous
 62
     1
370
    15
100
AcDbLine
 10
27.40966415418328
 20
-0.3755669806133879
 30
0.0
 11
27.86802386124891
 21
-10.20633151280443
 31
0.0
1001
PE_URL
1000

  0
LINE
  5
A7C
330
1F
100
AcDbEntity
  8
0
  6
Continuous
 62
     1
370
    15
100
AcDbLine
 10
27.56708585673157
 20
-0.5173268355084559
 30
0.0
 11
28.02839936972688
 21
-10.31647063642846
 31
0.0
1001
PE_URL
1000

  0
LINE
  5
A92
330
1F
100
AcDbEntity
  8
0
  6
Continuous
 62
     1
370
    15
100
AcDbLine
 10
21.18761037594386
 20
5.13348759964394
 30
0.0
 11
21.65055253370127
 21
-5.382128254911459
 31
0.0
1001
PE_URL
1000

  0
LINE
  5
A93
330
1F
100
AcDbEntity
  8
0
  6
Continuous
 62
     1
370
    15
100
AcDbLine
 10
21.35024700413436
 20
4.994692341541274
 30
0.0
 11
21.81363576405027
 21
-5.519953471703514
 31
0.0
1001
PE_URL
1000

  0
LINE
  5
A94
330
1F
100
AcDbEntity
  8
0
  6
Continuous
 62
     1
370
    15
100
AcDbLine
 10
21.97891894222985
 20
4.45476901705083
 30
0.0
 11
22.46960528850033
 21
-6.06932778942384
 31
0.0
1001
PE_URL
1000

  0
LINE
  5
A95
330
1F
100
AcDbEntity
  8
0
  6
Continuous
 62
     1
370
    15
100
AcDbLine
 10
22.13570925494304
 20
4.319251224098889
 30
0.0
 11
22.63107778184705
 21
-6.203283435820314
 31
0.0
1001
PE_URL
1000

  0
LINE
  5
AAB
330
1F
100
AcDbEntity
  8
0
  6
Continuous
 62
     1
370
    15
100
AcDbLine
 10
16.23717552065914
 20
9.098159637147994
 30
0.0
 11
16.68245646569099
 21
-1.016286167465839
 31
0.0
1001
PE_URL
1000

  0
LINE
  5
AAC
330
1F
100
AcDbEntity
  8
0
  6
Continuous
 62
     1
370
    15
100
AcDbLine
 10
16.39903644971583
 20
8.978322894911237
 30
0.0
 11
16.84598110620655
 21
-1.163193619160632
 31
0.0
1001
PE_URL
1000

  0
LINE
  5
AAD
330
1F
100
AcDbEntity
  8
0
  6
Continuous
 62
     1
370
    15
100
AcDbLine
 10
17.0278307132345
 20
8.505155558793062
 30
0.0
 11
17.50621949590122
 21
-1.755186711136233
 31
0.0
1001
PE_URL
1000

  0
LINE
  5
AAE
330
1F
100
AcDbEntity
  8
0
  6
Continuous
 62
     1
370
    15
100
AcDbLine
 10
17.18441589305587
 20
8.385510991120384
 30
0.0
 11
17.66864881223245
 21
-1.900482968477254
 31
0.0
1001
PE_URL
1000

  0
ENDSEC
  0
SECTION
  2
OBJECTS
  0
DICTIONARY
  5
C
330
0
100
AcDbDictionary
281
     1
  3
ACAD_DETAILVIEWSTYLE
350
AB8
  3
ACAD_GROUP
350
D
  3
ACAD_IMAGE_VARS
350
12C
  3
ACAD_LAYOUT
350
1A
  3
ACAD_MLINESTYLE
350
17
  3
ACAD_PLOTSETTINGS
350
19
  3
ACAD_PLOTSTYLENAME
350
E
  3
ACAD_SCALELIST
350
47
  3
ACAD_SECTIONVIEWSTYLE
350
AB9
  3
AcDbVariableDictionary
350
AB3
  3
APPDATA
350
12A
  3
DWGPROPS
350
ABC
  0
DICTIONARY
  5
159
330
2
100
AcDbDictionary
280
     1
281
     1
  3
ACAD_LAYERSTATES
360
15A
  0
DICTIONARY
  5
ABA
330
1F
100
AcDbDictionary
280
     1
281
     1
  3
DIM_BOUNDING_BOXES_V1
360
ABB
  0
DICTIONARY
  5
90B
330
90A
100
AcDbDictionary
280
     1
281
     1
  3
ACAD_CUSTOM_BREAKDATA
360
91A
  0
DICTIONARY
  5
AB8
102
{ACAD_REACTORS
330
C
102
}
330
C
100
AcDbDictionary
281
     1
  0
DICTIONARY
  5
D
102
{ACAD_REACTORS
330
C
102
}
330
C
100
AcDbDictionary
281
     1
  0
RASTERVARIABLES
  5
12C
102
{ACAD_REACTORS
330
C
102
}
330
C
100
AcDbRasterVariables
 90
        0
 70
     1
 71
     1
 72
     1
  0
DICTIONARY
  5
1A
102
{ACAD_REACTORS
330
C
102
}
330
C
100
AcDbDictionary
281
     1
  3
Layout1
350
1E
  3
Layout2
350
26
  3
Model
350
22
  0
DICTIONARY
  5
17
102
{ACAD_REACTORS
330
C
102
}
330
C
100
AcDbDictionary
281
     1
  3
Standard
350
18
  0
DICTIONARY
  5
19
102
{ACAD_REACTORS
330
C
102
}
330
C
100
AcDbDictionary
281
     1
  0
ACDBDICTIONARYWDFLT
  5
E
102
{ACAD_REACTORS
330
C
102
}
330
C
100
AcDbDictionary
281
     1
  3
Normal
350
F
100
AcDbDictionaryWithDefault
340
F
  0
DICTIONARY
  5
47
102
{ACAD_REACTORS
330
C
102
}
330
C
100
AcDbDictionary
281
     1
  3
A0
350
48
  3
A1
350
49
  3
A2
350
4A
  3
A3
350
4B
  3
A4
350
4C
  3
A5
350
4D
  3
A6
350
4E
  3
A7
350
4F
  3
A8
350
50
  3
A9
350
51
  3
B0
350
52
  3
B1
350
53
  3
B2
350
54
  3
B3
350
55
  3
B4
350
56
  3
B5
350
57
  3
B6
350
58
  3
B7
350
59
  3
B8
350
5A
  3
B9
350
5B
  3
C0
350
5C
  3
C1
350
5D
  3
C2
350
5E
  3
C3
350
5F
  3
C4
350
60
  3
C5
350
61
  3
C6
350
62
  3
C7
350
63
  3
C8
350
64
  3
C9
350
65
  3
D0
350
66
  3
D1
350
67
  3
D2
350
68
  0
DICTIONARY
  5
AB9
102
{ACAD_REACTORS
330
C
102
}
330
C
100
AcDbDictionary
281
     1
  0
DICTIONARY
  5
AB3
102
{ACAD_REACTORS
330
C
102
}
330
C
100
AcDbDictionary
281
     1
  0
DICTIONARY
  5
12A
102
{ACAD_REACTORS
330
C
102
}
330
C
100
AcDbDictionary
281
     1
  0
XRECORD
  5
ABC
102
{ACAD_REACTORS
330
C
102
}
330
C
100
AcDbXrecord
280
     1
  1
DWGPROPS COOKIE
  2

  3

  4

  6

  7

  8
12014102
  9

300
=
301
=
302
=
303
=
304
=
305
=
306
=
307
=
308
=
309
=
 40
0.0
 41
2458274.42405257
 42
2459726.002496215
  1

 90
        0
  0
DICTIONARY
  5
15A
102
{ACAD_REACTORS
330
159
102
}
330
159
100
AcDbDictionary
281
     1
  0
DICTIONARY
  5
ABB
102
{ACAD_REACTORS
330
ABA
102
}
330
ABA
100
AcDbDictionary
281
     1
  0
BREAKDATA
  5
91A
102
{ACAD_REACTORS
330
90B
102
}
330
90B
100
AcDbBreakData
 70
     0
330
90A
 90
        0
  0
LAYOUT
  5
1E
102
{ACAD_REACTORS
330
1A
102
}
330
1A
100
AcDbPlotSettings
  1

  2
none_device
  4

  6

 40
0.0
 41
0.0
 42
0.0
 43
0.0
 44
0.0
 45
0.0
 46
0.0
 47
0.0
 48
0.0
 49
0.0
140
0.0
141
0.0
142
1.0
143
1.0
 70
   688
 72
     1
 73
     0
 74
     5
  7

 75
    16
147
1.0
148
0.0
149
0.0
100
AcDbLayout
  1
Layout1
 70
     1
 71
     1
 10
0.0
 20
0.0
 11
420.0
 21
297.0
 12
0.0
 22
0.0
 32
0.0
 14
1.000000000000000E+20
 24
1.000000000000000E+20
 34
1.000000000000000E+20
 15
-1.000000000000000E+20
 25
-1.000000000000000E+20
 35
-1.000000000000000E+20
146
0.0
 13
0.0
 23
0.0
 33
0.0
 16
1.0
 26
0.0
 36
0.0
 17
0.0
 27
1.0
 37
0.0
 76
     0
330
1B
  0
LAYOUT
  5
26
102
{ACAD_REACTORS
330
1A
102
}
330
1A
100
AcDbPlotSettings
  1

  2
none_device
  4

  6

 40
0.0
 41
0.0
 42
0.0
 43
0.0
 44
0.0
 45
0.0
 46
0.0
 47
0.0
 48
0.0
 49
0.0
140
0.0
141
0.0
142
1.0
143
1.0
 70
   688
 72
     1
 73
     0
 74
     5
  7

 75
    16
147
1.0
148
0.0
149
0.0
100
AcDbLayout
  1
Layout2
 70
     1
 71
     2
 10
0.0
 20
0.0
 11
0.0
 21
0.0
 12
0.0
 22
0.0
 32
0.0
 14
0.0
 24
0.0
 34
0.0
 15
0.0
 25
0.0
 35
0.0
146
0.0
 13
0.0
 23
0.0
 33
0.0
 16
1.0
 26
0.0
 36
0.0
 17
0.0
 27
1.0
 37
0.0
 76
     0
330
23
  0
LAYOUT
  5
22
102
{ACAD_REACTORS
330
1A
102
}
330
1A
100
AcDbPlotSettings
  1

  2
none_device
  4
ANSI_A_(11.00_x_8.50_Inches)
  6

 40
6.35
 41
19.05
 42
6.35000508
 43
19.05000254
 44
279.4
 45
215.9
 46
142.1558774246408
 47
88.940668436
 48
0.0
 49
0.0
140
0.0
141
0.0
142
0.0730417165102538
143
1.0
 70
  1696
 72
     0
 73
     0
 74
     0
  7

 75
     0
147
0.0235690232323232
148
0.0
149
0.0
100
AcDbLayout
  1
Model
 70
     1
 71
     0
 10
0.0
 20
0.0
 11
420.0
 21
297.0
 12
0.0
 22
0.0
 32
0.0
 14
-72.87500000000003
 24
-49.97180738881174
 34
0.0
 15
78.00033474596344
 25
44.25404880660642
 35
0.0
146
0.0
 13
0.0
 23
0.0
 33
0.0
 16
1.0
 26
0.0
 36
0.0
 17
0.0
 27
1.0
 37
0.0
 76
     0
330
1F
331
29
  0
MLINESTYLE
  5
18
102
{ACAD_REACTORS
330
17
102
}
330
17
100
AcDbMlineStyle
  2
Standard
 70
     0
  3

 62
   256
 51
90.0
 52
90.0
 71
     2
 49
0.5
 62
   256
  6
BYLAYER
 49
-0.5
 62
   256
  6
BYLAYER
  0
ACDBPLACEHOLDER
  5
F
102
{ACAD_REACTORS
330
E
102
}
330
E
  0
SCALE
  5
48
102
{ACAD_REACTORS
330
47
102
}
330
47
100
AcDbScale
 70
     0
300
1:1
140
1.0
141
1.0
290
     1
  0
SCALE
  5
49
102
{ACAD_REACTORS
330
47
102
}
330
47
100
AcDbScale
 70
     0
300
1:2
140
1.0
141
2.0
290
     0
  0
SCALE
  5
4A
102
{ACAD_REACTORS
330
47
102
}
330
47
100
AcDbScale
 70
     0
300
1:4
140
1.0
141
4.0
290
     0
  0
SCALE
  5
4B
102
{ACAD_REACTORS
330
47
102
}
330
47
100
AcDbScale
 70
     0
300
1:5
140
1.0
141
5.0
290
     0
  0
SCALE
  5
4C
102
{ACAD_REACTORS
330
47
102
}
330
47
100
AcDbScale
 70
     0
300
1:8
140
1.0
141
8.0
290
     0
  0
SCALE
  5
4D
102
{ACAD_REACTORS
330
47
102
}
330
47
100
AcDbScale
 70
     0
300
1:10
140
1.0
141
10.0
290
     0
  0
SCALE
  5
4E
102
{ACAD_REACTORS
330
47
102
}
330
47
100
AcDbScale
 70
     0
300
1:16
140
1.0
141
16.0
290
     0
  0
SCALE
  5
4F
102
{ACAD_REACTORS
330
47
102
}
330
47
100
AcDbScale
 70
     0
300
1:20
140
1.0
141
20.0
290
     0
  0
SCALE
  5
50
102
{ACAD_REACTORS
330
47
102
}
330
47
100
AcDbScale
 70
     0
300
1:30
140
1.0
141
30.0
290
     0
  0
SCALE
  5
51
102
{ACAD_REACTORS
330
47
102
}
330
47
100
AcDbScale
 70
     0
300
1:40
140
1.0
141
40.0
290
     0
  0
SCALE
  5
52
102
{ACAD_REACTORS
330
47
102
}
330
47
100
AcDbScale
 70
     0
300
1:50
140
1.0
141
50.0
290
     0
  0
SCALE
  5
53
102
{ACAD_REACTORS
330
47
102
}
330
47
100
AcDbScale
 70
     0
300
1:100
140
1.0
141
100.0
290
     0
  0
SCALE
  5
54
102
{ACAD_REACTORS
330
47
102
}
330
47
100
AcDbScale
 70
     0
300
2:1
140
2.0
141
1.0
290
     0
  0
SCALE
  5
55
102
{ACAD_REACTORS
330
47
102
}
330
47
100
AcDbScale
 70
     0
300
4:1
140
4.0
141
1.0
290
     0
  0
SCALE
  5
56
102
{ACAD_REACTORS
330
47
102
}
330
47
100
AcDbScale
 70
     0
300
8:1
140
8.0
141
1.0
290
     0
  0
SCALE
  5
57
102
{ACAD_REACTORS
330
47
102
}
330
47
100
AcDbScale
 70
     0
300
10:1
140
10.0
141
1.0
290
     0
  0
SCALE
  5
58
102
{ACAD_REACTORS
330
47
102
}
330
47
100
AcDbScale
 70
     0
300
100:1
140
100.0
141
1.0
290
     0
  0
SCALE
  5
59
102
{ACAD_REACTORS
330
47
102
}
330
47
100
AcDbScale
 70
     0
300
1/128" = 1'-0"
140
0.0078125
141
12.0
290
     0
  0
SCALE
  5
5A
102
{ACAD_REACTORS
330
47
102
}
330
47
100
AcDbScale
 70
     0
300
1/64" = 1'-0"
140
0.015625
141
12.0
290
     0
  0
SCALE
  5
5B
102
{ACAD_REACTORS
330
47
102
}
330
47
100
AcDbScale
 70
     0
300
1/32" = 1'-0"
140
0.03125
141
12.0
290
     0
  0
SCALE
  5
5C
102
{ACAD_REACTORS
330
47
102
}
330
47
100
AcDbScale
 70
     0
300
1/16" = 1'-0"
140
0.0625
141
12.0
290
     0
  0
SCALE
  5
5D
102
{ACAD_REACTORS
330
47
102
}
330
47
100
AcDbScale
 70
     0
300
3/32" = 1'-0"
140
0.09375
141
12.0
290
     0
  0
SCALE
  5
5E
102
{ACAD_REACTORS
330
47
102
}
330
47
100
AcDbScale
 70
     0
300
1/8" = 1'-0"
140
0.125
141
12.0
290
     0
  0
SCALE
  5
5F
102
{ACAD_REACTORS
330
47
102
}
330
47
100
AcDbScale
 70
     0
300
3/16" = 1'-0"
140
0.1875
141
12.0
290
     0
  0
SCALE
  5
60
102
{ACAD_REACTORS
330
47
102
}
330
47
100
AcDbScale
 70
     0
300
1/4" = 1'-0"
140
0.25
141
12.0
290
     0
  0
SCALE
  5
61
102
{ACAD_REACTORS
330
47
102
}
330
47
100
AcDbScale
 70
     0
300
3/8" = 1'-0"
140
0.375
141
12.0
290
     0
  0
SCALE
  5
62
102
{ACAD_REACTORS
330
47
102
}
330
47
100
AcDbScale
 70
     0
300
1/2" = 1'-0"
140
0.5
141
12.0
290
     0
  0
SCALE
  5
63
102
{ACAD_REACTORS
330
47
102
}
330
47
100
AcDbScale
 70
     0
300
3/4" = 1'-0"
140
0.75
141
12.0
290
     0
  0
SCALE
  5
64
102
{ACAD_REACTORS
330
47
102
}
330
47
100
AcDbScale
 70
     0
300
1" = 1'-0"
140
1.0
141
12.0
290
     0
  0
SCALE
  5
65
102
{ACAD_REACTORS
330
47
102
}
330
47
100
AcDbScale
 70
     0
300
1-1/2" = 1'-0"
140
1.5
141
12.0
290
     0
  0
SCALE
  5
66
102
{ACAD_REACTORS
330
47
102
}
330
47
100
AcDbScale
 70
     0
300
3" = 1'-0"
140
3.0
141
12.0
290
     0
  0
SCALE
  5
67
102
{ACAD_REACTORS
330
47
102
}
330
47
100
AcDbScale
 70
     0
300
6" = 1'-0"
140
6.0
141
12.0
290
     0
  0
SCALE
  5
68
102
{ACAD_REACTORS
330
47
102
}
330
47
100
AcDbScale
 70
     0
300
1'-0" = 1'-0"
140
12.0
141
12.0
290
     0
  0
ENDSEC
  0
EOF
