  0
SECTION
  2
HEADER
  9
$ACADVER
  1
AC1015
  9
$ACADMAINTVER
 70
     6
  9
$DWGCODEPAGE
  3
ANSI_949
  9
$INSBASE
 10
0.0
 20
0.0
 30
0.0
  9
$EXTMIN
 10
1.000000000000000E+20
 20
1.000000000000000E+20
 30
1.000000000000000E+20
  9
$EXTMAX
 10
-1.000000000000000E+20
 20
-1.000000000000000E+20
 30
-1.000000000000000E+20
  9
$LIMMIN
 10
0.0
 20
0.0
  9
$LIMMAX
 10
420.0
 20
297.0
  9
$ORTHOMODE
 70
     1
  9
$REGENMODE
 70
     1
  9
$FILLMODE
 70
     1
  9
$QTEXTMODE
 70
     0
  9
$MIRRTEXT
 70
     1
  9
$LTSCALE
 40
1.0
  9
$ATTMODE
 70
     1
  9
$TEXTSIZE
 40
3.5
  9
$TRACEWID
 40
1.0
  9
$TEXTSTYLE
  7
Standard
  9
$CLAYER
  8
0
  9
$CELTYPE
  6
ByLayer
  9
$CECOLOR
 62
   256
  9
$CELTSCALE
 40
1.0
  9
$DISPSILH
 70
     0
  9
$DIMSCALE
 40
1.0
  9
$DIMASZ
 40
3.302
  9
$DIMEXO
 40
1.0
  9
$DIMDLI
 40
3.75
  9
$DIMRND
 40
0.0
  9
$DIMDLE
 40
0.0
  9
$DIMEXE
 40
1.0
  9
$DIMTP
 40
0.0
  9
$DIMTM
 40
0.0
  9
$DIMTXT
 40
3.5
  9
$DIMCEN
 40
2.5
  9
$DIMTSZ
 40
0.0
  9
$DIMTOL
 70
     0
  9
$DIMLIM
 70
     0
  9
$DIMTIH
 70
     1
  9
$DIMTOH
 70
     1
  9
$DIMSE1
 70
     0
  9
$DIMSE2
 70
     0
  9
$DIMTAD
 70
     1
  9
$DIMZIN
 70
     0
  9
$DIMBLK
  1

  9
$DIMASO
 70
     1
  9
$DIMSHO
 70
     1
  9
$DIMPOST
  1

  9
$DIMAPOST
  1

  9
$DIMALT
 70
     0
  9
$DIMALTD
 70
     3
  9
$DIMALTF
 40
0.0393700787401575
  9
$DIMLFAC
 40
1.0
  9
$DIMTOFL
 70
     1
  9
$DIMTVP
 40
0.0
  9
$DIMTIX
 70
     0
  9
$DIMSOXD
 70
     0
  9
$DIMSAH
 70
     0
  9
$DIMBLK1
  1

  9
$DIMBLK2
  1

  9
$DIMSTYLE
  2
ISO-25
  9
$DIMCLRD
 70
     0
  9
$DIMCLRE
 70
     0
  9
$DIMCLRT
 70
     0
  9
$DIMTFAC
 40
1.0
  9
$DIMGAP
 40
1.524
  9
$DIMJUST
 70
     0
  9
$DIMSD1
 70
     0
  9
$DIMSD2
 70
     0
  9
$DIMTOLJ
 70
     0
  9
$DIMTZIN
 70
     0
  9
$DIMALTZ
 70
     0
  9
$DIMALTTZ
 70
     0
  9
$DIMUPT
 70
     0
  9
$DIMDEC
 70
     2
  9
$DIMTDEC
 70
     2
  9
$DIMALTU
 70
     2
  9
$DIMALTTD
 70
     3
  9
$DIMTXSTY
  7
Standard
  9
$DIMAUNIT
 70
     0
  9
$DIMADEC
 70
     2
  9
$DIMALTRND
 40
0.0
  9
$DIMAZIN
 70
     0
  9
$DIMDSEP
 70
    44
  9
$DIMATFIT
 70
     3
  9
$DIMFRAC
 70
     0
  9
$DIMLDRBLK
  1

  9
$DIMLUNIT
 70
     2
  9
$DIMLWD
 70
    -2
  9
$DIMLWE
 70
    -2
  9
$DIMTMOVE
 70
     0
  9
$LUNITS
 70
     2
  9
$LUPREC
 70
     2
  9
$SKETCHINC
 40
1.0
  9
$FILLETRAD
 40
10.0
  9
$AUNITS
 70
     0
  9
$AUPREC
 70
     2
  9
$MENU
  1
.
  9
$ELEVATION
 40
0.0
  9
$PELEVATION
 40
0.0
  9
$THICKNESS
 40
0.0
  9
$LIMCHECK
 70
     0
  9
$CHAMFERA
 40
0.0
  9
$CHAMFERB
 40
0.0
  9
$CHAMFERC
 40
0.0
  9
$CHAMFERD
 40
0.0
  9
$SKPOLY
 70
     0
  9
$TDCREATE
 40
2458274.7797739
  9
$TDUCREATE
 40
2458274.4047739
  9
$TDUPDATE
 40
2458305.719337026
  9
$TDUUPDATE
 40
2458305.344337026
  9
$TDINDWG
 40
0.0016231019
  9
$TDUSRTIMER
 40
2458305.34420706
  9
$USRTIMER
 70
     1
  9
$ANGBASE
 50
0.0
  9
$ANGDIR
 70
     0
  9
$PDMODE
 70
     0
  9
$PDSIZE
 40
-1.0
  9
$PLINEWID
 40
0.0
  9
$SPLFRAME
 70
     0
  9
$SPLINETYPE
 70
     6
  9
$SPLINESEGS
 70
     8
  9
$HANDSEED
  5
323
  9
$SURFTAB1
 70
     6
  9
$SURFTAB2
 70
     6
  9
$SURFTYPE
 70
     6
  9
$SURFU
 70
     6
  9
$SURFV
 70
     6
  9
$UCSBASE
  2

  9
$UCSNAME
  2

  9
$UCSORG
 10
0.0
 20
0.0
 30
0.0
  9
$UCSXDIR
 10
1.0
 20
0.0
 30
0.0
  9
$UCSYDIR
 10
0.0
 20
1.0
 30
0.0
  9
$UCSORTHOREF
  2

  9
$UCSORTHOVIEW
 70
     0
  9
$UCSORGTOP
 10
0.0
 20
0.0
 30
0.0
  9
$UCSORGBOTTOM
 10
0.0
 20
0.0
 30
0.0
  9
$UCSORGLEFT
 10
0.0
 20
0.0
 30
0.0
  9
$UCSORGRIGHT
 10
0.0
 20
0.0
 30
0.0
  9
$UCSORGFRONT
 10
0.0
 20
0.0
 30
0.0
  9
$UCSORGBACK
 10
0.0
 20
0.0
 30
0.0
  9
$PUCSBASE
  2

  9
$PUCSNAME
  2

  9
$PUCSORG
 10
0.0
 20
0.0
 30
0.0
  9
$PUCSXDIR
 10
1.0
 20
0.0
 30
0.0
  9
$PUCSYDIR
 10
0.0
 20
1.0
 30
0.0
  9
$PUCSORTHOREF
  2

  9
$PUCSORTHOVIEW
 70
     0
  9
$PUCSORGTOP
 10
0.0
 20
0.0
 30
0.0
  9
$PUCSORGBOTTOM
 10
0.0
 20
0.0
 30
0.0
  9
$PUCSORGLEFT
 10
0.0
 20
0.0
 30
0.0
  9
$PUCSORGRIGHT
 10
0.0
 20
0.0
 30
0.0
  9
$PUCSORGFRONT
 10
0.0
 20
0.0
 30
0.0
  9
$PUCSORGBACK
 10
0.0
 20
0.0
 30
0.0
  9
$USERI1
 70
     0
  9
$USERI2
 70
     0
  9
$USERI3
 70
     0
  9
$USERI4
 70
     0
  9
$USERI5
 70
     0
  9
$USERR1
 40
0.0
  9
$USERR2
 40
0.0
  9
$USERR3
 40
0.0
  9
$USERR4
 40
0.0
  9
$USERR5
 40
0.0
  9
$WORLDVIEW
 70
     1
  9
$SHADEDGE
 70
     3
  9
$SHADEDIF
 70
    70
  9
$TILEMODE
 70
     1
  9
$MAXACTVP
 70
    64
  9
$PINSBASE
 10
0.0
 20
0.0
 30
0.0
  9
$PLIMCHECK
 70
     0
  9
$PEXTMIN
 10
1.000000000000000E+20
 20
1.000000000000000E+20
 30
1.000000000000000E+20
  9
$PEXTMAX
 10
-1.000000000000000E+20
 20
-1.000000000000000E+20
 30
-1.000000000000000E+20
  9
$PLIMMIN
 10
0.0
 20
0.0
  9
$PLIMMAX
 10
0.0
 20
0.0
  9
$UNITMODE
 70
     0
  9
$VISRETAIN
 70
     1
  9
$PLINEGEN
 70
     0
  9
$PSLTSCALE
 70
     1
  9
$TREEDEPTH
 70
  3020
  9
$CMLSTYLE
  2
Standard
  9
$CMLJUST
 70
     0
  9
$CMLSCALE
 40
20.0
  9
$PROXYGRAPHICS
 70
     1
  9
$MEASUREMENT
 70
     1
  9
$CELWEIGHT
370
    -1
  9
$ENDCAPS
280
     0
  9
$JOINSTYLE
280
     0
  9
$LWDISPLAY
290
     1
  9
$INSUNITS
 70
     4
  9
$HYPERLINKBASE
  1

  9
$STYLESHEET
  1

  9
$XEDIT
290
     1
  9
$CEPSNTYPE
380
     0
  9
$PSTYLEMODE
290
     1
  9
$FINGERPRINTGUID
  2
{FFCCC10A-CA98-4693-8BAC-3B8331DD5217}
  9
$VERSIONGUID
  2
{FAEB1C32-E019-11D5-929B-00C0DF256EC4}
  9
$EXTNAMES
290
     1
  9
$PSVPSCALE
 40
0.0
  9
$OLESTARTUP
290
     0
  0
ENDSEC
  0
SECTION
  2
CLASSES
  0
CLASS
  1
ACDBDICTIONARYWDFLT
  2
AcDbDictionaryWithDefault
  3
ObjectDBX Classes
 90
        0
280
     0
281
     0
  0
CLASS
  1
VISUALSTYLE
  2
AcDbVisualStyle
  3
ObjectDBX Classes
 90
     4095
280
     0
281
     0
  0
CLASS
  1
MATERIAL
  2
AcDbMaterial
  3
ObjectDBX Classes
 90
     1153
280
     0
281
     0
  0
CLASS
  1
SCALE
  2
AcDbScale
  3
ObjectDBX Classes
 90
     1153
280
     0
281
     0
  0
CLASS
  1
SUN
  2
AcDbSun
  3
SCENEOE
 90
     1153
280
     0
281
     0
  0
CLASS
  1
ACDBPLACEHOLDER
  2
AcDbPlaceHolder
  3
ObjectDBX Classes
 90
        0
280
     0
281
     0
  0
CLASS
  1
LAYOUT
  2
AcDbLayout
  3
ObjectDBX Classes
 90
        0
280
     0
281
     0
  0
CLASS
  1
TABLESTYLE
  2
AcDbTableStyle
  3
ObjectDBX Classes
 90
     4095
280
     0
281
     0
  0
CLASS
  1
MLEADERSTYLE
  2
AcDbMLeaderStyle
  3
ACDB_MLEADERSTYLE_CLASS
 90
     4095
280
     0
281
     0
  0
CLASS
  1
RASTERVARIABLES
  2
AcDbRasterVariables
  3
ISM
 90
        0
280
     0
281
     0
  0
ENDSEC
  0
SECTION
  2
TABLES
  0
TABLE
  2
VPORT
  5
8
330
0
100
AcDbSymbolTable
 70
     1
  0
VPORT
  5
29
330
8
100
AcDbSymbolTableRecord
100
AcDbViewportTableRecord
  2
*Active
 70
     0
 10
0.0
 20
0.0
 11
1.0
 21
1.0
 12
-18.16444621094234
 22
-53.34099702405788
 13
0.0
 23
0.0
 14
10.0
 24
10.0
 15
10.0
 25
10.0
 16
0.0
 26
0.0
 36
1.0
 17
0.0
 27
0.0
 37
0.0
 40
202.5747152159132
 41
1.632495164410058
 42
50.0
 43
0.0
 44
0.0
 50
0.0
 51
0.0
 71
    16
 72
  2000
 73
     1
 74
     3
 75
     0
 76
     0
 77
     0
 78
     0
281
     0
 65
     1
110
0.0
120
0.0
130
0.0
111
1.0
121
0.0
131
0.0
112
0.0
122
1.0
132
0.0
 79
     0
146
0.0
  0
ENDTAB
  0
TABLE
  2
LTYPE
  5
5
330
0
100
AcDbSymbolTable
 70
     6
  0
LTYPE
  5
14
330
5
100
AcDbSymbolTableRecord
100
AcDbLinetypeTableRecord
  2
ByBlock
 70
     0
  3

 72
    65
 73
     0
 40
0.0
  0
LTYPE
  5
15
330
5
100
AcDbSymbolTableRecord
100
AcDbLinetypeTableRecord
  2
ByLayer
 70
     0
  3

 72
    65
 73
     0
 40
0.0
  0
LTYPE
  5
16
330
5
100
AcDbSymbolTableRecord
100
AcDbLinetypeTableRecord
  2
Continuous
 70
     0
  3
Solid line
 72
    65
 73
     0
 40
0.0
  0
LTYPE
  5
6A
330
5
100
AcDbSymbolTableRecord
100
AcDbLinetypeTableRecord
  2
HIDDEN
 70
     0
  3
Hidden __ __ __ __ __ __ __ __ __ __ __ __ __ __
 72
    65
 73
     2
 40
1.905
 49
1.27
 74
     0
 49
-0.635
 74
     0
  0
LTYPE
  5
6B
330
5
100
AcDbSymbolTableRecord
100
AcDbLinetypeTableRecord
  2
PHANTOM
 70
     0
  3
Phantom ______  __  __  ______  __  __  ______
 72
    65
 73
     6
 40
12.7
 49
6.35
 74
     0
 49
-1.27
 74
     0
 49
1.27
 74
     0
 49
-1.27
 74
     0
 49
1.27
 74
     0
 49
-1.27
 74
     0
  0
LTYPE
  5
6C
330
5
100
AcDbSymbolTableRecord
100
AcDbLinetypeTableRecord
  2
CENTER
 70
     0
  3
Center ____ _ ____ _ ____ _ ____ _ ____ _ ____
 72
    65
 73
     4
 40
10.16
 49
6.35
 74
     0
 49
-1.27
 74
     0
 49
1.27
 74
     0
 49
-1.27
 74
     0
  0
LTYPE
  5
6D
330
5
100
AcDbSymbolTableRecord
100
AcDbLinetypeTableRecord
  2
CENTERX2
 70
     0
  3
Center (2x) ________  __  ________  __  _____
 72
    65
 73
     4
 40
20.32
 49
12.7
 74
     0
 49
-2.54
 74
     0
 49
2.54
 74
     0
 49
-2.54
 74
     0
  0
LTYPE
  5
6E
330
5
100
AcDbSymbolTableRecord
100
AcDbLinetypeTableRecord
  2
DOT2
 70
     0
  3
Dot (.5x) ........................................
 72
    65
 73
     2
 40
0.635
 49
0.0
 74
     0
 49
-0.635
 74
     0
  0
ENDTAB
  0
TABLE
  2
LAYER
  5
2
102
{ACAD_XDICTIONARY
360
30F
102
}
330
0
100
AcDbSymbolTable
 70
    17
  0
LAYER
  5
10
330
2
100
AcDbSymbolTableRecord
100
AcDbLayerTableRecord
  2
0
 70
     0
 62
     7
  6
Continuous
370
    -3
390
F
  0
LAYER
  5
6F
330
2
100
AcDbSymbolTableRecord
100
AcDbLayerTableRecord
  2
FORMAT
 70
     0
 62
     2
  6
Continuous
370
    -3
390
F
  0
LAYER
  5
70
330
2
100
AcDbSymbolTableRecord
100
AcDbLayerTableRecord
  2
외형선
 70
     0
 62
   100
  6
Continuous
370
    30
390
F
  0
LAYER
  5
71
330
2
100
AcDbSymbolTableRecord
100
AcDbLayerTableRecord
  2
숨은선
 70
     0
 62
     2
  6
HIDDEN
370
    15
390
F
  0
LAYER
  5
72
330
2
100
AcDbSymbolTableRecord
100
AcDbLayerTableRecord
  2
중심선
 70
     0
 62
     1
  6
CENTERX2
370
    -3
390
F
  0
LAYER
  5
73
330
2
100
AcDbSymbolTableRecord
100
AcDbLayerTableRecord
  2
파단선
 70
     0
 62
     4
  6
Continuous
370
    -3
390
F
  0
LAYER
  5
74
330
2
100
AcDbSymbolTableRecord
100
AcDbLayerTableRecord
  2
해칭선
 70
     0
 62
     4
  6
Continuous
370
    -3
390
F
  0
LAYER
  5
75
330
2
100
AcDbSymbolTableRecord
100
AcDbLayerTableRecord
  2
가는실선
 70
     0
 62
     4
  6
Continuous
370
    -3
390
F
  0
LAYER
  5
76
330
2
100
AcDbSymbolTableRecord
100
AcDbLayerTableRecord
  2
치수_보조선
 70
     0
 62
     4
  6
Continuous
370
    -3
390
F
  0
LAYER
  5
77
330
2
100
AcDbSymbolTableRecord
100
AcDbLayerTableRecord
  2
치수문자_일반주서
 70
     0
 62
     7
  6
Continuous
370
    15
390
F
  0
LAYER
  5
78
330
2
100
AcDbSymbolTableRecord
100
AcDbLayerTableRecord
  2
개별주서
 70
     0
 62
   100
  6
Continuous
370
    30
390
F
  0
LAYER
  5
79
330
2
100
AcDbSymbolTableRecord
100
AcDbLayerTableRecord
  2
중간선
 70
     0
 62
     2
  6
Continuous
370
    15
390
F
  0
LAYER
  5
7A
330
2
100
AcDbSymbolTableRecord
100
AcDbLayerTableRecord
  2
윤곽선
 70
     0
 62
     3
  6
Continuous
370
    40
390
F
  0
LAYER
  5
7B
330
2
100
AcDbSymbolTableRecord
100
AcDbLayerTableRecord
  2
중심마크
 70
     0
 62
   100
  6
Continuous
370
    30
390
F
  0
LAYER
  5
7C
330
2
100
AcDbSymbolTableRecord
100
AcDbLayerTableRecord
  2
가상선
 70
     0
 62
     4
  6
PHANTOM
370
    -3
390
F
  0
LAYER
  5
7D
330
2
100
AcDbSymbolTableRecord
100
AcDbLayerTableRecord
  2
특수지정선
 70
     0
 62
     5
  6
CENTERX2
370
    60
390
F
  0
LAYER
  5
2A8
330
2
100
AcDbSymbolTableRecord
100
AcDbLayerTableRecord
  2
Defpoints
 70
     0
 62
     7
  6
Continuous
290
     0
370
    -3
390
F
  0
ENDTAB
  0
TABLE
  2
STYLE
  5
3
330
0
100
AcDbSymbolTable
 70
     2
  0
STYLE
  5
11
330
3
100
AcDbSymbolTableRecord
100
AcDbTextStyleTableRecord
  2
Standard
 70
     0
 40
0.0
 41
1.0
 50
0.0
 71
     0
 42
3.5
  3
txt
  4

  0
STYLE
  5
93
330
3
100
AcDbSymbolTableRecord
100
AcDbTextStyleTableRecord
  2
SLDTEXTSTYLE0
 70
     0
 40
0.0
 41
0.75
 50
0.0
 71
     0
 42
3.5
  3
TXT
  4

  0
ENDTAB
  0
TABLE
  2
VIEW
  5
6
330
0
100
AcDbSymbolTable
 70
     0
  0
ENDTAB
  0
TABLE
  2
UCS
  5
7
330
0
100
AcDbSymbolTable
 70
     0
  0
ENDTAB
  0
TABLE
  2
APPID
  5
9
330
0
100
AcDbSymbolTable
 70
     1
  0
APPID
  5
12
330
9
100
AcDbSymbolTableRecord
100
AcDbRegAppTableRecord
  2
ACAD
 70
     0
  0
ENDTAB
  0
TABLE
  2
DIMSTYLE
  5
A
330
0
100
AcDbSymbolTable
 70
     3
100
AcDbDimStyleTable
  0
DIMSTYLE
105
27
330
A
100
AcDbSymbolTableRecord
100
AcDbDimStyleTableRecord
  2
ISO-25
 70
     0
 41
2.5
 42
0.625
 43
3.75
 44
1.25
 73
     0
 74
     0
 77
     1
 78
     8
140
2.5
141
2.5
143
0.03937007874016
147
0.625
171
     3
172
     1
178
     0
271
     2
272
     2
274
     3
278
    44
283
     0
284
     8
340
11
  0
DIMSTYLE
105
242
102
{ACAD_REACTORS
330
241
330
255
102
}
330
A
100
AcDbSymbolTableRecord
100
AcDbDimStyleTableRecord
  2
SLDDIMSTYLE0
 70
     0
 41
3.302
 44
0.0
 45
0.000000001
 73
     0
 74
     0
 77
     1
 78
    12
 79
     3
140
3.5
143
0.0393700787401575
147
0.875
148
0.000000001
170
     1
173
     1
178
     0
271
     2
272
     2
276
     2
284
    12
340
93
  0
DIMSTYLE
105
269
102
{ACAD_REACTORS
330
268
330
2AF
102
}
330
A
100
AcDbSymbolTableRecord
100
AcDbDimStyleTableRecord
  2
SLDDIMSTYLE1
 70
     0
 41
3.302
 44
0.0
 45
0.000000001
 73
     0
 74
     0
 77
     1
 78
     4
 79
     1
140
3.5
143
0.0393700787401575
147
0.875
148
0.000000001
170
     1
172
     1
173
     1
178
     0
271
     2
272
     2
276
     2
284
    12
289
     0
340
93
  0
ENDTAB
  0
TABLE
  2
BLOCK_RECORD
  5
1
330
0
100
AcDbSymbolTable
 70
     8
  0
BLOCK_RECORD
  5
1F
330
1
100
AcDbSymbolTableRecord
100
AcDbBlockTableRecord
  2
*Model_Space
340
22
  0
BLOCK_RECORD
  5
1B
330
1
100
AcDbSymbolTableRecord
100
AcDbBlockTableRecord
  2
*Paper_Space
340
1E
  0
BLOCK_RECORD
  5
23
330
1
100
AcDbSymbolTableRecord
100
AcDbBlockTableRecord
  2
*Paper_Space0
340
26
  0
BLOCK_RECORD
  5
7E
330
1
100
AcDbSymbolTableRecord
100
AcDbBlockTableRecord
  2
블럭10
340
0
102
{BLKREFS
331
239
102
}
  0
BLOCK_RECORD
  5
243
330
1
100
AcDbSymbolTableRecord
100
AcDbBlockTableRecord
  2
_D
340
0
  0
BLOCK_RECORD
  5
256
330
1
100
AcDbSymbolTableRecord
100
AcDbBlockTableRecord
  2
_D_1
340
0
  0
BLOCK_RECORD
  5
26A
330
1
100
AcDbSymbolTableRecord
100
AcDbBlockTableRecord
  2
_D_2
340
0
  0
BLOCK_RECORD
  5
27D
330
1
100
AcDbSymbolTableRecord
100
AcDbBlockTableRecord
  2
SW_DOWELSYMBOL_0
340
0
102
{BLKREFS
331
283
102
}
  0
BLOCK_RECORD
  5
2B0
330
1
100
AcDbSymbolTableRecord
100
AcDbBlockTableRecord
  2
*D6
340
0
  0
ENDTAB
  0
ENDSEC
  0
SECTION
  2
BLOCKS
  0
BLOCK
  5
20
330
1F
100
AcDbEntity
  8
0
100
AcDbBlockBegin
  2
*Model_Space
 70
     0
 10
0.0
 20
0.0
 30
0.0
  3
*Model_Space
  1
*Model_Space
  0
ENDBLK
  5
21
330
1F
100
AcDbEntity
  8
0
100
AcDbBlockEnd
  0
BLOCK
  5
1C
330
1B
100
AcDbEntity
 67
     1
  8
0
100
AcDbBlockBegin
  2
*Paper_Space
 70
     0
 10
0.0
 20
0.0
 30
0.0
  3
*Paper_Space
  1
*Paper_Space
  0
ENDBLK
  5
1D
330
1B
100
AcDbEntity
 67
     1
  8
0
100
AcDbBlockEnd
  0
BLOCK
  5
24
330
23
100
AcDbEntity
  8
0
100
AcDbBlockBegin
  2
*Paper_Space0
 70
     0
 10
0.0
 20
0.0
 30
0.0
  3
*Paper_Space0
  1
*Paper_Space0
  0
ENDBLK
  5
25
330
23
100
AcDbEntity
  8
0
100
AcDbBlockEnd
  0
BLOCK
  5
7F
330
7E
100
AcDbEntity
  8
0
100
AcDbBlockBegin
  2
블럭10
 70
     2
 10
0.0
 20
0.0
 30
0.0
  3
블럭10
  1
블럭10
  0
ELLIPSE
  5
81
330
7E
100
AcDbEntity
  8
중심선
100
AcDbEllipse
 10
20.54032771741204
 20
12.0471743016438
 30
0.0
 11
6.600054785286829
 21
-1.261213355974178E-13
 31
0.0
210
0.0
220
0.0
230
1.0
 40
0.636358354079598
 41
0.9219305317359503
 42
6.513795318482858
  0
ELLIPSE
  5
82
330
7E
100
AcDbEntity
  8
중심선
100
AcDbEllipse
 10
20.54032771746488
 20
12.04717430159265
 30
0.0
 11
3.960054785062283
 21
1.540847449632565E-10
 31
0.0
210
0.0
220
0.0
230
1.0
 40
0.3939339440162632
 41
1.131841032648279
 42
5.62031148352944
  0
LINE
  5
83
330
7E
100
AcDbEntity
  8
중심선
100
AcDbLine
 10
2.268634060543552
 20
16.24717430164393
 30
0.0
 11
5.714909304380834
 21
16.24717430164393
 31
0.0
  0
LINE
  5
84
330
7E
100
AcDbEntity
  8
중심선
100
AcDbLine
 10
5.245725140726316
 20
7.84717430164391
 30
0.0
 11
8.692000384563599
 21
7.84717430164391
 31
0.0
  0
LINE
  5
85
330
7E
100
AcDbEntity
  8
중심선
100
AcDbLine
 10
15.74043728645272
 20
16.24717430164393
 30
0.0
 11
8.692000384563599
 21
7.84717430164391
 31
0.0
  0
LINE
  5
86
330
7E
100
AcDbEntity
  8
중심선
100
AcDbLine
 10
0.1404042013395286
 20
13.71084872107135
 30
0.0
 11
3.58671253028996
 21
13.71088815037384
 31
0.0
  0
LINE
  5
87
330
7E
100
AcDbEntity
  8
중심선
100
AcDbLine
 10
2.750260043222114
 20
10.84717430164391
 30
0.0
 11
6.196535287059397
 21
10.84717430164391
 31
0.0
  0
LINE
  5
88
330
7E
100
AcDbEntity
  8
중심선
100
AcDbLine
 10
12.29416204261559
 20
16.24717430164393
 30
0.0
 11
5.245725140726316
 21
7.84717430164391
 31
0.0
  0
LINE
  5
89
330
7E
100
AcDbEntity
  8
중심선
100
AcDbLine
 10
10.72767329541681
 20
16.24717430164393
 30
0.0
 11
6.196535287059397
 21
10.84717430164391
 31
0.0
  0
LINE
  5
8A
330
7E
100
AcDbEntity
  8
중심선
100
AcDbLine
 10
7.28139805157953
 20
16.24717430164393
 30
0.0
 11
2.750260043222114
 21
10.84717430164391
 31
0.0
  0
LINE
  5
8B
330
7E
100
AcDbEntity
  8
중심선
100
AcDbLine
 10
5.714909304380834
 20
16.24717430164393
 30
0.0
 11
3.58671253028996
 21
13.71088815037384
 31
0.0
  0
LINE
  5
8C
330
7E
100
AcDbEntity
  8
중심선
100
AcDbLine
 10
2.268634060543552
 20
16.24717430164393
 30
0.0
 11
0.1404042013395286
 21
13.71084872107135
 31
0.0
  0
LINE
  5
8D
330
7E
100
AcDbEntity
  8
중심선
100
AcDbLine
 10
7.28139805157953
 20
16.24717430164393
 30
0.0
 11
10.72767329541681
 21
16.24717430164393
 31
0.0
  0
LINE
  5
8E
330
7E
100
AcDbEntity
  8
중심선
100
AcDbLine
 10
12.29416204261559
 20
16.24717430164393
 30
0.0
 11
15.74043728645272
 21
16.24717430164393
 31
0.0
  0
LINE
  5
8F
330
7E
100
AcDbEntity
  8
중심선
100
AcDbLine
 10
19.22036997980202
 20
11.08717430171403
 30
0.0
 11
23.66174974927406
 21
11.08717430171406
 31
0.0
  0
LINE
  5
90
330
7E
100
AcDbEntity
  8
중심선
100
AcDbLine
 10
19.22039502424796
 20
13.00717430171391
 30
0.0
 11
19.22036997980202
 21
11.08717430171403
 31
0.0
  0
LINE
  5
91
330
7E
100
AcDbEntity
  8
중심선
100
AcDbLine
 10
19.22039502424796
 20
13.00717430171391
 30
0.0
 11
26.96566020931264
 21
13.00717430171391
 31
0.0
  0
LINE
  5
92
330
7E
100
AcDbEntity
  8
중심선
100
AcDbLine
 10
22.22332737316547
 20
13.45928029700563
 30
0.0
 11
24.52862924686651
 21
15.39360700705356
 31
0.0
  0
ATTDEF
  5
94
330
7E
100
AcDbEntity
  8
FORMAT
 62
     2
100
AcDbText
 10
-9.34984418565004
 20
2.075366912832191
 30
0.0
 40
4.233333333333333
  1
EK191032 [ 3 FLUTE ]
 41
0.75
  7
SLDTEXTSTYLE0
 11
-9.34984418565004
 21
-0.0412997538344756
 31
0.0
100
AcDbAttributeDefinition
  3

  2
AUTOATTR0
 70
     0
 74
     1
  0
ENDBLK
  5
80
330
7E
100
AcDbEntity
  8
0
100
AcDbBlockEnd
  0
BLOCK
  5
244
330
243
100
AcDbEntity
  8
0
100
AcDbBlockBegin
  2
_D
 70
     0
 10
0.0
 20
0.0
 30
0.0
  3
_D
  1
_D
  0
LINE
  5
246
330
243
100
AcDbEntity
  8
치수문자_일반주서
 62
     0
370
    -2
100
AcDbLine
 10
43.74999931454659
 20
6.425743444523967
 30
0.0
 11
43.74999931454659
 21
31.5484976355775
 31
0.0
  0
LINE
  5
247
330
243
100
AcDbEntity
  8
치수문자_일반주서
 62
     0
370
    -2
100
AcDbLine
 10
12.00000000000002
 20
6.227558860315495
 30
0.0
 11
12.00000000000002
 21
31.5484976355775
 31
0.0
  0
LINE
  5
248
330
243
100
AcDbEntity
  8
치수문자_일반주서
 62
     0
370
    -2
100
AcDbLine
 10
40.44799931454659
 20
31.5484976355775
 30
0.0
 11
15.30200000000002
 21
31.5484976355775
 31
0.0
  0
SOLID
  5
249
330
243
100
AcDbEntity
  8
치수문자_일반주서
 62
     0
100
AcDbTrace
 10
40.44799931454659
 20
30.99816430224416
 30
0.0
 11
40.44799931454659
 21
32.09883096891083
 31
0.0
 12
43.74999931454659
 22
31.5484976355775
 32
0.0
 13
43.74999931454659
 23
31.5484976355775
 33
0.0
  0
SOLID
  5
24A
330
243
100
AcDbEntity
  8
치수문자_일반주서
 62
     0
100
AcDbTrace
 10
15.30200000000002
 20
32.09883096891083
 30
0.0
 11
15.30200000000002
 21
30.99816430224416
 31
0.0
 12
12.00000000000002
 22
31.5484976355775
 32
0.0
 13
12.00000000000002
 23
31.5484976355775
 33
0.0
  0
MTEXT
  5
24B
330
243
100
AcDbEntity
  8
치수문자_일반주서
 62
     0
100
AcDbMText
 10
27.87500000000002
 20
35.9234976355775
 30
0.0
 40
3.5
 41
0.0
 71
     2
 72
     1
  1
\A1;31.75 [1 1/4]
  7
SLDTEXTSTYLE0
 73
     1
 44
1.0
  0
POINT
  5
24C
330
243
100
AcDbEntity
  8
Defpoints
 62
     0
100
AcDbPoint
 10
43.74999931454659
 20
6.363243444523967
 30
0.0
  0
POINT
  5
24D
330
243
100
AcDbEntity
  8
Defpoints
 62
     0
100
AcDbPoint
 10
12.00000000000002
 20
6.165058860315495
 30
0.0
  0
POINT
  5
24E
330
243
100
AcDbEntity
  8
Defpoints
 62
     0
100
AcDbPoint
 10
12.00000000000002
 20
31.5484976355775
 30
0.0
  0
ENDBLK
  5
245
330
243
100
AcDbEntity
  8
0
100
AcDbBlockEnd
  0
BLOCK
  5
257
330
256
100
AcDbEntity
  8
0
100
AcDbBlockBegin
  2
_D_1
 70
     0
 10
0.0
 20
0.0
 30
0.0
  3
_D_1
  1
_D_1
  0
LINE
  5
259
330
256
100
AcDbEntity
  8
치수문자_일반주서
 62
     0
370
    -2
100
AcDbLine
 10
-38.79999999999998
 20
5.425743521264939
 30
0.0
 11
-38.79999999999998
 21
44.46970859613322
 31
0.0
  0
LINE
  5
25A
330
256
100
AcDbEntity
  8
치수문자_일반주서
 62
     0
370
    -2
100
AcDbLine
 10
43.74999931454659
 20
6.425743444523967
 30
0.0
 11
43.7499993145466
 21
44.46970859613322
 31
0.0
  0
LINE
  5
25B
330
256
100
AcDbEntity
  8
치수문자_일반주서
 62
     0
370
    -2
100
AcDbLine
 10
-35.49799999999998
 20
44.46970859613322
 30
0.0
 11
40.4479993145466
 21
44.46970859613322
 31
0.0
  0
SOLID
  5
25C
330
256
100
AcDbEntity
  8
치수문자_일반주서
 62
     0
100
AcDbTrace
 10
-35.49799999999998
 20
45.02004192946655
 30
0.0
 11
-35.49799999999998
 21
43.91937526279988
 31
0.0
 12
-38.79999999999998
 22
44.46970859613322
 32
0.0
 13
-38.79999999999998
 23
44.46970859613322
 33
0.0
  0
SOLID
  5
25D
330
256
100
AcDbEntity
  8
치수문자_일반주서
 62
     0
100
AcDbTrace
 10
40.4479993145466
 20
43.91937526279988
 30
0.0
 11
40.4479993145466
 21
45.02004192946655
 31
0.0
 12
43.7499993145466
 22
44.46970859613322
 32
0.0
 13
43.7499993145466
 23
44.46970859613322
 33
0.0
  0
MTEXT
  5
25E
330
256
100
AcDbEntity
  8
치수문자_일반주서
 62
     0
100
AcDbMText
 10
3.332086678241481
 20
48.84470859613322
 30
0.0
 40
3.5
 41
0.0
 71
     2
 72
     1
  1
\A1;82.55 [3 1/4]
  7
SLDTEXTSTYLE0
 73
     1
 44
1.0
  0
POINT
  5
25F
330
256
100
AcDbEntity
  8
Defpoints
 62
     0
100
AcDbPoint
 10
-38.79999999999998
 20
5.363243521264939
 30
0.0
  0
POINT
  5
260
330
256
100
AcDbEntity
  8
Defpoints
 62
     0
100
AcDbPoint
 10
43.74999931454659
 20
6.363243444523967
 30
0.0
  0
POINT
  5
261
330
256
100
AcDbEntity
  8
Defpoints
 62
     0
100
AcDbPoint
 10
43.74999931454659
 20
44.46970859613322
 30
0.0
  0
ENDBLK
  5
258
330
256
100
AcDbEntity
  8
0
100
AcDbBlockEnd
  0
BLOCK
  5
26B
330
26A
100
AcDbEntity
  8
0
100
AcDbBlockBegin
  2
_D_2
 70
     0
 10
0.0
 20
0.0
 30
0.0
  3
_D_2
  1
_D_2
  0
LINE
  5
26D
330
26A
100
AcDbEntity
  8
치수문자_일반주서
 62
     0
370
    -2
100
AcDbLine
 10
-37.86249999999998
 20
6.36324352126494
 30
0.0
 11
-55.79452746688031
 21
6.363243521264881
 31
0.0
  0
LINE
  5
26E
330
26A
100
AcDbEntity
  8
치수문자_일반주서
 62
     0
370
    -2
100
AcDbLine
 10
-37.86249999999998
 20
-6.336756478735059
 30
0.0
 11
-55.79452746688027
 21
-6.336756478735126
 31
0.0
  0
LINE
  5
26F
330
26A
100
AcDbEntity
  8
치수문자_일반주서
 62
     0
370
    -2
100
AcDbLine
 10
-55.79452746688031
 20
6.363243521264881
 30
0.0
 11
-55.79452746688042
 21
39.65474352126488
 31
0.0
  0
LINE
  5
270
330
26A
100
AcDbEntity
  8
치수문자_일반주서
 62
     0
370
    -2
100
AcDbLine
 10
-55.79452746688031
 20
6.363243521264881
 30
0.0
 11
-55.79452746688027
 21
-6.336756478735126
 31
0.0
  0
LINE
  5
271
330
26A
100
AcDbEntity
  8
치수문자_일반주서
 62
     0
370
    -2
100
AcDbLine
 10
-55.79452746688033
 20
9.66524352126488
 30
0.0
 11
-55.79452746688034
 21
12.96724352126488
 31
0.0
  0
LINE
  5
272
330
26A
100
AcDbEntity
  8
치수문자_일반주서
 62
     0
370
    -2
100
AcDbLine
 10
-55.79452746688025
 20
-9.638756478735125
 30
0.0
 11
-55.79452746688024
 21
-12.94075647873512
 31
0.0
  0
SOLID
  5
273
330
26A
100
AcDbEntity
  8
치수문자_일반주서
 62
     0
100
AcDbTrace
 10
-56.34486080021366
 20
9.665243521264879
 30
0.0
 11
-55.24419413354699
 21
9.665243521264882
 31
0.0
 12
-55.79452746688031
 22
6.363243521264881
 32
0.0
 13
-55.79452746688031
 23
6.363243521264881
 33
0.0
  0
SOLID
  5
274
330
26A
100
AcDbEntity
  8
치수문자_일반주서
 62
     0
100
AcDbTrace
 10
-55.24419413354692
 20
-9.638756478735123
 30
0.0
 11
-56.34486080021359
 21
-9.638756478735127
 31
0.0
 12
-55.79452746688027
 22
-6.336756478735126
 32
0.0
 13
-55.79452746688027
 23
-6.336756478735126
 33
0.0
  0
MTEXT
  5
275
330
26A
100
AcDbEntity
  8
치수문자_일반주서
 62
     0
100
AcDbMText
 10
-60.16952746688037
 20
26.31099352126486
 30
0.0
 40
3.5
 41
0.0
 71
     2
 72
     1
  1
\A1;%%c12.70 [1/2]
  7
SLDTEXTSTYLE0
 11
-3.356894814614646E-15
 21
1.0
 31
0.0
 73
     1
 44
1.0
  0
POINT
  5
2A9
330
26A
100
AcDbEntity
  8
Defpoints
 62
     0
100
AcDbPoint
 10
-37.79999999999998
 20
6.36324352126494
 30
0.0
  0
POINT
  5
2AA
330
26A
100
AcDbEntity
  8
Defpoints
 62
     0
100
AcDbPoint
 10
-37.79999999999998
 20
-6.336756478735059
 30
0.0
  0
POINT
  5
2AB
330
26A
100
AcDbEntity
  8
Defpoints
 62
     0
100
AcDbPoint
 10
-55.79452746688027
 20
-6.336756478735122
 30
0.0
  0
ENDBLK
  5
26C
330
26A
100
AcDbEntity
  8
0
100
AcDbBlockEnd
  0
BLOCK
  5
27E
330
27D
100
AcDbEntity
  8
0
100
AcDbBlockBegin
  2
SW_DOWELSYMBOL_0
 70
     0
 10
0.0
 20
0.0
 30
0.0
  3
SW_DOWELSYMBOL_0
  1
SW_DOWELSYMBOL_0
  0
CIRCLE
  5
280
330
27D
100
AcDbEntity
  8
외형선
 62
     0
100
AcDbCircle
 10
0.0
 20
0.0
 30
0.0
 40
3.000000000000004
  0
HATCH
  5
281
330
27D
100
AcDbEntity
  8
0
  6
Continuous
 62
     0
370
    30
100
AcDbHatch
 10
0.0
 20
0.0
 30
0.0
210
0.0
220
0.0
230
1.0
  2
SOLID
 70
     1
 71
     0
 91
        1
 92
        0
 93
        3
 72
     2
 10
0.0000000000000104
 20
0.0
 40
3.000000000000004
 50
0.0
 51
90.0
 73
     1
 72
     1
 10
0.0000000000000104
 20
3.000000000000004
 11
0.0000000000000104
 21
0.0
 72
     1
 10
0.0000000000000104
 20
0.0
 11
3.000000000000015
 21
0.0
 97
        0
 75
     0
 76
     1
 98
        1
 10
0.0
 20
0.0
  0
HATCH
  5
282
330
27D
100
AcDbEntity
  8
0
  6
Continuous
 62
     0
370
    30
100
AcDbHatch
 10
0.0
 20
0.0
 30
0.0
210
0.0
220
0.0
230
1.0
  2
SOLID
 70
     1
 71
     0
 91
        1
 92
        0
 93
        3
 72
     2
 10
0.0000000000000104
 20
0.0
 40
3.000000000000004
 50
180.0
 51
270.0000000000007
 73
     1
 72
     1
 10
0.0000000000000104
 20
-3.000000000000004
 11
0.0000000000000104
 21
0.0
 72
     1
 10
0.0000000000000104
 20
0.0
 11
-2.999999999999994
 21
0.0
 97
        0
 75
     0
 76
     1
 98
        1
 10
0.0
 20
0.0
  0
ENDBLK
  5
27F
330
27D
100
AcDbEntity
  8
0
100
AcDbBlockEnd
  0
BLOCK
  5
2B1
330
2B0
100
AcDbEntity
  8
0
100
AcDbBlockBegin
  2
*D6
 70
     1
 10
0.0
 20
0.0
 30
0.0
  3
*D6
  1
*D6
  0
LINE
  5
2B3
330
2B0
100
AcDbEntity
  8
치수문자_일반주서
 62
     0
370
    -2
100
AcDbLine
 10
43.81250000000001
 20
-6.336756401994073
 30
0.0
 11
60.23676234228923
 21
-6.336756401994076
 31
0.0
  0
LINE
  5
2B4
330
2B0
100
AcDbEntity
  8
치수문자_일반주서
 62
     0
370
    -2
100
AcDbLine
 10
43.81250000000001
 20
6.363243444523967
 30
0.0
 11
60.23676234228923
 21
6.363243444523966
 31
0.0
  0
LINE
  5
2B5
330
2B0
100
AcDbEntity
  8
치수문자_일반주서
 62
     0
370
    -2
100
AcDbLine
 10
60.23676234228923
 20
9.665243444523966
 30
0.0
 11
60.23676234228923
 21
37.02974344452397
 31
0.0
  0
LINE
  5
2B6
330
2B0
100
AcDbEntity
  8
치수문자_일반주서
 62
     0
370
    -2
100
AcDbLine
 10
60.23676234228923
 20
-6.336756401994076
 30
0.0
 11
60.23676234228923
 21
6.363243444523966
 31
0.0
  0
LINE
  5
2B7
330
2B0
100
AcDbEntity
  8
치수문자_일반주서
 62
     0
370
    -2
100
AcDbLine
 10
60.23676234228923
 20
-9.638756401994076
 30
0.0
 11
60.23676234228923
 21
-12.94075640199408
 31
0.0
  0
SOLID
  5
2B8
330
2B0
100
AcDbEntity
  8
치수문자_일반주서
 62
     0
100
AcDbTrace
 10
60.78709567562256
 20
-9.638756401994076
 30
0.0
 11
59.68642900895589
 21
-9.638756401994076
 31
0.0
 12
60.23676234228923
 22
-6.336756401994076
 32
0.0
 13
60.23676234228923
 23
-6.336756401994076
 33
0.0
  0
SOLID
  5
2B9
330
2B0
100
AcDbEntity
  8
치수문자_일반주서
 62
     0
100
AcDbTrace
 10
59.68642900895589
 20
9.665243444523966
 30
0.0
 11
60.78709567562256
 21
9.665243444523966
 31
0.0
 12
60.23676234228923
 22
6.363243444523966
 32
0.0
 13
60.23676234228923
 23
6.363243444523966
 33
0.0
  0
MTEXT
  5
2BA
330
2B0
100
AcDbEntity
  8
치수문자_일반주서
 62
     0
100
AcDbMText
 10
57.61176234228923
 20
24.99849344452397
 30
0.0
 40
3.5
 41
0.0
 71
     5
 72
     1
  1
\A1;12.70 [1/2]
  7
SLDTEXTSTYLE0
 11
0.0
 21
1.0
 31
0.0
 73
     1
 44
1.0
  0
POINT
  5
2BB
330
2B0
100
AcDbEntity
  8
Defpoints
 62
     0
100
AcDbPoint
 10
43.75000000000001
 20
-6.336756401994073
 30
0.0
  0
POINT
  5
2BC
330
2B0
100
AcDbEntity
  8
Defpoints
 62
     0
100
AcDbPoint
 10
43.75000000000001
 20
6.363243444523967
 30
0.0
  0
POINT
  5
2BD
330
2B0
100
AcDbEntity
  8
Defpoints
 62
     0
100
AcDbPoint
 10
60.23676234228923
 20
6.363243444523966
 30
0.0
  0
ENDBLK
  5
2B2
330
2B0
100
AcDbEntity
  8
0
100
AcDbBlockEnd
  0
ENDSEC
  0
SECTION
  2
ENTITIES
  0
LINE
  5
95
330
1F
100
AcDbEntity
  8
0
  6
Continuous
 62
     4
370
    15
100
AcDbLine
 10
8.469666181132213
 20
6.363243444523967
 30
0.0
 11
-9.066126161545482
 21
6.363243444523967
 31
0.0
  0
LINE
  5
96
330
1F
100
AcDbEntity
  8
0
  6
Continuous
 62
     4
370
    15
100
AcDbLine
 10
-37.7999990582466
 20
-6.336756401994073
 30
0.0
 11
10.95863685035148
 21
-6.336756401994073
 31
0.0
  0
LINE
  5
97
330
1F
100
AcDbEntity
  8
0
  6
Continuous
 62
     4
370
    15
100
AcDbLine
 10
-37.7999990582466
 20
6.363243444523967
 30
0.0
 11
-38.80000108480452
 21
5.363243746272481
 31
0.0
  0
LINE
  5
98
330
1F
100
AcDbEntity
  8
0
  6
Continuous
 62
     4
370
    15
100
AcDbLine
 10
-38.80000108480452
 20
-5.336756703742587
 30
0.0
 11
-37.7999990582466
 21
-6.336756401994073
 31
0.0
  0
LINE
  5
99
330
1F
100
AcDbEntity
  8
0
  6
Continuous
 62
     1
370
    15
100
AcDbLine
 10
18.3433672077954
 20
6.363243444523967
 30
0.0
 11
18.20743695273997
 21
6.363243444523967
 31
0.0
  0
LINE
  5
9A
330
1F
100
AcDbEntity
  8
0
  6
Continuous
 62
     1
370
    15
100
AcDbLine
 10
35.92340654134752
 20
-6.336756401994073
 30
0.0
 11
36.30482038855554
 21
-6.336756401994073
 31
0.0
  0
LINE
  5
9B
330
1F
100
AcDbEntity
  8
0
  6
Continuous
 62
     1
370
    15
100
AcDbLine
 10
20.95997898280622
 20
-6.226505504288518
 30
0.0
 11
21.04639454185964
 21
-6.278357819952809
 31
0.0
  0
LINE
  5
9C
330
1F
100
AcDbEntity
  8
0
  6
Continuous
 62
     1
370
    15
100
AcDbLine
 10
33.1147444099188
 20
6.363243444523967
 30
0.0
 11
32.21358737349512
 21
6.363243444523967
 31
0.0
  0
SPLINE
  5
9D
330
1F
100
AcDbEntity
  8
0
  6
Continuous
 62
     1
370
    15
100
AcDbSpline
210
0.0
220
0.0
230
1.0
 70
     8
 71
     3
 72
     9
 73
     5
 74
     0
 42
0.000000001
 43
0.00000001
 40
0.0
 40
0.0
 40
0.0
 40
0.0
 40
0.4989130129424666
 40
1.0
 40
1.0
 40
1.0
 40
1.0
 10
21.04639454185964
 20
-6.278358285614097
 30
0.0
 10
21.07206709126048
 20
-6.295199994720868
 30
0.0
 10
21.12352405617191
 20
-6.328956799353893
 30
0.0
 10
21.18354888701306
 20
-6.334152769146071
 30
0.0
 10
21.2136265486479
 20
-6.336756401994073
 30
0.0
  0
LINE
  5
9E
330
1F
100
AcDbEntity
  8
0
  6
Continuous
 62
     1
370
    15
100
AcDbLine
 10
21.2136116474867
 20
-6.336756401994073
 30
0.0
 11
22.28755509853365
 21
-6.336756401994073
 31
0.0
  0
SPLINE
  5
9F
330
1F
100
AcDbEntity
  8
0
  6
Continuous
 62
     1
370
    15
100
AcDbSpline
210
0.0
220
0.0
230
1.0
 70
     8
 71
     3
 72
     9
 73
     5
 74
     0
 42
0.000000001
 43
0.00000001
 40
0.0
 40
0.0
 40
0.0
 40
0.0
 40
0.5010873784297342
 40
1.0
 40
1.0
 40
1.0
 40
1.0
 10
18.21362652257087
 20
6.363243444523967
 30
0.0
 10
18.18354883171028
 20
6.360639819244012
 30
0.0
 10
18.12352398942659
 20
6.355443868613379
 30
0.0
 10
18.07206734887746
 20
6.321687037333659
 30
0.0
 10
18.0463949814439
 20
6.30484532814399
 30
0.0
  0
SPLINE
  5
A0
330
1F
100
AcDbEntity
  8
0
  6
Continuous
 62
     1
370
    15
100
AcDbSpline
210
0.0
220
0.0
230
1.0
 70
     8
 71
     3
 72
    11
 73
     7
 74
     0
 42
0.000000001
 43
0.00000001
 40
0.0
 40
0.0
 40
0.0
 40
0.0
 40
0.2443160184357199
 40
0.5000444340568678
 40
0.7557533812331432
 40
1.0
 40
1.0
 40
1.0
 40
1.0
 10
18.06004397943618
 20
6.309892165175833
 30
0.0
 10
18.01581505475999
 20
6.280495443514838
 30
0.0
 10
17.92529120065395
 20
6.220328831680639
 30
0.0
 10
17.75829145790372
 20
6.192603604653664
 30
0.0
 10
17.59129010968315
 20
6.217192706080386
 30
0.0
 10
17.50072951583874
 20
6.275069544765427
 30
0.0
 10
17.45648734644057
 20
6.303344501814999
 30
0.0
  0
SPLINE
  5
A1
330
1F
100
AcDbEntity
  8
0
  6
Continuous
 62
     1
370
    15
100
AcDbSpline
210
0.0
220
0.0
230
1.0
 70
     8
 71
     3
 72
     9
 73
     5
 74
     0
 42
0.000000001
 43
0.00000001
 40
0.0
 40
0.0
 40
0.0
 40
0.0
 40
0.5011403316640173
 40
1.0
 40
1.0
 40
1.0
 40
1.0
 10
36.28680302202703
 20
-6.336738706865155
 30
0.0
 10
36.3158931381182
 20
-6.334340616099621
 30
0.0
 10
36.3739409827101
 20
-6.329555348153671
 30
0.0
 10
36.42339351474003
 20
-6.297998683508722
 30
0.0
 10
36.44806338846685
 20
-6.28225633625015
 30
0.0
  0
SPLINE
  5
A2
330
1F
100
AcDbEntity
  8
0
  6
Continuous
 62
     1
370
    15
100
AcDbSpline
210
0.0
220
0.0
230
1.0
 70
     8
 71
     3
 72
    11
 73
     7
 74
     0
 42
0.000000001
 43
0.00000001
 40
0.0
 40
0.0
 40
0.0
 40
0.0
 40
0.2445786163786133
 40
0.4999436891181998
 40
0.7553340934570167
 40
1.0
 40
1.0
 40
1.0
 40
1.0
 10
36.44685266911985
 20
-6.282670774795854
 30
0.0
 10
36.49087468948736
 20
-6.253718646871527
 30
0.0
 10
36.58086019840405
 20
-6.194537538332163
 30
0.0
 10
36.74756907442697
 20
-6.167617153669876
 30
0.0
 10
36.91427639610875
 20
-6.193126959498136
 30
0.0
 10
37.00422181074758
 20
-6.251254666120767
 30
0.0
 10
37.04823000729085
 20
-6.279695199169957
 30
0.0
  0
SPLINE
  5
A3
330
1F
100
AcDbEntity
  8
0
  6
Continuous
 62
     1
370
    15
100
AcDbSpline
210
0.0
220
0.0
230
1.0
 70
     8
 71
     3
 72
     9
 73
     5
 74
     0
 42
0.000000001
 43
0.00000001
 40
0.0
 40
0.0
 40
0.0
 40
0.0
 40
0.4984047272656628
 40
1.0
 40
1.0
 40
1.0
 40
1.0
 10
17.45458744838836
 20
6.304948704949774
 30
0.0
 10
17.42894674551899
 20
6.321758854927117
 30
0.0
 10
17.37750120042948
 20
6.355486765313453
 30
0.0
 10
17.31760308264683
 20
6.36065239106585
 30
0.0
 10
17.28755846992137
 20
6.363243444523967
 30
0.0
  0
SPLINE
  5
A4
330
1F
100
AcDbEntity
  8
0
  6
Continuous
 62
     1
370
    15
100
AcDbSpline
210
0.0
220
0.0
230
1.0
 70
     8
 71
     3
 72
     9
 73
     5
 74
     0
 42
0.000000001
 43
0.00000001
 40
0.0
 40
0.0
 40
0.0
 40
0.0
 40
0.5010678929055241
 40
0.9999999999999999
 40
0.9999999999999999
 40
0.9999999999999999
 40
0.9999999999999999
 10
32.2136246263981
 20
6.363243444523967
 30
0.0
 10
32.18326382518159
 20
6.360579492964564
 30
0.0
 10
32.12267163468928
 20
6.35526294485378
 30
0.0
 10
32.07064446303354
 20
6.320674143070258
 30
0.0
 10
32.04468643665316
 20
6.303416679314531
 30
0.0
  0
SPLINE
  5
A5
330
1F
100
AcDbEntity
  8
0
  6
Continuous
 62
     1
370
    15
100
AcDbSpline
210
0.0
220
0.0
230
1.0
 70
     8
 71
     3
 72
    11
 73
     7
 74
     0
 42
0.000000001
 43
0.00000001
 40
0.0
 40
0.0
 40
0.0
 40
0.0
 40
0.2466211626386782
 40
0.500247953981064
 40
0.7537573500250617
 40
0.9999999999999999
 40
0.9999999999999999
 40
0.9999999999999999
 40
0.9999999999999999
 10
32.04472182691099
 20
6.303448344282067
 30
0.0
 10
32.00185944039544
 20
6.27598357849612
 30
0.0
 10
31.91491709965009
 20
6.220273870764681
 30
0.0
 10
31.74967360066952
 20
6.194379643218675
 30
0.0
 10
31.58442045335381
 20
6.221003777161608
 30
0.0
 10
31.49733496620537
 20
6.277323859247399
 30
0.0
 10
31.45442536473276
 20
6.305074433497346
 30
0.0
  0
LINE
  5
A6
330
1F
100
AcDbEntity
  8
0
  6
Continuous
 62
     1
370
    15
100
AcDbLine
 10
17.28754310309889
 20
6.363243444523967
 30
0.0
 11
16.21360570564868
 21
6.363243444523967
 31
0.0
  0
SPLINE
  5
A7
330
1F
100
AcDbEntity
  8
0
  6
Continuous
 62
     1
370
    15
100
AcDbSpline
210
0.0
220
0.0
230
1.0
 70
     8
 71
     3
 72
     9
 73
     5
 74
     0
 42
0.000000001
 43
0.00000001
 40
0.0
 40
0.0
 40
0.0
 40
0.0
 40
0.4989115338972655
 40
1.0
 40
1.0
 40
1.0
 40
1.0
 10
37.0464157909155
 20
-6.278374583759152
 30
0.0
 10
37.07208419125246
 20
-6.29521159768332
 30
0.0
 10
37.12353299247869
 20
-6.328959091537881
 30
0.0
 10
37.18355107636764
 20
-6.334153529195802
 30
0.0
 10
37.21362544596197
 20
-6.336756401994073
 30
0.0
  0
SPLINE
  5
A8
330
1F
100
AcDbEntity
  8
0
  6
Continuous
 62
     1
370
    15
100
AcDbSpline
210
0.0
220
0.0
230
1.0
 70
     8
 71
     3
 72
     9
 73
     5
 74
     0
 42
0.000000001
 43
0.00000001
 40
0.0
 40
0.0
 40
0.0
 40
0.0
 40
0.501594370678614
 40
1.0
 40
1.0
 40
1.0
 40
1.0
 10
22.28755882382395
 20
-6.336756401994073
 30
0.0
 10
22.31760307096527
 20
-6.334165291894571
 30
0.0
 10
22.37750056762311
 20
-6.328999543929744
 30
0.0
 10
22.4289461187054
 20
-6.295272083981889
 30
0.0
 10
22.45458687096836
 20
-6.278462128081166
 30
0.0
  0
SPLINE
  5
A9
330
1F
100
AcDbEntity
  8
0
  6
Continuous
 62
     1
370
    15
100
AcDbSpline
210
0.0
220
0.0
230
1.0
 70
     8
 71
     3
 72
    11
 73
     7
 74
     0
 42
0.000000001
 43
0.00000001
 40
0.0
 40
0.0
 40
0.0
 40
0.0
 40
0.2671636419914254
 40
0.5271354571006033
 40
0.7730359373820074
 40
1.0
 40
1.0
 40
1.0
 40
1.0
 10
22.45821902900936
 20
-6.275198308118426
 30
0.0
 10
22.50449385433749
 20
-6.2463236332601
 30
0.0
 10
22.59579782451759
 20
-6.189351566190569
 30
0.0
 10
22.76634569437611
 20
-6.16823170889744
 30
0.0
 10
22.92481223074508
 20
-6.198946970658265
 30
0.0
 10
23.00541339366213
 20
-6.251280407311861
 30
0.0
 10
23.04410009086134
 20
-6.276399248578393
 30
0.0
  0
LINE
  5
AA
330
1F
100
AcDbEntity
  8
0
  6
Continuous
 62
     1
370
    15
100
AcDbLine
 10
37.21361054480077
 20
-6.336756401994073
 30
0.0
 11
38.28754654526712
 21
-6.336756401994073
 31
0.0
  0
SPLINE
  5
AB
330
1F
100
AcDbEntity
  8
0
  6
Continuous
 62
     1
370
    15
100
AcDbSpline
210
0.0
220
0.0
230
1.0
 70
     8
 71
     3
 72
     9
 73
     5
 74
     0
 42
0.000000001
 43
0.00000001
 40
0.0
 40
0.0
 40
0.0
 40
0.0
 40
0.4984049295825262
 40
0.9999999999999999
 40
0.9999999999999999
 40
0.9999999999999999
 40
0.9999999999999999
 10
31.45458927750589
 20
6.304947307965911
 30
0.0
 10
31.42894889173212
 20
6.321757574935188
 30
0.0
 10
31.37750400374668
 20
6.355485706363096
 30
0.0
 10
31.3176064695615
 20
6.360652038028473
 30
0.0
 10
31.28756216168405
 20
6.363243444523967
 30
0.0
  0
LINE
  5
AC
330
1F
100
AcDbEntity
  8
0
  6
Continuous
 62
     1
370
    15
100
AcDbLine
 10
31.28751000761988
 20
6.363243444523967
 30
0.0
 11
30.21358332037927
 21
6.363243444523967
 31
0.0
  0
SPLINE
  5
AD
330
1F
100
AcDbEntity
  8
0
  6
Continuous
 62
     1
370
    15
100
AcDbSpline
210
0.0
220
0.0
230
1.0
 70
     8
 71
     3
 72
     9
 73
     5
 74
     0
 42
0.000000001
 43
0.00000001
 40
0.0
 40
0.0
 40
0.0
 40
0.0
 40
0.4989144198097537
 40
1.0
 40
1.0
 40
1.0
 40
1.0
 10
23.04639673233034
 20
-6.278359682597959
 30
0.0
 10
23.07207273433497
 20
-6.295203367020857
 30
0.0
 10
23.12353647437766
 20
-6.328964035692898
 30
0.0
 10
23.18356757700379
 20
-6.334155189617771
 30
0.0
 10
23.21364829689266
 20
-6.336756401994073
 30
0.0
  0
LINE
  5
AE
330
1F
100
AcDbEntity
  8
0
  6
Continuous
 62
     1
370
    15
100
AcDbLine
 10
23.21358217298986
 20
-6.336756401994073
 30
0.0
 11
24.28748371452095
 21
-6.336756401994073
 31
0.0
  0
SPLINE
  5
AF
330
1F
100
AcDbEntity
  8
0
  6
Continuous
 62
     1
370
    15
100
AcDbSpline
210
0.0
220
0.0
230
1.0
 70
     8
 71
     3
 72
     9
 73
     5
 74
     0
 42
0.000000001
 43
0.00000001
 40
0.0
 40
0.0
 40
0.0
 40
0.0
 40
0.50108731175492
 40
0.9999999999999999
 40
0.9999999999999999
 40
0.9999999999999999
 40
0.9999999999999999
 10
16.21362479776146
 20
6.363243444523967
 30
0.0
 10
16.18355144665144
 20
6.360640548224859
 30
0.0
 10
16.1235352570483
 20
6.355446051700907
 30
0.0
 10
16.0720873481831
 20
6.321700502783473
 30
0.0
 10
16.04641933366658
 20
6.30486442025677
 30
0.0
  0
SPLINE
  5
B0
330
1F
100
AcDbEntity
  8
0
  6
Continuous
 62
     1
370
    15
100
AcDbSpline
210
0.0
220
0.0
230
1.0
 70
     8
 71
     3
 72
    11
 73
     7
 74
     0
 42
0.000000001
 43
0.00000001
 40
0.0
 40
0.0
 40
0.0
 40
0.0
 40
0.2461777103416371
 40
0.5001932084617283
 40
0.7541190335049154
 40
1.0
 40
1.0
 40
1.0
 40
1.0
 10
16.04610268399121
 20
6.304613428822912
 30
0.0
 10
16.00297429641257
 20
6.27682166635986
 30
0.0
 10
15.91534440283365
 20
6.220353309350981
 30
0.0
 10
15.74973982514016
 20
6.194362341227776
 30
0.0
 10
15.58412768707133
 20
6.220962303865688
 30
0.0
 10
15.49638290379008
 20
6.277936927403355
 30
0.0
 10
15.45321667939426
 20
6.305965709201254
 30
0.0
  0
SPLINE
  5
B1
330
1F
100
AcDbEntity
  8
0
  6
Continuous
 62
     1
370
    15
100
AcDbSpline
210
0.0
220
0.0
230
1.0
 70
     8
 71
     3
 72
     9
 73
     5
 74
     0
 42
0.000000001
 43
0.00000001
 40
0.0
 40
0.0
 40
0.0
 40
0.0
 40
0.5015948257120861
 40
1.0
 40
1.0
 40
1.0
 40
1.0
 10
38.28756144642831
 20
-6.336756401994073
 30
0.0
 10
38.31760514058237
 20
-6.334165338140985
 30
0.0
 10
38.37750148044474
 20
-6.328999687061135
 30
0.0
 10
38.42894508050554
 20
-6.295273675204863
 30
0.0
 10
38.45458483695986
 20
-6.278464456387604
 30
0.0
  0
SPLINE
  5
B2
330
1F
100
AcDbEntity
  8
0
  6
Continuous
 62
     1
370
    15
100
AcDbSpline
210
0.0
220
0.0
230
1.0
 70
     8
 71
     3
 72
    11
 73
     7
 74
     0
 42
0.000000001
 43
0.00000001
 40
0.0
 40
0.0
 40
0.0
 40
0.0
 40
0.2837673535935111
 40
0.5496961557049659
 40
0.7893330844771272
 40
0.9999999999999999
 40
0.9999999999999999
 40
0.9999999999999999
 40
0.9999999999999999
 10
38.45675854384901
 20
-6.276610193141543
 30
0.0
 10
38.5088439491743
 20
-6.244711942447141
 30
0.0
 10
38.60974049951059
 20
-6.182920670271612
 30
0.0
 10
38.78829106440529
 20
-6.169356014072237
 30
0.0
 10
38.93884088170316
 20
-6.206339098535183
 30
0.0
 10
39.00978810103486
 20
-6.253340088016167
 30
0.0
 10
39.04297953844072
 20
-6.275328693278873
 30
0.0
  0
SPLINE
  5
B3
330
1F
100
AcDbEntity
  8
0
  6
Continuous
 62
     1
370
    15
100
AcDbSpline
210
0.0
220
0.0
230
1.0
 70
     8
 71
     3
 72
     9
 73
     5
 74
     0
 42
0.000000001
 43
0.00000001
 40
0.0
 40
0.0
 40
0.0
 40
0.0
 40
0.4984052990331261
 40
1.0
 40
1.0
 40
1.0
 40
1.0
 10
15.45458339527251
 20
6.304951498917497
 30
0.0
 10
15.42894441994985
 20
6.321760253036246
 30
0.0
 10
15.37750240002671
 20
6.355485324080549
 30
0.0
 10
15.31760758379237
 20
6.360651911601418
 30
0.0
 10
15.28756466135384
 20
6.363243444523967
 30
0.0
  0
SPLINE
  5
B4
330
1F
100
AcDbEntity
  8
0
  6
Continuous
 62
     1
370
    15
100
AcDbSpline
210
0.0
220
0.0
230
1.0
 70
     8
 71
     3
 72
     9
 73
     5
 74
     0
 42
0.000000001
 43
0.00000001
 40
0.0
 40
0.0
 40
0.0
 40
0.0
 40
0.5010866553409808
 40
1.0
 40
1.0
 40
1.0
 40
1.0
 10
30.21363174915315
 20
6.363243444523967
 30
0.0
 10
30.18355376908189
 20
6.360640542642143
 30
0.0
 10
30.12352826301289
 20
6.355446028172278
 30
0.0
 10
30.07207072974856
 20
6.321689325757063
 30
0.0
 10
30.04639787971976
 20
6.304847656450428
 30
0.0
  0
SPLINE
  5
B5
330
1F
100
AcDbEntity
  8
0
  6
Continuous
 62
     1
370
    15
100
AcDbSpline
210
0.0
220
0.0
230
1.0
 70
     8
 71
     3
 72
    11
 73
     7
 74
     0
 42
0.000000001
 43
0.00000001
 40
0.0
 40
0.0
 40
0.0
 40
0.0
 40
0.245736515203586
 40
0.5001526344908208
 40
0.7545001929338094
 40
1.0
 40
1.0
 40
1.0
 40
1.0
 10
30.04975622892382
 20
6.307139641306556
 30
0.0
 10
30.00636532041936
 20
6.278794442629747
 30
0.0
 10
29.91805090290808
 20
6.221102870900461
 30
0.0
 10
29.75210448373043
 20
6.19430848506098
 30
0.0
 10
29.58615115360816
 20
6.220114748902059
 30
0.0
 10
29.49774256634916
 20
6.277145675921585
 30
0.0
 10
29.45432072877886
 20
6.305156389883912
 30
0.0
  0
LINE
  5
B6
330
1F
100
AcDbEntity
  8
0
  6
Continuous
 62
     1
370
    15
100
AcDbLine
 10
15.28752647712828
 20
6.363243444523967
 30
0.0
 11
14.2134926877916
 21
6.363243444523967
 31
0.0
  0
SPLINE
  5
B7
330
1F
100
AcDbEntity
  8
0
  6
Continuous
 62
     1
370
    15
100
AcDbSpline
210
0.0
220
0.0
230
1.0
 70
     8
 71
     3
 72
     9
 73
     5
 74
     0
 42
0.000000001
 43
0.00000001
 40
0.0
 40
0.0
 40
0.0
 40
0.0
 40
0.4989118224162111
 40
1.0
 40
1.0
 40
1.0
 40
1.0
 10
39.04639562964441
 20
-6.278358285614097
 30
0.0
 10
39.07207085825375
 20
-6.29520208741508
 30
0.0
 10
39.12353331605838
 20
-6.328963167117317
 30
0.0
 10
39.18356506380742
 20
-6.334154890690345
 30
0.0
 10
39.21364626288415
 20
-6.336756401994073
 30
0.0
  0
SPLINE
  5
B8
330
1F
100
AcDbEntity
  8
0
  6
Continuous
 62
     1
370
    15
100
AcDbSpline
210
0.0
220
0.0
230
1.0
 70
     8
 71
     3
 72
     9
 73
     5
 74
     0
 42
0.000000001
 43
0.00000001
 40
0.0
 40
0.0
 40
0.0
 40
0.0
 40
0.501593282289165
 40
1.0
 40
1.0
 40
1.0
 40
1.0
 10
24.28757964074613
 20
-6.336756401994073
 30
0.0
 10
24.31761841467375
 20
-6.334163903084407
 30
0.0
 10
24.37750512964435
 20
-6.328995375113227
 30
0.0
 10
24.4289384944311
 20
-6.295277869561973
 30
0.0
 10
24.45457322895529
 20
-6.278472838290774
 30
0.0
  0
SPLINE
  5
B9
330
1F
100
AcDbEntity
  8
0
  6
Continuous
 62
     1
370
    15
100
AcDbSpline
210
0.0
220
0.0
230
1.0
 70
     8
 71
     3
 72
    11
 73
     7
 74
     0
 42
0.000000001
 43
0.00000001
 40
0.0
 40
0.0
 40
0.0
 40
0.0
 40
0.2448068285889037
 40
0.49992076572154
 40
0.7550712125002985
 40
1.0
 40
1.0
 40
1.0
 40
1.0
 10
24.45139369368555
 20
-6.280649804808938
 30
0.0
 10
24.49526872991378
 20
-6.252136512068196
 30
0.0
 10
24.58486607421056
 20
-6.193909430649113
 30
0.0
 10
24.75139127733125
 20
-6.16786965762752
 30
0.0
 10
24.91791411368628
 20
-6.194326184109197
 30
0.0
 10
25.007456509594
 20
-6.252828933109329
 30
0.0
 10
25.05131258070471
 20
-6.281482407190644
 30
0.0
  0
LINE
  5
BA
330
1F
100
AcDbEntity
  8
0
  6
Continuous
 62
     1
370
    15
100
AcDbLine
 10
39.21358293294908
 20
-6.336756401994073
 30
0.0
 11
40.28750030696393
 21
-6.336756401994073
 31
0.0
  0
SPLINE
  5
BB
330
1F
100
AcDbEntity
  8
0
  6
Continuous
 62
     1
370
    15
100
AcDbSpline
210
0.0
220
0.0
230
1.0
 70
     8
 71
     3
 72
     9
 73
     5
 74
     0
 42
0.000000001
 43
0.00000001
 40
0.0
 40
0.0
 40
0.0
 40
0.0
 40
0.4983504131910809
 40
1.0
 40
1.0
 40
1.0
 40
1.0
 10
29.45561526715757
 20
6.304108186326182
 30
0.0
 10
29.42980654502064
 20
6.321160535193078
 30
0.0
 10
29.3780182421442
 20
6.3553781226888
 30
0.0
 10
29.31779137878419
 20
6.360615910455173
 30
0.0
 10
29.28757859766485
 20
6.363243444523967
 30
0.0
  0
LINE
  5
BC
330
1F
100
AcDbEntity
  8
0
  6
Continuous
 62
     1
370
    15
100
AcDbLine
 10
29.28738488256933
 20
6.363243444523967
 30
0.0
 11
28.53790117800238
 21
6.363243444523967
 31
0.0
  0
SPLINE
  5
BD
330
1F
100
AcDbEntity
  8
0
  6
Continuous
 62
     1
370
    15
100
AcDbSpline
210
0.0
220
0.0
230
1.0
 70
     8
 71
     3
 72
     9
 73
     5
 74
     0
 42
0.000000001
 43
0.00000001
 40
0.0
 40
0.0
 40
0.0
 40
0.0
 40
0.4989535897171459
 40
1.0
 40
1.0
 40
1.0
 40
1.0
 10
25.04958777129652
 20
-6.280553412922465
 30
0.0
 10
25.07449996795953
 20
-6.29665444239705
 30
0.0
 10
25.12442885348402
 20
-6.328924035814973
 30
0.0
 10
25.18296262187286
 20
-6.334105366714485
 30
0.0
 10
25.21229075640442
 20
-6.336701453962171
 30
0.0
  0
LINE
  5
BE
330
1F
100
AcDbEntity
  8
0
  6
Continuous
 62
     1
370
    15
100
AcDbLine
 10
43.74999931454659
 20
5.263243450484431
 30
0.0
 11
43.19599649310113
 21
5.817247668913758
 31
0.0
  0
LINE
  5
BF
330
1F
100
AcDbEntity
  8
0
  6
Continuous
 62
     1
370
    15
100
AcDbLine
 10
25.18901886790993
 20
-6.336756401994073
 30
0.0
 11
25.72894195467235
 21
-6.336756401994073
 31
0.0
  0
SPLINE
  5
C0
330
1F
100
AcDbEntity
  8
0
  6
Continuous
 62
     1
370
    15
100
AcDbSpline
210
0.0
220
0.0
230
1.0
 70
     8
 71
     3
 72
     9
 73
     5
 74
     0
 42
0.000000001
 43
0.00000001
 40
0.0
 40
0.0
 40
0.0
 40
0.0
 40
0.5010676621393766
 40
1.0
 40
1.0
 40
1.0
 40
1.0
 10
14.21132433600725
 20
6.363079997412122
 30
0.0
 10
14.18190110986466
 20
6.360375158398
 30
0.0
 10
14.1231800460926
 20
6.35497700717313
 30
0.0
 10
14.0730540899038
 20
6.322340114376038
 30
0.0
 10
14.04804462939502
 20
6.306056513152279
 30
0.0
  0
SPLINE
  5
C1
330
1F
100
AcDbEntity
  8
0
  6
Continuous
 62
     1
370
    15
100
AcDbSpline
210
0.0
220
0.0
230
1.0
 70
     8
 71
     3
 72
     9
 73
     5
 74
     0
 42
0.000000001
 43
0.00000001
 40
0.0
 40
0.0
 40
0.0
 40
0.0
 40
0.5011092351565715
 40
1.0
 40
1.0
 40
1.0
 40
1.0
 10
40.29532527923585
 20
-6.33488537494167
 30
0.0
 10
40.32435521044778
 20
-6.331911004255435
 30
0.0
 10
40.38228655390595
 20
-6.325975430776515
 30
0.0
 10
40.43161361475642
 20
-6.293364636367691
 30
0.0
 10
40.45622242987158
 20
-6.277095412202919
 30
0.0
  0
LINE
  5
C2
330
1F
100
AcDbEntity
  8
0
  6
Continuous
 62
     1
370
    15
100
AcDbLine
 10
40.4545777142048
 20
-6.278470044323051
 30
0.0
 11
40.6260416507721
 21
-6.198576537259662
 31
0.0
  0
SPLINE
  5
C3
330
1F
100
AcDbEntity
  8
0
  6
Continuous
 62
     4
370
    15
100
AcDbSpline
210
0.0
220
0.0
230
1.0
 70
     8
 71
     3
 72
    14
 73
    10
 74
     0
 42
0.000000001
 43
0.00000001
 40
0.0
 40
0.0
 40
0.0
 40
0.0
 40
0.2500000000000001
 40
0.2500000000000001
 40
0.5000000000000001
 40
0.5000000000000001
 40
0.75
 40
0.75
 40
1.0
 40
1.0
 40
1.0
 40
1.0
 10
12.00000000000005
 20
-6.267547849914683
 30
0.0
 10
11.70496973443474
 20
-6.306585178329024
 30
0.0
 10
11.41297778021536
 20
-6.329100959451037
 30
0.0
 10
10.82570902250415
 20
-6.341132205466086
 30
0.0
 10
10.5297121668703
 20
-6.33055075769319
 30
0.0
 10
9.939922715658216
 20
-6.276300337063527
 30
0.0
 10
9.648345708789384
 20
-6.232813672896294
 30
0.0
 10
9.060460762200407
 20
-6.11334321949345
 30
0.0
 10
8.764392645816612
 20
-6.037264228971603
 30
0.0
 10
8.469666250323728
 20
-5.945690526779802
 30
0.0
  0
SPLINE
  5
C4
330
1F
100
AcDbEntity
  8
0
  6
Continuous
 62
     4
370
    15
100
AcDbSpline
210
0.0
220
0.0
230
1.0
 70
     8
 71
     3
 72
    14
 73
    10
 74
     0
 42
0.000000001
 43
0.00000001
 40
0.0
 40
0.0
 40
0.0
 40
0.0
 40
0.25
 40
0.25
 40
0.5
 40
0.5
 40
0.75
 40
0.75
 40
1.0
 40
1.0
 40
1.0
 40
1.0
 10
12.00000000000005
 20
-1.699487334465849
 30
0.0
 10
11.70496973443474
 20
-1.444183746824347
 30
0.0
 10
11.41297778021536
 20
-1.185290107566034
 30
0.0
 10
10.82570902250415
 20
-0.6616596485005664
 30
0.0
 10
10.5297121668703
 20
-0.3966935098469603
 30
0.0
 10
9.939922715658216
 20
0.1333466465512805
 30
0.0
 10
9.648345708789384
 20
0.3977492291236573
 30
0.0
 10
9.060460762200407
 20
0.9245923740119257
 30
0.0
 10
8.764392645816612
 20
1.18694945259498
 30
0.0
 10
8.469666250323728
 20
1.445161649614117
 30
0.0
  0
SPLINE
  5
C5
330
1F
100
AcDbEntity
  8
0
  6
Continuous
 62
     1
370
    15
100
AcDbSpline
210
0.0
220
0.0
230
1.0
 70
    24
 71
     3
 72
    14
 73
    10
 74
     0
 42
0.000000001
 43
0.00000001
 40
0.0
 40
0.0
 40
0.0
 40
0.0
 40
0.1423504228260676
 40
0.2903219490455689
 40
0.4341231940858873
 40
0.5820947314713583
 40
0.7258960139996046
 40
0.8738674926824874
 40
1.0
 40
1.0
 40
1.0
 40
1.0
 10
12.00000004749747
 20
-1.694569715597474
 30
0.0
 10
12.00000004749747
 20
-1.759790764450066
 30
0.0
 10
12.00000004749747
 20
-1.892808297139917
 30
0.0
 10
12.00000004749747
 20
-2.310213334934609
 30
0.0
 10
12.00000004749747
 20
-2.881382557809294
 30
0.0
 10
12.00000004749747
 20
-3.594719561685686
 30
0.0
 10
12.00000004749747
 20
-4.439499415342055
 30
0.0
 10
12.00000004749747
 20
-5.335924416543475
 30
0.0
 10
12.00000004749747
 20
-5.973951509663902
 30
0.0
 10
12.00000004749747
 20
-6.267547958829248
 30
0.0
  0
LINE
  5
C6
330
1F
100
AcDbEntity
  8
0
  6
Continuous
 62
     4
370
    15
100
AcDbLine
 10
8.469666181132213
 20
1.445181782058633
 30
0.0
 11
8.469666181132213
 21
-5.94570150349363
 31
0.0
  0
SPLINE
  5
C7
330
1F
100
AcDbEntity
  8
0
  6
Continuous
 62
     4
370
    15
100
AcDbSpline
210
0.0
220
0.0
230
1.0
 70
     8
 71
     3
 72
    10
 73
     6
 74
     0
 42
0.000000001
 43
0.00000001
 40
0.0
 40
0.0
 40
0.0
 40
0.0
 40
0.2934567734396273
 40
0.6470009841413947
 40
1.0
 40
1.0
 40
1.0
 40
1.0
 10
8.670029290020482
 20
4.766391704491532
 30
0.0
 10
8.995850192959711
 20
4.954888869451168
 30
0.0
 10
9.714206230152657
 20
5.370479383199653
 30
0.0
 10
10.82464624712214
 20
5.850597176563057
 30
0.0
 10
11.60841704286809
 20
6.06029228299568
 30
0.0
 10
12.00000004749747
 20
6.165058931968368
 30
0.0
  0
LINE
  5
C8
330
1F
100
AcDbEntity
  8
0
  6
Continuous
 62
     4
370
    15
100
AcDbLine
 10
8.469666181132213
 20
6.363243444523967
 30
0.0
 11
8.469666181132213
 21
4.892744238189614
 31
0.0
  0
SPLINE
  5
C9
330
1F
100
AcDbEntity
  8
0
  6
Continuous
 62
     4
370
    15
100
AcDbSpline
210
0.0
220
0.0
230
1.0
 70
     8
 71
     3
 72
    14
 73
    10
 74
     0
 42
0.000000001
 43
0.00000001
 40
0.0
 40
0.0
 40
0.0
 40
0.0
 40
0.25
 40
0.25
 40
0.5
 40
0.5
 40
0.75
 40
0.75
 40
1.0
 40
1.0
 40
1.0
 40
1.0
 10
12.00000000000005
 20
2.34393567235169
 30
0.0
 10
11.70496973443474
 20
2.590560899341608
 30
0.0
 10
11.41297778021536
 20
2.830256358047214
 30
0.0
 10
10.82570902250415
 20
3.294646833778176
 30
0.0
 10
10.5297121668703
 20
3.519482986331279
 30
0.0
 10
9.939922715658216
 20
3.949095548527656
 30
0.0
 10
9.648345708789376
 20
4.153396927357623
 30
0.0
 10
9.060460762200407
 20
4.540492803763902
 30
0.0
 10
8.764392645816612
 20
4.72315644280899
 30
0.0
 10
8.469666250323728
 20
4.892764165133261
 30
0.0
  0
LINE
  5
CA
330
1F
100
AcDbEntity
  8
0
  6
Continuous
 62
     1
370
    15
100
AcDbLine
 10
12.00000004749747
 20
2.343935773409164
 30
0.0
 11
12.00000004749747
 21
-1.699487331622088
 31
0.0
  0
LINE
  5
CB
330
1F
100
AcDbEntity
  8
0
  6
Continuous
 62
     4
370
    15
100
AcDbLine
 10
-37.7999990582466
 20
6.363243444523967
 30
0.0
 11
-37.7999990582466
 21
-6.336756401994073
 31
0.0
  0
LINE
  5
CC
330
1F
100
AcDbEntity
  8
0
  6
Continuous
 62
     4
370
    15
100
AcDbLine
 10
-38.80000108480452
 20
5.363243746272481
 30
0.0
 11
-38.80000108480452
 21
-5.336756703742587
 31
0.0
  0
SPLINE
  5
CD
330
1F
100
AcDbEntity
  8
0
  6
Continuous
 62
     1
370
    15
100
AcDbSpline
210
0.0
220
0.0
230
1.0
 70
    24
 71
     3
 72
    15
 73
    11
 74
     0
 42
0.000000001
 43
0.00000001
 40
0.0
 40
0.0
 40
0.0
 40
0.0
 40
0.1198693546846087
 40
0.2397387113418303
 40
0.380321203152084
 40
0.5209037217777066
 40
0.6614862157720647
 40
0.8020687262632811
 40
0.9426512655246649
 40
0.9999999999999999
 40
0.9999999999999999
 40
0.9999999999999999
 40
0.9999999999999999
 10
12.00000004749747
 20
6.165058931968368
 30
0.0
 10
12.00000004749747
 20
5.886710675730822
 30
0.0
 10
12.00000004749747
 20
5.330014158675136
 30
0.0
 10
12.00000004749747
 20
4.528728019472587
 30
0.0
 10
12.00000004749747
 20
3.779283885068896
 30
0.0
 10
12.00000004749747
 20
3.124445113428264
 30
0.0
 10
12.00000004749747
 20
2.621892999672665
 30
0.0
 10
12.00000004749747
 20
2.293781879510597
 30
0.0
 10
12.00000004749747
 20
2.141575761989472
 30
0.0
 10
12.00000004749747
 20
2.162069453809327
 30
0.0
 10
12.00000004749747
 20
2.168007309249794
 30
0.0
  0
SPLINE
  5
CE
330
1F
100
AcDbEntity
  8
0
  6
Continuous
 62
     1
370
    15
100
AcDbSpline
210
0.0
220
0.0
230
1.0
 70
     8
 71
     3
 72
    14
 73
    10
 74
     0
 42
0.000000001
 43
0.00000001
 40
0.0000000000000002
 40
0.0000000000000002
 40
0.0000000000000002
 40
0.0000000000000002
 40
0.0000761300002421
 40
0.0000761300002421
 40
0.0000761300002421
 40
0.0001472381560572
 40
0.0001472381560572
 40
0.0001472381560572
 40
0.0002209797080772
 40
0.0002209797080772
 40
0.0002209797080772
 40
0.0002209797080772
 10
28.89531040988861
 20
-3.437052913249256
 30
0.0
 10
28.87644278880054
 20
-3.422806355409806
 30
0.0
 10
28.85738665865127
 20
-3.407522816283696
 30
0.0
 10
28.8385014605098
 20
-3.391470225050536
 30
0.0
 10
28.82086272693352
 20
-3.376477140103816
 30
0.0
 10
28.80324756429378
 20
-3.36070611968285
 30
0.0
 10
28.78605039640225
 20
-3.344442333606515
 30
0.0
 10
28.76824204138759
 20
-3.327600532784613
 30
0.0
 10
28.75070162094456
 20
-3.310057242064754
 30
0.0
 10
28.73413066591339
 20
-3.292344753320496
 30
0.0
  0
SPLINE
  5
CF
330
1F
100
AcDbEntity
  8
0
  6
Continuous
 62
     1
370
    15
100
AcDbSpline
210
0.0
220
0.0
230
1.0
 70
     8
 71
     3
 72
    12
 73
     8
 74
     0
 42
0.000000001
 43
0.00000001
 40
0.0
 40
0.0
 40
0.0
 40
0.0
 40
0.25
 40
0.25
 40
0.5
 40
0.5
 40
1.0
 40
1.0
 40
1.0
 40
1.0
 10
28.73413066591335
 20
-3.292344753320471
 30
0.0
 10
28.7164299828348
 20
-2.989788969324392
 30
0.0
 10
28.69942084371998
 20
-2.675591546053952
 30
0.0
 10
28.6635102704725
 20
-2.01323177515695
 30
0.0
 10
28.64506611443481
 20
-1.667600914625724
 30
0.0
 10
28.58945188583407
 20
-0.6090493076904492
 30
0.0
 10
28.55205743176984
 20
0.124883427530853
 30
0.0
 10
28.5174508674615
 20
0.8246696983814993
 30
0.0
  0
SPLINE
  5
D0
330
1F
100
AcDbEntity
  8
0
  6
Continuous
 62
     1
370
    15
100
AcDbSpline
210
0.0
220
0.0
230
1.0
 70
     8
 71
     3
 72
    14
 73
    10
 74
     0
 42
0.000000001
 43
0.00000001
 40
0.0000000000000001
 40
0.0000000000000001
 40
0.0000000000000001
 40
0.0000000000000001
 40
0.0000713025679205
 40
0.0000713025679205
 40
0.0000713025679205
 40
0.0001498715264605
 40
0.0001498715264605
 40
0.0001498715264605
 40
0.0002307223131404
 40
0.0002307223131404
 40
0.0002307223131404
 40
0.0002307223131404
 10
28.51745086746159
 20
0.8246696983816806
 30
0.0
 10
28.53233135598001
 20
0.8113891499689216
 30
0.0
 10
28.5481071379881
 20
0.797279276436578
 30
0.0
 10
28.56436304397102
 20
0.7827129055047821
 30
0.0
 10
28.58227139266728
 20
0.7666658362021136
 30
0.0
 10
28.60089837929957
 20
0.7499431658085745
 30
0.0
 10
28.61982817995805
 20
0.7329425612181132
 30
0.0
 10
28.63930671007405
 20
0.7154491499308089
 30
0.0
 10
28.65924970761435
 20
0.6975324311401432
 30
0.0
 10
28.67926300984498
 20
0.6795940665690254
 30
0.0
  0
SPLINE
  5
D1
330
1F
100
AcDbEntity
  8
0
  6
Continuous
 62
     1
370
    15
100
AcDbSpline
210
0.0
220
0.0
230
1.0
 70
     8
 71
     3
 72
    12
 73
     8
 74
     0
 42
0.000000001
 43
0.00000001
 40
0.0
 40
0.0
 40
0.0
 40
0.0
 40
0.2500000000000001
 40
0.2500000000000001
 40
0.5000000000000001
 40
0.5000000000000001
 40
1.0
 40
1.0
 40
1.0
 40
1.0
 10
28.89531040988866
 20
-3.437052913249343
 30
0.0
 10
28.87753534620291
 20
-3.136432233106722
 30
0.0
 10
28.86064464811742
 20
-2.824619984296281
 30
0.0
 10
28.82513514975907
 20
-2.166959389778208
 30
0.0
 10
28.8068469969837
 20
-1.822810959804314
 30
0.0
 10
28.75153572547644
 20
-0.7655146277406605
 30
0.0
 10
28.71411440399109
 20
-0.0279928711144003
 30
0.0
 10
28.67926300984528
 20
0.6795940665678669
 30
0.0
  0
SPLINE
  5
D2
330
1F
100
AcDbEntity
  8
0
  6
Continuous
 62
     1
370
    15
100
AcDbSpline
210
0.0
220
0.0
230
1.0
 70
     8
 71
     3
 72
    14
 73
    10
 74
     0
 42
0.000000001
 43
0.00000001
 40
0.0
 40
0.0
 40
0.0
 40
0.0
 40
0.0000711874248326
 40
0.0000711874248326
 40
0.0000711874248326
 40
0.0001497095339259
 40
0.0001497095339259
 40
0.0001497095339259
 40
0.0002305173641266
 40
0.0002305173641266
 40
0.0002305173641266
 40
0.0002305173641266
 10
28.088269083118
 20
-2.787111778210253
 30
0.0
 10
28.07339757179945
 20
-2.778801705520711
 30
0.0
 10
28.05763123165382
 20
-2.769140854878969
 30
0.0
 10
28.04138515496879
 20
-2.758472000024702
 30
0.0
 10
28.02346951448767
 20
-2.746706736840244
 30
0.0
 10
28.00483427780118
 20
-2.733627051848299
 30
0.0
 10
27.98589670903185
 20
-2.719596776622939
 30
0.0
 10
27.9664089109084
 20
-2.705158853015182
 30
0.0
 10
27.946456739717
 20
-2.689607906265364
 30
0.0
 10
27.9264356119313
 20
-2.673291351723952
 30
0.0
  0
SPLINE
  5
D3
330
1F
100
AcDbEntity
  8
0
  6
Continuous
 62
     1
370
    15
100
AcDbSpline
210
0.0
220
0.0
230
1.0
 70
     8
 71
     3
 72
    12
 73
     8
 74
     0
 42
0.000000001
 43
0.00000001
 40
0.0
 40
0.0
 40
0.0
 40
0.0
 40
0.5
 40
0.5
 40
0.75
 40
0.75
 40
1.0
 40
1.0
 40
1.0
 40
1.0
 10
27.92643561192794
 20
-2.673291351719849
 30
0.0
 10
27.89134094461899
 20
-2.027210216200471
 30
0.0
 10
27.85382331396613
 20
-1.314293015800793
 30
0.0
 10
27.79862645578304
 20
-0.2327793459076082
 30
0.0
 10
27.78041808196113
 20
0.1294249596131418
 30
0.0
 10
27.74514031655603
 20
0.8417103248942714
 30
0.0
 10
27.72820533477439
 20
1.190985494724887
 30
0.0
 10
27.71033138206486
 20
1.539172086371542
 30
0.0
  0
SPLINE
  5
D4
330
1F
100
AcDbEntity
  8
0
  6
Continuous
 62
     1
370
    15
100
AcDbSpline
210
0.0
220
0.0
230
1.0
 70
     8
 71
     3
 72
    14
 73
    10
 74
     0
 42
0.000000001
 43
0.00000001
 40
0.0000000000000045
 40
0.0000000000000045
 40
0.0000000000000045
 40
0.0000000000000045
 40
0.000076056503173
 40
0.000076056503173
 40
0.000076056503173
 40
0.0001471451817297
 40
0.0001471451817297
 40
0.0001471451817297
 40
0.0002208712401297
 40
0.0002208712401297
 40
0.0002208712401297
 40
0.0002208712401297
 10
27.71033138206844
 20
1.539172086368855
 30
0.0
 10
27.72919031102209
 20
1.522725326385964
 30
0.0
 10
27.74823862450135
 20
1.505864429409729
 30
0.0
 10
27.76711701876514
 20
1.488943091370087
 30
0.0
 10
27.7847615005884
 20
1.473127750441524
 30
0.0
 10
27.80238327435365
 20
1.457146891076327
 30
0.0
 10
27.81958696869348
 20
1.441386666273484
 30
0.0
 10
27.83740315956853
 20
1.425065336228047
 30
0.0
 10
27.85495164362201
 20
1.408814778482813
 30
0.0
 10
27.87152908144753
 20
1.393310619980108
 30
0.0
  0
SPLINE
  5
D5
330
1F
100
AcDbEntity
  8
0
  6
Continuous
 62
     1
370
    15
100
AcDbSpline
210
0.0
220
0.0
230
1.0
 70
     8
 71
     3
 72
    12
 73
     8
 74
     0
 42
0.000000001
 43
0.00000001
 40
0.0
 40
0.0
 40
0.0
 40
0.0
 40
0.5
 40
0.5
 40
0.75
 40
0.75
 40
1.0
 40
1.0
 40
1.0
 40
1.0
 10
28.08826908311801
 20
-2.787111778210249
 30
0.0
 10
28.05339886500597
 20
-2.15361129916827
 30
0.0
 10
28.01588477447808
 20
-1.449865279936511
 30
0.0
 10
27.96035498246227
 20
-0.3753416881458208
 30
0.0
 10
27.94198146653193
 20
-0.0143781759123164
 30
0.0
 10
27.90628721922425
 20
0.6974167766276267
 30
0.0
 10
27.88933790261887
 20
1.045840362071423
 30
0.0
 10
27.87152908144724
 20
1.393310619986227
 30
0.0
  0
SPLINE
  5
D6
330
1F
100
AcDbEntity
  8
0
  6
Continuous
 62
     1
370
    15
100
AcDbSpline
210
0.0
220
0.0
230
1.0
 70
     8
 71
     3
 72
    14
 73
    10
 74
     0
 42
0.000000001
 43
0.00000001
 40
0.0000000000000043
 40
0.0000000000000043
 40
0.0000000000000043
 40
0.0000000000000043
 40
0.0000758919648585
 40
0.0000758919648585
 40
0.0000758919648585
 40
0.0001469546736308
 40
0.0001469546736308
 40
0.0001469546736308
 40
0.0002206610977565
 40
0.0002206610977565
 40
0.0002206610977565
 40
0.0002206610977565
 10
13.74602799518301
 20
0.8254337556989185
 30
0.0
 10
13.7648453511298
 20
0.80866518198181
 30
0.0
 10
13.78385324198929
 20
0.7917127846879726
 30
0.0
 10
13.80269314190716
 20
0.7749505412196723
 30
0.0
 10
13.82033317395104
 20
0.7592558446874613
 30
0.0
 10
13.83795191684976
 20
0.7436158480794172
 30
0.0
 10
13.85515287041937
 20
0.7284428319881331
 30
0.0
 10
13.87296793690889
 20
0.7127281049284538
 30
0.0
 10
13.89051595159124
 20
0.6973550335598525
 30
0.0
 10
13.90709182768098
 20
0.6830324786120618
 30
0.0
  0
SPLINE
  5
D7
330
1F
100
AcDbEntity
  8
0
  6
Continuous
 62
     1
370
    15
100
AcDbSpline
210
0.0
220
0.0
230
1.0
 70
     8
 71
     3
 72
    12
 73
     8
 74
     0
 42
0.000000001
 43
0.00000001
 40
0.0
 40
0.0
 40
0.0
 40
0.0
 40
0.25
 40
0.25
 40
0.5
 40
0.5
 40
1.0
 40
1.0
 40
1.0
 40
1.0
 10
14.12383895694684
 20
-3.412282075316379
 30
0.0
 10
14.10599990191462
 20
-3.113322651257589
 30
0.0
 10
14.08905339819745
 20
-2.803179712158726
 30
0.0
 10
14.0534288335361
 20
-2.148959292013422
 30
0.0
 10
14.03507907218819
 20
-1.806549034659767
 30
0.0
 10
13.97958230035875
 20
-0.7545542345503454
 30
0.0
 10
13.94203739584909
 20
-0.0206919179334219
 30
0.0
 10
13.90709182768108
 20
0.6830324786115224
 30
0.0
  0
SPLINE
  5
D8
330
1F
100
AcDbEntity
  8
0
  6
Continuous
 62
     1
370
    15
100
AcDbSpline
210
0.0
220
0.0
230
1.0
 70
     8
 71
     3
 72
    14
 73
    10
 74
     0
 42
0.000000001
 43
0.00000001
 40
0.0000000000000013
 40
0.0000000000000013
 40
0.0000000000000013
 40
0.0000000000000013
 40
0.0000711563542337
 40
0.0000711563542337
 40
0.0000711563542337
 40
0.0001496412461548
 40
0.0001496412461548
 40
0.0001496412461548
 40
0.0002304120981942
 40
0.0002304120981942
 40
0.0002304120981942
 40
0.0002304120981942
 10
14.12383895694552
 20
-3.412282075316832
 30
0.0
 10
14.10895880453917
 20
-3.405930797015056
 30
0.0
 10
14.09318418552751
 20
-3.398080912220043
 30
0.0
 10
14.07693054360143
 20
-3.389055162561915
 30
0.0
 10
14.05900724980432
 20
-3.379102244711405
 30
0.0
 10
14.04036519926018
 20
-3.367644839023533
 30
0.0
 10
14.02142216925814
 20
-3.355024646144019
 30
0.0
 10
14.00192844874713
 20
-3.342037573180408
 30
0.0
 10
13.98197165786717
 20
-3.327723509198244
 30
0.0
 10
13.96194776941326
 20
-3.312401450606538
 30
0.0
  0
SPLINE
  5
D9
330
1F
100
AcDbEntity
  8
0
  6
Continuous
 62
     1
370
    15
100
AcDbSpline
210
0.0
220
0.0
230
1.0
 70
     8
 71
     3
 72
    12
 73
     8
 74
     0
 42
0.000000001
 43
0.00000001
 40
0.0
 40
0.0
 40
0.0
 40
0.0
 40
0.25
 40
0.25
 40
0.5
 40
0.5
 40
1.0
 40
1.0
 40
1.0
 40
1.0
 10
13.96194776940998
 20
-3.312401450604035
 30
0.0
 10
13.94432090325209
 20
-3.008165970693502
 30
0.0
 10
13.92736570425011
 20
-2.692232545655617
 30
0.0
 10
13.89157503301126
 20
-2.026383043487526
 30
0.0
 10
13.8731962483865
 20
-1.679024056021619
 30
0.0
 10
13.81778204615233
 20
-0.6152987338557496
 30
0.0
 10
13.78052518298488
 20
0.1220758708511322
 30
0.0
 10
13.74602799517954
 20
0.8254337557011945
 30
0.0
  0
SPLINE
  5
DA
330
1F
100
AcDbEntity
  8
0
  6
Continuous
 62
     1
370
    15
100
AcDbSpline
210
0.0
220
0.0
230
1.0
 70
     8
 71
     3
 72
    12
 73
     8
 74
     0
 42
0.000000001
 43
0.00000001
 40
0.0
 40
0.0
 40
0.0
 40
0.0
 40
0.5
 40
0.5
 40
0.75
 40
0.75
 40
1.0
 40
1.0
 40
1.0
 40
1.0
 10
12.8383480131851
 20
-2.411553409533508
 30
0.0
 10
12.80268025492656
 20
-1.749120918643526
 30
0.0
 10
12.76498418489451
 20
-1.026804862522376
 30
0.0
 10
12.71018284301057
 20
0.0555420241106584
 30
0.0
 10
12.69221281541247
 20
0.4158870843685378
 30
0.0
 10
12.65759179988086
 20
1.120597899688339
 30
0.0
 10
12.64015918706505
 20
1.470295627452446
 30
0.0
 10
12.62205791984507
 20
1.815627814592178
 30
0.0
  0
SPLINE
  5
DB
330
1F
100
AcDbEntity
  8
0
  6
Continuous
 62
     1
370
    15
100
AcDbSpline
210
0.0
220
0.0
230
1.0
 70
     8
 71
     3
 72
     8
 73
     4
 74
     0
 42
0.000000001
 43
0.00000001
 40
0.0
 40
0.0
 40
0.0
 40
0.0
 40
1.0
 40
1.0
 40
1.0
 40
1.0
 10
13.74602799517961
 20
0.8254337557014991
 30
0.0
 10
13.369591223358
 20
1.160885121768508
 30
0.0
 10
12.99776494603838
 20
1.491518878066303
 30
0.0
 10
12.62205791984507
 20
1.815627814592179
 30
0.0
  0
SPLINE
  5
DC
330
1F
100
AcDbEntity
  8
0
  6
Continuous
 62
     1
370
    15
100
AcDbSpline
210
0.0
220
0.0
230
1.0
 70
     8
 71
     3
 72
    10
 73
     6
 74
     0
 42
0.000000001
 43
0.00000001
 40
0.0
 40
0.0
 40
0.0
 40
0.0
 40
0.5
 40
0.5
 40
1.0
 40
1.0
 40
1.0
 40
1.0
 10
13.96194776940998
 20
-3.31240145060403
 30
0.0
 10
13.77384286275461
 20
-3.168465650731078
 30
0.0
 10
13.58567985144982
 20
-3.020978113227129
 30
0.0
 10
13.21102873028116
 20
-2.72033248047207
 30
0.0
 10
13.02537916398335
 20
-2.567413127146712
 30
0.0
 10
12.83834801318442
 20
-2.411553409534204
 30
0.0
  0
SPLINE
  5
DD
330
1F
100
AcDbEntity
  8
0
  6
Continuous
 62
     1
370
    15
100
AcDbSpline
210
0.0
220
0.0
230
1.0
 70
     8
 71
     3
 72
    14
 73
    10
 74
     0
 42
0.000000001
 43
0.00000001
 40
0.0000000000000002
 40
0.0000000000000002
 40
0.0000000000000002
 40
0.0000000000000002
 40
0.0000712471586878
 40
0.0000712471586878
 40
0.0000712471586878
 40
0.000149760533788
 40
0.000149760533788
 40
0.000149760533788
 40
0.000230556577524
 40
0.000230556577524
 40
0.000230556577524
 40
0.000230556577524
 10
42.48179905128841
 20
1.531276642775858
 30
0.0
 10
42.49669225991301
 20
1.519595037590924
 30
0.0
 10
42.51248073272195
 20
1.506891720695508
 30
0.0
 10
42.52874888377341
 20
1.493532522420442
 30
0.0
 10
42.54667193238954
 20
1.478814343360073
 30
0.0
 10
42.56531331296328
 20
1.46318873918055
 30
0.0
 10
42.58425634995283
 20
1.447045363932899
 30
0.0
 10
42.60374906852859
 20
1.430433546580764
 30
0.0
 10
42.62370529608955
 20
1.413150937537391
 30
0.0
 10
42.64372988375709
 20
1.395584562514453
 30
0.0
  0
SPLINE
  5
DE
330
1F
100
AcDbEntity
  8
0
  6
Continuous
 62
     1
370
    15
100
AcDbSpline
210
0.0
220
0.0
230
1.0
 70
     8
 71
     3
 72
     8
 73
     4
 74
     0
 42
0.000000001
 43
0.00000001
 40
0.0
 40
0.0
 40
0.0
 40
0.0
 40
1.0
 40
1.0
 40
1.0
 40
1.0
 10
42.65000000000002
 20
1.271554090819004
 30
0.0
 10
42.64791782220609
 20
1.312932515520167
 30
0.0
 10
42.64582759099714
 20
1.354280280680497
 30
0.0
 10
42.643729883757
 20
1.395584562515885
 30
0.0
  0
SPLINE
  5
DF
330
1F
100
AcDbEntity
  8
0
  6
Continuous
 62
     1
370
    15
100
AcDbSpline
210
0.0
220
0.0
230
1.0
 70
     8
 71
     3
 72
    10
 73
     6
 74
     0
 42
0.000000001
 43
0.00000001
 40
0.0
 40
0.0
 40
0.0
 40
0.0
 40
0.5
 40
0.5
 40
1.0
 40
1.0
 40
1.0
 40
1.0
 10
42.65000000000002
 20
1.271554090819011
 30
0.0
 10
42.65000000000002
 20
0.6107596178587198
 30
0.0
 10
42.65592444155711
 20
-0.071490131609317
 30
0.0
 10
42.67424792539568
 20
-1.405762803558641
 30
0.0
 10
42.6868626938586
 20
-2.058566242540119
 30
0.0
 10
42.70132745047922
 20
-2.662141424521716
 30
0.0
  0
SPLINE
  5
E0
330
1F
100
AcDbEntity
  8
0
  6
Continuous
 62
     1
370
    15
100
AcDbSpline
210
0.0
220
0.0
230
1.0
 70
     8
 71
     3
 72
     8
 73
     4
 74
     0
 42
0.000000001
 43
0.00000001
 40
0.0002167460666236
 40
0.0002167460666236
 40
0.0002167460666236
 40
0.0002167460666236
 40
0.000220709529369
 40
0.000220709529369
 40
0.000220709529369
 40
0.000220709529369
 10
42.70132745048036
 20
-2.662141424521089
 30
0.0
 10
42.70042610409991
 20
-2.661214231146257
 30
0.0
 10
42.69952725826887
 20
-2.660287155742516
 30
0.0
 10
42.69863105581643
 20
-2.659360321194562
 30
0.0
  0
SPLINE
  5
E1
330
1F
100
AcDbEntity
  8
0
  6
Continuous
 62
     1
370
    15
100
AcDbSpline
210
0.0
220
0.0
230
1.0
 70
     8
 71
     3
 72
    12
 73
     8
 74
     0
 42
0.000000001
 43
0.00000001
 40
0.0
 40
0.0
 40
0.0
 40
0.0
 40
0.4999999999999998
 40
0.4999999999999998
 40
0.7499999999999999
 40
0.7499999999999999
 40
1.0
 40
1.0
 40
1.0
 40
1.0
 10
42.69863105581638
 20
-2.659360321194506
 30
0.0
 10
42.66343725163667
 20
-2.017088878578096
 30
0.0
 10
42.62579067120401
 20
-1.307855682863215
 30
0.0
 10
42.57040185756358
 20
-0.2317643014269478
 30
0.0
 10
42.5521299799225
 20
0.1286465144431392
 30
0.0
 10
42.51673403118431
 20
0.8373438800984591
 30
0.0
 10
42.49973901147364
 20
1.184868267041394
 30
0.0
 10
42.48179905128818
 20
1.531276642775818
 30
0.0
  0
SPLINE
  5
E2
330
1F
100
AcDbEntity
  8
0
  6
Continuous
 62
     1
370
    15
100
AcDbSpline
210
0.0
220
0.0
230
1.0
 70
     8
 71
     3
 72
    12
 73
     8
 74
     0
 42
0.000000001
 43
0.00000001
 40
0.0
 40
0.0
 40
0.0
 40
0.0
 40
0.5
 40
0.5
 40
0.75
 40
0.75
 40
1.0
 40
1.0
 40
1.0
 40
1.0
 10
26.80186276919505
 20
-1.726574508034297
 30
0.0
 10
26.76520770841248
 20
-1.03114480679882
 30
0.0
 10
26.72759783150819
 20
-0.2954259499678897
 30
0.0
 10
26.67450225384209
 20
0.7745629872433754
 30
0.0
 10
26.65761641804748
 20
1.1239388521277
 30
0.0
 10
26.62201626354661
 20
1.820906050154398
 30
0.0
 10
26.60370442503122
 20
2.165699004073835
 30
0.0
 10
26.5852670728779
 20
2.499057128773462
 30
0.0
  0
SPLINE
  5
E3
330
1F
100
AcDbEntity
  8
0
  6
Continuous
 62
     1
370
    15
100
AcDbSpline
210
0.0
220
0.0
230
1.0
 70
     8
 71
     3
 72
     8
 73
     4
 74
     0
 42
0.000000001
 43
0.00000001
 40
0.0
 40
0.0
 40
0.0
 40
0.0
 40
1.0
 40
1.0
 40
1.0
 40
1.0
 10
27.71033138206484
 20
1.53917208637153
 30
0.0
 10
27.33400738493712
 20
1.867362010187348
 30
0.0
 10
26.95870450761786
 20
2.188739711355384
 30
0.0
 10
26.58526707287746
 20
2.499057128772117
 30
0.0
  0
SPLINE
  5
E4
330
1F
100
AcDbEntity
  8
0
  6
Continuous
 62
     1
370
    15
100
AcDbSpline
210
0.0
220
0.0
230
1.0
 70
     8
 71
     3
 72
     8
 73
     4
 74
     0
 42
0.000000001
 43
0.00000001
 40
0.0
 40
0.0
 40
0.0
 40
0.0
 40
1.0
 40
1.0
 40
1.0
 40
1.0
 10
27.92643561192561
 20
-2.673291351719313
 30
0.0
 10
27.55152684727086
 20
-2.367753153669262
 30
0.0
 10
27.17429458112323
 20
-2.05015956660793
 30
0.0
 10
26.80186276919686
 20
-1.726574508035881
 30
0.0
  0
SPLINE
  5
E5
330
1F
100
AcDbEntity
  8
0
  6
Continuous
 62
     1
370
    15
100
AcDbSpline
210
0.0
220
0.0
230
1.0
 70
     8
 71
     3
 72
    14
 73
    10
 74
     0
 42
0.000000001
 43
0.00000001
 40
0.0000000000000002
 40
0.0000000000000002
 40
0.0000000000000002
 40
0.0000000000000002
 40
0.0000712362955602
 40
0.0000712362955602
 40
0.0000712362955602
 40
0.0001498177086614
 40
0.0001498177086614
 40
0.0001498177086614
 40
0.0002306827766529
 40
0.0002306827766529
 40
0.0002306827766529
 40
0.0002306827766529
 10
12.46002369315908
 20
1.945151447151952
 30
0.0
 10
12.47492290717282
 20
1.934486148640398
 30
0.0
 10
12.49071596173156
 20
1.922687727515519
 30
0.0
 10
12.50698612944545
 20
1.910116254753777
 30
0.0
 10
12.52492960960779
 20
1.896251863428579
 30
0.0
 10
12.54358971996193
 20
1.881342475613406
 30
0.0
 10
12.56254811531678
 20
1.865772003667034
 30
0.0
 10
12.58205650669449
 20
1.849749821674317
 30
0.0
 10
12.60202485090103
 20
1.832909622538623
 30
0.0
 10
12.62205791984504
 20
1.815627814592207
 30
0.0
  0
SPLINE
  5
E6
330
1F
100
AcDbEntity
  8
0
  6
Continuous
 62
     1
370
    15
100
AcDbSpline
210
0.0
220
0.0
230
1.0
 70
     8
 71
     3
 72
    14
 73
    10
 74
     0
 42
0.000000001
 43
0.00000001
 40
0.000000000000001
 40
0.000000000000001
 40
0.000000000000001
 40
0.000000000000001
 40
0.0000762507706759
 40
0.0000762507706759
 40
0.0000762507706759
 40
0.0001473778836113
 40
0.0001473778836113
 40
0.0001473778836113
 40
0.0002211403590918
 40
0.0002211403590918
 40
0.0002211403590918
 40
0.0002211403590918
 10
12.83834801318517
 20
-2.41155340953484
 30
0.0
 10
12.81947137621535
 20
-2.395822835804089
 30
0.0
 10
12.80040122579156
 20
-2.379391270078898
 30
0.0
 10
12.78149714445987
 20
-2.36257875471632
 30
0.0
 10
12.76386397125569
 20
-2.346896532968302
 30
0.0
 10
12.74624988031921
 20
-2.330771164531382
 30
0.0
 10
12.72904961188489
 20
-2.314547443721704
 30
0.0
 10
12.71123785321912
 20
-2.297746950123223
 30
0.0
 10
12.69368935245095
 20
-2.280669416945914
 30
0.0
 10
12.67710810866191
 20
-2.263934234749388
 30
0.0
  0
SPLINE
  5
E7
330
1F
100
AcDbEntity
  8
0
  6
Continuous
 62
     1
370
    15
100
AcDbSpline
210
0.0
220
0.0
230
1.0
 70
     8
 71
     3
 72
    12
 73
     8
 74
     0
 42
0.000000001
 43
0.00000001
 40
0.0
 40
0.0
 40
0.0
 40
0.0
 40
0.5
 40
0.5
 40
0.75
 40
0.75
 40
1.0
 40
1.0
 40
1.0
 40
1.0
 10
12.67710810866178
 20
-2.26393423474922
 30
0.0
 10
12.64108190979231
 20
-1.597698194204744
 30
0.0
 10
12.60321283603427
 20
-0.8752137676738824
 30
0.0
 10
12.54849476011342
 20
0.2007417412645287
 30
0.0
 10
12.53065047656136
 20
0.5576018858152726
 30
0.0
 10
12.49620539687532
 20
1.254601526567753
 30
0.0
 10
12.47828447274203
 20
1.603538281212666
 30
0.0
 10
12.46002369315898
 20
1.945151447152158
 30
0.0
  0
SPLINE
  5
E8
330
1F
100
AcDbEntity
  8
0
  6
Continuous
 62
     1
370
    15
100
AcDbSpline
210
0.0
220
0.0
230
1.0
 70
     8
 71
     3
 72
    10
 73
     6
 74
     0
 42
0.000000001
 43
0.00000001
 40
0.0
 40
0.0
 40
0.0
 40
0.0
 40
0.5
 40
0.5
 40
1.0
 40
1.0
 40
1.0
 40
1.0
 10
28.7341306659133
 20
-3.292344753320346
 30
0.0
 10
28.63187748873698
 20
-3.18304759776145
 30
0.0
 10
28.51549219902769
 20
-3.084433544170419
 30
0.0
 10
28.29240395928448
 20
-2.913700591188336
 30
0.0
 10
28.18296301231727
 20
-2.840025931859325
 30
0.0
 10
28.088269083118
 20
-2.787111778210233
 30
0.0
  0
SPLINE
  5
E9
330
1F
100
AcDbEntity
  8
0
  6
Continuous
 62
     1
370
    15
100
AcDbSpline
210
0.0
220
0.0
230
1.0
 70
     8
 71
     3
 72
    10
 73
     6
 74
     0
 42
0.000000001
 43
0.00000001
 40
0.0
 40
0.0
 40
0.0
 40
0.0
 40
0.5
 40
0.5
 40
1.0
 40
1.0
 40
1.0
 40
1.0
 10
27.87152908144755
 20
1.393310619980115
 30
0.0
 10
27.97382365028939
 20
1.297638947072533
 30
0.0
 10
28.09032204330289
 20
1.197349369345394
 30
0.0
 10
28.3136564328555
 20
1.00411634872456
 30
0.0
 10
28.42287273276514
 20
0.9090788557200603
 30
0.0
 10
28.51745086746152
 20
0.8246696983816808
 30
0.0
  0
SPLINE
  5
EA
330
1F
100
AcDbEntity
  8
0
  6
Continuous
 62
     1
370
    15
100
AcDbSpline
210
0.0
220
0.0
230
1.0
 70
     8
 71
     3
 72
     8
 73
     4
 74
     0
 42
0.000000001
 43
0.00000001
 40
0.0
 40
0.0
 40
0.0
 40
0.0
 40
1.0
 40
1.0
 40
1.0
 40
1.0
 10
29.80363766183211
 20
-0.330011737672989
 30
0.0
 10
29.42989285819664
 20
0.0061829769273856
 30
0.0
 10
29.05272746511699
 20
0.3448496313018159
 30
0.0
 10
28.67926300984683
 20
0.6795940665673642
 30
0.0
  0
SPLINE
  5
EB
330
1F
100
AcDbEntity
  8
0
  6
Continuous
 62
     1
370
    15
100
AcDbSpline
210
0.0
220
0.0
230
1.0
 70
     8
 71
     3
 72
    12
 73
     8
 74
     0
 42
0.000000001
 43
0.00000001
 40
0.0
 40
0.0
 40
0.0
 40
0.0
 40
0.2500000000000001
 40
0.2500000000000001
 40
0.5000000000000001
 40
0.5000000000000001
 40
1.0
 40
1.0
 40
1.0
 40
1.0
 10
30.02018489060814
 20
-4.239190645365881
 30
0.0
 10
30.00177765294731
 20
-3.970304586679394
 30
0.0
 10
29.98353754760889
 20
-3.681376671094196
 30
0.0
 10
29.94815405236351
 20
-3.077257135458699
 30
0.0
 10
29.93126692704033
 20
-2.763918695487953
 30
0.0
 10
29.87785304170001
 20
-1.772614068188432
 30
0.0
 10
29.84018368161649
 20
-1.051315450321859
 30
0.0
 10
29.80363766183204
 20
-0.3300117376731784
 30
0.0
  0
SPLINE
  5
EC
330
1F
100
AcDbEntity
  8
0
  6
Continuous
 62
     1
370
    15
100
AcDbSpline
210
0.0
220
0.0
230
1.0
 70
     8
 71
     3
 72
     8
 73
     4
 74
     0
 42
0.000000001
 43
0.00000001
 40
0.0
 40
0.0
 40
0.0
 40
0.0
 40
1.0
 40
1.0
 40
1.0
 40
1.0
 10
30.02018489060791
 20
-4.239190645366061
 30
0.0
 10
29.64764823263324
 20
-3.989249537794099
 30
0.0
 10
29.27031350279462
 20
-3.720210139490006
 30
0.0
 10
28.89531040988874
 20
-3.437052913249404
 30
0.0
  0
SPLINE
  5
ED
330
1F
100
AcDbEntity
  8
0
  6
Continuous
 62
     1
370
    15
100
AcDbSpline
210
0.0
220
0.0
230
1.0
 70
     8
 71
     3
 72
    14
 73
    10
 74
     0
 42
0.000000001
 43
0.00000001
 40
0.0
 40
0.0
 40
0.0
 40
0.0
 40
0.0000715545773986
 40
0.0000715545773986
 40
0.0000715545773986
 40
0.0001502439051256
 40
0.0001502439051256
 40
0.0001502439051256
 40
0.0002312059582777
 40
0.0002312059582777
 40
0.0002312059582777
 40
0.0002312059582777
 10
42.05228775584259
 20
-2.125996538167197
 30
0.0
 10
42.03735638237274
 20
-2.115757871579502
 30
0.0
 10
42.0215304323219
 20
-2.104324730875353
 30
0.0
 10
42.0052233789263
 20
-2.0920636575881
 30
0.0
 10
41.9872942353368
 20
-2.078582954594395
 30
0.0
 10
41.96864893448646
 20
-2.063998066821119
 30
0.0
 10
41.94970132778557
 20
-2.04868868209253
 30
0.0
 10
41.93020749587998
 20
-2.032937955513277
 30
0.0
 10
41.91025047071958
 20
-2.01630499020295
 30
0.0
 10
41.89022233353779
 20
-1.999159257139918
 30
0.0
  0
SPLINE
  5
EE
330
1F
100
AcDbEntity
  8
0
  6
Continuous
 62
     1
370
    15
100
AcDbSpline
210
0.0
220
0.0
230
1.0
 70
     8
 71
     3
 72
    12
 73
     8
 74
     0
 42
0.000000001
 43
0.00000001
 40
0.0
 40
0.0
 40
0.0
 40
0.0
 40
0.5
 40
0.5
 40
0.75
 40
0.75
 40
1.0
 40
1.0
 40
1.0
 40
1.0
 10
41.89022233353444
 20
-1.999159257136656
 30
0.0
 10
41.85387667981038
 20
-1.31525415202607
 30
0.0
 10
41.8161443653373
 20
-0.5830710247688751
 30
0.0
 10
41.76226602841504
 20
0.4941118486425201
 30
0.0
 10
41.74521071927098
 20
0.8465568764157653
 30
0.0
 10
41.71019344024221
 20
1.546332020415172
 30
0.0
 10
41.69208021054226
 20
1.894590282860311
 30
0.0
 10
41.67373476702069
 20
2.233435151797541
 30
0.0
  0
SPLINE
  5
EF
330
1F
100
AcDbEntity
  8
0
  6
Continuous
 62
     1
370
    15
100
AcDbSpline
210
0.0
220
0.0
230
1.0
 70
     8
 71
     3
 72
    14
 73
    10
 74
     0
 42
0.000000001
 43
0.00000001
 40
0.0000000000000049
 40
0.0000000000000049
 40
0.0000000000000049
 40
0.0000000000000049
 40
0.0000763657965771
 40
0.0000763657965771
 40
0.0000763657965771
 40
0.000147524284505
 40
0.000147524284505
 40
0.000147524284505
 40
0.0002213069543981
 40
0.0002213069543981
 40
0.0002213069543981
 40
0.0002213069543981
 10
41.67373476702423
 20
2.233435151793588
 30
0.0
 10
41.69265275441421
 20
2.217478358975345
 30
0.0
 10
41.71175928946594
 20
2.200879676039511
 30
0.0
 10
41.73069396954551
 20
2.183968991292768
 30
0.0
 10
41.7483370786159
 20
2.168211816933972
 30
0.0
 10
41.76595614907389
 20
2.152071832539707
 30
0.0
 10
41.78315839043008
 20
2.135903492092478
 30
0.0
 10
41.80096941591334
 20
2.119162957079339
 30
0.0
 10
41.81851326976571
 20
2.1022220211127
 30
0.0
 10
41.83509075999017
 20
2.08571288231367
 30
0.0
  0
SPLINE
  5
F0
330
1F
100
AcDbEntity
  8
0
  6
Continuous
 62
     1
370
    15
100
AcDbSpline
210
0.0
220
0.0
230
1.0
 70
     8
 71
     3
 72
    12
 73
     8
 74
     0
 42
0.000000001
 43
0.00000001
 40
0.0
 40
0.0
 40
0.0
 40
0.0
 40
0.5
 40
0.5
 40
0.75
 40
0.75
 40
1.0
 40
1.0
 40
1.0
 40
1.0
 10
42.05228775584262
 20
-2.125996538167183
 30
0.0
 10
42.01602355907802
 20
-1.452393846410517
 30
0.0
 10
41.97813383627588
 20
-0.7264298850166286
 30
0.0
 10
41.92371897871107
 20
0.3479892801678359
 30
0.0
 10
41.90631526914574
 20
0.701367579800509
 30
0.0
 10
41.87149904537799
 20
1.398358847344256
 30
0.0
 10
41.85343750626745
 20
1.746239694742423
 30
0.0
 10
41.835090759991
 20
2.085712882313136
 30
0.0
  0
SPLINE
  5
F1
330
1F
100
AcDbEntity
  8
0
  6
Continuous
 62
     1
370
    15
100
AcDbSpline
210
0.0
220
0.0
230
1.0
 70
     8
 71
     3
 72
    10
 73
     6
 74
     0
 42
0.000000001
 43
0.00000001
 40
0.0
 40
0.0
 40
0.0
 40
0.0
 40
0.5
 40
0.5
 40
1.0
 40
1.0
 40
1.0
 40
1.0
 10
42.69863105581638
 20
-2.659360321194506
 30
0.0
 10
42.59630480397844
 20
-2.553536569977491
 30
0.0
 10
42.47973230239638
 20
-2.453228940960913
 30
0.0
 10
42.25622988801361
 20
-2.272839871224569
 30
0.0
 10
42.14686642310797
 20
-2.190850547906724
 30
0.0
 10
42.05228775584261
 20
-2.125996538167171
 30
0.0
  0
SPLINE
  5
F2
330
1F
100
AcDbEntity
  8
0
  6
Continuous
 62
     1
370
    15
100
AcDbSpline
210
0.0
220
0.0
230
1.0
 70
     8
 71
     3
 72
    10
 73
     6
 74
     0
 42
0.000000001
 43
0.00000001
 40
0.0
 40
0.0
 40
0.0
 40
0.0
 40
0.5
 40
0.5
 40
1.0
 40
1.0
 40
1.0
 40
1.0
 10
41.83509075999103
 20
2.085712882312809
 30
0.0
 10
41.93743373404845
 20
1.983791883359176
 30
0.0
 10
42.0537782906622
 20
1.882428145624909
 30
0.0
 10
42.27728649859085
 20
1.694372253969286
 30
0.0
 10
42.38694020329604
 20
1.60567992540424
 30
0.0
 10
42.48179905128818
 20
1.531276642775827
 30
0.0
  0
SPLINE
  5
F3
330
1F
100
AcDbEntity
  8
0
  6
Continuous
 62
     1
370
    15
100
AcDbSpline
210
0.0
220
0.0
230
1.0
 70
     8
 71
     3
 72
    12
 73
     8
 74
     0
 42
0.000000001
 43
0.00000001
 40
0.0
 40
0.0
 40
0.0
 40
0.0
 40
0.25
 40
0.25
 40
0.5
 40
0.5
 40
1.0
 40
1.0
 40
1.0
 40
1.0
 10
40.76488831829886
 20
-1.01783470222221
 30
0.0
 10
40.74642041455442
 20
-0.6602326431966508
 30
0.0
 10
40.72798187857425
 20
-0.2977732484069756
 30
0.0
 10
40.69195398467799
 20
0.4210573790617634
 30
0.0
 10
40.67477201764267
 20
0.7746798848796063
 30
0.0
 10
40.62251009130347
 20
1.824636325242627
 30
0.0
 10
40.58511919251541
 20
2.519795902278652
 30
0.0
 10
40.54828878566808
 20
3.149447256809552
 30
0.0
  0
SPLINE
  5
F4
330
1F
100
AcDbEntity
  8
0
  6
Continuous
 62
     1
370
    15
100
AcDbSpline
210
0.0
220
0.0
230
1.0
 70
     8
 71
     3
 72
     8
 73
     4
 74
     0
 42
0.000000001
 43
0.00000001
 40
0.0
 40
0.0
 40
0.0
 40
0.0
 40
1.0
 40
1.0
 40
1.0
 40
1.0
 10
41.67373476702038
 20
2.233435151796471
 30
0.0
 10
41.29925186934992
 20
2.549300993595296
 30
0.0
 10
40.92172264252567
 20
2.856565593884229
 30
0.0
 10
40.54828878567425
 20
3.149447256813525
 30
0.0
  0
SPLINE
  5
F5
330
1F
100
AcDbEntity
  8
0
  6
Continuous
 62
     1
370
    15
100
AcDbSpline
210
0.0
220
0.0
230
1.0
 70
     8
 71
     3
 72
     8
 73
     4
 74
     0
 42
0.000000001
 43
0.00000001
 40
0.0
 40
0.0
 40
0.0
 40
0.0
 40
1.0
 40
1.0
 40
1.0
 40
1.0
 10
41.89022233353336
 20
-1.999159257136134
 30
0.0
 10
41.5171521323935
 20
-1.679780473953689
 30
0.0
 10
41.13966107145016
 20
-1.350606127040986
 30
0.0
 10
40.76488831829914
 20
-1.017834702222067
 30
0.0
  0
SPLINE
  5
F6
330
1F
100
AcDbEntity
  8
0
  6
Continuous
 62
     1
370
    15
100
AcDbSpline
210
0.0
220
0.0
230
1.0
 70
     8
 71
     3
 72
    14
 73
    10
 74
     0
 42
0.000000001
 43
0.00000001
 40
0.0000000000000001
 40
0.0000000000000001
 40
0.0000000000000001
 40
0.0000000000000001
 40
0.0000766464725913
 40
0.0000766464725913
 40
0.0000766464725913
 40
0.0001478479963425
 40
0.0001478479963425
 40
0.0001478479963425
 40
0.0002216688122922
 40
0.0002216688122922
 40
0.0002216688122922
 40
0.0002216688122922
 10
26.80186276919506
 20
-1.726574508034317
 30
0.0
 10
26.78290469773282
 20
-1.710102905802516
 30
0.0
 10
26.76375881594453
 20
-1.693140318184856
 30
0.0
 10
26.74478622336697
 20
-1.676037429165132
 30
0.0
 10
26.72716150033279
 20
-1.660149580373543
 30
0.0
 10
26.70956373056188
 20
-1.644025823852346
 30
0.0
 10
26.69237538523792
 20
-1.628050732825349
 30
0.0
 10
26.67458055020441
 20
-1.611511961692193
 30
0.0
 10
26.65704473142434
 20
-1.594966287898224
 30
0.0
 10
26.64046873092582
 20
-1.579076266931501
 30
0.0
  0
SPLINE
  5
F7
330
1F
100
AcDbEntity
  8
0
  6
Continuous
 62
     1
370
    15
100
AcDbSpline
210
0.0
220
0.0
230
1.0
 70
     8
 71
     3
 72
    12
 73
     8
 74
     0
 42
0.000000001
 43
0.00000001
 40
0.0
 40
0.0
 40
0.0
 40
0.0
 40
0.5
 40
0.5
 40
0.75
 40
0.75
 40
1.0
 40
1.0
 40
1.0
 40
1.0
 10
26.64046873092578
 20
-1.579076266931458
 30
0.0
 10
26.60358317980169
 20
-0.8824015216643263
 30
0.0
 10
26.56595187360362
 20
-0.1495129307760105
 30
0.0
 10
26.5131415635057
 20
0.9100983486775424
 30
0.0
 10
26.4960793100199
 20
1.257215641371773
 30
0.0
 10
26.46009683489489
 20
1.948263439208675
 30
0.0
 10
26.44164140951773
 20
2.289018830512673
 30
0.0
 10
26.42311773138547
 20
2.61730476271216
 30
0.0
  0
SPLINE
  5
F8
330
1F
100
AcDbEntity
  8
0
  6
Continuous
 62
     1
370
    15
100
AcDbSpline
210
0.0
220
0.0
230
1.0
 70
     8
 71
     3
 72
    14
 73
    10
 74
     0
 42
0.000000001
 43
0.00000001
 40
0.0
 40
0.0
 40
0.0
 40
0.0
 40
0.0000714082610376
 40
0.0000714082610376
 40
0.0000714082610376
 40
0.0001501348942912
 40
0.0001501348942912
 40
0.0001501348942912
 40
0.0002311399507822
 40
0.0002311399507822
 40
0.0002311399507822
 40
0.0002311399507822
 10
26.42311773138556
 20
2.61730476271209
 30
0.0
 10
26.43804151403006
 20
2.608386119834977
 30
0.0
 10
26.45385857768705
 20
2.59815723208878
 30
0.0
 10
26.47015076957975
 20
2.58696773948853
 30
0.0
 10
26.48810855388436
 20
2.574634316464976
 30
0.0
 10
26.50677979332439
 20
2.561041095676136
 30
0.0
 10
26.52574658603966
 20
2.546558384618043
 30
0.0
 10
26.54526144202152
 20
2.531657182038967
 30
0.0
 10
26.56523274491524
 20
2.515705167598842
 30
0.0
 10
26.58526707287773
 20
2.499057128771882
 30
0.0
  0
SPLINE
  5
F9
330
1F
100
AcDbEntity
  8
0
  6
Continuous
 62
     1
370
    15
100
AcDbSpline
210
0.0
220
0.0
230
1.0
 70
     8
 71
     3
 72
    10
 73
     6
 74
     0
 42
0.000000001
 43
0.00000001
 40
0.0
 40
0.0
 40
0.0
 40
0.0
 40
0.5
 40
0.5
 40
1.0
 40
1.0
 40
1.0
 40
1.0
 10
13.90709182768104
 20
0.6830324786120382
 30
0.0
 10
14.00932442890952
 20
0.594697355893757
 30
0.0
 10
14.12582575725108
 20
0.4965376887850559
 30
0.0
 10
14.34928926687885
 20
0.3007484315417759
 30
0.0
 10
14.45867233729566
 20
0.2011143788155891
 30
0.0
 10
14.55325944437097
 20
0.1080367005607032
 30
0.0
  0
SPLINE
  5
FA
330
1F
100
AcDbEntity
  8
0
  6
Continuous
 62
     1
370
    15
100
AcDbSpline
210
0.0
220
0.0
230
1.0
 70
     8
 71
     3
 72
    12
 73
     8
 74
     0
 42
0.000000001
 43
0.00000001
 40
0.0
 40
0.0
 40
0.0
 40
0.0
 40
0.2499999999999999
 40
0.2499999999999999
 40
0.4999999999999998
 40
0.4999999999999998
 40
1.0
 40
1.0
 40
1.0
 40
1.0
 10
14.77040565422205
 20
-3.881895895286655
 30
0.0
 10
14.75211859013573
 20
-3.599721855211796
 30
0.0
 10
14.73415744746143
 20
-3.300119312625375
 30
0.0
 10
14.69960953976093
 20
-2.680602536729241
 30
0.0
 10
14.68188977483653
 20
-2.354047613179656
 30
0.0
 10
14.6272372804773
 20
-1.335325522868932
 30
0.0
 10
14.58935404957494
 20
-0.6070148668046839
 30
0.0
 10
14.553259444371
 20
0.1080367005595087
 30
0.0
  0
SPLINE
  5
FB
330
1F
100
AcDbEntity
  8
0
  6
Continuous
 62
     1
370
    15
100
AcDbSpline
210
0.0
220
0.0
230
1.0
 70
     8
 71
     3
 72
    10
 73
     6
 74
     0
 42
0.000000001
 43
0.00000001
 40
0.0
 40
0.0
 40
0.0
 40
0.0
 40
0.5
 40
0.5
 40
1.0
 40
1.0
 40
1.0
 40
1.0
 10
14.77040565422206
 20
-3.881895895286704
 30
0.0
 10
14.66825827114382
 20
-3.770515619348855
 30
0.0
 10
14.55187403007451
 20
-3.675011117458094
 30
0.0
 10
14.32829073158925
 20
-3.516989958129908
 30
0.0
 10
14.21865337593338
 20
-3.452751604495037
 30
0.0
 10
14.12383895694683
 20
-3.41228207531633
 30
0.0
  0
SPLINE
  5
FC
330
1F
100
AcDbEntity
  8
0
  6
Continuous
 62
     1
370
    15
100
AcDbSpline
210
0.0
220
0.0
230
1.0
 70
     8
 71
     3
 72
    10
 73
     6
 74
     0
 42
0.000000001
 43
0.00000001
 40
0.0
 40
0.0
 40
0.0
 40
0.0
 40
0.5
 40
0.5
 40
1.0
 40
1.0
 40
1.0
 40
1.0
 10
12.67710810866178
 20
-2.263934234749237
 30
0.0
 10
12.57489040052648
 20
-2.16076754887692
 30
0.0
 10
12.45839903984116
 20
-2.060036173090307
 30
0.0
 10
12.23477269400038
 20
-1.875065429550853
 30
0.0
 10
12.12521116473862
 20
-1.788877773770446
 30
0.0
 10
12.03045603477844
 20
-1.71790105885571
 30
0.0
  0
SPLINE
  5
FD
330
1F
100
AcDbEntity
  8
0
  6
Continuous
 62
     1
370
    15
100
AcDbSpline
210
0.0
220
0.0
230
1.0
 70
     8
 71
     3
 72
     8
 73
     4
 74
     0
 42
0.000000001
 43
0.00000001
 40
0.0
 40
0.0
 40
0.0
 40
0.0
 40
1.0
 40
1.0
 40
1.0
 40
1.0
 10
12.03045603477845
 20
-1.717901058855687
 30
0.0
 10
12.02035608698093
 20
-1.527925355178562
 30
0.0
 10
12.01018160092012
 20
-1.334920315818915
 30
0.0
 10
12.00000000000002
 20
-1.140151911271953
 30
0.0
  0
SPLINE
  5
FE
330
1F
100
AcDbEntity
  8
0
  6
Continuous
 62
     1
370
    15
100
AcDbSpline
210
0.0
220
0.0
230
1.0
 70
     8
 71
     3
 72
    10
 73
     6
 74
     0
 42
0.000000001
 43
0.00000001
 40
0.0
 40
0.0
 40
0.0
 40
0.0
 40
0.5
 40
0.5
 40
1.0
 40
1.0
 40
1.0
 40
1.0
 10
11.9999999999998
 20
2.309767730481243
 30
0.0
 10
12.08085625019044
 20
2.239035345808709
 30
0.0
 10
12.16097484452936
 20
2.173561698200446
 30
0.0
 10
12.31818091204938
 20
2.049693873180945
 30
0.0
 10
12.39249464786853
 20
1.993490737100983
 30
0.0
 10
12.46002369315902
 20
1.945151447151945
 30
0.0
  0
SPLINE
  5
FF
330
1F
100
AcDbEntity
  8
0
  6
Continuous
 62
     1
370
    15
100
AcDbSpline
210
0.0
220
0.0
230
1.0
 70
    24
 71
     3
 72
    12
 73
     8
 74
     0
 42
0.000000001
 43
0.00000001
 40
0.0
 40
0.0
 40
0.0
 40
0.0
 40
0.25
 40
0.25
 40
0.5
 40
0.5
 40
1.0
 40
1.0
 40
1.0
 40
1.0
 10
12.00000000000002
 20
2.309767730481226
 30
0.0
 10
12.00000000000002
 20
2.039512466366308
 30
0.0
 10
12.00000000000002
 20
1.758138021982817
 30
0.0
 10
12.00000000000002
 20
1.192301030359024
 30
0.0
 10
12.00000000000695
 20
0.9062142198700611
 30
0.0
 10
12.00000000000695
 20
0.0387601535455123
 30
0.0
 10
12.00000000000002
 20
-0.5560609570720186
 30
0.0
 10
12.00000000000002
 20
-1.140151911271942
 30
0.0
  0
LINE
  5
100
330
1F
100
AcDbEntity
  8
0
  6
Continuous
 62
     1
370
    15
100
AcDbLine
 10
30.66436952352526
 20
-4.807460938879096
 30
0.0
 11
30.81486566364767
 21
-4.672289246060693
 31
0.0
  0
SPLINE
  5
101
330
1F
100
AcDbEntity
  8
0
  6
Continuous
 62
     1
370
    15
100
AcDbSpline
210
0.0
220
0.0
230
1.0
 70
     8
 71
     3
 72
    14
 73
    10
 74
     0
 42
0.000000001
 43
0.00000001
 40
0.0000000000000044
 40
0.0000000000000044
 40
0.0000000000000044
 40
0.0000000000000044
 40
0.0000761687684179
 40
0.0000761687684179
 40
0.0000761687684179
 40
0.0001472718344033
 40
0.0001472718344033
 40
0.0001472718344033
 40
0.0002210131427125
 40
0.0002210131427125
 40
0.0002210131427125
 40
0.0002210131427125
 10
30.50312906092417
 20
-4.935939067070977
 30
0.0
 10
30.52199947794285
 20
-4.925296594852007
 30
0.0
 10
30.54106247308446
 20
-4.91312895330817
 30
0.0
 10
30.55995856682177
 20
-4.899591377385035
 30
0.0
 10
30.57759720514785
 20
-4.886954670093068
 30
0.0
 10
30.5952159894926
 20
-4.873033694121168
 30
0.0
 10
30.61241950052672
 20
-4.857985809925709
 30
0.0
 10
30.63023549513523
 20
-4.842402187305637
 30
0.0
 10
30.64778687993637
 20
-4.825447405995863
 30
0.0
 10
30.66436879727984
 20
-4.80746072125681
 30
0.0
  0
SPLINE
  5
102
330
1F
100
AcDbEntity
  8
0
  6
Continuous
 62
     1
370
    15
100
AcDbSpline
210
0.0
220
0.0
230
1.0
 70
     8
 71
     3
 72
     8
 73
     4
 74
     0
 42
0.000000001
 43
0.00000001
 40
0.0
 40
0.0
 40
0.0
 40
0.0
 40
1.0
 40
1.0
 40
1.0
 40
1.0
 10
30.50312906092088
 20
-4.935939067072558
 30
0.0
 10
30.12735719729202
 20
-5.147865576980023
 30
0.0
 10
29.75479225663892
 20
-5.33817525555317
 30
0.0
 10
29.37787212666769
 20
-5.505648821025151
 30
0.0
  0
SPLINE
  5
103
330
1F
100
AcDbEntity
  8
0
  6
Continuous
 62
     1
370
    15
100
AcDbSpline
210
0.0
220
0.0
230
1.0
 70
     8
 71
     3
 72
    14
 73
    10
 74
     0
 42
0.000000001
 43
0.00000001
 40
0.0000000000000004
 40
0.0000000000000004
 40
0.0000000000000004
 40
0.0000000000000004
 40
0.0000712661595886
 40
0.0000712661595886
 40
0.0000712661595886
 40
0.0001498408273987
 40
0.0001498408273987
 40
0.0001498408273987
 40
0.0002306978334391
 40
0.0002306978334391
 40
0.0002306978334391
 40
0.0002306978334391
 10
29.21575045779523
 20
-5.532567202799139
 30
0.0
 10
29.23066073874887
 20
-5.535345040204886
 30
0.0
 10
29.24646609431645
 20
-5.536220043240085
 30
0.0
 10
29.26274983224612
 20
-5.535388545906849
 30
0.0
 10
29.28069926193475
 20
-5.534471993271104
 30
0.0
 10
29.29936625662057
 20
-5.53147671655148
 30
0.0
 10
29.31833296947921
 20
-5.526604731386139
 30
0.0
 10
29.33784962220826
 20
-5.52159148300295
 30
0.0
 10
29.35782774004474
 20
-5.514554964869745
 30
0.0
 10
29.37787212666766
 20
-5.505648821025172
 30
0.0
  0
SPLINE
  5
104
330
1F
100
AcDbEntity
  8
0
  6
Continuous
 62
     1
370
    15
100
AcDbSpline
210
0.0
220
0.0
230
1.0
 70
     8
 71
     3
 72
    10
 73
     6
 74
     0
 42
0.000000001
 43
0.00000001
 40
0.0
 40
0.0
 40
0.0
 40
0.0
 40
0.5
 40
0.5
 40
1.0
 40
1.0
 40
1.0
 40
1.0
 10
28.56873999289841
 20
-5.782276613791729
 30
0.0
 10
28.67098018540132
 20
-5.679732672782634
 30
0.0
 10
28.78747726892322
 20
-5.612052698446968
 30
0.0
 10
29.01120915747901
 20
-5.530123851488171
 30
0.0
 10
29.12088370462208
 20
-5.514893195424706
 30
0.0
 10
29.21575045779514
 20
-5.532567202798988
 30
0.0
  0
SPLINE
  5
105
330
1F
100
AcDbEntity
  8
0
  6
Continuous
 62
     1
370
    15
100
AcDbSpline
210
0.0
220
0.0
230
1.0
 70
     8
 71
     3
 72
    14
 73
    10
 74
     0
 42
0.000000001
 43
0.00000001
 40
0.0000000000000016
 40
0.0000000000000016
 40
0.0000000000000016
 40
0.0000000000000016
 40
0.0000766054685404
 40
0.0000766054685404
 40
0.0000766054685404
 40
0.0001477967556719
 40
0.0001477967556719
 40
0.0001477967556719
 40
0.0002216138467352
 40
0.0002216138467352
 40
0.0002216138467352
 40
0.0002216138467352
 10
28.40735434337544
 20
-5.884241453574363
 30
0.0
 10
28.42628970293143
 20
-5.877890080935555
 30
0.0
 10
28.44541837480903
 20
-5.869682398051721
 30
0.0
 10
28.46438306602863
 20
-5.859655758811871
 30
0.0
 10
28.48200713560761
 20
-5.850337906727684
 30
0.0
 10
28.49961347323763
 20
-5.839381997913459
 30
0.0
 10
28.5168093865772
 20
-5.826810296300141
 30
0.0
 10
28.53461378874291
 20
-5.81379373666701
 30
0.0
 10
28.55215799439741
 20
-5.798907876258115
 30
0.0
 10
28.56873999290142
 20
-5.782276613788994
 30
0.0
  0
SPLINE
  5
106
330
1F
100
AcDbEntity
  8
0
  6
Continuous
 62
     1
370
    15
100
AcDbSpline
210
0.0
220
0.0
230
1.0
 70
     8
 71
     3
 72
     8
 73
     4
 74
     0
 42
0.000000001
 43
0.00000001
 40
0.0
 40
0.0
 40
0.0
 40
0.0
 40
1.0
 40
1.0
 40
1.0
 40
1.0
 10
28.40735434337217
 20
-5.884241453574825
 30
0.0
 10
28.03551094790231
 20
-6.008966625063348
 30
0.0
 10
27.65829121419953
 20
-6.109301107689503
 30
0.0
 10
27.28281685641117
 20
-6.183100438049329
 30
0.0
  0
SPLINE
  5
107
330
1F
100
AcDbEntity
  8
0
  6
Continuous
 62
     1
370
    15
100
AcDbSpline
210
0.0
220
0.0
230
1.0
 70
     8
 71
     3
 72
    14
 73
    10
 74
     0
 42
0.000000001
 43
0.00000001
 40
0.0000000000000001
 40
0.0000000000000001
 40
0.0000000000000001
 40
0.0000000000000001
 40
0.0000711326928185
 40
0.0000711326928185
 40
0.0000711326928185
 40
0.0001496342968087
 40
0.0001496342968087
 40
0.0001496342968087
 40
0.0002304235734544
 40
0.0002304235734544
 40
0.0002304235734544
 40
0.0002304235734544
 10
27.12100203787175
 20
-6.162355658241089
 30
0.0
 10
27.13586618498521
 20
-6.170354770052613
 30
0.0
 10
27.15162481750784
 20
-6.176437657830355
 30
0.0
 10
27.16786296696241
 20
-6.180698533648069
 30
0.0
 10
27.18577889574231
 20
-6.185399657252314
 30
0.0
 10
27.20441484006956
 20
-6.187920475137909
 30
0.0
 10
27.22335292246324
 20
-6.188352948850962
 30
0.0
 10
27.24284186810468
 20
-6.188798002183705
 30
0.0
 10
27.26279515904641
 20
-6.187035694419137
 30
0.0
 10
27.28281685640999
 20
-6.183100438049564
 30
0.0
  0
SPLINE
  5
108
330
1F
100
AcDbEntity
  8
0
  6
Continuous
 62
     1
370
    15
100
AcDbSpline
210
0.0
220
0.0
230
1.0
 70
     8
 71
     3
 72
    10
 73
     6
 74
     0
 42
0.000000001
 43
0.00000001
 40
0.0
 40
0.0
 40
0.0
 40
0.0
 40
0.5000000000000001
 40
0.5000000000000001
 40
1.0
 40
1.0
 40
1.0
 40
1.0
 10
26.47512223228452
 20
-6.248996086634936
 30
0.0
 10
26.57733636348686
 20
-6.163915204393176
 30
0.0
 10
26.69356420913405
 20
-6.121202213375203
 30
0.0
 10
26.91678666238734
 20
-6.095087574161991
 30
0.0
 10
27.02628531045766
 20
-6.111384035905432
 30
0.0
 10
27.12100203787168
 20
-6.16235565824099
 30
0.0
  0
SPLINE
  5
109
330
1F
100
AcDbEntity
  8
0
  6
Continuous
 62
     1
370
    15
100
AcDbSpline
210
0.0
220
0.0
230
1.0
 70
     8
 71
     3
 72
    14
 73
    10
 74
     0
 42
0.000000001
 43
0.00000001
 40
0.0000000000000044
 40
0.0000000000000044
 40
0.0000000000000044
 40
0.0000000000000044
 40
0.0000762019073475
 40
0.0000762019073475
 40
0.0000762019073475
 40
0.0001473267038446
 40
0.0001473267038446
 40
0.0001473267038446
 40
0.0002210818079252
 40
0.0002210818079252
 40
0.0002210818079252
 40
0.0002210818079252
 10
26.31392551087809
 20
-6.314973609533737
 30
0.0
 10
26.33280459066804
 20
-6.313567267575026
 30
0.0
 10
26.35187190814747
 20
-6.310153090788714
 30
0.0
 10
26.37076781944338
 20
-6.304649175957197
 30
0.0
 10
26.38840412155159
 20
-6.29951215434303
 30
0.0
 10
26.40601650574375
 20
-6.292517286208743
 30
0.0
 10
26.42321121571466
 20
-6.283555807176326
 30
0.0
 10
26.44101616739562
 20
-6.274276284495674
 30
0.0
 10
26.45855331536907
 20
-6.262787702846648
 30
0.0
 10
26.47512223228454
 20
-6.248996086634908
 30
0.0
  0
SPLINE
  5
10A
330
1F
100
AcDbEntity
  8
0
  6
Continuous
 62
     1
370
    15
100
AcDbSpline
210
0.0
220
0.0
230
1.0
 70
     8
 71
     3
 72
     8
 73
     4
 74
     0
 42
0.000000001
 43
0.00000001
 40
0.0
 40
0.0
 40
0.0
 40
0.0
 40
1.0
 40
1.0
 40
1.0
 40
1.0
 10
26.31392551087459
 20
-6.314973609533957
 30
0.0
 10
25.93948825833953
 20
-6.34286622002654
 30
0.0
 10
25.56214242921773
 20
-6.343919870099046
 30
0.0
 10
25.18901930196011
 20
-6.318208174860191
 30
0.0
  0
LINE
  5
10B
330
1F
100
AcDbEntity
  8
0
  6
Continuous
 62
     1
370
    15
100
AcDbLine
 10
25.18901886790993
 20
-6.318208181598031
 30
0.0
 11
25.18885309249164
 21
-6.318196540065848
 31
0.0
  0
SPLINE
  5
10C
330
1F
100
AcDbEntity
  8
0
  6
Continuous
 62
     1
370
    15
100
AcDbSpline
210
0.0
220
0.0
230
1.0
 70
     8
 71
     3
 72
    14
 73
    10
 74
     0
 42
0.000000001
 43
0.00000001
 40
0.0
 40
0.0
 40
0.0
 40
0.0
 40
0.0000716239265051
 40
0.0000716239265051
 40
0.0000716239265051
 40
0.0001503154310821
 40
0.0001503154310821
 40
0.0001503154310821
 40
0.0002310532819178
 40
0.0002310532819178
 40
0.0002310532819178
 40
0.0002310532819178
 10
25.02686348335875
 20
-6.251573848512574
 30
0.0
 10
25.04181372255863
 20
-6.264147890573573
 30
0.0
 10
25.0576613870191
 20
-6.274941167457754
 30
0.0
 10
25.07398946871609
 20
-6.283941496697719
 30
0.0
 10
25.09192495526235
 20
-6.293827856099324
 30
0.0
 10
25.11057567295239
 20
-6.301627492908926
 30
0.0
 10
25.12952832135309
 20
-6.307315483587005
 30
0.0
 10
25.14897279390629
 20
-6.313151078501475
 30
0.0
 10
25.16887714333806
 20
-6.316807527763454
 30
0.0
 10
25.18885293331328
 20
-6.318196657983307
 30
0.0
  0
SPLINE
  5
10D
330
1F
100
AcDbEntity
  8
0
  6
Continuous
 62
     1
370
    15
100
AcDbSpline
210
0.0
220
0.0
230
1.0
 70
     8
 71
     3
 72
    10
 73
     6
 74
     0
 42
0.000000001
 43
0.00000001
 40
0.0
 40
0.0
 40
0.0
 40
0.0
 40
0.4999999999999999
 40
0.4999999999999999
 40
1.0
 40
1.0
 40
1.0
 40
1.0
 10
24.37977541501901
 20
-6.167158865577198
 30
0.0
 10
24.48224891745215
 20
-6.106882378322165
 30
0.0
 10
24.59894722607198
 20
-6.092886459997303
 30
0.0
 10
24.82268169431618
 20
-6.125324296678365
 30
0.0
 10
24.93214345095549
 20
-6.171908656836627
 30
0.0
 10
25.02686348335872
 20
-6.25157384851251
 30
0.0
  0
SPLINE
  5
10E
330
1F
100
AcDbEntity
  8
0
  6
Continuous
 62
     1
370
    15
100
AcDbSpline
210
0.0
220
0.0
230
1.0
 70
     8
 71
     3
 72
    14
 73
    10
 74
     0
 42
0.000000001
 43
0.00000001
 40
0.0000000000000036
 40
0.0000000000000036
 40
0.0000000000000036
 40
0.0000000000000036
 40
0.0000761860617431
 40
0.0000761860617431
 40
0.0000761860617431
 40
0.0001473026818872
 40
0.0001473026818872
 40
0.0001473026818872
 40
0.0002210519179101
 40
0.0002210519179101
 40
0.0002210519179101
 40
0.0002210519179101
 10
24.21841445926992
 20
-6.191648884534779
 30
0.0
 10
24.23730705294744
 20
-6.195256078462073
 30
0.0
 10
24.25638977278082
 20
-6.196874400618969
 30
0.0
 10
24.27530263704671
 20
-6.196307279045655
 30
0.0
 10
24.29295636669945
 20
-6.195777913911175
 30
0.0
 10
24.31058768030737
 20
-6.19333968780645
 30
0.0
 10
24.32780182707683
 20
-6.188758260918676
 30
0.0
 10
24.34562748199366
 20
-6.18401408533903
 30
0.0
 10
24.36318624996697
 20
-6.176916867129838
 30
0.0
 10
24.37977541501893
 20
-6.167158865577439
 30
0.0
  0
SPLINE
  5
10F
330
1F
100
AcDbEntity
  8
0
  6
Continuous
 62
     1
370
    15
100
AcDbSpline
210
0.0
220
0.0
230
1.0
 70
     8
 71
     3
 72
     8
 73
     4
 74
     0
 42
0.000000001
 43
0.00000001
 40
0.0
 40
0.0
 40
0.0
 40
0.0
 40
1.0
 40
1.0
 40
1.0
 40
1.0
 10
24.21841445926688
 20
-6.191648884534363
 30
0.0
 10
23.84184635424089
 20
-6.119750118014799
 30
0.0
 10
23.46773461393907
 20
-6.021584093804423
 30
0.0
 10
23.09350866369393
 20
-5.89833412381703
 30
0.0
  0
SPLINE
  5
110
330
1F
100
AcDbEntity
  8
0
  6
Continuous
 62
     1
370
    15
100
AcDbSpline
210
0.0
220
0.0
230
1.0
 70
     8
 71
     3
 72
    14
 73
    10
 74
     0
 42
0.000000001
 43
0.00000001
 40
0.0000000000000001
 40
0.0000000000000001
 40
0.0000000000000001
 40
0.0000000000000001
 40
0.0000711820372078
 40
0.0000711820372078
 40
0.0000711820372078
 40
0.0001498093005176
 40
0.0001498093005176
 40
0.0001498093005176
 40
0.0002307234704744
 40
0.0002307234704744
 40
0.0002307234704744
 40
0.0002307234704744
 10
22.93160709632346
 20
-5.791628952009708
 30
0.0
 10
22.9464812747972
 20
-5.807587390689194
 30
0.0
 10
22.9622476421342
 20
-5.82208335970893
 30
0.0
 10
22.97848955574273
 20
-5.834995405187439
 30
0.0
 10
22.99642587181657
 20
-5.84925447184943
 30
0.0
 10
23.01507857984274
 20
-5.8616922404011
 30
0.0
 10
23.03402824518031
 20
-5.872170192199885
 30
0.0
 10
23.05352819736718
 20
-5.882952417397684
 30
0.0
 10
23.07348674394504
 20
-5.891739976600559
 30
0.0
 10
23.09350866369392
 20
-5.898334123817029
 30
0.0
  0
SPLINE
  5
111
330
1F
100
AcDbEntity
  8
0
  6
Continuous
 62
     1
370
    15
100
AcDbSpline
210
0.0
220
0.0
230
1.0
 70
     8
 71
     3
 72
    10
 73
     6
 74
     0
 42
0.000000001
 43
0.00000001
 40
0.0
 40
0.0
 40
0.0
 40
0.0
 40
0.5
 40
0.5
 40
1.0
 40
1.0
 40
1.0
 40
1.0
 10
22.28589327469892
 20
-5.544754305274356
 30
0.0
 10
22.38802141302983
 20
-5.514609166687488
 30
0.0
 10
22.50441138691125
 20
-5.530196301973453
 30
0.0
 10
22.72773770310184
 20
-5.6176348923369
 30
0.0
 10
22.83707463076106
 20
-5.690205498098488
 30
0.0
 10
22.93160709632339
 20
-5.79162895200963
 30
0.0
  0
SPLINE
  5
112
330
1F
100
AcDbEntity
  8
0
  6
Continuous
 62
     1
370
    15
100
AcDbSpline
210
0.0
220
0.0
230
1.0
 70
     8
 71
     3
 72
    14
 73
    10
 74
     0
 42
0.000000001
 43
0.00000001
 40
0.0000000000000047
 40
0.0000000000000047
 40
0.0000000000000047
 40
0.0000000000000047
 40
0.0000759921396802
 40
0.0000759921396802
 40
0.0000759921396802
 40
0.0001470613432607
 40
0.0001470613432607
 40
0.0001470613432607
 40
0.0002207738591532
 40
0.0002207738591532
 40
0.0002207738591532
 40
0.0002207738591532
 10
22.12477702390439
 20
-5.525758168350278
 30
0.0
 10
22.1436131943533
 20
-5.53404009945432
 30
0.0
 10
22.16264081222026
 20
-5.540529544974151
 30
0.0
 10
22.18150103946159
 20
-5.544932804435207
 30
0.0
 10
22.19913851983395
 20
-5.54905059163496
 30
0.0
 10
22.21675544966947
 20
-5.551372325852021
 30
0.0
 10
22.23395549109872
 20
-5.551558114241793
 30
0.0
 10
22.25176939945656
 20
-5.551750533391652
 30
0.0
 10
22.26931721187976
 20
-5.549647057840633
 30
0.0
 10
22.28589327469891
 20
-5.544754305274352
 30
0.0
  0
SPLINE
  5
113
330
1F
100
AcDbEntity
  8
0
  6
Continuous
 62
     1
370
    15
100
AcDbSpline
210
0.0
220
0.0
230
1.0
 70
     8
 71
     3
 72
     8
 73
     4
 74
     0
 42
0.000000001
 43
0.00000001
 40
0.0
 40
0.0
 40
0.0
 40
0.0
 40
1.0
 40
1.0
 40
1.0
 40
1.0
 10
22.1247770239007
 20
-5.525758168348862
 30
0.0
 10
21.74845546757959
 20
-5.360296233770959
 30
0.0
 10
21.37657057032855
 20
-5.171968860391664
 30
0.0
 10
21.0000401082972
 20
-4.961648570142582
 30
0.0
  0
SPLINE
  5
114
330
1F
100
AcDbEntity
  8
0
  6
Continuous
 62
     1
370
    15
100
AcDbSpline
210
0.0
220
0.0
230
1.0
 70
     8
 71
     3
 72
    14
 73
    10
 74
     0
 42
0.000000001
 43
0.00000001
 40
0.0
 40
0.0
 40
0.0
 40
0.0
 40
0.0000712537073845
 40
0.0000712537073845
 40
0.0000712537073845
 40
0.0001498320086533
 40
0.0001498320086533
 40
0.0001498320086533
 40
0.0002306931727201
 40
0.0002306931727201
 40
0.0002306931727201
 40
0.0002306931727201
 10
20.83794462156675
 20
-4.824377335030042
 30
0.0
 10
20.85285140225541
 20
-4.842372724189781
 30
0.0
 10
20.86865273458228
 20
-4.859337058568649
 30
0.0
 10
20.88493185638904
 20
-4.875050989535736
 30
0.0
 10
20.90288014252974
 20
-4.892376133529418
 30
0.0
 10
20.92154554889535
 20
-4.908314429501488
 30
0.0
 10
20.94050996461631
 20
-4.922623119898734
 30
0.0
 10
20.96002436803544
 20
-4.937346777137617
 30
0.0
 10
20.97999949281093
 20
-4.950454394661799
 30
0.0
 10
21.0000401082972
 20
-4.961648570142589
 30
0.0
  0
SPLINE
  5
115
330
1F
100
AcDbEntity
  8
0
  6
Continuous
 62
     1
370
    15
100
AcDbSpline
210
0.0
220
0.0
230
1.0
 70
     8
 71
     3
 72
    10
 73
     6
 74
     0
 42
0.000000001
 43
0.00000001
 40
0.0
 40
0.0
 40
0.0
 40
0.0
 40
0.5
 40
0.5
 40
1.0
 40
1.0
 40
1.0
 40
1.0
 10
20.19094641843189
 20
-4.435420727477448
 30
0.0
 10
20.29321294140629
 20
-4.438284824454322
 30
0.0
 10
20.40973845092692
 20
-4.48247591663236
 30
0.0
 10
20.63347301401296
 20
-4.617644568750972
 30
0.0
 10
20.74311737367168
 20
-4.709902367935469
 30
0.0
 10
20.83794462156672
 20
-4.824377335030031
 30
0.0
  0
SPLINE
  5
116
330
1F
100
AcDbEntity
  8
0
  6
Continuous
 62
     1
370
    15
100
AcDbSpline
210
0.0
220
0.0
230
1.0
 70
     8
 71
     3
 72
    14
 73
    10
 74
     0
 42
0.000000001
 43
0.00000001
 40
0.0000000000000041
 40
0.0000000000000041
 40
0.0000000000000041
 40
0.0000000000000041
 40
0.0000764858529653
 40
0.0000764858529653
 40
0.0000764858529653
 40
0.0001476535734394
 40
0.0001476535734394
 40
0.0001476535734394
 40
0.0002214501365326
 40
0.0002214501365326
 40
0.0002214501365326
 40
0.0002214501365326
 10
20.02954426547908
 20
-4.373988188481318
 30
0.0
 10
20.04846827364907
 20
-4.386339629575588
 30
0.0
 10
20.06758685961742
 20
-4.397236369806249
 30
0.0
 10
20.0865395630277
 20
-4.406309233008106
 30
0.0
 10
20.10417407052521
 20
-4.414751061632433
 30
0.0
 10
20.12179002107586
 20
-4.421672934770102
 30
0.0
 10
20.13899387554583
 20
-4.426659130306775
 30
0.0
 10
20.15680743137696
 20
-4.431822035673859
 30
0.0
 10
20.17435925413501
 20
-4.434956183991303
 30
0.0
 10
20.19094641843174
 20
-4.435420727477658
 30
0.0
  0
SPLINE
  5
117
330
1F
100
AcDbEntity
  8
0
  6
Continuous
 62
     1
370
    15
100
AcDbSpline
210
0.0
220
0.0
230
1.0
 70
     8
 71
     3
 72
     8
 73
     4
 74
     0
 42
0.000000001
 43
0.00000001
 40
0.0
 40
0.0
 40
0.0
 40
0.0
 40
1.0
 40
1.0
 40
1.0
 40
1.0
 10
20.0295442654795
 20
-4.373988188481881
 30
0.0
 10
19.65589081813311
 20
-4.130109698090546
 30
0.0
 10
19.28082244699607
 20
-3.867310646223269
 30
0.0
 10
18.90439815816097
 20
-3.588812859728792
 30
0.0
  0
SPLINE
  5
118
330
1F
100
AcDbEntity
  8
0
  6
Continuous
 62
     1
370
    15
100
AcDbSpline
210
0.0
220
0.0
230
1.0
 70
     8
 71
     3
 72
    14
 73
    10
 74
     0
 42
0.000000001
 43
0.00000001
 40
0.0
 40
0.0
 40
0.0
 40
0.0
 40
0.0000711734572825
 40
0.0000711734572825
 40
0.0000711734572825
 40
0.0001496999981492
 40
0.0001496999981492
 40
0.0001496999981492
 40
0.0002305125463244
 40
0.0002305125463244
 40
0.0002305125463244
 40
0.0002305125463244
 10
18.74245370364675
 20
-3.432973134974697
 30
0.0
 10
18.75733522339869
 20
-3.451410698794085
 30
0.0
 10
18.7731115204148
 20
-3.469341682258483
 30
0.0
 10
18.78936697240591
 20
-3.48646814130971
 30
0.0
 10
18.80729746062942
 20
-3.50535938915052
 30
0.0
 10
18.82594726850814
 20
-3.523416490060238
 30
0.0
 10
18.84489838224611
 20
-3.54031383835902
 30
0.0
 10
18.86440018015178
 20
-3.557702192216254
 30
0.0
 10
18.88436536783418
 20
-3.573991585095899
 30
0.0
 10
18.90439815816088
 20
-3.588812859728733
 30
0.0
  0
SPLINE
  5
119
330
1F
100
AcDbEntity
  8
0
  6
Continuous
 62
     1
370
    15
100
AcDbSpline
210
0.0
220
0.0
230
1.0
 70
     8
 71
     3
 72
    10
 73
     6
 74
     0
 42
0.000000001
 43
0.00000001
 40
0.0
 40
0.0
 40
0.0
 40
0.0
 40
0.5
 40
0.5
 40
1.0
 40
1.0
 40
1.0
 40
1.0
 10
18.09647003255532
 20
-2.935700620822067
 30
0.0
 10
18.19858492959231
 20
-2.971218739880663
 30
0.0
 10
18.31479020944789
 20
-3.040365531606017
 30
0.0
 10
18.53816074063786
 20
-3.211628644721601
 30
0.0
 10
18.64769899320828
 20
-3.3155761184053
 30
0.0
 10
18.74245370364667
 20
-3.432973134974647
 30
0.0
  0
SPLINE
  5
11A
330
1F
100
AcDbEntity
  8
0
  6
Continuous
 62
     1
370
    15
100
AcDbSpline
210
0.0
220
0.0
230
1.0
 70
     8
 71
     3
 72
    14
 73
    10
 74
     0
 42
0.000000001
 43
0.00000001
 40
0.0000000000000046
 40
0.0000000000000046
 40
0.0000000000000046
 40
0.0000000000000046
 40
0.000076197875198
 40
0.000076197875198
 40
0.000076197875198
 40
0.0001473263014591
 40
0.0001473263014591
 40
0.0001473263014591
 40
0.0002210844316757
 40
0.0002210844316757
 40
0.0002210844316757
 40
0.0002210844316757
 10
17.93539396245238
 20
-2.837738878577945
 30
0.0
 10
17.9542591489706
 20
-2.852935154643172
 30
0.0
 10
17.9733118328808
 20
-2.867161889212416
 30
0.0
 10
17.99219268561847
 20
-2.880015335731728
 30
0.0
 10
18.00981676729735
 20
-2.892013214983204
 30
0.0
 10
18.02741643996126
 20
-2.902899262435706
 30
0.0
 10
18.0445984337792
 20
-2.912220947766287
 30
0.0
 10
18.06239006371724
 20
-2.921873376789246
 30
0.0
 10
18.0799136978674
 20
-2.929941912899067
 30
0.0
 10
18.09647003255527
 20
-2.935700620822018
 30
0.0
  0
SPLINE
  5
11B
330
1F
100
AcDbEntity
  8
0
  6
Continuous
 62
     1
370
    15
100
AcDbSpline
210
0.0
220
0.0
230
1.0
 70
     8
 71
     3
 72
     8
 73
     4
 74
     0
 42
0.000000001
 43
0.00000001
 40
0.0
 40
0.0
 40
0.0
 40
0.0
 40
1.0
 40
1.0
 40
1.0
 40
1.0
 10
17.93539396244874
 20
-2.837738878575409
 30
0.0
 10
17.56208257524505
 20
-2.537029267630529
 30
0.0
 10
17.18495982558223
 20
-2.223217307714418
 30
0.0
 10
16.81114481497725
 20
-1.902213657611697
 30
0.0
  0
SPLINE
  5
11C
330
1F
100
AcDbEntity
  8
0
  6
Continuous
 62
     1
370
    15
100
AcDbSpline
210
0.0
220
0.0
230
1.0
 70
     8
 71
     3
 72
    14
 73
    10
 74
     0
 42
0.000000001
 43
0.00000001
 40
0.0000000000000002
 40
0.0000000000000002
 40
0.0000000000000002
 40
0.0000000000000002
 40
0.0000714855202281
 40
0.0000714855202281
 40
0.0000714855202281
 40
0.0001501090404248
 40
0.0001501090404248
 40
0.0001501090404248
 40
0.0002310069315865
 40
0.0002310069315865
 40
0.0002310069315865
 40
0.0002310069315865
 10
16.64905226949213
 20
-1.74080825480645
 30
0.0
 10
16.66398367535368
 20
-1.758189072023138
 30
0.0
 10
16.67981183845493
 20
-1.775629612615145
 30
0.0
 10
16.69612023359705
 20
-1.792777830018641
 30
0.0
 10
16.7140531138423
 20
-1.811634187522652
 30
0.0
 10
16.73270243746471
 20
-1.830280385437618
 30
0.0
 10
16.75165364642277
 20
-1.848338589437909
 30
0.0
 10
16.77115201581453
 20
-1.866918170979554
 30
0.0
 10
16.79111340476017
 20
-1.885012219429801
 30
0.0
 10
16.81114481497577
 20
-1.90221365761043
 30
0.0
  0
SPLINE
  5
11D
330
1F
100
AcDbEntity
  8
0
  6
Continuous
 62
     1
370
    15
100
AcDbSpline
210
0.0
220
0.0
230
1.0
 70
     8
 71
     3
 72
    10
 73
     6
 74
     0
 42
0.000000001
 43
0.00000001
 40
0.0
 40
0.0
 40
0.0
 40
0.0
 40
0.5
 40
0.5
 40
1.0
 40
1.0
 40
1.0
 40
1.0
 10
16.00198949666724
 20
-1.178189217871543
 30
0.0
 10
16.10447768430792
 20
-1.243061992054823
 30
0.0
 10
16.22115948376882
 20
-1.330740969076252
 30
0.0
 10
16.44480614831925
 20
-1.523438334210693
 30
0.0
 10
16.55422599455234
 20
-1.630426274211284
 30
0.0
 10
16.64905226949202
 20
-1.740808254806361
 30
0.0
  0
SPLINE
  5
11E
330
1F
100
AcDbEntity
  8
0
  6
Continuous
 62
     1
370
    15
100
AcDbSpline
210
0.0
220
0.0
230
1.0
 70
     8
 71
     3
 72
    14
 73
    10
 74
     0
 42
0.000000001
 43
0.00000001
 40
0.000000000000006
 40
0.000000000000006
 40
0.000000000000006
 40
0.000000000000006
 40
0.0000762445749713
 40
0.0000762445749713
 40
0.0000762445749713
 40
0.0001473740197065
 40
0.0001473740197065
 40
0.0001473740197065
 40
0.0002211332858066
 40
0.0002211332858066
 40
0.0002211332858066
 40
0.0002211332858066
 10
15.8406087847689
 20
-1.052428446985806
 30
0.0
 10
15.85951250078543
 20
-1.069174709655702
 30
0.0
 10
15.87860579644021
 20
-1.085510529146463
 30
0.0
 10
15.89752848922571
 20
-1.101028022151835
 30
0.0
 10
15.91518109750259
 20
-1.115503986464536
 30
0.0
 10
15.93281069483184
 20
-1.129370315984992
 30
0.0
 10
15.95002311150895
 20
-1.142175846498753
 30
0.0
 10
15.96784622001602
 20
-1.155435713728253
 30
0.0
 10
15.98540223749288
 20
-1.167689846739108
 30
0.0
 10
16.00198949666726
 20
-1.178189217871635
 30
0.0
  0
SPLINE
  5
11F
330
1F
100
AcDbEntity
  8
0
  6
Continuous
 62
     1
370
    15
100
AcDbSpline
210
0.0
220
0.0
230
1.0
 70
     8
 71
     3
 72
     8
 73
     4
 74
     0
 42
0.000000001
 43
0.00000001
 40
0.0
 40
0.0
 40
0.0
 40
0.0
 40
1.0
 40
1.0
 40
1.0
 40
1.0
 10
15.84060878476369
 20
-1.052428446981601
 30
0.0
 10
15.46448972084729
 20
-0.7192352994533431
 30
0.0
 10
15.0881328785835
 20
-0.3814354646301921
 30
0.0
 10
14.71529295469179
 20
-0.0444466381468092
 30
0.0
  0
SPLINE
  5
120
330
1F
100
AcDbEntity
  8
0
  6
Continuous
 62
     1
370
    15
100
AcDbSpline
210
0.0
220
0.0
230
1.0
 70
     8
 71
     3
 72
    14
 73
    10
 74
     0
 42
0.000000001
 43
0.00000001
 40
0.0000000000000001
 40
0.0000000000000001
 40
0.0000000000000001
 40
0.0000000000000001
 40
0.0000713413437214
 40
0.0000713413437214
 40
0.0000713413437214
 40
0.0001500653054695
 40
0.0001500653054695
 40
0.0001500653054695
 40
0.0002310706983002
 40
0.0002310706983002
 40
0.0002310706983002
 40
0.0002310706983002
 10
14.55325944437103
 20
0.1080367005606867
 30
0.0
 10
14.56816198839438
 20
0.0933719725583759
 30
0.0
 10
14.58395692229431
 20
0.0780783553558717
 30
0.0
 10
14.600226490004
 20
0.0625282970829266
 30
0.0
 10
14.61817544743
 20
0.045373118845062
 30
0.0
 10
14.63683837649712
 20
0.027775565386697
 30
0.0
 10
14.65579670073262
 20
0.0101349891252727
 30
0.0
 10
14.67530361265077
 20
-0.0080160437952658
 30
0.0
 10
14.69526694771409
 20
-0.0263462681002723
 30
0.0
 10
14.71529295469145
 20
-0.044446638146505
 30
0.0
  0
SPLINE
  5
121
330
1F
100
AcDbEntity
  8
0
  6
Continuous
 62
     1
370
    15
100
AcDbSpline
210
0.0
220
0.0
230
1.0
 70
     8
 71
     3
 72
    14
 73
    10
 74
     0
 42
0.000000001
 43
0.00000001
 40
0.0
 40
0.0
 40
0.0
 40
0.0
 40
0.0000761713373608
 40
0.0000761713373608
 40
0.0000761713373608
 40
0.000131881240869
 40
0.000131881240869
 40
0.000131881240869
 40
0.0001887295888642
 40
0.0001887295888642
 40
0.0001887295888642
 40
0.0001887295888642
 10
12.13912187613231
 20
6.194848578598123
 30
0.0
 10
12.1202331082244
 20
6.190967013974558
 30
0.0
 10
12.10115432263728
 20
6.185136723851878
 30
0.0
 10
12.08224541563305
 20
6.177335039640577
 30
0.0
 10
12.06839693037837
 20
6.171621250433319
 30
0.0
 10
12.05457416705547
 20
6.164822890107638
 30
0.0
 10
12.04095947054049
 20
6.156919372216808
 30
0.0
 10
12.02707408551112
 20
6.148858715934098
 30
0.0
 10
12.01333017293034
 20
6.139603881783446
 30
0.0
 10
11.99999999999982
 20
6.129143167331603
 30
0.0
  0
SPLINE
  5
122
330
1F
100
AcDbEntity
  8
0
  6
Continuous
 62
     1
370
    15
100
AcDbSpline
210
0.0
220
0.0
230
1.0
 70
     8
 71
     3
 72
     8
 73
     4
 74
     0
 42
0.000000001
 43
0.00000001
 40
0.0
 40
0.0
 40
0.0
 40
0.0
 40
1.0
 40
1.0
 40
1.0
 40
1.0
 10
13.26466404377874
 20
6.347177163461724
 30
0.0
 10
12.89035295376241
 20
6.323170739697907
 30
0.0
 10
12.51586235706015
 20
6.272267208027209
 30
0.0
 10
12.13912187613231
 20
6.194848578598124
 30
0.0
  0
SPLINE
  5
123
330
1F
100
AcDbEntity
  8
0
  6
Continuous
 62
     1
370
    15
100
AcDbSpline
210
0.0
220
0.0
230
1.0
 70
     8
 71
     3
 72
    14
 73
    10
 74
     0
 42
0.000000001
 43
0.00000001
 40
0.0
 40
0.0
 40
0.0
 40
0.0
 40
0.000071348233099
 40
0.000071348233099
 40
0.000071348233099
 40
0.0001500449472671
 40
0.0001500449472671
 40
0.0001500449472671
 40
0.0002310222402558
 40
0.0002310222402558
 40
0.0002310222402558
 40
0.0002310222402558
 10
13.42678648991824
 20
6.302945961223948
 30
0.0
 10
13.41187228700217
 20
6.313345969638167
 30
0.0
 10
13.39606476020835
 20
6.321876422184471
 30
0.0
 10
13.37978170119295
 20
6.328580092526774
 30
0.0
 10
13.36182578027405
 20
6.335972473431307
 30
0.0
 10
13.34315529832242
 20
6.341201549043768
 30
0.0
 10
13.32418859354792
 20
6.344304169060908
 30
0.0
 10
13.30467310885974
 20
6.347496559840309
 30
0.0
 10
13.28470025789948
 20
6.348462185090908
 30
0.0
 10
13.26466404378203
 20
6.347177163461938
 30
0.0
  0
SPLINE
  5
124
330
1F
100
AcDbEntity
  8
0
  6
Continuous
 62
     1
370
    15
100
AcDbSpline
210
0.0
220
0.0
230
1.0
 70
     8
 71
     3
 72
    10
 73
     6
 74
     0
 42
0.000000001
 43
0.00000001
 40
0.0
 40
0.0
 40
0.0
 40
0.0
 40
0.5
 40
0.5
 40
1.0
 40
1.0
 40
1.0
 40
1.0
 10
14.0734932109469
 20
6.303676513472352
 30
0.0
 10
13.97119631154448
 20
6.230257414012432
 30
0.0
 10
13.8546324176053
 20
6.201609132461069
 30
0.0
 10
13.63099206951108
 20
6.205000812246039
 30
0.0
 10
13.52148725878271
 20
6.236908989716569
 30
0.0
 10
13.42678648991828
 20
6.302945961223908
 30
0.0
  0
SPLINE
  5
125
330
1F
100
AcDbEntity
  8
0
  6
Continuous
 62
     1
370
    15
100
AcDbSpline
210
0.0
220
0.0
230
1.0
 70
     8
 71
     3
 72
    14
 73
    10
 74
     0
 42
0.000000001
 43
0.00000001
 40
0.0
 40
0.0
 40
0.0
 40
0.0
 40
0.0000760921403759
 40
0.0000760921403759
 40
0.0000760921403759
 40
0.0001471892132558
 40
0.0001471892132558
 40
0.0001471892132558
 40
0.0002209245344875
 40
0.0002209245344875
 40
0.0002209245344875
 40
0.0002209245344875
 10
14.23473189500587
 20
6.349327222086656
 30
0.0
 10
14.21587030384459
 20
6.350449312084776
 30
0.0
 10
14.19681704637768
 20
6.349554591252331
 30
0.0
 10
14.17793148646943
 20
6.346501325651556
 30
0.0
 10
14.16028647418945
 20
6.343648621824851
 30
0.0
 10
14.14266214185229
 20
6.338890336372489
 30
0.0
 10
14.12545409849107
 20
6.332052211662878
 30
0.0
 10
14.10763330650833
 20
6.324970593175289
 30
0.0
 10
14.09007818186127
 20
6.315579646765867
 30
0.0
 10
14.07349321094699
 20
6.303676513472405
 30
0.0
  0
SPLINE
  5
126
330
1F
100
AcDbEntity
  8
0
  6
Continuous
 62
     1
370
    15
100
AcDbSpline
210
0.0
220
0.0
230
1.0
 70
     8
 71
     3
 72
     8
 73
     4
 74
     0
 42
0.000000001
 43
0.00000001
 40
0.0
 40
0.0
 40
0.0
 40
0.0
 40
1.0
 40
1.0
 40
1.0
 40
1.0
 10
15.35840159334956
 20
6.202156601575619
 30
0.0
 10
14.98226378852716
 20
6.277828123286029
 30
0.0
 10
14.61074203176242
 20
6.32695810115522
 30
0.0
 10
14.23473189500579
 20
6.349327222086655
 30
0.0
  0
SPLINE
  5
127
330
1F
100
AcDbEntity
  8
0
  6
Continuous
 62
     1
370
    15
100
AcDbSpline
210
0.0
220
0.0
230
1.0
 70
     8
 71
     3
 72
    14
 73
    10
 74
     0
 42
0.000000001
 43
0.00000001
 40
0.0
 40
0.0
 40
0.0
 40
0.0
 40
0.0000711215690612
 40
0.0000711215690612
 40
0.0000711215690612
 40
0.0001496207933019
 40
0.0001496207933019
 40
0.0001496207933019
 40
0.0002304075253421
 40
0.0002304075253421
 40
0.0002304075253421
 40
0.0002304075253421
 10
15.52027208171771
 20
6.114575097670446
 30
0.0
 10
15.50539835747208
 20
6.128972294228986
 30
0.0
 10
15.48963116315266
 20
6.14173875805956
 30
0.0
 10
15.47338618320038
 20
6.15280449397146
 30
0.0
 10
15.45546046864187
 20
6.165015110661606
 30
0.0
 10
15.43681662063934
 20
6.175249670566146
 30
0.0
 10
15.41787326455345
 20
6.183423779906846
 30
0.0
 10
15.39837889411492
 20
6.19183565342969
 30
0.0
 10
15.37842294440348
 20
6.198128699882098
 30
0.0
 10
15.35840159335288
 20
6.202156601574955
 30
0.0
  0
SPLINE
  5
128
330
1F
100
AcDbEntity
  8
0
  6
Continuous
 62
     1
370
    15
100
AcDbSpline
210
0.0
220
0.0
230
1.0
 70
     8
 71
     3
 72
    10
 73
     6
 74
     0
 42
0.000000001
 43
0.00000001
 40
0.0
 40
0.0
 40
0.0
 40
0.0
 40
0.5
 40
0.5
 40
1.0
 40
1.0
 40
1.0
 40
1.0
 10
16.16670304046321
 20
5.946831953684012
 30
0.0
 10
16.06452652240495
 20
5.901354675985232
 30
0.0
 10
15.94809596755591
 20
5.902150366981895
 30
0.0
 10
15.7245388395733
 20
5.962682370594178
 30
0.0
 10
15.6149880248565
 20
6.022893684994161
 30
0.0
 10
15.52027208171775
 20
6.114575097670378
 30
0.0
  0
SPLINE
  5
129
330
1F
100
AcDbEntity
  8
0
  6
Continuous
 62
     1
370
    15
100
AcDbSpline
210
0.0
220
0.0
230
1.0
 70
     8
 71
     3
 72
    14
 73
    10
 74
     0
 42
0.000000001
 43
0.00000001
 40
0.0000000000000145
 40
0.0000000000000145
 40
0.0000000000000145
 40
0.0000000000000145
 40
0.000076414837744
 40
0.000076414837744
 40
0.000076414837744
 40
0.0001475659686298
 40
0.0001475659686298
 40
0.0001475659686298
 40
0.000221348785275
 40
0.000221348785275
 40
0.000221348785275
 40
0.000221348785275
 10
16.32803817116325
 20
5.949331841989544
 30
0.0
 10
16.30913006282736
 20
5.955392881294618
 30
0.0
 10
16.29002763505885
 20
5.959535253119941
 30
0.0
 10
16.2710910334259
 20
5.961506744558027
 30
0.0
 10
16.25345933106889
 20
5.963342382805559
 30
0.0
 10
16.23584623536114
 20
5.963308053980034
 30
0.0
 10
16.2186457372614
 20
5.961111161719775
 30
0.0
 10
16.20083485295241
 20
5.958836309348647
 30
0.0
 10
16.18328610925977
 20
5.954212835701629
 30
0.0
 10
16.16670304046325
 20
5.946831953684035
 30
0.0
  0
SPLINE
  5
12A
330
1F
100
AcDbEntity
  8
0
  6
Continuous
 62
     1
370
    15
100
AcDbSpline
210
0.0
220
0.0
230
1.0
 70
     8
 71
     3
 72
     8
 73
     4
 74
     0
 42
0.000000001
 43
0.00000001
 40
0.0
 40
0.0
 40
0.0
 40
0.0
 40
1.0
 40
1.0
 40
1.0
 40
1.0
 10
17.45351871609331
 20
5.515419589525812
 30
0.0
 10
17.07693012245569
 20
5.684303393403701
 30
0.0
 10
16.701945831948
 20
5.829474847929858
 30
0.0
 10
16.32803817117406
 20
5.949331841986074
 30
0.0
  0
SPLINE
  5
12B
330
1F
100
AcDbEntity
  8
0
  6
Continuous
 62
     1
370
    15
100
AcDbSpline
210
0.0
220
0.0
230
1.0
 70
     8
 71
     3
 72
    14
 73
    10
 74
     0
 42
0.000000001
 43
0.00000001
 40
0.0
 40
0.0
 40
0.0
 40
0.0
 40
0.000071299152213
 40
0.000071299152213
 40
0.000071299152213
 40
0.0001498736035419
 40
0.0001498736035419
 40
0.0001498736035419
 40
0.0002307291753086
 40
0.0002307291753086
 40
0.0002307291753086
 40
0.0002307291753086
 10
17.61563594565865
 20
5.392055664895521
 30
0.0
 10
17.6007229817971
 20
5.409239068654394
 30
0.0
 10
17.58491432562564
 20
5.42516025356658
 30
0.0
 10
17.56862647399154
 20
5.439646151444821
 30
0.0
 10
17.55068081853229
 20
5.455606447386895
 30
0.0
 10
17.53201724413979
 20
5.469947229420215
 30
0.0
 10
17.51305291077653
 20
5.482474468464885
 30
0.0
 10
17.49353902199136
 20
5.495364726446557
 30
0.0
 10
17.47356265905886
 20
5.506430742306309
 30
0.0
 10
17.45351871609548
 20
5.515419589524845
 30
0.0
  0
SPLINE
  5
12C
330
1F
100
AcDbEntity
  8
0
  6
Continuous
 62
     1
370
    15
100
AcDbSpline
210
0.0
220
0.0
230
1.0
 70
     8
 71
     3
 72
    10
 73
     6
 74
     0
 42
0.000000001
 43
0.00000001
 40
0.0
 40
0.0
 40
0.0
 40
0.0
 40
0.5
 40
0.5
 40
1.0
 40
1.0
 40
1.0
 40
1.0
 10
18.2625713448788
 20
5.06906683184565
 30
0.0
 10
18.16029525392758
 20
5.055613670705289
 30
0.0
 10
18.04392704411631
 20
5.086292907181671
 30
0.0
 10
17.8202494075456
 20
5.199245602919939
 30
0.0
 10
17.71054712395818
 20
5.282694634245066
 30
0.0
 10
17.6156359456586
 20
5.392055664895545
 30
0.0
  0
SPLINE
  5
12D
330
1F
100
AcDbEntity
  8
0
  6
Continuous
 62
     1
370
    15
100
AcDbSpline
210
0.0
220
0.0
230
1.0
 70
     8
 71
     3
 72
    14
 73
    10
 74
     0
 42
0.000000001
 43
0.00000001
 40
0.0
 40
0.0
 40
0.0
 40
0.0
 40
0.0000764255823984
 40
0.0000764255823984
 40
0.0000764255823984
 40
0.0001476061411782
 40
0.0001476061411782
 40
0.0001476061411782
 40
0.0002214070317429
 40
0.0002214070317429
 40
0.0002214070317429
 40
0.0002214070317429
 10
18.42388764747178
 20
5.028070026320401
 30
0.0
 10
18.40496734262884
 20
5.038534772094951
 30
0.0
 10
18.38585902049813
 20
5.047355591023567
 30
0.0
 10
18.36692310537623
 20
5.054199321711486
 30
0.0
 10
18.34928709160667
 20
5.060573248076823
 30
0.0
 10
18.33167562450139
 20
5.065276587922288
 30
0.0
 10
18.31448055383818
 20
5.067929468894854
 30
0.0
 10
18.29667800799581
 20
5.070676072037901
 30
0.0
 10
18.27914249046299
 20
5.071246562120367
 30
0.0
 10
18.26257134487881
 20
5.069066831845669
 30
0.0
  0
SPLINE
  5
12E
330
1F
100
AcDbEntity
  8
0
  6
Continuous
 62
     1
370
    15
100
AcDbSpline
210
0.0
220
0.0
230
1.0
 70
     8
 71
     3
 72
     8
 73
     4
 74
     0
 42
0.000000001
 43
0.00000001
 40
0.0
 40
0.0
 40
0.0
 40
0.0
 40
1.0
 40
1.0
 40
1.0
 40
1.0
 10
19.54767502846854
 20
4.347435878829296
 30
0.0
 10
19.17393457108529
 20
4.59341839339274
 30
0.0
 10
18.79696868292211
 20
4.821720381232586
 30
0.0
 10
18.42388764747179
 20
5.028070026320396
 30
0.0
  0
SPLINE
  5
12F
330
1F
100
AcDbEntity
  8
0
  6
Continuous
 62
     1
370
    15
100
AcDbSpline
210
0.0
220
0.0
230
1.0
 70
     8
 71
     3
 72
    14
 73
    10
 74
     0
 42
0.000000001
 43
0.00000001
 40
0.0
 40
0.0
 40
0.0
 40
0.0
 40
0.0000713119338018
 40
0.0000713119338018
 40
0.0000713119338018
 40
0.0001498356883247
 40
0.0001498356883247
 40
0.0001498356883247
 40
0.0002306399153901
 40
0.0002306399153901
 40
0.0002306399153901
 40
0.0002306399153901
 10
19.70949472522669
 20
4.199013165658572
 30
0.0
 10
19.69460513792748
 20
4.21747701319501
 30
0.0
 10
19.67882012237154
 20
4.235163451224712
 30
0.0
 10
19.66255485824514
 20
4.251809334580292
 30
0.0
 10
19.64464881369769
 20
4.270134393834198
 30
0.0
 10
19.6260248918132
 20
4.287338676609066
 30
0.0
 10
19.60709841530907
 20
4.303133402979357
 30
0.0
 10
19.58762337063412
 20
4.319385926349098
 30
0.0
 10
19.56768415166917
 20
4.334266594257772
 30
0.0
 10
19.54767502847345
 20
4.347435878826071
 30
0.0
  0
SPLINE
  5
130
330
1F
100
AcDbEntity
  8
0
  6
Continuous
 62
     1
370
    15
100
AcDbSpline
210
0.0
220
0.0
230
1.0
 70
     8
 71
     3
 72
    10
 73
     6
 74
     0
 42
0.000000001
 43
0.00000001
 40
0.0
 40
0.0
 40
0.0
 40
0.0
 40
0.5000000000000004
 40
0.5000000000000004
 40
1.0
 40
1.0
 40
1.0
 40
1.0
 10
20.355817054888
 20
3.749967843819064
 30
0.0
 10
20.25345255839357
 20
3.76926301534496
 30
0.0
 10
20.13690171642418
 20
3.826634749449215
 30
0.0
 10
19.91349965071042
 20
3.98206392319153
 30
0.0
 10
19.80419051126362
 20
4.081585562019
 30
0.0
 10
19.7094947252267
 20
4.199013165658548
 30
0.0
  0
SPLINE
  5
131
330
1F
100
AcDbEntity
  8
0
  6
Continuous
 62
     1
370
    15
100
AcDbSpline
210
0.0
220
0.0
230
1.0
 70
     8
 71
     3
 72
    14
 73
    10
 74
     0
 42
0.000000001
 43
0.00000001
 40
0.0000000000000001
 40
0.0000000000000001
 40
0.0000000000000001
 40
0.0000000000000001
 40
0.0000761524184043
 40
0.0000761524184043
 40
0.0000761524184043
 40
0.000147261800264
 40
0.000147261800264
 40
0.000147261800264
 40
0.0002210045972137
 40
0.0002210045972137
 40
0.0002210045972137
 40
0.0002210045972137
 10
20.51709141934857
 20
3.669673060134149
 30
0.0
 10
20.49821105646624
 20
3.683545109190775
 30
0.0
 10
20.47914142075304
 20
3.696195803241188
 30
0.0
 10
20.46024222843243
 20
3.707236956942827
 30
0.0
 10
20.4425952986171
 20
3.717546522618856
 30
0.0
 10
20.42497139862429
 20
3.726525431181197
 30
0.0
 10
20.40776521031862
 20
3.733735639809058
 30
0.0
 10
20.38994753839419
 20
3.741202089062994
 30
0.0
 10
20.37239738616771
 20
3.746842538200903
 30
0.0
 10
20.35581705488801
 20
3.749967843819104
 30
0.0
  0
SPLINE
  5
132
330
1F
100
AcDbEntity
  8
0
  6
Continuous
 62
     1
370
    15
100
AcDbSpline
210
0.0
220
0.0
230
1.0
 70
     8
 71
     3
 72
     8
 73
     4
 74
     0
 42
0.000000001
 43
0.00000001
 40
0.0
 40
0.0
 40
0.0
 40
0.0
 40
1.0
 40
1.0
 40
1.0
 40
1.0
 10
21.64242854600729
 20
2.798550977028063
 30
0.0
 10
21.26974507960859
 20
3.101344007034047
 30
0.0
 10
20.89314326183665
 20
3.393374895774772
 30
0.0
 10
20.51709141934861
 20
3.669673060134096
 30
0.0
  0
SPLINE
  5
133
330
1F
100
AcDbEntity
  8
0
  6
Continuous
 62
     1
370
    15
100
AcDbSpline
210
0.0
220
0.0
230
1.0
 70
     8
 71
     3
 72
    14
 73
    10
 74
     0
 42
0.000000001
 43
0.00000001
 40
0.0
 40
0.0
 40
0.0
 40
0.0
 40
0.0000714497763635
 40
0.0000714497763635
 40
0.0000714497763635
 40
0.0001502144702064
 40
0.0001502144702064
 40
0.0001502144702064
 40
0.0002312564146716
 40
0.0002312564146716
 40
0.0002312564146716
 40
0.0002312564146716
 10
21.80459168826031
 20
2.637634134804427
 30
0.0
 10
21.78966373359283
 20
2.655774908450206
 30
0.0
 10
21.77384271164838
 20
2.673692930843431
 30
0.0
 10
21.75754708427351
 20
2.691060400650417
 30
0.0
 10
21.73958723519404
 20
2.710201556093532
 30
0.0
 10
21.72091471154879
 20
2.728819952477146
 30
0.0
 10
21.70194729597827
 20
2.746561350391677
 30
0.0
 10
21.68243231986409
 20
2.764814915578093
 30
0.0
 10
21.66246175523893
 20
2.782274654972091
 30
0.0
 10
21.64242854601057
 20
2.7985509770254
 30
0.0
  0
SPLINE
  5
134
330
1F
100
AcDbEntity
  8
0
  6
Continuous
 62
     1
370
    15
100
AcDbSpline
210
0.0
220
0.0
230
1.0
 70
     8
 71
     3
 72
    10
 73
     6
 74
     0
 42
0.000000001
 43
0.00000001
 40
0.0
 40
0.0
 40
0.0
 40
0.0
 40
0.5
 40
0.5
 40
1.0
 40
1.0
 40
1.0
 40
1.0
 10
22.45154164212675
 20
2.102855358654661
 30
0.0
 10
22.34916230350732
 20
2.153409899226491
 30
0.0
 10
22.23253047635919
 20
2.23240723021474
 30
0.0
 10
22.00881988687378
 20
2.416061580054285
 30
0.0
 10
21.89930428729726
 20
2.522537334284483
 30
0.0
 10
21.80459168826031
 20
2.637634134804414
 30
0.0
  0
SPLINE
  5
135
330
1F
100
AcDbEntity
  8
0
  6
Continuous
 62
     1
370
    15
100
AcDbSpline
210
0.0
220
0.0
230
1.0
 70
     8
 71
     3
 72
    14
 73
    10
 74
     0
 42
0.000000001
 43
0.00000001
 40
0.0000000000000033
 40
0.0000000000000033
 40
0.0000000000000033
 40
0.0000000000000033
 40
0.0000761365372282
 40
0.0000761365372282
 40
0.0000761365372282
 40
0.0001472415874193
 40
0.0001472415874193
 40
0.0001472415874193
 40
0.0002209824872826
 40
0.0002209824872826
 40
0.0002209824872826
 40
0.0002209824872826
 10
22.61285766278276
 20
1.989981058105379
 30
0.0
 10
22.59397930100157
 20
2.006099807135085
 30
0.0
 10
22.57490982836093
 20
2.021519980072888
 30
0.0
 10
22.5560089483783
 20
2.035831620192465
 30
0.0
 10
22.53835787700355
 20
2.049196912256776
 30
0.0
 10
22.52072817550839
 20
2.06169007888061
 30
0.0
 10
22.50351515700886
 20
2.072853847063311
 30
0.0
 10
22.48568983473117
 20
2.084414734289191
 30
0.0
 10
22.46813069229636
 20
2.094663746741977
 30
0.0
 10
22.45154164212682
 20
2.102855358654633
 30
0.0
  0
SPLINE
  5
136
330
1F
100
AcDbEntity
  8
0
  6
Continuous
 62
     1
370
    15
100
AcDbSpline
210
0.0
220
0.0
230
1.0
 70
     8
 71
     3
 72
     8
 73
     4
 74
     0
 42
0.000000001
 43
0.00000001
 40
0.0
 40
0.0
 40
0.0
 40
0.0
 40
1.0
 40
1.0
 40
1.0
 40
1.0
 10
23.73716916662107
 20
1.005918822672595
 30
0.0
 10
23.36141286340229
 20
1.339850857400732
 30
0.0
 10
22.98942433803956
 20
1.668460377350827
 30
0.0
 10
22.6128576627852
 20
1.989981058103254
 30
0.0
  0
LINE
  5
137
330
1F
100
AcDbEntity
  8
0
  6
Continuous
 62
     1
370
    15
100
AcDbLine
 10
23.73716893047096
 20
1.005918833128369
 30
0.0
 11
23.73788604885342
 21
1.005281808487332
 31
0.0
  0
SPLINE
  5
138
330
1F
100
AcDbEntity
  8
0
  6
Continuous
 62
     1
370
    15
100
AcDbSpline
210
0.0
220
0.0
230
1.0
 70
     8
 71
     3
 72
    14
 73
    10
 74
     0
 42
0.000000001
 43
0.00000001
 40
0.0000000000000001
 40
0.0000000000000001
 40
0.0000000000000001
 40
0.0000000000000001
 40
0.0000710403579347
 40
0.0000710403579347
 40
0.0000710403579347
 40
0.0001495376688327
 40
0.0001495376688327
 40
0.0001495376688327
 40
0.000229365445037
 40
0.000229365445037
 40
0.000229365445037
 40
0.000229365445037
 10
23.89891995199211
 20
0.8479916730092569
 30
0.0
 10
23.88406957496681
 20
0.8640716242671755
 30
0.0
 10
23.86832706886924
 20
0.8805002658375849
 30
0.0
 10
23.85210744689685
 20
0.8969142743743919
 30
0.0
 10
23.83418985669646
 20
0.9150466007016349
 30
0.0
 10
23.81555336615571
 20
0.9332994662178226
 30
0.0
 10
23.79661793384592
 20
0.9512788726246053
 30
0.0
 10
23.77736247574333
 20
0.9695621471287882
 30
0.0
 10
23.75765756182166
 20
0.9876959412816514
 30
0.0
 10
23.73788586194596
 20
1.005281633660826
 30
0.0
  0
SPLINE
  5
139
330
1F
100
AcDbEntity
  8
0
  6
Continuous
 62
     1
370
    15
100
AcDbSpline
210
0.0
220
0.0
230
1.0
 70
     8
 71
     3
 72
    10
 73
     6
 74
     0
 42
0.000000001
 43
0.00000001
 40
0.0
 40
0.0
 40
0.0
 40
0.0
 40
0.5
 40
0.5
 40
1.0
 40
1.0
 40
1.0
 40
1.0
 10
24.54485963226776
 20
0.2748319359949278
 30
0.0
 10
24.44273758930812
 20
0.3522169171756934
 30
0.0
 10
24.32635992662578
 20
0.445890792607456
 30
0.0
 10
24.10295495572315
 20
0.641571610429111
 30
0.0
 10
23.99351492951755
 20
0.745564466934936
 30
0.0
 10
23.89891995199209
 20
0.8479916730093175
 30
0.0
  0
SPLINE
  5
13A
330
1F
100
AcDbEntity
  8
0
  6
Continuous
 62
     1
370
    15
100
AcDbSpline
210
0.0
220
0.0
230
1.0
 70
     8
 71
     3
 72
    14
 73
    10
 74
     0
 42
0.000000001
 43
0.00000001
 40
0.0000000000000101
 40
0.0000000000000101
 40
0.0000000000000101
 40
0.0000000000000101
 40
0.0000762181692704
 40
0.0000762181692704
 40
0.0000762181692704
 40
0.0001473305412948
 40
0.0001473305412948
 40
0.0001473305412948
 40
0.0002210802555345
 40
0.0002210802555345
 40
0.0002210802555345
 40
0.0002210802555345
 10
24.70609654195692
 20
0.1389673954659364
 30
0.0
 10
24.68722175184715
 20
0.1559702373008878
 30
0.0
 10
24.66815383296671
 20
0.1728573917722394
 30
0.0
 10
24.6492523253354
 20
0.1892320066087751
 30
0.0
 10
24.63161771372198
 20
0.2045090934208035
 30
0.0
 10
24.61400247629238
 20
0.2194485027174227
 30
0.0
 10
24.59680175085269
 20
0.2336133757400039
 30
0.0
 10
24.57898894654707
 20
0.2482822983996794
 30
0.0
 10
24.56144001324
 20
0.2622678270883549
 30
0.0
 10
24.54485963226781
 20
0.2748319359948907
 30
0.0
  0
SPLINE
  5
13B
330
1F
100
AcDbEntity
  8
0
  6
Continuous
 62
     1
370
    15
100
AcDbSpline
210
0.0
220
0.0
230
1.0
 70
     8
 71
     3
 72
    10
 73
     6
 74
     0
 42
0.000000001
 43
0.00000001
 40
0.0
 40
0.0
 40
0.0
 40
0.0
 40
0.5
 40
0.5
 40
1.0
 40
1.0
 40
1.0
 40
1.0
 10
25.83130674296082
 20
-0.8720283290063826
 30
0.0
 10
25.64287727518414
 20
-0.7044301181379077
 30
0.0
 10
25.45448671300568
 20
-0.5358991624090516
 30
0.0
 10
25.07958069294791
 20
-0.1985895948495479
 30
0.0
 10
24.89365489851296
 20
-0.0299894540035617
 30
0.0
 10
24.70609654194939
 20
0.1389673954727254
 30
0.0
  0
SPLINE
  5
13C
330
1F
100
AcDbEntity
  8
0
  6
Continuous
 62
     1
370
    15
100
AcDbSpline
210
0.0
220
0.0
230
1.0
 70
     8
 71
     3
 72
    14
 73
    10
 74
     0
 42
0.000000001
 43
0.00000001
 40
0.0
 40
0.0
 40
0.0
 40
0.0
 40
0.0000712766376831
 40
0.0000712766376831
 40
0.0000712766376831
 40
0.0001498466852161
 40
0.0001498466852161
 40
0.0001498466852161
 40
0.0002306986110359
 40
0.0002306986110359
 40
0.0002306986110359
 40
0.0002306986110359
 10
25.99342762874413
 20
-1.014200576127862
 30
0.0
 10
25.97851601043287
 20
-1.001419750249093
 30
0.0
 10
25.96270905505115
 20
-0.9877503254488078
 30
0.0
 10
25.94642336521665
 20
-0.9735622716333411
 30
0.0
 10
25.92847545968475
 20
-0.9579260995000582
 30
0.0
 10
25.90980983703522
 20
-0.9415416070199731
 30
0.0
 10
25.89084406859252
 20
-0.9248037992039551
 30
0.0
 10
25.871328479378
 20
-0.9075807595641066
 30
0.0
 10
25.85135099774274
 20
-0.8898566510797848
 30
0.0
 10
25.83130674296408
 20
-0.8720283290092877
 30
0.0
  0
SPLINE
  5
13D
330
1F
100
AcDbEntity
  8
0
  6
Continuous
 62
     1
370
    15
100
AcDbSpline
210
0.0
220
0.0
230
1.0
 70
     8
 71
     3
 72
    10
 73
     6
 74
     0
 42
0.000000001
 43
0.00000001
 40
0.0
 40
0.0
 40
0.0
 40
0.0
 40
0.5
 40
0.5
 40
1.0
 40
1.0
 40
1.0
 40
1.0
 10
26.64046873092577
 20
-1.57907626693144
 30
0.0
 10
26.53823783463714
 20
-1.481076083737742
 30
0.0
 10
26.42175637929425
 20
-1.380277025489586
 30
0.0
 10
26.19802038989528
 20
-1.188515878654361
 30
0.0
 10
26.08832170505977
 20
-1.095534784193032
 30
0.0
 10
25.99342762874415
 20
-1.014200576127886
 30
0.0
  0
SPLINE
  5
13E
330
1F
100
AcDbEntity
  8
0
  6
Continuous
 62
     1
370
    15
100
AcDbSpline
210
0.0
220
0.0
230
1.0
 70
     8
 71
     3
 72
    14
 73
    10
 74
     0
 42
0.000000001
 43
0.00000001
 40
0.0000000000000001
 40
0.0000000000000001
 40
0.0000000000000001
 40
0.0000000000000001
 40
0.0000715470812932
 40
0.0000715470812932
 40
0.0000715470812932
 40
0.0001503272769831
 40
0.0001503272769831
 40
0.0001503272769831
 40
0.0002313804432089
 40
0.0002313804432089
 40
0.0002313804432089
 40
0.0002313804432089
 10
30.18234578400854
 20
-4.315366027968813
 30
0.0
 10
30.16740811232772
 20
-4.312193560077298
 30
0.0
 10
30.15157782904483
 20
-4.307310708944375
 30
0.0
 10
30.13527396515057
 20
-4.30100780673558
 30
0.0
 10
30.11732573564136
 20
-4.294069210084428
 30
0.0
 10
30.09866849393324
 20
-4.285358572839316
 30
0.0
 10
30.079706689482
 20
-4.275188296105556
 30
0.0
 10
30.06019881471346
 20
-4.264725131305296
 30
0.0
 10
30.04022765443396
 20
-4.252637672610756
 30
0.0
 10
30.02018489061144
 20
-4.239190645368433
 30
0.0
  0
SPLINE
  5
13F
330
1F
100
AcDbEntity
  8
0
  6
Continuous
 62
     1
370
    15
100
AcDbSpline
210
0.0
220
0.0
230
1.0
 70
     8
 71
     3
 72
    10
 73
     6
 74
     0
 42
0.000000001
 43
0.00000001
 40
0.0
 40
0.0
 40
0.0
 40
0.0
 40
0.5
 40
0.5
 40
1.0
 40
1.0
 40
1.0
 40
1.0
 10
30.82940621003981
 20
-4.716157312035206
 30
0.0
 10
30.72696417759371
 20
-4.604879792322151
 30
0.0
 10
30.61028719697988
 20
-4.517184596813519
 30
0.0
 10
30.38655170376887
 20
-4.3832308943738
 30
0.0
 10
30.27704836241833
 20
-4.335478994411504
 30
0.0
 10
30.18234578400852
 20
-4.315366027968775
 30
0.0
  0
SPLINE
  5
140
330
1F
100
AcDbEntity
  8
0
  6
Continuous
 62
     1
370
    15
100
AcDbSpline
210
0.0
220
0.0
230
1.0
 70
     8
 71
     3
 72
    14
 73
    10
 74
     0
 42
0.000000001
 43
0.00000001
 40
0.0000000000000036
 40
0.0000000000000036
 40
0.0000000000000036
 40
0.0000000000000036
 40
0.0000761773145311
 40
0.0000761773145311
 40
0.0000761773145311
 40
0.000147290507032
 40
0.000147290507032
 40
0.000147290507032
 40
0.0002210373067125
 40
0.0002210373067125
 40
0.0002210373067125
 40
0.0002210373067125
 10
30.99076837921706
 20
-4.846148773606229
 30
0.0
 10
30.97187761200053
 20
-4.835226048399102
 30
0.0
 10
30.95279630817541
 20
-4.822805542321055
 30
0.0
 10
30.93388441500224
 20
-4.809052025642993
 30
0.0
 10
30.91623043376668
 20
-4.79621331493676
 30
0.0
 10
30.89859847370139
 20
-4.782121093401474
 30
0.0
 10
30.88138348974337
 20
-4.766942622415
 30
0.0
 10
30.86355671767195
 20
-4.7512247371513
 30
0.0
 10
30.84599655497089
 20
-4.734178551862578
 30
0.0
 10
30.82940621003983
 20
-4.716157312035236
 30
0.0
  0
SPLINE
  5
141
330
1F
100
AcDbEntity
  8
0
  6
Continuous
 62
     1
370
    15
100
AcDbSpline
210
0.0
220
0.0
230
1.0
 70
     8
 71
     3
 72
    10
 73
     6
 74
     0
 42
0.000000001
 43
0.00000001
 40
0.0
 40
0.0
 40
0.0
 40
0.0
 40
0.5
 40
0.5
 40
1.0
 40
1.0
 40
1.0
 40
1.0
 10
32.11573800970011
 20
-5.434123894149836
 30
0.0
 10
31.92822345756172
 20
-5.347300119653656
 30
0.0
 10
31.74233860856759
 20
-5.254961847134036
 30
0.0
 10
31.36750810028689
 20
-5.05881118978669
 30
0.0
 10
31.17915708031388
 20
-4.955075954309014
 30
0.0
 10
30.99076837921433
 20
-4.846148773604656
 30
0.0
  0
SPLINE
  5
142
330
1F
100
AcDbEntity
  8
0
  6
Continuous
 62
     1
370
    15
100
AcDbSpline
210
0.0
220
0.0
230
1.0
 70
     8
 71
     3
 72
    14
 73
    10
 74
     0
 42
0.000000001
 43
0.00000001
 40
0.0
 40
0.0
 40
0.0
 40
0.0
 40
0.0000711531740246
 40
0.0000711531740246
 40
0.0000711531740246
 40
0.0001497516661326
 40
0.0001497516661326
 40
0.0001497516661326
 40
0.0002306378558195
 40
0.0002306378558195
 40
0.0002306378558195
 40
0.0002306378558195
 10
32.27764399240944
 20
-5.464648373906654
 30
0.0
 10
32.26277152731666
 20
-5.467015900599788
 30
0.0
 10
32.24700655133306
 20
-5.467490119421613
 30
0.0
 10
32.23076547961111
 20
-5.466274331634469
 30
0.0
 10
32.21282940696474
 20
-5.464931658044565
 30
0.0
 10
32.1941761964438
 20
-5.461519327579465
 30
0.0
 10
32.17522534921382
 20
-5.456249143023202
 30
0.0
 10
32.15572381049527
 20
-5.450825812502376
 30
0.0
 10
32.1357628310541
 20
-5.443395870930843
 30
0.0
 10
32.11573800970557
 20
-5.43412389415237
 30
0.0
  0
SPLINE
  5
143
330
1F
100
AcDbEntity
  8
0
  6
Continuous
 62
     1
370
    15
100
AcDbSpline
210
0.0
220
0.0
230
1.0
 70
     8
 71
     3
 72
    10
 73
     6
 74
     0
 42
0.000000001
 43
0.00000001
 40
0.0
 40
0.0
 40
0.0
 40
0.0
 40
0.5
 40
0.5
 40
1.0
 40
1.0
 40
1.0
 40
1.0
 10
32.92336551984895
 20
-5.725114629135774
 30
0.0
 10
32.82125931656567
 20
-5.621769161652414
 30
0.0
 10
32.70488544020003
 20
-5.552582749660051
 30
0.0
 10
32.48155433560153
 20
-5.467013706345281
 30
0.0
 10
32.37219695670962
 20
-5.449596621187822
 30
0.0
 10
32.27764399240944
 20
-5.464648373906629
 30
0.0
  0
SPLINE
  5
144
330
1F
100
AcDbEntity
  8
0
  6
Continuous
 62
     1
370
    15
100
AcDbSpline
210
0.0
220
0.0
230
1.0
 70
     8
 71
     3
 72
    14
 73
    10
 74
     0
 42
0.000000001
 43
0.00000001
 40
0.0
 40
0.0
 40
0.0
 40
0.0
 40
0.0000760199079365
 40
0.0000760199079365
 40
0.0000760199079365
 40
0.0001470939242
 40
0.0001470939242
 40
0.0001470939242
 40
0.0002208110581056
 40
0.0002208110581056
 40
0.0002208110581056
 40
0.0002208110581056
 10
33.08447399262204
 20
-5.829105503381368
 30
0.0
 10
33.06563656661073
 20
-5.82246510308739
 30
0.0
 10
33.04660720021929
 20
-5.814001501364285
 30
0.0
 10
33.02774473818182
 20
-5.803761114573419
 30
0.0
 10
33.01011039391665
 20
-5.79418747006615
 30
0.0
 10
32.99249614410525
 20
-5.782991753930138
 30
0.0
 10
32.97529820519983
 20
-5.770209536577264
 30
0.0
 10
32.95748657484911
 20
-5.756971198436617
 30
0.0
 10
32.93994045014071
 20
-5.741890729553039
 30
0.0
 10
32.92336551984899
 20
-5.725114629135819
 30
0.0
  0
SPLINE
  5
145
330
1F
100
AcDbEntity
  8
0
  6
Continuous
 62
     1
370
    15
100
AcDbSpline
210
0.0
220
0.0
230
1.0
 70
     8
 71
     3
 72
     8
 73
     4
 74
     0
 42
0.000000001
 43
0.00000001
 40
0.0
 40
0.0
 40
0.0
 40
0.0
 40
1.0
 40
1.0
 40
1.0
 40
1.0
 10
34.20914964351189
 20
-6.150293413461261
 30
0.0
 10
33.83246228721401
 20
-6.068880086275216
 30
0.0
 10
33.46035780307727
 20
-5.961608689535837
 30
0.0
 10
33.08447399262204
 20
-5.829105503381354
 30
0.0
  0
SPLINE
  5
146
330
1F
100
AcDbEntity
  8
0
  6
Continuous
 62
     1
370
    15
100
AcDbSpline
210
0.0
220
0.0
230
1.0
 70
     8
 71
     3
 72
    14
 73
    10
 74
     0
 42
0.000000001
 43
0.00000001
 40
0.0
 40
0.0
 40
0.0
 40
0.0
 40
0.0000712491679175
 40
0.0000712491679175
 40
0.0000712491679175
 40
0.0001498142304067
 40
0.0001498142304067
 40
0.0001498142304067
 40
0.0002306621958476
 40
0.0002306621958476
 40
0.0002306621958476
 40
0.0002306621958476
 10
34.37123900776442
 20
-6.133161064873096
 30
0.0
 10
34.35633281163012
 20
-6.140789700112856
 30
0.0
 10
34.34053182057775
 20
-6.146493494960188
 30
0.0
 10
34.3242526372524
 20
-6.150375690236259
 30
0.0
 10
34.30630616184857
 20
-6.154655494735192
 30
0.0
 10
34.28764221440797
 20
-6.156755873992723
 30
0.0
 10
34.26867874670379
 20
-6.156778178073771
 30
0.0
 10
34.24916523243908
 20
-6.156801129097839
 30
0.0
 10
34.22919042886404
 20
-6.154624822486749
 30
0.0
 10
34.2091496435152
 20
-6.150293413461986
 30
0.0
  0
SPLINE
  5
147
330
1F
100
AcDbEntity
  8
0
  6
Continuous
 62
     1
370
    15
100
AcDbSpline
210
0.0
220
0.0
230
1.0
 70
     8
 71
     3
 72
    10
 73
     6
 74
     0
 42
0.000000001
 43
0.00000001
 40
0.0
 40
0.0
 40
0.0
 40
0.0
 40
0.5000000000000001
 40
0.5000000000000001
 40
1.0
 40
1.0
 40
1.0
 40
1.0
 10
35.01824703072367
 20
-6.232506040460383
 30
0.0
 10
34.91599515341152
 20
-6.145867510689836
 30
0.0
 10
34.79948804444073
 20
-6.101043914515651
 30
0.0
 10
34.57575378519889
 20
-6.070650583494158
 30
0.0
 10
34.46608864458126
 20
-6.084619285643775
 30
0.0
 10
34.37123900776442
 20
-6.133161064873062
 30
0.0
  0
SPLINE
  5
148
330
1F
100
AcDbEntity
  8
0
  6
Continuous
 62
     1
370
    15
100
AcDbSpline
210
0.0
220
0.0
230
1.0
 70
     8
 71
     3
 72
    14
 73
    10
 74
     0
 42
0.000000001
 43
0.00000001
 40
0.0000000000000041
 40
0.0000000000000041
 40
0.0000000000000041
 40
0.0000000000000041
 40
0.0000765783283525
 40
0.0000765783283525
 40
0.0000765783283525
 40
0.0001477641068642
 40
0.0001477641068642
 40
0.0001477641068642
 40
0.0002215764336176
 40
0.0002215764336176
 40
0.0002215764336176
 40
0.0002215764336176
 10
35.1796599721564
 20
-6.301511675100896
 30
0.0
 10
35.16072492341934
 20
-6.299710564991008
 30
0.0
 10
35.14159462665442
 20
-6.295901096487822
 30
0.0
 10
35.1226297203203
 20
-6.290005765641422
 30
0.0
 10
35.1050005996566
 20
-6.284525670089536
 30
0.0
 10
35.08738951253113
 20
-6.277203447837591
 30
0.0
 10
35.07018941315519
 20
-6.267936617707922
 30
0.0
 10
35.05238045409411
 20
-6.258341754631938
 30
0.0
 10
35.03483220927731
 20
-6.246558745639404
 30
0.0
 10
35.01824703072371
 20
-6.232506040460414
 30
0.0
  0
LINE
  5
149
330
1F
100
AcDbEntity
  8
0
  6
Continuous
 62
     1
370
    15
100
AcDbLine
 10
35.17965978384019
 20
-6.301511896141612
 30
0.0
 11
35.92340654134752
 21
-6.318669651933753
 31
0.0
  0
SPLINE
  5
14A
330
1F
100
AcDbEntity
  8
0
  6
Continuous
 62
     1
370
    15
100
AcDbSpline
210
0.0
220
0.0
230
1.0
 70
    24
 71
     3
 72
    14
 73
    10
 74
     0
 42
0.000000001
 43
0.00000001
 40
0.0
 40
0.0
 40
0.0
 40
0.0
 40
0.1460612012387418
 40
0.2921224033468294
 40
0.4671208527761479
 40
0.6421193355854979
 40
0.817117787733611
 40
0.9921162604171733
 40
1.0
 40
1.0
 40
1.0
 40
1.0
 10
12.00000004749747
 20
6.129142942539609
 30
0.0
 10
12.00000004749747
 20
5.857342666127916
 30
0.0
 10
12.00000004749747
 20
5.313742111686795
 30
0.0
 10
12.00000004749747
 20
4.523779898607482
 30
0.0
 10
12.00000004749747
 20
3.780334301453027
 30
0.0
 10
12.00000004749747
 20
3.120531372625158
 30
0.0
 10
12.00000004749747
 20
2.636497544139079
 30
0.0
 10
12.00000004749747
 20
2.365719191718728
 30
0.0
 10
12.00000004749747
 20
2.312079940078638
 30
0.0
 10
12.00000004749747
 20
2.309767643622315
 30
0.0
  0
SPLINE
  5
14B
330
1F
100
AcDbEntity
  8
0
  6
Continuous
 62
     1
370
    15
100
AcDbSpline
210
0.0
220
0.0
230
1.0
 70
     8
 71
     3
 72
    12
 73
     8
 74
     0
 42
0.000000001
 43
0.00000001
 40
0.0
 40
0.0
 40
0.0
 40
0.0
 40
0.2500000000000001
 40
0.2500000000000001
 40
0.5000000000000001
 40
0.5000000000000001
 40
1.0
 40
1.0
 40
1.0
 40
1.0
 10
25.83130674296079
 20
-0.8720283290064083
 30
0.0
 10
25.81285531207335
 20
-0.5132841068605152
 30
0.0
 10
25.79448889503244
 20
-0.1507681145793076
 30
0.0
 10
25.75870636239935
 20
0.5660789966612885
 30
0.0
 10
25.74175092266887
 20
0.9173426523327796
 30
0.0
 10
25.68900667848409
 20
1.965877226241456
 30
0.0
 10
25.65148718024123
 20
2.655733230991288
 30
0.0
 10
25.6147550871593
 20
3.276351902153892
 30
0.0
  0
SPLINE
  5
14C
330
1F
100
AcDbEntity
  8
0
  6
Continuous
 62
     1
370
    15
100
AcDbSpline
210
0.0
220
0.0
230
1.0
 70
     8
 71
     3
 72
    14
 73
    10
 74
     0
 42
0.000000001
 43
0.00000001
 40
0.0000000000000038
 40
0.0000000000000038
 40
0.0000000000000038
 40
0.0000000000000038
 40
0.0000761888989515
 40
0.0000761888989515
 40
0.0000761888989515
 40
0.0001473019290818
 40
0.0001473019290818
 40
0.0001473019290818
 40
0.0002210497809136
 40
0.0002210497809136
 40
0.0002210497809136
 40
0.0002210497809136
 10
25.61475508716259
 20
3.276351902152185
 30
0.0
 10
25.63364389693981
 20
3.261788779861036
 30
0.0
 10
25.65272429942118
 20
3.246252159933203
 30
0.0
 10
25.67163639864856
 20
3.230020049762443
 30
0.0
 10
25.68928784217307
 20
3.214869950742848
 30
0.0
 10
25.70691826357527
 20
3.199005890290401
 30
0.0
 10
25.72413253074184
 20
3.182724431953328
 30
0.0
 10
25.74195881957402
 20
3.165864116256051
 30
0.0
 10
25.75951945637707
 20
3.148383048614157
 30
0.0
 10
25.77611051587869
 20
3.130830739602787
 30
0.0
  0
SPLINE
  5
14D
330
1F
100
AcDbEntity
  8
0
  6
Continuous
 62
     1
370
    15
100
AcDbSpline
210
0.0
220
0.0
230
1.0
 70
     8
 71
     3
 72
    12
 73
     8
 74
     0
 42
0.000000001
 43
0.00000001
 40
0.0
 40
0.0
 40
0.0
 40
0.0
 40
0.25
 40
0.25
 40
0.5
 40
0.5
 40
1.0
 40
1.0
 40
1.0
 40
1.0
 10
25.99342762874414
 20
-1.014200576127881
 30
0.0
 10
25.97489956779017
 20
-0.658497578203312
 30
0.0
 10
25.95639913299976
 20
-0.2979093056896835
 30
0.0
 10
25.92025186313275
 20
0.4172139420902813
 30
0.0
 10
25.90301611434796
 20
0.7689984699244924
 30
0.0
 10
25.85057805504339
 20
1.813502001504444
 30
0.0
 10
25.81305543045011
 20
2.504973190358557
 30
0.0
 10
25.77611051587939
 20
3.130830739602203
 30
0.0
  0
SPLINE
  5
14E
330
1F
100
AcDbEntity
  8
0
  6
Continuous
 62
     1
370
    15
100
AcDbSpline
210
0.0
220
0.0
230
1.0
 70
     8
 71
     3
 72
    14
 73
    10
 74
     0
 42
0.000000001
 43
0.00000001
 40
0.0000000000000007
 40
0.0000000000000007
 40
0.0000000000000007
 40
0.0000000000000007
 40
0.0000763638668355
 40
0.0000763638668355
 40
0.0000763638668355
 40
0.0001475218284976
 40
0.0001475218284976
 40
0.0001475218284976
 40
0.0002213040997266
 40
0.0002213040997266
 40
0.0002213040997266
 40
0.0002213040997266
 10
40.76488831829838
 20
-1.017834702221803
 30
0.0
 10
40.74596682864222
 20
-1.00103377147207
 30
0.0
 10
40.72685653363298
 20
-0.9839740619027192
 30
0.0
 10
40.7079179221323
 20
-0.9670266557696924
 30
0.0
 10
40.69027083697534
 20
-0.9512349849173477
 30
0.0
 10
40.67264761399166
 20
-0.9354288314009003
 30
0.0
 10
40.65544119152801
 20
-0.9200113601411617
 30
0.0
 10
40.63762580451842
 20
-0.9040482383602407
 30
0.0
 10
40.62007750247925
 20
-0.8883409248590286
 30
0.0
 10
40.60349579177663
 20
-0.8735873506356393
 30
0.0
  0
SPLINE
  5
14F
330
1F
100
AcDbEntity
  8
0
  6
Continuous
 62
     1
370
    15
100
AcDbSpline
210
0.0
220
0.0
230
1.0
 70
     8
 71
     3
 72
    12
 73
     8
 74
     0
 42
0.000000001
 43
0.00000001
 40
0.0
 40
0.0
 40
0.0
 40
0.0
 40
0.2499999999999999
 40
0.2499999999999999
 40
0.4999999999999999
 40
0.4999999999999999
 40
1.0
 40
1.0
 40
1.0
 40
1.0
 10
40.60349579177657
 20
-0.8735873506355866
 30
0.0
 10
40.58497649608092
 20
-0.5166381854335252
 30
0.0
 10
40.56653937923636
 20
-0.1558547346286094
 30
0.0
 10
40.53061876390385
 20
0.5576111776194025
 30
0.0
 10
40.51359969652735
 20
0.9072260974549796
 30
0.0
 10
40.46066957927774
 20
1.950717237206557
 30
0.0
 10
40.42300720681634
 20
2.637253362710154
 30
0.0
 10
40.38614761848283
 20
3.254471364815645
 30
0.0
  0
SPLINE
  5
150
330
1F
100
AcDbEntity
  8
0
  6
Continuous
 62
     1
370
    15
100
AcDbSpline
210
0.0
220
0.0
230
1.0
 70
     8
 71
     3
 72
    14
 73
    10
 74
     0
 42
0.000000001
 43
0.00000001
 40
0.0000000000000003
 40
0.0000000000000003
 40
0.0000000000000003
 40
0.0000000000000003
 40
0.0000715860170229
 40
0.0000715860170229
 40
0.0000715860170229
 40
0.0001502716615143
 40
0.0001502716615143
 40
0.0001502716615143
 40
0.0002312285397762
 40
0.0002312285397762
 40
0.0002312285397762
 40
0.0002312285397762
 10
40.38614761848305
 20
3.254471364815701
 30
0.0
 10
40.40109105869904
 20
3.247418832728749
 30
0.0
 10
40.41693172895626
 20
3.238901307126161
 30
0.0
 10
40.43325273519518
 20
3.229253255744365
 30
0.0
 10
40.45118855502221
 20
3.218650618337539
 30
0.0
 10
40.46984011079874
 20
3.206603469662185
 30
0.0
 10
40.48879364057917
 20
3.193460632330102
 30
0.0
 10
40.50829323196195
 20
3.179939142636369
 30
0.0
 10
40.52825561084085
 20
3.165159141130671
 30
0.0
 10
40.54828878566754
 20
3.149447256818776
 30
0.0
  0
SPLINE
  5
151
330
1F
100
AcDbEntity
  8
0
  6
Continuous
 62
     1
370
    15
100
AcDbSpline
210
0.0
220
0.0
230
1.0
 70
     8
 71
     3
 72
    10
 73
     6
 74
     0
 42
0.000000001
 43
0.00000001
 40
0.0
 40
0.0
 40
0.0
 40
0.0
 40
0.5
 40
0.5
 40
1.0
 40
1.0
 40
1.0
 40
1.0
 10
25.77611051587941
 20
3.130830739602024
 30
0.0
 10
25.87848232353592
 20
3.022527734488507
 30
0.0
 10
25.9951081988224
 20
2.923438695270786
 30
0.0
 10
26.21884118427174
 20
2.750059835285244
 30
0.0
 10
26.32838421687763
 20
2.673918719408891
 30
0.0
 10
26.4231177313855
 20
2.617304762712035
 30
0.0
  0
SPLINE
  5
152
330
1F
100
AcDbEntity
  8
0
  6
Continuous
 62
     1
370
    15
100
AcDbSpline
210
0.0
220
0.0
230
1.0
 70
     8
 71
     3
 72
    12
 73
     8
 74
     0
 42
0.000000001
 43
0.00000001
 40
0.0
 40
0.0
 40
0.0
 40
0.0
 40
0.25
 40
0.25
 40
0.5
 40
0.5
 40
1.0
 40
1.0
 40
1.0
 40
1.0
 10
24.70609654195733
 20
0.1389673954578063
 30
0.0
 10
24.68813132706574
 20
0.4981829152266787
 30
0.0
 10
24.67107401463803
 20
0.8507387486481324
 30
0.0
 10
24.63602922450177
 20
1.550838162093229
 30
0.0
 10
24.61790304371538
 20
1.899224735979095
 30
0.0
 10
24.56283273709557
 20
2.916007708496235
 30
0.0
 10
24.52523353038098
 20
3.554177235963071
 30
0.0
 10
24.4899129761591
 20
4.100960185659134
 30
0.0
  0
SPLINE
  5
153
330
1F
100
AcDbEntity
  8
0
  6
Continuous
 62
     1
370
    15
100
AcDbSpline
210
0.0
220
0.0
230
1.0
 70
     8
 71
     3
 72
     8
 73
     4
 74
     0
 42
0.000000001
 43
0.00000001
 40
0.0
 40
0.0
 40
0.0
 40
0.0
 40
1.0
 40
1.0
 40
1.0
 40
1.0
 10
25.6147550871593
 20
3.276351902153897
 30
0.0
 10
25.23814385933663
 20
3.566716167115163
 30
0.0
 10
24.86619966483652
 20
3.842018458807646
 30
0.0
 10
24.48991297615959
 20
4.100960185660426
 30
0.0
  0
SPLINE
  5
154
330
1F
100
AcDbEntity
  8
0
  6
Continuous
 62
     1
370
    15
100
AcDbSpline
210
0.0
220
0.0
230
1.0
 70
     8
 71
     3
 72
    14
 73
    10
 74
     0
 42
0.000000001
 43
0.00000001
 40
0.0
 40
0.0
 40
0.0
 40
0.0
 40
0.0000766518626333
 40
0.0000766518626333
 40
0.0000766518626333
 40
0.0001478638794889
 40
0.0001478638794889
 40
0.0001478638794889
 40
0.0002216927799783
 40
0.0002216927799783
 40
0.0002216927799783
 40
0.0002216927799783
 10
42.16116776787837
 20
6.279524793387442
 30
0.0
 10
42.14220569504429
 20
6.276753132691615
 30
0.0
 10
42.12305569052987
 20
6.271985956597993
 30
0.0
 10
42.10407893240559
 20
6.265173619450732
 30
0.0
 10
42.08644898353013
 20
6.258844764182518
 30
0.0
 10
42.06884401189427
 20
6.250705226031569
 30
0.0
 10
42.05165406789165
 20
6.240680996625059
 30
0.0
 10
42.03385824825143
 20
6.230303453887098
 30
0.0
 10
42.01632375058983
 20
6.217794470676857
 30
0.0
 10
41.99974730859564
 20
6.203112588355461
 30
0.0
  0
SPLINE
  5
155
330
1F
100
AcDbEntity
  8
0
  6
Continuous
 62
     1
370
    15
100
AcDbSpline
210
0.0
220
0.0
230
1.0
 70
     8
 71
     3
 72
     8
 73
     4
 74
     0
 42
0.000000001
 43
0.00000001
 40
0.0
 40
0.0
 40
0.0
 40
0.0
 40
1.0
 40
1.0
 40
1.0
 40
1.0
 10
42.65000000000005
 20
6.335664973661408
 30
0.0
 10
42.48656187930182
 20
6.321989500920814
 30
0.0
 10
42.32342321991203
 20
6.303241454694498
 30
0.0
 10
42.16116776787836
 20
6.279524793387437
 30
0.0
  0
SPLINE
  5
156
330
1F
100
AcDbEntity
  8
0
  6
Continuous
 62
     1
370
    15
100
AcDbSpline
210
0.0
220
0.0
230
1.0
 70
     8
 71
     3
 72
     8
 73
     4
 74
     0
 42
0.000000001
 43
0.00000001
 40
0.0
 40
0.0
 40
0.0
 40
0.0
 40
1.0
 40
1.0
 40
1.0
 40
1.0
 10
43.75000000000001
 20
5.232335881744633
 30
0.0
 10
43.38936313776492
 20
5.63432835714869
 30
0.0
 10
43.02155518607162
 20
6.001170955372483
 30
0.0
 10
42.65000000000002
 20
6.335664973661411
 30
0.0
  0
LINE
  5
157
330
1F
100
AcDbEntity
  8
0
  6
Continuous
 62
     1
370
    15
100
AcDbLine
 10
43.74999931454659
 20
4.124893921128667
 30
0.0
 11
43.74999931454659
 21
5.232336113861955
 31
0.0
  0
SPLINE
  5
158
330
1F
100
AcDbEntity
  8
0
  6
Continuous
 62
     1
370
    15
100
AcDbSpline
210
0.0
220
0.0
230
1.0
 70
     8
 71
     3
 72
    18
 73
    14
 74
     0
 42
0.000000001
 43
0.00000001
 40
0.0
 40
0.0
 40
0.0
 40
0.0
 40
0.2499999999999979
 40
0.2499999999999979
 40
0.3749999999999971
 40
0.3749999999999971
 40
0.4999999999999962
 40
0.4999999999999962
 40
0.6249999999999953
 40
0.6249999999999953
 40
0.7499999999999944
 40
0.7499999999999944
 40
1.0
 40
1.0
 40
1.0
 40
1.0
 10
43.75000000000001
 20
4.124893696453942
 30
0.0
 10
43.65446192404163
 20
3.867037361303162
 30
0.0
 10
43.53689725540855
 20
3.627348237337536
 30
0.0
 10
43.31938455382073
 20
3.301767416995868
 30
0.0
 10
43.23911464589206
 20
3.198087282873209
 30
0.0
 10
43.0677617888702
 20
3.009348384719851
 30
0.0
 10
42.9767724845358
 20
2.924035475056332
 30
0.0
 10
42.78402944690018
 20
2.771759129429928
 30
0.0
 10
42.68136960872704
 20
2.704340622815002
 30
0.0
 10
42.46942975496445
 20
2.591073571770853
 30
0.0
 10
42.36082751110393
 20
2.545328620051862
 30
0.0
 10
42.02765495288163
 20
2.438562491735234
 30
0.0
 10
41.7940863136352
 20
2.408812546462671
 30
0.0
 10
41.56417781875517
 20
2.415693082407029
 30
0.0
  0
SPLINE
  5
159
330
1F
100
AcDbEntity
  8
0
  6
Continuous
 62
     1
370
    15
100
AcDbSpline
210
0.0
220
0.0
230
1.0
 70
     8
 71
     3
 72
    10
 73
     6
 74
     0
 42
0.000000001
 43
0.00000001
 40
0.0
 40
0.0
 40
0.0
 40
0.0
 40
0.5
 40
0.5
 40
1.0
 40
1.0
 40
1.0
 40
1.0
 10
43.75000000000001
 20
1.238161138793787
 30
0.0
 10
43.37467247161656
 20
1.467069999904276
 30
0.0
 10
43.0046277850625
 20
1.680330629098132
 30
0.0
 10
42.2755855213397
 20
2.074129399240293
 30
0.0
 10
41.9164946516168
 20
2.254943880758605
 30
0.0
 10
41.56417781875517
 20
2.415693082407032
 30
0.0
  0
LINE
  5
15A
330
1F
100
AcDbEntity
  8
0
  6
Continuous
 62
     1
370
    15
100
AcDbLine
 10
43.74999931454659
 20
0.5820799830175997
 30
0.0
 11
43.74999931454659
 21
1.238161113745725
 31
0.0
  0
SPLINE
  5
15B
330
1F
100
AcDbEntity
  8
0
  6
Continuous
 62
     1
370
    15
100
AcDbSpline
210
0.0
220
0.0
230
1.0
 70
     8
 71
     3
 72
     8
 73
     4
 74
     0
 42
0.000000001
 43
0.00000001
 40
0.0
 40
0.0
 40
0.0
 40
0.0
 40
1.0
 40
1.0
 40
1.0
 40
1.0
 10
42.65000000000002
 20
1.390083707362523
 30
0.0
 10
43.00149493371694
 20
1.048704729892277
 30
0.0
 10
43.36258895319306
 20
0.7717317119680803
 30
0.0
 10
43.75000000000001
 20
0.5820799940605871
 30
0.0
  0
SPLINE
  5
15C
330
1F
100
AcDbEntity
  8
0
  6
Continuous
 62
     1
370
    15
100
AcDbSpline
210
0.0
220
0.0
230
1.0
 70
     8
 71
     3
 72
     8
 73
     4
 74
     0
 42
0.000000001
 43
0.00000001
 40
0.0
 40
0.0
 40
0.0
 40
0.0
 40
1.0
 40
1.0
 40
1.0
 40
1.0
 10
42.65000000000077
 20
1.390083707361873
 30
0.0
 10
42.64790991204248
 20
1.391917521111923
 30
0.0
 10
42.64581987288357
 20
1.393751139854304
 30
0.0
 10
42.6437298837567
 20
1.395584562514785
 30
0.0
  0
SPLINE
  5
15D
330
1F
100
AcDbEntity
  8
0
  6
Continuous
 62
     1
370
    15
100
AcDbSpline
210
0.0
220
0.0
230
1.0
 70
     8
 71
     3
 72
    10
 73
     6
 74
     0
 42
0.000000001
 43
0.00000001
 40
0.0
 40
0.0
 40
0.0
 40
0.0
 40
0.5
 40
0.5
 40
1.0
 40
1.0
 40
1.0
 40
1.0
 10
39.73932689886998
 20
3.735820557167214
 30
0.0
 10
39.84175363318407
 20
3.625017604474639
 30
0.0
 10
39.95841151992008
 20
3.52857649576754
 30
0.0
 10
40.18205537090618
 20
3.366562885797716
 30
0.0
 10
40.29144808584317
 20
3.299164653837802
 30
0.0
 10
40.38614761848284
 20
3.254471364815635
 30
0.0
  0
SPLINE
  5
15E
330
1F
100
AcDbEntity
  8
0
  6
Continuous
 62
     1
370
    15
100
AcDbSpline
210
0.0
220
0.0
230
1.0
 70
     8
 71
     3
 72
    14
 73
    10
 74
     0
 42
0.000000001
 43
0.00000001
 40
0.0000000000000044
 40
0.0000000000000044
 40
0.0000000000000044
 40
0.0000000000000044
 40
0.0000760745644587
 40
0.0000760745644587
 40
0.0000760745644587
 40
0.0001471734599158
 40
0.0001471734599158
 40
0.0001471734599158
 40
0.0002209081761042
 40
0.0002209081761042
 40
0.0002209081761042
 40
0.0002209081761042
 10
39.57808243522064
 20
3.877652235796894
 30
0.0
 10
39.59694710170405
 20
3.864205673042492
 30
0.0
 10
39.61600150865505
 20
3.849589556192944
 30
0.0
 10
39.63488621067325
 20
3.834045883965576
 30
0.0
 10
39.65253496525588
 20
3.819519498736455
 30
0.0
 10
39.67016121910458
 20
3.8040791114588
 30
0.0
 10
39.68736975174539
 20
3.787980445299618
 30
0.0
 10
39.70519051719719
 20
3.771309032361767
 30
0.0
 10
39.72274391845415
 20
3.753759654872697
 30
0.0
 10
39.73932689886912
 20
3.735820557168152
 30
0.0
  0
SPLINE
  5
15F
330
1F
100
AcDbEntity
  8
0
  6
Continuous
 62
     1
370
    15
100
AcDbSpline
210
0.0
220
0.0
230
1.0
 70
     8
 71
     3
 72
     8
 73
     4
 74
     0
 42
0.000000001
 43
0.00000001
 40
0.0
 40
0.0
 40
0.0
 40
0.0
 40
1.0
 40
1.0
 40
1.0
 40
1.0
 10
39.57808243521718
 20
3.877652235799044
 30
0.0
 10
39.20199709808868
 20
4.145722444784707
 30
0.0
 10
38.82802335606991
 20
4.396859763479874
 30
0.0
 10
38.45442483871256
 20
4.628389143088661
 30
0.0
  0
SPLINE
  5
160
330
1F
100
AcDbEntity
  8
0
  6
Continuous
 62
     1
370
    15
100
AcDbSpline
210
0.0
220
0.0
230
1.0
 70
     8
 71
     3
 72
    14
 73
    10
 74
     0
 42
0.000000001
 43
0.00000001
 40
0.0000000000000002
 40
0.0000000000000002
 40
0.0000000000000002
 40
0.0000000000000002
 40
0.0000712258654584
 40
0.0000712258654584
 40
0.0000712258654584
 40
0.0001498318381447
 40
0.0001498318381447
 40
0.0001498318381447
 40
0.0002307224017571
 40
0.0002307224017571
 40
0.0002307224017571
 40
0.0002307224017571
 10
38.29254212026614
 20
4.692443714603882
 30
0.0
 10
38.30742504512277
 20
4.690791852198835
 30
0.0
 10
38.32320024320246
 20
4.687372042496015
 30
0.0
 10
38.33945104955852
 20
4.682450221247803
 30
0.0
 10
38.35738136902367
 20
4.677019732114084
 30
0.0
 10
38.37602696801968
 20
4.669720906449407
 30
0.0
 10
38.39496929633124
 20
4.660833013263582
 30
0.0
 10
38.41446124336193
 20
4.65168723454287
 30
0.0
 10
38.4344113800403
 20
4.640792039392726
 30
0.0
 10
38.4544248386105
 20
4.628389143151907
 30
0.0
  0
SPLINE
  5
161
330
1F
100
AcDbEntity
  8
0
  6
Continuous
 62
     1
370
    15
100
AcDbSpline
210
0.0
220
0.0
230
1.0
 70
     8
 71
     3
 72
    10
 73
     6
 74
     0
 42
0.000000001
 43
0.00000001
 40
0.0
 40
0.0
 40
0.0
 40
0.0
 40
0.5
 40
0.5
 40
1.0
 40
1.0
 40
1.0
 40
1.0
 10
37.64614769843065
 20
5.057847959359727
 30
0.0
 10
37.74840549421521
 20
4.94786957865486
 30
0.0
 10
37.86491271204928
 20
4.864515120244054
 30
0.0
 10
38.08845642733056
 20
4.742738710235181
 30
0.0
 10
38.19791596951858
 20
4.702946312880387
 30
0.0
 10
38.29254212026594
 20
4.692443714603733
 30
0.0
  0
SPLINE
  5
162
330
1F
100
AcDbEntity
  8
0
  6
Continuous
 62
     1
370
    15
100
AcDbSpline
210
0.0
220
0.0
230
1.0
 70
     8
 71
     3
 72
    14
 73
    10
 74
     0
 42
0.000000001
 43
0.00000001
 40
0.0000000000000047
 40
0.0000000000000047
 40
0.0000000000000047
 40
0.0000000000000047
 40
0.0000761614849849
 40
0.0000761614849849
 40
0.0000761614849849
 40
0.0001472646632914
 40
0.0001472646632914
 40
0.0001472646632914
 40
0.0002210048070442
 40
0.0002210048070442
 40
0.0002210048070442
 40
0.0002210048070442
 10
37.48484396287184
 20
5.18192651556163
 30
0.0
 10
37.50372323876623
 20
5.172066714267444
 30
0.0
 10
37.52279431028028
 20
5.160607983596596
 30
0.0
 10
37.54169748904478
 20
5.147683844168085
 30
0.0
 10
37.55934446630957
 20
5.135618572104399
 30
0.0
 10
37.57697074388437
 20
5.122189632019649
 30
0.0
 10
37.59418091443738
 20
5.107529649588233
 30
0.0
 10
37.61200352882309
 20
5.092347974719203
 30
0.0
 10
37.62956062887898
 20
5.075687372344547
 30
0.0
 10
37.64614769842976
 20
5.057847959360624
 30
0.0
  0
SPLINE
  5
163
330
1F
100
AcDbEntity
  8
0
  6
Continuous
 62
     1
370
    15
100
AcDbSpline
210
0.0
220
0.0
230
1.0
 70
     8
 71
     3
 72
     8
 73
     4
 74
     0
 42
0.000000001
 43
0.00000001
 40
0.0
 40
0.0
 40
0.0
 40
0.0
 40
1.0
 40
1.0
 40
1.0
 40
1.0
 10
37.48484396286833
 20
5.18192651556316
 30
0.0
 10
37.10818564845171
 20
5.378638304545278
 30
0.0
 10
36.73606008987264
 20
5.552585798637056
 30
0.0
 10
36.35933123941415
 20
5.702951519917788
 30
0.0
  0
SPLINE
  5
164
330
1F
100
AcDbEntity
  8
0
  6
Continuous
 62
     1
370
    15
100
AcDbSpline
210
0.0
220
0.0
230
1.0
 70
     8
 71
     3
 72
    14
 73
    10
 74
     0
 42
0.000000001
 43
0.00000001
 40
0.0000000000000002
 40
0.0000000000000002
 40
0.0000000000000002
 40
0.0000000000000002
 40
0.000071258568256
 40
0.000071258568256
 40
0.000071258568256
 40
0.0001498535283742
 40
0.0001498535283742
 40
0.0001498535283742
 40
0.0002307313977871
 40
0.0002307313977871
 40
0.0002307313977871
 40
0.0002307313977871
 10
36.19721221015372
 20
5.720752799900755
 30
0.0
 10
36.21212005521598
 20
5.724572724988409
 30
0.0
 10
36.22792244273014
 20
5.726472818048854
 30
0.0
 10
36.24420247276683
 20
5.726631239947025
 30
0.0
 10
36.26215433669452
 20
5.726805930555871
 30
0.0
 10
36.28082334265943
 20
5.724865975742533
 30
0.0
 10
36.29979120111958
 20
5.720994096140672
 30
0.0
 10
36.31930906025239
 20
5.717009945752419
 30
0.0
 10
36.33928746615162
 20
5.710951694101805
 30
0.0
 10
36.35933123941415
 20
5.702951519917795
 30
0.0
  0
SPLINE
  5
165
330
1F
100
AcDbEntity
  8
0
  6
Continuous
 62
     1
370
    15
100
AcDbSpline
210
0.0
220
0.0
230
1.0
 70
     8
 71
     3
 72
    10
 73
     6
 74
     0
 42
0.000000001
 43
0.00000001
 40
0.0
 40
0.0
 40
0.0
 40
0.0
 40
0.5
 40
0.5
 40
1.0
 40
1.0
 40
1.0
 40
1.0
 10
35.55035532396519
 20
5.940020496518621
 30
0.0
 10
35.6525962196972
 20
5.840224821965609
 30
0.0
 10
35.76910500200296
 20
5.777007904288049
 30
0.0
 10
35.99279474625413
 20
5.705565452244651
 30
0.0
 10
36.10240758747325
 20
5.696460452140623
 30
0.0
 10
36.19721221015315
 20
5.720752799900495
 30
0.0
  0
SPLINE
  5
166
330
1F
100
AcDbEntity
  8
0
  6
Continuous
 62
     1
370
    15
100
AcDbSpline
210
0.0
220
0.0
230
1.0
 70
     8
 71
     3
 72
    14
 73
    10
 74
     0
 42
0.000000001
 43
0.00000001
 40
0.0000000000000044
 40
0.0000000000000044
 40
0.0000000000000044
 40
0.0000000000000044
 40
0.0000763804482612
 40
0.0000763804482612
 40
0.0000763804482612
 40
0.0001475311294099
 40
0.0001475311294099
 40
0.0001475311294099
 40
0.0002213135969295
 40
0.0002213135969295
 40
0.0002213135969295
 40
0.0002213135969295
 10
35.38904083036864
 20
6.035545120433089
 30
0.0
 10
35.40794127701391
 20
6.030135965111452
 30
0.0
 10
35.42703592503211
 20
6.022832493092749
 30
0.0
 10
35.44596475719025
 20
6.013647882869424
 30
0.0
 10
35.46359702135586
 20
6.00509239078397
 30
0.0
 10
35.48121060949123
 20
5.994843044469528
 30
0.0
 10
35.49841148446347
 20
5.982897183298827
 30
0.0
 10
35.51622280956487
 20
5.970527369712549
 30
0.0
 10
35.53377187216874
 20
5.956207333953711
 30
0.0
 10
35.55035532396432
 20
5.940020496519461
 30
0.0
  0
SPLINE
  5
167
330
1F
100
AcDbEntity
  8
0
  6
Continuous
 62
     1
370
    15
100
AcDbSpline
210
0.0
220
0.0
230
1.0
 70
     8
 71
     3
 72
     8
 73
     4
 74
     0
 42
0.000000001
 43
0.00000001
 40
0.0
 40
0.0
 40
0.0
 40
0.0
 40
1.0
 40
1.0
 40
1.0
 40
1.0
 10
35.3890408303652
 20
6.035545120433958
 30
0.0
 10
35.01557359842461
 20
6.142428428692784
 30
0.0
 10
34.64121058603669
 20
6.223902519422997
 30
0.0
 10
34.26511058523195
 20
6.278814099547976
 30
0.0
  0
SPLINE
  5
168
330
1F
100
AcDbEntity
  8
0
  6
Continuous
 62
     1
370
    15
100
AcDbSpline
210
0.0
220
0.0
230
1.0
 70
     8
 71
     3
 72
    14
 73
    10
 74
     0
 42
0.000000001
 43
0.00000001
 40
0.0000000000000002
 40
0.0000000000000002
 40
0.0000000000000002
 40
0.0000000000000002
 40
0.0000711079685447
 40
0.0000711079685447
 40
0.0000711079685447
 40
0.0001495578017779
 40
0.0001495578017779
 40
0.0001495578017779
 40
0.0002302952983886
 40
0.0002302952983886
 40
0.0002302952983886
 40
0.0002302952983886
 10
34.10332688590765
 20
6.248956912661917
 30
0.0
 10
34.11819253160066
 20
6.257895725299648
 30
0.0
 10
34.13395233767913
 20
6.264935539929101
 30
0.0
 10
34.1501914232956
 20
6.270148936150306
 30
0.0
 10
34.16810279532883
 20
6.275899203220756
 30
0.0
 10
34.18673348819099
 20
6.27947316746297
 30
0.0
 10
34.20566573311039
 20
6.280939194371808
 30
0.0
 10
34.22514898797256
 20
6.282447888983636
 30
0.0
 10
34.24509603348838
 20
6.281736276254652
 30
0.0
 10
34.26511058523194
 20
6.278814099547976
 30
0.0
  0
SPLINE
  5
169
330
1F
100
AcDbEntity
  8
0
  6
Continuous
 62
     1
370
    15
100
AcDbSpline
210
0.0
220
0.0
230
1.0
 70
     8
 71
     3
 72
    10
 73
     6
 74
     0
 42
0.000000001
 43
0.00000001
 40
0.0
 40
0.0
 40
0.0
 40
0.0
 40
0.5
 40
0.5
 40
1.0
 40
1.0
 40
1.0
 40
1.0
 10
33.45706646609655
 20
6.302810607831842
 30
0.0
 10
33.55922923378467
 20
6.222083513514963
 30
0.0
 10
33.67548507947876
 20
6.184607438895895
 30
0.0
 10
33.8989559634472
 20
6.16967104245728
 30
0.0
 10
34.00855355048658
 20
6.191969069289243
 30
0.0
 10
34.10332688590745
 20
6.248956912661724
 30
0.0
  0
SPLINE
  5
16A
330
1F
100
AcDbEntity
  8
0
  6
Continuous
 62
     1
370
    15
100
AcDbSpline
210
0.0
220
0.0
230
1.0
 70
     8
 71
     3
 72
    14
 73
    10
 74
     0
 42
0.000000001
 43
0.00000001
 40
0.0000000000000044
 40
0.0000000000000044
 40
0.0000000000000044
 40
0.0000000000000044
 40
0.0000764269246513
 40
0.0000764269246513
 40
0.0000764269246513
 40
0.0001476012556418
 40
0.0001476012556418
 40
0.0001476012556418
 40
0.000221396963953
 40
0.000221396963953
 40
0.000221396963953
 40
0.000221396963953
 10
33.29576821603952
 20
6.361152309845443
 30
0.0
 10
33.31468782750417
 20
6.360714505483618
 30
0.0
 10
33.3337954011423
 20
6.358252092889741
 30
0.0
 10
33.35273055038046
 20
6.353660052271681
 30
0.0
 10
33.37036398756722
 20
6.349383695176254
 30
0.0
 10
33.38797288523965
 20
6.343229259265605
 30
0.0
 10
33.40516528342815
 20
6.335062396119904
 30
0.0
 10
33.42296533885755
 20
6.326606879031253
 30
0.0
 10
33.44049829404866
 20
6.315902465245495
 30
0.0
 10
33.4570664660957
 20
6.302810607832506
 30
0.0
  0
LINE
  5
16B
330
1F
100
AcDbEntity
  8
0
  6
Continuous
 62
     1
370
    15
100
AcDbLine
 10
33.29576744139196
 20
6.361152159682668
 30
0.0
 11
33.1147444099188
 21
6.352374910078204
 31
0.0
  0
LINE
  5
16C
330
1F
100
AcDbEntity
  8
0
  6
Continuous
 62
     1
370
    15
100
AcDbLine
 10
16.0521604716778
 20
-4.735993572809541
 30
0.0
 11
15.41479915753009
 21
-5.110318658240878
 31
0.0
  0
SPLINE
  5
16D
330
1F
100
AcDbEntity
  8
0
  6
Continuous
 62
     1
370
    15
100
AcDbSpline
210
0.0
220
0.0
230
1.0
 70
     8
 71
     3
 72
    14
 73
    10
 74
     0
 42
0.000000001
 43
0.00000001
 40
0.0000000000000002
 40
0.0000000000000002
 40
0.0000000000000002
 40
0.0000000000000002
 40
0.0000713083834527
 40
0.0000713083834527
 40
0.0000713083834527
 40
0.0001498632351376
 40
0.0001498632351376
 40
0.0001498632351376
 40
0.0002306986181953
 40
0.0002306986181953
 40
0.0002306986181953
 40
0.0002306986181953
 10
15.25273968539682
 20
-5.155259092603892
 30
0.0
 10
15.26765034041438
 20
-5.155920261418959
 30
0.0
 10
15.2834567514336
 20
-5.154730091195205
 30
0.0
 10
15.29974270723002
 20
-5.15191991397666
 30
0.0
 10
15.31767950235168
 20
-5.148824880829406
 30
0.0
 10
15.33633409649068
 20
-5.143742856490124
 30
0.0
 10
15.35528989720389
 20
-5.136912825044742
 30
0.0
 10
15.37479496881637
 20
-5.129884883863398
 30
0.0
 10
15.39476293143671
 20
-5.120955073603694
 30
0.0
 10
15.41479903486433
 20
-5.110318751274357
 30
0.0
  0
SPLINE
  5
16E
330
1F
100
AcDbEntity
  8
0
  6
Continuous
 62
     1
370
    15
100
AcDbSpline
210
0.0
220
0.0
230
1.0
 70
     8
 71
     3
 72
    10
 73
     6
 74
     0
 42
0.000000001
 43
0.00000001
 40
0.0
 40
0.0
 40
0.0
 40
0.0
 40
0.4999999999999996
 40
0.4999999999999996
 40
1.0
 40
1.0
 40
1.0
 40
1.0
 10
14.6057004469143
 20
-5.463615601641659
 30
0.0
 10
14.70807255019522
 20
-5.35654279627123
 30
0.0
 10
14.82444608252919
 20
-5.280601781722241
 30
0.0
 10
15.04809575770245
 20
-5.178428042478212
 30
0.0
 10
15.15781471647855
 20
-5.151049926128531
 30
0.0
 10
15.25273968539662
 20
-5.155259092603744
 30
0.0
  0
SPLINE
  5
16F
330
1F
100
AcDbEntity
  8
0
  6
Continuous
 62
     1
370
    15
100
AcDbSpline
210
0.0
220
0.0
230
1.0
 70
     8
 71
     3
 72
    14
 73
    10
 74
     0
 42
0.000000001
 43
0.00000001
 40
0.0000009704960683
 40
0.0000009704960683
 40
0.0000009704960683
 40
0.0000009704960683
 40
0.0000764351271815
 40
0.0000764351271815
 40
0.0000764351271815
 40
0.0001476098292757
 40
0.0001476098292757
 40
0.0001476098292757
 40
0.0002214057886221
 40
0.0002214057886221
 40
0.0002214057886221
 40
0.0002214057886221
 10
14.44502274482554
 20
-5.576708496198317
 30
0.0
 10
14.46371719131166
 20
-5.568680436725358
 30
0.0
 10
14.48259196407382
 20
-5.558946164189429
 30
0.0
 10
14.50129959870679
 20
-5.547588440491724
 30
0.0
 10
14.51894340561662
 20
-5.536876584728599
 30
0.0
 10
14.53656301156706
 20
-5.524644399031786
 30
0.0
 10
14.55376616265606
 20
-5.51096877907336
 30
0.0
 10
14.57157731338665
 20
-5.496809830683409
 30
0.0
 10
14.58912152939121
 20
-5.480955786636424
 30
0.0
 10
14.6057004469134
 20
-5.463615601642607
 30
0.0
  0
LINE
  5
170
330
1F
100
AcDbEntity
  8
0
  6
Continuous
 62
     1
370
    15
100
AcDbLine
 10
14.44502273947002
 20
-5.576709171124541
 30
0.0
 11
14.44429910182954
 21
-5.577018370219314
 31
0.0
  0
SPLINE
  5
171
330
1F
100
AcDbEntity
  8
0
  6
Continuous
 62
     1
370
    15
100
AcDbSpline
210
0.0
220
0.0
230
1.0
 70
     8
 71
     3
 72
     8
 73
     4
 74
     0
 42
0.000000001
 43
0.00000001
 40
0.0
 40
0.0
 40
0.0
 40
0.0
 40
1.0
 40
1.0
 40
1.0
 40
1.0
 10
14.44429921155853
 20
-5.577018394456768
 30
0.0
 10
14.07011303427017
 20
-5.736866682657369
 30
0.0
 10
13.69263244675915
 20
-5.873410295077496
 30
0.0
 10
13.31899659263618
 20
-5.984102597619393
 30
0.0
  0
SPLINE
  5
172
330
1F
100
AcDbEntity
  8
0
  6
Continuous
 62
     1
370
    15
100
AcDbSpline
210
0.0
220
0.0
230
1.0
 70
     8
 71
     3
 72
    14
 73
    10
 74
     0
 42
0.000000001
 43
0.00000001
 40
0.0000000000000002
 40
0.0000000000000002
 40
0.0000000000000002
 40
0.0000000000000002
 40
0.000071485683522
 40
0.000071485683522
 40
0.000071485683522
 40
0.0001501322513101
 40
0.0001501322513101
 40
0.0001501322513101
 40
0.0002310537789978
 40
0.0002310537789978
 40
0.0002310537789978
 40
0.0002310537789978
 10
13.15694929371168
 20
-5.981933958340777
 30
0.0
 10
13.17187248562102
 20
-5.987973259383846
 30
0.0
 10
13.1876922811578
 20
-5.99207202583512
 30
0.0
 10
13.20399231086077
 20
-5.994368249428488
 30
0.0
 10
13.22192118762355
 20
-5.996893932545359
 30
0.0
 10
13.24056684664664
 20
-5.997259766959462
 30
0.0
 10
13.25951469909172
 20
-5.995601837238311
 30
0.0
 10
13.27900961861286
 20
-5.993896039360729
 30
0.0
 10
13.29896785071007
 20
-5.990036256116971
 30
0.0
 10
13.31899659263621
 20
-5.984102597619381
 30
0.0
  0
SPLINE
  5
173
330
1F
100
AcDbEntity
  8
0
  6
Continuous
 62
     1
370
    15
100
AcDbSpline
210
0.0
220
0.0
230
1.0
 70
     8
 71
     3
 72
    10
 73
     6
 74
     0
 42
0.000000001
 43
0.00000001
 40
0.0
 40
0.0
 40
0.0
 40
0.0
 40
0.5
 40
0.5
 40
1.0
 40
1.0
 40
1.0
 40
1.0
 10
12.51062037412968
 20
-6.133142542861989
 30
0.0
 10
12.61296455020824
 20
-6.040266001024615
 30
0.0
 10
12.72954218295363
 20
-5.987457569686727
 30
0.0
 10
12.95301421071157
 20
-5.939509621612165
 30
0.0
 10
13.06229666219969
 20
-5.943628766013433
 30
0.0
 10
13.15694929371143
 20
-5.981933958340591
 30
0.0
  0
SPLINE
  5
174
330
1F
100
AcDbEntity
  8
0
  6
Continuous
 62
     1
370
    15
100
AcDbSpline
210
0.0
220
0.0
230
1.0
 70
     8
 71
     3
 72
    14
 73
    10
 74
     0
 42
0.000000001
 43
0.00000001
 40
0.0000000000000051
 40
0.0000000000000051
 40
0.0000000000000051
 40
0.0000000000000051
 40
0.0000759327542895
 40
0.0000759327542895
 40
0.0000759327542895
 40
0.00014700790657
 40
0.00014700790657
 40
0.00014700790657
 40
0.000220723112643
 40
0.000220723112643
 40
0.000220723112643
 40
0.000220723112643
 10
12.34953053643098
 20
-6.213658037217304
 30
0.0
 10
12.36835930401308
 20
-6.210343571307884
 30
0.0
 10
12.38737725703808
 20
-6.205069053893194
 30
0.0
 10
12.40622564495768
 20
-6.197799807399613
 30
0.0
 10
12.42386730686475
 20
-6.190995958205402
 30
0.0
 10
12.44148631496728
 20
-6.182395176406128
 30
0.0
 10
12.4586868475153
 20
-6.171941082581455
 30
0.0
 10
12.4765005480669
 20
-6.161114319141946
 30
0.0
 10
12.494046224493
 20
-6.148183454432337
 30
0.0
 10
12.51062037412879
 20
-6.133142542862783
 30
0.0
  0
SPLINE
  5
175
330
1F
100
AcDbEntity
  8
0
  6
Continuous
 62
     1
370
    15
100
AcDbSpline
210
0.0
220
0.0
230
1.0
 70
     8
 71
     3
 72
     8
 73
     4
 74
     0
 42
0.000000001
 43
0.00000001
 40
0.0
 40
0.0
 40
0.0
 40
0.0
 40
1.0
 40
1.0
 40
1.0
 40
1.0
 10
12.34953053642699
 20
-6.213658037217931
 30
0.0
 10
12.23302789284335
 20
-6.234166232393246
 30
0.0
 10
12.11644650276345
 20
-6.25214007348752
 30
0.0
 10
11.99999999999978
 20
-6.267547849914713
 30
0.0
  0
SPLINE
  5
176
330
1F
100
AcDbEntity
  8
0
  6
Continuous
 62
     1
370
    15
100
AcDbSpline
210
0.0
220
0.0
230
1.0
 70
     8
 71
     3
 72
     8
 73
     4
 74
     0
 42
0.000000001
 43
0.00000001
 40
0.0000000000000012
 40
0.0000000000000012
 40
0.0000000000000012
 40
0.0000000000000012
 40
0.0000469060993168
 40
0.0000469060993168
 40
0.0000469060993168
 40
0.0000469060993168
 10
12.03045603477716
 20
-1.717901058855983
 30
0.0
 10
12.02064420417057
 20
-1.710551467292435
 30
0.0
 10
12.01045035134949
 20
-1.702738317540773
 30
0.0
 10
11.99999999999352
 20
-1.694569763927416
 30
0.0
  0
SPLINE
  5
177
330
1F
100
AcDbEntity
  8
0
  6
Continuous
 62
     1
370
    15
100
AcDbSpline
210
0.0
220
0.0
230
1.0
 70
     8
 71
     3
 72
    14
 73
    10
 74
     0
 42
0.000000001
 43
0.00000001
 40
0.0000000000000123
 40
0.0000000000000123
 40
0.0000000000000123
 40
0.0000000000000123
 40
0.0000765581881012
 40
0.0000765581881012
 40
0.0000765581881012
 40
0.0001477609698103
 40
0.0001477609698103
 40
0.0001477609698103
 40
0.0002215801221351
 40
0.0002215801221351
 40
0.0002215801221351
 40
0.0002215801221351
 10
14.93176934287065
 20
-4.02301182234329
 30
0.0
 10
14.91282560929723
 20
-4.009811538897413
 30
0.0
 10
14.89369397149228
 20
-3.995373837297346
 30
0.0
 10
14.87473526111056
 20
-3.97993166123358
 30
0.0
 10
14.85710295003163
 20
-3.96556985884248
 30
0.0
 10
14.83949545370549
 20
-3.950237192853341
 30
0.0
 10
14.8223037224017
 20
-3.934174716185164
 30
0.0
 10
14.8045057729893
 20
-3.917545841400738
 30
0.0
 10
14.78697537576054
 20
-3.899963320036643
 30
0.0
 10
14.7704056542222
 20
-3.88189589528686
 30
0.0
  0
SPLINE
  5
178
330
1F
100
AcDbEntity
  8
0
  6
Continuous
 62
     1
370
    15
100
AcDbSpline
210
0.0
220
0.0
230
1.0
 70
     8
 71
     3
 72
     8
 73
     4
 74
     0
 42
0.000000001
 43
0.00000001
 40
0.0
 40
0.0
 40
0.0
 40
0.0
 40
1.0
 40
1.0
 40
1.0
 40
1.0
 10
16.05719743631737
 20
-4.749903617165992
 30
0.0
 10
15.68238845624624
 20
-4.526854562834514
 30
0.0
 10
15.30486544091737
 20
-4.28299089287162
 30
0.0
 10
14.93176934288903
 20
-4.023011822356106
 30
0.0
  0
SPLINE
  5
179
330
1F
100
AcDbEntity
  8
0
  6
Continuous
 62
     1
370
    15
100
AcDbSpline
210
0.0
220
0.0
230
1.0
 70
     8
 71
     3
 72
    14
 73
    10
 74
     0
 42
0.000000001
 43
0.00000001
 40
0.0000000000000013
 40
0.0000000000000013
 40
0.0000000000000013
 40
0.0000000000000013
 40
0.0000714359112602
 40
0.0000714359112602
 40
0.0000714359112602
 40
0.0001500568021655
 40
0.0001500568021655
 40
0.0001500568021655
 40
0.0002309540145413
 40
0.0002309540145413
 40
0.0002309540145413
 40
0.0002309540145413
 10
16.21932692271665
 20
-4.808861246466337
 30
0.0
 10
16.20439906815058
 20
-4.807825251694349
 30
0.0
 10
16.18857461669085
 20
-4.804992678178111
 30
0.0
 10
16.17227017987177
 20
-4.80062209479471
 30
0.0
 10
16.15432987339434
 20
-4.795812998580383
 30
0.0
 10
16.13567250124857
 20
-4.789106811463387
 30
0.0
 10
16.11671348935095
 20
-4.780770762255805
 30
0.0
 10
16.09720657826098
 20
-4.77219380837171
 30
0.0
 10
16.07723671592453
 20
-4.761829004772624
 30
0.0
 10
16.05719743632887
 20
-4.749903617172838
 30
0.0
  0
SPLINE
  5
17A
330
1F
100
AcDbEntity
  8
0
  6
Continuous
 62
     1
370
    15
100
AcDbSpline
210
0.0
220
0.0
230
1.0
 70
     8
 71
     3
 72
    10
 73
     6
 74
     0
 42
0.000000001
 43
0.00000001
 40
0.0
 40
0.0
 40
0.0
 40
0.0
 40
0.5
 40
0.5
 40
1.0
 40
1.0
 40
1.0
 40
1.0
 10
16.8662521969549
 20
-5.160283877402435
 30
0.0
 10
16.7638072548662
 20
-5.050719434526758
 30
0.0
 10
16.64718418084131
 20
-4.96919327788577
 30
0.0
 10
16.42369027108537
 20
-4.85219340493112
 30
0.0
 10
16.3141891720943
 20
-4.815444697152233
 30
0.0
 10
16.21932692271793
 20
-4.808861246465553
 30
0.0
  0
SPLINE
  5
17B
330
1F
100
AcDbEntity
  8
0
  6
Continuous
 62
     1
370
    15
100
AcDbSpline
210
0.0
220
0.0
230
1.0
 70
     8
 71
     3
 72
    14
 73
    10
 74
     0
 42
0.000000001
 43
0.00000001
 40
0.0000000000000014
 40
0.0000000000000014
 40
0.0000000000000014
 40
0.0000000000000014
 40
0.000076178697922
 40
0.000076178697922
 40
0.000076178697922
 40
0.0001473022198539
 40
0.0001473022198539
 40
0.0001473022198539
 40
0.0002210565192719
 40
0.0002210565192719
 40
0.0002210565192719
 40
0.0002210565192719
 10
17.02752880400553
 20
-5.281569243562251
 30
0.0
 10
17.00864556217295
 20
-5.272197481703466
 30
0.0
 10
16.98957336941079
 20
-5.261180879886653
 30
0.0
 10
16.97067200771526
 20
-5.248641321342694
 30
0.0
 10
16.95302558259384
 20
-5.236934313960575
 30
0.0
 10
16.93540254941515
 20
-5.223815949082629
 30
0.0
 10
16.91819707871975
 20
-5.209404481166914
 30
0.0
 10
16.9003808570046
 20
-5.194481442316501
 30
0.0
 10
16.88283217001701
 20
-5.17801609018332
 30
0.0
 10
16.86625219695497
 20
-5.160283877402502
 30
0.0
  0
SPLINE
  5
17C
330
1F
100
AcDbEntity
  8
0
  6
Continuous
 62
     1
370
    15
100
AcDbSpline
210
0.0
220
0.0
230
1.0
 70
     8
 71
     3
 72
     8
 73
     4
 74
     0
 42
0.000000001
 43
0.00000001
 40
0.0
 40
0.0
 40
0.0
 40
0.0
 40
1.0
 40
1.0
 40
1.0
 40
1.0
 10
18.15124619401787
 20
-5.770373379869047
 30
0.0
 10
17.7794804044236
 20
-5.631585742880936
 30
0.0
 10
17.40253903703367
 20
-5.467686999703152
 30
0.0
 10
17.02752880400699
 20
-5.28156924356295
 30
0.0
  0
SPLINE
  5
17D
330
1F
100
AcDbEntity
  8
0
  6
Continuous
 62
     1
370
    15
100
AcDbSpline
210
0.0
220
0.0
230
1.0
 70
     8
 71
     3
 72
    14
 73
    10
 74
     0
 42
0.000000001
 43
0.00000001
 40
0.0000000000000012
 40
0.0000000000000012
 40
0.0000000000000012
 40
0.0000000000000012
 40
0.000071330310785
 40
0.000071330310785
 40
0.000071330310785
 40
0.0001500168778817
 40
0.0001500168778817
 40
0.0001500168778817
 40
0.0002309847103482
 40
0.0002309847103482
 40
0.0002309847103482
 40
0.0002309847103482
 10
18.31311369033138
 20
-5.782890690522621
 30
0.0
 10
18.29822340103101
 20
-5.7873170785487
 30
0.0
 10
18.28244165068436
 20
-5.789811728138509
 30
0.0
 10
18.26618576934987
 20
-5.790543238453496
 30
0.0
 10
18.24825764296898
 20
-5.791349999348592
 30
0.0
 10
18.22961670537393
 20
-5.790020170775715
 30
0.0
 10
18.21068091067254
 20
-5.786726330471585
 30
0.0
 10
18.19119701437302
 20
-5.783337149086544
 30
0.0
 10
18.17125885808936
 20
-5.777844509365044
 30
0.0
 10
18.15124619402145
 20
-5.77037337987039
 30
0.0
  0
SPLINE
  5
17E
330
1F
100
AcDbEntity
  8
0
  6
Continuous
 62
     1
370
    15
100
AcDbSpline
210
0.0
220
0.0
230
1.0
 70
     8
 71
     3
 72
    10
 73
     6
 74
     0
 42
0.000000001
 43
0.00000001
 40
0.0
 40
0.0
 40
0.0
 40
0.0
 40
0.5
 40
0.5
 40
1.0
 40
1.0
 40
1.0
 40
1.0
 10
18.95943627832188
 20
-5.983641545690793
 30
0.0
 10
18.857132416916
 20
-5.885636977752501
 30
0.0
 10
18.74059477102569
 20
-5.825242781420716
 30
0.0
 10
18.51708580046749
 20
-5.760222807736127
 30
0.0
 10
18.40768626531917
 20
-5.754777407757572
 30
0.0
 10
18.31311369033257
 20
-5.782890690521676
 30
0.0
  0
SPLINE
  5
17F
330
1F
100
AcDbEntity
  8
0
  6
Continuous
 62
     1
370
    15
100
AcDbSpline
210
0.0
220
0.0
230
1.0
 70
     8
 71
     3
 72
    14
 73
    10
 74
     0
 42
0.000000001
 43
0.00000001
 40
0.0
 40
0.0
 40
0.0
 40
0.0
 40
0.0000761049480224
 40
0.0000761049480224
 40
0.0000761049480224
 40
0.0001471994223471
 40
0.0001471994223471
 40
0.0001471994223471
 40
0.0002209311535581
 40
0.0002209311535581
 40
0.0002209311535581
 40
0.0002209311535581
 10
19.12071722514511
 20
-6.075038046993244
 30
0.0
 10
19.10184493859653
 20
-6.070221252354429
 30
0.0
 10
19.08278202418534
 20
-6.063491795857857
 30
0.0
 10
19.06388805443095
 20
-6.054850076467348
 30
0.0
 10
19.04623877815979
 20
-6.046777654686031
 30
0.0
 10
19.0286112173561
 20
-6.036978261860471
 30
0.0
 10
19.01140088272004
 20
-6.025435209714623
 30
0.0
 10
18.99357792480012
 20
-6.013481268259482
 30
0.0
 10
18.97602167645782
 20
-5.999529946735066
 30
0.0
 10
18.95943627832207
 20
-5.983641545690964
 30
0.0
  0
SPLINE
  5
180
330
1F
100
AcDbEntity
  8
0
  6
Continuous
 62
     1
370
    15
100
AcDbSpline
210
0.0
220
0.0
230
1.0
 70
     8
 71
     3
 72
     8
 73
     4
 74
     0
 42
0.000000001
 43
0.00000001
 40
0.0
 40
0.0
 40
0.0
 40
0.0
 40
1.0
 40
1.0
 40
1.0
 40
1.0
 10
20.24616202521329
 20
-6.284501204773925
 30
0.0
 10
19.87053224407417
 20
-6.241199061966261
 30
0.0
 10
19.49770037128763
 20
-6.171255873730305
 30
0.0
 10
19.12071722514491
 20
-6.07503804699319
 30
0.0
  0
SPLINE
  5
181
330
1F
100
AcDbEntity
  8
0
  6
Continuous
 62
     1
370
    15
100
AcDbSpline
210
0.0
220
0.0
230
1.0
 70
     8
 71
     3
 72
    14
 73
    10
 74
     0
 42
0.000000001
 43
0.00000001
 40
0.0000000000000012
 40
0.0000000000000012
 40
0.0000000000000012
 40
0.0000000000000012
 40
0.0000713060814087
 40
0.0000713060814087
 40
0.0000713060814087
 40
0.000149951670747
 40
0.000149951670747
 40
0.000149951670747
 40
0.0002308788344206
 40
0.0002308788344206
 40
0.0002308788344206
 40
0.0002308788344206
 10
20.40829595638422
 20
-6.249204775154371
 30
0.0
 10
20.39338292590631
 20
-6.258710070362477
 30
0.0
 10
20.37757594681629
 20
-6.266321404235973
 30
0.0
 10
20.3612924337393
 20
-6.272101818945373
 30
0.0
 10
20.34333709729701
 20
-6.278475707085638
 30
0.0
 10
20.32466601762399
 20
-6.282673786608787
 30
0.0
 10
20.30569752512845
 20
-6.284754513844936
 30
0.0
 10
20.28617964710799
 20
-6.286895505302141
 30
0.0
 10
20.26620294760693
 20
-6.286811497852304
 30
0.0
 10
20.24616202521651
 20
-6.2845012047743
 30
0.0
  0
SPLINE
  5
182
330
1F
100
AcDbEntity
  8
0
  6
Continuous
 62
     1
370
    15
100
AcDbSpline
210
0.0
220
0.0
230
1.0
 70
     8
 71
     3
 72
    10
 73
     6
 74
     0
 42
0.000000001
 43
0.00000001
 40
0.0
 40
0.0
 40
0.0
 40
0.0
 40
0.1541017540205147
 40
0.5968789439525111
 40
1.0
 40
1.0
 40
1.0
 40
1.0
 10
20.95634496212007
 20
-6.233177964874351
 30
0.0
 10
20.92832925122502
 20
-6.217671504762578
 30
0.0
 10
20.81981661268044
 20
-6.157610672912968
 30
0.0
 10
20.61973275923354
 20
-6.154137730328366
 30
0.0
 10
20.47653728513374
 20
-6.218521781915544
 30
0.0
 10
20.40829608589413
 20
-6.249204629399622
 30
0.0
  0
LINE
  5
183
330
1F
100
AcDbEntity
  8
0
  6
Continuous
 62
     1
370
    15
100
AcDbLine
 10
38.15273015201093
 20
4.732317405454076
 30
0.0
 11
39.09759788215162
 21
5.265139157585061
 31
0.0
  0
SPLINE
  5
184
330
1F
100
AcDbEntity
  8
0
  6
Continuous
 62
     1
370
    15
100
AcDbSpline
210
0.0
220
0.0
230
1.0
 70
     8
 71
     3
 72
    14
 73
    10
 74
     0
 42
0.000000001
 43
0.00000001
 40
0.0000000000000012
 40
0.0000000000000012
 40
0.0000000000000012
 40
0.0000000000000012
 40
0.0000711764102828
 40
0.0000711764102828
 40
0.0000711764102828
 40
0.0001497581631852
 40
0.0001497581631852
 40
0.0001497581631852
 40
0.0002306262766329
 40
0.0002306262766329
 40
0.0002306262766329
 40
0.0002306262766329
 10
39.25959114660277
 20
5.304603551680643
 30
0.0
 10
39.24470606001633
 20
5.305922514052047
 30
0.0
 10
39.2289274739339
 20
5.305373526794665
 30
0.0
 10
39.21267186376389
 20
5.303177123530884
 30
0.0
 10
39.19472936977572
 20
5.300752794210497
 30
0.0
 10
39.17606925113093
 20
5.296304614730632
 30
0.0
 10
39.15711060757158
 20
5.290062584252563
 30
0.0
 10
39.13760128302618
 20
5.283639245049113
 30
0.0
 10
39.1176315686535
 20
5.275269691357535
 30
0.0
 10
39.09759712939832
 20
5.26513903698561
 30
0.0
  0
SPLINE
  5
185
330
1F
100
AcDbEntity
  8
0
  6
Continuous
 62
     1
370
    15
100
AcDbSpline
210
0.0
220
0.0
230
1.0
 70
     8
 71
     3
 72
    10
 73
     6
 74
     0
 42
0.000000001
 43
0.00000001
 40
0.0
 40
0.0
 40
0.0
 40
0.0
 40
0.5
 40
0.5
 40
1.0
 40
1.0
 40
1.0
 40
1.0
 10
39.90569339993566
 20
5.594136295404359
 30
0.0
 10
39.8035670148198
 20
5.488511530058125
 30
0.0
 10
39.68715747659824
 20
5.41523523303175
 30
0.0
 10
39.46370468355192
 20
5.319647243194987
 30
0.0
 10
39.35424622279633
 20
5.296216198132545
 30
0.0
 10
39.25959114660406
 20
5.304603551679768
 30
0.0
  0
SPLINE
  5
186
330
1F
100
AcDbEntity
  8
0
  6
Continuous
 62
     1
370
    15
100
AcDbSpline
210
0.0
220
0.0
230
1.0
 70
     8
 71
     3
 72
    14
 73
    10
 74
     0
 42
0.000000001
 43
0.00000001
 40
0.0
 40
0.0
 40
0.0
 40
0.0
 40
0.0000760573270918
 40
0.0000760573270918
 40
0.0000760573270918
 40
0.000147150133276
 40
0.000147150133276
 40
0.000147150133276
 40
0.0002208842213116
 40
0.0002208842213116
 40
0.0002208842213116
 40
0.0002208842213116
 10
40.06676320495806
 20
5.703988540316669
 30
0.0
 10
40.04793037186409
 20
5.696457946348459
 30
0.0
 10
40.02890472391317
 20
5.687155253899571
 30
0.0
 10
40.01004500947708
 20
5.6761508021431
 30
0.0
 10
39.99241720140381
 20
5.665865155233009
 30
0.0
 10
39.97480867826619
 20
5.65401868908295
 30
0.0
 10
39.9576151523081
 20
5.640673222763533
 30
0.0
 10
39.9398086681145
 20
5.626851983556865
 30
0.0
 10
39.92226644047184
 20
5.61127705208266
 30
0.0
 10
39.90569339993581
 20
5.594136295404513
 30
0.0
  0
SPLINE
  5
187
330
1F
100
AcDbEntity
  8
0
  6
Continuous
 62
     1
370
    15
100
AcDbSpline
210
0.0
220
0.0
230
1.0
 70
     8
 71
     3
 72
    10
 73
     6
 74
     0
 42
0.000000001
 43
0.00000001
 40
0.0
 40
0.0
 40
0.0
 40
0.0
 40
0.5
 40
0.5
 40
1.0
 40
1.0
 40
1.0
 40
1.0
 10
41.19077511123518
 20
6.079212075435549
 30
0.0
 10
41.00256160219079
 20
6.029216594189493
 30
0.0
 10
40.81435351489261
 20
5.972762326905113
 30
0.0
 10
40.4397403877251
 20
5.847535933383848
 30
0.0
 10
40.25403431873337
 20
5.7788717356798
 30
0.0
 10
40.06676320495807
 20
5.703988540316678
 30
0.0
  0
SPLINE
  5
188
330
1F
100
AcDbEntity
  8
0
  6
Continuous
 62
     1
370
    15
100
AcDbSpline
210
0.0
220
0.0
230
1.0
 70
     8
 71
     3
 72
    14
 73
    10
 74
     0
 42
0.000000001
 43
0.00000001
 40
0.0000000000000012
 40
0.0000000000000012
 40
0.0000000000000012
 40
0.0000000000000012
 40
0.0000712342210936
 40
0.0000712342210936
 40
0.0000712342210936
 40
0.0001497696049176
 40
0.0001497696049176
 40
0.0001497696049176
 40
0.0002305882267579
 40
0.0002305882267579
 40
0.0002305882267579
 40
0.0002305882267579
 10
41.35280854784182
 20
6.071262545604933
 30
0.0
 10
41.33790801432126
 20
6.077914046435247
 30
0.0
 10
41.32211245844776
 20
6.082634256423881
 30
0.0
 10
41.30583804604836
 20
6.08554625633482
 30
0.0
 10
41.28789984779818
 20
6.088755959421168
 30
0.0
 10
41.26924362276851
 20
6.089795080195017
 30
0.0
 10
41.25028695110844
 20
6.088786131968019
 30
0.0
 10
41.2307801755785
 20
6.087747905060979
 30
0.0
 10
41.21081108817796
 20
6.084534266783733
 30
0.0
 10
41.19077511123844
 20
6.079212075436417
 30
0.0
  0
SPLINE
  5
189
330
1F
100
AcDbEntity
  8
0
  6
Continuous
 62
     1
370
    15
100
AcDbSpline
210
0.0
220
0.0
230
1.0
 70
     8
 71
     3
 72
    10
 73
     6
 74
     0
 42
0.000000001
 43
0.00000001
 40
0.0
 40
0.0
 40
0.0
 40
0.0
 40
0.5
 40
0.5
 40
1.0
 40
1.0
 40
1.0
 40
1.0
 10
41.9997473085955
 20
6.203112588355325
 30
0.0
 10
41.89753257356848
 20
6.112580210435702
 30
0.0
 10
41.78107537485619
 20
6.062610466896372
 30
0.0
 10
41.55737230418069
 20
6.021061371481521
 30
0.0
 10
41.44768305867777
 20
6.028911183704872
 30
0.0
 10
41.35280854784311
 20
6.071262545603932
 30
0.0
  0
SPLINE
  5
18A
330
1F
100
AcDbEntity
  8
0
  6
Continuous
 62
     4
370
    15
100
AcDbSpline
210
0.0
220
0.0
230
1.0
 70
    24
 71
     3
 72
    14
 73
    10
 74
     0
 42
0.000000001
 43
0.00000001
 40
0.0
 40
0.0
 40
0.0
 40
0.0
 40
0.1444443315517661
 40
0.2903281721015321
 40
0.4362119782851767
 40
0.5820958297739063
 40
0.7279796481979012
 40
0.8738634696403949
 40
1.0
 40
1.0
 40
1.0
 40
1.0
 10
12.00000004749747
 20
-1.694569715597474
 30
0.0
 10
12.00000004749747
 20
-1.761313907924294
 30
0.0
 10
12.00000004749747
 20
-1.895467454473775
 30
0.0
 10
12.00000004749747
 20
-2.314404548600359
 30
0.0
 10
12.00000004749747
 20
-2.885541838281739
 30
0.0
 10
12.00000004749747
 20
-3.601699946752113
 30
0.0
 10
12.00000004749747
 20
-4.444546037500513
 30
0.0
 10
12.00000004749747
 20
-5.340641086659328
 30
0.0
 10
12.00000004749747
 20
-5.973902860477026
 30
0.0
 10
12.00000004749747
 20
-6.267547958829248
 30
0.0
  0
SPLINE
  5
18B
330
1F
100
AcDbEntity
  8
0
  6
Continuous
 62
     1
370
    15
100
AcDbSpline
210
0.0
220
0.0
230
1.0
 70
     8
 71
     3
 72
    14
 73
    10
 74
     0
 42
0.000000001
 43
0.00000001
 40
0.0000000000000001
 40
0.0000000000000001
 40
0.0000000000000001
 40
0.0000000000000001
 40
0.0000711473966403
 40
0.0000711473966403
 40
0.0000711473966403
 40
0.0001496370969755
 40
0.0001496370969755
 40
0.0001496370969755
 40
0.0002304131395171
 40
0.0002304131395171
 40
0.0002304131395171
 40
0.0002304131395171
 10
41.08539033360151
 20
-6.26224645770816
 30
0.0
 10
41.10027027710277
 20
-6.272096584411441
 30
0.0
 10
41.1160444767914
 20
-6.280068438154585
 30
0.0
 10
41.13229737036345
 20
-6.286214315106387
 30
0.0
 10
41.15022317720185
 20
-6.292992788281159
 30
0.0
 10
41.16886759904168
 20
-6.29760352174255
 30
0.0
 10
41.18781257634126
 20
-6.300093129554408
 30
0.0
 10
41.20730837218264
 20
-6.302655121836457
 30
0.0
 10
41.22726681655986
 20
-6.302990774124059
 30
0.0
 10
41.24729185097413
 20
-6.301086926572973
 30
0.0
  0
SPLINE
  5
18C
330
1F
100
AcDbEntity
  8
0
  6
Continuous
 62
     1
370
    15
100
AcDbSpline
210
0.0
220
0.0
230
1.0
 70
     8
 71
     3
 72
    10
 73
     6
 74
     0
 42
0.000000001
 43
0.00000001
 40
0.0
 40
0.0
 40
0.0
 40
0.0
 40
0.5
 40
0.5
 40
1.0
 40
1.0
 40
1.0
 40
1.0
 10
40.43881766488322
 20
-6.283131510789288
 30
0.0
 10
40.54098000145706
 20
-6.206980512835041
 30
0.0
 10
40.65738627983803
 20
-6.174892576712054
 30
0.0
 10
40.88097794149031
 20
-6.171242152622456
 30
0.0
 10
40.9905973617869
 20
-6.199496032420788
 30
0.0
 10
41.08539033360142
 20
-6.262246457708068
 30
0.0
  0
SPLINE
  5
18D
330
1F
100
AcDbEntity
  8
0
  6
Continuous
 62
     1
370
    15
100
AcDbSpline
210
0.0
220
0.0
230
1.0
 70
     8
 71
     3
 72
    14
 73
    10
 74
     0
 42
0.000000001
 43
0.00000001
 40
0.000000000000005
 40
0.000000000000005
 40
0.000000000000005
 40
0.000000000000005
 40
0.0000766690418866
 40
0.0000766690418866
 40
0.0000766690418866
 40
0.0001478454414005
 40
0.0001478454414005
 40
0.0001478454414005
 40
0.0002216440363481
 40
0.0002216440363481
 40
0.0002216440363481
 40
0.0002216440363481
 10
40.27744479577392
 20
-6.333606591408021
 30
0.0
 10
40.29640434735806
 20
-6.334146283272742
 30
0.0
 10
40.31555159053548
 20
-6.332650865642952
 30
0.0
 10
40.3345254356034
 20
-6.328992317901544
 30
0.0
 10
40.35213979731267
 20
-6.325595906524877
 30
0.0
 10
40.36973334624771
 20
-6.32030960590507
 30
0.0
 10
40.38691881888938
 20
-6.312969194630188
 30
0.0
 10
40.4047116755671
 20
-6.305369352106634
 30
0.0
 10
40.42224501765848
 20
-6.295484631001991
 30
0.0
 10
40.4388176648832
 20
-6.283131510789306
 30
0.0
  0
SPLINE
  5
18E
330
1F
100
AcDbEntity
  8
0
  6
Continuous
 62
     1
370
    15
100
AcDbSpline
210
0.0
220
0.0
230
1.0
 70
     8
 71
     3
 72
     8
 73
     4
 74
     0
 42
0.000000001
 43
0.00000001
 40
0.0
 40
0.0
 40
0.0
 40
0.0
 40
1.0
 40
1.0
 40
1.0
 40
1.0
 10
40.27744479576995
 20
-6.333606591407914
 30
0.0
 10
39.90491637397422
 20
-6.32300240818982
 30
0.0
 10
39.52738432098682
 20
-6.28541263904939
 30
0.0
 10
39.15198894616361
 20
-6.221345920519481
 30
0.0
  0
SPLINE
  5
18F
330
1F
100
AcDbEntity
  8
0
  6
Continuous
 62
     1
370
    15
100
AcDbSpline
210
0.0
220
0.0
230
1.0
 70
     8
 71
     3
 72
    14
 73
    10
 74
     0
 42
0.000000001
 43
0.00000001
 40
0.0000000000000031
 40
0.0000000000000031
 40
0.0000000000000031
 40
0.0000000000000031
 40
0.0000713819487363
 40
0.0000713819487363
 40
0.0000713819487363
 40
0.0001499824566792
 40
0.0001499824566792
 40
0.0001499824566792
 40
0.0002308611744035
 40
0.0002308611744035
 40
0.0002308611744035
 40
0.0002308611744035
 10
38.98986895027799
 20
-6.13842076363193
 30
0.0
 10
39.00479043642535
 20
-6.152443391792502
 30
0.0
 10
39.02060822199797
 20
-6.164792849870563
 30
0.0
 10
39.03690579153331
 20
-6.175413094959702
 30
0.0
 10
39.05484737920945
 20
-6.187104657802609
 30
0.0
 10
39.07350646442671
 20
-6.196791076194215
 30
0.0
 10
39.09246699684896
 20
-6.204402032291551
 30
0.0
 10
39.11197607453273
 20
-6.212233180196272
 30
0.0
 10
39.13194807993338
 20
-6.217925653190662
 30
0.0
 10
39.15198894616244
 20
-6.221345920519286
 30
0.0
  0
SPLINE
  5
190
330
1F
100
AcDbEntity
  8
0
  6
Continuous
 62
     1
370
    15
100
AcDbSpline
210
0.0
220
0.0
230
1.0
 70
     8
 71
     3
 72
    10
 73
     6
 74
     0
 42
0.000000001
 43
0.00000001
 40
0.0
 40
0.0
 40
0.0
 40
0.0
 40
0.5
 40
0.5
 40
1.0
 40
1.0
 40
1.0
 40
1.0
 10
38.34296395571678
 20
-5.989067359853488
 30
0.0
 10
38.4453746486201
 20
-5.940009130936981
 30
0.0
 10
38.56187982298397
 20
-5.937657915345913
 30
0.0
 10
38.78534161272493
 20
-5.992065593375931
 30
0.0
 10
38.89497711378264
 20
-6.049245132900539
 30
0.0
 10
38.98986895027639
 20
-6.138420763630038
 30
0.0
  0
SPLINE
  5
191
330
1F
100
AcDbEntity
  8
0
  6
Continuous
 62
     1
370
    15
100
AcDbSpline
210
0.0
220
0.0
230
1.0
 70
     8
 71
     3
 72
    14
 73
    10
 74
     0
 42
0.000000001
 43
0.00000001
 40
0.0000000000001295
 40
0.0000000000001295
 40
0.0000000000001295
 40
0.0000000000001295
 40
0.0000762254104976
 40
0.0000762254104976
 40
0.0000762254104976
 40
0.0001473606716157
 40
0.0001473606716157
 40
0.0001473606716157
 40
0.0002211244696197
 40
0.0002211244696197
 40
0.0002211244696197
 40
0.0002211244696197
 10
38.18168895621463
 20
-5.996721108236896
 30
0.0
 10
38.20057837855395
 20
-6.002207420872545
 30
0.0
 10
38.21965642052989
 20
-6.005757462891667
 30
0.0
 10
38.23856319698019
 20
-6.007135782453429
 30
0.0
 10
38.25620683293592
 20
-6.008422018033689
 30
0.0
 10
38.27382672555341
 20
-6.007825241295727
 30
0.0
 10
38.29102922057115
 20
-6.005068574717215
 30
0.0
 10
38.3088417453643
 20
-6.002214152046226
 30
0.0
 10
38.32638674246149
 20
-5.99700841268324
 30
0.0
 10
38.34296395571676
 20
-5.989067359853506
 30
0.0
  0
SPLINE
  5
192
330
1F
100
AcDbEntity
  8
0
  6
Continuous
 62
     1
370
    15
100
AcDbSpline
210
0.0
220
0.0
230
1.0
 70
     8
 71
     3
 72
     8
 73
     4
 74
     0
 42
0.000000001
 43
0.00000001
 40
0.0
 40
0.0
 40
0.0
 40
0.0
 40
1.0
 40
1.0
 40
1.0
 40
1.0
 10
38.18168895611705
 20
-5.996721108208706
 30
0.0
 10
37.80727647856926
 20
-5.887975384289634
 30
0.0
 10
37.43035677524039
 20
-5.753465116146966
 30
0.0
 10
37.05803668846363
 20
-5.595864456697216
 30
0.0
  0
SPLINE
  5
193
330
1F
100
AcDbEntity
  8
0
  6
Continuous
 62
     1
370
    15
100
AcDbSpline
210
0.0
220
0.0
230
1.0
 70
     8
 71
     3
 72
    14
 73
    10
 74
     0
 42
0.000000001
 43
0.00000001
 40
0.0000000000000001
 40
0.0000000000000001
 40
0.0000000000000001
 40
0.0000000000000001
 40
0.0000714276064808
 40
0.0000714276064808
 40
0.0000714276064808
 40
0.0001500752830286
 40
0.0001500752830286
 40
0.0001500752830286
 40
0.000230999694293
 40
0.000230999694293
 40
0.000230999694293
 40
0.000230999694293
 10
36.89615622253984
 20
-5.475856547106235
 30
0.0
 10
36.91105999679247
 20
-5.49283384603998
 30
0.0
 10
36.92685396284863
 20
-5.508497432403814
 30
0.0
 10
36.94312550000718
 20
-5.522686202639211
 30
0.0
 10
36.96103782887641
 20
-5.538305742221106
 30
0.0
 10
36.97966707721618
 20
-5.552257561013362
 30
0.0
 10
36.99859931774395
 20
-5.564358425698669
 30
0.0
 10
37.0180785336091
 20
-5.576808899007125
 30
0.0
 10
37.03802193607831
 20
-5.587392342818102
 30
0.0
 10
37.05803668846294
 20
-5.595864456696933
 30
0.0
  0
SPLINE
  5
194
330
1F
100
AcDbEntity
  8
0
  6
Continuous
 62
     1
370
    15
100
AcDbSpline
210
0.0
220
0.0
230
1.0
 70
     8
 71
     3
 72
    10
 73
     6
 74
     0
 42
0.000000001
 43
0.00000001
 40
0.0
 40
0.0
 40
0.0
 40
0.0
 40
0.5
 40
0.5
 40
1.0
 40
1.0
 40
1.0
 40
1.0
 10
36.2497701501792
 20
-5.17033368616443
 30
0.0
 10
36.35211142024242
 20
-5.152680015437035
 30
0.0
 10
36.46867728648587
 20
-5.179720313128794
 30
0.0
 10
36.69219879799469
 20
-5.286967911561497
 30
0.0
 10
36.80158803541008
 20
-5.368131325607863
 30
0.0
 10
36.89615622253978
 20
-5.475856547106172
 30
0.0
  0
SPLINE
  5
195
330
1F
100
AcDbEntity
  8
0
  6
Continuous
 62
     1
370
    15
100
AcDbSpline
210
0.0
220
0.0
230
1.0
 70
     8
 71
     3
 72
    14
 73
    10
 74
     0
 42
0.000000001
 43
0.00000001
 40
0.0000000000000046
 40
0.0000000000000046
 40
0.0000000000000046
 40
0.0000000000000046
 40
0.0000761150250648
 40
0.0000761150250648
 40
0.0000761150250648
 40
0.0001472129404837
 40
0.0001472129404837
 40
0.0001472129404837
 40
0.0002209470685745
 40
0.0002209470685745
 40
0.0002209470685745
 40
0.0002209470685745
 10
36.08848179386345
 20
-5.134737825066276
 30
0.0
 10
36.10735715349045
 20
-5.144663688926912
 30
0.0
 10
36.12642273712549
 20
-5.15291129597373
 30
0.0
 10
36.14531891059114
 20
-5.159156472989478
 30
0.0
 10
36.16296878257688
 20
-5.164989747914513
 30
0.0
 10
36.1805965342895
 20
-5.169116659686543
 30
0.0
 10
36.19780684453328
 20
-5.171165246405277
 30
0.0
 10
36.21562951403765
 20
-5.17328672379423
 30
0.0
 10
36.23318517626569
 20
-5.173194562019416
 30
0.0
 10
36.24977015017919
 20
-5.170333686164442
 30
0.0
  0
SPLINE
  5
196
330
1F
100
AcDbEntity
  8
0
  6
Continuous
 62
     1
370
    15
100
AcDbSpline
210
0.0
220
0.0
230
1.0
 70
     8
 71
     3
 72
    10
 73
     6
 74
     0
 42
0.000000001
 43
0.00000001
 40
0.0
 40
0.0
 40
0.0
 40
0.0
 40
0.5
 40
0.5
 40
1.0
 40
1.0
 40
1.0
 40
1.0
 10
36.08848179385975
 20
-5.1347378250646
 30
0.0
 10
35.90003600148724
 20
-5.035641049309745
 30
0.0
 10
35.71157870702579
 20
-4.93104711707969
 30
0.0
 10
35.33644047753275
 20
-4.711914567919989
 30
0.0
 10
35.15050093236584
 20
-4.597544961643341
 30
0.0
 10
34.96302863067016
 20
-4.478095180257258
 30
0.0
  0
SPLINE
  5
197
330
1F
100
AcDbEntity
  8
0
  6
Continuous
 62
     1
370
    15
100
AcDbSpline
210
0.0
220
0.0
230
1.0
 70
     8
 71
     3
 72
    14
 73
    10
 74
     0
 42
0.000000001
 43
0.00000001
 40
0.0
 40
0.0
 40
0.0
 40
0.0
 40
0.0000713364204984
 40
0.0000713364204984
 40
0.0000713364204984
 40
0.0001500109725992
 40
0.0001500109725992
 40
0.0001500109725992
 40
0.000230966235269
 40
0.000230966235269
 40
0.000230966235269
 40
0.000230966235269
 10
34.80088943640681
 20
-4.331825381736297
 30
0.0
 10
34.81580530611531
 20
-4.35021496446738
 30
0.0
 10
34.83161485360186
 20
-4.367766701453732
 30
0.0
 10
34.84790040783852
 20
-4.384228866671492
 30
0.0
 10
34.86585699388026
 20
-4.402380185433543
 30
0.0
 10
34.88452859055652
 20
-4.41934603989356
 30
0.0
 10
34.90349692645932
 20
-4.434850304751036
 30
0.0
 10
34.92301425450983
 20
-4.450803302681696
 30
0.0
 10
34.94298956641956
 20
-4.465327097600423
 30
0.0
 10
34.96302863066991
 20
-4.478095180257106
 30
0.0
  0
SPLINE
  5
198
330
1F
100
AcDbEntity
  8
0
  6
Continuous
 62
     1
370
    15
100
AcDbSpline
210
0.0
220
0.0
230
1.0
 70
     8
 71
     3
 72
    10
 73
     6
 74
     0
 42
0.000000001
 43
0.00000001
 40
0.0
 40
0.0
 40
0.0
 40
0.0
 40
0.5
 40
0.5
 40
1.0
 40
1.0
 40
1.0
 40
1.0
 10
34.15400992812447
 20
-3.897030695982013
 30
0.0
 10
34.25632112509671
 20
-3.912432688355634
 30
0.0
 10
34.37289804772635
 20
-3.966642543220059
 30
0.0
 10
34.59659546576281
 20
-4.117217752046884
 30
0.0
 10
34.70614672480963
 20
-4.215018318713151
 30
0.0
 10
34.80088943640675
 20
-4.331825381736264
 30
0.0
  0
SPLINE
  5
199
330
1F
100
AcDbEntity
  8
0
  6
Continuous
 62
     1
370
    15
100
AcDbSpline
210
0.0
220
0.0
230
1.0
 70
     8
 71
     3
 72
    14
 73
    10
 74
     0
 42
0.000000001
 43
0.00000001
 40
0.0000000000000044
 40
0.0000000000000044
 40
0.0000000000000044
 40
0.0000000000000044
 40
0.0000761842582467
 40
0.0000761842582467
 40
0.0000761842582467
 40
0.0001472971260821
 40
0.0001472971260821
 40
0.0001472971260821
 40
0.0002210458815848
 40
0.0002210458815848
 40
0.0002210458815848
 40
0.0002210458815848
 10
33.99270456802508
 20
-3.821051358338194
 30
0.0
 10
34.01158465076581
 20
-3.834589102840997
 30
0.0
 10
34.03065698504125
 20
-3.846848166446568
 30
0.0
 10
34.04956186365731
 20
-3.857444021018158
 30
0.0
 10
34.06720758574986
 20
-3.867334140330772
 30
0.0
 10
34.08483299088773
 20
-3.875844854158738
 30
0.0
 10
34.10204289545792
 20
-3.882542147317987
 30
0.0
 10
34.11986490581603
 20
-3.889477643535797
 30
0.0
 10
34.13742198492584
 20
-3.894533536509735
 30
0.0
 10
34.15400992812444
 20
-3.897030695982008
 30
0.0
  0
SPLINE
  5
19A
330
1F
100
AcDbEntity
  8
0
  6
Continuous
 62
     1
370
    15
100
AcDbSpline
210
0.0
220
0.0
230
1.0
 70
     8
 71
     3
 72
     8
 73
     4
 74
     0
 42
0.000000001
 43
0.00000001
 40
0.0
 40
0.0
 40
0.0
 40
0.0
 40
1.0
 40
1.0
 40
1.0
 40
1.0
 10
33.99270456802153
 20
-3.821051358336045
 30
0.0
 10
33.61686396716745
 20
-3.551559211607096
 30
0.0
 10
33.24505509758628
 20
-3.266774380057824
 30
0.0
 10
32.86860023346865
 20
-2.968107376204552
 30
0.0
  0
SPLINE
  5
19B
330
1F
100
AcDbEntity
  8
0
  6
Continuous
 62
     1
370
    15
100
AcDbSpline
210
0.0
220
0.0
230
1.0
 70
     8
 71
     3
 72
    14
 73
    10
 74
     0
 42
0.000000001
 43
0.00000001
 40
0.0000000000000001
 40
0.0000000000000001
 40
0.0000000000000001
 40
0.0000000000000001
 40
0.0000710478622141
 40
0.0000710478622141
 40
0.0000710478622141
 40
0.000149497346702
 40
0.000149497346702
 40
0.000149497346702
 40
0.0002302368887142
 40
0.0002302368887142
 40
0.0002302368887142
 40
0.0002302368887142
 10
32.70684514825235
 20
-2.808869562334193
 30
0.0
 10
32.72170124242959
 20
-2.827013934980952
 30
0.0
 10
32.7374504752144
 20
-2.844869707439414
 30
0.0
 10
32.75367784082479
 20
-2.862116104357583
 30
0.0
 10
32.77159125827688
 20
-2.881154432263494
 30
0.0
 10
32.79022371632311
 20
-2.899596031732989
 30
0.0
 10
32.80915639865707
 20
-2.917090557103169
 30
0.0
 10
32.82864072018589
 20
-2.935094818268809
 30
0.0
 10
32.84858758318538
 20
-2.952229992568464
 30
0.0
 10
32.86860023346837
 20
-2.968107376204343
 30
0.0
  0
SPLINE
  5
19C
330
1F
100
AcDbEntity
  8
0
  6
Continuous
 62
     1
370
    15
100
AcDbSpline
210
0.0
220
0.0
230
1.0
 70
     8
 71
     3
 72
    10
 73
     6
 74
     0
 42
0.000000001
 43
0.00000001
 40
0.0
 40
0.0
 40
0.0
 40
0.0
 40
0.5
 40
0.5
 40
1.0
 40
1.0
 40
1.0
 40
1.0
 10
32.06074781532636
 20
-2.282748464055449
 30
0.0
 10
32.16285432748714
 20
-2.329971351604803
 30
0.0
 10
32.27921203324374
 20
-2.406638925515682
 30
0.0
 10
32.50266171760383
 20
-2.587377356390698
 30
0.0
 10
32.61217337853181
 20
-2.693242948202409
 30
0.0
 10
32.70684514825228
 20
-2.808869562334183
 30
0.0
  0
SPLINE
  5
19D
330
1F
100
AcDbEntity
  8
0
  6
Continuous
 62
     1
370
    15
100
AcDbSpline
210
0.0
220
0.0
230
1.0
 70
     8
 71
     3
 72
    14
 73
    10
 74
     0
 42
0.000000001
 43
0.00000001
 40
0.0000000000000052
 40
0.0000000000000052
 40
0.0000000000000052
 40
0.0000000000000052
 40
0.0000764291295758
 40
0.0000764291295758
 40
0.0000764291295758
 40
0.0001475827744863
 40
0.0001475827744863
 40
0.0001475827744863
 40
0.0002213684454117
 40
0.0002213684454117
 40
0.0002213684454117
 40
0.0002213684454117
 10
31.89946641047293
 20
-2.172635199367102
 30
0.0
 10
31.91836871551751
 20
-2.18867195407335
 30
0.0
 10
31.93746571994694
 20
-2.20394021641605
 30
0.0
 10
31.95639742321984
 20
-2.218026534038188
 30
0.0
 10
31.97402189747385
 20
-2.231140195217341
 30
0.0
 10
31.99162820261575
 20
-2.24332202477757
 30
0.0
 10
32.00882248867681
 20
-2.254113580098906
 30
0.0
 10
32.02662698638368
 20
-2.265288119203928
 30
0.0
 10
32.04416991928551
 20
-2.275081410270374
 30
0.0
 10
32.06074781532634
 20
-2.282748464055426
 30
0.0
  0
SPLINE
  5
19E
330
1F
100
AcDbEntity
  8
0
  6
Continuous
 62
     1
370
    15
100
AcDbSpline
210
0.0
220
0.0
230
1.0
 70
     8
 71
     3
 72
     8
 73
     4
 74
     0
 42
0.000000001
 43
0.00000001
 40
0.0
 40
0.0
 40
0.0
 40
0.0
 40
1.0
 40
1.0
 40
1.0
 40
1.0
 10
31.89946641047538
 20
-2.172635199369638
 30
0.0
 10
31.52643699254393
 20
-1.856156269444461
 30
0.0
 10
31.1503954455184
 20
-1.52955344490658
 30
0.0
 10
30.77420226813178
 20
-1.19772804950452
 30
0.0
  0
SPLINE
  5
19F
330
1F
100
AcDbEntity
  8
0
  6
Continuous
 62
     1
370
    15
100
AcDbSpline
210
0.0
220
0.0
230
1.0
 70
     8
 71
     3
 72
    14
 73
    10
 74
     0
 42
0.000000001
 43
0.00000001
 40
0.0000000000000001
 40
0.0000000000000001
 40
0.0000000000000001
 40
0.0000000000000001
 40
0.0000713347125585
 40
0.0000713347125585
 40
0.0000713347125585
 40
0.0001499158836148
 40
0.0001499158836148
 40
0.0001499158836148
 40
0.0002307768027235
 40
0.0002307768027235
 40
0.0002307768027235
 40
0.0002307768027235
 10
30.61207378777167
 20
-1.038538995738103
 30
0.0
 10
30.6269921689952
 20
-1.05499899567618
 30
0.0
 10
30.64280653166042
 20
-1.071739412850334
 30
0.0
 10
30.65910033352762
 20
-1.088397586680299
 30
0.0
 10
30.6770451790198
 20
-1.106743725782572
 30
0.0
 10
30.69570768650918
 20
-1.125129629968029
 30
0.0
 10
30.71467117333451
 20
-1.143165614856436
 30
0.0
 10
30.73418380193313
 20
-1.161723883057823
 30
0.0
 10
30.75415902666249
 20
-1.180048684419032
 30
0.0
 10
30.77420226813152
 20
-1.197728049504289
 30
0.0
  0
SPLINE
  5
1A0
330
1F
100
AcDbEntity
  8
0
  6
Continuous
 62
     1
370
    15
100
AcDbSpline
210
0.0
220
0.0
230
1.0
 70
     8
 71
     3
 72
    10
 73
     6
 74
     0
 42
0.000000001
 43
0.00000001
 40
0.0
 40
0.0
 40
0.0
 40
0.0
 40
0.5
 40
0.5
 40
1.0
 40
1.0
 40
1.0
 40
1.0
 10
29.96499754410258
 20
-0.4641656833446804
 30
0.0
 10
30.06735781800729
 20
-0.5392485592605991
 30
0.0
 10
30.18373317274817
 20
-0.63242120227103
 30
0.0
 10
30.40741081614297
 20
-0.828617791584455
 30
0.0
 10
30.51713537929274
 20
-0.933789949962375
 30
0.0
 10
30.61207378777159
 20
-1.03853899573809
 30
0.0
  0
SPLINE
  5
1A1
330
1F
100
AcDbEntity
  8
0
  6
Continuous
 62
     1
370
    15
100
AcDbSpline
210
0.0
220
0.0
230
1.0
 70
     8
 71
     3
 72
    14
 73
    10
 74
     0
 42
0.000000001
 43
0.00000001
 40
0.0000000000000044
 40
0.0000000000000044
 40
0.0000000000000044
 40
0.0000000000000044
 40
0.0000764075587889
 40
0.0000764075587889
 40
0.0000764075587889
 40
0.0001475805888371
 40
0.0001475805888371
 40
0.0001475805888371
 40
0.0002213752343333
 40
0.0002213752343333
 40
0.0002213752343333
 40
0.0002213752343333
 10
29.80363766183561
 20
-0.3300117376756507
 30
0.0
 10
29.82256078472212
 20
-0.3470336570074462
 30
0.0
 10
29.84167225990691
 20
-0.3638758544227136
 30
0.0
 10
29.86061158813732
 20
-0.3801372436953914
 30
0.0
 10
29.87825304782518
 20
-0.3952842774144417
 30
0.0
 10
29.89587022386901
 20
-0.4100345309838496
 30
0.0
 10
29.91307085935325
 20
-0.4239483489764558
 30
0.0
 10
29.93087951762773
 20
-0.4383540045204541
 30
0.0
 10
29.94842113689131
 20
-0.4520066271194542
 30
0.0
 10
29.96499754410317
 20
-0.4641656833464711
 30
0.0
  0
SPLINE
  5
1A2
330
1F
100
AcDbEntity
  8
0
  6
Continuous
 62
     1
370
    15
100
AcDbSpline
210
0.0
220
0.0
230
1.0
 70
     8
 71
     3
 72
    14
 73
    10
 74
     0
 42
0.000000001
 43
0.00000001
 40
0.0000000000000001
 40
0.0000000000000001
 40
0.0000000000000001
 40
0.0000000000000001
 40
0.000071073196729
 40
0.000071073196729
 40
0.000071073196729
 40
0.0001496036380796
 40
0.0001496036380796
 40
0.0001496036380796
 40
0.0002304242653076
 40
0.0002304242653076
 40
0.0002304242653076
 40
0.0002304242653076
 10
24.32805374001252
 20
4.181162713633431
 30
0.0
 10
24.3429147896968
 20
4.177450385309383
 30
0.0
 10
24.35866879080896
 20
4.17207668484661
 30
0.0
 10
24.3749000445117
 20
4.165333805902576
 30
0.0
 10
24.39282983325409
 20
4.157885311954042
 30
0.0
 10
24.41147852641697
 20
4.148710659327627
 30
0.0
 10
24.4304264536629
 20
4.138119702230004
 30
0.0
 10
24.44992601653313
 20
4.12722040801695
 30
0.0
 10
24.46988701178666
 20
4.114741055280992
 30
0.0
 10
24.48991297615875
 20
4.100960185661
 30
0.0
  0
SPLINE
  5
1A3
330
1F
100
AcDbEntity
  8
0
  6
Continuous
 62
     1
370
    15
100
AcDbSpline
210
0.0
220
0.0
230
1.0
 70
     8
 71
     3
 72
    10
 73
     6
 74
     0
 42
0.000000001
 43
0.00000001
 40
0.0
 40
0.0
 40
0.0
 40
0.0
 40
0.5
 40
0.5
 40
1.0
 40
1.0
 40
1.0
 40
1.0
 10
23.68235079699776
 20
4.594496451107672
 30
0.0
 10
23.78441135131298
 20
4.483169424762917
 30
0.0
 10
23.90073437097623
 20
4.393905677059618
 30
0.0
 10
24.12406057897392
 20
4.255476180146402
 30
0.0
 10
24.23346292760667
 20
4.204791741162421
 30
0.0
 10
24.32805374000786
 20
4.181162713634524
 30
0.0
  0
SPLINE
  5
1A4
330
1F
100
AcDbEntity
  8
0
  6
Continuous
 62
     1
370
    15
100
AcDbSpline
210
0.0
220
0.0
230
1.0
 70
     8
 71
     3
 72
    14
 73
    10
 74
     0
 42
0.000000001
 43
0.00000001
 40
0.0000000000000029
 40
0.0000000000000029
 40
0.0000000000000029
 40
0.0000000000000029
 40
0.0000761925992821
 40
0.0000761925992821
 40
0.0000761925992821
 40
0.0001472997288441
 40
0.0001472997288441
 40
0.0001472997288441
 40
0.0002210458668074
 40
0.0002210458668074
 40
0.0002210458668074
 40
0.0002210458668074
 10
23.52119457260174
 20
4.726999277471867
 30
0.0
 10
23.54005554946509
 20
4.715602697943302
 30
0.0
 10
23.55910992810542
 20
4.702759272254058
 30
0.0
 10
23.57799846372572
 20
4.688645580521425
 30
0.0
 10
23.59562554767142
 20
4.675474457362068
 30
0.0
 10
23.61323367858992
 20
4.661102720630671
 30
0.0
 10
23.6304276163997
 20
4.645711973954889
 30
0.0
 10
23.64823381757731
 20
4.629773174209633
 30
0.0
 10
23.66577651516426
 20
4.612575576022328
 30
0.0
 10
23.68235079699775
 20
4.594496451107696
 30
0.0
  0
SPLINE
  5
1A5
330
1F
100
AcDbEntity
  8
0
  6
Continuous
 62
     1
370
    15
100
AcDbSpline
210
0.0
220
0.0
230
1.0
 70
     8
 71
     3
 72
    10
 73
     6
 74
     0
 42
0.000000001
 43
0.00000001
 40
0.0
 40
0.0
 40
0.0
 40
0.0
 40
0.5
 40
0.5
 40
1.0
 40
1.0
 40
1.0
 40
1.0
 10
23.52119457259931
 20
4.726999277472994
 30
0.0
 10
23.3340160132329
 20
4.840100277133835
 30
0.0
 10
23.14815030835841
 20
4.947956336460401
 30
0.0
 10
22.77304706037788
 20
5.153624007354476
 30
0.0
 10
22.58467599079922
 20
5.251252424529365
 30
0.0
 10
22.3963840238306
 20
5.343187547432733
 30
0.0
  0
SPLINE
  5
1A6
330
1F
100
AcDbEntity
  8
0
  6
Continuous
 62
     1
370
    15
100
AcDbSpline
210
0.0
220
0.0
230
1.0
 70
     8
 71
     3
 72
    14
 73
    10
 74
     0
 42
0.000000001
 43
0.00000001
 40
0.0000000000000001
 40
0.0000000000000001
 40
0.0000000000000001
 40
0.0000000000000001
 40
0.0000712827057678
 40
0.0000712827057678
 40
0.0000712827057678
 40
0.0001498439972301
 40
0.0001498439972301
 40
0.0001498439972301
 40
0.0002306868364684
 40
0.0002306868364684
 40
0.0002306868364684
 40
0.0002306868364684
 10
22.23428227300831
 20
5.379160431840391
 30
0.0
 10
22.24919348309383
 20
5.380884370896529
 30
0.0
 10
22.2650001714565
 20
5.380728343738882
 30
0.0
 10
22.28128587536398
 20
5.378906423450422
 30
0.0
 10
22.29923028332197
 20
5.37689894000919
 30
0.0
 10
22.31789247500712
 20
5.3728553453788
 30
0.0
 10
22.33685516855327
 20
5.366996429620407
 30
0.0
 10
22.35636755927013
 20
5.360967673569657
 30
0.0
 10
22.37634219561154
 20
5.352973137175031
 30
0.0
 10
22.39638402383191
 20
5.34318754743209
 30
0.0
  0
SPLINE
  5
1A7
330
1F
100
AcDbEntity
  8
0
  6
Continuous
 62
     1
370
    15
100
AcDbSpline
210
0.0
220
0.0
230
1.0
 70
     8
 71
     3
 72
    10
 73
     6
 74
     0
 42
0.000000001
 43
0.00000001
 40
0.0
 40
0.0
 40
0.0
 40
0.0
 40
0.5
 40
0.5
 40
1.0
 40
1.0
 40
1.0
 40
1.0
 10
21.58720283169334
 20
5.658668239110834
 30
0.0
 10
21.68943990180644
 20
5.553673638353229
 30
0.0
 10
21.8059010357258
 20
5.48172139330242
 30
0.0
 10
22.02964383085211
 20
5.389519501031069
 30
0.0
 10
22.13936557347771
 20
5.368186768102535
 30
0.0
 10
22.23428227300824
 20
5.37916043184031
 30
0.0
  0
SPLINE
  5
1A8
330
1F
100
AcDbEntity
  8
0
  6
Continuous
 62
     1
370
    15
100
AcDbSpline
210
0.0
220
0.0
230
1.0
 70
     8
 71
     3
 72
    14
 73
    10
 74
     0
 42
0.000000001
 43
0.00000001
 40
0.0000000000000045
 40
0.0000000000000045
 40
0.0000000000000045
 40
0.0000000000000045
 40
0.0000765876603303
 40
0.0000765876603303
 40
0.0000765876603303
 40
0.0001477988993475
 40
0.0001477988993475
 40
0.0001477988993475
 40
0.0002216249438809
 40
0.0002216249438809
 40
0.0002216249438809
 40
0.0002216249438809
 10
21.42578914309906
 20
5.766608823780762
 30
0.0
 10
21.4447418098563
 20
5.759370727213013
 30
0.0
 10
21.46388253155569
 20
5.750321139434724
 30
0.0
 10
21.48285028743046
 20
5.739523608861787
 30
0.0
 10
21.50048635609168
 20
5.729484150751236
 30
0.0
 10
21.51809763018917
 20
5.717861871823001
 30
0.0
 10
21.53529332026347
 20
5.704707598951509
 30
0.0
 10
21.5530949437248
 20
5.691089802192302
 30
0.0
 10
21.57063009448724
 20
5.67568797495106
 30
0.0
 10
21.58720283169303
 20
5.658668239111061
 30
0.0
  0
SPLINE
  5
1A9
330
1F
100
AcDbEntity
  8
0
  6
Continuous
 62
     1
370
    15
100
AcDbSpline
210
0.0
220
0.0
230
1.0
 70
     8
 71
     3
 72
     8
 73
     4
 74
     0
 42
0.000000001
 43
0.00000001
 40
0.0
 40
0.0
 40
0.0
 40
0.0
 40
1.0
 40
1.0
 40
1.0
 40
1.0
 10
21.42578914309548
 20
5.766608823781912
 30
0.0
 10
21.05274966868771
 20
5.909074038510571
 30
0.0
 10
20.67537445902951
 20
6.027677367024964
 30
0.0
 10
20.30079630039421
 20
6.120073810010033
 30
0.0
  0
SPLINE
  5
1AA
330
1F
100
AcDbEntity
  8
0
  6
Continuous
 62
     1
370
    15
100
AcDbSpline
210
0.0
220
0.0
230
1.0
 70
     8
 71
     3
 72
    14
 73
    10
 74
     0
 42
0.000000001
 43
0.00000001
 40
0.0000000000000001
 40
0.0000000000000001
 40
0.0000000000000001
 40
0.0000000000000001
 40
0.0000713035476269
 40
0.0000713035476269
 40
0.0000713035476269
 40
0.000149873903433
 40
0.000149873903433
 40
0.000149873903433
 40
0.0002307257132811
 40
0.0002307257132811
 40
0.0002307257132811
 40
0.0002307257132811
 10
20.13885458757649
 20
6.108571219593449
 30
0.0
 10
20.15374882313674
 20
6.11560551401367
 30
0.0
 10
20.16953865935443
 20
6.120708485678342
 30
0.0
 10
20.18580841877644
 20
6.123996272762234
 30
0.0
 10
20.20373210546478
 20
6.127618284868324
 30
0.0
 10
20.22237429757595
 20
6.129066662842044
 30
0.0
 10
20.24131869274123
 20
6.128455601224371
 30
0.0
 10
20.26081215115942
 20
6.127826829277252
 30
0.0
 10
20.28076950562162
 20
6.125013779302719
 30
0.0
 10
20.3007963003913
 20
6.120073810010747
 30
0.0
  0
SPLINE
  5
1AB
330
1F
100
AcDbEntity
  8
0
  6
Continuous
 62
     1
370
    15
100
AcDbSpline
210
0.0
220
0.0
230
1.0
 70
     8
 71
     3
 72
    10
 73
     6
 74
     0
 42
0.000000001
 43
0.00000001
 40
0.0
 40
0.0
 40
0.0
 40
0.0
 40
0.5
 40
0.5
 40
1.0
 40
1.0
 40
1.0
 40
1.0
 10
19.49292656445958
 20
6.227711857878789
 30
0.0
 10
19.59519872384157
 20
6.138553456632405
 30
0.0
 10
19.71166076982952
 20
6.090729110929128
 30
0.0
 10
19.93485676620732
 20
6.05366848884431
 30
0.0
 10
20.04416489078095
 20
6.063850884459163
 30
0.0
 10
20.13885458757644
 20
6.108571219593377
 30
0.0
  0
SPLINE
  5
1AC
330
1F
100
AcDbEntity
  8
0
  6
Continuous
 62
     1
370
    15
100
AcDbSpline
210
0.0
220
0.0
230
1.0
 70
     8
 71
     3
 72
    14
 73
    10
 74
     0
 42
0.000000001
 43
0.00000001
 40
0.0000000000000045
 40
0.0000000000000045
 40
0.0000000000000045
 40
0.0000000000000045
 40
0.0000759947694151
 40
0.0000759947694151
 40
0.0000759947694151
 40
0.0001470744488422
 40
0.0001470744488422
 40
0.0001470744488422
 40
0.0002207928151668
 40
0.0002207928151668
 40
0.0002207928151668
 40
0.0002207928151668
 10
19.33185011605192
 20
6.301075840864521
 30
0.0
 10
19.35068837326134
 20
6.298711872433596
 30
0.0
 10
19.36971516023404
 20
6.294362955818508
 30
0.0
 10
19.38857159672335
 20
6.287970362668469
 30
0.0
 10
19.40620757638071
 20
6.28199152128899
 30
0.0
 10
19.42382029757431
 20
6.274181437446178
 30
0.0
 10
19.44101440312242
 20
6.264457332602418
 30
0.0
 10
19.45882106830671
 20
6.254386795424128
 30
0.0
 10
19.47635941036965
 20
6.2421547031339
 30
0.0
 10
19.49292656445956
 20
6.227711857878804
 30
0.0
  0
LINE
  5
1AD
330
1F
100
AcDbEntity
  8
0
  6
Continuous
 62
     1
370
    15
100
AcDbLine
 10
19.33185017108919
 20
6.301075800023234
 30
0.0
 11
18.3433672077954
 21
6.354689712337411
 31
0.0
  0
LINE
  5
1AE
330
1F
100
AcDbEntity
  8
0
  6
Continuous
 62
     1
370
    15
100
AcDbLine
 10
17.89086923375728
 20
6.225849616042531
 30
0.0
 11
18.04531325027348
 21
6.303961968681968
 31
0.0
  0
SPLINE
  5
1AF
330
1F
100
AcDbEntity
  8
0
  6
Continuous
 62
     1
370
    15
100
AcDbSpline
210
0.0
220
0.0
230
1.0
 70
     8
 71
     3
 72
     9
 73
     5
 74
     0
 42
0.000000001
 43
0.00000001
 40
0.0
 40
0.0
 40
0.0
 40
0.0
 40
0.5718887954189567
 40
0.9999999999999999
 40
0.9999999999999999
 40
0.9999999999999999
 40
0.9999999999999999
 10
23.84789107739927
 20
4.972918073347962
 30
0.0
 10
23.78733750701135
 20
4.913732162708894
 30
0.0
 10
23.68145403653076
 20
4.810240170711203
 30
0.0
 10
23.56981190103677
 20
4.751563962020212
 30
0.0
 10
23.52201665192844
 20
4.726444019637264
 30
0.0
  0
SPLINE
  5
1B0
330
1F
100
AcDbEntity
  8
0
  6
Continuous
 62
     1
370
    15
100
AcDbSpline
210
0.0
220
0.0
230
1.0
 70
     8
 71
     3
 72
    14
 73
    10
 74
     0
 42
0.000000001
 43
0.00000001
 40
0.0000000000000015
 40
0.0000000000000015
 40
0.0000000000000015
 40
0.0000000000000015
 40
0.0000761701611535
 40
0.0000761701611535
 40
0.0000761701611535
 40
0.0001472864963958
 40
0.0001472864963958
 40
0.0001472864963958
 40
0.00022103527199
 40
0.00022103527199
 40
0.00022103527199
 40
0.00022103527199
 10
24.00922022774983
 20
5.098746283986991
 30
0.0
 10
23.99033287948933
 20
5.088584944639217
 30
0.0
 10
23.97125580015132
 20
5.07684986512807
 30
0.0
 10
23.95234886824295
 20
5.063684541339747
 30
0.0
 10
23.93469707313933
 20
5.051393197661647
 30
0.0
 10
23.91706800618712
 20
5.037767134021144
 30
0.0
 10
23.89985632387222
 20
5.022949323683854
 30
0.0
 10
23.8820332448854
 20
5.007605152253006
 30
0.0
 10
23.86447733072192
 20
4.99082317277225
 30
0.0
 10
23.84789091858427
 20
4.972918254606397
 30
0.0
  0
SPLINE
  5
1B1
330
1F
100
AcDbEntity
  8
0
  6
Continuous
 62
     1
370
    15
100
AcDbSpline
210
0.0
220
0.0
230
1.0
 70
     8
 71
     3
 72
     8
 73
     4
 74
     0
 42
0.000000001
 43
0.00000001
 40
0.0
 40
0.0
 40
0.0
 40
0.0
 40
1.0
 40
1.0
 40
1.0
 40
1.0
 10
25.13361429524349
 20
5.638025450786954
 30
0.0
 10
24.76030279496878
 20
5.481595951979538
 30
0.0
 10
24.38535938694007
 20
5.301108075900919
 30
0.0
 10
24.00922022775124
 20
5.098746283987506
 30
0.0
  0
SPLINE
  5
1B2
330
1F
100
AcDbEntity
  8
0
  6
Continuous
 62
     1
370
    15
100
AcDbSpline
210
0.0
220
0.0
230
1.0
 70
     8
 71
     3
 72
    14
 73
    10
 74
     0
 42
0.000000001
 43
0.00000001
 40
0.0
 40
0.0
 40
0.0
 40
0.0
 40
0.000071140044836
 40
0.000071140044836
 40
0.000071140044836
 40
0.0001497629566814
 40
0.0001497629566814
 40
0.0001497629566814
 40
0.0002306746448469
 40
0.0002306746448469
 40
0.0002306746448469
 40
0.0002306746448469
 10
25.29541050894043
 20
5.659538994350008
 30
0.0
 10
25.28055196423218
 20
5.662943910043224
 30
0.0
 10
25.26480202734094
 20
5.664436035188595
 30
0.0
 10
25.24857704006724
 20
5.664200998552019
 30
0.0
 10
25.23064989440832
 20
5.663941304294761
 30
0.0
 10
25.21200632483125
 20
5.661572868021142
 30
0.0
 10
25.19306610567603
 20
5.65728874728441
 30
0.0
 10
25.17357537996478
 20
5.652880106523225
 30
0.0
 10
25.15362632246879
 20
5.646411132413668
 30
0.0
 10
25.1336142952468
 20
5.638025450788337
 30
0.0
  0
SPLINE
  5
1B3
330
1F
100
AcDbEntity
  8
0
  6
Continuous
 62
     1
370
    15
100
AcDbSpline
210
0.0
220
0.0
230
1.0
 70
     8
 71
     3
 72
    10
 73
     6
 74
     0
 42
0.000000001
 43
0.00000001
 40
0.0
 40
0.0
 40
0.0
 40
0.0
 40
0.5
 40
0.5
 40
1.0
 40
1.0
 40
1.0
 40
1.0
 10
25.9412747500265
 20
5.890441636627258
 30
0.0
 10
25.83909364617627
 20
5.789634287843416
 30
0.0
 10
25.72266610205727
 20
5.724744574732507
 30
0.0
 10
25.49929139996213
 20
5.649322844074136
 30
0.0
 10
25.38993292230327
 20
5.637878673306441
 30
0.0
 10
25.29541050894045
 20
5.659538994349955
 30
0.0
  0
SPLINE
  5
1B4
330
1F
100
AcDbEntity
  8
0
  6
Continuous
 62
     1
370
    15
100
AcDbSpline
210
0.0
220
0.0
230
1.0
 70
     8
 71
     3
 72
    14
 73
    10
 74
     0
 42
0.000000001
 43
0.00000001
 40
0.0000000000000003
 40
0.0000000000000003
 40
0.0000000000000003
 40
0.0000000000000003
 40
0.0000760543210233
 40
0.0000760543210233
 40
0.0000760543210233
 40
0.0001471364999363
 40
0.0001471364999363
 40
0.0001471364999363
 40
0.0002208591191159
 40
0.0002208591191159
 40
0.0002208591191159
 40
0.0002208591191159
 10
26.10247912998907
 20
5.988287349784577
 30
0.0
 10
26.08362398398832
 20
5.982550320049185
 30
0.0
 10
26.06457757094082
 20
5.97494252846554
 30
0.0
 10
26.0456991123417
 20
5.965487419154351
 30
0.0
 10
26.0280557145505
 20
5.956650879144448
 30
0.0
 10
26.01043324726844
 20
5.946136980502955
 30
0.0
 10
25.99322766890339
 20
5.933955176743733
 30
0.0
 10
25.97540880437206
 20
5.921339157315188
 30
0.0
 10
25.95785614545503
 20
5.906800106533153
 30
0.0
 10
25.94127475002658
 20
5.890441636627328
 30
0.0
  0
SPLINE
  5
1B5
330
1F
100
AcDbEntity
  8
0
  6
Continuous
 62
     1
370
    15
100
AcDbSpline
210
0.0
220
0.0
230
1.0
 70
     8
 71
     3
 72
     8
 73
     4
 74
     0
 42
0.000000001
 43
0.00000001
 40
0.0
 40
0.0
 40
0.0
 40
0.0
 40
1.0
 40
1.0
 40
1.0
 40
1.0
 10
27.22763455872002
 20
6.25413079799103
 30
0.0
 10
26.85121271852875
 20
6.191653035514019
 30
0.0
 10
26.47917675588972
 20
6.102904626199869
 30
0.0
 10
26.10247912998953
 20
5.988287349784572
 30
0.0
  0
SPLINE
  5
1B6
330
1F
100
AcDbEntity
  8
0
  6
Continuous
 62
     1
370
    15
100
AcDbSpline
210
0.0
220
0.0
230
1.0
 70
     8
 71
     3
 72
    14
 73
    10
 74
     0
 42
0.000000001
 43
0.00000001
 40
0.0
 40
0.0
 40
0.0
 40
0.0
 40
0.0000712731269059
 40
0.0000712731269059
 40
0.0000712731269059
 40
0.0001498748993043
 40
0.0001498748993043
 40
0.0001498748993043
 40
0.0002307590192412
 40
0.0002307590192412
 40
0.0002307590192412
 40
0.0002307590192412
 10
27.38975745714685
 20
6.227874976949229
 30
0.0
 10
27.374847090667
 20
6.236455703969945
 30
0.0
 10
27.35904228616889
 20
6.243124032538332
 30
0.0
 10
27.34276006241593
 20
6.247963175719325
 30
0.0
 10
27.32480787339272
 20
6.253298639376724
 30
0.0
 10
27.3061389726283
 20
6.256452923055631
 30
0.0
 10
27.2871715615919
 20
6.257506003900111
 30
0.0
 10
27.26765434351929
 20
6.258589610326436
 30
0.0
 10
27.24767699827967
 20
6.257457402997635
 30
0.0
 10
27.22763455872336
 20
6.254130797991579
 30
0.0
  0
SPLINE
  5
1B7
330
1F
100
AcDbEntity
  8
0
  6
Continuous
 62
     1
370
    15
100
AcDbSpline
210
0.0
220
0.0
230
1.0
 70
     8
 71
     3
 72
    10
 73
     6
 74
     0
 42
0.000000001
 43
0.00000001
 40
0.0
 40
0.0
 40
0.0
 40
0.0
 40
0.5
 40
0.5
 40
1.0
 40
1.0
 40
1.0
 40
1.0
 10
28.03674984141709
 20
6.294478584985265
 30
0.0
 10
27.93447202387139
 20
6.211995570915141
 30
0.0
 10
27.81793061271873
 20
6.172449069497991
 30
0.0
 10
27.59419643292055
 20
6.15328305122954
 30
0.0
 10
27.48456996833247
 20
6.173311577871617
 30
0.0
 10
27.38975745714688
 20
6.227874976949175
 30
0.0
  0
SPLINE
  5
1B8
330
1F
100
AcDbEntity
  8
0
  6
Continuous
 62
     1
370
    15
100
AcDbSpline
210
0.0
220
0.0
230
1.0
 70
     8
 71
     3
 72
    14
 73
    10
 74
     0
 42
0.000000001
 43
0.00000001
 40
0.0000000000000118
 40
0.0000000000000118
 40
0.0000000000000118
 40
0.0000000000000118
 40
0.0000763992681047
 40
0.0000763992681047
 40
0.0000763992681047
 40
0.0001475513836001
 40
0.0001475513836001
 40
0.0001475513836001
 40
0.0002213344493081
 40
0.0002213344493081
 40
0.0002213344493081
 40
0.0002213344493081
 10
28.19812433229981
 20
6.355859417889977
 30
0.0
 10
28.17921321070564
 20
6.355037120932753
 30
0.0
 10
28.16010808415905
 20
6.352197415493586
 30
0.0
 10
28.14116919166036
 20
6.347240945412286
 30
0.0
 10
28.12353152167874
 20
6.342625016388251
 30
0.0
 10
28.10591282386837
 20
6.336139482267089
 30
0.0
 10
28.08870712594047
 20
6.327657572628413
 30
0.0
 10
28.07089101581094
 20
6.318874747493124
 30
0.0
 10
28.05333747092052
 20
6.307855852026665
 30
0.0
 10
28.03674984141714
 20
6.294478584985308
 30
0.0
  0
SPLINE
  5
1B9
330
1F
100
AcDbEntity
  8
0
  6
Continuous
 62
     1
370
    15
100
AcDbSpline
210
0.0
220
0.0
230
1.0
 70
     8
 71
     3
 72
    10
 73
     6
 74
     0
 42
0.000000001
 43
0.00000001
 40
0.0
 40
0.0
 40
0.0
 40
0.0
 40
0.5
 40
0.5
 40
1.0
 40
1.0
 40
1.0
 40
1.0
 10
29.32288426395543
 20
6.323930179315945
 30
0.0
 10
29.13461300761167
 20
6.342719208396272
 30
0.0
 10
28.94624778101108
 20
6.354786660414308
 30
0.0
 10
28.5711263551889
 20
6.365413967100589
 30
0.0
 10
28.38525160014482
 20
6.363996121056319
 30
0.0
 10
28.19812433229059
 20
6.355859417889561
 30
0.0
  0
SPLINE
  5
1BA
330
1F
100
AcDbEntity
  8
0
  6
Continuous
 62
     1
370
    15
100
AcDbSpline
210
0.0
220
0.0
230
1.0
 70
     8
 71
     3
 72
    14
 73
    10
 74
     0
 42
0.000000001
 43
0.00000001
 40
0.0
 40
0.0
 40
0.0
 40
0.0
 40
0.0000710835247237
 40
0.0000710835247237
 40
0.0000710835247237
 40
0.0001495765791249
 40
0.0001495765791249
 40
0.0001495765791249
 40
0.0002303590453556
 40
0.0002303590453556
 40
0.0002303590453556
 40
0.0002303590453556
 10
29.48472868551964
 20
6.252335179864584
 30
0.0
 10
29.46986664638695
 20
6.265314960461598
 30
0.0
 10
29.4541105662562
 20
6.276557934276823
 30
0.0
 10
29.43787559741523
 20
6.286036018800943
 30
0.0
 10
29.41995280703831
 20
6.296499464943929
 30
0.0
 10
29.40130994653931
 20
6.304893585049653
 30
0.0
 10
29.38236578608999
 20
6.3111790320679
 30
0.0
 10
29.36287008447866
 20
6.317647473880847
 30
0.0
 10
29.34291075012232
 20
6.321931583044154
 30
0.0
 10
29.3228842639588
 20
6.32393017931561
 30
0.0
  0
SPLINE
  5
1BB
330
1F
100
AcDbEntity
  8
0
  6
Continuous
 62
     1
370
    15
100
AcDbSpline
210
0.0
220
0.0
230
1.0
 70
     8
 71
     3
 72
    10
 73
     6
 74
     0
 42
0.000000001
 43
0.00000001
 40
0.0
 40
0.0
 40
0.0
 40
0.0
 40
0.5
 40
0.5
 40
1.0
 40
1.0
 40
1.0
 40
1.0
 10
30.13051794121603
 20
6.148395248708773
 30
0.0
 10
30.02849183533108
 20
6.09170222203463
 30
0.0
 10
29.91226124291901
 20
6.081013387241915
 30
0.0
 10
29.68892776466184
 20
6.119832978148324
 30
0.0
 10
29.57942746568869
 20
6.169629880919663
 30
0.0
 10
29.48472868551965
 20
6.252335179864543
 30
0.0
  0
SPLINE
  5
1BC
330
1F
100
AcDbEntity
  8
0
  6
Continuous
 62
     1
370
    15
100
AcDbSpline
210
0.0
220
0.0
230
1.0
 70
     8
 71
     3
 72
    14
 73
    10
 74
     0
 42
0.000000001
 43
0.00000001
 40
0.0000000000000004
 40
0.0000000000000004
 40
0.0000000000000004
 40
0.0000000000000004
 40
0.0000763712103044
 40
0.0000763712103044
 40
0.0000763712103044
 40
0.0001475361321711
 40
0.0001475361321711
 40
0.0001475361321711
 40
0.0002213242176782
 40
0.0002213242176782
 40
0.0002213242176782
 40
0.0002213242176782
 10
30.29170525718407
 20
6.167695440042912
 30
0.0
 10
30.27280527716358
 20
6.171895178913798
 30
0.0
 10
30.25371775069421
 20
6.174114580030814
 30
0.0
 10
30.23480265962911
 20
6.17414485900192
 30
0.0
 10
30.21717744548998
 20
6.174173073158956
 30
0.0
 10
30.1995769264905
 20
6.172299840716327
 30
0.0
 10
30.18239315591495
 20
6.16827775115697
 30
0.0
 10
30.16460152700731
 20
6.164113384287733
 30
0.0
 10
30.14707726107008
 20
6.157596795254623
 30
0.0
 10
30.130517941216
 20
6.14839524870877
 30
0.0
  0
SPLINE
  5
1BD
330
1F
100
AcDbEntity
  8
0
  6
Continuous
 62
     1
370
    15
100
AcDbSpline
210
0.0
220
0.0
230
1.0
 70
     8
 71
     3
 72
     8
 73
     4
 74
     0
 42
0.000000001
 43
0.00000001
 40
0.0
 40
0.0
 40
0.0
 40
0.0
 40
1.0
 40
1.0
 40
1.0
 40
1.0
 10
31.41647115247002
 20
5.841751817051303
 30
0.0
 10
31.04201532367545
 20
5.975504953851452
 30
0.0
 10
30.66471718258062
 20
6.084808967109211
 30
0.0
 10
30.29170525718454
 20
6.167695440042907
 30
0.0
  0
SPLINE
  5
1BE
330
1F
100
AcDbEntity
  8
0
  6
Continuous
 62
     1
370
    15
100
AcDbSpline
210
0.0
220
0.0
230
1.0
 70
     8
 71
     3
 72
    14
 73
    10
 74
     0
 42
0.000000001
 43
0.00000001
 40
0.0
 40
0.0
 40
0.0
 40
0.0
 40
0.0000714570887101
 40
0.0000714570887101
 40
0.0000714570887101
 40
0.0001500753753031
 40
0.0001500753753031
 40
0.0001500753753031
 40
0.0002309690405273
 40
0.0002309690405273
 40
0.0002309690405273
 40
0.0002309690405273
 10
31.57859661188694
 20
5.730896871644302
 30
0.0
 10
31.56366542333934
 20
5.747217659895728
 30
0.0
 10
31.54783753683613
 20
5.762113191937328
 30
0.0
 10
31.53152957086084
 20
5.775449222477584
 30
0.0
 10
31.51359125970952
 20
5.790118486916636
 30
0.0
 10
31.49493621344456
 20
5.803013696407307
 30
0.0
 10
31.47597949914485
 20
5.813981631266514
 30
0.0
 10
31.45647517505861
 20
5.825266401014501
 30
0.0
 10
31.43650794381615
 20
5.834594808165444
 30
0.0
 10
31.41647115247336
 20
5.841751817050116
 30
0.0
  0
SPLINE
  5
1BF
330
1F
100
AcDbEntity
  8
0
  6
Continuous
 62
     1
370
    15
100
AcDbSpline
210
0.0
220
0.0
230
1.0
 70
     8
 71
     3
 72
    10
 73
     6
 74
     0
 42
0.000000001
 43
0.00000001
 40
0.0
 40
0.0
 40
0.0
 40
0.0
 40
0.5
 40
0.5
 40
1.0
 40
1.0
 40
1.0
 40
1.0
 10
32.22572617469066
 20
5.46448712456632
 30
0.0
 10
32.12323616303154
 20
5.438216051301863
 30
0.0
 10
32.00657038425239
 20
5.457676166631521
 30
0.0
 10
31.78298335602303
 20
5.551788658279189
 30
0.0
 10
31.67347815468884
 20
5.627184996055666
 30
0.0
 10
31.57859661188697
 20
5.730896871644243
 30
0.0
  0
SPLINE
  5
1C0
330
1F
100
AcDbEntity
  8
0
  6
Continuous
 62
     1
370
    15
100
AcDbSpline
210
0.0
220
0.0
230
1.0
 70
     8
 71
     3
 72
    14
 73
    10
 74
     0
 42
0.000000001
 43
0.00000001
 40
0.0000000000000058
 40
0.0000000000000058
 40
0.0000000000000058
 40
0.0000000000000058
 40
0.0000762686863299
 40
0.0000762686863299
 40
0.0000762686863299
 40
0.0001474057160736
 40
0.0001474057160736
 40
0.0001474057160736
 40
0.0002211710484001
 40
0.0002211710484001
 40
0.0002211710484001
 40
0.0002211710484001
 10
32.38710281125201
 20
5.440224811061036
 30
0.0
 10
32.36819621246295
 20
5.449049417207323
 30
0.0
 10
32.34910033268934
 20
5.456108452794814
 30
0.0
 10
32.33017540364587
 20
5.461098720489473
 30
0.0
 10
32.31252437286327
 20
5.465753077105004
 30
0.0
 10
32.29489665398107
 20
5.468639983780501
 30
0.0
 10
32.27768607664436
 20
5.46941042492185
 30
0.0
 10
32.25986528173347
 20
5.470208182794946
 30
0.0
 10
32.24231165102938
 20
5.468738448738958
 30
0.0
 10
32.22572617469072
 20
5.464487124566346
 30
0.0
  0
SPLINE
  5
1C1
330
1F
100
AcDbEntity
  8
0
  6
Continuous
 62
     1
370
    15
100
AcDbSpline
210
0.0
220
0.0
230
1.0
 70
     8
 71
     3
 72
     8
 73
     4
 74
     0
 42
0.000000001
 43
0.00000001
 40
0.0
 40
0.0
 40
0.0
 40
0.0
 40
1.0
 40
1.0
 40
1.0
 40
1.0
 10
33.51208890828195
 20
4.848008348761848
 30
0.0
 10
33.14004563406958
 20
5.066201199544253
 30
0.0
 10
32.76267346180384
 20
5.264928180068484
 30
0.0
 10
32.38710281126056
 20
5.440224811057266
 30
0.0
  0
LINE
  5
1C2
330
1F
100
AcDbEntity
  8
0
  6
Continuous
 62
     1
370
    15
100
AcDbLine
 10
33.51208946108819
 20
4.84800815831796
 30
0.0
 11
33.5128084421158
 21
4.847586269191659
 31
0.0
  0
SPLINE
  5
1C3
330
1F
100
AcDbEntity
  8
0
  6
Continuous
 62
     1
370
    15
100
AcDbSpline
210
0.0
220
0.0
230
1.0
 70
     8
 71
     3
 72
    14
 73
    10
 74
     0
 42
0.000000001
 43
0.00000001
 40
0.0
 40
0.0
 40
0.0
 40
0.0
 40
0.000071327989114
 40
0.000071327989114
 40
0.000071327989114
 40
0.0001500622819571
 40
0.0001500622819571
 40
0.0001500622819571
 40
0.0002301110114338
 40
0.0002301110114338
 40
0.0002301110114338
 40
0.0002301110114338
 10
33.67404625566463
 20
4.707408483375494
 30
0.0
 10
33.6591537573376
 20
4.725577781303167
 30
0.0
 10
33.6433695314073
 20
4.742774050035253
 30
0.0
 10
33.62711121501898
 20
4.75876847530222
 30
0.0
 10
33.60916898579099
 20
4.776419481572226
 30
0.0
 10
33.59051309000785
 20
4.792742395809032
 30
0.0
 10
33.57156225076001
 20
4.807485340626436
 30
0.0
 10
33.55229582651201
 20
4.822473797116524
 30
0.0
 10
33.53258763414915
 20
4.835940274974304
 30
0.0
 10
33.51280884058421
 20
4.847585303890323
 30
0.0
  0
SPLINE
  5
1C4
330
1F
100
AcDbEntity
  8
0
  6
Continuous
 62
     1
370
    15
100
AcDbSpline
210
0.0
220
0.0
230
1.0
 70
     8
 71
     3
 72
    10
 73
     6
 74
     0
 42
0.000000001
 43
0.00000001
 40
0.0
 40
0.0
 40
0.0
 40
0.0
 40
0.5
 40
0.5
 40
1.0
 40
1.0
 40
1.0
 40
1.0
 10
34.31985417917409
 20
4.304237422363849
 30
0.0
 10
34.21765836519891
 20
4.310657924571383
 30
0.0
 10
34.1012070421001
 20
4.357877805838634
 30
0.0
 10
33.87786230876139
 20
4.497959453672189
 30
0.0
 10
33.76855805438642
 20
4.592101233312589
 30
0.0
 10
33.67404625566466
 20
4.707408483375454
 30
0.0
  0
SPLINE
  5
1C5
330
1F
100
AcDbEntity
  8
0
  6
Continuous
 62
     1
370
    15
100
AcDbSpline
210
0.0
220
0.0
230
1.0
 70
     8
 71
     3
 72
    14
 73
    10
 74
     0
 42
0.000000001
 43
0.00000001
 40
0.0000000000000002
 40
0.0000000000000002
 40
0.0000000000000002
 40
0.0000000000000002
 40
0.0000759143268374
 40
0.0000759143268374
 40
0.0000759143268374
 40
0.000146970624149
 40
0.000146970624149
 40
0.000146970624149
 40
0.0002206712499139
 40
0.0002206712499139
 40
0.0002206712499139
 40
0.0002206712499139
 10
34.48093154361602
 20
4.238814563241451
 30
0.0
 10
34.46210686769768
 20
4.251437325513732
 30
0.0
 10
34.44309196080071
 20
4.262666549425678
 30
0.0
 10
34.42424546016669
 20
4.272132694831657
 30
0.0
 10
34.40660602635942
 20
4.280992559511124
 30
0.0
 10
34.38898816284373
 20
4.288370395035875
 30
0.0
 10
34.37178843955206
 20
4.293845123797185
 30
0.0
 10
34.35397447900044
 20
4.29951536630812
 30
0.0
 10
34.33642791572768
 20
4.303196169224496
 30
0.0
 10
34.31985417917414
 20
4.304237422363841
 30
0.0
  0
SPLINE
  5
1C6
330
1F
100
AcDbEntity
  8
0
  6
Continuous
 62
     1
370
    15
100
AcDbSpline
210
0.0
220
0.0
230
1.0
 70
     8
 71
     3
 72
     8
 73
     4
 74
     0
 42
0.000000001
 43
0.00000001
 40
0.0
 40
0.0
 40
0.0
 40
0.0
 40
1.0
 40
1.0
 40
1.0
 40
1.0
 10
35.60548662553263
 20
3.43179252542476
 30
0.0
 10
35.23001484141676
 20
3.71664729261973
 30
0.0
 10
34.85761883729491
 20
3.986229383037621
 30
0.0
 10
34.48093154361609
 20
4.23881456324171
 30
0.0
  0
SPLINE
  5
1C7
330
1F
100
AcDbEntity
  8
0
  6
Continuous
 62
     1
370
    15
100
AcDbSpline
210
0.0
220
0.0
230
1.0
 70
     8
 71
     3
 72
    14
 73
    10
 74
     0
 42
0.000000001
 43
0.00000001
 40
0.0
 40
0.0
 40
0.0
 40
0.0
 40
0.0000712850575427
 40
0.0000712850575427
 40
0.0000712850575427
 40
0.0001499054941262
 40
0.0001499054941262
 40
0.0001499054941262
 40
0.0002308080335302
 40
0.0002308080335302
 40
0.0002308080335302
 40
0.0002308080335302
 10
35.76757849458652
 20
3.274398484086994
 30
0.0
 10
35.75266990357544
 20
3.292809953888817
 30
0.0
 10
35.73686744308052
 20
3.310779883211723
 30
0.0
 10
35.72058828305295
 20
3.328003289014798
 30
0.0
 10
35.70263820972973
 20
3.346994526678005
 30
0.0
 10
35.68397224155762
 20
3.365223393964821
 30
0.0
 10
35.66500862840595
 20
3.382357845099053
 30
0.0
 10
35.64549548913144
 20
3.399988817039908
 30
0.0
 10
35.62552322759463
 20
3.416591591939839
 30
0.0
 10
35.60548662553595
 20
3.431792525422241
 30
0.0
  0
SPLINE
  5
1C8
330
1F
100
AcDbEntity
  8
0
  6
Continuous
 62
     1
370
    15
100
AcDbSpline
210
0.0
220
0.0
230
1.0
 70
     8
 71
     3
 72
    10
 73
     6
 74
     0
 42
0.000000001
 43
0.00000001
 40
0.0
 40
0.0
 40
0.0
 40
0.0
 40
0.5
 40
0.5
 40
1.0
 40
1.0
 40
1.0
 40
1.0
 10
36.41454114436694
 20
2.768333332798244
 30
0.0
 10
36.31223571055559
 20
2.807253466465585
 30
0.0
 10
36.1956702765578
 20
2.878501250120387
 30
0.0
 10
35.97194410866559
 20
3.052697283331454
 30
0.0
 10
35.86235129401588
 20
3.157358145839681
 30
0.0
 10
35.76757849458654
 20
3.27439848408696
 30
0.0
  0
SPLINE
  5
1C9
330
1F
100
AcDbEntity
  8
0
  6
Continuous
 62
     1
370
    15
100
AcDbSpline
210
0.0
220
0.0
230
1.0
 70
     8
 71
     3
 72
    14
 73
    10
 74
     0
 42
0.000000001
 43
0.00000001
 40
0.0000000000000144
 40
0.0000000000000144
 40
0.0000000000000144
 40
0.0000000000000144
 40
0.000076320219625
 40
0.000076320219625
 40
0.000076320219625
 40
0.0001474555690759
 40
0.0001474555690759
 40
0.0001474555690759
 40
0.000221223564771
 40
0.000221223564771
 40
0.000221223564771
 40
0.000221223564771
 10
36.57592816274403
 20
2.666747759679083
 30
0.0
 10
36.55702271552247
 20
2.682213204416424
 30
0.0
 10
36.53792414220594
 20
2.696765162663702
 30
0.0
 10
36.51899260987516
 20
2.709995410000178
 30
0.0
 10
36.50134777088834
 20
2.722326455365615
 30
0.0
 10
36.48372267304121
 20
2.733596353471115
 30
0.0
 10
36.46651186062468
 20
2.743349864886198
 30
0.0
 10
36.4486898957828
 20
2.75344972149479
 30
0.0
 10
36.43113172594325
 20
2.762021765284048
 30
0.0
 10
36.414541144367
 20
2.768333332798226
 30
0.0
  0
SPLINE
  5
1CA
330
1F
100
AcDbEntity
  8
0
  6
Continuous
 62
     1
370
    15
100
AcDbSpline
210
0.0
220
0.0
230
1.0
 70
     8
 71
     3
 72
     8
 73
     4
 74
     0
 42
0.000000001
 43
0.00000001
 40
0.0
 40
0.0
 40
0.0
 40
0.0
 40
1.0
 40
1.0
 40
1.0
 40
1.0
 10
37.70121613929422
 20
1.71556375046305
 30
0.0
 10
37.32428522659406
 20
2.041758738667265
 30
0.0
 10
36.95151088224928
 20
2.359505422339215
 30
0.0
 10
36.57592816273018
 20
2.666747759690813
 30
0.0
  0
SPLINE
  5
1CB
330
1F
100
AcDbEntity
  8
0
  6
Continuous
 62
     1
370
    15
100
AcDbSpline
210
0.0
220
0.0
230
1.0
 70
     8
 71
     3
 72
    14
 73
    10
 74
     0
 42
0.000000001
 43
0.00000001
 40
0.0
 40
0.0
 40
0.0
 40
0.0
 40
0.0000711485913417
 40
0.0000711485913417
 40
0.0000711485913417
 40
0.0001496814460181
 40
0.0001496814460181
 40
0.0001496814460181
 40
0.0002305012727563
 40
0.0002305012727563
 40
0.0002305012727563
 40
0.0002305012727563
 10
37.86318544860924
 20
1.555114405914918
 30
0.0
 10
37.84830431036691
 20
1.57214313834694
 30
0.0
 10
37.83252887920631
 20
1.58930013284257
 30
0.0
 10
37.81627504083362
 20
1.606231854696063
 30
0.0
 10
37.79833866515393
 20
1.624916285850416
 30
0.0
 10
37.77968328163608
 20
1.643469018917067
 30
0.0
 10
37.7607275784361
 20
1.661507214869077
 30
0.0
 10
37.7412208424737
 20
1.680069772109072
 30
0.0
 10
37.72125168174662
 20
1.698225046435978
 30
0.0
 10
37.70121613929756
 20
1.715563750460158
 30
0.0
  0
SPLINE
  5
1CC
330
1F
100
AcDbEntity
  8
0
  6
Continuous
 62
     1
370
    15
100
AcDbSpline
210
0.0
220
0.0
230
1.0
 70
     8
 71
     3
 72
    10
 73
     6
 74
     0
 42
0.000000001
 43
0.00000001
 40
0.0
 40
0.0
 40
0.0
 40
0.0
 40
0.5
 40
0.5
 40
1.0
 40
1.0
 40
1.0
 40
1.0
 10
38.50924745664626
 20
0.9904282215424962
 30
0.0
 10
38.40718582569937
 20
1.058437631630156
 30
0.0
 10
38.29084990055764
 20
1.147523694687911
 30
0.0
 10
38.06742028460649
 20
1.340690666581689
 30
0.0
 10
37.95790452901454
 20
1.446725796780133
 30
0.0
 10
37.86318544860926
 20
1.55511440591491
 30
0.0
  0
SPLINE
  5
1CD
330
1F
100
AcDbEntity
  8
0
  6
Continuous
 62
     1
370
    15
100
AcDbSpline
210
0.0
220
0.0
230
1.0
 70
     8
 71
     3
 72
    14
 73
    10
 74
     0
 42
0.000000001
 43
0.00000001
 40
0.0000000000000006
 40
0.0000000000000006
 40
0.0000000000000006
 40
0.0000000000000006
 40
0.0000763436261798
 40
0.0000763436261798
 40
0.0000763436261798
 40
0.0001474788669563
 40
0.0001474788669563
 40
0.0001474788669563
 40
0.0002212476993774
 40
0.0002212476993774
 40
0.0002212476993774
 40
0.0002212476993774
 10
38.67032428931994
 20
0.861554445641573
 30
0.0
 10
38.65144946854139
 20
0.8784700026373511
 30
0.0
 10
38.63239056342447
 20
0.895050934565529
 30
0.0
 10
38.61349481716775
 20
0.9108757364714305
 30
0.0
 10
38.59588876364283
 20
0.9256204470317462
 30
0.0
 10
38.57830030879914
 20
0.9398141348518794
 30
0.0
 10
38.56112325104671
 20
0.953006740787337
 30
0.0
 10
38.54333603279633
 20
0.9666679722070216
 30
0.0
 10
38.52580980000024
 20
0.9793917998164756
 30
0.0
 10
38.50924745664631
 20
0.9904282215424487
 30
0.0
  0
SPLINE
  5
1CE
330
1F
100
AcDbEntity
  8
0
  6
Continuous
 62
     1
370
    15
100
AcDbSpline
210
0.0
220
0.0
230
1.0
 70
     8
 71
     3
 72
     8
 73
     4
 74
     0
 42
0.000000001
 43
0.00000001
 40
0.0
 40
0.0
 40
0.0
 40
0.0
 40
1.0
 40
1.0
 40
1.0
 40
1.0
 10
39.79440305784052
 20
-0.1472891082079778
 30
0.0
 10
39.41926560757587
 20
0.1898713269460514
 30
0.0
 10
39.04220149868787
 20
0.5282792212409025
 30
0.0
 10
38.6703242893206
 20
0.8615544456414035
 30
0.0
  0
SPLINE
  5
1CF
330
1F
100
AcDbEntity
  8
0
  6
Continuous
 62
     1
370
    15
100
AcDbSpline
210
0.0
220
0.0
230
1.0
 70
     8
 71
     3
 72
    14
 73
    10
 74
     0
 42
0.000000001
 43
0.00000001
 40
0.0
 40
0.0
 40
0.0
 40
0.0
 40
0.000071344818498
 40
0.000071344818498
 40
0.000071344818498
 40
0.000149910480092
 40
0.000149910480092
 40
0.000149910480092
 40
0.0002307553797175
 40
0.0002307553797175
 40
0.0002307553797175
 40
0.0002307553797175
 10
39.95646071316057
 20
-0.297340140495246
 30
0.0
 10
39.94154644185159
 20
-0.2830853163594872
 30
0.0
 10
39.92573616999857
 20
-0.2681438696907988
 30
0.0
 10
39.90944611309325
 20
-0.2528886094277458
 30
0.0
 10
39.8915114491927
 20
-0.2360932128785871
 30
0.0
 10
39.87285920756953
 20
-0.2187901363274484
 30
0.0
 10
39.85390548213552
 20
-0.2013773686152552
 30
0.0
 10
39.83440294114976
 20
-0.1834604046302737
 30
0.0
 10
39.81443733919924
 20
-0.1652952204107274
 30
0.0
 10
39.79440305784357
 20
-0.1472891082107171
 30
0.0
  0
SPLINE
  5
1D0
330
1F
100
AcDbEntity
  8
0
  6
Continuous
 62
     1
370
    15
100
AcDbSpline
210
0.0
220
0.0
230
1.0
 70
     8
 71
     3
 72
    10
 73
     6
 74
     0
 42
0.000000001
 43
0.00000001
 40
0.0
 40
0.0
 40
0.0
 40
0.0
 40
0.5
 40
0.5
 40
1.0
 40
1.0
 40
1.0
 40
1.0
 10
40.60349579177658
 20
-0.8735873506355948
 30
0.0
 10
40.5010697599056
 20
-0.7824538065329265
 30
0.0
 10
40.38460379497074
 20
-0.6828983887130659
 30
0.0
 10
40.16105431658243
 20
-0.4866799746531079
 30
0.0
 10
40.05137248121947
 20
-0.3880553041169451
 30
0.0
 10
39.9564607131606
 20
-0.2973401404952392
 30
0.0
  0
SPLINE
  5
1D1
330
1F
100
AcDbEntity
  8
0
  6
Continuous
 62
     1
370
    15
100
AcDbSpline
210
0.0
220
0.0
230
1.0
 70
     8
 71
     3
 72
     8
 73
     4
 74
     0
 42
0.000000001
 43
0.00000001
 40
0.0
 40
0.0
 40
0.0
 40
0.0
 40
1.0
 40
1.0
 40
1.0
 40
1.0
 10
43.75000000000001
 20
-3.088929495015056
 30
0.0
 10
43.4059780179466
 20
-2.983388964141192
 30
0.0
 10
43.05540140387706
 20
-2.840838164257083
 30
0.0
 10
42.70132745048117
 20
-2.662141424520853
 30
0.0
  0
SPLINE
  5
1D2
330
1F
100
AcDbEntity
  8
0
  6
Continuous
 62
     1
370
    15
100
AcDbSpline
210
0.0
220
0.0
230
1.0
 70
     8
 71
     3
 72
    11
 73
     7
 74
     0
 42
0.000000001
 43
0.00000001
 40
0.0
 40
0.0
 40
0.0
 40
0.0
 40
0.2084648879240781
 40
0.46215176312268
 40
0.7227208244827508
 40
1.0
 40
1.0
 40
1.0
 40
1.0
 10
42.90504014492037
 20
-2.755007126667345
 30
0.0
 10
42.82210864018612
 20
-2.772778385868754
 30
0.0
 10
42.63825541908489
 20
-2.812175997882112
 30
0.0
 10
42.31593397398059
 20
-2.935543899470837
 30
0.0
 10
41.94956430851087
 20
-3.108546355056932
 30
0.0
 10
41.69527343201545
 20
-3.260176837068355
 30
0.0
 10
41.56417778134347
 20
-3.338347540535772
 30
0.0
  0
SPLINE
  5
1D3
330
1F
100
AcDbEntity
  8
0
  6
Continuous
 62
     1
370
    15
100
AcDbSpline
210
0.0
220
0.0
230
1.0
 70
     8
 71
     3
 72
    10
 73
     6
 74
     0
 42
0.000000001
 43
0.00000001
 40
0.0
 40
0.0
 40
0.0
 40
0.0
 40
0.5
 40
0.5
 40
1.0
 40
1.0
 40
1.0
 40
1.0
 10
43.75000000000001
 20
-3.699018386984203
 30
0.0
 10
43.37467247161653
 20
-3.700059782782837
 30
0.0
 10
43.0046277850625
 20
-3.671795337759613
 30
0.0
 10
42.27558552133969
 20
-3.553984122851883
 30
0.0
 10
41.91649465161679
 20
-3.464954880621643
 30
0.0
 10
41.56417781875516
 20
-3.338347597559337
 30
0.0
  0
LINE
  5
1D4
330
1F
100
AcDbEntity
  8
0
  6
Continuous
 62
     1
370
    15
100
AcDbLine
 10
43.74999931454659
 20
-4.791041256227338
 30
0.0
 11
43.74999931454659
 21
-3.699018272870028
 31
0.0
  0
SPLINE
  5
1D5
330
1F
100
AcDbEntity
  8
0
  6
Continuous
 62
     1
370
    15
100
AcDbSpline
210
0.0
220
0.0
230
1.0
 70
     8
 71
     3
 72
     8
 73
     4
 74
     0
 42
0.000000001
 43
0.00000001
 40
0.0
 40
0.0
 40
0.0
 40
0.0
 40
1.0
 40
1.0
 40
1.0
 40
1.0
 10
42.80802185597771
 20
-5.856850246793218
 30
0.0
 10
43.10999935517394
 20
-5.501313978853179
 30
0.0
 10
43.42037173780972
 20
-5.143649615965473
 30
0.0
 10
43.75000000000001
 20
-4.791041284005558
 30
0.0
  0
SPLINE
  5
1D6
330
1F
100
AcDbEntity
  8
0
  6
Continuous
 62
     1
370
    15
100
AcDbSpline
210
0.0
220
0.0
230
1.0
 70
     8
 71
     3
 72
     8
 73
     4
 74
     0
 42
0.000000001
 43
0.00000001
 40
0.0
 40
0.0
 40
0.0
 40
0.0
 40
1.0
 40
1.0
 40
1.0
 40
1.0
 10
42.53211633978379
 20
-6.025439453993
 30
0.0
 10
42.617746310261
 20
-5.944397570756703
 30
0.0
 10
42.7137982597563
 20
-5.890332490825051
 30
0.0
 10
42.80802185597817
 20
-5.856850246792947
 30
0.0
  0
SPLINE
  5
1D7
330
1F
100
AcDbEntity
  8
0
  6
Continuous
 62
     1
370
    15
100
AcDbSpline
210
0.0
220
0.0
230
1.0
 70
     8
 71
     3
 72
    14
 73
    10
 74
     0
 42
0.000000001
 43
0.00000001
 40
0.0000000000000031
 40
0.0000000000000031
 40
0.0000000000000031
 40
0.0000000000000031
 40
0.0000761760691214
 40
0.0000761760691214
 40
0.0000761760691214
 40
0.0001472889524211
 40
0.0001472889524211
 40
0.0001472889524211
 40
0.0002210389454861
 40
0.0002210389454861
 40
0.0002210389454861
 40
0.0002210389454861
 10
42.37089228511423
 20
-6.114269006471979
 30
0.0
 10
42.38975926719536
 20
-6.109810026642617
 30
0.0
 10
42.40881914472652
 20
-6.10342359783948
 30
0.0
 10
42.42771249537721
 20
-6.095100309301167
 30
0.0
 10
42.44534933537714
 20
-6.087330564752541
 30
0.0
 10
42.46296660499493
 20
-6.077816830549679
 30
0.0
 10
42.48016913164784
 20
-6.066531490060477
 30
0.0
 10
42.49798377692092
 20
-6.054844582569644
 30
0.0
 10
42.51553429795973
 20
-6.041133023544307
 30
0.0
 10
42.53211633978503
 20
-6.025439453992235
 30
0.0
  0
SPLINE
  5
1D8
330
1F
100
AcDbEntity
  8
0
  6
Continuous
 62
     1
370
    15
100
AcDbSpline
210
0.0
220
0.0
230
1.0
 70
     8
 71
     3
 72
    10
 73
     6
 74
     0
 42
0.000000001
 43
0.00000001
 40
0.0
 40
0.0
 40
0.0
 40
0.0
 40
0.5
 40
0.5
 40
1.0
 40
1.0
 40
1.0
 40
1.0
 10
42.37089228511122
 20
-6.114269006472379
 30
0.0
 10
42.18349325567489
 20
-6.158558468806909
 30
0.0
 10
41.99777091878654
 20
-6.196241560926906
 30
0.0
 10
41.62355588030492
 20
-6.258587241658543
 30
0.0
 10
41.43546727787342
 20
-6.283196454163836
 30
0.0
 10
41.24729185097439
 20
-6.301086926572941
 30
0.0
  0
LINE
  5
1D9
330
1F
100
AcDbEntity
  8
0
  6
Continuous
 62
     1
370
    15
100
AcDbLine
 10
43.74999931454659
 20
0.5820799830175997
 30
0.0
 11
43.74999931454659
 21
-3.088929576166713
 31
0.0
  0
LINE
  5
1DA
330
1F
100
AcDbEntity
  8
0
  6
Continuous
 62
     1
370
    15
100
AcDbLine
 10
42.64999932050706
 20
1.271554033904529
 30
0.0
 11
42.64999932050706
 21
1.390083690806484
 31
0.0
  0
SPLINE
  5
1DB
330
1F
100
AcDbEntity
  8
0
  6
Continuous
 62
     1
370
    15
100
AcDbSpline
210
0.0
220
0.0
230
1.0
 70
     8
 71
     3
 72
    12
 73
     8
 74
     0
 42
0.000000001
 43
0.00000001
 40
0.0
 40
0.0
 40
0.0
 40
0.0
 40
0.2499999999999999
 40
0.2499999999999999
 40
0.4999999999999999
 40
0.4999999999999999
 40
1.0
 40
1.0
 40
1.0
 40
1.0
 10
14.93176934287067
 20
-4.023011822343559
 30
0.0
 10
14.91347058316794
 20
-3.744001618889559
 30
0.0
 10
14.8954448413859
 20
-3.44666234004921
 30
0.0
 10
14.86067197453567
 20
-2.829653488126121
 30
0.0
 10
14.84340376265461
 20
-2.507122789351818
 30
0.0
 10
14.7892515470372
 20
-1.493534150288157
 30
0.0
 10
14.7514961862116
 20
-0.7646512051545479
 30
0.0
 10
14.71529295469151
 20
-0.044446638148004
 30
0.0
  0
SPLINE
  5
1DC
330
1F
100
AcDbEntity
  8
0
  6
Continuous
 62
     1
370
    15
100
AcDbSpline
210
0.0
220
0.0
230
1.0
 70
     8
 71
     3
 72
    12
 73
     8
 74
     0
 42
0.000000001
 43
0.00000001
 40
0.0
 40
0.0
 40
0.0
 40
0.0
 40
0.25
 40
0.25
 40
0.5
 40
0.5
 40
1.0
 40
1.0
 40
1.0
 40
1.0
 10
39.79440305784026
 20
-0.1472891082082549
 30
0.0
 10
39.77623326486638
 20
0.213141389842212
 30
0.0
 10
39.75848052465162
 20
0.5715534056130749
 30
0.0
 10
39.72413092655264
 20
1.272085291222942
 30
0.0
 10
39.70626497977497
 20
1.622729932522049
 30
0.0
 10
39.65165970959718
 20
2.652553288769965
 30
0.0
 10
39.61393331364463
 20
3.308028167117821
 30
0.0
 10
39.57808243521718
 20
3.877652235799045
 30
0.0
  0
SPLINE
  5
1DD
330
1F
100
AcDbEntity
  8
0
  6
Continuous
 62
     1
370
    15
100
AcDbSpline
210
0.0
220
0.0
230
1.0
 70
     8
 71
     3
 72
    12
 73
     8
 74
     0
 42
0.000000001
 43
0.00000001
 40
0.0
 40
0.0
 40
0.0
 40
0.0
 40
0.2500000000000001
 40
0.2500000000000001
 40
0.5
 40
0.5
 40
1.0
 40
1.0
 40
1.0
 40
1.0
 10
39.95646071316061
 20
-0.297340140495234
 30
0.0
 10
39.9381398543191
 20
0.0615167665082883
 30
0.0
 10
39.9201198994954
 20
0.4198981064908358
 30
0.0
 10
39.88541253573927
 20
1.120603960957381
 30
0.0
 10
39.86790027382661
 20
1.468501213487376
 30
0.0
 10
39.81340262285921
 20
2.498564023186587
 30
0.0
 10
39.77552125823713
 20
3.158618789622603
 30
0.0
 10
39.73932689886998
 20
3.735820557167223
 30
0.0
  0
SPLINE
  5
1DE
330
1F
100
AcDbEntity
  8
0
  6
Continuous
 62
     1
370
    15
100
AcDbSpline
210
0.0
220
0.0
230
1.0
 70
     8
 71
     3
 72
    12
 73
     8
 74
     0
 42
0.000000001
 43
0.00000001
 40
0.0
 40
0.0
 40
0.0
 40
0.0
 40
0.4999999999999998
 40
0.4999999999999998
 40
0.7499999999999999
 40
0.7499999999999999
 40
1.0
 40
1.0
 40
1.0
 40
1.0
 10
38.67032428932042
 20
0.8615544456411094
 30
0.0
 10
38.63590459818447
 20
1.564072123737938
 30
0.0
 10
38.59895731606654
 20
2.267233197317315
 30
0.0
 10
38.54347660307424
 20
3.235963880315944
 30
0.0
 10
38.52503420347963
 20
3.544237481662571
 30
0.0
 10
38.48904229375701
 20
4.119031166860689
 30
0.0
 10
38.47194202373608
 20
4.38352307051789
 30
0.0
 10
38.45442483862006
 20
4.628389143018246
 30
0.0
  0
SPLINE
  5
1DF
330
1F
100
AcDbEntity
  8
0
  6
Continuous
 62
     1
370
    15
100
AcDbSpline
210
0.0
220
0.0
230
1.0
 70
     8
 71
     3
 72
    12
 73
     8
 74
     0
 42
0.000000001
 43
0.00000001
 40
0.0
 40
0.0
 40
0.0
 40
0.0
 40
0.5000000000000002
 40
0.5000000000000002
 40
0.7500000000000002
 40
0.7500000000000002
 40
1.0
 40
1.0
 40
1.0
 40
1.0
 10
16.05719743632494
 20
-4.749903617162707
 30
0.0
 10
16.02031888845943
 20
-4.270843166709422
 30
0.0
 10
15.98305133333223
 20
-3.695005030376929
 30
0.0
 10
15.93118323629561
 20
-2.765617412313507
 30
0.0
 10
15.91374270315034
 20
-2.440501560756019
 30
0.0
 10
15.8775555815839
 20
-1.761724874398939
 30
0.0
 10
15.85907608206623
 20
-1.409671180657323
 30
0.0
 10
15.84060878476527
 20
-1.052428446980839
 30
0.0
  0
SPLINE
  5
1E0
330
1F
100
AcDbEntity
  8
0
  6
Continuous
 62
     1
370
    15
100
AcDbSpline
210
0.0
220
0.0
230
1.0
 70
     8
 71
     3
 72
    12
 73
     8
 74
     0
 42
0.000000001
 43
0.00000001
 40
0.0
 40
0.0
 40
0.0
 40
0.0
 40
0.2499999999999999
 40
0.2499999999999999
 40
0.4999999999999998
 40
0.4999999999999998
 40
1.0
 40
1.0
 40
1.0
 40
1.0
 10
24.54485963226776
 20
0.2748319359949161
 30
0.0
 10
24.52695230183557
 20
0.6312560537462323
 30
0.0
 10
24.5099822839329
 20
0.9802483739216978
 30
0.0
 10
24.47450838058531
 20
1.675785836888063
 30
0.0
 10
24.4562095508158
 20
2.020864669444324
 30
0.0
 10
24.40078162677198
 20
3.024626210827124
 30
0.0
 10
24.36316666804823
 20
3.649851587605729
 30
0.0
 10
24.32805374001244
 20
4.181162713633364
 30
0.0
  0
SPLINE
  5
1E1
330
1F
100
AcDbEntity
  8
0
  6
Continuous
 62
     1
370
    15
100
AcDbSpline
210
0.0
220
0.0
230
1.0
 70
     8
 71
     3
 72
    12
 73
     8
 74
     0
 42
0.000000001
 43
0.00000001
 40
0.0
 40
0.0
 40
0.0
 40
0.0
 40
0.2500000000000001
 40
0.2500000000000001
 40
0.5000000000000002
 40
0.5000000000000002
 40
1.0
 40
1.0
 40
1.0
 40
1.0
 10
30.18234578400853
 20
-4.315366027968753
 30
0.0
 10
30.16383745891421
 20
-4.053562276193756
 30
0.0
 10
30.14543942049119
 20
-3.770868813761605
 30
0.0
 10
30.1096476075335
 20
-3.177222217132601
 30
0.0
 10
30.09268840959674
 20
-2.869104521231657
 30
0.0
 10
30.03952110420835
 20
-1.894976416356797
 30
0.0
 10
30.00180034487297
 20
-1.181691920917517
 30
0.0
 10
29.96499754410331
 20
-0.4641656833465705
 30
0.0
  0
SPLINE
  5
1E2
330
1F
100
AcDbEntity
  8
0
  6
Continuous
 62
     1
370
    15
100
AcDbSpline
210
0.0
220
0.0
230
1.0
 70
     8
 71
     3
 72
    12
 73
     8
 74
     0
 42
0.000000001
 43
0.00000001
 40
0.0
 40
0.0
 40
0.0
 40
0.0
 40
0.4999999999999999
 40
0.4999999999999999
 40
0.7499999999999998
 40
0.7499999999999998
 40
1.0
 40
1.0
 40
1.0
 40
1.0
 10
23.73716916662103
 20
1.00591882267255
 30
0.0
 10
23.70257499245345
 20
1.707061340689063
 30
0.0
 10
23.66526880042334
 20
2.406988825602074
 30
0.0
 10
23.60987139920701
 20
3.363105158435062
 30
0.0
 10
23.59151285683559
 20
3.666227596790889
 30
0.0
 10
23.55578907617552
 20
4.229341196253513
 30
0.0
 10
23.53886304441806
 20
4.487509442755417
 30
0.0
 10
23.52119457259829
 20
4.726999277472238
 30
0.0
  0
SPLINE
  5
1E3
330
1F
100
AcDbEntity
  8
0
  6
Continuous
 62
     1
370
    15
100
AcDbSpline
210
0.0
220
0.0
230
1.0
 70
     8
 71
     3
 72
    12
 73
     8
 74
     0
 42
0.000000001
 43
0.00000001
 40
0.0
 40
0.0
 40
0.0
 40
0.0
 40
0.5000000000000002
 40
0.5000000000000002
 40
0.7500000000000002
 40
0.7500000000000002
 40
1.0
 40
1.0
 40
1.0
 40
1.0
 10
23.89891995199209
 20
0.8479916730093187
 30
0.0
 10
23.86437283235665
 20
1.5470553617364
 30
0.0
 10
23.8273389527169
 20
2.246514061851354
 30
0.0
 10
23.77168010179903
 20
3.21017118439198
 30
0.0
 10
23.75317878444227
 20
3.516780261624592
 30
0.0
 10
23.71707744996103
 20
4.088290361602426
 30
0.0
 10
23.69993235587727
 20
4.351160650422988
 30
0.0
 10
23.68235079699775
 20
4.594496451107712
 30
0.0
  0
SPLINE
  5
1E4
330
1F
100
AcDbEntity
  8
0
  6
Continuous
 62
     1
370
    15
100
AcDbSpline
210
0.0
220
0.0
230
1.0
 70
     8
 71
     3
 72
    12
 73
     8
 74
     0
 42
0.000000001
 43
0.00000001
 40
0.0
 40
0.0
 40
0.0
 40
0.0
 40
0.5
 40
0.5
 40
0.7499999999999999
 40
0.7499999999999999
 40
1.0
 40
1.0
 40
1.0
 40
1.0
 10
38.50924745664626
 20
0.9904282215424847
 30
0.0
 10
38.4745510161134
 20
1.688109513024076
 30
0.0
 10
38.43711394946928
 20
2.384789914191732
 30
0.0
 10
38.38152368591187
 20
3.33616792164324
 30
0.0
 10
38.36310167714295
 20
3.637732106376384
 30
0.0
 10
38.32726058858078
 20
4.197754951389558
 30
0.0
 10
38.31028002683396
 20
4.454418755984147
 30
0.0
 10
38.29254212026594
 20
4.692443714603736
 30
0.0
  0
SPLINE
  5
1E5
330
1F
100
AcDbEntity
  8
0
  6
Continuous
 62
     1
370
    15
100
AcDbSpline
210
0.0
220
0.0
230
1.0
 70
     8
 71
     3
 72
    12
 73
     8
 74
     0
 42
0.000000001
 43
0.00000001
 40
0.0
 40
0.0
 40
0.0
 40
0.0
 40
0.5000000000000002
 40
0.5000000000000002
 40
0.7500000000000001
 40
0.7500000000000001
 40
1.0
 40
1.0
 40
1.0
 40
1.0
 10
30.8294062100398
 20
-4.716157312035183
 30
0.0
 10
30.79240761477487
 20
-4.240354837240211
 30
0.0
 10
30.75500290690551
 20
-3.667746053324714
 30
0.0
 10
30.70295238254816
 20
-2.743199189646927
 30
0.0
 10
30.68545705909052
 20
-2.419755713301643
 30
0.0
 10
30.64914638081492
 20
-1.744354300868898
 30
0.0
 10
30.63060299047023
 20
-1.394018551845072
 30
0.0
 10
30.61207378777159
 20
-1.038538995738105
 30
0.0
  0
SPLINE
  5
1E6
330
1F
100
AcDbEntity
  8
0
  6
Continuous
 62
     1
370
    15
100
AcDbSpline
210
0.0
220
0.0
230
1.0
 70
     8
 71
     3
 72
    12
 73
     8
 74
     0
 42
0.000000001
 43
0.00000001
 40
0.0
 40
0.0
 40
0.0
 40
0.0
 40
0.5
 40
0.5
 40
0.75
 40
0.75
 40
1.0
 40
1.0
 40
1.0
 40
1.0
 10
22.61285766278302
 20
1.98998105810072
 30
0.0
 10
22.5764356500571
 20
2.675610358150071
 30
0.0
 10
22.53872945042649
 20
3.329430783489749
 30
0.0
 10
22.48503388443052
 20
4.180735943334921
 30
0.0
 10
22.46807036229854
 20
4.441291566148124
 30
0.0
 10
22.43291368199647
 20
4.924516691559055
 30
0.0
 10
22.41475243447456
 20
5.146537212357658
 30
0.0
 10
22.39638402383188
 20
5.343187547435254
 30
0.0
  0
SPLINE
  5
1E7
330
1F
100
AcDbEntity
  8
0
  6
Continuous
 62
     1
370
    15
100
AcDbSpline
210
0.0
220
0.0
230
1.0
 70
     8
 71
     3
 72
    12
 73
     8
 74
     0
 42
0.000000001
 43
0.00000001
 40
0.0
 40
0.0
 40
0.0
 40
0.0
 40
0.5
 40
0.5
 40
0.75
 40
0.75
 40
1.0
 40
1.0
 40
1.0
 40
1.0
 10
30.99076837921677
 20
-4.84614877360255
 30
0.0
 10
30.95396377915499
 20
-4.380155129437527
 30
0.0
 10
30.91654134079967
 20
-3.814586966932093
 30
0.0
 10
30.86415871685694
 20
-2.894260439742104
 30
0.0
 10
30.84704945799657
 20
-2.574545114860723
 30
0.0
 10
30.81108515212893
 20
-1.902865514823252
 30
0.0
 10
30.79266550610096
 20
-1.553428964145172
 30
0.0
 10
30.77420226813178
 20
-1.19772804950452
 30
0.0
  0
SPLINE
  5
1E8
330
1F
100
AcDbEntity
  8
0
  6
Continuous
 62
     1
370
    15
100
AcDbSpline
210
0.0
220
0.0
230
1.0
 70
     8
 71
     3
 72
    12
 73
     8
 74
     0
 42
0.000000001
 43
0.00000001
 40
0.0
 40
0.0
 40
0.0
 40
0.0
 40
0.5
 40
0.5
 40
0.75
 40
0.75
 40
1.0
 40
1.0
 40
1.0
 40
1.0
 10
16.21932692271796
 20
-4.808861246465628
 30
0.0
 10
16.18239737228245
 20
-4.345664776262807
 30
0.0
 10
16.14483747704779
 20
-3.782928045964896
 30
0.0
 10
16.09227918558011
 20
-2.86702022701526
 30
0.0
 10
16.07510480770154
 20
-2.548752647332925
 30
0.0
 10
16.03900581775798
 20
-1.880105110759624
 30
0.0
 10
16.02051778791193
 20
-1.532240252702755
 30
0.0
 10
16.00198949666728
 20
-1.178189217871598
 30
0.0
  0
SPLINE
  5
1E9
330
1F
100
AcDbEntity
  8
0
  6
Continuous
 62
     1
370
    15
100
AcDbSpline
210
0.0
220
0.0
230
1.0
 70
     8
 71
     3
 72
    12
 73
     8
 74
     0
 42
0.000000001
 43
0.00000001
 40
0.0
 40
0.0
 40
0.0
 40
0.0
 40
0.5
 40
0.5
 40
0.75
 40
0.75
 40
1.0
 40
1.0
 40
1.0
 40
1.0
 10
32.11573800970209
 20
-5.434123894148714
 30
0.0
 10
32.08019648479847
 20
-5.066183151275746
 30
0.0
 10
32.04252840437168
 20
-4.584166797721929
 30
0.0
 10
31.98761031707764
 20
-3.747326235694537
 30
0.0
 10
31.96957591276815
 20
-3.450013589359843
 30
0.0
 10
31.93478403988565
 20
-2.832990696330576
 30
0.0
 10
31.91751953522644
 20
-2.510506813741599
 30
0.0
 10
31.89946641046926
 20
-2.172635199362689
 30
0.0
  0
SPLINE
  5
1EA
330
1F
100
AcDbEntity
  8
0
  6
Continuous
 62
     1
370
    15
100
AcDbSpline
210
0.0
220
0.0
230
1.0
 70
     8
 71
     3
 72
    12
 73
     8
 74
     0
 42
0.000000001
 43
0.00000001
 40
0.0
 40
0.0
 40
0.0
 40
0.0
 40
0.5000000000000001
 40
0.5000000000000001
 40
0.75
 40
0.75
 40
1.0
 40
1.0
 40
1.0
 40
1.0
 10
37.86318544860926
 20
1.55511440591491
 30
0.0
 10
37.82727821084517
 20
2.247209843115348
 30
0.0
 10
37.78942821141012
 20
2.92077750254672
 30
0.0
 10
37.73458125740013
 20
3.815758100354366
 30
0.0
 10
37.71662594282827
 20
4.095066959386824
 30
0.0
 10
37.68209110462956
 20
4.605942715837227
 30
0.0
 10
37.66436431040338
 20
4.843218227896425
 30
0.0
 10
37.64614769843062
 20
5.057847959359684
 30
0.0
  0
SPLINE
  5
1EB
330
1F
100
AcDbEntity
  8
0
  6
Continuous
 62
     1
370
    15
100
AcDbSpline
210
0.0
220
0.0
230
1.0
 70
    24
 71
     3
 72
     8
 73
     4
 74
     0
 42
0.000000001
 43
0.00000001
 40
0.0
 40
0.0
 40
0.0
 40
0.0
 40
1.0
 40
1.0
 40
1.0
 40
1.0
 10
12.00000000000002
 20
-1.140151911271942
 30
0.0
 10
12.00000000000002
 20
-1.326824068472841
 30
0.0
 10
12.00000000000002
 20
-1.512266956222221
 30
0.0
 10
12.00000000000002
 20
-1.694569763932472
 30
0.0
  0
SPLINE
  5
1EC
330
1F
100
AcDbEntity
  8
0
  6
Continuous
 62
     1
370
    15
100
AcDbSpline
210
0.0
220
0.0
230
1.0
 70
     8
 71
     3
 72
    12
 73
     8
 74
     0
 42
0.000000001
 43
0.00000001
 40
0.0
 40
0.0
 40
0.0
 40
0.0
 40
0.4999999999999998
 40
0.4999999999999998
 40
0.7499999999999999
 40
0.7499999999999999
 40
1.0
 40
1.0
 40
1.0
 40
1.0
 10
16.86625219695486
 20
-5.160283877402347
 30
0.0
 10
16.82989607716398
 20
-4.751733839477099
 30
0.0
 10
16.79201580741384
 20
-4.234261808520971
 30
0.0
 10
16.73776363150818
 20
-3.361646819840247
 30
0.0
 10
16.72051497578631
 20
-3.057721713184918
 30
0.0
 10
16.68554598961946
 20
-2.421348681138526
 30
0.0
 10
16.66742922449513
 20
-2.086233217217965
 30
0.0
 10
16.64905226949204
 20
-1.740808254806236
 30
0.0
  0
SPLINE
  5
1ED
330
1F
100
AcDbEntity
  8
0
  6
Continuous
 62
     1
370
    15
100
AcDbSpline
210
0.0
220
0.0
230
1.0
 70
     8
 71
     3
 72
    12
 73
     8
 74
     0
 42
0.000000001
 43
0.00000001
 40
0.0
 40
0.0
 40
0.0
 40
0.0
 40
0.5000000000000001
 40
0.5000000000000001
 40
0.75
 40
0.75
 40
1.0
 40
1.0
 40
1.0
 40
1.0
 10
37.70121613929424
 20
1.715563750463074
 30
0.0
 10
37.66518084043364
 20
2.408277319795678
 30
0.0
 10
37.62743609897426
 20
3.077820189063068
 30
0.0
 10
37.57305987523372
 20
3.96167905298664
 30
0.0
 10
37.55551158173777
 20
4.235519398545063
 30
0.0
 10
37.52100614703653
 20
4.738546198951143
 30
0.0
 10
37.50308138732054
 20
4.97223666273514
 30
0.0
 10
37.48484396286836
 20
5.181926515563183
 30
0.0
  0
SPLINE
  5
1EE
330
1F
100
AcDbEntity
  8
0
  6
Continuous
 62
     1
370
    15
100
AcDbSpline
210
0.0
220
0.0
230
1.0
 70
     8
 71
     3
 72
    10
 73
     6
 74
     0
 42
0.000000001
 43
0.00000001
 40
0.0
 40
0.0
 40
0.0
 40
0.0
 40
0.5
 40
0.5
 40
1.0
 40
1.0
 40
1.0
 40
1.0
 10
36.57592816274448
 20
2.666747759679152
 30
0.0
 10
36.53900627938101
 20
3.325131265266723
 30
0.0
 10
36.50201388444376
 20
3.930114506941564
 30
0.0
 10
36.43338139105965
 20
4.944940241045408
 30
0.0
 10
36.39624473322709
 20
5.38119959777601
 30
0.0
 10
36.35933123941415
 20
5.702951519917787
 30
0.0
  0
SPLINE
  5
1EF
330
1F
100
AcDbEntity
  8
0
  6
Continuous
 62
     1
370
    15
100
AcDbSpline
210
0.0
220
0.0
230
1.0
 70
     8
 71
     3
 72
    12
 73
     8
 74
     0
 42
0.000000001
 43
0.00000001
 40
0.0
 40
0.0
 40
0.0
 40
0.0
 40
0.5
 40
0.5
 40
0.75
 40
0.75
 40
1.0
 40
1.0
 40
1.0
 40
1.0
 10
17.02752880400551
 20
-5.281569243562272
 30
0.0
 10
16.99149875807993
 20
-4.884647609037806
 30
0.0
 10
16.95375190134549
 20
-4.376858554311088
 30
0.0
 10
16.8993622011162
 20
-3.512712124710971
 30
0.0
 10
16.88179866540001
 20
-3.209296333577842
 30
0.0
 10
16.8473024754646
 20
-2.579170978159786
 30
0.0
 10
16.82938083950797
 20
-2.246372706754316
 30
0.0
 10
16.81114481497573
 20
-1.902213657610044
 30
0.0
  0
SPLINE
  5
1F0
330
1F
100
AcDbEntity
  8
0
  6
Continuous
 62
     1
370
    15
100
AcDbSpline
210
0.0
220
0.0
230
1.0
 70
     8
 71
     3
 72
    14
 73
    10
 74
     0
 42
0.000000001
 43
0.00000001
 40
0.0
 40
0.0
 40
0.0
 40
0.0
 40
0.25
 40
0.25
 40
0.5
 40
0.5
 40
0.75
 40
0.75
 40
1.0
 40
1.0
 40
1.0
 40
1.0
 10
18.15124619401816
 20
-5.770373379869189
 30
0.0
 10
18.13385759407407
 20
-5.623549363046594
 30
0.0
 10
18.11653265867404
 20
-5.44988154476484
 30
0.0
 10
18.0803637359134
 20
-5.046441666390357
 30
0.0
 10
18.06187218575715
 20
-4.817622600624285
 30
0.0
 10
18.02487243022011
 20
-4.314651393529735
 30
0.0
 10
18.00636816787469
 20
-4.040552561757296
 30
0.0
 10
17.97015020644463
 20
-3.459912567822757
 30
0.0
 10
17.95274286492894
 20
-3.155287916146373
 30
0.0
 10
17.93539396244885
 20
-2.837738878574998
 30
0.0
  0
SPLINE
  5
1F1
330
1F
100
AcDbEntity
  8
0
  6
Continuous
 62
     1
370
    15
100
AcDbSpline
210
0.0
220
0.0
230
1.0
 70
     8
 71
     3
 72
    12
 73
     8
 74
     0
 42
0.000000001
 43
0.00000001
 40
0.0
 40
0.0
 40
0.0
 40
0.0
 40
0.5000000000000001
 40
0.5000000000000001
 40
0.7499999999999999
 40
0.7499999999999999
 40
1.0
 40
1.0
 40
1.0
 40
1.0
 10
22.45154164212674
 20
2.102855358654699
 30
0.0
 10
22.41484772469983
 20
2.780894269073389
 30
0.0
 10
22.37707131257784
 20
3.423058014777391
 30
0.0
 10
22.32359630055655
 20
4.252907685658578
 30
0.0
 10
22.30666625786996
 20
4.506295648508823
 30
0.0
 10
22.27108802438319
 20
4.976174070902013
 30
0.0
 10
22.25276077600791
 20
5.190666447817613
 30
0.0
 10
22.23428227300823
 20
5.379160431840329
 30
0.0
  0
SPLINE
  5
1F2
330
1F
100
AcDbEntity
  8
0
  6
Continuous
 62
     1
370
    15
100
AcDbSpline
210
0.0
220
0.0
230
1.0
 70
     8
 71
     3
 72
    12
 73
     8
 74
     0
 42
0.000000001
 43
0.00000001
 40
0.0
 40
0.0
 40
0.0
 40
0.0
 40
0.4999999999999999
 40
0.4999999999999999
 40
0.7499999999999999
 40
0.7499999999999999
 40
1.0
 40
1.0
 40
1.0
 40
1.0
 10
32.27764399240944
 20
-5.464648373906664
 30
0.0
 10
32.24229072807036
 20
-5.114350275624918
 30
0.0
 10
32.20458417532797
 20
-4.64877660865731
 30
0.0
 10
32.14927858571957
 20
-3.831218282009203
 30
0.0
 10
32.13106228603841
 20
-3.539459668105714
 30
0.0
 10
32.09582537128575
 20
-2.931591492512762
 30
0.0
 10
32.07875199969601
 20
-2.61549876688105
 30
0.0
 10
32.06074781532628
 20
-2.282748464054204
 30
0.0
  0
SPLINE
  5
1F3
330
1F
100
AcDbEntity
  8
0
  6
Continuous
 62
     1
370
    15
100
AcDbSpline
210
0.0
220
0.0
230
1.0
 70
     8
 71
     3
 72
    10
 73
     6
 74
     0
 42
0.000000001
 43
0.00000001
 40
0.0
 40
0.0
 40
0.0
 40
0.0
 40
0.5
 40
0.5
 40
1.0
 40
1.0
 40
1.0
 40
1.0
 10
21.8045916882603
 20
2.637634134804464
 30
0.0
 10
21.7675393420684
 20
3.293172042052071
 30
0.0
 10
21.73040529350878
 20
3.895567083819984
 30
0.0
 10
21.66152641974605
 20
4.90544231055863
 30
0.0
 10
21.62424626433831
 20
5.339294987979613
 30
0.0
 10
21.58720283169331
 20
5.658668239110801
 30
0.0
  0
SPLINE
  5
1F4
330
1F
100
AcDbEntity
  8
0
  6
Continuous
 62
     1
370
    15
100
AcDbSpline
210
0.0
220
0.0
230
1.0
 70
     8
 71
     3
 72
    14
 73
    10
 74
     0
 42
0.000000001
 43
0.00000001
 40
0.0
 40
0.0
 40
0.0
 40
0.0
 40
0.2500000000000001
 40
0.2500000000000001
 40
0.5000000000000001
 40
0.5000000000000001
 40
0.7500000000000002
 40
0.7500000000000002
 40
1.0
 40
1.0
 40
1.0
 40
1.0
 10
32.92336551984894
 20
-5.725114629135754
 30
0.0
 10
32.90591146017642
 20
-5.579442491362805
 30
0.0
 10
32.88854825949616
 20
-5.407041980922556
 30
0.0
 10
32.85227059636629
 20
-5.006179998385658
 30
0.0
 10
32.83372035521609
 20
-4.77868948942715
 30
0.0
 10
32.79660207672678
 20
-4.278451733487811
 30
0.0
 10
32.77803804560152
 20
-4.005758160952009
 30
0.0
 10
32.74170719832227
 20
-3.428021545132435
 30
0.0
 10
32.72425642549826
 20
-3.124939697832339
 30
0.0
 10
32.70684514825224
 20
-2.808869562333857
 30
0.0
  0
SPLINE
  5
1F5
330
1F
100
AcDbEntity
  8
0
  6
Continuous
 62
     1
370
    15
100
AcDbSpline
210
0.0
220
0.0
230
1.0
 70
     8
 71
     3
 72
    12
 73
     8
 74
     0
 42
0.000000001
 43
0.00000001
 40
0.0
 40
0.0
 40
0.0
 40
0.0
 40
0.2499999999999999
 40
0.2499999999999999
 40
0.4999999999999998
 40
0.4999999999999998
 40
1.0
 40
1.0
 40
1.0
 40
1.0
 10
21.64242854600729
 20
2.798550977028059
 30
0.0
 10
21.62395623701255
 20
3.124294799571346
 30
0.0
 10
21.60548654920717
 20
3.436288988535292
 30
0.0
 10
21.56934723819514
 20
4.01994356532376
 30
0.0
 10
21.55200527848505
 20
4.290048182969477
 30
0.0
 10
21.49998203347399
 20
5.037026928643554
 30
0.0
 10
21.46265969857382
 20
5.460024143594468
 30
0.0
 10
21.42578914309547
 20
5.766608823781907
 30
0.0
  0
SPLINE
  5
1F6
330
1F
100
AcDbEntity
  8
0
  6
Continuous
 62
     1
370
    15
100
AcDbSpline
210
0.0
220
0.0
230
1.0
 70
     8
 71
     3
 72
    12
 73
     8
 74
     0
 42
0.000000001
 43
0.00000001
 40
0.0
 40
0.0
 40
0.0
 40
0.0
 40
0.2499999999999998
 40
0.2499999999999998
 40
0.4999999999999999
 40
0.4999999999999999
 40
1.0
 40
1.0
 40
1.0
 40
1.0
 10
36.41454114436694
 20
2.768333332798248
 30
0.0
 10
36.39601133433378
 20
3.092537269897358
 30
0.0
 10
36.37748126772374
 20
3.403072001253963
 30
0.0
 10
36.34122319492955
 20
3.983938996751534
 30
0.0
 10
36.3238229841688
 20
4.252727005758426
 30
0.0
 10
36.27164091861784
 20
4.995826252468117
 30
0.0
 10
36.23419487527849
 20
5.416408967829062
 30
0.0
 10
36.1972122101535
 20
5.720752799900598
 30
0.0
  0
SPLINE
  5
1F7
330
1F
100
AcDbEntity
  8
0
  6
Continuous
 62
     1
370
    15
100
AcDbSpline
210
0.0
220
0.0
230
1.0
 70
     8
 71
     3
 72
    12
 73
     8
 74
     0
 42
0.000000001
 43
0.00000001
 40
0.0
 40
0.0
 40
0.0
 40
0.0
 40
0.2499999999999999
 40
0.2499999999999999
 40
0.4999999999999999
 40
0.4999999999999999
 40
1.0
 40
1.0
 40
1.0
 40
1.0
 10
20.51709141934859
 20
3.669673060134039
 30
0.0
 10
20.49896453862719
 20
3.964236102204315
 30
0.0
 10
20.48142265025042
 20
4.237964473216389
 30
0.0
 10
20.44690181502263
 20
4.740868997488451
 30
0.0
 10
20.42897010569093
 20
4.974469426527513
 30
0.0
 10
20.37424056453714
 20
5.60318432487041
 30
0.0
 10
20.33653254676088
 20
5.923514367492468
 30
0.0
 10
20.30079630039165
 20
6.120073810010193
 30
0.0
  0
SPLINE
  5
1F8
330
1F
100
AcDbEntity
  8
0
  6
Continuous
 62
     1
370
    15
100
AcDbSpline
210
0.0
220
0.0
230
1.0
 70
     8
 71
     3
 72
    12
 73
     8
 74
     0
 42
0.000000001
 43
0.00000001
 40
0.0
 40
0.0
 40
0.0
 40
0.0
 40
0.2500000000000001
 40
0.2500000000000001
 40
0.5000000000000002
 40
0.5000000000000002
 40
1.0
 40
1.0
 40
1.0
 40
1.0
 10
33.08447399262204
 20
-5.829105503381363
 30
0.0
 10
33.06692253753944
 20
-5.689368744780968
 30
0.0
 10
33.04988105592488
 20
-5.523734050736939
 30
0.0
 10
33.01395919667642
 20
-5.135270523500074
 30
0.0
 10
32.9955396539037
 20
-4.913535310363989
 30
0.0
 10
32.94008626811208
 20
-4.178135418374089
 30
0.0
 10
32.90291780683856
 20
-3.593259613193811
 30
0.0
 10
32.86860023346863
 20
-2.968107376204649
 30
0.0
  0
SPLINE
  5
1F9
330
1F
100
AcDbEntity
  8
0
  6
Continuous
 62
     1
370
    15
100
AcDbSpline
210
0.0
220
0.0
230
1.0
 70
     8
 71
     3
 72
    12
 73
     8
 74
     0
 42
0.000000001
 43
0.00000001
 40
0.0
 40
0.0
 40
0.0
 40
0.0
 40
0.2499999999999999
 40
0.2499999999999999
 40
0.4999999999999998
 40
0.4999999999999998
 40
1.0
 40
1.0
 40
1.0
 40
1.0
 10
18.31311369033265
 20
-5.782890690521676
 30
0.0
 10
18.29548913876477
 20
-5.644172398397061
 30
0.0
 10
18.27839332920299
 20
-5.479604150914813
 30
0.0
 10
18.24234441416461
 20
-5.093323944754538
 30
0.0
 10
18.22385672816355
 20
-4.872698623723683
 30
0.0
 10
18.1681980364935
 20
-4.140705859233205
 30
0.0
 10
18.13093490664883
 20
-3.558453456902129
 30
0.0
 10
18.09647003255529
 20
-2.935700620821849
 30
0.0
  0
SPLINE
  5
1FA
330
1F
100
AcDbEntity
  8
0
  6
Continuous
 62
     1
370
    15
100
AcDbSpline
210
0.0
220
0.0
230
1.0
 70
     8
 71
     3
 72
    12
 73
     8
 74
     0
 42
0.000000001
 43
0.00000001
 40
0.0
 40
0.0
 40
0.0
 40
0.0
 40
0.2499999999999999
 40
0.2499999999999999
 40
0.4999999999999998
 40
0.4999999999999998
 40
1.0
 40
1.0
 40
1.0
 40
1.0
 10
35.76757849458655
 20
3.274398484086984
 30
0.0
 10
35.74915718119895
 20
3.582280200451789
 30
0.0
 10
35.73095544773356
 20
3.872814240182142
 30
0.0
 10
35.69574720797181
 20
4.408330641951503
 30
0.0
 10
35.67868350295543
 20
4.65409035534718
 30
0.0
 10
35.62470563157502
 20
5.333736865279457
 30
0.0
 10
35.58685054152819
 20
5.69770389724871
 30
0.0
 10
35.55035532396573
 20
5.940020496514943
 30
0.0
  0
SPLINE
  5
1FB
330
1F
100
AcDbEntity
  8
0
  6
Continuous
 62
     1
370
    15
100
AcDbSpline
210
0.0
220
0.0
230
1.0
 70
     8
 71
     3
 72
    12
 73
     8
 74
     0
 42
0.000000001
 43
0.00000001
 40
0.0
 40
0.0
 40
0.0
 40
0.0
 40
0.2500000000000001
 40
0.2500000000000001
 40
0.5000000000000002
 40
0.5000000000000002
 40
1.0
 40
1.0
 40
1.0
 40
1.0
 10
34.2091496435119
 20
-6.150293413461266
 30
0.0
 10
34.19082444432997
 20
-6.063329574423296
 30
0.0
 10
34.17274707772114
 20
-5.946596271033512
 30
0.0
 10
34.13782782298984
 20
-5.661290424413632
 30
0.0
 10
34.12070376742047
 20
-5.492477076069791
 30
0.0
 10
34.06672814085428
 20
-4.900958806234885
 30
0.0
 10
34.02899196567206
 20
-4.395486247908644
 30
0.0
 10
33.99270456802152
 20
-3.821051358336083
 30
0.0
  0
SPLINE
  5
1FC
330
1F
100
AcDbEntity
  8
0
  6
Continuous
 62
     1
370
    15
100
AcDbSpline
210
0.0
220
0.0
230
1.0
 70
     8
 71
     3
 72
    12
 73
     8
 74
     0
 42
0.000000001
 43
0.00000001
 40
0.0
 40
0.0
 40
0.0
 40
0.0
 40
0.2499999999999998
 40
0.2499999999999998
 40
0.4999999999999996
 40
0.4999999999999996
 40
1.0
 40
1.0
 40
1.0
 40
1.0
 10
18.95943627832189
 20
-5.983641545690807
 30
0.0
 10
18.94129388629023
 20
-5.874437901899777
 30
0.0
 10
18.92387921568674
 20
-5.737788096236787
 30
0.0
 10
18.88907017691386
 20
-5.412158040336422
 30
0.0
 10
18.87101093352973
 20
-5.220742106537907
 30
0.0
 10
18.81597318281922
 20
-4.56893499074071
 30
0.0
 10
18.77816368231705
 20
-4.029362848474669
 30
0.0
 10
18.74245370364666
 20
-3.432973134974707
 30
0.0
  0
SPLINE
  5
1FD
330
1F
100
AcDbEntity
  8
0
  6
Continuous
 62
     1
370
    15
100
AcDbSpline
210
0.0
220
0.0
230
1.0
 70
     8
 71
     3
 72
    12
 73
     8
 74
     0
 42
0.000000001
 43
0.00000001
 40
0.0
 40
0.0
 40
0.0
 40
0.0
 40
0.2499999999999999
 40
0.2499999999999999
 40
0.4999999999999998
 40
0.4999999999999998
 40
1.0
 40
1.0
 40
1.0
 40
1.0
 10
35.60548662553263
 20
3.431792525424761
 30
0.0
 10
35.5871923600855
 20
3.736312665145859
 30
0.0
 10
35.56917260253985
 20
4.022559803229174
 30
0.0
 10
35.53441390015976
 20
4.54825467401747
 30
0.0
 10
35.51713868258271
 20
4.790733813933694
 30
0.0
 10
35.46298452403298
 20
5.45618500680655
 30
0.0
 10
35.42523409424031
 20
5.807203523524013
 30
0.0
 10
35.38904083036518
 20
6.035545120433954
 30
0.0
  0
SPLINE
  5
1FE
330
1F
100
AcDbEntity
  8
0
  6
Continuous
 62
     1
370
    15
100
AcDbSpline
210
0.0
220
0.0
230
1.0
 70
     8
 71
     3
 72
    14
 73
    10
 74
     0
 42
0.000000001
 43
0.00000001
 40
0.0
 40
0.0
 40
0.0
 40
0.0
 40
0.2499999999999998
 40
0.2499999999999998
 40
0.4999999999999999
 40
0.4999999999999999
 40
0.7499999999999999
 40
0.7499999999999999
 40
1.0
 40
1.0
 40
1.0
 40
1.0
 10
34.48093154361646
 20
4.238814563241828
 30
0.0
 10
34.46346090099996
 20
4.504648533583754
 30
0.0
 10
34.44629958296915
 20
4.749274752069335
 30
0.0
 10
34.41025668609542
 20
5.198505478079442
 30
0.0
 10
34.39180195410039
 20
5.400847050241256
 30
0.0
 10
34.35481828865409
 20
5.750898635902416
 30
0.0
 10
34.33629328853043
 20
5.898569442858886
 30
0.0
 10
34.29997931736736
 20
6.133796126387913
 30
0.0
 10
34.28236166663788
 20
6.221172903432361
 30
0.0
 10
34.26511058523194
 20
6.278814099547972
 30
0.0
  0
SPLINE
  5
1FF
330
1F
100
AcDbEntity
  8
0
  6
Continuous
 62
     1
370
    15
100
AcDbSpline
210
0.0
220
0.0
230
1.0
 70
     8
 71
     3
 72
    12
 73
     8
 74
     0
 42
0.000000001
 43
0.00000001
 40
0.0
 40
0.0
 40
0.0
 40
0.0
 40
0.2499999999999999
 40
0.2499999999999999
 40
0.4999999999999998
 40
0.4999999999999998
 40
1.0
 40
1.0
 40
1.0
 40
1.0
 10
19.12071722514511
 20
-6.075038046993259
 30
0.0
 10
19.10254469213692
 20
-5.972591067572195
 30
0.0
 10
19.08477562084512
 20
-5.841331131613799
 30
0.0
 10
19.05043929748711
 20
-5.529063787743834
 30
0.0
 10
19.03257856807581
 20
-5.344125205787658
 30
0.0
 10
18.97798363307182
 20
-4.71009478661302
 30
0.0
 10
18.94025675018388
 20
-4.180036150214199
 30
0.0
 10
18.90439815816089
 20
-3.588812859728856
 30
0.0
  0
SPLINE
  5
200
330
1F
100
AcDbEntity
  8
0
  6
Continuous
 62
     1
370
    15
100
AcDbSpline
210
0.0
220
0.0
230
1.0
 70
     8
 71
     3
 72
    12
 73
     8
 74
     0
 42
0.000000001
 43
0.00000001
 40
0.0
 40
0.0
 40
0.0
 40
0.0
 40
0.2499999999999998
 40
0.2499999999999998
 40
0.4999999999999997
 40
0.4999999999999997
 40
1.0
 40
1.0
 40
1.0
 40
1.0
 10
20.24616202521326
 20
-6.284501204773941
 30
0.0
 10
20.22769376344382
 20
-6.238102321166489
 30
0.0
 10
20.20920043306498
 20
-6.160692585211533
 30
0.0
 10
20.17296184977996
 20
-5.948349741372041
 30
0.0
 10
20.15542358608788
 20
-5.814090876996869
 30
0.0
 10
20.10367222612869
 20
-5.334681356499331
 30
0.0
 10
20.06643976535245
 20
-4.897812615065802
 30
0.0
 10
20.02954426547563
 20
-4.373988188480184
 30
0.0
  0
SPLINE
  5
201
330
1F
100
AcDbEntity
  8
0
  6
Continuous
 62
     1
370
    15
100
AcDbSpline
210
0.0
220
0.0
230
1.0
 70
     8
 71
     3
 72
    12
 73
     8
 74
     0
 42
0.000000001
 43
0.00000001
 40
0.0
 40
0.0
 40
0.0
 40
0.0
 40
0.25
 40
0.25
 40
0.5
 40
0.5
 40
1.0
 40
1.0
 40
1.0
 40
1.0
 10
20.35581705488797
 20
3.749967843819095
 30
0.0
 10
20.33772607324025
 20
4.038025288234433
 30
0.0
 10
20.32047226349168
 20
4.303705078155066
 30
0.0
 10
20.28548652478411
 20
4.794680728040713
 30
0.0
 10
20.26736119270765
 20
5.021446502784911
 30
0.0
 10
20.21220564776306
 20
5.627577175933618
 30
0.0
 10
20.17442909792968
 20
5.930016296942718
 30
0.0
 10
20.1388545875764
 20
6.108571219593405
 30
0.0
  0
SPLINE
  5
202
330
1F
100
AcDbEntity
  8
0
  6
Continuous
 62
     1
370
    15
100
AcDbSpline
210
0.0
220
0.0
230
1.0
 70
     8
 71
     3
 72
    14
 73
    10
 74
     0
 42
0.000000001
 43
0.00000001
 40
0.0
 40
0.0
 40
0.0
 40
0.0
 40
0.2499999999999999
 40
0.2499999999999999
 40
0.5
 40
0.5
 40
0.7500000000000001
 40
0.7500000000000001
 40
1.0
 40
1.0
 40
1.0
 40
1.0
 10
19.70949472522667
 20
4.1990131656586
 30
0.0
 10
19.69195461278996
 20
4.463810584236205
 30
0.0
 10
19.67474067188762
 20
4.707373880831895
 30
0.0
 10
19.63857155163484
 20
5.15459470695055
 30
0.0
 10
19.62004986572665
 20
5.355969433859821
 30
0.0
 10
19.58293315016529
 20
5.704140168214349
 30
0.0
 10
19.56434212473181
 20
5.850896658955513
 30
0.0
 10
19.52790558126506
 20
6.084352812759972
 30
0.0
 10
19.51025159925397
 20
6.170856939379843
 30
0.0
 10
19.49292656445957
 20
6.227711857878799
 30
0.0
  0
SPLINE
  5
203
330
1F
100
AcDbEntity
  8
0
  6
Continuous
 62
     1
370
    15
100
AcDbSpline
210
0.0
220
0.0
230
1.0
 70
     8
 71
     3
 72
    12
 73
     8
 74
     0
 42
0.000000001
 43
0.00000001
 40
0.0
 40
0.0
 40
0.0
 40
0.0
 40
0.2500000000000001
 40
0.2500000000000001
 40
0.5000000000000001
 40
0.5000000000000001
 40
1.0
 40
1.0
 40
1.0
 40
1.0
 10
34.37123900776442
 20
-6.13316106487309
 30
0.0
 10
34.35279324628332
 20
-6.05497431319098
 30
0.0
 10
34.33454004493434
 20
-5.946713276658858
 30
0.0
 10
34.29918208011257
 20
-5.677132462118845
 30
0.0
 10
34.28219822771788
 20
-5.516804123926425
 30
0.0
 10
34.22841537422104
 20
-4.950160264504511
 30
0.0
 10
34.1905876376931
 20
-4.459837303557816
 30
0.0
 10
34.15400992812447
 20
-3.897030695982115
 30
0.0
  0
SPLINE
  5
204
330
1F
100
AcDbEntity
  8
0
  6
Continuous
 62
     1
370
    15
100
AcDbSpline
210
0.0
220
0.0
230
1.0
 70
     8
 71
     3
 72
    12
 73
     8
 74
     0
 42
0.000000001
 43
0.00000001
 40
0.0
 40
0.0
 40
0.0
 40
0.0
 40
0.2500000000000001
 40
0.2500000000000001
 40
0.5000000000000002
 40
0.5000000000000002
 40
1.0
 40
1.0
 40
1.0
 40
1.0
 10
35.01824703072366
 20
-6.232506040460384
 30
0.0
 10
34.99971744783166
 20
-6.186744171778483
 30
0.0
 10
34.98115993950432
 20
-6.11001851428822
 30
0.0
 10
34.94479554153793
 20
-5.899119851428583
 30
0.0
 10
34.92719676401835
 20
-5.76561935774189
 30
0.0
 10
34.87527199159754
 20
-5.288625169687489
 30
0.0
 10
34.83790554061666
 20
-4.853553680941003
 30
0.0
 10
34.80088943640677
 20
-4.331825381736754
 30
0.0
  0
SPLINE
  5
205
330
1F
100
AcDbEntity
  8
0
  6
Continuous
 62
     1
370
    15
100
AcDbSpline
210
0.0
220
0.0
230
1.0
 70
     8
 71
     3
 72
    14
 73
    10
 74
     0
 42
0.000000001
 43
0.00000001
 40
0.0
 40
0.0
 40
0.0
 40
0.0
 40
0.25
 40
0.25
 40
0.5
 40
0.5
 40
0.75
 40
0.75
 40
1.0
 40
1.0
 40
1.0
 40
1.0
 10
19.54767502847013
 20
4.347435878828218
 30
0.0
 10
19.53037887523571
 20
4.60687150297964
 30
0.0
 10
19.51286350592341
 20
4.847153897010509
 30
0.0
 10
19.47659396979386
 20
5.284001548839452
 30
0.0
 10
19.45807857956219
 20
5.479330387213294
 30
0.0
 10
19.42108752119499
 20
5.814279908285205
 30
0.0
 10
19.40261579105453
 20
5.95386616197915
 30
0.0
 10
19.36651468109649
 20
6.172576084506569
 30
0.0
 10
19.34928266090104
 20
6.251396731617735
 30
0.0
 10
19.33185011604834
 20
6.30107584086491
 30
0.0
  0
SPLINE
  5
206
330
1F
100
AcDbEntity
  8
0
  6
Continuous
 62
     1
370
    15
100
AcDbSpline
210
0.0
220
0.0
230
1.0
 70
     8
 71
     3
 72
    14
 73
    10
 74
     0
 42
0.000000001
 43
0.00000001
 40
0.0
 40
0.0
 40
0.0
 40
0.0
 40
0.2500000000000002
 40
0.2500000000000002
 40
0.5000000000000001
 40
0.5000000000000001
 40
0.75
 40
0.75
 40
1.0
 40
1.0
 40
1.0
 40
1.0
 10
34.31985417917409
 20
4.304237422363845
 30
0.0
 10
34.30248800901931
 20
4.562774503901394
 30
0.0
 10
34.28493811028356
 20
4.802049386905036
 30
0.0
 10
34.24855445563628
 20
5.237184057082751
 30
0.0
 10
34.22997731252585
 20
5.431725811392509
 30
0.0
 10
34.19286127626275
 20
5.765208499813806
 30
0.0
 10
34.17432638772199
 20
5.904114644231695
 30
0.0
 10
34.13810569782672
 20
6.121561294724814
 30
0.0
 10
34.12082415107637
 20
6.199800352308935
 30
0.0
 10
34.10332688590744
 20
6.248956912661752
 30
0.0
  0
SPLINE
  5
207
330
1F
100
AcDbEntity
  8
0
  6
Continuous
 62
     1
370
    15
100
AcDbSpline
210
0.0
220
0.0
230
1.0
 70
     8
 71
     3
 72
    12
 73
     8
 74
     0
 42
0.000000001
 43
0.00000001
 40
0.0
 40
0.0
 40
0.0
 40
0.0
 40
0.4999999999999998
 40
0.4999999999999998
 40
0.7499999999999999
 40
0.7499999999999999
 40
1.0
 40
1.0
 40
1.0
 40
1.0
 10
33.67404625566467
 20
4.70740848337546
 30
0.0
 10
33.63853737472891
 20
5.181598156923429
 30
0.0
 10
33.60077499733251
 20
5.572993695414628
 30
0.0
 10
33.54555753585466
 20
5.980439787284045
 30
0.0
 10
33.52739822583765
 20
6.086845313491298
 30
0.0
 10
33.4923225199437
 20
6.239043652618358
 30
0.0
 10
33.47513327137558
 20
6.28582516875491
 30
0.0
 10
33.45706646609655
 20
6.30281060783184
 30
0.0
  0
SPLINE
  5
208
330
1F
100
AcDbEntity
  8
0
  6
Continuous
 62
     1
370
    15
100
AcDbSpline
210
0.0
220
0.0
230
1.0
 70
     8
 71
     3
 72
    10
 73
     6
 74
     0
 42
0.000000001
 43
0.00000001
 40
0.0
 40
0.0
 40
0.0
 40
0.0
 40
0.5
 40
0.5
 40
1.0
 40
1.0
 40
1.0
 40
1.0
 10
35.1796599721564
 20
-6.301511675100896
 30
0.0
 10
35.14275040606833
 20
-6.225264855618816
 30
0.0
 10
35.10556191789892
 20
-6.022146330615583
 30
0.0
 10
35.03674100515536
 20
-5.411948637142035
 30
0.0
 10
34.99996248245733
 20
-4.990499259682107
 30
0.0
 10
34.96302863067017
 20
-4.478095180257252
 30
0.0
  0
SPLINE
  5
209
330
1F
100
AcDbEntity
  8
0
  6
Continuous
 62
     1
370
    15
100
AcDbSpline
210
0.0
220
0.0
230
1.0
 70
     8
 71
     3
 72
    10
 73
     6
 74
     0
 42
0.000000001
 43
0.00000001
 40
0.0
 40
0.0
 40
0.0
 40
0.0
 40
0.5
 40
0.5
 40
1.0
 40
1.0
 40
1.0
 40
1.0
 10
20.40829595638549
 20
-6.249204775153359
 30
0.0
 10
20.37126886964448
 20
-6.174149310614954
 30
0.0
 10
20.33395049501532
 20
-5.972432808836443
 30
0.0
 10
20.26490651381644
 20
-5.365396564202374
 30
0.0
 10
20.22799891596886
 20
-4.94573017080533
 30
0.0
 10
20.19094641843198
 20
-4.435420727477243
 30
0.0
  0
SPLINE
  5
20A
330
1F
100
AcDbEntity
  8
0
  6
Continuous
 62
     1
370
    15
100
AcDbSpline
210
0.0
220
0.0
230
1.0
 70
     8
 71
     3
 72
    12
 73
     8
 74
     0
 42
0.000000001
 43
0.00000001
 40
0.0
 40
0.0
 40
0.0
 40
0.0
 40
0.4999999999999999
 40
0.4999999999999999
 40
0.7499999999999999
 40
0.7499999999999999
 40
1.0
 40
1.0
 40
1.0
 40
1.0
 10
33.51208890828221
 20
4.848008348761696
 30
0.0
 10
33.47640945376257
 20
5.312769319653623
 30
0.0
 10
33.43870661812995
 20
5.690901906811069
 30
0.0
 10
33.3839050372315
 20
6.076427312886494
 30
0.0
 10
33.36593652790769
 20
6.175213823255506
 30
0.0
 10
33.33132149445757
 20
6.312264739810374
 30
0.0
 10
33.31387495449767
 20
6.351908553113905
 30
0.0
 10
33.29576821603607
 20
6.36115230984551
 30
0.0
  0
LINE
  5
20B
330
1F
100
AcDbEntity
  8
0
  6
Continuous
 62
     1
370
    15
100
AcDbLine
 10
17.45627919584514
 20
6.293413809201873
 30
0.0
 11
17.4531220123172
 21
6.299570782742656
 31
0.0
  0
LINE
  5
20C
330
1F
100
AcDbEntity
  8
0
  6
Continuous
 62
     1
370
    15
100
AcDbLine
 10
23.04738300293686
 20
-6.262953278907382
 30
0.0
 11
23.04439345747234
 21
-6.260659431406104
 31
0.0
  0
LINE
  5
20D
330
1F
100
AcDbEntity
  8
0
  6
Continuous
 62
     1
370
    15
100
AcDbLine
 10
43.74999931454659
 20
1.238161113745725
 30
0.0
 11
43.74999931454659
 21
4.124893921128667
 31
0.0
  0
LINE
  5
20E
330
1F
100
AcDbEntity
  8
0
  6
Continuous
 62
     1
370
    15
100
AcDbLine
 10
39.04749086499216
 20
-6.26683316875323
 30
0.0
 11
39.04318629205228
 21
-6.265210339166963
 31
0.0
  0
LINE
  5
20F
330
1F
100
AcDbEntity
  8
0
  6
Continuous
 62
     1
370
    15
100
AcDbLine
 10
43.74999931454659
 20
-3.088929576166713
 30
0.0
 11
43.74999931454659
 21
-3.699018272870028
 31
0.0
  0
LINE
  5
210
330
1F
100
AcDbEntity
  8
0
  6
Continuous
 62
     1
370
    15
100
AcDbLine
 10
43.74999931454659
 20
5.263243450484431
 30
0.0
 11
43.74999931454659
 21
5.232336113861955
 31
0.0
  0
SPLINE
  5
211
330
1F
100
AcDbEntity
  8
0
  6
Continuous
 62
     1
370
    15
100
AcDbSpline
210
0.0
220
0.0
230
1.0
 70
     8
 71
     3
 72
    12
 73
     8
 74
     0
 42
0.000000001
 43
0.00000001
 40
0.0
 40
0.0
 40
0.0
 40
0.0
 40
0.2460938291101962
 40
0.4923715537052304
 40
0.7356045295734235
 40
0.8816274612853726
 40
1.0
 40
1.0
 40
1.0
 40
1.0
 10
18.4238874949515
 20
5.028070064894117
 30
0.0
 10
18.406476731848
 20
5.226310668838276
 30
0.0
 10
18.37164219531588
 20
5.622940013525103
 30
0.0
 10
18.31901165194486
 20
6.033649125523285
 30
0.0
 10
18.27516023719785
 20
6.257713827339424
 30
0.0
 10
18.24057659941474
 20
6.35251811969497
 30
0.0
 10
18.22193263616956
 20
6.356623855007029
 30
0.0
 10
18.21358554437758
 20
6.358462034425892
 30
0.0
  0
SPLINE
  5
212
330
1F
100
AcDbEntity
  8
0
  6
Continuous
 62
     1
370
    15
100
AcDbSpline
210
0.0
220
0.0
230
1.0
 70
     8
 71
     3
 72
    12
 73
     8
 74
     0
 42
0.000000001
 43
0.00000001
 40
0.0
 40
0.0
 40
0.0
 40
0.0
 40
0.1801871831344787
 40
0.4474110717020651
 40
0.7115342852857132
 40
0.975131766417492
 40
1.0
 40
1.0
 40
1.0
 40
1.0
 10
36.28745122253896
 20
-6.317425870635354
 30
0.0
 10
36.27540794336462
 20
-6.317299623676674
 30
0.0
 10
36.24550406036657
 20
-6.316986148067035
 30
0.0
 10
36.19718082095133
 20
-6.114937337935473
 30
0.0
 10
36.14517171540245
 20
-5.745618184170319
 30
0.0
 10
36.10937836590343
 20
-5.375599659255905
 30
0.0
 10
36.09014010880837
 20
-5.153854299452036
 30
0.0
 10
36.08848160505296
 20
-5.134737936147296
 30
0.0
  0
SPLINE
  5
213
330
1F
100
AcDbEntity
  8
0
  6
Continuous
 62
     1
370
    15
100
AcDbSpline
210
0.0
220
0.0
230
1.0
 70
     8
 71
     3
 72
    12
 73
     8
 74
     0
 42
0.000000001
 43
0.00000001
 40
0.0
 40
0.0
 40
0.0
 40
0.0
 40
0.1888664866266358
 40
0.4179394297061076
 40
0.6440683214047024
 40
0.8706055723766334
 40
1.0
 40
1.0
 40
1.0
 40
1.0
 10
21.04659477621319
 20
-6.268204075583064
 30
0.0
 10
21.03328532393552
 20
-6.252836358070358
 30
0.0
 10
21.00383306380201
 20
-6.218829397873957
 30
0.0
 10
20.95821175729336
 20
-5.998240391055521
 30
0.0
 10
20.91190743066025
 20
-5.645084975714427
 30
0.0
 10
20.87210776543817
 20
-5.238223447673787
 30
0.0
 10
20.847053243994
 20
-4.934714348718549
 30
0.0
 10
20.83794499188663
 20
-4.824377482124412
 30
0.0
  0
SPLINE
  5
214
330
1F
100
AcDbEntity
  8
0
  6
Continuous
 62
     1
370
    15
100
AcDbSpline
210
0.0
220
0.0
230
1.0
 70
     8
 71
     3
 72
    11
 73
     7
 74
     0
 42
0.000000001
 43
0.00000001
 40
0.0
 40
0.0
 40
0.0
 40
0.0
 40
0.3421814193758509
 40
0.6802678377077098
 40
0.9608774033874784
 40
1.0
 40
1.0
 40
1.0
 40
1.0
 10
32.38710208237173
 20
5.440225007645047
 30
0.0
 10
32.36688585199807
 20
5.628311382904804
 30
0.0
 10
32.32669532573286
 20
6.002233240010955
 30
0.0
 10
32.27170977010734
 20
6.271862087547911
 30
0.0
 10
32.23465405666295
 20
6.380950292661018
 30
0.0
 10
32.21588407801718
 20
6.357108721969201
 30
0.0
 10
32.21358737349512
 20
6.354191454759992
 30
0.0
  0
SPLINE
  5
215
330
1F
100
AcDbEntity
  8
0
  6
Continuous
 62
     1
370
    15
100
AcDbSpline
210
0.0
220
0.0
230
1.0
 70
     8
 71
     3
 72
    12
 73
     8
 74
     0
 42
0.000000001
 43
0.00000001
 40
0.0
 40
0.0
 40
0.0
 40
0.0
 40
0.2187441428682736
 40
0.450863271162496
 40
0.6800706730243008
 40
0.9094048541533148
 40
1.0
 40
1.0
 40
1.0
 40
1.0
 10
21.21358370780947
 20
-6.332546358295524
 30
0.0
 10
21.19783809118878
 20
-6.321052994150201
 30
0.0
 10
21.16538410123054
 20
-6.297363510686672
 30
0.0
 10
21.11602062218869
 20
-6.072173220678073
 30
0.0
 10
21.06787390118508
 20
-5.709842021314203
 30
0.0
 10
21.02954487121257
 20
-5.314868202626115
 30
0.0
 10
21.00655104081045
 20
-5.03959744806737
 30
0.0
 10
21.00003982335331
 20
-4.961648376025998
 30
0.0
  0
SPLINE
  5
216
330
1F
100
AcDbEntity
  8
0
  6
Continuous
 62
     1
370
    15
100
AcDbSpline
210
0.0
220
0.0
230
1.0
 70
     8
 71
     3
 72
    11
 73
     7
 74
     0
 42
0.000000001
 43
0.00000001
 40
0.0
 40
0.0
 40
0.0
 40
0.0
 40
0.0012858841899741
 40
0.3363743080267214
 40
0.670540496016694
 40
1.0
 40
1.0
 40
1.0
 40
1.0
 10
22.28755509853365
 20
-6.33640575904473
 30
0.0
 10
22.28748618448743
 20
-6.336522590086993
 30
0.0
 10
22.2694589664906
 20
-6.367084409964097
 30
0.0
 10
22.23195785919842
 20
-6.257882974085631
 30
0.0
 10
22.17720333978685
 20
-6.008751822846021
 30
0.0
 10
22.14216940616481
 20
-5.68599314929253
 30
0.0
 10
22.12477667629721
 20
-5.525758375712478
 30
0.0
  0
SPLINE
  5
217
330
1F
100
AcDbEntity
  8
0
  6
Continuous
 62
     1
370
    15
100
AcDbSpline
210
0.0
220
0.0
230
1.0
 70
     8
 71
     3
 72
    12
 73
     8
 74
     0
 42
0.000000001
 43
0.00000001
 40
0.0
 40
0.0
 40
0.0
 40
0.0
 40
0.2442901740632512
 40
0.4884766468203213
 40
0.7296422563491386
 40
0.9001252158822585
 40
1.0
 40
1.0
 40
1.0
 40
1.0
 10
18.26257124915721
 20
5.06906688462869
 30
0.0
 10
18.2458933302144
 20
5.251604545631075
 30
0.0
 10
18.21254457211408
 20
5.616602380303637
 30
0.0
 10
18.16234651950072
 20
5.996299097588453
 30
0.0
 10
18.11882786294285
 20
6.212314765115488
 30
0.0
 10
18.08525733477399
 20
6.3035652266067
 30
0.0
 10
18.06685715404036
 20
6.301452875901961
 30
0.0
 10
18.06005981191995
 20
6.300672537348427
 30
0.0
  0
SPLINE
  5
218
330
1F
100
AcDbEntity
  8
0
  6
Continuous
 62
     1
370
    15
100
AcDbSpline
210
0.0
220
0.0
230
1.0
 70
     8
 71
     3
 72
    10
 73
     6
 74
     0
 42
0.000000001
 43
0.00000001
 40
0.0
 40
0.0
 40
0.0
 40
0.0
 40
0.3733912391372786
 40
0.7423178589107282
 40
0.9999999999999999
 40
0.9999999999999999
 40
0.9999999999999999
 40
0.9999999999999999
 10
17.61563593894245
 20
5.392055607102074
 30
0.0
 10
17.59535865294867
 20
5.577125808794509
 30
0.0
 10
17.55504653540087
 20
5.945053337533335
 30
0.0
 10
17.5027277733247
 20
6.228275696730864
 30
0.0
 10
17.46981429936036
 20
6.274432580003436
 30
0.0
 10
17.45627919584514
 20
6.293413809201873
 30
0.0
  0
SPLINE
  5
219
330
1F
100
AcDbEntity
  8
0
  6
Continuous
 62
     1
370
    15
100
AcDbSpline
210
0.0
220
0.0
230
1.0
 70
     8
 71
     3
 72
    11
 73
     7
 74
     0
 42
0.000000001
 43
0.00000001
 40
0.0
 40
0.0
 40
0.0
 40
0.0
 40
0.1781678992533983
 40
0.4544474815560403
 40
0.7277888398160887
 40
1.0
 40
1.0
 40
1.0
 40
1.0
 10
36.4474598914385
 20
-6.261413337030255
 30
0.0
 10
36.43566669410789
 20
-6.266465383979774
 30
0.0
 10
36.40558614172531
 20
-6.279351487607494
 30
0.0
 10
36.35637005115047
 20
-6.088453222780126
 30
0.0
 10
36.30285732215899
 20
-5.734128578537788
 30
0.0
 10
36.26744125817911
 20
-5.35800549382453
 30
0.0
 10
36.24976991117002
 20
-5.170333550610387
 30
0.0
  0
SPLINE
  5
21A
330
1F
100
AcDbEntity
  8
0
  6
Continuous
 62
     1
370
    15
100
AcDbSpline
210
0.0
220
0.0
230
1.0
 70
     8
 71
     3
 72
    10
 73
     6
 74
     0
 42
0.000000001
 43
0.00000001
 40
0.0
 40
0.0
 40
0.0
 40
0.0
 40
0.2882558263887701
 40
0.6466515356928612
 40
1.0
 40
1.0
 40
1.0
 40
1.0
 10
37.04834735393526
 20
-6.265096252151572
 30
0.0
 10
37.03352497152693
 20
-6.24923891856038
 30
0.0
 10
37.00027354876453
 20
-6.213665763813774
 30
0.0
 10
36.94872386569715
 20
-5.950856503641078
 30
0.0
 10
36.91359572410613
 20
-5.633439670712845
 30
0.0
 10
36.89615620672705
 20
-5.475856715180719
 30
0.0
  0
SPLINE
  5
21B
330
1F
100
AcDbEntity
  8
0
  6
Continuous
 62
     1
370
    15
100
AcDbSpline
210
0.0
220
0.0
230
1.0
 70
     8
 71
     3
 72
    11
 73
     7
 74
     0
 42
0.000000001
 43
0.00000001
 40
0.0
 40
0.0
 40
0.0
 40
0.0
 40
0.3353106795886344
 40
0.6665202519502289
 40
0.9818094512542126
 40
1.0
 40
1.0
 40
1.0
 40
1.0
 10
17.45351875573398
 20
5.515419526658214
 30
0.0
 10
17.43457114246071
 20
5.685333901037464
 30
0.0
 10
17.39690765978175
 20
6.023084466453881
 30
0.0
 10
17.34327382554049
 20
6.278791558096145
 30
0.0
 10
17.30741008326009
 20
6.388636741808192
 30
0.0
 10
17.28866965806536
 20
6.360067896304948
 30
0.0
 10
17.28764741122724
 20
6.358509531877196
 30
0.0
  0
SPLINE
  5
21C
330
1F
100
AcDbEntity
  8
0
  6
Continuous
 62
     1
370
    15
100
AcDbSpline
210
0.0
220
0.0
230
1.0
 70
     8
 71
     3
 72
    11
 73
     7
 74
     0
 42
0.000000001
 43
0.00000001
 40
0.0
 40
0.0
 40
0.0
 40
0.0
 40
0.3107829751589054
 40
0.6177686446412156
 40
0.9095468311043483
 40
1.0
 40
1.0
 40
1.0
 40
1.0
 10
32.22572623193265
 20
5.464486892036355
 30
0.0
 10
32.20669268913335
 20
5.633736368429504
 30
0.0
 10
32.16885816511594
 20
5.970167344367521
 30
0.0
 10
32.11506837161392
 20
6.230668375792944
 30
0.0
 10
32.07462536521943
 20
6.337155351309081
 30
0.0
 10
32.05129820448232
 20
6.295598969993572
 30
0.0
 10
32.04577794671061
 20
6.285764856896557
 30
0.0
  0
SPLINE
  5
21D
330
1F
100
AcDbEntity
  8
0
  6
Continuous
 62
     1
370
    15
100
AcDbSpline
210
0.0
220
0.0
230
1.0
 70
     8
 71
     3
 72
    10
 73
     6
 74
     0
 42
0.000000001
 43
0.00000001
 40
0.0
 40
0.0
 40
0.0
 40
0.0
 40
0.3297185508010716
 40
0.6554875120617042
 40
1.0
 40
1.0
 40
1.0
 40
1.0
 10
31.57859674096109
 20
5.730896836779273
 30
0.0
 10
31.56463743641002
 20
5.835151077363624
 30
0.0
 10
31.53688604120324
 20
6.042410731442803
 30
0.0
 10
31.49617784358299
 20
6.239107909085545
 30
0.0
 10
31.46855808760465
 20
6.281380567447194
 30
0.0
 10
31.45436203479769
 20
6.303107945881046
 30
0.0
  0
SPLINE
  5
21E
330
1F
100
AcDbEntity
  8
0
  6
Continuous
 62
     1
370
    15
100
AcDbSpline
210
0.0
220
0.0
230
1.0
 70
     8
 71
     3
 72
    10
 73
     6
 74
     0
 42
0.000000001
 43
0.00000001
 40
0.0
 40
0.0
 40
0.0
 40
0.0
 40
0.519234153563232
 40
0.9666974700340576
 40
1.0
 40
1.0
 40
1.0
 40
1.0
 10
16.32803824171426
 20
5.949332027397311
 30
0.0
 10
16.30813281861542
 20
6.066714058928524
 30
0.0
 10
16.27107338787968
 20
6.285253059358249
 30
0.0
 10
16.23368015749915
 20
6.386929279763345
 30
0.0
 10
16.21490617473993
 20
6.359319812503414
 30
0.0
 10
16.21360570564868
 20
6.357407311610139
 30
0.0
  0
SPLINE
  5
21F
330
1F
100
AcDbEntity
  8
0
  6
Continuous
 62
     1
370
    15
100
AcDbSpline
210
0.0
220
0.0
230
1.0
 70
     8
 71
     3
 72
    10
 73
     6
 74
     0
 42
0.000000001
 43
0.00000001
 40
0.0
 40
0.0
 40
0.0
 40
0.0
 40
0.3218341953628236
 40
0.6633146085367143
 40
0.9999999999999999
 40
0.9999999999999999
 40
0.9999999999999999
 40
0.9999999999999999
 10
37.21358074247838
 20
-6.331868355461204
 30
0.0
 10
37.19672002951609
 20
-6.318205641511027
 30
0.0
 10
37.16196934926089
 20
-6.290046179632857
 30
0.0
 10
37.10923492689432
 20
-6.040808353849934
 30
0.0
 10
37.07502223049515
 20
-5.743478429401816
 30
0.0
 10
37.05803683400156
 20
-5.595864613839233
 30
0.0
  0
SPLINE
  5
220
330
1F
100
AcDbEntity
  8
0
  6
Continuous
 62
     1
370
    15
100
AcDbSpline
210
0.0
220
0.0
230
1.0
 70
     8
 71
     3
 72
    11
 73
     7
 74
     0
 42
0.000000001
 43
0.00000001
 40
0.0
 40
0.0
 40
0.0
 40
0.0
 40
0.0501538468287576
 40
0.3685815592907339
 40
0.6865275004546367
 40
1.0
 40
1.0
 40
1.0
 40
1.0
 10
22.45320106297733
 20
-6.267935854681575
 30
0.0
 10
22.45044512915228
 20
-6.273567845249207
 30
0.0
 10
22.43019171987727
 20
-6.314957449369028
 30
0.0
 10
22.39091998226395
 20
-6.222296515330092
 30
0.0
 10
22.33722616132673
 20
-5.99275980408988
 30
0.0
 10
22.30292345779289
 20
-5.693382327603195
 30
0.0
 10
22.28589361906053
 20
-5.544754096605622
 30
0.0
  0
SPLINE
  5
221
330
1F
100
AcDbEntity
  8
0
  6
Continuous
 62
     1
370
    15
100
AcDbSpline
210
0.0
220
0.0
230
1.0
 70
     8
 71
     3
 72
    10
 73
     6
 74
     0
 42
0.000000001
 43
0.00000001
 40
0.0
 40
0.0
 40
0.0
 40
0.0
 40
0.1848022064363717
 40
0.5940923150264334
 40
1.0
 40
1.0
 40
1.0
 40
1.0
 10
23.04439345747234
 20
-6.260659431406104
 30
0.0
 10
23.03743195278329
 20
-6.257817820235512
 30
0.0
 10
23.01505247736179
 20
-6.248682759614233
 30
0.0
 10
22.97687335309086
 20
-6.102475223545373
 30
0.0
 10
22.94665432251458
 20
-5.89495745297525
 30
0.0
 10
22.93160749971868
 20
-5.791629084684693
 30
0.0
  0
SPLINE
  5
222
330
1F
100
AcDbEntity
  8
0
  6
Continuous
 62
     1
370
    15
100
AcDbSpline
210
0.0
220
0.0
230
1.0
 70
     8
 71
     3
 72
     9
 73
     5
 74
     0
 42
0.000000001
 43
0.00000001
 40
0.0
 40
0.0
 40
0.0
 40
0.0
 40
0.4882309131317577
 40
1.0
 40
1.0
 40
1.0
 40
1.0
 10
38.28754654526712
 20
-6.332670689859235
 30
0.0
 10
38.27027312931208
 20
-6.320585556894145
 30
0.0
 10
38.2348935261562
 20
-6.295832652807082
 30
0.0
 10
38.19969977171822
 20
-6.097977412460488
 30
0.0
 10
38.18168869614603
 20
-5.996721216776216
 30
0.0
  0
SPLINE
  5
223
330
1F
100
AcDbEntity
  8
0
  6
Continuous
 62
     1
370
    15
100
AcDbSpline
210
0.0
220
0.0
230
1.0
 70
     8
 71
     3
 72
    11
 73
     7
 74
     0
 42
0.000000001
 43
0.00000001
 40
0.0
 40
0.0
 40
0.0
 40
0.0
 40
0.2883514093008045
 40
0.5733674523635348
 40
0.9350067785084556
 40
1.0
 40
1.0
 40
1.0
 40
1.0
 10
31.41647024452688
 20
5.841751697174466
 30
0.0
 10
31.4038568266891
 20
5.933145814676193
 30
0.0
 10
31.37877589065769
 20
6.114876892183477
 30
0.0
 10
31.3392727981967
 20
6.288749247430023
 30
0.0
 10
31.30924935884315
 20
6.377385677430463
 30
0.0
 10
31.29056015074346
 20
6.356165056921662
 30
0.0
 10
31.28771303594114
 20
6.352932306639111
 30
0.0
  0
SPLINE
  5
224
330
1F
100
AcDbEntity
  8
0
  6
Continuous
 62
     1
370
    15
100
AcDbSpline
210
0.0
220
0.0
230
1.0
 70
     8
 71
     3
 72
    10
 73
     6
 74
     0
 42
0.000000001
 43
0.00000001
 40
0.0
 40
0.0
 40
0.0
 40
0.0
 40
0.2987674096168924
 40
0.902666063380241
 40
1.0
 40
1.0
 40
1.0
 40
1.0
 10
30.29170452058317
 20
6.167695506177104
 30
0.0
 10
30.28399693928302
 20
6.202119316800679
 30
0.0
 10
30.26071002161249
 20
6.306123986058199
 30
0.0
 10
30.23494841706458
 20
6.37906716779291
 30
0.0
 10
30.21618742272557
 20
6.356543853380551
 30
0.0
 10
30.21358332037927
 20
6.353417525700486
 30
0.0
  0
SPLINE
  5
225
330
1F
100
AcDbEntity
  8
0
  6
Continuous
 62
     1
370
    15
100
AcDbSpline
210
0.0
220
0.0
230
1.0
 70
     8
 71
     3
 72
    10
 73
     6
 74
     0
 42
0.000000001
 43
0.00000001
 40
0.0
 40
0.0
 40
0.0
 40
0.0
 40
0.0182536050426454
 40
0.5102786343910346
 40
1.0
 40
1.0
 40
1.0
 40
1.0
 10
23.21351232379677
 20
-6.332982217260444
 30
0.0
 10
23.21279653044935
 20
-6.334227936739563
 30
0.0
 10
23.19278656250183
 20
-6.369051963727826
 30
0.0
 10
23.15176387230897
 20
-6.25224447513301
 30
0.0
 10
23.11289663422661
 20
-6.016119450714163
 30
0.0
 10
23.09350861608984
 20
-5.898333971687401
 30
0.0
  0
SPLINE
  5
226
330
1F
100
AcDbEntity
  8
0
  6
Continuous
 62
     1
370
    15
100
AcDbSpline
210
0.0
220
0.0
230
1.0
 70
     8
 71
     3
 72
     9
 73
     5
 74
     0
 42
0.000000001
 43
0.00000001
 40
0.0
 40
0.0
 40
0.0
 40
0.0
 40
0.3912174263951305
 40
1.0
 40
1.0
 40
1.0
 40
1.0
 10
24.28748371452095
 20
-6.324488089718663
 30
0.0
 10
24.27852948367847
 20
-6.325645864750356
 30
0.0
 10
24.25564136510717
 20
-6.328605280547248
 30
0.0
 10
24.23250130423244
 20
-6.243474829418616
 30
0.0
 10
24.21841403841974
 20
-6.191648894288384
 30
0.0
  0
SPLINE
  5
227
330
1F
100
AcDbEntity
  8
0
  6
Continuous
 62
     1
370
    15
100
AcDbSpline
210
0.0
220
0.0
230
1.0
 70
     8
 71
     3
 72
    10
 73
     6
 74
     0
 42
0.000000001
 43
0.00000001
 40
0.0
 40
0.0
 40
0.0
 40
0.0
 40
0.4412432127050094
 40
0.8923381153373049
 40
1.0
 40
1.0
 40
1.0
 40
1.0
 10
16.16670290380718
 20
5.946831891945756
 30
0.0
 10
16.14916887624712
 20
6.045283639503234
 30
0.0
 10
16.11370933679882
 20
6.244385278548358
 30
0.0
 10
16.07461206487918
 20
6.339527861680416
 30
0.0
 10
16.05184344464497
 20
6.297033918317181
 30
0.0
 10
16.04745636135342
 20
6.288846137634671
 30
0.0
  0
SPLINE
  5
228
330
1F
100
AcDbEntity
  8
0
  6
Continuous
 62
     1
370
    15
100
AcDbSpline
210
0.0
220
0.0
230
1.0
 70
     8
 71
     3
 72
     9
 73
     5
 74
     0
 42
0.000000001
 43
0.00000001
 40
0.0
 40
0.0
 40
0.0
 40
0.0
 40
0.350612593084599
 40
1.0
 40
1.0
 40
1.0
 40
1.0
 10
15.52027190476658
 20
6.114575194827474
 30
0.0
 10
15.51248246012858
 20
6.150888984404768
 30
0.0
 10
15.49026578910295
 20
6.254461389656433
 30
0.0
 10
15.46771620560879
 20
6.282762283121502
 30
0.0
 10
15.45307279005648
 20
6.30114052694217
 30
0.0
  0
SPLINE
  5
229
330
1F
100
AcDbEntity
  8
0
  6
Continuous
 62
     1
370
    15
100
AcDbSpline
210
0.0
220
0.0
230
1.0
 70
     8
 71
     3
 72
    10
 73
     6
 74
     0
 42
0.000000001
 43
0.00000001
 40
0.0
 40
0.0
 40
0.0
 40
0.0
 40
0.0589260168929317
 40
0.5295811963152688
 40
1.0
 40
1.0
 40
1.0
 40
1.0
 10
38.45315246284009
 20
-6.270652988293016
 30
0.0
 10
38.45104114436299
 20
-6.274981696645863
 30
0.0
 10
38.43206625646349
 20
-6.313884759653934
 30
0.0
 10
38.39467846746471
 20
-6.241716294551847
 30
0.0
 10
38.36019924486194
 20
-6.07326942301249
 30
0.0
 10
38.34296396374705
 20
-5.989067142196739
 30
0.0
  0
SPLINE
  5
22A
330
1F
100
AcDbEntity
  8
0
  6
Continuous
 62
     1
370
    15
100
AcDbSpline
210
0.0
220
0.0
230
1.0
 70
     8
 71
     3
 72
     9
 73
     5
 74
     0
 42
0.000000001
 43
0.00000001
 40
0.0
 40
0.0
 40
0.0
 40
0.0
 40
0.2086398940026895
 40
1.0
 40
1.0
 40
1.0
 40
1.0
 10
39.04318629205229
 20
-6.265210339166964
 30
0.0
 10
39.03950230515649
 20
-6.264799324465018
 30
0.0
 10
39.0218451504047
 20
-6.262829352691833
 30
0.0
 10
39.00399442589538
 20
-6.193379998117494
 30
0.0
 10
38.98986807465555
 20
-6.138420549520099
 30
0.0
  0
SPLINE
  5
22B
330
1F
100
AcDbEntity
  8
0
  6
Continuous
 62
     1
370
    15
100
AcDbSpline
210
0.0
220
0.0
230
1.0
 70
     8
 71
     3
 72
    10
 73
     6
 74
     0
 42
0.000000001
 43
0.00000001
 40
0.0
 40
0.0
 40
0.0
 40
0.0
 40
0.2275590151253418
 40
0.9206761193464779
 40
1.0
 40
1.0
 40
1.0
 40
1.0
 10
15.35840152204038
 20
6.202156769744313
 30
0.0
 10
15.35310921507915
 20
6.224217006069617
 30
0.0
 10
15.33169718430211
 20
6.313470041202764
 30
0.0
 10
15.30832796393105
 20
6.382834995262365
 30
0.0
 10
15.28961867781716
 20
6.357866590052643
 30
0.0
 10
15.28769737482073
 20
6.355302522591509
 30
0.0
  0
SPLINE
  5
22C
330
1F
100
AcDbEntity
  8
0
  6
Continuous
 62
     1
370
    15
100
AcDbSpline
210
0.0
220
0.0
230
1.0
 70
     8
 71
     3
 72
    10
 73
     6
 74
     0
 42
0.000000001
 43
0.00000001
 40
0.0
 40
0.0
 40
0.0
 40
0.0
 40
0.1989741568553006
 40
0.7916140015192603
 40
1.0
 40
1.0
 40
1.0
 40
1.0
 10
30.13051865994933
 20
6.148395242802061
 30
0.0
 10
30.12509634088904
 20
6.171075626930698
 30
0.0
 10
30.1035237720858
 20
6.261309001554918
 30
0.0
 10
30.07605847717366
 20
6.331848624561778
 30
0.0
 10
30.05328233142072
 20
6.296868240479616
 30
0.0
 10
30.04735714197161
 20
6.287768131754554
 30
0.0
  0
LINE
  5
22D
330
1F
100
AcDbEntity
  8
0
  6
Continuous
 62
     1
370
    15
100
AcDbLine
 10
29.48472841084005
 20
6.252335033080733
 30
0.0
 11
29.45376938581468
 21
6.283101739994443
 31
0.0
  0
LINE
  5
22E
330
1F
100
AcDbEntity
  8
0
  6
Continuous
 62
     1
370
    15
100
AcDbLine
 10
14.234731964767
 20
6.349327156952775
 30
0.0
 11
14.2134926877916
 21
6.34150311600343
 31
0.0
  0
SPLINE
  5
22F
330
1F
100
AcDbEntity
  8
0
  6
Continuous
 62
     1
370
    15
100
AcDbSpline
210
0.0
220
0.0
230
1.0
 70
     8
 71
     3
 72
     9
 73
     5
 74
     0
 42
0.000000001
 43
0.00000001
 40
0.0
 40
0.0
 40
0.0
 40
0.0
 40
0.0359831412123069
 40
1.0
 40
1.0
 40
1.0
 40
1.0
 10
39.21351028978826
 20
-6.332958002873504
 30
0.0
 10
39.21278976462573
 20
-6.334218358205904
 30
0.0
 10
39.19276579956146
 20
-6.369244631342109
 30
0.0
 10
39.17200385129982
 20
-6.293940464040688
 30
0.0
 10
39.15198898315431
 20
-6.221345977225148
 30
0.0
  0
SPLINE
  5
230
330
1F
100
AcDbEntity
  8
0
  6
Continuous
 62
     1
370
    15
100
AcDbSpline
210
0.0
220
0.0
230
1.0
 70
     8
 71
     3
 72
     9
 73
     5
 74
     0
 42
0.000000001
 43
0.00000001
 40
0.0
 40
0.0
 40
0.0
 40
0.0
 40
0.1938404864639192
 40
1.0
 40
1.0
 40
1.0
 40
1.0
 10
24.45337182283403
 20
-6.25999772671684
 30
0.0
 10
24.44871977741643
 20
-6.269393350612214
 30
0.0
 10
24.42472042876399
 20
-6.317864256080781
 30
0.0
 10
24.39983589296883
 20
-6.234424549296835
 30
0.0
 10
24.37977498769762
 20
-6.167158835866296
 30
0.0
  0
LINE
  5
231
330
1F
100
AcDbEntity
  8
0
  6
Continuous
 62
     1
370
    15
100
AcDbLine
 10
25.05141036957504
 20
-6.266664599367225
 30
0.0
 11
25.0268635004759
 21
-6.251573914029443
 31
0.0
  0
LINE
  5
232
330
1F
100
AcDbEntity
  8
0
  6
Continuous
 62
     1
370
    15
100
AcDbLine
 10
40.28750030696393
 20
-6.329551690556848
 30
0.0
 11
40.27744388580323
 21
-6.333606669046723
 31
0.0
  0
LINE
  5
233
330
1F
100
AcDbEntity
  8
0
  6
Continuous
 62
     1
370
    15
100
AcDbLine
 10
29.32288503646852
 20
6.323929990343011
 30
0.0
 11
29.28764006495478
 21
6.342370642981685
 31
0.0
  0
LINE
  5
234
330
1F
100
AcDbEntity
  8
0
  6
Continuous
 62
     1
370
    15
100
AcDbLine
 10
25.2121007665992
 20
-6.324296237268292
 30
0.0
 11
25.18901886790993
 21
-6.318208181598031
 31
0.0
  0
LINE
  5
235
330
1F
100
AcDbEntity
  8
0
  6
Continuous
 62
     1
370
    15
100
AcDbLine
 10
14.07349325157704
 20
6.303676518312848
 30
0.0
 11
14.04853916168214
 21
6.285272652915872
 31
0.0
  0
LINE
  5
236
330
1F
100
AcDbEntity
  8
0
  6
Continuous
 62
     8
370
    15
100
AcDbLine
 10
40.45400588214398
 20
-6.258180716373765
 30
0.0
 11
40.43881787359715
 21
-6.283131313809001
 31
0.0
  0
LINE
  5
237
330
1F
100
AcDbEntity
  8
중심선
100
AcDbLine
 10
-45.79999999999999
 20
0.0132435212649379
 30
0.0
 11
50.75000000000001
 21
0.0132435212649379
 31
0.0
  0
CIRCLE
  5
238
330
1F
100
AcDbEntity
  8
외형선
100
AcDbCircle
 10
0.0000000000000104
 20
0.0
 30
0.0
 40
3.000000000000005
  0
INSERT
  5
239
330
1F
100
AcDbEntity
  8
0
  6
Continuous
 62
     7
100
AcDbBlockReference
 66
     1
  2
블럭10
 10
-6.996851049235465
 20
-52.04717430164393
 30
0.0
  0
ATTRIB
  5
23A
330
239
100
AcDbEntity
  8
FORMAT
 62
     2
100
AcDbText
 10
-16.34669523488551
 20
-49.97180738881174
 30
0.0
 40
4.233333333333333
  1
EK191032 [ 3 FLUTE ]
 41
0.75
  7
SLDTEXTSTYLE0
 11
-16.34669523488551
 21
-52.08847405547841
 31
0.0
100
AcDbAttribute
  2
AUTOATTR0
 70
     0
 74
     1
  0
SEQEND
  5
23B
330
239
100
AcDbEntity
  8
0
  6
Continuous
 62
     7
  0
HATCH
  5
23C
330
1F
100
AcDbEntity
  8
중심선
100
AcDbHatch
 10
0.0
 20
0.0
 30
0.0
210
0.0
220
0.0
230
1.0
  2
SOLID
 70
     1
 71
     0
 91
        1
 92
        0
 93
        4
 72
     1
 10
-1.281941744854631
 20
-35.8
 11
-4.728216988691914
 21
-35.8
 72
     1
 10
-4.728216988691914
 20
-35.8
 11
-6.856446847895937
 21
-38.33632558057257
 72
     1
 10
-6.856446847895937
 20
-38.33632558057257
 11
-3.410138518945505
 21
-38.33628615127008
 72
     1
 10
-3.410138518945505
 20
-38.33628615127008
 11
-1.281941744854631
 21
-35.8
 97
        0
 75
     0
 76
     1
 98
        1
 10
0.0
 20
0.0
  0
HATCH
  5
23D
330
1F
100
AcDbEntity
  8
중심선
100
AcDbHatch
 10
0.0
 20
0.0
 30
0.0
210
0.0
220
0.0
230
1.0
  2
SOLID
 70
     1
 71
     0
 91
        1
 92
        0
 93
        4
 72
     1
 10
3.730822246181348
 20
-35.8
 11
0.2845470023440653
 21
-35.8
 72
     1
 10
0.2845470023440655
 20
-35.8
 11
-4.24659100601335
 21
-41.20000000000002
 72
     1
 10
-4.24659100601335
 20
-41.20000000000002
 11
-0.8003157621760684
 21
-41.20000000000002
 72
     1
 10
-0.8003157621760681
 20
-41.20000000000002
 11
3.730822246181348
 21
-35.8
 97
        0
 75
     0
 76
     1
 98
        1
 10
0.0
 20
0.0
  0
HATCH
  5
23E
330
1F
100
AcDbEntity
  8
중심선
100
AcDbHatch
 10
0.0
 20
0.0
 30
0.0
210
0.0
220
0.0
230
1.0
  2
SOLID
 70
     1
 71
     0
 91
        1
 92
        0
 93
        4
 72
     1
 10
8.743586237217189
 20
-35.8
 11
5.297310993380128
 21
-35.8
 72
     1
 10
5.297310993380128
 20
-35.8
 11
-1.751125908509149
 21
-44.20000000000002
 72
     1
 10
-1.751125908509149
 20
-44.20000000000002
 11
1.695149335328133
 21
-44.20000000000002
 72
     1
 10
1.695149335328133
 20
-44.20000000000002
 11
8.743586237217189
 21
-35.8
 97
        0
 75
     0
 76
     1
 98
        1
 10
0.0
 20
0.0
  0
HATCH
  5
23F
330
1F
100
AcDbEntity
  8
중심선
100
AcDbHatch
 10
0.0
 20
0.0
 30
0.0
210
0.0
220
0.0
230
1.0
  2
SOLID
 70
     1
 71
     0
 91
        1
 92
        0
 93
        6
 72
     3
 10
13.54347666822941
 20
-40.00000000005127
 11
3.960054785062284
 21
1.540850780301639E-10
 40
0.3939339440162633
 50
17.09539180608433
 51
320.0019657685081
 73
     0
 72
     1
 10
15.22647632392998
 20
-38.58789400463833
 11
17.53177819763105
 21
-36.65356729459038
 72
     3
 10
13.54347666817657
 20
-40.00000000000015
 11
6.600054785286829
 21
-1.249000902703301E-13
 40
0.6363583540795982
 50
39.99873849337408
 51
368.4976242363724
 73
     1
 72
     1
 10
19.96880916007718
 20
-39.03999999993002
 11
12.22354397501249
 21
-39.03999999993002
 72
     1
 10
12.22354397501249
 20
-39.03999999993002
 11
12.22351893056656
 21
-40.95999999992991
 72
     1
 10
12.22351893056656
 20
-40.95999999992991
 11
16.6648987000386
 21
-40.95999999992988
 97
        0
 75
     0
 76
     1
 98
        1
 10
0.0
 20
0.0
  0
POINT
  5
240
330
1F
100
AcDbEntity
  8
치수문자_일반주서
100
AcDbPoint
 10
0.0000000000000104
 20
0.0
 30
0.0
  0
DIMENSION
  5
241
330
1F
100
AcDbEntity
  8
치수문자_일반주서
100
AcDbDimension
  2
_D
 10
12.00000000000002
 20
31.5484976355775
 30
0.0
 11
27.87500000000002
 21
31.5484976355775
 31
0.0
 70
   160
  1
<>
 71
     2
 42
31.74999931454657
  3
SLDDIMSTYLE0
100
AcDbAlignedDimension
 13
43.74999931454659
 23
6.363243444523967
 33
0.0
 14
12.00000000000002
 24
6.165058860315495
 34
0.0
100
AcDbRotatedDimension
1001
ACAD
1000
DSTYLE
1002
{
1070
   171
1070
     6
1070
   273
1070
     7
1002
}
  0
DIMENSION
  5
255
330
1F
100
AcDbEntity
  8
치수문자_일반주서
100
AcDbDimension
  2
_D_1
 10
43.7499993145466
 20
44.46970859613322
 30
0.0
 11
3.332086678241481
 21
44.46970859613322
 31
0.0
 70
   160
  1
<>
 71
     2
 42
82.54999931454657
  3
SLDDIMSTYLE0
100
AcDbAlignedDimension
 13
-38.79999999999998
 23
5.363243521264939
 33
0.0
 14
43.74999931454659
 24
6.363243444523967
 34
0.0
 50
-0.0000000000000049
100
AcDbRotatedDimension
1001
ACAD
1000
DSTYLE
1002
{
1070
   171
1070
     6
1070
   273
1070
     7
1002
}
  0
DIMENSION
  5
268
330
1F
100
AcDbEntity
  8
치수문자_일반주서
100
AcDbDimension
  2
_D_2
 10
-55.79452746688027
 20
-6.336756478735126
 30
0.0
 11
-55.79452746688037
 21
26.31099352126488
 31
0.0
 70
   160
  1
%%c<>
 71
     2
 42
12.7
  3
SLDDIMSTYLE1
100
AcDbAlignedDimension
 13
-37.79999999999998
 23
6.36324352126494
 33
0.0
 14
-37.79999999999998
 24
-6.336756478735059
 34
0.0
 50
90.0000000000002
100
AcDbRotatedDimension
1001
ACAD
1000
DSTYLE
1002
{
1070
   171
1070
     6
1070
   273
1070
     7
1002
}
  0
INSERT
  5
283
330
1F
100
AcDbEntity
  8
외형선
100
AcDbBlockReference
  2
SW_DOWELSYMBOL_0
 10
0.0000000000000104
 20
0.0
 30
0.0
  0
DIMENSION
  5
2AF
330
1F
100
AcDbEntity
  8
치수문자_일반주서
100
AcDbDimension
  2
*D6
 10
60.23676234228923
 20
6.363243444523966
 30
0.0
 11
57.61176234228923
 21
24.99849344452397
 31
0.0
 70
    32
 71
     5
 42
12.69999984651804
  3
SLDDIMSTYLE1
100
AcDbAlignedDimension
 13
43.75000000000001
 23
-6.336756401994073
 33
0.0
 14
43.75000000000001
 24
6.363243444523967
 34
0.0
 50
90.0
100
AcDbRotatedDimension
1001
ACAD
1000
DSTYLE
1002
{
1070
   171
1070
     6
1070
   273
1070
     7
1002
}
  0
LINE
  5
31E
330
1F
100
AcDbEntity
  8
0
  6
Continuous
 62
     4
370
    15
100
AcDbLine
 10
-21.7661260848045
 20
4.83924352126494
 30
0.0
 11
-10.59012608480462
 21
4.83924352126494
 31
0.0
  0
LINE
  5
31F
330
1F
100
AcDbEntity
  8
0
  6
Continuous
 62
     4
370
    15
100
AcDbLine
 10
-21.7661260848045
 20
4.83924352126494
 30
0.0
 11
-23.2901260848045
 21
6.363243521264941
 31
0.0
  0
LINE
  5
320
330
1F
100
AcDbEntity
  8
0
  6
Continuous
 62
     4
370
    15
100
AcDbLine
 10
-10.59012608480451
 20
4.83924352126494
 30
0.0
 11
-9.066126084804509
 21
6.363243521264941
 31
0.0
  0
LINE
  5
321
330
1F
100
AcDbEntity
  8
0
  6
Continuous
 62
     4
370
    15
100
AcDbLine
 10
-23.29012600806352
 20
6.363243444523967
 30
0.0
 11
-37.7999990582466
 21
6.363243444523967
 31
0.0
  0
ENDSEC
  0
SECTION
  2
OBJECTS
  0
DICTIONARY
  5
C
330
0
100
AcDbDictionary
281
     1
  3
ACAD_GROUP
350
D
  3
ACAD_IMAGE_VARS
350
2A7
  3
ACAD_LAYOUT
350
1A
  3
ACAD_MLINESTYLE
350
17
  3
ACAD_PLOTSETTINGS
350
19
  3
ACAD_PLOTSTYLENAME
350
E
  3
ACAD_SCALELIST
350
47
  3
APPDATA
350
2A5
  3
DWGPROPS
350
322
  0
DICTIONARY
  5
30F
330
2
100
AcDbDictionary
280
     1
281
     1
  3
ACAD_LAYERSTATES
360
310
  0
DICTIONARY
  5
D
102
{ACAD_REACTORS
330
C
102
}
330
C
100
AcDbDictionary
281
     1
  0
RASTERVARIABLES
  5
2A7
102
{ACAD_REACTORS
330
C
102
}
330
C
100
AcDbRasterVariables
 90
        0
 70
     1
 71
     1
 72
     1
  0
DICTIONARY
  5
1A
102
{ACAD_REACTORS
330
C
102
}
330
C
100
AcDbDictionary
281
     1
  3
Layout1
350
1E
  3
Layout2
350
26
  3
Model
350
22
  0
DICTIONARY
  5
17
102
{ACAD_REACTORS
330
C
102
}
330
C
100
AcDbDictionary
281
     1
  3
Standard
350
18
  0
DICTIONARY
  5
19
102
{ACAD_REACTORS
330
C
102
}
330
C
100
AcDbDictionary
281
     1
  0
ACDBDICTIONARYWDFLT
  5
E
102
{ACAD_REACTORS
330
C
102
}
330
C
100
AcDbDictionary
281
     1
  3
Normal
350
F
100
AcDbDictionaryWithDefault
340
F
  0
DICTIONARY
  5
47
102
{ACAD_REACTORS
330
C
102
}
330
C
100
AcDbDictionary
281
     1
  3
A0
350
48
  3
A1
350
49
  3
A2
350
4A
  3
A3
350
4B
  3
A4
350
4C
  3
A5
350
4D
  3
A6
350
4E
  3
A7
350
4F
  3
A8
350
50
  3
A9
350
51
  3
B0
350
52
  3
B1
350
53
  3
B2
350
54
  3
B3
350
55
  3
B4
350
56
  3
B5
350
57
  3
B6
350
58
  3
B7
350
59
  3
B8
350
5A
  3
B9
350
5B
  3
C0
350
5C
  3
C1
350
5D
  3
C2
350
5E
  3
C3
350
5F
  3
C4
350
60
  3
C5
350
61
  3
C6
350
62
  3
C7
350
63
  3
C8
350
64
  3
C9
350
65
  3
D0
350
66
  3
D1
350
67
  3
D2
350
68
  0
DICTIONARY
  5
2A5
102
{ACAD_REACTORS
330
C
102
}
330
C
100
AcDbDictionary
281
     1
  0
XRECORD
  5
322
102
{ACAD_REACTORS
330
C
102
}
330
C
100
AcDbXrecord
280
     1
  1
DWGPROPS COOKIE
  2

  3

  4

  6

  7

  8
12016016
  9

300
=
301
=
302
=
303
=
304
=
305
=
306
=
307
=
308
=
309
=
 40
0.0
 41
2458274.4047739
 42
2458305.344337026
  1

 90
        0
  0
DICTIONARY
  5
310
102
{ACAD_REACTORS
330
30F
102
}
330
30F
100
AcDbDictionary
281
     1
  0
LAYOUT
  5
1E
102
{ACAD_REACTORS
330
1A
102
}
330
1A
100
AcDbPlotSettings
  1

  2
none_device
  4

  6

 40
0.0
 41
0.0
 42
0.0
 43
0.0
 44
0.0
 45
0.0
 46
0.0
 47
0.0
 48
0.0
 49
0.0
140
0.0
141
0.0
142
1.0
143
1.0
 70
   688
 72
     1
 73
     0
 74
     5
  7

 75
    16
147
1.0
148
0.0
149
0.0
100
AcDbLayout
  1
Layout1
 70
     1
 71
     1
 10
0.0
 20
0.0
 11
420.0
 21
297.0
 12
0.0
 22
0.0
 32
0.0
 14
1.000000000000000E+20
 24
1.000000000000000E+20
 34
1.000000000000000E+20
 15
-1.000000000000000E+20
 25
-1.000000000000000E+20
 35
-1.000000000000000E+20
146
0.0
 13
0.0
 23
0.0
 33
0.0
 16
1.0
 26
0.0
 36
0.0
 17
0.0
 27
1.0
 37
0.0
 76
     0
330
1B
  0
LAYOUT
  5
26
102
{ACAD_REACTORS
330
1A
102
}
330
1A
100
AcDbPlotSettings
  1

  2
none_device
  4

  6

 40
0.0
 41
0.0
 42
0.0
 43
0.0
 44
0.0
 45
0.0
 46
0.0
 47
0.0
 48
0.0
 49
0.0
140
0.0
141
0.0
142
1.0
143
1.0
 70
   688
 72
     1
 73
     0
 74
     5
  7

 75
    16
147
1.0
148
0.0
149
0.0
100
AcDbLayout
  1
Layout2
 70
     1
 71
     2
 10
0.0
 20
0.0
 11
0.0
 21
0.0
 12
0.0
 22
0.0
 32
0.0
 14
0.0
 24
0.0
 34
0.0
 15
0.0
 25
0.0
 35
0.0
146
0.0
 13
0.0
 23
0.0
 33
0.0
 16
1.0
 26
0.0
 36
0.0
 17
0.0
 27
1.0
 37
0.0
 76
     0
330
23
  0
LAYOUT
  5
22
102
{ACAD_REACTORS
330
1A
102
}
330
1A
100
AcDbPlotSettings
  1

  2
none_device
  4
ANSI_A_(11.00_x_8.50_Inches)
  6

 40
6.35
 41
19.05
 42
6.35000508
 43
19.05000254
 44
279.4
 45
215.9
 46
151.7811629185904
 47
100.0321225723196
 48
0.0
 49
0.0
140
0.0
141
0.0
142
0.0916040968282661
143
1.0
 70
  1696
 72
     0
 73
     0
 74
     0
  7

 75
     0
147
0.0235690232323232
148
0.0
149
0.0
100
AcDbLayout
  1
Model
 70
     1
 71
     0
 10
0.0
 20
0.0
 11
420.0
 21
297.0
 12
0.0
 22
0.0
 32
0.0
 14
1.000000000000000E+20
 24
1.000000000000000E+20
 34
1.000000000000000E+20
 15
-1.000000000000000E+20
 25
-1.000000000000000E+20
 35
-1.000000000000000E+20
146
0.0
 13
0.0
 23
0.0
 33
0.0
 16
1.0
 26
0.0
 36
0.0
 17
0.0
 27
1.0
 37
0.0
 76
     0
330
1F
331
29
  0
MLINESTYLE
  5
18
102
{ACAD_REACTORS
330
17
102
}
330
17
100
AcDbMlineStyle
  2
Standard
 70
     0
  3

 62
   256
 51
90.0
 52
90.0
 71
     2
 49
0.5
 62
   256
  6
BYLAYER
 49
-0.5
 62
   256
  6
BYLAYER
  0
ACDBPLACEHOLDER
  5
F
102
{ACAD_REACTORS
330
E
102
}
330
E
  0
SCALE
  5
48
102
{ACAD_REACTORS
330
47
102
}
330
47
100
AcDbScale
 70
     0
300
1:1
140
1.0
141
1.0
290
     1
  0
SCALE
  5
49
102
{ACAD_REACTORS
330
47
102
}
330
47
100
AcDbScale
 70
     0
300
1:2
140
1.0
141
2.0
290
     0
  0
SCALE
  5
4A
102
{ACAD_REACTORS
330
47
102
}
330
47
100
AcDbScale
 70
     0
300
1:4
140
1.0
141
4.0
290
     0
  0
SCALE
  5
4B
102
{ACAD_REACTORS
330
47
102
}
330
47
100
AcDbScale
 70
     0
300
1:5
140
1.0
141
5.0
290
     0
  0
SCALE
  5
4C
102
{ACAD_REACTORS
330
47
102
}
330
47
100
AcDbScale
 70
     0
300
1:8
140
1.0
141
8.0
290
     0
  0
SCALE
  5
4D
102
{ACAD_REACTORS
330
47
102
}
330
47
100
AcDbScale
 70
     0
300
1:10
140
1.0
141
10.0
290
     0
  0
SCALE
  5
4E
102
{ACAD_REACTORS
330
47
102
}
330
47
100
AcDbScale
 70
     0
300
1:16
140
1.0
141
16.0
290
     0
  0
SCALE
  5
4F
102
{ACAD_REACTORS
330
47
102
}
330
47
100
AcDbScale
 70
     0
300
1:20
140
1.0
141
20.0
290
     0
  0
SCALE
  5
50
102
{ACAD_REACTORS
330
47
102
}
330
47
100
AcDbScale
 70
     0
300
1:30
140
1.0
141
30.0
290
     0
  0
SCALE
  5
51
102
{ACAD_REACTORS
330
47
102
}
330
47
100
AcDbScale
 70
     0
300
1:40
140
1.0
141
40.0
290
     0
  0
SCALE
  5
52
102
{ACAD_REACTORS
330
47
102
}
330
47
100
AcDbScale
 70
     0
300
1:50
140
1.0
141
50.0
290
     0
  0
SCALE
  5
53
102
{ACAD_REACTORS
330
47
102
}
330
47
100
AcDbScale
 70
     0
300
1:100
140
1.0
141
100.0
290
     0
  0
SCALE
  5
54
102
{ACAD_REACTORS
330
47
102
}
330
47
100
AcDbScale
 70
     0
300
2:1
140
2.0
141
1.0
290
     0
  0
SCALE
  5
55
102
{ACAD_REACTORS
330
47
102
}
330
47
100
AcDbScale
 70
     0
300
4:1
140
4.0
141
1.0
290
     0
  0
SCALE
  5
56
102
{ACAD_REACTORS
330
47
102
}
330
47
100
AcDbScale
 70
     0
300
8:1
140
8.0
141
1.0
290
     0
  0
SCALE
  5
57
102
{ACAD_REACTORS
330
47
102
}
330
47
100
AcDbScale
 70
     0
300
10:1
140
10.0
141
1.0
290
     0
  0
SCALE
  5
58
102
{ACAD_REACTORS
330
47
102
}
330
47
100
AcDbScale
 70
     0
300
100:1
140
100.0
141
1.0
290
     0
  0
SCALE
  5
59
102
{ACAD_REACTORS
330
47
102
}
330
47
100
AcDbScale
 70
     0
300
1/128" = 1'-0"
140
0.0078125
141
12.0
290
     0
  0
SCALE
  5
5A
102
{ACAD_REACTORS
330
47
102
}
330
47
100
AcDbScale
 70
     0
300
1/64" = 1'-0"
140
0.015625
141
12.0
290
     0
  0
SCALE
  5
5B
102
{ACAD_REACTORS
330
47
102
}
330
47
100
AcDbScale
 70
     0
300
1/32" = 1'-0"
140
0.03125
141
12.0
290
     0
  0
SCALE
  5
5C
102
{ACAD_REACTORS
330
47
102
}
330
47
100
AcDbScale
 70
     0
300
1/16" = 1'-0"
140
0.0625
141
12.0
290
     0
  0
SCALE
  5
5D
102
{ACAD_REACTORS
330
47
102
}
330
47
100
AcDbScale
 70
     0
300
3/32" = 1'-0"
140
0.09375
141
12.0
290
     0
  0
SCALE
  5
5E
102
{ACAD_REACTORS
330
47
102
}
330
47
100
AcDbScale
 70
     0
300
1/8" = 1'-0"
140
0.125
141
12.0
290
     0
  0
SCALE
  5
5F
102
{ACAD_REACTORS
330
47
102
}
330
47
100
AcDbScale
 70
     0
300
3/16" = 1'-0"
140
0.1875
141
12.0
290
     0
  0
SCALE
  5
60
102
{ACAD_REACTORS
330
47
102
}
330
47
100
AcDbScale
 70
     0
300
1/4" = 1'-0"
140
0.25
141
12.0
290
     0
  0
SCALE
  5
61
102
{ACAD_REACTORS
330
47
102
}
330
47
100
AcDbScale
 70
     0
300
3/8" = 1'-0"
140
0.375
141
12.0
290
     0
  0
SCALE
  5
62
102
{ACAD_REACTORS
330
47
102
}
330
47
100
AcDbScale
 70
     0
300
1/2" = 1'-0"
140
0.5
141
12.0
290
     0
  0
SCALE
  5
63
102
{ACAD_REACTORS
330
47
102
}
330
47
100
AcDbScale
 70
     0
300
3/4" = 1'-0"
140
0.75
141
12.0
290
     0
  0
SCALE
  5
64
102
{ACAD_REACTORS
330
47
102
}
330
47
100
AcDbScale
 70
     0
300
1" = 1'-0"
140
1.0
141
12.0
290
     0
  0
SCALE
  5
65
102
{ACAD_REACTORS
330
47
102
}
330
47
100
AcDbScale
 70
     0
300
1-1/2" = 1'-0"
140
1.5
141
12.0
290
     0
  0
SCALE
  5
66
102
{ACAD_REACTORS
330
47
102
}
330
47
100
AcDbScale
 70
     0
300
3" = 1'-0"
140
3.0
141
12.0
290
     0
  0
SCALE
  5
67
102
{ACAD_REACTORS
330
47
102
}
330
47
100
AcDbScale
 70
     0
300
6" = 1'-0"
140
6.0
141
12.0
290
     0
  0
SCALE
  5
68
102
{ACAD_REACTORS
330
47
102
}
330
47
100
AcDbScale
 70
     0
300
1'-0" = 1'-0"
140
12.0
141
12.0
290
     0
  0
ENDSEC
  0
EOF
