  0
SECTION
  2
HEADER
  9
$ACADVER
  1
AC1015
  9
$ACADMAINTVER
 70
     6
  9
$DWGCODEPAGE
  3
ANSI_949
  9
$INSBASE
 10
0.0
 20
0.0
 30
0.0
  9
$EXTMIN
 10
-67.72431625109141
 20
-44.8802256189195
 30
0.0
  9
$EXTMAX
 10
99.1635088153456
 20
50.12401198635113
 30
0.0
  9
$LIMMIN
 10
0.0
 20
0.0
  9
$LIMMAX
 10
420.0
 20
297.0
  9
$ORTHOMODE
 70
     0
  9
$REGENMODE
 70
     1
  9
$FILLMODE
 70
     1
  9
$QTEXTMODE
 70
     0
  9
$MIRRTEXT
 70
     1
  9
$LTSCALE
 40
1.0
  9
$ATTMODE
 70
     1
  9
$TEXTSIZE
 40
3.5
  9
$TRACEWID
 40
1.0
  9
$TEXTSTYLE
  7
Standard
  9
$CLAYER
  8
0
  9
$CELTYPE
  6
ByLayer
  9
$CECOLOR
 62
   256
  9
$CELTSCALE
 40
1.0
  9
$DISPSILH
 70
     0
  9
$DIMSCALE
 40
1.0
  9
$DIMASZ
 40
3.302
  9
$DIMEXO
 40
1.0
  9
$DIMDLI
 40
3.75
  9
$DIMRND
 40
0.0
  9
$DIMDLE
 40
0.0
  9
$DIMEXE
 40
1.0
  9
$DIMTP
 40
0.0
  9
$DIMTM
 40
0.0
  9
$DIMTXT
 40
3.5
  9
$DIMCEN
 40
2.5
  9
$DIMTSZ
 40
0.0
  9
$DIMTOL
 70
     0
  9
$DIMLIM
 70
     0
  9
$DIMTIH
 70
     1
  9
$DIMTOH
 70
     1
  9
$DIMSE1
 70
     0
  9
$DIMSE2
 70
     0
  9
$DIMTAD
 70
     1
  9
$DIMZIN
 70
     0
  9
$DIMBLK
  1

  9
$DIMASO
 70
     1
  9
$DIMSHO
 70
     1
  9
$DIMPOST
  1

  9
$DIMAPOST
  1

  9
$DIMALT
 70
     0
  9
$DIMALTD
 70
     3
  9
$DIMALTF
 40
0.0393700787401575
  9
$DIMLFAC
 40
1.0
  9
$DIMTOFL
 70
     1
  9
$DIMTVP
 40
0.0
  9
$DIMTIX
 70
     0
  9
$DIMSOXD
 70
     0
  9
$DIMSAH
 70
     0
  9
$DIMBLK1
  1

  9
$DIMBLK2
  1

  9
$DIMSTYLE
  2
ISO-25
  9
$DIMCLRD
 70
     0
  9
$DIMCLRE
 70
     0
  9
$DIMCLRT
 70
     0
  9
$DIMTFAC
 40
1.0
  9
$DIMGAP
 40
1.524
  9
$DIMJUST
 70
     0
  9
$DIMSD1
 70
     0
  9
$DIMSD2
 70
     0
  9
$DIMTOLJ
 70
     0
  9
$DIMTZIN
 70
     0
  9
$DIMALTZ
 70
     0
  9
$DIMALTTZ
 70
     0
  9
$DIMUPT
 70
     0
  9
$DIMDEC
 70
     2
  9
$DIMTDEC
 70
     2
  9
$DIMALTU
 70
     2
  9
$DIMALTTD
 70
     3
  9
$DIMTXSTY
  7
Standard
  9
$DIMAUNIT
 70
     0
  9
$DIMADEC
 70
     2
  9
$DIMALTRND
 40
0.0
  9
$DIMAZIN
 70
     0
  9
$DIMDSEP
 70
    44
  9
$DIMATFIT
 70
     3
  9
$DIMFRAC
 70
     0
  9
$DIMLDRBLK
  1

  9
$DIMLUNIT
 70
     2
  9
$DIMLWD
 70
    -2
  9
$DIMLWE
 70
    -2
  9
$DIMTMOVE
 70
     0
  9
$LUNITS
 70
     2
  9
$LUPREC
 70
     2
  9
$SKETCHINC
 40
1.0
  9
$FILLETRAD
 40
10.0
  9
$AUNITS
 70
     0
  9
$AUPREC
 70
     2
  9
$MENU
  1
.
  9
$ELEVATION
 40
0.0
  9
$PELEVATION
 40
0.0
  9
$THICKNESS
 40
0.0
  9
$LIMCHECK
 70
     0
  9
$CHAMFERA
 40
0.0
  9
$CHAMFERB
 40
0.0
  9
$CHAMFERC
 40
0.0
  9
$CHAMFERD
 40
0.0
  9
$SKPOLY
 70
     0
  9
$TDCREATE
 40
2458270.634505486
  9
$TDUCREATE
 40
2458270.259505486
  9
$TDUPDATE
 40
2459718.450850706
  9
$TDUUPDATE
 40
2459718.075850706
  9
$TDINDWG
 40
0.0055875116
  9
$TDUSRTIMER
 40
0.0014453009
  9
$USRTIMER
 70
     1
  9
$ANGBASE
 50
0.0
  9
$ANGDIR
 70
     0
  9
$PDMODE
 70
     0
  9
$PDSIZE
 40
-1.0
  9
$PLINEWID
 40
0.0
  9
$SPLFRAME
 70
     0
  9
$SPLINETYPE
 70
     6
  9
$SPLINESEGS
 70
     8
  9
$HANDSEED
  5
52F
  9
$SURFTAB1
 70
     6
  9
$SURFTAB2
 70
     6
  9
$SURFTYPE
 70
     6
  9
$SURFU
 70
     6
  9
$SURFV
 70
     6
  9
$UCSBASE
  2

  9
$UCSNAME
  2

  9
$UCSORG
 10
0.1908337489087048
 20
0.0000000000000289
 30
0.0
  9
$UCSXDIR
 10
1.0
 20
0.0
 30
0.0
  9
$UCSYDIR
 10
0.0
 20
1.0
 30
0.0
  9
$UCSORTHOREF
  2

  9
$UCSORTHOVIEW
 70
     0
  9
$UCSORGTOP
 10
0.0
 20
0.0
 30
0.0
  9
$UCSORGBOTTOM
 10
0.0
 20
0.0
 30
0.0
  9
$UCSORGLEFT
 10
0.0
 20
0.0
 30
0.0
  9
$UCSORGRIGHT
 10
0.0
 20
0.0
 30
0.0
  9
$UCSORGFRONT
 10
0.0
 20
0.0
 30
0.0
  9
$UCSORGBACK
 10
0.0
 20
0.0
 30
0.0
  9
$PUCSBASE
  2

  9
$PUCSNAME
  2

  9
$PUCSORG
 10
0.0
 20
0.0
 30
0.0
  9
$PUCSXDIR
 10
1.0
 20
0.0
 30
0.0
  9
$PUCSYDIR
 10
0.0
 20
1.0
 30
0.0
  9
$PUCSORTHOREF
  2

  9
$PUCSORTHOVIEW
 70
     0
  9
$PUCSORGTOP
 10
0.0
 20
0.0
 30
0.0
  9
$PUCSORGBOTTOM
 10
0.0
 20
0.0
 30
0.0
  9
$PUCSORGLEFT
 10
0.0
 20
0.0
 30
0.0
  9
$PUCSORGRIGHT
 10
0.0
 20
0.0
 30
0.0
  9
$PUCSORGFRONT
 10
0.0
 20
0.0
 30
0.0
  9
$PUCSORGBACK
 10
0.0
 20
0.0
 30
0.0
  9
$USERI1
 70
     0
  9
$USERI2
 70
     0
  9
$USERI3
 70
     0
  9
$USERI4
 70
     0
  9
$USERI5
 70
     0
  9
$USERR1
 40
0.0
  9
$USERR2
 40
0.0
  9
$USERR3
 40
0.0
  9
$USERR4
 40
0.0
  9
$USERR5
 40
0.0
  9
$WORLDVIEW
 70
     1
  9
$SHADEDGE
 70
     3
  9
$SHADEDIF
 70
    70
  9
$TILEMODE
 70
     1
  9
$MAXACTVP
 70
    64
  9
$PINSBASE
 10
0.0
 20
0.0
 30
0.0
  9
$PLIMCHECK
 70
     0
  9
$PEXTMIN
 10
1.000000000000000E+20
 20
1.000000000000000E+20
 30
1.000000000000000E+20
  9
$PEXTMAX
 10
-1.000000000000000E+20
 20
-1.000000000000000E+20
 30
-1.000000000000000E+20
  9
$PLIMMIN
 10
0.0
 20
0.0
  9
$PLIMMAX
 10
0.0
 20
0.0
  9
$UNITMODE
 70
     0
  9
$VISRETAIN
 70
     1
  9
$PLINEGEN
 70
     0
  9
$PSLTSCALE
 70
     1
  9
$TREEDEPTH
 70
  3020
  9
$CMLSTYLE
  2
Standard
  9
$CMLJUST
 70
     0
  9
$CMLSCALE
 40
20.0
  9
$PROXYGRAPHICS
 70
     1
  9
$MEASUREMENT
 70
     1
  9
$CELWEIGHT
370
    -1
  9
$ENDCAPS
280
     0
  9
$JOINSTYLE
280
     0
  9
$LWDISPLAY
290
     1
  9
$INSUNITS
 70
     4
  9
$HYPERLINKBASE
  1

  9
$STYLESHEET
  1

  9
$XEDIT
290
     1
  9
$CEPSNTYPE
380
     0
  9
$PSTYLEMODE
290
     1
  9
$FINGERPRINTGUID
  2
{0CBA276D-93A1-4B21-A2E7-F2339FD7F036}
  9
$VERSIONGUID
  2
{FAEB1C32-E019-11D5-929B-00C0DF256EC4}
  9
$EXTNAMES
290
     1
  9
$PSVPSCALE
 40
0.0
  9
$OLESTARTUP
290
     0
  0
ENDSEC
  0
SECTION
  2
CLASSES
  0
CLASS
  1
ACDBDICTIONARYWDFLT
  2
AcDbDictionaryWithDefault
  3
ObjectDBX Classes
 90
        0
280
     0
281
     0
  0
CLASS
  1
VISUALSTYLE
  2
AcDbVisualStyle
  3
ObjectDBX Classes
 90
     4095
280
     0
281
     0
  0
CLASS
  1
MATERIAL
  2
AcDbMaterial
  3
ObjectDBX Classes
 90
     1153
280
     0
281
     0
  0
CLASS
  1
SCALE
  2
AcDbScale
  3
ObjectDBX Classes
 90
     1153
280
     0
281
     0
  0
CLASS
  1
SUN
  2
AcDbSun
  3
SCENEOE
 90
     1153
280
     0
281
     0
  0
CLASS
  1
ACDBPLACEHOLDER
  2
AcDbPlaceHolder
  3
ObjectDBX Classes
 90
        0
280
     0
281
     0
  0
CLASS
  1
LAYOUT
  2
AcDbLayout
  3
ObjectDBX Classes
 90
        0
280
     0
281
     0
  0
CLASS
  1
TABLESTYLE
  2
AcDbTableStyle
  3
ObjectDBX Classes
 90
     4095
280
     0
281
     0
  0
CLASS
  1
MLEADERSTYLE
  2
AcDbMLeaderStyle
  3
ACDB_MLEADERSTYLE_CLASS
 90
     4095
280
     0
281
     0
  0
CLASS
  1
DICTIONARYVAR
  2
AcDbDictionaryVar
  3
ObjectDBX Classes
 90
        0
280
     0
281
     0
  0
ENDSEC
  0
SECTION
  2
TABLES
  0
TABLE
  2
VPORT
  5
8
330
0
100
AcDbSymbolTable
 70
     1
  0
VPORT
  5
29
330
8
100
AcDbSymbolTableRecord
100
AcDbViewportTableRecord
  2
*Active
 70
     0
 10
0.0
 20
0.0
 11
1.0
 21
1.0
 12
15.71959628212709
 22
2.621893183715805
 13
0.0
 23
0.0
 14
10.0
 24
10.0
 15
10.0
 25
10.0
 16
0.0
 26
0.0
 36
1.0
 17
0.0
 27
0.0
 37
0.0
 40
111.9945681445843
 41
1.519944979367263
 42
50.0
 43
0.0
 44
0.0
 50
0.0
 51
0.0
 71
    16
 72
  2000
 73
     1
 74
     3
 75
     0
 76
     0
 77
     0
 78
     0
281
     0
 65
     1
110
0.1908337489087048
120
0.0000000000000289
130
0.0
111
1.0
121
0.0
131
0.0
112
0.0
122
1.0
132
0.0
 79
     0
146
0.0
  0
ENDTAB
  0
TABLE
  2
LTYPE
  5
5
330
0
100
AcDbSymbolTable
 70
     6
  0
LTYPE
  5
14
330
5
100
AcDbSymbolTableRecord
100
AcDbLinetypeTableRecord
  2
ByBlock
 70
     0
  3

 72
    65
 73
     0
 40
0.0
  0
LTYPE
  5
15
330
5
100
AcDbSymbolTableRecord
100
AcDbLinetypeTableRecord
  2
ByLayer
 70
     0
  3

 72
    65
 73
     0
 40
0.0
  0
LTYPE
  5
16
330
5
100
AcDbSymbolTableRecord
100
AcDbLinetypeTableRecord
  2
Continuous
 70
     0
  3
Solid line
 72
    65
 73
     0
 40
0.0
  0
LTYPE
  5
6A
330
5
100
AcDbSymbolTableRecord
100
AcDbLinetypeTableRecord
  2
HIDDEN
 70
     0
  3
Hidden __ __ __ __ __ __ __ __ __ __ __ __ __ __
 72
    65
 73
     2
 40
1.905
 49
1.27
 74
     0
 49
-0.635
 74
     0
  0
LTYPE
  5
6B
330
5
100
AcDbSymbolTableRecord
100
AcDbLinetypeTableRecord
  2
PHANTOM
 70
     0
  3
Phantom ______  __  __  ______  __  __  ______
 72
    65
 73
     6
 40
12.7
 49
6.35
 74
     0
 49
-1.27
 74
     0
 49
1.27
 74
     0
 49
-1.27
 74
     0
 49
1.27
 74
     0
 49
-1.27
 74
     0
  0
LTYPE
  5
6C
330
5
100
AcDbSymbolTableRecord
100
AcDbLinetypeTableRecord
  2
CENTER
 70
     0
  3
Center ____ _ ____ _ ____ _ ____ _ ____ _ ____
 72
    65
 73
     4
 40
10.16
 49
6.35
 74
     0
 49
-1.27
 74
     0
 49
1.27
 74
     0
 49
-1.27
 74
     0
  0
LTYPE
  5
6D
330
5
100
AcDbSymbolTableRecord
100
AcDbLinetypeTableRecord
  2
CENTERX2
 70
     0
  3
Center (2x) ________  __  ________  __  _____
 72
    65
 73
     4
 40
20.32
 49
12.7
 74
     0
 49
-2.54
 74
     0
 49
2.54
 74
     0
 49
-2.54
 74
     0
  0
LTYPE
  5
6E
330
5
100
AcDbSymbolTableRecord
100
AcDbLinetypeTableRecord
  2
DOT2
 70
     0
  3
Dot (.5x) ........................................
 72
    65
 73
     2
 40
0.635
 49
0.0
 74
     0
 49
-0.635
 74
     0
  0
ENDTAB
  0
TABLE
  2
LAYER
  5
2
330
0
100
AcDbSymbolTable
 70
    18
  0
LAYER
  5
10
330
2
100
AcDbSymbolTableRecord
100
AcDbLayerTableRecord
  2
0
 70
     0
 62
     7
  6
Continuous
370
    -3
390
F
  0
LAYER
  5
6F
330
2
100
AcDbSymbolTableRecord
100
AcDbLayerTableRecord
  2
FORMAT
 70
     0
 62
     2
  6
Continuous
370
    -3
390
F
  0
LAYER
  5
70
330
2
100
AcDbSymbolTableRecord
100
AcDbLayerTableRecord
  2
외형선
 70
     0
 62
     4
  6
Continuous
370
    30
390
F
  0
LAYER
  5
71
330
2
100
AcDbSymbolTableRecord
100
AcDbLayerTableRecord
  2
숨은선
 70
     0
 62
     2
  6
HIDDEN
370
    15
390
F
  0
LAYER
  5
72
330
2
100
AcDbSymbolTableRecord
100
AcDbLayerTableRecord
  2
중심선
 70
     0
 62
     1
  6
CENTERX2
370
    -3
390
F
  0
LAYER
  5
73
330
2
100
AcDbSymbolTableRecord
100
AcDbLayerTableRecord
  2
파단선
 70
     0
 62
     4
  6
Continuous
370
    -3
390
F
  0
LAYER
  5
74
330
2
100
AcDbSymbolTableRecord
100
AcDbLayerTableRecord
  2
해칭선
 70
     0
 62
   100
  6
Continuous
370
    -3
390
F
  0
LAYER
  5
75
330
2
100
AcDbSymbolTableRecord
100
AcDbLayerTableRecord
  2
가는실선
 70
     0
 62
     4
  6
Continuous
370
    -3
390
F
  0
LAYER
  5
76
330
2
100
AcDbSymbolTableRecord
100
AcDbLayerTableRecord
  2
치수_보조선
 70
     0
 62
     4
  6
Continuous
370
    -3
390
F
  0
LAYER
  5
77
330
2
100
AcDbSymbolTableRecord
100
AcDbLayerTableRecord
  2
치수문자_일반주서
 70
     0
 62
     7
  6
Continuous
370
    15
390
F
  0
LAYER
  5
78
330
2
100
AcDbSymbolTableRecord
100
AcDbLayerTableRecord
  2
개별주서
 70
     0
 62
   100
  6
Continuous
370
    30
390
F
  0
LAYER
  5
79
330
2
100
AcDbSymbolTableRecord
100
AcDbLayerTableRecord
  2
중간선
 70
     0
 62
     2
  6
Continuous
370
    15
390
F
  0
LAYER
  5
7A
330
2
100
AcDbSymbolTableRecord
100
AcDbLayerTableRecord
  2
윤곽선
 70
     0
 62
     3
  6
Continuous
370
    40
390
F
  0
LAYER
  5
7B
330
2
100
AcDbSymbolTableRecord
100
AcDbLayerTableRecord
  2
중심마크
 70
     0
 62
   100
  6
Continuous
370
    30
390
F
  0
LAYER
  5
7C
330
2
100
AcDbSymbolTableRecord
100
AcDbLayerTableRecord
  2
가상선
 70
     0
 62
     4
  6
PHANTOM
370
    -3
390
F
  0
LAYER
  5
7D
330
2
100
AcDbSymbolTableRecord
100
AcDbLayerTableRecord
  2
특수지정선
 70
     0
 62
     5
  6
CENTERX2
370
    60
390
F
  0
LAYER
  5
7E
330
2
100
AcDbSymbolTableRecord
100
AcDbLayerTableRecord
  2
참조1
 70
     0
 62
    -4
  6
Continuous
370
    -3
390
F
  0
LAYER
  5
159
330
2
100
AcDbSymbolTableRecord
100
AcDbLayerTableRecord
  2
Defpoints
 70
     0
 62
     7
  6
Continuous
290
     0
370
    -3
390
F
  0
ENDTAB
  0
TABLE
  2
STYLE
  5
3
330
0
100
AcDbSymbolTable
 70
     2
  0
STYLE
  5
11
330
3
100
AcDbSymbolTableRecord
100
AcDbTextStyleTableRecord
  2
Standard
 70
     0
 40
0.0
 41
1.0
 50
0.0
 71
     0
 42
3.5
  3
txt
  4

  0
STYLE
  5
94
330
3
100
AcDbSymbolTableRecord
100
AcDbTextStyleTableRecord
  2
SLDTEXTSTYLE0
 70
     0
 40
0.0
 41
0.75
 50
0.0
 71
     0
 42
3.5
  3
TXT
  4

  0
ENDTAB
  0
TABLE
  2
VIEW
  5
6
330
0
100
AcDbSymbolTable
 70
     0
  0
ENDTAB
  0
TABLE
  2
UCS
  5
7
330
0
100
AcDbSymbolTable
 70
     0
  0
ENDTAB
  0
TABLE
  2
APPID
  5
9
330
0
100
AcDbSymbolTable
 70
     2
  0
APPID
  5
12
330
9
100
AcDbSymbolTableRecord
100
AcDbRegAppTableRecord
  2
ACAD
 70
     0
  0
APPID
  5
15C
330
9
100
AcDbSymbolTableRecord
100
AcDbRegAppTableRecord
  2
PE_URL
 70
     0
  0
ENDTAB
  0
TABLE
  2
DIMSTYLE
  5
A
330
0
100
AcDbSymbolTable
 70
     3
100
AcDbDimStyleTable
  0
DIMSTYLE
105
27
330
A
100
AcDbSymbolTableRecord
100
AcDbDimStyleTableRecord
  2
ISO-25
 70
     0
 41
2.5
 42
0.625
 43
3.75
 44
1.25
 73
     0
 74
     0
 77
     1
 78
     8
140
2.5
141
2.5
143
0.03937007874016
147
0.625
171
     3
172
     1
178
     0
271
     2
272
     2
274
     3
278
    44
283
     0
284
     8
340
11
  0
DIMSTYLE
105
D8
102
{ACAD_REACTORS
102
}
330
A
100
AcDbSymbolTableRecord
100
AcDbDimStyleTableRecord
  2
SLDDIMSTYLE0
 70
     0
 41
3.302
 44
0.0
 45
0.000000001
 73
     0
 74
     0
 77
     1
 78
     4
 79
     1
140
3.5
143
0.0393700787401575
147
0.875
148
0.000000001
170
     1
173
     1
178
     0
271
     2
272
     2
276
     2
284
    12
340
94
  0
DIMSTYLE
105
EC
102
{ACAD_REACTORS
330
462
330
463
330
464
330
460
330
461
102
}
330
A
100
AcDbSymbolTableRecord
100
AcDbDimStyleTableRecord
  2
SLDDIMSTYLE1
 70
     0
 41
3.302
 44
0.0
 45
0.000000001
 73
     0
 74
     0
 77
     1
 78
    12
 79
     3
140
3.5
143
0.0393700787401575
147
0.875
148
0.000000001
170
     1
172
     1
173
     1
178
     0
271
     2
272
     2
276
     2
284
    12
289
     0
340
94
  0
ENDTAB
  0
TABLE
  2
BLOCK_RECORD
  5
1
330
0
100
AcDbSymbolTable
 70
    27
  0
BLOCK_RECORD
  5
1F
102
{ACAD_XDICTIONARY
360
52C
102
}
330
1
100
AcDbSymbolTableRecord
100
AcDbBlockTableRecord
  2
*Model_Space
340
22
  0
BLOCK_RECORD
  5
1B
330
1
100
AcDbSymbolTableRecord
100
AcDbBlockTableRecord
  2
*Paper_Space
340
1E
  0
BLOCK_RECORD
  5
23
330
1
100
AcDbSymbolTableRecord
100
AcDbBlockTableRecord
  2
*Paper_Space0
340
26
  0
BLOCK_RECORD
  5
7F
330
1
100
AcDbSymbolTableRecord
100
AcDbBlockTableRecord
  2
블럭10
340
0
102
{BLKREFS
331
4EA
102
}
  0
BLOCK_RECORD
  5
D9
330
1
100
AcDbSymbolTableRecord
100
AcDbBlockTableRecord
  2
_D
340
0
  0
BLOCK_RECORD
  5
ED
330
1
100
AcDbSymbolTableRecord
100
AcDbBlockTableRecord
  2
_D_1
340
0
  0
BLOCK_RECORD
  5
101
330
1
100
AcDbSymbolTableRecord
100
AcDbBlockTableRecord
  2
_D_2
340
0
  0
BLOCK_RECORD
  5
115
330
1
100
AcDbSymbolTableRecord
100
AcDbBlockTableRecord
  2
_D_3
340
0
  0
BLOCK_RECORD
  5
130
330
1
100
AcDbSymbolTableRecord
100
AcDbBlockTableRecord
  2
SW_DOWELSYMBOL_0
340
0
102
{BLKREFS
331
465
102
}
  0
BLOCK_RECORD
  5
217
330
1
100
AcDbSymbolTableRecord
100
AcDbBlockTableRecord
  2
_D_4
340
0
  0
BLOCK_RECORD
  5
22C
330
1
100
AcDbSymbolTableRecord
100
AcDbBlockTableRecord
  2
*D8
340
0
  0
BLOCK_RECORD
  5
239
330
1
100
AcDbSymbolTableRecord
100
AcDbBlockTableRecord
  2
*D9
340
0
  0
BLOCK_RECORD
  5
246
330
1
100
AcDbSymbolTableRecord
100
AcDbBlockTableRecord
  2
*D10
340
0
  0
BLOCK_RECORD
  5
252
330
1
100
AcDbSymbolTableRecord
100
AcDbBlockTableRecord
  2
*D11
340
0
  0
BLOCK_RECORD
  5
29B
330
1
100
AcDbSymbolTableRecord
100
AcDbBlockTableRecord
  2
*D12
340
0
  0
BLOCK_RECORD
  5
2A8
330
1
100
AcDbSymbolTableRecord
100
AcDbBlockTableRecord
  2
*D13
340
0
  0
BLOCK_RECORD
  5
2B5
330
1
100
AcDbSymbolTableRecord
100
AcDbBlockTableRecord
  2
*D14
340
0
  0
BLOCK_RECORD
  5
2C1
330
1
100
AcDbSymbolTableRecord
100
AcDbBlockTableRecord
  2
*D15
340
0
  0
BLOCK_RECORD
  5
2CD
330
1
100
AcDbSymbolTableRecord
100
AcDbBlockTableRecord
  2
*D16
340
0
  0
BLOCK_RECORD
  5
3EB
330
1
100
AcDbSymbolTableRecord
100
AcDbBlockTableRecord
  2
*D17
340
0
  0
BLOCK_RECORD
  5
3F8
330
1
100
AcDbSymbolTableRecord
100
AcDbBlockTableRecord
  2
*D18
340
0
  0
BLOCK_RECORD
  5
405
330
1
100
AcDbSymbolTableRecord
100
AcDbBlockTableRecord
  2
*D19
340
0
  0
BLOCK_RECORD
  5
411
330
1
100
AcDbSymbolTableRecord
100
AcDbBlockTableRecord
  2
*D20
340
0
  0
BLOCK_RECORD
  5
41D
330
1
100
AcDbSymbolTableRecord
100
AcDbBlockTableRecord
  2
*D21
340
0
  0
BLOCK_RECORD
  5
466
330
1
100
AcDbSymbolTableRecord
100
AcDbBlockTableRecord
  2
*D22
340
0
  0
BLOCK_RECORD
  5
473
330
1
100
AcDbSymbolTableRecord
100
AcDbBlockTableRecord
  2
*D23
340
0
  0
BLOCK_RECORD
  5
480
330
1
100
AcDbSymbolTableRecord
100
AcDbBlockTableRecord
  2
*D24
340
0
  0
BLOCK_RECORD
  5
48C
330
1
100
AcDbSymbolTableRecord
100
AcDbBlockTableRecord
  2
*D25
340
0
  0
BLOCK_RECORD
  5
498
330
1
100
AcDbSymbolTableRecord
100
AcDbBlockTableRecord
  2
*D26
340
0
  0
ENDTAB
  0
ENDSEC
  0
SECTION
  2
BLOCKS
  0
BLOCK
  5
20
330
1F
100
AcDbEntity
  8
0
100
AcDbBlockBegin
  2
*Model_Space
 70
     0
 10
0.0
 20
0.0
 30
0.0
  3
*Model_Space
  1

  0
ENDBLK
  5
21
330
1F
100
AcDbEntity
  8
0
100
AcDbBlockEnd
  0
BLOCK
  5
1C
330
1B
100
AcDbEntity
 67
     1
  8
0
100
AcDbBlockBegin
  2
*Paper_Space
 70
     0
 10
0.0
 20
0.0
 30
0.0
  3
*Paper_Space
  1

  0
ENDBLK
  5
1D
330
1B
100
AcDbEntity
 67
     1
  8
0
100
AcDbBlockEnd
  0
BLOCK
  5
24
330
23
100
AcDbEntity
  8
0
100
AcDbBlockBegin
  2
*Paper_Space0
 70
     0
 10
0.0
 20
0.0
 30
0.0
  3
*Paper_Space0
  1

  0
ENDBLK
  5
25
330
23
100
AcDbEntity
  8
0
100
AcDbBlockEnd
  0
BLOCK
  5
80
330
7F
100
AcDbEntity
  8
0
100
AcDbBlockBegin
  2
블럭10
 70
     2
 10
0.0
 20
0.0
 30
0.0
  3
블럭10
  1

  0
ELLIPSE
  5
82
330
7F
100
AcDbEntity
  8
중심선
100
AcDbEllipse
 10
20.54032771741204
 20
12.0471743016438
 30
0.0
 11
6.600054785286829
 21
-1.261213355974178E-13
 31
0.0
210
0.0
220
0.0
230
1.0
 40
0.636358354079598
 41
0.9219305317359503
 42
6.513795318482858
  0
ELLIPSE
  5
83
330
7F
100
AcDbEntity
  8
중심선
100
AcDbEllipse
 10
20.54032771746488
 20
12.04717430159265
 30
0.0
 11
3.960054785062283
 21
1.540847449632565E-10
 31
0.0
210
0.0
220
0.0
230
1.0
 40
0.3939339440162632
 41
1.131841032648279
 42
5.62031148352944
  0
LINE
  5
84
330
7F
100
AcDbEntity
  8
중심선
100
AcDbLine
 10
2.268634060543552
 20
16.24717430164393
 30
0.0
 11
5.714909304380834
 21
16.24717430164393
 31
0.0
  0
LINE
  5
85
330
7F
100
AcDbEntity
  8
중심선
100
AcDbLine
 10
5.245725140726316
 20
7.84717430164391
 30
0.0
 11
8.692000384563599
 21
7.84717430164391
 31
0.0
  0
LINE
  5
86
330
7F
100
AcDbEntity
  8
중심선
100
AcDbLine
 10
15.74043728645272
 20
16.24717430164393
 30
0.0
 11
8.692000384563599
 21
7.84717430164391
 31
0.0
  0
LINE
  5
87
330
7F
100
AcDbEntity
  8
중심선
100
AcDbLine
 10
0.1404042013395286
 20
13.71084872107135
 30
0.0
 11
3.58671253028996
 21
13.71088815037384
 31
0.0
  0
LINE
  5
88
330
7F
100
AcDbEntity
  8
중심선
100
AcDbLine
 10
2.750260043222114
 20
10.84717430164391
 30
0.0
 11
6.196535287059397
 21
10.84717430164391
 31
0.0
  0
LINE
  5
89
330
7F
100
AcDbEntity
  8
중심선
100
AcDbLine
 10
12.29416204261559
 20
16.24717430164393
 30
0.0
 11
5.245725140726316
 21
7.84717430164391
 31
0.0
  0
LINE
  5
8A
330
7F
100
AcDbEntity
  8
중심선
100
AcDbLine
 10
10.72767329541681
 20
16.24717430164393
 30
0.0
 11
6.196535287059397
 21
10.84717430164391
 31
0.0
  0
LINE
  5
8B
330
7F
100
AcDbEntity
  8
중심선
100
AcDbLine
 10
7.28139805157953
 20
16.24717430164393
 30
0.0
 11
2.750260043222114
 21
10.84717430164391
 31
0.0
  0
LINE
  5
8C
330
7F
100
AcDbEntity
  8
중심선
100
AcDbLine
 10
5.714909304380834
 20
16.24717430164393
 30
0.0
 11
3.58671253028996
 21
13.71088815037384
 31
0.0
  0
LINE
  5
8D
330
7F
100
AcDbEntity
  8
중심선
100
AcDbLine
 10
2.268634060543552
 20
16.24717430164393
 30
0.0
 11
0.1404042013395286
 21
13.71084872107135
 31
0.0
  0
LINE
  5
8E
330
7F
100
AcDbEntity
  8
중심선
100
AcDbLine
 10
7.28139805157953
 20
16.24717430164393
 30
0.0
 11
10.72767329541681
 21
16.24717430164393
 31
0.0
  0
LINE
  5
8F
330
7F
100
AcDbEntity
  8
중심선
100
AcDbLine
 10
12.29416204261559
 20
16.24717430164393
 30
0.0
 11
15.74043728645272
 21
16.24717430164393
 31
0.0
  0
LINE
  5
90
330
7F
100
AcDbEntity
  8
중심선
100
AcDbLine
 10
19.22036997980202
 20
11.08717430171403
 30
0.0
 11
23.66174974927406
 21
11.08717430171406
 31
0.0
  0
LINE
  5
91
330
7F
100
AcDbEntity
  8
중심선
100
AcDbLine
 10
19.22039502424796
 20
13.00717430171391
 30
0.0
 11
19.22036997980202
 21
11.08717430171403
 31
0.0
  0
LINE
  5
92
330
7F
100
AcDbEntity
  8
중심선
100
AcDbLine
 10
19.22039502424796
 20
13.00717430171391
 30
0.0
 11
26.96566020931264
 21
13.00717430171391
 31
0.0
  0
LINE
  5
93
330
7F
100
AcDbEntity
  8
중심선
100
AcDbLine
 10
22.22332737316547
 20
13.45928029700563
 30
0.0
 11
24.52862924686651
 21
15.39360700705356
 31
0.0
  0
ATTDEF
  5
95
330
7F
100
AcDbEntity
  8
FORMAT
 62
     2
100
AcDbText
 10
5.200277315438102
 20
2.075366912832191
 30
0.0
 40
4.233333333333333
  1
EI107012
 41
0.75
  7
SLDTEXTSTYLE0
 11
5.200277315438102
 21
-0.0412997538344756
 31
0.0
100
AcDbAttributeDefinition
  3

  2
AUTOATTR0
 70
     0
 74
     1
  0
ENDBLK
  5
81
330
7F
100
AcDbEntity
  8
0
100
AcDbBlockEnd
  0
BLOCK
  5
DA
330
D9
100
AcDbEntity
  8
0
100
AcDbBlockBegin
  2
_D
 70
     0
 10
0.0
 20
0.0
 30
0.0
  3
_D
  1

  0
LINE
  5
DC
330
D9
100
AcDbEntity
  8
치수문자_일반주서
 62
     0
370
    -2
100
AcDbLine
 10
-24.925
 20
1.944824928723889
 30
0.0
 11
-24.925
 21
26.67217117410937
 31
0.0
  0
LINE
  5
DD
330
D9
100
AcDbEntity
  8
치수문자_일반주서
 62
     0
370
    -2
100
AcDbLine
 10
25.875
 20
2.454239777376156
 30
0.0
 11
25.875
 21
26.67217117410937
 31
0.0
  0
LINE
  5
DE
330
D9
100
AcDbEntity
  8
치수문자_일반주서
 62
     0
370
    -2
100
AcDbLine
 10
-21.623
 20
26.67217117410937
 30
0.0
 11
22.573
 21
26.67217117410937
 31
0.0
  0
SOLID
  5
DF
330
D9
100
AcDbEntity
  8
치수문자_일반주서
 62
     0
100
AcDbTrace
 10
-21.623
 20
27.2225045074427
 30
0.0
 11
-21.623
 21
26.12183784077603
 31
0.0
 12
-24.925
 22
26.67217117410937
 32
0.0
 13
-24.925
 23
26.67217117410937
 33
0.0
  0
SOLID
  5
E0
330
D9
100
AcDbEntity
  8
치수문자_일반주서
 62
     0
100
AcDbTrace
 10
22.573
 20
26.12183784077603
 30
0.0
 11
22.573
 21
27.2225045074427
 31
0.0
 12
25.875
 22
26.67217117410937
 32
0.0
 13
25.875
 23
26.67217117410937
 33
0.0
  0
MTEXT
  5
E1
330
D9
100
AcDbEntity
  8
치수문자_일반주서
 62
     0
100
AcDbMText
 10
0.474999999999998
 20
31.04717117410937
 30
0.0
 40
3.5
 41
0.0
 71
     2
 72
     1
  1
\A1;50.8 [2]
  7
SLDTEXTSTYLE0
 73
     1
 44
1.0
  0
POINT
  5
E2
330
D9
100
AcDbEntity
  8
Defpoints
 62
     0
100
AcDbPoint
 10
-24.925
 20
1.882324928723889
 30
0.0
  0
POINT
  5
E3
330
D9
100
AcDbEntity
  8
Defpoints
 62
     0
100
AcDbPoint
 10
25.875
 20
2.391739777376156
 30
0.0
  0
POINT
  5
E4
330
D9
100
AcDbEntity
  8
Defpoints
 62
     0
100
AcDbPoint
 10
25.875
 20
26.67217117410937
 30
0.0
  0
ENDBLK
  5
DB
330
D9
100
AcDbEntity
  8
0
100
AcDbBlockEnd
  0
BLOCK
  5
EE
330
ED
100
AcDbEntity
  8
0
100
AcDbBlockBegin
  2
_D_1
 70
     0
 10
0.0
 20
0.0
 30
0.0
  3
_D_1
  1

  0
LINE
  5
F0
330
ED
100
AcDbEntity
  8
치수문자_일반주서
 62
     0
370
    -2
100
AcDbLine
 10
25.875
 20
2.382324928723894
 30
0.0
 11
52.51087757850773
 21
2.382324928723992
 31
0.0
  0
LINE
  5
F1
330
ED
100
AcDbEntity
  8
치수문자_일반주서
 62
     0
370
    -2
100
AcDbLine
 10
25.875
 20
-2.380175071276109
 30
0.0
 11
52.51087757850775
 21
-2.38017507127601
 31
0.0
  0
LINE
  5
F2
330
ED
100
AcDbEntity
  8
치수문자_일반주서
 62
     0
370
    -2
100
AcDbLine
 10
52.51087757850773
 20
2.382324928723992
 30
0.0
 11
52.51087757850763
 21
36.98632492872399
 31
0.0
  0
LINE
  5
F3
330
ED
100
AcDbEntity
  8
치수문자_일반주서
 62
     0
370
    -2
100
AcDbLine
 10
52.51087757850773
 20
2.382324928723992
 30
0.0
 11
52.51087757850775
 21
-2.38017507127601
 31
0.0
  0
LINE
  5
F4
330
ED
100
AcDbEntity
  8
치수문자_일반주서
 62
     0
370
    -2
100
AcDbLine
 10
52.51087757850772
 20
5.684324928723992
 30
0.0
 11
52.51087757850772
 21
8.986324928723992
 31
0.0
  0
LINE
  5
F5
330
ED
100
AcDbEntity
  8
치수문자_일반주서
 62
     0
370
    -2
100
AcDbLine
 10
52.51087757850775
 20
-5.68217507127601
 30
0.0
 11
52.51087757850776
 21
-8.98417507127601
 31
0.0
  0
SOLID
  5
F6
330
ED
100
AcDbEntity
  8
치수문자_일반주서
 62
     0
100
AcDbTrace
 10
51.96054424517439
 20
5.68432492872399
 30
0.0
 11
53.06121091184106
 21
5.684324928723994
 31
0.0
 12
52.51087757850773
 22
2.382324928723992
 32
0.0
 13
52.51087757850773
 23
2.382324928723992
 33
0.0
  0
SOLID
  5
F7
330
ED
100
AcDbEntity
  8
치수문자_일반주서
 62
     0
100
AcDbTrace
 10
53.06121091184109
 20
-5.682175071276008
 30
0.0
 11
51.96054424517442
 21
-5.682175071276012
 31
0.0
 12
52.51087757850775
 22
-2.38017507127601
 32
0.0
 13
52.51087757850775
 23
-2.38017507127601
 33
0.0
  0
MTEXT
  5
F8
330
ED
100
AcDbEntity
  8
치수문자_일반주서
 62
     0
100
AcDbMText
 10
48.13587757850767
 20
22.98632492872398
 30
0.0
 40
3.5
 41
0.0
 71
     2
 72
     1
  1
\A1;%%c4.76 [3/16]
  7
SLDTEXTSTYLE0
 11
-2.983906501879684E-15
 21
1.0
 31
0.0
 73
     1
 44
1.0
  0
POINT
  5
F9
330
ED
100
AcDbEntity
  8
Defpoints
 62
     0
100
AcDbPoint
 10
25.8125
 20
2.382324928723894
 30
0.0
  0
POINT
  5
FA
330
ED
100
AcDbEntity
  8
Defpoints
 62
     0
100
AcDbPoint
 10
25.8125
 20
-2.380175071276109
 30
0.0
  0
POINT
  5
FB
330
ED
100
AcDbEntity
  8
Defpoints
 62
     0
100
AcDbPoint
 10
52.51087757850775
 20
-2.380175071276009
 30
0.0
  0
ENDBLK
  5
EF
330
ED
100
AcDbEntity
  8
0
100
AcDbBlockEnd
  0
BLOCK
  5
102
330
101
100
AcDbEntity
  8
0
100
AcDbBlockBegin
  2
_D_2
 70
     0
 10
0.0
 20
0.0
 30
0.0
  3
_D_2
  1

  0
LINE
  5
104
330
101
100
AcDbEntity
  8
치수문자_일반주서
 62
     0
370
    -2
100
AcDbLine
 10
-24.48749999999999
 20
2.382324928723894
 30
0.0
 11
-37.92499999999997
 21
2.382324928723847
 31
0.0
  0
LINE
  5
105
330
101
100
AcDbEntity
  8
치수문자_일반주서
 62
     0
370
    -2
100
AcDbLine
 10
-24.48749999999999
 20
-2.380175071276109
 30
0.0
 11
-37.92499999999995
 21
-2.380175071276156
 31
0.0
  0
LINE
  5
106
330
101
100
AcDbEntity
  8
치수문자_일반주서
 62
     0
370
    -2
100
AcDbLine
 10
-37.92499999999997
 20
2.382324928723847
 30
0.0
 11
-37.92500000000008
 21
36.98632492872385
 31
0.0
  0
LINE
  5
107
330
101
100
AcDbEntity
  8
치수문자_일반주서
 62
     0
370
    -2
100
AcDbLine
 10
-37.92499999999997
 20
2.382324928723847
 30
0.0
 11
-37.92499999999995
 21
-2.380175071276156
 31
0.0
  0
LINE
  5
108
330
101
100
AcDbEntity
  8
치수문자_일반주서
 62
     0
370
    -2
100
AcDbLine
 10
-37.92499999999998
 20
5.684324928723846
 30
0.0
 11
-37.92499999999998
 21
8.986324928723846
 31
0.0
  0
LINE
  5
109
330
101
100
AcDbEntity
  8
치수문자_일반주서
 62
     0
370
    -2
100
AcDbLine
 10
-37.92499999999995
 20
-5.682175071276156
 30
0.0
 11
-37.92499999999994
 21
-8.984175071276155
 31
0.0
  0
SOLID
  5
10A
330
101
100
AcDbEntity
  8
치수문자_일반주서
 62
     0
100
AcDbTrace
 10
-38.47533333333331
 20
5.684324928723845
 30
0.0
 11
-37.37466666666664
 21
5.684324928723848
 31
0.0
 12
-37.92499999999997
 22
2.382324928723847
 32
0.0
 13
-37.92499999999997
 23
2.382324928723847
 33
0.0
  0
SOLID
  5
10B
330
101
100
AcDbEntity
  8
치수문자_일반주서
 62
     0
100
AcDbTrace
 10
-37.37466666666661
 20
-5.682175071276154
 30
0.0
 11
-38.47533333333328
 21
-5.682175071276157
 31
0.0
 12
-37.92499999999995
 22
-2.380175071276156
 32
0.0
 13
-37.92499999999995
 23
-2.380175071276156
 33
0.0
  0
MTEXT
  5
10C
330
101
100
AcDbEntity
  8
치수문자_일반주서
 62
     0
100
AcDbMText
 10
-42.30000000000003
 20
22.98632492872383
 30
0.0
 40
3.5
 41
0.0
 71
     2
 72
     1
  1
\A1;%%c4.76 [3/16]
  7
SLDTEXTSTYLE0
 11
-2.983906501879684E-15
 21
1.0
 31
0.0
 73
     1
 44
1.0
  0
POINT
  5
15D
330
101
100
AcDbEntity
  8
Defpoints
 62
     0
100
AcDbPoint
 10
-24.42499999999999
 20
2.382324928723894
 30
0.0
  0
POINT
  5
15E
330
101
100
AcDbEntity
  8
Defpoints
 62
     0
100
AcDbPoint
 10
-24.42499999999999
 20
-2.380175071276109
 30
0.0
  0
POINT
  5
15F
330
101
100
AcDbEntity
  8
Defpoints
 62
     0
100
AcDbPoint
 10
-37.92499999999996
 20
-2.380175071276156
 30
0.0
  0
ENDBLK
  5
103
330
101
100
AcDbEntity
  8
0
100
AcDbBlockEnd
  0
BLOCK
  5
116
330
115
100
AcDbEntity
  8
0
100
AcDbBlockBegin
  2
_D_3
 70
     0
 10
0.0
 20
0.0
 30
0.0
  3
_D_3
  1

  0
LINE
  5
118
330
115
100
AcDbEntity
  8
치수문자_일반주서
 62
     0
370
    -2
100
AcDbLine
 10
25.875
 20
2.444824928723894
 30
0.0
 11
25.875
 21
13.80387532676639
 31
0.0
  0
LINE
  5
119
330
115
100
AcDbEntity
  8
치수문자_일반주서
 62
     0
370
    -2
100
AcDbLine
 10
9.999999999999995
 20
2.171201999844017
 30
0.0
 11
9.999999999999995
 21
13.80387532676639
 31
0.0
  0
LINE
  5
11A
330
115
100
AcDbEntity
  8
치수문자_일반주서
 62
     0
370
    -2
100
AcDbLine
 10
22.573
 20
13.80387532676639
 30
0.0
 11
13.30199999999999
 21
13.80387532676639
 31
0.0
  0
SOLID
  5
11B
330
115
100
AcDbEntity
  8
치수문자_일반주서
 62
     0
100
AcDbTrace
 10
22.573
 20
13.25354199343306
 30
0.0
 11
22.573
 21
14.35420866009973
 31
0.0
 12
25.875
 22
13.80387532676639
 32
0.0
 13
25.875
 23
13.80387532676639
 33
0.0
  0
SOLID
  5
11C
330
115
100
AcDbEntity
  8
치수문자_일반주서
 62
     0
100
AcDbTrace
 10
13.30199999999999
 20
14.35420866009973
 30
0.0
 11
13.30199999999999
 21
13.25354199343306
 31
0.0
 12
9.999999999999995
 22
13.80387532676639
 32
0.0
 13
9.999999999999995
 23
13.80387532676639
 33
0.0
  0
MTEXT
  5
11D
330
115
100
AcDbEntity
  8
치수문자_일반주서
 62
     0
100
AcDbMText
 10
18.4450217873033
 20
18.17887532676639
 30
0.0
 40
3.5
 41
0.0
 71
     2
 72
     1
  1
\A1;15.88 [5/8]
  7
SLDTEXTSTYLE0
 73
     1
 44
1.0
  0
POINT
  5
11E
330
115
100
AcDbEntity
  8
Defpoints
 62
     0
100
AcDbPoint
 10
25.875
 20
2.382324928723894
 30
0.0
  0
POINT
  5
11F
330
115
100
AcDbEntity
  8
Defpoints
 62
     0
100
AcDbPoint
 10
9.999999999999995
 20
2.108701999844017
 30
0.0
  0
POINT
  5
120
330
115
100
AcDbEntity
  8
Defpoints
 62
     0
100
AcDbPoint
 10
9.999999999999995
 20
13.80387532676639
 30
0.0
  0
ENDBLK
  5
117
330
115
100
AcDbEntity
  8
0
100
AcDbBlockEnd
  0
BLOCK
  5
131
330
130
100
AcDbEntity
  8
0
100
AcDbBlockBegin
  2
SW_DOWELSYMBOL_0
 70
     0
 10
0.0
 20
0.0
 30
0.0
  3
SW_DOWELSYMBOL_0
  1

  0
CIRCLE
  5
133
330
130
100
AcDbEntity
  8
해칭선
 62
     0
100
AcDbCircle
 10
0.0
 20
0.0
 30
0.0
 40
3.000000000000002
  0
HATCH
  5
134
330
130
100
AcDbEntity
  8
0
  6
Continuous
 62
     0
370
     0
100
AcDbHatch
 10
0.0
 20
0.0
 30
0.0
210
0.0
220
0.0
230
1.0
  2
SOLID
 70
     1
 71
     0
 91
        1
 92
        0
 93
        3
 72
     2
 10
0.0000000000000069
 20
0.0
 40
3.000000000000002
 50
0.0
 51
90.0
 73
     1
 72
     1
 10
0.0000000000000069
 20
3.000000000000002
 11
0.0000000000000069
 21
0.0
 72
     1
 10
0.0000000000000069
 20
0.0
 11
3.000000000000009
 21
0.0
 97
        0
 75
     0
 76
     1
 98
        1
 10
0.0
 20
0.0
  0
HATCH
  5
135
330
130
100
AcDbEntity
  8
0
  6
Continuous
 62
     0
370
     0
100
AcDbHatch
 10
0.0
 20
0.0
 30
0.0
210
0.0
220
0.0
230
1.0
  2
SOLID
 70
     1
 71
     0
 91
        1
 92
        0
 93
        3
 72
     2
 10
0.0000000000000069
 20
0.0
 40
3.000000000000002
 50
180.0
 51
270.0000000000007
 73
     1
 72
     1
 10
0.0000000000000069
 20
-3.000000000000002
 11
0.0000000000000069
 21
0.0
 72
     1
 10
0.0000000000000069
 20
0.0
 11
-2.999999999999995
 21
0.0
 97
        0
 75
     0
 76
     1
 98
        1
 10
0.0
 20
0.0
  0
ENDBLK
  5
132
330
130
100
AcDbEntity
  8
0
100
AcDbBlockEnd
  0
BLOCK
  5
218
330
217
100
AcDbEntity
  8
0
100
AcDbBlockBegin
  2
_D_4
 70
     0
 10
0.0
 20
0.0
 30
0.0
  3
_D_4
  1

  0
LINE
  5
219
330
217
100
AcDbEntity
  8
치수문자_일반주서
 62
     0
370
    -2
100
AcDbLine
 10
118.7724046535982
 20
11.52145291206001
 30
0.0
 11
118.7724046535982
 21
47.42369709597183
 31
0.0
  0
LINE
  5
21A
330
217
100
AcDbEntity
  8
치수문자_일반주서
 62
     0
370
    -2
100
AcDbLine
 10
67.98500000000006
 20
13.74890000000002
 30
0.0
 11
67.98500000000006
 21
47.42369709597183
 31
0.0
  0
LINE
  5
21B
330
217
100
AcDbEntity
  8
치수문자_일반주서
 62
     0
370
    -2
100
AcDbLine
 10
115.4704046535982
 20
47.42369709597183
 30
0.0
 11
71.28700000000006
 21
47.42369709597183
 31
0.0
  0
SOLID
  5
21C
330
217
100
AcDbEntity
  8
치수문자_일반주서
 62
     0
100
AcDbTrace
 10
115.4704046535982
 20
46.8733637626385
 30
0.0
 11
115.4704046535982
 21
47.97403042930517
 31
0.0
 12
118.7724046535982
 22
47.42369709597183
 32
0.0
 13
118.7724046535982
 23
47.42369709597183
 33
0.0
  0
SOLID
  5
21D
330
217
100
AcDbEntity
  8
치수문자_일반주서
 62
     0
100
AcDbTrace
 10
71.28700000000006
 20
47.97403042930517
 30
0.0
 11
71.28700000000006
 21
46.8733637626385
 31
0.0
 12
67.98500000000006
 22
47.42369709597183
 32
0.0
 13
67.98500000000006
 23
47.42369709597183
 33
0.0
  0
MTEXT
  5
21E
330
217
100
AcDbEntity
  8
치수문자_일반주서
 62
     0
100
AcDbMText
 10
93.37870232679913
 20
51.79869709597183
 30
0.0
 40
3.5
 41
0.0
 71
     2
 72
     1
  1
\A1;50.79 [2]
  7
SLDTEXTSTYLE0
 73
     1
 44
1.0
  0
POINT
  5
21F
330
217
100
AcDbEntity
  8
Defpoints
 62
     0
100
AcDbPoint
 10
118.7724046535982
 20
11.45895291206001
 30
0.0
  0
POINT
  5
220
330
217
100
AcDbEntity
  8
Defpoints
 62
     0
100
AcDbPoint
 10
67.98500000000006
 20
13.68640000000002
 30
0.0
  0
POINT
  5
221
330
217
100
AcDbEntity
  8
Defpoints
 62
     0
100
AcDbPoint
 10
67.98500000000006
 20
47.42369709597183
 30
0.0
  0
ENDBLK
  5
222
330
217
100
AcDbEntity
  8
0
100
AcDbBlockEnd
  0
BLOCK
  5
22D
330
22C
100
AcDbEntity
  8
0
100
AcDbBlockBegin
  2
*D8
 70
     1
 10
0.0
 20
0.0
 30
0.0
  3
*D8
  1

  0
LINE
  5
22F
330
22C
100
AcDbEntity
  8
치수문자_일반주서
 62
     0
370
    -2
100
AcDbLine
 10
111.6005715097399
 20
13.75625000000002
 30
0.0
 11
123.3942867360312
 21
13.75625000000007
 31
0.0
  0
LINE
  5
230
330
22C
100
AcDbEntity
  8
치수문자_일반주서
 62
     0
370
    -2
100
AcDbLine
 10
111.6005715097399
 20
8.993750000000023
 30
0.0
 11
123.3942867360312
 21
8.993750000000068
 31
0.0
  0
LINE
  5
231
330
22C
100
AcDbEntity
  8
치수문자_일반주서
 62
     0
370
    -2
100
AcDbLine
 10
123.3942867360312
 20
17.05825000000007
 30
0.0
 11
123.3942867360312
 21
20.36025000000007
 31
0.0
  0
LINE
  5
232
330
22C
100
AcDbEntity
  8
치수문자_일반주서
 62
     0
370
    -2
100
AcDbLine
 10
123.3942867360312
 20
5.691750000000068
 30
0.0
 11
123.3942867360313
 21
2.389750000000068
 31
0.0
  0
SOLID
  5
233
330
22C
100
AcDbEntity
  8
치수문자_일반주서
 62
     0
100
AcDbTrace
 10
122.8439534026979
 20
17.05825000000007
 30
0.0
 11
123.9446200693645
 21
17.05825000000007
 31
0.0
 12
123.3942867360312
 22
13.75625000000007
 32
0.0
 13
123.3942867360312
 23
13.75625000000007
 33
0.0
  0
SOLID
  5
234
330
22C
100
AcDbEntity
  8
치수문자_일반주서
 62
     0
100
AcDbTrace
 10
123.9446200693646
 20
5.69175000000007
 30
0.0
 11
122.8439534026979
 21
5.691750000000066
 31
0.0
 12
123.3942867360312
 22
8.993750000000068
 32
0.0
 13
123.3942867360312
 23
8.993750000000068
 33
0.0
  0
MTEXT
  5
235
330
22C
100
AcDbEntity
  8
치수문자_일반주서
 62
     0
100
AcDbMText
 10
119.0192867360312
 20
11.37500000000001
 30
0.0
 40
3.5
 41
0.0
 71
     2
 72
     1
  1
\A1;%%c4.76 [1/4]
  7
SLDTEXTSTYLE0
 11
-2.983906501879686E-15
 21
1.0
 31
0.0
 73
     1
 44
1.0
  0
POINT
  5
236
330
22C
100
AcDbEntity
  8
Defpoints
 62
     0
100
AcDbPoint
 10
111.5380715097399
 20
13.75625000000002
 30
0.0
  0
POINT
  5
237
330
22C
100
AcDbEntity
  8
Defpoints
 62
     0
100
AcDbPoint
 10
111.5380715097399
 20
8.993750000000023
 30
0.0
  0
POINT
  5
238
330
22C
100
AcDbEntity
  8
Defpoints
 62
     0
100
AcDbPoint
 10
123.3942867360312
 20
8.993750000000068
 30
0.0
  0
ENDBLK
  5
22E
330
22C
100
AcDbEntity
  8
0
100
AcDbBlockEnd
  0
BLOCK
  5
23A
330
239
100
AcDbEntity
  8
0
100
AcDbBlockBegin
  2
*D9
 70
     1
 10
0.0
 20
0.0
 30
0.0
  3
*D9
  1

  0
LINE
  5
23C
330
239
100
AcDbEntity
  8
치수문자_일반주서
 62
     0
370
    -2
100
AcDbLine
 10
18.12250000000007
 20
13.75625000000002
 30
0.0
 11
4.37500000000002
 21
13.75624999999997
 31
0.0
  0
LINE
  5
23D
330
239
100
AcDbEntity
  8
치수문자_일반주서
 62
     0
370
    -2
100
AcDbLine
 10
18.12250000000007
 20
8.993750000000022
 30
0.0
 11
4.375000000000037
 21
8.99374999999997
 31
0.0
  0
LINE
  5
23E
330
239
100
AcDbEntity
  8
치수문자_일반주서
 62
     0
370
    -2
100
AcDbLine
 10
4.375000000000009
 20
17.05824999999997
 30
0.0
 11
4.374999999999997
 21
20.36024999999997
 31
0.0
  0
LINE
  5
23F
330
239
100
AcDbEntity
  8
치수문자_일반주서
 62
     0
370
    -2
100
AcDbLine
 10
4.375000000000049
 20
5.691749999999971
 30
0.0
 11
4.37500000000006
 21
2.389749999999971
 31
0.0
  0
SOLID
  5
240
330
239
100
AcDbEntity
  8
치수문자_일반주서
 62
     0
100
AcDbTrace
 10
3.824666666666675
 20
17.05824999999997
 30
0.0
 11
4.925333333333342
 21
17.05824999999998
 31
0.0
 12
4.37500000000002
 22
13.75624999999997
 32
0.0
 13
4.37500000000002
 23
13.75624999999997
 33
0.0
  0
SOLID
  5
241
330
239
100
AcDbEntity
  8
치수문자_일반주서
 62
     0
100
AcDbTrace
 10
4.925333333333382
 20
5.691749999999972
 30
0.0
 11
3.824666666666715
 21
5.691749999999969
 31
0.0
 12
4.375000000000037
 22
8.99374999999997
 32
0.0
 13
4.375000000000037
 23
8.99374999999997
 33
0.0
  0
MTEXT
  5
242
330
239
100
AcDbEntity
  8
치수문자_일반주서
 62
     0
100
AcDbMText
 10
0.0000000000000284
 20
11.37500000000001
 30
0.0
 40
3.5
 41
0.0
 71
     2
 72
     1
  1
\A1;%%c4.76 [1/4]
  7
SLDTEXTSTYLE0
 11
-3.543388970982125E-15
 21
1.0
 31
0.0
 73
     1
 44
1.0
  0
POINT
  5
243
330
239
100
AcDbEntity
  8
Defpoints
 62
     0
100
AcDbPoint
 10
18.18500000000007
 20
13.75625000000002
 30
0.0
  0
POINT
  5
244
330
239
100
AcDbEntity
  8
Defpoints
 62
     0
100
AcDbPoint
 10
18.18500000000007
 20
8.993750000000022
 30
0.0
  0
POINT
  5
245
330
239
100
AcDbEntity
  8
Defpoints
 62
     0
100
AcDbPoint
 10
4.375000000000036
 20
8.99374999999997
 30
0.0
  0
ENDBLK
  5
23B
330
239
100
AcDbEntity
  8
0
100
AcDbBlockEnd
  0
BLOCK
  5
247
330
246
100
AcDbEntity
  8
0
100
AcDbBlockBegin
  2
*D10
 70
     1
 10
0.0
 20
0.0
 30
0.0
  3
*D10
  1

  0
LINE
  5
249
330
246
100
AcDbEntity
  8
치수문자_일반주서
 62
     0
370
    -2
100
AcDbLine
 10
118.7724046535982
 20
11.52145291206001
 30
0.0
 11
118.7724046535982
 21
35.42369709597151
 31
0.0
  0
LINE
  5
24A
330
246
100
AcDbEntity
  8
치수문자_일반주서
 62
     0
370
    -2
100
AcDbLine
 10
90.21000000000005
 20
13.81875000000002
 30
0.0
 11
90.21000000000005
 21
35.42369709597151
 31
0.0
  0
LINE
  5
24B
330
246
100
AcDbEntity
  8
치수문자_일반주서
 62
     0
370
    -2
100
AcDbLine
 10
115.4704046535982
 20
35.42369709597151
 30
0.0
 11
93.51200000000006
 21
35.42369709597151
 31
0.0
  0
SOLID
  5
24C
330
246
100
AcDbEntity
  8
치수문자_일반주서
 62
     0
100
AcDbTrace
 10
115.4704046535982
 20
34.87336376263817
 30
0.0
 11
115.4704046535982
 21
35.97403042930484
 31
0.0
 12
118.7724046535982
 22
35.42369709597151
 32
0.0
 13
118.7724046535982
 23
35.42369709597151
 33
0.0
  0
SOLID
  5
24D
330
246
100
AcDbEntity
  8
치수문자_일반주서
 62
     0
100
AcDbTrace
 10
93.51200000000006
 20
35.97403042930484
 30
0.0
 11
93.51200000000006
 21
34.87336376263817
 31
0.0
 12
90.21000000000005
 22
35.42369709597151
 32
0.0
 13
90.21000000000005
 23
35.42369709597151
 33
0.0
  0
MTEXT
  5
24E
330
246
100
AcDbEntity
  8
치수문자_일반주서
 62
     0
100
AcDbMText
 10
106.5522865216461
 20
39.79869709597151
 30
0.0
 40
3.5
 41
0.0
 71
     2
 72
     1
  1
\A1;28.56 [1]
  7
SLDTEXTSTYLE0
 73
     1
 44
1.0
  0
POINT
  5
24F
330
246
100
AcDbEntity
  8
Defpoints
 62
     0
100
AcDbPoint
 10
118.7724046535982
 20
11.45895291206001
 30
0.0
  0
POINT
  5
250
330
246
100
AcDbEntity
  8
Defpoints
 62
     0
100
AcDbPoint
 10
90.21000000000005
 20
13.75625000000002
 30
0.0
  0
POINT
  5
251
330
246
100
AcDbEntity
  8
Defpoints
 62
     0
100
AcDbPoint
 10
90.21000000000005
 20
35.42369709597151
 30
0.0
  0
ENDBLK
  5
248
330
246
100
AcDbEntity
  8
0
100
AcDbBlockEnd
  0
BLOCK
  5
253
330
252
100
AcDbEntity
  8
0
100
AcDbBlockBegin
  2
*D11
 70
     1
 10
0.0
 20
0.0
 30
0.0
  3
*D11
  1

  0
LINE
  5
255
330
252
100
AcDbEntity
  8
치수문자_일반주서
 62
     0
370
    -2
100
AcDbLine
 10
118.7724046535982
 20
11.52145291206001
 30
0.0
 11
118.7724046535982
 21
53.42369709597186
 31
0.0
  0
LINE
  5
256
330
252
100
AcDbEntity
  8
치수문자_일반주서
 62
     0
370
    -2
100
AcDbLine
 10
17.18500000000006
 20
12.81875000000002
 30
0.0
 11
17.18500000000006
 21
53.42369709597186
 31
0.0
  0
LINE
  5
257
330
252
100
AcDbEntity
  8
치수문자_일반주서
 62
     0
370
    -2
100
AcDbLine
 10
115.4704046535982
 20
53.42369709597186
 30
0.0
 11
20.48700000000006
 21
53.42369709597186
 31
0.0
  0
SOLID
  5
258
330
252
100
AcDbEntity
  8
치수문자_일반주서
 62
     0
100
AcDbTrace
 10
115.4704046535982
 20
52.87336376263853
 30
0.0
 11
115.4704046535982
 21
53.97403042930519
 31
0.0
 12
118.7724046535982
 22
53.42369709597186
 32
0.0
 13
118.7724046535982
 23
53.42369709597186
 33
0.0
  0
SOLID
  5
259
330
252
100
AcDbEntity
  8
치수문자_일반주서
 62
     0
100
AcDbTrace
 10
20.48700000000006
 20
53.97403042930519
 30
0.0
 11
20.48700000000006
 21
52.87336376263853
 31
0.0
 12
17.18500000000006
 22
53.42369709597186
 32
0.0
 13
17.18500000000006
 23
53.42369709597186
 33
0.0
  0
MTEXT
  5
25A
330
252
100
AcDbEntity
  8
치수문자_일반주서
 62
     0
100
AcDbMText
 10
66.91544771271477
 20
57.79869709597186
 30
0.0
 40
3.5
 41
0.0
 71
     2
 72
     1
  1
\A1;101.59 [4]
  7
SLDTEXTSTYLE0
 73
     1
 44
1.0
  0
POINT
  5
25B
330
252
100
AcDbEntity
  8
Defpoints
 62
     0
100
AcDbPoint
 10
118.7724046535982
 20
11.45895291206001
 30
0.0
  0
POINT
  5
25C
330
252
100
AcDbEntity
  8
Defpoints
 62
     0
100
AcDbPoint
 10
17.18500000000006
 20
12.75625000000002
 30
0.0
  0
POINT
  5
25D
330
252
100
AcDbEntity
  8
Defpoints
 62
     0
100
AcDbPoint
 10
17.18500000000006
 20
53.42369709597186
 30
0.0
  0
ENDBLK
  5
254
330
252
100
AcDbEntity
  8
0
100
AcDbBlockEnd
  0
BLOCK
  5
29C
330
29B
100
AcDbEntity
  8
0
100
AcDbBlockBegin
  2
*D12
 70
     1
 10
0.0
 20
0.0
 30
0.0
  3
*D12
  1

  0
LINE
  5
29E
330
29B
100
AcDbEntity
  8
치수문자_일반주서
 62
     0
370
    -2
100
AcDbLine
 10
51.04808840250686
 20
2.381250000000029
 30
0.0
 11
71.2497329736266
 21
2.381250000000104
 31
0.0
  0
LINE
  5
29F
330
29B
100
AcDbEntity
  8
치수문자_일반주서
 62
     0
370
    -2
100
AcDbLine
 10
51.04808840250686
 20
-2.38124999999997
 30
0.0
 11
71.24973297362662
 21
-2.381249999999895
 31
0.0
  0
LINE
  5
2A0
330
29B
100
AcDbEntity
  8
치수문자_일반주서
 62
     0
370
    -2
100
AcDbLine
 10
71.2497329736266
 20
2.381250000000104
 30
0.0
 11
71.24973297362651
 21
36.98525000000011
 31
0.0
  0
LINE
  5
2A1
330
29B
100
AcDbEntity
  8
치수문자_일반주서
 62
     0
370
    -2
100
AcDbLine
 10
71.24973297362662
 20
-0.9207499999998956
 30
0.0
 11
71.2497329736266
 21
0.9207500000001052
 31
0.0
  0
LINE
  5
2A2
330
29B
100
AcDbEntity
  8
치수문자_일반주서
 62
     0
370
    -2
100
AcDbLine
 10
71.24973297362662
 20
-0.9207499999998956
 30
0.0
 11
71.24973297362664
 21
-4.222749999999896
 31
0.0
  0
SOLID
  5
2A3
330
29B
100
AcDbEntity
  8
치수문자_일반주서
 62
     0
100
AcDbTrace
 10
71.80006630695995
 20
-0.9207499999998939
 30
0.0
 11
70.6993996402933
 21
-0.9207499999998973
 31
0.0
 12
71.2497329736266
 22
2.381250000000104
 32
0.0
 13
71.2497329736266
 23
2.381250000000104
 33
0.0
  0
SOLID
  5
2A4
330
29B
100
AcDbEntity
  8
치수문자_일반주서
 62
     0
100
AcDbTrace
 10
70.69939964029328
 20
0.9207500000001035
 30
0.0
 11
71.80006630695993
 21
0.9207500000001069
 31
0.0
 12
71.24973297362662
 22
-2.381249999999895
 32
0.0
 13
71.24973297362662
 23
-2.381249999999895
 33
0.0
  0
MTEXT
  5
2A5
330
29B
100
AcDbEntity
  8
치수문자_일반주서
 62
     0
100
AcDbMText
 10
66.87473297362655
 20
22.98525000000009
 30
0.0
 40
3.5
 41
0.0
 71
     2
 72
     1
  1
\A1;%%c4.76 [3/16]
  7
SLDTEXTSTYLE0
 11
-2.983906501879686E-15
 21
1.0
 31
0.0
 73
     1
 44
1.0
  0
POINT
  5
2A6
330
29B
100
AcDbEntity
  8
Defpoints
 62
     0
100
AcDbPoint
 10
50.98558840250686
 20
2.381250000000029
 30
0.0
  0
POINT
  5
2D9
330
29B
100
AcDbEntity
  8
Defpoints
 62
     0
100
AcDbPoint
 10
50.98558840250686
 20
-2.38124999999997
 30
0.0
  0
POINT
  5
2DA
330
29B
100
AcDbEntity
  8
Defpoints
 62
     0
100
AcDbPoint
 10
71.24973297362669
 20
-2.381249999999895
 30
0.0
  0
ENDBLK
  5
29D
330
29B
100
AcDbEntity
  8
0
100
AcDbBlockEnd
  0
BLOCK
  5
2A9
330
2A8
100
AcDbEntity
  8
0
100
AcDbBlockBegin
  2
*D13
 70
     1
 10
0.0
 20
0.0
 30
0.0
  3
*D13
  1

  0
LINE
  5
2AB
330
2A8
100
AcDbEntity
  8
치수문자_일반주서
 62
     0
370
    -2
100
AcDbLine
 10
-49.60181625109129
 20
2.381250000000004
 30
0.0
 11
-63.34931625109133
 21
2.381249999999952
 31
0.0
  0
LINE
  5
2AC
330
2A8
100
AcDbEntity
  8
치수문자_일반주서
 62
     0
370
    -2
100
AcDbLine
 10
-49.60181625109129
 20
-2.381249999999999
 30
0.0
 11
-63.34931625109132
 21
-2.381250000000051
 31
0.0
  0
LINE
  5
2AD
330
2A8
100
AcDbEntity
  8
치수문자_일반주서
 62
     0
370
    -2
100
AcDbLine
 10
-63.34931625109133
 20
2.381249999999952
 30
0.0
 11
-63.34931625109144
 21
36.98524999999995
 31
0.0
  0
LINE
  5
2AE
330
2A8
100
AcDbEntity
  8
치수문자_일반주서
 62
     0
370
    -2
100
AcDbLine
 10
-63.34931625109132
 20
-0.9207500000000484
 30
0.0
 11
-63.34931625109132
 21
0.9207499999999489
 31
0.0
  0
LINE
  5
2AF
330
2A8
100
AcDbEntity
  8
치수문자_일반주서
 62
     0
370
    -2
100
AcDbLine
 10
-63.34931625109132
 20
-0.9207500000000484
 30
0.0
 11
-63.34931625109132
 21
-4.222750000000048
 31
0.0
  0
SOLID
  5
2B0
330
2A8
100
AcDbEntity
  8
치수문자_일반주서
 62
     0
100
AcDbTrace
 10
-62.79898291775799
 20
-0.9207500000000467
 30
0.0
 11
-63.89964958442466
 21
-0.92075000000005
 31
0.0
 12
-63.34931625109133
 22
2.381249999999952
 32
0.0
 13
-63.34931625109133
 23
2.381249999999952
 33
0.0
  0
SOLID
  5
2B1
330
2A8
100
AcDbEntity
  8
치수문자_일반주서
 62
     0
100
AcDbTrace
 10
-63.89964958442466
 20
0.9207499999999472
 30
0.0
 11
-62.79898291775799
 21
0.9207499999999506
 31
0.0
 12
-63.34931625109132
 22
-2.381250000000051
 32
0.0
 13
-63.34931625109132
 23
-2.381250000000051
 33
0.0
  0
MTEXT
  5
2B2
330
2A8
100
AcDbEntity
  8
치수문자_일반주서
 62
     0
100
AcDbMText
 10
-67.7243162510914
 20
22.98524999999994
 30
0.0
 40
3.5
 41
0.0
 71
     2
 72
     1
  1
\A1;%%c4.76 [3/16]
  7
SLDTEXTSTYLE0
 11
-2.983906501879684E-15
 21
1.0
 31
0.0
 73
     1
 44
1.0
  0
POINT
  5
2B3
330
2A8
100
AcDbEntity
  8
Defpoints
 62
     0
100
AcDbPoint
 10
-49.53931625109129
 20
2.381250000000004
 30
0.0
  0
POINT
  5
2DB
330
2A8
100
AcDbEntity
  8
Defpoints
 62
     0
100
AcDbPoint
 10
-49.53931625109129
 20
-2.381249999999999
 30
0.0
  0
POINT
  5
2DC
330
2A8
100
AcDbEntity
  8
Defpoints
 62
     0
100
AcDbPoint
 10
-63.34931625109132
 20
-2.38125000000005
 30
0.0
  0
ENDBLK
  5
2AA
330
2A8
100
AcDbEntity
  8
0
100
AcDbBlockEnd
  0
BLOCK
  5
2B6
330
2B5
100
AcDbEntity
  8
0
100
AcDbBlockBegin
  2
*D14
 70
     1
 10
0.0
 20
0.0
 30
0.0
  3
*D14
  1

  0
LINE
  5
2B8
330
2B5
100
AcDbEntity
  8
치수문자_일반주서
 62
     0
370
    -2
100
AcDbLine
 10
51.04808840250686
 20
2.443750000000029
 30
0.0
 11
51.04808840250686
 21
24.04869709597148
 31
0.0
  0
LINE
  5
2B9
330
2B5
100
AcDbEntity
  8
치수문자_일반주서
 62
     0
370
    -2
100
AcDbLine
 10
22.48568374890868
 20
2.443750000000002
 30
0.0
 11
22.48568374890868
 21
24.04869709597148
 31
0.0
  0
LINE
  5
2BA
330
2B5
100
AcDbEntity
  8
치수문자_일반주서
 62
     0
370
    -2
100
AcDbLine
 10
47.74608840250686
 20
24.04869709597148
 30
0.0
 11
25.78768374890868
 21
24.04869709597148
 31
0.0
  0
SOLID
  5
2BB
330
2B5
100
AcDbEntity
  8
치수문자_일반주서
 62
     0
100
AcDbTrace
 10
47.74608840250686
 20
23.49836376263815
 30
0.0
 11
47.74608840250686
 21
24.59903042930482
 31
0.0
 12
51.04808840250686
 22
24.04869709597148
 32
0.0
 13
51.04808840250686
 23
24.04869709597148
 33
0.0
  0
SOLID
  5
2BC
330
2B5
100
AcDbEntity
  8
치수문자_일반주서
 62
     0
100
AcDbTrace
 10
25.78768374890868
 20
24.59903042930482
 30
0.0
 11
25.78768374890868
 21
23.49836376263815
 31
0.0
 12
22.48568374890868
 22
24.04869709597148
 32
0.0
 13
22.48568374890868
 23
24.04869709597148
 33
0.0
  0
MTEXT
  5
2BD
330
2B5
100
AcDbEntity
  8
치수문자_일반주서
 62
     0
100
AcDbMText
 10
38.82797027055474
 20
28.42369709597148
 30
0.0
 40
3.5
 41
0.0
 71
     2
 72
     1
  1
\A1;28.56 [1 1/8]
  7
SLDTEXTSTYLE0
 73
     1
 44
1.0
  0
POINT
  5
2BE
330
2B5
100
AcDbEntity
  8
Defpoints
 62
     0
100
AcDbPoint
 10
51.04808840250686
 20
2.381250000000029
 30
0.0
  0
POINT
  5
2BF
330
2B5
100
AcDbEntity
  8
Defpoints
 62
     0
100
AcDbPoint
 10
22.48568374890868
 20
2.381250000000002
 30
0.0
  0
POINT
  5
2C0
330
2B5
100
AcDbEntity
  8
Defpoints
 62
     0
100
AcDbPoint
 10
22.48568374890868
 20
24.04869709597148
 30
0.0
  0
ENDBLK
  5
2B7
330
2B5
100
AcDbEntity
  8
0
100
AcDbBlockEnd
  0
BLOCK
  5
2C2
330
2C1
100
AcDbEntity
  8
0
100
AcDbBlockBegin
  2
*D15
 70
     1
 10
0.0
 20
0.0
 30
0.0
  3
*D15
  1

  0
LINE
  5
2C4
330
2C1
100
AcDbEntity
  8
치수문자_일반주서
 62
     0
370
    -2
100
AcDbLine
 10
51.04808840250686
 20
2.443750000000029
 30
0.0
 11
51.04808840250686
 21
46.98122308546625
 31
0.0
  0
LINE
  5
2C5
330
2C1
100
AcDbEntity
  8
치수문자_일반주서
 62
     0
370
    -2
100
AcDbLine
 10
-50.53931625109132
 20
1.443749999999995
 30
0.0
 11
-50.53931625109132
 21
46.98122308546625
 31
0.0
  0
LINE
  5
2C6
330
2C1
100
AcDbEntity
  8
치수문자_일반주서
 62
     0
370
    -2
100
AcDbLine
 10
47.74608840250686
 20
46.98122308546625
 30
0.0
 11
-47.23731625109132
 21
46.98122308546625
 31
0.0
  0
SOLID
  5
2C7
330
2C1
100
AcDbEntity
  8
치수문자_일반주서
 62
     0
100
AcDbTrace
 10
47.74608840250686
 20
46.43088975213291
 30
0.0
 11
47.74608840250686
 21
47.53155641879958
 31
0.0
 12
51.04808840250686
 22
46.98122308546625
 32
0.0
 13
51.04808840250686
 23
46.98122308546625
 33
0.0
  0
SOLID
  5
2C8
330
2C1
100
AcDbEntity
  8
치수문자_일반주서
 62
     0
100
AcDbTrace
 10
-47.23731625109132
 20
47.53155641879958
 30
0.0
 11
-47.23731625109132
 21
46.43088975213291
 31
0.0
 12
-50.53931625109132
 22
46.98122308546625
 32
0.0
 13
-50.53931625109132
 23
46.98122308546625
 33
0.0
  0
MTEXT
  5
2C9
330
2C1
100
AcDbEntity
  8
치수문자_일반주서
 62
     0
100
AcDbMText
 10
-1.470213597750387
 20
51.35622308546625
 30
0.0
 40
3.5
 41
0.0
 71
     2
 72
     1
  1
\A1;101.59 [4]
  7
SLDTEXTSTYLE0
 73
     1
 44
1.0
  0
POINT
  5
2CA
330
2C1
100
AcDbEntity
  8
Defpoints
 62
     0
100
AcDbPoint
 10
51.04808840250686
 20
2.381250000000029
 30
0.0
  0
POINT
  5
2CB
330
2C1
100
AcDbEntity
  8
Defpoints
 62
     0
100
AcDbPoint
 10
-50.53931625109132
 20
1.381249999999995
 30
0.0
  0
POINT
  5
2CC
330
2C1
100
AcDbEntity
  8
Defpoints
 62
     0
100
AcDbPoint
 10
-50.53931625109132
 20
46.98122308546625
 30
0.0
  0
ENDBLK
  5
2C3
330
2C1
100
AcDbEntity
  8
0
100
AcDbBlockEnd
  0
BLOCK
  5
2CE
330
2CD
100
AcDbEntity
  8
0
100
AcDbBlockBegin
  2
*D16
 70
     1
 10
0.0
 20
0.0
 30
0.0
  3
*D16
  1

  0
LINE
  5
2D0
330
2CD
100
AcDbEntity
  8
치수문자_일반주서
 62
     0
370
    -2
100
AcDbLine
 10
51.04808840250686
 20
2.443750000000029
 30
0.0
 11
51.04808840250686
 21
36.04869709597181
 31
0.0
  0
LINE
  5
2D1
330
2CD
100
AcDbEntity
  8
치수문자_일반주서
 62
     0
370
    -2
100
AcDbLine
 10
0.2606837489086899
 20
2.373900000000003
 30
0.0
 11
0.2606837489086899
 21
36.04869709597181
 31
0.0
  0
LINE
  5
2D2
330
2CD
100
AcDbEntity
  8
치수문자_일반주서
 62
     0
370
    -2
100
AcDbLine
 10
47.74608840250686
 20
36.04869709597181
 30
0.0
 11
3.56268374890869
 21
36.04869709597181
 31
0.0
  0
SOLID
  5
2D3
330
2CD
100
AcDbEntity
  8
치수문자_일반주서
 62
     0
100
AcDbTrace
 10
47.74608840250686
 20
35.49836376263848
 30
0.0
 11
47.74608840250686
 21
36.59903042930515
 31
0.0
 12
51.04808840250686
 22
36.04869709597181
 32
0.0
 13
51.04808840250686
 23
36.04869709597181
 33
0.0
  0
SOLID
  5
2D4
330
2CD
100
AcDbEntity
  8
치수문자_일반주서
 62
     0
100
AcDbTrace
 10
3.56268374890869
 20
36.59903042930515
 30
0.0
 11
3.56268374890869
 21
35.49836376263848
 31
0.0
 12
0.2606837489086899
 22
36.04869709597181
 32
0.0
 13
0.2606837489086899
 23
36.04869709597181
 33
0.0
  0
MTEXT
  5
2D5
330
2CD
100
AcDbEntity
  8
치수문자_일반주서
 62
     0
100
AcDbMText
 10
25.65438607570778
 20
40.42369709597181
 30
0.0
 40
3.5
 41
0.0
 71
     2
 72
     1
  1
\A1;50.79 [2]
  7
SLDTEXTSTYLE0
 73
     1
 44
1.0
  0
POINT
  5
2D6
330
2CD
100
AcDbEntity
  8
Defpoints
 62
     0
100
AcDbPoint
 10
51.04808840250686
 20
2.381250000000029
 30
0.0
  0
POINT
  5
2D7
330
2CD
100
AcDbEntity
  8
Defpoints
 62
     0
100
AcDbPoint
 10
0.2606837489086899
 20
2.311400000000003
 30
0.0
  0
POINT
  5
2D8
330
2CD
100
AcDbEntity
  8
Defpoints
 62
     0
100
AcDbPoint
 10
0.2606837489086899
 20
36.04869709597181
 30
0.0
  0
ENDBLK
  5
2CF
330
2CD
100
AcDbEntity
  8
0
100
AcDbBlockEnd
  0
BLOCK
  5
3EC
330
3EB
100
AcDbEntity
  8
0
100
AcDbBlockBegin
  2
*D17
 70
     1
 10
0.0
 20
0.0
 30
0.0
  3
*D17
  1

  0
LINE
  5
3EE
330
3EB
100
AcDbEntity
  8
치수문자_일반주서
 62
     0
370
    -2
100
AcDbLine
 10
111.6005715097399
 20
13.75625000000002
 30
0.0
 11
123.3942867360312
 21
13.75625000000007
 31
0.0
  0
LINE
  5
3EF
330
3EB
100
AcDbEntity
  8
치수문자_일반주서
 62
     0
370
    -2
100
AcDbLine
 10
111.6005715097399
 20
8.993750000000023
 30
0.0
 11
123.3942867360312
 21
8.993750000000068
 31
0.0
  0
LINE
  5
3F0
330
3EB
100
AcDbEntity
  8
치수문자_일반주서
 62
     0
370
    -2
100
AcDbLine
 10
123.3942867360312
 20
17.05825000000007
 30
0.0
 11
123.3942867360312
 21
20.36025000000007
 31
0.0
  0
LINE
  5
3F1
330
3EB
100
AcDbEntity
  8
치수문자_일반주서
 62
     0
370
    -2
100
AcDbLine
 10
123.3942867360312
 20
5.691750000000068
 30
0.0
 11
123.3942867360313
 21
2.389750000000068
 31
0.0
  0
SOLID
  5
3F2
330
3EB
100
AcDbEntity
  8
치수문자_일반주서
 62
     0
100
AcDbTrace
 10
122.8439534026979
 20
17.05825000000007
 30
0.0
 11
123.9446200693645
 21
17.05825000000007
 31
0.0
 12
123.3942867360312
 22
13.75625000000007
 32
0.0
 13
123.3942867360312
 23
13.75625000000007
 33
0.0
  0
SOLID
  5
3F3
330
3EB
100
AcDbEntity
  8
치수문자_일반주서
 62
     0
100
AcDbTrace
 10
123.9446200693646
 20
5.69175000000007
 30
0.0
 11
122.8439534026979
 21
5.691750000000066
 31
0.0
 12
123.3942867360312
 22
8.993750000000068
 32
0.0
 13
123.3942867360312
 23
8.993750000000068
 33
0.0
  0
MTEXT
  5
3F4
330
3EB
100
AcDbEntity
  8
치수문자_일반주서
 62
     0
100
AcDbMText
 10
119.0192867360312
 20
11.37500000000001
 30
0.0
 40
3.5
 41
0.0
 71
     2
 72
     1
  1
\A1;%%c4.76 [1/4]
  7
SLDTEXTSTYLE0
 11
-2.983906501879686E-15
 21
1.0
 31
0.0
 73
     1
 44
1.0
  0
POINT
  5
3F5
330
3EB
100
AcDbEntity
  8
Defpoints
 62
     0
100
AcDbPoint
 10
111.5380715097399
 20
13.75625000000002
 30
0.0
  0
POINT
  5
3F6
330
3EB
100
AcDbEntity
  8
Defpoints
 62
     0
100
AcDbPoint
 10
111.5380715097399
 20
8.993750000000023
 30
0.0
  0
POINT
  5
3F7
330
3EB
100
AcDbEntity
  8
Defpoints
 62
     0
100
AcDbPoint
 10
123.3942867360312
 20
8.993750000000068
 30
0.0
  0
ENDBLK
  5
3ED
330
3EB
100
AcDbEntity
  8
0
100
AcDbBlockEnd
  0
BLOCK
  5
3F9
330
3F8
100
AcDbEntity
  8
0
100
AcDbBlockBegin
  2
*D18
 70
     1
 10
0.0
 20
0.0
 30
0.0
  3
*D18
  1

  0
LINE
  5
3FB
330
3F8
100
AcDbEntity
  8
치수문자_일반주서
 62
     0
370
    -2
100
AcDbLine
 10
18.12250000000007
 20
13.75625000000002
 30
0.0
 11
4.37500000000002
 21
13.75624999999997
 31
0.0
  0
LINE
  5
3FC
330
3F8
100
AcDbEntity
  8
치수문자_일반주서
 62
     0
370
    -2
100
AcDbLine
 10
18.12250000000007
 20
8.993750000000022
 30
0.0
 11
4.375000000000037
 21
8.99374999999997
 31
0.0
  0
LINE
  5
3FD
330
3F8
100
AcDbEntity
  8
치수문자_일반주서
 62
     0
370
    -2
100
AcDbLine
 10
4.375000000000009
 20
17.05824999999997
 30
0.0
 11
4.374999999999997
 21
20.36024999999997
 31
0.0
  0
LINE
  5
3FE
330
3F8
100
AcDbEntity
  8
치수문자_일반주서
 62
     0
370
    -2
100
AcDbLine
 10
4.375000000000049
 20
5.691749999999971
 30
0.0
 11
4.37500000000006
 21
2.389749999999971
 31
0.0
  0
SOLID
  5
3FF
330
3F8
100
AcDbEntity
  8
치수문자_일반주서
 62
     0
100
AcDbTrace
 10
3.824666666666675
 20
17.05824999999997
 30
0.0
 11
4.925333333333342
 21
17.05824999999998
 31
0.0
 12
4.37500000000002
 22
13.75624999999997
 32
0.0
 13
4.37500000000002
 23
13.75624999999997
 33
0.0
  0
SOLID
  5
400
330
3F8
100
AcDbEntity
  8
치수문자_일반주서
 62
     0
100
AcDbTrace
 10
4.925333333333382
 20
5.691749999999972
 30
0.0
 11
3.824666666666715
 21
5.691749999999969
 31
0.0
 12
4.375000000000037
 22
8.99374999999997
 32
0.0
 13
4.375000000000037
 23
8.99374999999997
 33
0.0
  0
MTEXT
  5
401
330
3F8
100
AcDbEntity
  8
치수문자_일반주서
 62
     0
100
AcDbMText
 10
0.0000000000000284
 20
11.37500000000001
 30
0.0
 40
3.5
 41
0.0
 71
     2
 72
     1
  1
\A1;%%c4.76 [1/4]
  7
SLDTEXTSTYLE0
 11
-3.543388970982125E-15
 21
1.0
 31
0.0
 73
     1
 44
1.0
  0
POINT
  5
402
330
3F8
100
AcDbEntity
  8
Defpoints
 62
     0
100
AcDbPoint
 10
18.18500000000007
 20
13.75625000000002
 30
0.0
  0
POINT
  5
403
330
3F8
100
AcDbEntity
  8
Defpoints
 62
     0
100
AcDbPoint
 10
18.18500000000007
 20
8.993750000000022
 30
0.0
  0
POINT
  5
404
330
3F8
100
AcDbEntity
  8
Defpoints
 62
     0
100
AcDbPoint
 10
4.375000000000036
 20
8.99374999999997
 30
0.0
  0
ENDBLK
  5
3FA
330
3F8
100
AcDbEntity
  8
0
100
AcDbBlockEnd
  0
BLOCK
  5
406
330
405
100
AcDbEntity
  8
0
100
AcDbBlockBegin
  2
*D19
 70
     1
 10
0.0
 20
0.0
 30
0.0
  3
*D19
  1

  0
LINE
  5
408
330
405
100
AcDbEntity
  8
치수문자_일반주서
 62
     0
370
    -2
100
AcDbLine
 10
118.7724046535982
 20
11.52145291206001
 30
0.0
 11
118.7724046535982
 21
35.42369709597151
 31
0.0
  0
LINE
  5
409
330
405
100
AcDbEntity
  8
치수문자_일반주서
 62
     0
370
    -2
100
AcDbLine
 10
90.21000000000005
 20
13.81875000000002
 30
0.0
 11
90.21000000000005
 21
35.42369709597151
 31
0.0
  0
LINE
  5
40A
330
405
100
AcDbEntity
  8
치수문자_일반주서
 62
     0
370
    -2
100
AcDbLine
 10
115.4704046535982
 20
35.42369709597151
 30
0.0
 11
93.51200000000006
 21
35.42369709597151
 31
0.0
  0
SOLID
  5
40B
330
405
100
AcDbEntity
  8
치수문자_일반주서
 62
     0
100
AcDbTrace
 10
115.4704046535982
 20
34.87336376263817
 30
0.0
 11
115.4704046535982
 21
35.97403042930484
 31
0.0
 12
118.7724046535982
 22
35.42369709597151
 32
0.0
 13
118.7724046535982
 23
35.42369709597151
 33
0.0
  0
SOLID
  5
40C
330
405
100
AcDbEntity
  8
치수문자_일반주서
 62
     0
100
AcDbTrace
 10
93.51200000000006
 20
35.97403042930484
 30
0.0
 11
93.51200000000006
 21
34.87336376263817
 31
0.0
 12
90.21000000000005
 22
35.42369709597151
 32
0.0
 13
90.21000000000005
 23
35.42369709597151
 33
0.0
  0
MTEXT
  5
40D
330
405
100
AcDbEntity
  8
치수문자_일반주서
 62
     0
100
AcDbMText
 10
106.5522865216461
 20
39.79869709597151
 30
0.0
 40
3.5
 41
0.0
 71
     2
 72
     1
  1
\A1;28.56 [1]
  7
SLDTEXTSTYLE0
 73
     1
 44
1.0
  0
POINT
  5
40E
330
405
100
AcDbEntity
  8
Defpoints
 62
     0
100
AcDbPoint
 10
118.7724046535982
 20
11.45895291206001
 30
0.0
  0
POINT
  5
40F
330
405
100
AcDbEntity
  8
Defpoints
 62
     0
100
AcDbPoint
 10
90.21000000000005
 20
13.75625000000002
 30
0.0
  0
POINT
  5
410
330
405
100
AcDbEntity
  8
Defpoints
 62
     0
100
AcDbPoint
 10
90.21000000000005
 20
35.42369709597151
 30
0.0
  0
ENDBLK
  5
407
330
405
100
AcDbEntity
  8
0
100
AcDbBlockEnd
  0
BLOCK
  5
412
330
411
100
AcDbEntity
  8
0
100
AcDbBlockBegin
  2
*D20
 70
     1
 10
0.0
 20
0.0
 30
0.0
  3
*D20
  1

  0
LINE
  5
414
330
411
100
AcDbEntity
  8
치수문자_일반주서
 62
     0
370
    -2
100
AcDbLine
 10
118.7724046535982
 20
11.52145291206001
 30
0.0
 11
118.7724046535982
 21
53.42369709597186
 31
0.0
  0
LINE
  5
415
330
411
100
AcDbEntity
  8
치수문자_일반주서
 62
     0
370
    -2
100
AcDbLine
 10
17.18500000000006
 20
12.81875000000002
 30
0.0
 11
17.18500000000006
 21
53.42369709597186
 31
0.0
  0
LINE
  5
416
330
411
100
AcDbEntity
  8
치수문자_일반주서
 62
     0
370
    -2
100
AcDbLine
 10
115.4704046535982
 20
53.42369709597186
 30
0.0
 11
20.48700000000006
 21
53.42369709597186
 31
0.0
  0
SOLID
  5
417
330
411
100
AcDbEntity
  8
치수문자_일반주서
 62
     0
100
AcDbTrace
 10
115.4704046535982
 20
52.87336376263853
 30
0.0
 11
115.4704046535982
 21
53.97403042930519
 31
0.0
 12
118.7724046535982
 22
53.42369709597186
 32
0.0
 13
118.7724046535982
 23
53.42369709597186
 33
0.0
  0
SOLID
  5
418
330
411
100
AcDbEntity
  8
치수문자_일반주서
 62
     0
100
AcDbTrace
 10
20.48700000000006
 20
53.97403042930519
 30
0.0
 11
20.48700000000006
 21
52.87336376263853
 31
0.0
 12
17.18500000000006
 22
53.42369709597186
 32
0.0
 13
17.18500000000006
 23
53.42369709597186
 33
0.0
  0
MTEXT
  5
419
330
411
100
AcDbEntity
  8
치수문자_일반주서
 62
     0
100
AcDbMText
 10
66.91544771271477
 20
57.79869709597186
 30
0.0
 40
3.5
 41
0.0
 71
     2
 72
     1
  1
\A1;101.59 [4]
  7
SLDTEXTSTYLE0
 73
     1
 44
1.0
  0
POINT
  5
41A
330
411
100
AcDbEntity
  8
Defpoints
 62
     0
100
AcDbPoint
 10
118.7724046535982
 20
11.45895291206001
 30
0.0
  0
POINT
  5
41B
330
411
100
AcDbEntity
  8
Defpoints
 62
     0
100
AcDbPoint
 10
17.18500000000006
 20
12.75625000000002
 30
0.0
  0
POINT
  5
41C
330
411
100
AcDbEntity
  8
Defpoints
 62
     0
100
AcDbPoint
 10
17.18500000000006
 20
53.42369709597186
 30
0.0
  0
ENDBLK
  5
413
330
411
100
AcDbEntity
  8
0
100
AcDbBlockEnd
  0
BLOCK
  5
41E
330
41D
100
AcDbEntity
  8
0
100
AcDbBlockBegin
  2
*D21
 70
     1
 10
0.0
 20
0.0
 30
0.0
  3
*D21
  1

  0
LINE
  5
420
330
41D
100
AcDbEntity
  8
치수문자_일반주서
 62
     0
370
    -2
100
AcDbLine
 10
118.7724046535982
 20
11.52145291206001
 30
0.0
 11
118.7724046535982
 21
47.42369709597183
 31
0.0
  0
LINE
  5
421
330
41D
100
AcDbEntity
  8
치수문자_일반주서
 62
     0
370
    -2
100
AcDbLine
 10
67.98500000000006
 20
13.74890000000002
 30
0.0
 11
67.98500000000006
 21
47.42369709597183
 31
0.0
  0
LINE
  5
422
330
41D
100
AcDbEntity
  8
치수문자_일반주서
 62
     0
370
    -2
100
AcDbLine
 10
115.4704046535982
 20
47.42369709597183
 30
0.0
 11
71.28700000000006
 21
47.42369709597183
 31
0.0
  0
SOLID
  5
423
330
41D
100
AcDbEntity
  8
치수문자_일반주서
 62
     0
100
AcDbTrace
 10
115.4704046535982
 20
46.8733637626385
 30
0.0
 11
115.4704046535982
 21
47.97403042930517
 31
0.0
 12
118.7724046535982
 22
47.42369709597183
 32
0.0
 13
118.7724046535982
 23
47.42369709597183
 33
0.0
  0
SOLID
  5
424
330
41D
100
AcDbEntity
  8
치수문자_일반주서
 62
     0
100
AcDbTrace
 10
71.28700000000006
 20
47.97403042930517
 30
0.0
 11
71.28700000000006
 21
46.8733637626385
 31
0.0
 12
67.98500000000006
 22
47.42369709597183
 32
0.0
 13
67.98500000000006
 23
47.42369709597183
 33
0.0
  0
MTEXT
  5
425
330
41D
100
AcDbEntity
  8
치수문자_일반주서
 62
     0
100
AcDbMText
 10
93.37870232679913
 20
51.79869709597183
 30
0.0
 40
3.5
 41
0.0
 71
     2
 72
     1
  1
\A1;50.79 [2]
  7
SLDTEXTSTYLE0
 73
     1
 44
1.0
  0
POINT
  5
426
330
41D
100
AcDbEntity
  8
Defpoints
 62
     0
100
AcDbPoint
 10
118.7724046535982
 20
11.45895291206001
 30
0.0
  0
POINT
  5
427
330
41D
100
AcDbEntity
  8
Defpoints
 62
     0
100
AcDbPoint
 10
67.98500000000006
 20
13.68640000000002
 30
0.0
  0
POINT
  5
428
330
41D
100
AcDbEntity
  8
Defpoints
 62
     0
100
AcDbPoint
 10
67.98500000000006
 20
47.42369709597183
 30
0.0
  0
ENDBLK
  5
41F
330
41D
100
AcDbEntity
  8
0
100
AcDbBlockEnd
  0
BLOCK
  5
467
330
466
100
AcDbEntity
  8
0
100
AcDbBlockBegin
  2
*D22
 70
     1
 10
0.0
 20
0.0
 30
0.0
  3
*D22
  1

  0
LINE
  5
469
330
466
100
AcDbEntity
  8
치수문자_일반주서
 62
     0
370
    -2
100
AcDbLine
 10
51.04808840250685
 20
2.381250000000023
 30
0.0
 11
62.84180362879815
 21
2.381250000000065
 31
0.0
  0
LINE
  5
46A
330
466
100
AcDbEntity
  8
치수문자_일반주서
 62
     0
370
    -2
100
AcDbLine
 10
51.04808840250685
 20
-2.381249999999965
 30
0.0
 11
62.84180362879817
 21
-2.381249999999923
 31
0.0
  0
LINE
  5
46B
330
466
100
AcDbEntity
  8
치수문자_일반주서
 62
     0
370
    -2
100
AcDbLine
 10
62.84180362879815
 20
2.381250000000065
 30
0.0
 11
62.84180362879805
 21
36.98525000000006
 31
0.0
  0
LINE
  5
46C
330
466
100
AcDbEntity
  8
치수문자_일반주서
 62
     0
370
    -2
100
AcDbLine
 10
62.84180362879815
 20
2.381250000000065
 30
0.0
 11
62.84180362879817
 21
-2.381249999999923
 31
0.0
  0
LINE
  5
46D
330
466
100
AcDbEntity
  8
치수문자_일반주서
 62
     0
370
    -2
100
AcDbLine
 10
62.84180362879815
 20
5.683250000000065
 30
0.0
 11
62.84180362879814
 21
8.985250000000065
 31
0.0
  0
LINE
  5
46E
330
466
100
AcDbEntity
  8
치수문자_일반주서
 62
     0
370
    -2
100
AcDbLine
 10
62.84180362879817
 20
-5.683249999999923
 30
0.0
 11
62.84180362879818
 21
-8.985249999999922
 31
0.0
  0
SOLID
  5
46F
330
466
100
AcDbEntity
  8
치수문자_일반주서
 62
     0
100
AcDbTrace
 10
62.29147029546481
 20
5.683250000000063
 30
0.0
 11
63.39213696213148
 21
5.683250000000067
 31
0.0
 12
62.84180362879815
 22
2.381250000000065
 32
0.0
 13
62.84180362879815
 23
2.381250000000065
 33
0.0
  0
SOLID
  5
470
330
466
100
AcDbEntity
  8
치수문자_일반주서
 62
     0
100
AcDbTrace
 10
63.39213696213151
 20
-5.683249999999921
 30
0.0
 11
62.29147029546484
 21
-5.683249999999925
 31
0.0
 12
62.84180362879817
 22
-2.381249999999923
 32
0.0
 13
62.84180362879817
 23
-2.381249999999923
 33
0.0
  0
MTEXT
  5
471
330
466
100
AcDbEntity
  8
치수문자_일반주서
 62
     0
100
AcDbMText
 10
58.46680362879809
 20
22.98525000000005
 30
0.0
 40
3.5
 41
0.0
 71
     2
 72
     1
  1
\A1;%%c4.76 [3/16]
  7
SLDTEXTSTYLE0
 11
-2.983906501879693E-15
 21
1.0
 31
0.0
 73
     1
 44
1.0
  0
POINT
  5
4F8
330
466
100
AcDbEntity
  8
Defpoints
 62
     0
100
AcDbPoint
 10
50.98558840250685
 20
2.381250000000023
 30
0.0
  0
POINT
  5
4F9
330
466
100
AcDbEntity
  8
Defpoints
 62
     0
100
AcDbPoint
 10
50.98558840250685
 20
-2.381249999999966
 30
0.0
  0
POINT
  5
4FA
330
466
100
AcDbEntity
  8
Defpoints
 62
     0
100
AcDbPoint
 10
62.84180362879817
 20
-2.381249999999921
 30
0.0
  0
ENDBLK
  5
468
330
466
100
AcDbEntity
  8
0
100
AcDbBlockEnd
  0
BLOCK
  5
474
330
473
100
AcDbEntity
  8
0
100
AcDbBlockBegin
  2
*D23
 70
     1
 10
0.0
 20
0.0
 30
0.0
  3
*D23
  1

  0
LINE
  5
476
330
473
100
AcDbEntity
  8
치수문자_일반주서
 62
     0
370
    -2
100
AcDbLine
 10
-49.60181625109129
 20
2.381250000000022
 30
0.0
 11
-63.34931625109132
 21
2.381249999999969
 31
0.0
  0
LINE
  5
477
330
473
100
AcDbEntity
  8
치수문자_일반주서
 62
     0
370
    -2
100
AcDbLine
 10
-49.60181625109129
 20
-2.381249999999966
 30
0.0
 11
-63.3493162510913
 21
-2.381250000000019
 31
0.0
  0
LINE
  5
478
330
473
100
AcDbEntity
  8
치수문자_일반주서
 62
     0
370
    -2
100
AcDbLine
 10
-63.34931625109132
 20
2.381249999999969
 30
0.0
 11
-63.34931625109142
 21
36.98524999999997
 31
0.0
  0
LINE
  5
479
330
473
100
AcDbEntity
  8
치수문자_일반주서
 62
     0
370
    -2
100
AcDbLine
 10
-63.34931625109132
 20
2.381249999999969
 30
0.0
 11
-63.3493162510913
 21
-2.381250000000019
 31
0.0
  0
LINE
  5
47A
330
473
100
AcDbEntity
  8
치수문자_일반주서
 62
     0
370
    -2
100
AcDbLine
 10
-63.34931625109132
 20
5.683249999999969
 30
0.0
 11
-63.34931625109133
 21
8.985249999999969
 31
0.0
  0
LINE
  5
47B
330
473
100
AcDbEntity
  8
치수문자_일반주서
 62
     0
370
    -2
100
AcDbLine
 10
-63.3493162510913
 20
-5.683250000000019
 30
0.0
 11
-63.34931625109129
 21
-8.985250000000018
 31
0.0
  0
SOLID
  5
47C
330
473
100
AcDbEntity
  8
치수문자_일반주서
 62
     0
100
AcDbTrace
 10
-63.89964958442466
 20
5.683249999999967
 30
0.0
 11
-62.79898291775799
 21
5.683249999999971
 31
0.0
 12
-63.34931625109132
 22
2.381249999999969
 32
0.0
 13
-63.34931625109132
 23
2.381249999999969
 33
0.0
  0
SOLID
  5
47D
330
473
100
AcDbEntity
  8
치수문자_일반주서
 62
     0
100
AcDbTrace
 10
-62.79898291775796
 20
-5.683250000000017
 30
0.0
 11
-63.89964958442463
 21
-5.683250000000021
 31
0.0
 12
-63.3493162510913
 22
-2.381250000000019
 32
0.0
 13
-63.3493162510913
 23
-2.381250000000019
 33
0.0
  0
MTEXT
  5
47E
330
473
100
AcDbEntity
  8
치수문자_일반주서
 62
     0
100
AcDbMText
 10
-67.72431625109138
 20
22.98524999999995
 30
0.0
 40
3.5
 41
0.0
 71
     2
 72
     1
  1
\A1;%%c4.76 [3/16]
  7
SLDTEXTSTYLE0
 11
-2.983906501879693E-15
 21
1.0
 31
0.0
 73
     1
 44
1.0
  0
POINT
  5
4F4
330
473
100
AcDbEntity
  8
Defpoints
 62
     0
100
AcDbPoint
 10
-49.53931625109129
 20
2.381250000000023
 30
0.0
  0
POINT
  5
4F5
330
473
100
AcDbEntity
  8
Defpoints
 62
     0
100
AcDbPoint
 10
-49.53931625109129
 20
-2.381249999999966
 30
0.0
  0
POINT
  5
4F6
330
473
100
AcDbEntity
  8
Defpoints
 62
     0
100
AcDbPoint
 10
-63.34931625109131
 20
-2.381250000000017
 30
0.0
  0
ENDBLK
  5
475
330
473
100
AcDbEntity
  8
0
100
AcDbBlockEnd
  0
BLOCK
  5
481
330
480
100
AcDbEntity
  8
0
100
AcDbBlockBegin
  2
*D24
 70
     1
 10
0.0
 20
0.0
 30
0.0
  3
*D24
  1

  0
LINE
  5
483
330
480
100
AcDbEntity
  8
치수문자_일반주서
 62
     0
370
    -2
100
AcDbLine
 10
51.06068374890869
 20
2.443750000000023
 30
0.0
 11
51.06068374890869
 21
24.04869709597151
 31
0.0
  0
LINE
  5
484
330
480
100
AcDbEntity
  8
치수문자_일반주서
 62
     0
370
    -2
100
AcDbLine
 10
22.48568374890868
 20
2.443750000000023
 30
0.0
 11
22.48568374890868
 21
24.04869709597151
 31
0.0
  0
LINE
  5
485
330
480
100
AcDbEntity
  8
치수문자_일반주서
 62
     0
370
    -2
100
AcDbLine
 10
47.75868374890869
 20
24.04869709597151
 30
0.0
 11
25.78768374890868
 21
24.04869709597151
 31
0.0
  0
SOLID
  5
486
330
480
100
AcDbEntity
  8
치수문자_일반주서
 62
     0
100
AcDbTrace
 10
47.75868374890869
 20
23.49836376263817
 30
0.0
 11
47.75868374890869
 21
24.59903042930484
 31
0.0
 12
51.06068374890869
 22
24.04869709597151
 32
0.0
 13
51.06068374890869
 23
24.04869709597151
 33
0.0
  0
SOLID
  5
487
330
480
100
AcDbEntity
  8
치수문자_일반주서
 62
     0
100
AcDbTrace
 10
25.78768374890868
 20
24.59903042930484
 30
0.0
 11
25.78768374890868
 21
23.49836376263817
 31
0.0
 12
22.48568374890868
 22
24.04869709597151
 32
0.0
 13
22.48568374890868
 23
24.04869709597151
 33
0.0
  0
MTEXT
  5
488
330
480
100
AcDbEntity
  8
치수문자_일반주서
 62
     0
100
AcDbMText
 10
38.82797027055476
 20
28.42369709597151
 30
0.0
 40
3.5
 41
0.0
 71
     2
 72
     1
  1
\A1;28.58 [1 1/8]
  7
SLDTEXTSTYLE0
 73
     1
 44
1.0
  0
POINT
  5
489
330
480
100
AcDbEntity
  8
Defpoints
 62
     0
100
AcDbPoint
 10
51.06068374890869
 20
2.381250000000023
 30
0.0
  0
POINT
  5
48A
330
480
100
AcDbEntity
  8
Defpoints
 62
     0
100
AcDbPoint
 10
22.48568374890868
 20
2.381250000000023
 30
0.0
  0
POINT
  5
48B
330
480
100
AcDbEntity
  8
Defpoints
 62
     0
100
AcDbPoint
 10
22.48568374890868
 20
24.04869709597151
 30
0.0
  0
ENDBLK
  5
482
330
480
100
AcDbEntity
  8
0
100
AcDbBlockEnd
  0
BLOCK
  5
48D
330
48C
100
AcDbEntity
  8
0
100
AcDbBlockBegin
  2
*D25
 70
     1
 10
0.0
 20
0.0
 30
0.0
  3
*D25
  1

  0
LINE
  5
48F
330
48C
100
AcDbEntity
  8
치수문자_일반주서
 62
     0
370
    -2
100
AcDbLine
 10
51.06068374890869
 20
2.443750000000023
 30
0.0
 11
51.06068374890869
 21
45.74901198635113
 31
0.0
  0
LINE
  5
490
330
48C
100
AcDbEntity
  8
치수문자_일반주서
 62
     0
370
    -2
100
AcDbLine
 10
-50.53931625109131
 20
1.443750000000023
 30
0.0
 11
-50.53931625109131
 21
45.74901198635113
 31
0.0
  0
LINE
  5
491
330
48C
100
AcDbEntity
  8
치수문자_일반주서
 62
     0
370
    -2
100
AcDbLine
 10
47.75868374890869
 20
45.74901198635113
 30
0.0
 11
-47.23731625109131
 21
45.74901198635113
 31
0.0
  0
SOLID
  5
492
330
48C
100
AcDbEntity
  8
치수문자_일반주서
 62
     0
100
AcDbTrace
 10
47.75868374890869
 20
45.19867865301779
 30
0.0
 11
47.75868374890869
 21
46.29934531968446
 31
0.0
 12
51.06068374890869
 22
45.74901198635113
 32
0.0
 13
51.06068374890869
 23
45.74901198635113
 33
0.0
  0
SOLID
  5
493
330
48C
100
AcDbEntity
  8
치수문자_일반주서
 62
     0
100
AcDbTrace
 10
-47.23731625109131
 20
46.29934531968446
 30
0.0
 11
-47.23731625109131
 21
45.19867865301779
 31
0.0
 12
-50.53931625109131
 22
45.74901198635113
 32
0.0
 13
-50.53931625109131
 23
45.74901198635113
 33
0.0
  0
MTEXT
  5
494
330
48C
100
AcDbEntity
  8
치수문자_일반주서
 62
     0
100
AcDbMText
 10
-0.8088685383766006
 20
50.12401198635113
 30
0.0
 40
3.5
 41
0.0
 71
     2
 72
     1
  1
\A1;101.6 [4]
  7
SLDTEXTSTYLE0
 73
     1
 44
1.0
  0
POINT
  5
495
330
48C
100
AcDbEntity
  8
Defpoints
 62
     0
100
AcDbPoint
 10
51.06068374890869
 20
2.381250000000023
 30
0.0
  0
POINT
  5
496
330
48C
100
AcDbEntity
  8
Defpoints
 62
     0
100
AcDbPoint
 10
-50.53931625109131
 20
1.381250000000023
 30
0.0
  0
POINT
  5
497
330
48C
100
AcDbEntity
  8
Defpoints
 62
     0
100
AcDbPoint
 10
-50.53931625109131
 20
45.74901198635113
 30
0.0
  0
ENDBLK
  5
48E
330
48C
100
AcDbEntity
  8
0
100
AcDbBlockEnd
  0
BLOCK
  5
499
330
498
100
AcDbEntity
  8
0
100
AcDbBlockBegin
  2
*D26
 70
     1
 10
0.0
 20
0.0
 30
0.0
  3
*D26
  1

  0
LINE
  5
49B
330
498
100
AcDbEntity
  8
치수문자_일반주서
 62
     0
370
    -2
100
AcDbLine
 10
51.06068374890869
 20
2.443750000000023
 30
0.0
 11
51.06068374890869
 21
36.04869709597182
 31
0.0
  0
LINE
  5
49C
330
498
100
AcDbEntity
  8
치수문자_일반주서
 62
     0
370
    -2
100
AcDbLine
 10
0.2606837489086899
 20
2.37390000000002
 30
0.0
 11
0.2606837489086899
 21
36.04869709597182
 31
0.0
  0
LINE
  5
49D
330
498
100
AcDbEntity
  8
치수문자_일반주서
 62
     0
370
    -2
100
AcDbLine
 10
47.75868374890869
 20
36.04869709597182
 30
0.0
 11
3.56268374890869
 21
36.04869709597182
 31
0.0
  0
SOLID
  5
49E
330
498
100
AcDbEntity
  8
치수문자_일반주서
 62
     0
100
AcDbTrace
 10
47.75868374890869
 20
35.49836376263848
 30
0.0
 11
47.75868374890869
 21
36.59903042930515
 31
0.0
 12
51.06068374890869
 22
36.04869709597182
 32
0.0
 13
51.06068374890869
 23
36.04869709597182
 33
0.0
  0
SOLID
  5
49F
330
498
100
AcDbEntity
  8
치수문자_일반주서
 62
     0
100
AcDbTrace
 10
3.56268374890869
 20
36.59903042930515
 30
0.0
 11
3.56268374890869
 21
35.49836376263848
 31
0.0
 12
0.2606837489086899
 22
36.04869709597182
 32
0.0
 13
0.2606837489086899
 23
36.04869709597182
 33
0.0
  0
MTEXT
  5
4A0
330
498
100
AcDbEntity
  8
치수문자_일반주서
 62
     0
100
AcDbMText
 10
25.65438607570776
 20
40.42369709597182
 30
0.0
 40
3.5
 41
0.0
 71
     2
 72
     1
  1
\A1;50.8 [2]
  7
SLDTEXTSTYLE0
 73
     1
 44
1.0
  0
POINT
  5
4A1
330
498
100
AcDbEntity
  8
Defpoints
 62
     0
100
AcDbPoint
 10
51.06068374890869
 20
2.381250000000023
 30
0.0
  0
POINT
  5
4A2
330
498
100
AcDbEntity
  8
Defpoints
 62
     0
100
AcDbPoint
 10
0.2606837489086899
 20
2.31140000000002
 30
0.0
  0
POINT
  5
4A3
330
498
100
AcDbEntity
  8
Defpoints
 62
     0
100
AcDbPoint
 10
0.2606837489086899
 20
36.04869709597182
 30
0.0
  0
ENDBLK
  5
49A
330
498
100
AcDbEntity
  8
0
100
AcDbBlockEnd
  0
ENDSEC
  0
SECTION
  2
ENTITIES
  0
LINE
  5
CD
330
1F
100
AcDbEntity
  8
참조1
100
AcDbLine
 10
3.649511632443772
 20
-2.498925071276081
 30
0.0
 11
3.649511632443777
 21
-39.9989250712761
 31
0.0
  0
LINE
  5
CE
330
1F
100
AcDbEntity
  8
참조1
100
AcDbLine
 10
3.649511632443777
 20
-39.9989250712761
 30
0.0
 11
-11.50883181430867
 21
-39.9989250712761
 31
0.0
  0
LINE
  5
129
330
1F
100
AcDbEntity
  8
참조1
100
AcDbLine
 10
86.46350881534559
 20
7.441074928723896
 30
0.0
 11
86.46350881534559
 21
-7.438925071276109
 31
0.0
  0
LINE
  5
12A
330
1F
100
AcDbEntity
  8
참조1
100
AcDbLine
 10
99.1635088153456
 20
5.441074928723896
 30
0.0
 11
86.46350881534559
 21
5.441074928723896
 31
0.0
  0
SOLID
  5
12B
330
1F
100
AcDbEntity
  8
참조1
100
AcDbTrace
 10
86.46350881534559
 20
5.441074928723896
 30
0.0
 11
92.81350881534559
 21
4.425074928723896
 31
0.0
 12
92.81350881534559
 22
6.457074928723896
 32
0.0
 13
92.81350881534559
 23
6.457074928723896
 33
0.0
  0
LINE
  5
12C
330
1F
100
AcDbEntity
  8
참조1
100
AcDbLine
 10
99.1635088153456
 20
-5.438925071276109
 30
0.0
 11
86.46350881534559
 21
-5.438925071276109
 31
0.0
  0
SOLID
  5
12D
330
1F
100
AcDbEntity
  8
참조1
100
AcDbTrace
 10
86.46350881534559
 20
-5.438925071276109
 30
0.0
 11
92.81350881534559
 21
-6.454925071276109
 31
0.0
 12
92.81350881534559
 22
-4.422925071276109
 32
0.0
 13
92.81350881534559
 23
-4.422925071276109
 33
0.0
  0
MTEXT
  5
12E
330
1F
100
AcDbEntity
  8
참조1
100
AcDbMText
 10
96.06362362590816
 20
11.06679249473997
 30
0.0
 40
3.5
 41
0.0
 71
     1
 72
     1
  1
A
  7
SLDTEXTSTYLE0
 73
     1
 44
1.0
  0
MTEXT
  5
12F
330
1F
100
AcDbEntity
  8
참조1
100
AcDbMText
 10
96.06362362590816
 20
0.1867924947399659
 30
0.0
 40
3.5
 41
0.0
 71
     1
 72
     1
  1
A
  7
SLDTEXTSTYLE0
 73
     1
 44
1.0
  0
LINE
  5
42A
330
1F
100
AcDbEntity
  8
외형선
  6
Continuous
370
    15
100
AcDbLine
 10
0.1908337489087231
 20
-2.381249999999966
 30
0.0
 11
0.2606837489086899
 21
-2.311399999999992
 31
0.0
  0
LINE
  5
42B
330
1F
100
AcDbEntity
  8
외형선
  6
Continuous
370
    15
100
AcDbLine
 10
0.2606837489086899
 20
2.31140000000002
 30
0.0
 11
0.1908337489086865
 21
2.381250000000023
 31
0.0
  0
LINE
  5
42C
330
1F
100
AcDbEntity
  8
외형선
  6
Continuous
370
    15
100
AcDbLine
 10
0.1908337489086865
 20
2.381250000000023
 30
0.0
 11
-49.53931625109131
 21
2.381250000000023
 31
0.0
  0
LINE
  5
42D
330
1F
100
AcDbEntity
  8
외형선
  6
Continuous
370
    15
100
AcDbLine
 10
-49.53931625109131
 20
-2.381249999999994
 30
0.0
 11
0.1908337489087231
 21
-2.381249999999966
 31
0.0
  0
LINE
  5
42E
330
1F
100
AcDbEntity
  8
외형선
  6
Continuous
370
    15
100
AcDbLine
 10
-49.53931625109131
 20
2.381250000000023
 30
0.0
 11
-50.53931625109131
 21
1.381250000000023
 31
0.0
  0
LINE
  5
42F
330
1F
100
AcDbEntity
  8
외형선
  6
Continuous
370
    15
100
AcDbLine
 10
-50.53931625109131
 20
-1.381249999999994
 30
0.0
 11
-49.53931625109131
 21
-2.381249999999994
 31
0.0
  0
LINE
  5
430
330
1F
100
AcDbEntity
  8
외형선
  6
Continuous
370
    15
100
AcDbLine
 10
22.48568374890868
 20
2.31140000000002
 30
0.0
 11
0.2606837489086899
 21
2.31140000000002
 31
0.0
  0
LINE
  5
431
330
1F
100
AcDbEntity
  8
외형선
  6
Continuous
370
    15
100
AcDbLine
 10
0.2606837489086899
 20
-2.311399999999992
 30
0.0
 11
22.48568374890868
 21
-2.311399999999992
 31
0.0
  0
LINE
  5
432
330
1F
100
AcDbEntity
  8
외형선
  6
Continuous
 62
     1
370
    15
100
AcDbLine
 10
31.00750737822383
 20
-2.381249999999966
 30
0.0
 11
33.88456093460739
 21
-2.381249999999966
 31
0.0
  0
LINE
  5
433
330
1F
100
AcDbEntity
  8
외형선
  6
Continuous
 62
     1
370
    15
100
AcDbLine
 10
23.95767394001498
 20
2.381250000000023
 30
0.0
 11
22.48568374890868
 21
2.381250000000023
 31
0.0
  0
LINE
  5
434
330
1F
100
AcDbEntity
  8
외형선
  6
Continuous
 62
     1
370
    15
100
AcDbLine
 10
43.8128089464666
 20
2.381250000000023
 30
0.0
 11
40.93454368579883
 21
2.381250000000023
 31
0.0
  0
ARC
  5
435
330
1F
100
AcDbEntity
  8
외형선
  6
Continuous
 62
     1
370
    15
100
AcDbCircle
 10
48.67943374890869
 20
0.0000000000000284
 30
0.0
 40
2.381250000000002
100
AcDbArc
 50
323.2356071040231
 51
0.0
  0
ARC
  5
436
330
1F
100
AcDbEntity
  8
외형선
  6
Continuous
 62
     1
370
    15
100
AcDbCircle
 10
48.67943374890869
 20
0.0000000000000284
 30
0.0
 40
2.381250000000001
100
AcDbArc
 50
0.0
 51
36.93931462854092
  0
LINE
  5
437
330
1F
100
AcDbEntity
  8
외형선
  6
Continuous
 62
     1
370
    15
100
AcDbLine
 10
40.93454368579883
 20
-2.381249999999966
 30
0.0
 11
43.8128089464666
 21
-2.381249999999966
 31
0.0
  0
LINE
  5
438
330
1F
100
AcDbEntity
  8
외형선
  6
Continuous
 62
     1
370
    15
100
AcDbLine
 10
22.48568374890868
 20
-2.381249999999966
 30
0.0
 11
23.95767394001498
 21
-2.381249999999966
 31
0.0
  0
LINE
  5
439
330
1F
100
AcDbEntity
  8
외형선
  6
Continuous
 62
     1
370
    15
100
AcDbLine
 10
33.88456093460739
 20
2.381250000000023
 30
0.0
 11
31.00750737822385
 21
2.381250000000023
 31
0.0
  0
LINE
  5
43A
330
1F
100
AcDbEntity
  8
외형선
  6
Continuous
370
    15
100
AcDbLine
 10
0.2606837489086899
 20
2.31140000000002
 30
0.0
 11
0.2606837489086899
 21
-2.311399999999992
 31
0.0
  0
LINE
  5
43B
330
1F
100
AcDbEntity
  8
외형선
  6
Continuous
370
    15
100
AcDbLine
 10
0.1908337489086865
 20
2.381250000000023
 30
0.0
 11
0.1908337489087231
 21
-2.381249999999966
 31
0.0
  0
LINE
  5
43C
330
1F
100
AcDbEntity
  8
외형선
  6
Continuous
370
    15
100
AcDbLine
 10
-49.53931625109131
 20
2.381250000000023
 30
0.0
 11
-49.53931625109131
 21
-2.381249999999994
 31
0.0
  0
LINE
  5
43D
330
1F
100
AcDbEntity
  8
외형선
  6
Continuous
370
    15
100
AcDbLine
 10
-50.53931625109131
 20
1.381250000000023
 30
0.0
 11
-50.53931625109131
 21
-1.381249999999994
 31
0.0
  0
LINE
  5
43E
330
1F
100
AcDbEntity
  8
외형선
  6
Continuous
370
    15
100
AcDbLine
 10
22.48568374890868
 20
2.149298209715539
 30
0.0
 11
22.48568374890868
 21
2.089468064690095
 31
0.0
  0
SPLINE
  5
43F
330
1F
100
AcDbEntity
  8
외형선
  6
Continuous
370
    15
100
AcDbSpline
210
0.0
220
0.0
230
1.0
 70
     8
 71
     3
 72
    10
 73
     6
 74
     0
 42
0.000000001
 43
0.00000001
 40
0.0
 40
0.0
 40
0.0
 40
0.0
 40
0.5
 40
0.5
 40
1.0
 40
1.0
 40
1.0
 40
1.0
 10
21.59561692320736
 20
2.281844552397843
 30
0.0
 10
21.74456114735855
 20
2.26452185172846
 30
0.0
 10
21.89439489972348
 20
2.239561712221331
 30
0.0
 10
22.19139246772306
 20
2.175152229201615
 30
0.0
 10
22.33726589903088
 20
2.135877264935715
 30
0.0
 10
22.48568374890867
 20
2.089468064690124
 30
0.0
  0
SPLINE
  5
440
330
1F
100
AcDbEntity
  8
외형선
  6
Continuous
370
    15
100
AcDbSpline
210
0.0
220
0.0
230
1.0
 70
     8
 71
     3
 72
    10
 73
     6
 74
     0
 42
0.000000001
 43
0.00000001
 40
0.0
 40
0.0
 40
0.0
 40
0.0
 40
0.4999999999999999
 40
0.4999999999999999
 40
1.0
 40
1.0
 40
1.0
 40
1.0
 10
22.48568374890867
 20
-2.06862512275984
 30
0.0
 10
22.33720907065069
 20
-2.020182077156932
 30
0.0
 10
22.19127976794589
 20
-1.965209088165523
 30
0.0
 10
21.8941664421132
 20
-1.842006531540733
 30
0.0
 10
21.74427463508739
 20
-1.773886395370965
 30
0.0
 10
21.59527474521715
 20
-1.700241979808538
 30
0.0
  0
LINE
  5
441
330
1F
100
AcDbEntity
  8
외형선
  6
Continuous
370
    15
100
AcDbLine
 10
22.48568374890867
 20
-2.06862512275984
 30
0.0
 11
22.48568374890868
 21
-2.12768213196378
 31
0.0
  0
LINE
  5
442
330
1F
100
AcDbEntity
  8
외형선
  6
Continuous
370
    15
100
AcDbLine
 10
21.59527474521715
 20
-1.700268372662094
 30
0.0
 11
21.59527474521715
 21
2.281855986056087
 31
0.0
  0
SPLINE
  5
443
330
1F
100
AcDbEntity
  8
외형선
  6
Continuous
370
    15
100
AcDbSpline
210
0.0
220
0.0
230
1.0
 70
    24
 71
     3
 72
    14
 73
    10
 74
     0
 42
0.000000001
 43
0.00000001
 40
0.0
 40
0.0
 40
0.0
 40
0.0
 40
0.25
 40
0.25
 40
0.5
 40
0.5
 40
0.75
 40
0.75
 40
1.0
 40
1.0
 40
1.0
 40
1.0
 10
22.48568374890868
 20
0.0111471065132775
 30
0.0
 10
22.48568374890868
 20
-0.1111365250368976
 30
0.0
 10
22.48568374890868
 20
-0.25227010226007
 30
0.0
 10
22.48568374890867
 20
-0.569810283321317
 30
0.0
 10
22.4856837489087
 20
-0.7463412179733098
 30
0.0
 10
22.48568374890868
 20
-1.120261963421143
 30
0.0
 10
22.48568374890868
 20
-1.317493657513722
 30
0.0
 10
22.48568374890868
 20
-1.705724749537183
 30
0.0
 10
22.48568374890868
 20
-1.896260129803068
 30
0.0
 10
22.48568374890868
 20
-2.068625122748443
 30
0.0
  0
SPLINE
  5
444
330
1F
100
AcDbEntity
  8
외형선
  6
Continuous
370
    15
100
AcDbSpline
210
0.0
220
0.0
230
1.0
 70
     8
 71
     3
 72
    10
 73
     6
 74
     0
 42
0.000000001
 43
0.00000001
 40
0.0
 40
0.0
 40
0.0
 40
0.0
 40
0.5
 40
0.5
 40
1.0
 40
1.0
 40
1.0
 40
1.0
 10
22.4856837489087
 20
0.0111471065132775
 30
0.0
 10
22.3372090706507
 20
0.0618849617163448
 30
0.0
 10
22.19127976794591
 20
0.1122967665814656
 30
0.0
 10
21.89416644211322
 20
0.2126416793382191
 30
0.0
 10
21.74427463508739
 20
0.2624228886601543
 30
0.0
 10
21.59527474521715
 20
0.3110707363028382
 30
0.0
  0
SPLINE
  5
445
330
1F
100
AcDbEntity
  8
외형선
  6
Continuous
370
    15
100
AcDbSpline
210
0.0
220
0.0
230
1.0
 70
    24
 71
     3
 72
    14
 73
    10
 74
     0
 42
0.000000001
 43
0.00000001
 40
0.0
 40
0.0
 40
0.0
 40
0.0
 40
0.25
 40
0.25
 40
0.5
 40
0.5
 40
0.75
 40
0.75
 40
1.0
 40
1.0
 40
1.0
 40
1.0
 10
22.48568374890868
 20
2.089468064679181
 30
0.0
 10
22.48568374890868
 20
1.914938374716883
 30
0.0
 10
22.4856837489087
 20
1.722814564103203
 30
0.0
 10
22.48568374890868
 20
1.332739301796124
 30
0.0
 10
22.48568374890868
 20
1.135249223860882
 30
0.0
 10
22.48568374890868
 20
0.7619479090429877
 30
0.0
 10
22.48568374890868
 20
0.5862871602762425
 30
0.0
 10
22.48568374890868
 20
0.2712151165332841
 30
0.0
 10
22.48568374890868
 20
0.131673940096448
 30
0.0
 10
22.48568374890868
 20
0.0111471065132775
 30
0.0
  0
SPLINE
  5
446
330
1F
100
AcDbEntity
  8
외형선
  6
Continuous
 62
     1
370
    15
100
AcDbSpline
210
0.0
220
0.0
230
1.0
 70
     8
 71
     3
 72
    22
 73
    18
 74
     0
 42
0.000000001
 43
0.00000001
 40
0.0291310875733779
 40
0.0291310875733779
 40
0.0291310875733779
 40
0.0291310875733779
 40
0.0621985148254366
 40
0.130863075475719
 40
0.1995247704174744
 40
0.268186800508477
 40
0.336852365796964
 40
0.4055246577968629
 40
0.4742068518073019
 40
0.5429020993161038
 40
0.6116135205261978
 40
0.6803432475658981
 40
0.7490654895464968
 40
0.8177697613453005
 40
0.8864591616066827
 40
0.9551368245327463
 40
1.0
 40
1.0
 40
1.0
 40
1.0
 10
46.89932718851651
 20
-1.32702187037242
 30
0.0
 10
46.75157812541289
 20
-1.420710192276999
 30
0.0
 10
46.29703005827399
 20
-1.699574220712861
 30
0.0
 10
45.53571863812266
 20
-2.06358079882304
 30
0.0
 10
44.61538101854055
 20
-2.338134836760162
 30
0.0
 10
43.69503836257101
 20
-2.413379004439918
 30
0.0
 10
42.77463304444886
 20
-2.285824973392806
 30
0.0
 10
41.85410876663467
 20
-1.965434585467051
 30
0.0
 10
40.93341019361476
 20
-1.479386669711658
 30
0.0
 10
40.01247866300729
 20
-0.8685488963187709
 30
0.0
 10
39.0912748220759
 20
-0.1844392854297325
 30
0.0
 10
38.16983477022943
 20
0.5153196565316875
 30
0.0
 10
37.248481935909
 20
1.171098198957537
 30
0.0
 10
36.32739465052215
 20
1.730228469758686
 30
0.0
 10
35.40656867381584
 20
2.135471604836596
 30
0.0
 10
34.59231731834905
 20
2.360882567199724
 30
0.0
 10
34.08501165588659
 20
2.359111509914129
 30
0.0
 10
33.88456093460739
 20
2.358411715418242
 30
0.0
  0
SPLINE
  5
447
330
1F
100
AcDbEntity
  8
외형선
  6
Continuous
 62
     1
370
    15
100
AcDbSpline
210
0.0
220
0.0
230
1.0
 70
     8
 71
     3
 72
    13
 73
     9
 74
     0
 42
0.000000001
 43
0.00000001
 40
0.0
 40
0.0
 40
0.0
 40
0.0
 40
0.0646715809856906
 40
0.2505363117114868
 40
0.4364445826617537
 40
0.6243301665484896
 40
0.8121801924535416
 40
0.9999999999999999
 40
0.9999999999999999
 40
0.9999999999999999
 40
0.9999999999999999
 10
27.4423092461702
 20
-1.065321424823907
 30
0.0
 10
27.33546648465189
 20
-1.139724627827576
 30
0.0
 10
26.92155992792509
 20
-1.427961033617407
 30
0.0
 10
26.20045128392543
 20
-1.828538782313785
 30
0.0
 10
25.27567331173839
 20
-2.210089891320763
 30
0.0
 10
24.34769359010211
 20
-2.395056053695754
 30
0.0
 10
23.4166047897524
 20
-2.389035521342436
 30
0.0
 10
22.79597412163417
 20
-2.214795256541862
 30
0.0
 10
22.48568374890868
 20
-2.12768213196378
 30
0.0
  0
SPLINE
  5
448
330
1F
100
AcDbEntity
  8
외형선
  6
Continuous
370
    15
100
AcDbSpline
210
0.0
220
0.0
230
1.0
 70
    24
 71
     3
 72
    14
 73
    10
 74
     0
 42
0.000000001
 43
0.00000001
 40
0.0
 40
0.0
 40
0.0
 40
0.0
 40
0.25
 40
0.25
 40
0.5
 40
0.5
 40
0.75
 40
0.75
 40
1.0
 40
1.0
 40
1.0
 40
1.0
 10
22.48568374890868
 20
0.0111471065132775
 30
0.0
 10
22.48568374890868
 20
-0.1146716073818936
 30
0.0
 10
22.48568374890868
 20
-0.2604733536651622
 30
0.0
 10
22.48568374890868
 20
-0.5892322527181193
 30
0.0
 10
22.48568374890868
 20
-0.7723261268284602
 30
0.0
 10
22.48568374890868
 20
-1.159328432830023
 30
0.0
 10
22.4856837489087
 20
-1.363030294446816
 30
0.0
 10
22.48568374890868
 20
-1.761023076576038
 30
0.0
 10
22.48568374890868
 20
-1.95476552059381
 30
0.0
 10
22.48568374890868
 20
-2.12768213195443
 30
0.0
  0
SPLINE
  5
449
330
1F
100
AcDbEntity
  8
외형선
  6
Continuous
 62
     1
370
    15
100
AcDbSpline
210
0.0
220
0.0
230
1.0
 70
     8
 71
     3
 72
    16
 73
    12
 74
     0
 42
0.000000001
 43
0.00000001
 40
0.0736223985027961
 40
0.0736223985027961
 40
0.0736223985027961
 40
0.0736223985027961
 40
0.1246583489351761
 40
0.2469051718989666
 40
0.3693745848786826
 40
0.4919056264085365
 40
0.6143164050800131
 40
0.7365420217524111
 40
0.8589724481170872
 40
0.9815054929487185
 40
1.0
 40
1.0
 40
1.0
 40
1.0
 10
46.66123889528798
 20
-1.065560454310031
 30
0.0
 10
46.4906187140725
 20
-1.050427510824477
 30
0.0
 10
45.91131853275271
 20
-0.9769740437380676
 30
0.0
 10
44.92272720061908
 20
-0.8022793018320726
 30
0.0
 10
43.69484733402639
 20
-0.4486870303943249
 30
0.0
 10
42.46640859204317
 20
-0.0326303383392883
 30
0.0
 10
41.23885815867837
 20
0.3884593963198029
 30
0.0
 10
40.01190129904536
 20
0.755820969286674
 30
0.0
 10
38.78426551707157
 20
0.9950836790224002
 30
0.0
 10
37.90336818200736
 20
1.100535777665073
 30
0.0
 10
37.43187230617421
 20
1.073233238013955
 30
0.0
 10
37.37003982249409
 20
1.069652753170004
 30
0.0
  0
SPLINE
  5
44A
330
1F
100
AcDbEntity
  8
외형선
  6
Continuous
 62
     1
370
    15
100
AcDbSpline
210
0.0
220
0.0
230
1.0
 70
     8
 71
     3
 72
    11
 73
     7
 74
     0
 42
0.000000001
 43
0.00000001
 40
0.0
 40
0.0
 40
0.0
 40
0.0
 40
0.2027131549195855
 40
0.4460778266977092
 40
0.7227668072347293
 40
1.0
 40
1.0
 40
1.0
 40
1.0
 10
27.52793037159127
 20
-1.06864541223797
 30
0.0
 10
27.187227175931
 20
-1.063926291679223
 30
0.0
 10
26.43749713927211
 20
-1.05354169160924
 30
0.0
 10
25.22301615626041
 20
-0.8364747566598112
 30
0.0
 10
23.88291044844949
 20
-0.4672335878248077
 30
0.0
 10
22.95173093424214
 20
-0.1484175340617924
 30
0.0
 10
22.4856837489087
 20
0.0111471065132775
 30
0.0
  0
SPLINE
  5
44B
330
1F
100
AcDbEntity
  8
외형선
  6
Continuous
 62
     1
370
    15
100
AcDbSpline
210
0.0
220
0.0
230
1.0
 70
     8
 71
     3
 72
     8
 73
     4
 74
     0
 42
0.000000001
 43
0.00000001
 40
0.0
 40
0.0
 40
0.0
 40
0.0
 40
1.0
 40
1.0
 40
1.0
 40
1.0
 10
49.67289811684859
 20
0.7856677512457111
 30
0.0
 10
50.05326471718082
 20
0.6736423596632903
 30
0.0
 10
50.43549401608341
 20
0.5524095244981311
 30
0.0
 10
50.81965753822078
 20
0.4216156945513774
 30
0.0
  0
SPLINE
  5
44C
330
1F
100
AcDbEntity
  8
외형선
  6
Continuous
 62
     1
370
    15
100
AcDbSpline
210
0.0
220
0.0
230
1.0
 70
     8
 71
     3
 72
    22
 73
    18
 74
     0
 42
0.000000001
 43
0.00000001
 40
0.0
 40
0.0
 40
0.0
 40
0.0
 40
0.125
 40
0.125
 40
0.25
 40
0.25
 40
0.375
 40
0.375
 40
0.5
 40
0.5
 40
0.625
 40
0.625
 40
0.75
 40
0.75
 40
0.875
 40
0.875
 40
1.0
 40
1.0
 40
1.0
 40
1.0
 10
48.67943374890869
 20
0.0736766787665317
 30
0.0
 10
48.80574073792765
 20
-0.0211138360162124
 30
0.0
 10
48.92922906548503
 20
-0.1157481939830234
 30
0.0
 10
49.17446091599305
 20
-0.2997490232749556
 30
0.0
 10
49.29819478240456
 20
-0.3893011976890648
 30
0.0
 10
49.54237858115833
 20
-0.5486251896646195
 30
0.0
 10
49.66229141360928
 20
-0.6185578778124636
 30
0.0
 10
49.90323500118784
 20
-0.7292735247330597
 30
0.0
 10
50.02150794307825
 20
-0.7690629367099575
 30
0.0
 10
50.25387953907632
 20
-0.797788598927724
 30
0.0
 10
50.36745528293851
 20
-0.7858086455799764
 30
0.0
 10
50.57568092136189
 20
-0.6869813787547514
 30
0.0
 10
50.66862877268225
 20
-0.5987310380498343
 30
0.0
 10
50.80418346644296
 20
-0.3568249652394684
 30
0.0
 10
50.84567779704783
 20
-0.2030955088860367
 30
0.0
 10
50.86984207861424
 20
0.1077369032349225
 30
0.0
 10
50.85472853507729
 20
0.2677974164313355
 30
0.0
 10
50.81965753822095
 20
0.4216156945517469
 30
0.0
  0
SPLINE
  5
44D
330
1F
100
AcDbEntity
  8
외형선
  6
Continuous
 62
     1
370
    15
100
AcDbSpline
210
0.0
220
0.0
230
1.0
 70
     8
 71
     3
 72
    13
 73
     9
 74
     0
 42
0.000000001
 43
0.00000001
 40
0.0
 40
0.0
 40
0.0
 40
0.0
 40
0.1337559921817744
 40
0.2677605164963285
 40
0.4568855517608116
 40
0.6459938982154187
 40
0.8350943522522221
 40
1.0
 40
1.0
 40
1.0
 40
1.0
 10
48.67943374890864
 20
0.0736766787665886
 30
0.0
 10
48.46258879521521
 20
0.2367864652959781
 30
0.0
 10
48.02849596801937
 20
0.5633091127999705
 30
0.0
 10
47.28709227836075
 20
1.091053903314872
 30
0.0
 10
46.45611851294153
 20
1.619234764575452
 30
0.0
 10
45.53571444477787
 20
2.061701188666348
 30
0.0
 10
44.6546348892516
 20
2.337640837347891
 30
0.0
 10
44.08033392062829
 20
2.359735078439684
 30
0.0
 10
43.8128089464666
 20
2.370027175441294
 30
0.0
  0
SPLINE
  5
44E
330
1F
100
AcDbEntity
  8
외형선
  6
Continuous
 62
     1
370
    15
100
AcDbSpline
210
0.0
220
0.0
230
1.0
 70
     8
 71
     3
 72
    23
 73
    19
 74
     0
 42
0.000000001
 43
0.00000001
 40
0.0
 40
0.0
 40
0.0
 40
0.0
 40
0.0090666126325671
 40
0.0777351813210753
 40
0.1463888862003586
 40
0.2150308598437894
 40
0.2836642629831811
 40
0.3522922769829688
 40
0.4209180962077184
 40
0.4895449203222368
 40
0.5581759465641687
 40
0.6268143620291944
 40
0.6954633360088426
 40
0.7641260124204582
 40
0.8328055023680571
 40
0.9015010810076696
 40
0.9709273030749683
 40
1.0
 40
1.0
 40
1.0
 40
1.0
 10
37.37003982249409
 20
-1.069652753169947
 30
0.0
 10
37.32949831621043
 20
-1.098322440759659
 30
0.0
 10
36.98190418489499
 20
-1.344130158980704
 30
0.0
 10
36.32739940042875
 20
-1.724082080551995
 30
0.0
 10
35.4065667411566
 20
-2.141772967183471
 30
0.0
 10
34.48594938858484
 20
-2.371273128013115
 30
0.0
 10
33.5654813905103
 20
-2.402927121382021
 30
0.0
 10
32.64510923717013
 20
-2.231510079822868
 30
0.0
 10
31.72477573549217
 20
-1.872170999267013
 30
0.0
 10
30.80442450143003
 20
-1.355009488022063
 30
0.0
 10
29.88399899236843
 20
-0.7236233514379364
 30
0.0
 10
28.96344276818023
 20
-0.0312718044852431
 30
0.0
 10
28.04270029559611
 20
0.6639952639783644
 30
0.0
 10
27.12171434365715
 20
1.30247403272557
 30
0.0
 10
26.20045343673327
 20
1.834409497571528
 30
0.0
 10
25.27567456665646
 20
2.20085190993467
 30
0.0
 10
24.52806756673056
 20
2.382595079849523
 30
0.0
 10
24.08766273821452
 20
2.362175710192844
 30
0.0
 10
23.95767394001498
 20
2.356148779628512
 30
0.0
  0
SPLINE
  5
44F
330
1F
100
AcDbEntity
  8
외형선
  6
Continuous
 62
     1
370
    15
100
AcDbSpline
210
0.0
220
0.0
230
1.0
 70
     8
 71
     3
 72
    10
 73
     6
 74
     0
 42
0.000000001
 43
0.00000001
 40
0.0
 40
0.0
 40
0.0
 40
0.0
 40
0.4818715918638882
 40
0.9636682801085409
 40
1.0
 40
1.0
 40
1.0
 40
1.0
 10
49.67764502180593
 20
0.7974023627401436
 30
0.0
 10
49.29409816291617
 20
0.8724304601107917
 30
0.0
 10
48.52706406485352
 20
1.02247499225129
 30
0.0
 10
47.73113129434843
 20
1.10351458388854
 30
0.0
 10
47.31872946287147
 20
1.076577164393314
 30
0.0
 10
47.28981140397205
 20
1.074688283636476
 30
0.0
  0
SPLINE
  5
450
330
1F
100
AcDbEntity
  8
외형선
  6
Continuous
 62
     1
370
    15
100
AcDbSpline
210
0.0
220
0.0
230
1.0
 70
     8
 71
     3
 72
    16
 73
    12
 74
     0
 42
0.000000001
 43
0.00000001
 40
0.0
 40
0.0
 40
0.0
 40
0.0
 40
0.1136924683518607
 40
0.2359847651542487
 40
0.3584253902845613
 40
0.4810095487975817
 40
0.6035554072123278
 40
0.7258857641718155
 40
0.848269158577011
 40
0.9708367521461173
 40
1.0
 40
1.0
 40
1.0
 40
1.0
 10
37.4671202865246
 20
-1.074520491091732
 30
0.0
 10
37.08717807223634
 20
-1.065438809520515
 30
0.0
 10
36.29855437964903
 20
-1.046588497588232
 30
0.0
 10
35.10104733811863
 20
-0.8222697773218215
 30
0.0
 10
33.87361528059631
 20
-0.4837488255159315
 30
0.0
 10
32.64522809778005
 20
-0.0693275367811452
 30
0.0
 10
31.41721459927261
 20
0.3534288452367775
 30
0.0
 10
30.19013051015013
 20
0.7276972258366641
 30
0.0
 10
28.96290171114326
 20
0.9802430766349914
 30
0.0
 10
28.04682473356068
 20
1.095608028366058
 30
0.0
 10
27.53976757142978
 20
1.070204147798933
 30
0.0
 10
27.44230924617021
 20
1.065321424823964
 30
0.0
  0
SPLINE
  5
451
330
1F
100
AcDbEntity
  8
외형선
  6
Continuous
 62
     1
370
    15
100
AcDbSpline
210
0.0
220
0.0
230
1.0
 70
     8
 71
     3
 72
     8
 73
     4
 74
     0
 42
0.000000001
 43
0.00000001
 40
0.0
 40
0.0
 40
0.0
 40
0.0
 40
1.0
 40
1.0
 40
1.0
 40
1.0
 10
49.67764502200389
 20
0.7974023626946689
 30
0.0
 10
49.67609326258656
 20
0.7934698746376796
 30
0.0
 10
49.67451100780484
 20
0.7895583052911661
 30
0.0
 10
49.6728981168486
 20
0.7856677512457111
 30
0.0
  0
SPLINE
  5
452
330
1F
100
AcDbEntity
  8
외형선
  6
Continuous
370
    15
100
AcDbSpline
210
0.0
220
0.0
230
1.0
 70
    24
 71
     3
 72
    14
 73
    10
 74
     0
 42
0.000000001
 43
0.00000001
 40
0.0
 40
0.0
 40
0.0
 40
0.0
 40
0.25
 40
0.25
 40
0.5
 40
0.5
 40
0.75
 40
0.75
 40
1.0
 40
1.0
 40
1.0
 40
1.0
 10
22.48568374890868
 20
2.149298209706075
 30
0.0
 10
22.48568374890868
 20
1.974023584089764
 30
0.0
 10
22.48568374890868
 20
1.77851013617996
 30
0.0
 10
22.48568374890868
 20
1.378387845574025
 30
0.0
 10
22.4856837489087
 20
1.17432532088435
 30
0.0
 10
22.4856837489087
 20
0.7878269606149786
 30
0.0
 10
22.48568374890868
 20
0.605589001777588
 30
0.0
 10
22.48568374890868
 20
0.2793262636195948
 30
0.0
 10
22.48568374890868
 20
0.1351582353867684
 30
0.0
 10
22.48568374890868
 20
0.0111471065132775
 30
0.0
  0
SPLINE
  5
453
330
1F
100
AcDbEntity
  8
외형선
  6
Continuous
 62
     1
370
    15
100
AcDbSpline
210
0.0
220
0.0
230
1.0
 70
     8
 71
     3
 72
    18
 73
    14
 74
     0
 42
0.000000001
 43
0.00000001
 40
0.0
 40
0.0
 40
0.0
 40
0.0
 40
0.0875710868815924
 40
0.1769515025041332
 40
0.2645233296178606
 40
0.3539099593667221
 40
0.4567358524272664
 40
0.5625234469288491
 40
0.6654596621298524
 40
0.771380403049291
 40
0.8742800753584039
 40
0.9801560069352447
 40
1.0
 40
1.0
 40
1.0
 40
1.0
 10
22.48568374890868
 20
2.149298209715568
 30
0.0
 10
22.73449360536662
 20
2.057125738099501
 30
0.0
 10
23.23725404269682
 20
1.870876395733376
 30
0.0
 10
23.98877565134002
 20
1.454677567811871
 30
0.0
 10
24.74468217857087
 20
0.9610941871352168
 30
0.0
 10
25.53888410921316
 20
0.3826542395685522
 30
0.0
 10
26.38557492148811
 20
-0.2607467033704722
 30
0.0
 10
27.27075858761953
 20
-0.9140456152205161
 30
0.0
 10
28.1649184706403
 20
-1.499495882994239
 30
0.0
 10
29.05070283010839
 20
-1.96731425356748
 30
0.0
 10
29.94458906302977
 20
-2.267331862078947
 30
0.0
 10
30.59408101050694
 20
-2.399606808196239
 30
0.0
 10
30.95114705141323
 20
-2.371438496426691
 30
0.0
 10
31.00750737822383
 20
-2.366992329401114
 30
0.0
  0
SPLINE
  5
454
330
1F
100
AcDbEntity
  8
외형선
  6
Continuous
 62
     1
370
    15
100
AcDbSpline
210
0.0
220
0.0
230
1.0
 70
     8
 71
     3
 72
    14
 73
    10
 74
     0
 42
0.000000001
 43
0.00000001
 40
0.0
 40
0.0
 40
0.0
 40
0.0
 40
0.0411535947402539
 40
0.1216463339792806
 40
0.1999314031896423
 40
0.2804804315947683
 40
0.3588615976585529
 40
0.4395124596539818
 40
0.5049161987387121
 40
0.5049161987387121
 40
0.5049161987387121
 40
0.5049161987387121
 10
37.4671202865246
 20
1.074520491091761
 30
0.0
 10
37.6209455464886
 20
1.179502727968838
 30
0.0
 10
38.07563921459058
 20
1.489820801751762
 30
0.0
 10
38.82295426066865
 20
1.89079586114471
 30
0.0
 10
39.71723815754952
 20
2.236613747639637
 30
0.0
 10
40.60387410129464
 20
2.399612074267736
 30
0.0
 10
41.49908811312099
 20
2.374741449053516
 30
0.0
 10
42.33799808278539
 20
2.174275089632545
 30
0.0
 10
42.88386291037646
 20
1.947859309666057
 30
0.0
 10
43.12832419531163
 20
1.830024136304417
 30
0.0
  0
SPLINE
  5
456
330
1F
100
AcDbEntity
  8
외형선
  6
Continuous
 62
     1
370
    15
100
AcDbSpline
210
0.0
220
0.0
230
1.0
 70
     8
 71
     3
 72
    23
 73
    19
 74
     0
 42
0.000000001
 43
0.00000001
 40
0.0
 40
0.0
 40
0.0
 40
0.0
 40
0.0468644765888231
 40
0.1141965352236999
 40
0.1796081506380624
 40
0.2469117247168735
 40
0.3124168874171878
 40
0.3798172113428331
 40
0.445380363221996
 40
0.5128423870321873
 40
0.5783779196040746
 40
0.6434262480035491
 40
0.7103338015647095
 40
0.7757617121939466
 40
0.8430848162076885
 40
0.9085614530695736
 40
0.9759316366263894
 40
1.0
 40
1.0
 40
1.0
 40
1.0
 10
27.52793037159127
 20
1.068645412237998
 30
0.0
 10
27.73742744591657
 20
1.208770368547221
 30
0.0
 10
28.2479173045221
 20
1.550218426300603
 30
0.0
 10
29.0507028436157
 20
1.962615390156714
 30
0.0
 10
29.94459302159321
 20
2.277978851715147
 30
0.0
 10
30.83043809349134
 20
2.409029923407871
 30
0.0
 10
31.72487041040469
 20
2.351197003037328
 30
0.0
 10
32.61179990204405
 20
2.108603434191394
 30
0.0
 10
33.50723112441942
 20
1.696374790438313
 30
0.0
 10
34.39463875636139
 20
1.154087398764347
 30
0.0
 10
35.27965315375486
 20
0.5231543719537228
 30
0.0
 10
36.16250922224657
 20
-0.1455367066551503
 30
0.0
 10
37.04483072328334
 20
-0.8036221413003091
 30
0.0
 10
37.93705311051811
 20
-1.404875974657642
 30
0.0
 10
38.82295746902049
 20
-1.89550399211501
 30
0.0
 10
39.71723680112295
 20
-2.228323019193709
 30
0.0
 10
40.41846922172901
 20
-2.386760750427356
 30
0.0
 10
40.82700840763775
 20
-2.36548099573605
 30
0.0
 10
40.93454368579883
 20
-2.359879759872143
 30
0.0
  0
SPLINE
  5
459
330
1F
100
AcDbEntity
  8
외형선
  6
Continuous
 62
     1
370
    15
100
AcDbSpline
210
0.0
220
0.0
230
1.0
 70
     8
 71
     3
 72
    10
 73
     6
 74
     0
 42
0.000000001
 43
0.00000001
 40
0.0
 40
0.0
 40
0.0
 40
0.0
 40
0.5
 40
0.5
 40
1.0
 40
1.0
 40
1.0
 40
1.0
 10
50.79775208009779
 20
1.039294810232406
 30
0.0
 10
50.642594401419
 20
0.9117144753923014
 30
0.0
 10
50.45404679861406
 20
0.8375626699011036
 30
0.0
 10
50.07001851268194
 20
0.7664402356610367
 30
0.0
 10
49.87209793409404
 20
0.7682404543436689
 30
0.0
 10
49.67764502200389
 20
0.7974023626946405
 30
0.0
  0
LINE
  5
45A
330
1F
100
AcDbEntity
  8
외형선
  6
Continuous
370
    15
100
AcDbLine
 10
22.48568374890867
 20
2.149298209715539
 30
0.0
 11
22.48568374890868
 21
2.381250000000023
 31
0.0
  0
ARC
  5
45B
330
1F
100
AcDbEntity
  8
외형선
  6
Continuous
 62
     1
370
    15
100
AcDbCircle
 10
50.24681131383302
 20
-0.2120169604319244
 30
0.0
 40
0.8541915114636104
100
AcDbArc
 50
20.27285295526774
 51
47.88431356159355
  0
ARC
  5
45C
330
1F
100
AcDbEntity
  8
외형선
  6
Continuous
 62
     1
370
    15
100
AcDbCircle
 10
48.79524353397703
 20
0.0040907275046322
 30
0.0
 40
2.254259960648513
100
AcDbArc
 50
2.030255562317477
 51
27.33686776298294
  0
LINE
  5
45D
330
1F
100
AcDbEntity
  8
외형선
  6
Continuous
370
    15
100
AcDbLine
 10
22.48568374890868
 20
-2.381249999999966
 30
0.0
 11
22.48568374890868
 21
-2.12768213196378
 31
0.0
  0
LINE
  5
45E
330
1F
100
AcDbEntity
  8
중심선
 62
     1
100
AcDbLine
 10
-53.53931625109134
 20
0.0
 30
0.0
 11
54.04769314194233
 21
0.0
 31
0.0
  0
CIRCLE
  5
45F
330
1F
100
AcDbEntity
  8
해칭선
100
AcDbCircle
 10
0.1908337489087044
 20
0.0000000000000284
 30
0.0
 40
2.999999999999986
  0
DIMENSION
  5
460
330
1F
100
AcDbEntity
  8
치수문자_일반주서
100
AcDbDimension
  2
*D22
 10
62.84180362879817
 20
-2.381249999999923
 30
0.0
 11
62.84180362879809
 21
22.98525000000006
 31
0.0
 70
   160
  1
%%c<>
 71
     2
 42
4.762499999999989
 52
-270.0
  3
SLDDIMSTYLE1
100
AcDbAlignedDimension
 13
50.98558840250685
 23
2.381250000000023
 33
0.0
 14
50.98558840250685
 24
-2.381249999999966
 34
0.0
 50
90.0000000000002
100
AcDbRotatedDimension
1001
ACAD
1000
DSTYLE
1002
{
1070
   171
1070
     6
1070
   273
1070
     7
1002
}
1001
PE_URL
1000

  0
DIMENSION
  5
461
330
1F
100
AcDbEntity
  8
치수문자_일반주서
100
AcDbDimension
  2
*D23
 10
-63.3493162510913
 20
-2.381250000000019
 30
0.0
 11
-63.34931625109138
 21
22.98524999999997
 31
0.0
 70
   160
  1
%%c<>
 71
     2
 42
4.762499999999989
 52
-270.0
  3
SLDDIMSTYLE1
100
AcDbAlignedDimension
 13
-49.53931625109129
 23
2.381250000000023
 33
0.0
 14
-49.53931625109129
 24
-2.381249999999966
 34
0.0
 50
90.0000000000002
100
AcDbRotatedDimension
1001
ACAD
1000
DSTYLE
1002
{
1070
   171
1070
     6
1070
   273
1070
     7
1002
}
1001
PE_URL
1000

  0
DIMENSION
  5
462
330
1F
100
AcDbEntity
  8
치수문자_일반주서
100
AcDbDimension
  2
*D24
 10
22.48568374890868
 20
24.04869709597151
 30
0.0
 11
38.82797027055476
 21
24.04869709597151
 31
0.0
 70
   160
  1
<>
 71
     2
 42
28.575
  3
SLDDIMSTYLE1
100
AcDbAlignedDimension
 13
51.06068374890869
 23
2.381250000000023
 33
0.0
 14
22.48568374890868
 24
2.381250000000023
 34
0.0
100
AcDbRotatedDimension
1001
ACAD
1000
DSTYLE
1002
{
1070
   171
1070
     6
1070
   273
1070
     7
1002
}
1001
PE_URL
1000

  0
DIMENSION
  5
463
330
1F
100
AcDbEntity
  8
치수문자_일반주서
100
AcDbDimension
  2
*D25
 10
-50.53931625109131
 20
45.74901198635113
 30
0.0
 11
-0.8088685383766006
 21
45.74901198635113
 31
0.0
 70
   160
  1
<>
 71
     2
 42
101.6
  3
SLDDIMSTYLE1
100
AcDbAlignedDimension
 13
51.06068374890869
 23
2.381250000000023
 33
0.0
 14
-50.53931625109131
 24
1.381250000000023
 34
0.0
100
AcDbRotatedDimension
1001
ACAD
1000
DSTYLE
1002
{
1070
   171
1070
     6
1070
   273
1070
     7
1002
}
1001
PE_URL
1000

  0
DIMENSION
  5
464
330
1F
100
AcDbEntity
  8
치수문자_일반주서
100
AcDbDimension
  2
*D26
 10
0.2606837489086899
 20
36.04869709597182
 30
0.0
 11
25.65438607570776
 21
36.04869709597182
 31
0.0
 70
   160
  1
<>
 71
     2
 42
50.8
  3
SLDDIMSTYLE1
100
AcDbAlignedDimension
 13
51.06068374890869
 23
2.381250000000023
 33
0.0
 14
0.2606837489086899
 24
2.31140000000002
 34
0.0
 50
0.000000000000016
100
AcDbRotatedDimension
1001
ACAD
1000
DSTYLE
1002
{
1070
   171
1070
     6
1070
   273
1070
     7
1002
}
1001
PE_URL
1000

  0
INSERT
  5
465
330
1F
100
AcDbEntity
  8
해칭선
100
AcDbBlockReference
  2
SW_DOWELSYMBOL_0
 10
0.1908337489087044
 20
0.0000000000000284
 30
0.0
  0
INSERT
  5
4EA
330
1F
100
AcDbEntity
  8
0
  6
Continuous
 62
     7
100
AcDbBlockReference
 66
     1
  2
블럭10
 10
-12.60383835243536
 20
-46.95559253175168
 30
0.0
  0
ATTRIB
  5
4EB
330
4EA
100
AcDbEntity
  8
FORMAT
 62
     2
100
AcDbText
 10
-20.9933436773352
 20
-44.8802256189195
 30
0.0
 40
4.233333333333333
  1
EI971901 [ 2 FLUTE ]
 41
0.75
  7
SLDTEXTSTYLE0
 11
-20.9933436773352
 21
-46.99689228558617
 31
0.0
100
AcDbAttribute
  2
AUTOATTR0
 70
     0
 74
     1
  0
SEQEND
  5
4EC
330
4EA
100
AcDbEntity
  8
0
  6
Continuous
 62
     7
  0
HATCH
  5
4ED
330
1F
100
AcDbEntity
  8
중심선
100
AcDbHatch
 10
0.0
 20
0.0
 30
0.0
210
0.0
220
0.0
230
1.0
  2
SOLID
 70
     1
 71
     0
 91
        1
 92
        0
 93
        4
 72
     1
 10
-6.888929048054507
 20
-30.70841823010775
 11
-10.33520429189178
 21
-30.70841823010775
 72
     1
 10
-10.33520429189178
 20
-30.70841823010775
 11
-12.46343415109581
 21
-33.24474381068035
 72
     1
 10
-12.46343415109581
 20
-33.24474381068035
 11
-9.017125822145381
 21
-33.24470438137786
 72
     1
 10
-9.017125822145381
 20
-33.24470438137786
 11
-6.888929048054507
 21
-30.70841823010775
 97
        0
 75
     0
 76
     1
 98
        1
 10
27.511595869488
 20
5.055251025080167
  0
HATCH
  5
4EE
330
1F
100
AcDbEntity
  8
중심선
100
AcDbHatch
 10
0.0
 20
0.0
 30
0.0
210
0.0
220
0.0
230
1.0
  2
SOLID
 70
     1
 71
     0
 91
        1
 92
        0
 93
        4
 72
     1
 10
-1.876165057018554
 20
-30.70841823010775
 11
-5.322440300855838
 21
-30.70841823010775
 72
     1
 10
-5.322440300855838
 20
-30.70841823010775
 11
-9.853578309213226
 21
-36.10841823010777
 72
     1
 10
-9.853578309213226
 20
-36.10841823010777
 11
-6.407303065375942
 21
-36.10841823010777
 72
     1
 10
-6.407303065375942
 20
-36.10841823010777
 11
-1.876165057018554
 21
-30.70841823010775
 97
        0
 75
     0
 76
     1
 98
        1
 10
27.511595869488
 20
5.055251025080167
  0
HATCH
  5
4EF
330
1F
100
AcDbEntity
  8
중심선
100
AcDbHatch
 10
0.0
 20
0.0
 30
0.0
210
0.0
220
0.0
230
1.0
  2
SOLID
 70
     1
 71
     0
 91
        1
 92
        0
 93
        4
 72
     1
 10
3.136598934017371
 20
-30.70841823010775
 11
-0.3096763098197464
 21
-30.70841823010775
 72
     1
 10
-0.3096763098197464
 20
-30.70841823010775
 11
-7.358113211709025
 21
-39.10841823010777
 72
     1
 10
-7.358113211709025
 20
-39.10841823010777
 11
-3.91183796787174
 21
-39.10841823010777
 72
     1
 10
-3.91183796787174
 20
-39.10841823010777
 11
3.136598934017372
 21
-30.70841823010775
 97
        0
 75
     0
 76
     1
 98
        1
 10
27.511595869488
 20
5.055251025080167
  0
HATCH
  5
4F0
330
1F
100
AcDbEntity
  8
중심선
100
AcDbHatch
 10
0.0
 20
0.0
 30
0.0
210
0.0
220
0.0
230
1.0
  2
SOLID
 70
     1
 71
     0
 91
        1
 92
        0
 93
        6
 72
     3
 10
7.936489365029541
 20
-34.90841823015903
 11
3.960054785062287
 21
1.540882976769353E-10
 40
0.3939339440162625
 50
17.09539180608441
 51
320.0019657685073
 73
     0
 72
     1
 10
9.61948902073011
 20
-33.49631223474606
 11
11.92479089443118
 21
-31.56198552469811
 72
     3
 10
7.936489364976694
 20
-34.90841823010791
 11
6.600054785286829
 21
-1.136868377216160E-13
 40
0.636358354079598
 50
39.99873849337411
 51
368.4976242363724
 73
     1
 72
     1
 10
14.36182185687731
 20
-33.94841823003779
 11
6.616556671812617
 21
-33.94841823003779
 72
     1
 10
6.616556671812617
 20
-33.94841823003779
 11
6.616531627366683
 21
-35.86841823003768
 72
     1
 10
6.616531627366683
 20
-35.86841823003766
 11
11.05791139683872
 21
-35.86841823003764
 97
        0
 75
     0
 76
     1
 98
        1
 10
27.511595869488
 20
5.055251025080167
  0
ARC
  5
4FB
330
1F
100
AcDbEntity
  8
0
 62
     1
100
AcDbCircle
 10
48.67917274298908
 20
0.0
 30
0.0
 40
2.38125
100
AcDbArc
 50
270.0000000000002
 51
89.99999999999982
  0
SPLINE
  5
4FC
330
1F
100
AcDbEntity
  8
0
 62
     1
100
AcDbSpline
210
0.0
220
0.0
230
1.0
 70
     8
 71
     3
 72
     9
 73
     5
 74
     0
 42
0.000000001
 43
0.0000000001
 40
0.0
 40
0.0
 40
0.0
 40
0.0
 40
1.002594971083808
 40
2.212517441483266
 40
2.212517441483266
 40
2.212517441483266
 40
2.212517441483266
 10
48.67917274298909
 20
2.381250000000023
 30
0.0
 10
48.35202887971595
 20
2.299390695548965
 30
0.0
 10
47.63009078483041
 20
2.11874432880137
 30
0.0
 10
47.01865385627084
 20
1.705799936754119
 30
0.0
 10
46.69496525376948
 20
1.457533029317716
 30
0.0
  0
SPLINE
  5
4FD
330
1F
100
AcDbEntity
  8
0
 62
     1
100
AcDbSpline
210
0.0
220
0.0
230
1.0
 70
  1064
 71
     3
 72
    11
 73
     7
 74
     5
 42
0.000000001
 43
0.0000000001
 44
0.0
 40
0.0
 40
0.0
 40
0.0
 40
0.0
 40
0.8183971931348922
 40
3.199490321789253
 40
4.95046612365402
 40
7.027223881926504
 40
7.027223881926504
 40
7.027223881926504
 40
7.027223881926504
 10
48.67917274298908
 20
-2.381249999999994
 30
0.0
 10
48.41212444774243
 20
-2.308552790552661
 30
0.0
 10
47.36811007029924
 20
-2.024346026405696
 30
0.0
 10
46.35299914225516
 20
-0.5768692752539155
 30
0.0
 10
44.76832258190896
 20
0.7335335629734856
 30
0.0
 10
43.70515278040939
 20
1.444360887391221
 30
0.0
 10
43.12832419531162
 20
1.830024136304417
 30
0.0
 11
48.67917274298908
 21
-2.381249999999994
 31
0.0
 11
47.90341065278368
 21
-2.120544907738235
 31
0.0
 11
46.15494487309049
 21
-0.5042306113939503
 31
0.0
 11
44.83343003960144
 21
0.6444707438696184
 31
0.0
 11
43.12832419531162
 21
1.830024136304417
 31
0.0
  0
SPLINE
  5
4FE
330
1F
100
AcDbEntity
  8
0
 62
     1
100
AcDbSpline
210
0.0
220
0.0
230
1.0
 70
     8
 71
     3
 72
     9
 73
     5
 74
     0
 42
0.000000001
 43
0.0000000001
 40
0.0
 40
0.0
 40
0.0
 40
0.0
 40
0.5754399040840291
 40
1.423962836923601
 40
1.423962836923601
 40
1.423962836923601
 40
1.423962836923601
 10
49.67289811684859
 20
0.7856677512457111
 30
0.0
 10
49.72069118389903
 20
1.288395389296113
 30
0.0
 10
49.73320042223004
 20
1.783006600414012
 30
0.0
 10
49.34691147090248
 20
2.128633556864997
 30
0.0
 10
48.67917274298909
 20
2.381249999999994
 30
0.0
  0
LINE
  5
4FF
330
1F
100
AcDbEntity
  8
0
100
AcDbLine
 10
51.0606837489087
 20
-2.311399999999996
 30
0.0
 11
51.06068374890869
 21
2.818438375644858
 31
0.0
  0
LINE
  5
500
330
1F
100
AcDbEntity
  8
0
100
AcDbLine
 10
20.68884151371311
 20
2.381250000000023
 30
0.0
 11
58.92182183524812
 21
2.381250000000018
 31
0.0
  0
LINE
  5
501
330
1F
100
AcDbEntity
  8
0
100
AcDbLine
 10
19.59820182149817
 20
-2.381249999999966
 30
0.0
 11
55.83167604063912
 21
-2.38124999999997
 31
0.0
  0
ENDSEC
  0
SECTION
  2
OBJECTS
  0
DICTIONARY
  5
C
330
0
100
AcDbDictionary
281
     1
  3
ACAD_DETAILVIEWSTYLE
350
2E5
  3
ACAD_GROUP
350
D
  3
ACAD_LAYOUT
350
1A
  3
ACAD_MLINESTYLE
350
17
  3
ACAD_PLOTSETTINGS
350
19
  3
ACAD_PLOTSTYLENAME
350
E
  3
ACAD_SCALELIST
350
47
  3
ACAD_SECTIONVIEWSTYLE
350
2E6
  3
AcDbVariableDictionary
350
2E0
  3
APPDATA
350
158
  3
DWGPROPS
350
52E
  0
DICTIONARY
  5
52C
330
1F
100
AcDbDictionary
280
     1
281
     1
  3
DIM_BOUNDING_BOXES_V1
360
52D
  0
DICTIONARY
  5
2E5
102
{ACAD_REACTORS
330
C
102
}
330
C
100
AcDbDictionary
281
     1
  0
DICTIONARY
  5
D
102
{ACAD_REACTORS
330
C
102
}
330
C
100
AcDbDictionary
281
     1
  0
DICTIONARY
  5
1A
102
{ACAD_REACTORS
330
C
102
}
330
C
100
AcDbDictionary
281
     1
  3
Layout1
350
1E
  3
Layout2
350
26
  3
Model
350
22
  0
DICTIONARY
  5
17
102
{ACAD_REACTORS
330
C
102
}
330
C
100
AcDbDictionary
281
     1
  3
Standard
350
18
  0
DICTIONARY
  5
19
102
{ACAD_REACTORS
330
C
102
}
330
C
100
AcDbDictionary
281
     1
  0
ACDBDICTIONARYWDFLT
  5
E
102
{ACAD_REACTORS
330
C
102
}
330
C
100
AcDbDictionary
281
     1
  3
Normal
350
F
100
AcDbDictionaryWithDefault
340
F
  0
DICTIONARY
  5
47
102
{ACAD_REACTORS
330
C
102
}
330
C
100
AcDbDictionary
281
     1
  3
A0
350
48
  3
A1
350
49
  3
A2
350
4A
  3
A3
350
4B
  3
A4
350
4C
  3
A5
350
4D
  3
A6
350
4E
  3
A7
350
4F
  3
A8
350
50
  3
A9
350
51
  3
B0
350
52
  3
B1
350
53
  3
B2
350
54
  3
B3
350
55
  3
B4
350
56
  3
B5
350
57
  3
B6
350
58
  3
B7
350
59
  3
B8
350
5A
  3
B9
350
5B
  3
C0
350
5C
  3
C1
350
5D
  3
C2
350
5E
  3
C3
350
5F
  3
C4
350
60
  3
C5
350
61
  3
C6
350
62
  3
C7
350
63
  3
C8
350
64
  3
C9
350
65
  3
D0
350
66
  3
D1
350
67
  3
D2
350
68
  0
DICTIONARY
  5
2E6
102
{ACAD_REACTORS
330
C
102
}
330
C
100
AcDbDictionary
281
     1
  0
DICTIONARY
  5
2E0
102
{ACAD_REACTORS
330
C
102
}
330
C
100
AcDbDictionary
281
     1
  0
DICTIONARY
  5
158
102
{ACAD_REACTORS
330
C
102
}
330
C
100
AcDbDictionary
281
     1
  0
XRECORD
  5
52E
102
{ACAD_REACTORS
330
C
102
}
330
C
100
AcDbXrecord
280
     1
  1
DWGPROPS COOKIE
  2

  3

  4

  6

  7

  8
12011056
  9

300
=
301
=
302
=
303
=
304
=
305
=
306
=
307
=
308
=
309
=
 40
0.0
 41
2458270.259505486
 42
2459718.075850706
  1

 90
        0
  0
DICTIONARY
  5
52D
102
{ACAD_REACTORS
330
52C
102
}
330
52C
100
AcDbDictionary
281
     1
  0
LAYOUT
  5
1E
102
{ACAD_REACTORS
330
1A
102
}
330
1A
100
AcDbPlotSettings
  1

  2
none_device
  4

  6

 40
0.0
 41
0.0
 42
0.0
 43
0.0
 44
0.0
 45
0.0
 46
0.0
 47
0.0
 48
0.0
 49
0.0
140
0.0
141
0.0
142
1.0
143
1.0
 70
   688
 72
     1
 73
     0
 74
     5
  7

 75
    16
147
1.0
148
0.0
149
0.0
100
AcDbLayout
  1
Layout1
 70
     1
 71
     1
 10
0.0
 20
0.0
 11
420.0
 21
297.0
 12
0.0
 22
0.0
 32
0.0
 14
1.000000000000000E+20
 24
1.000000000000000E+20
 34
1.000000000000000E+20
 15
-1.000000000000000E+20
 25
-1.000000000000000E+20
 35
-1.000000000000000E+20
146
0.0
 13
0.0
 23
0.0
 33
0.0
 16
1.0
 26
0.0
 36
0.0
 17
0.0
 27
1.0
 37
0.0
 76
     0
330
1B
  0
LAYOUT
  5
26
102
{ACAD_REACTORS
330
1A
102
}
330
1A
100
AcDbPlotSettings
  1

  2
none_device
  4

  6

 40
0.0
 41
0.0
 42
0.0
 43
0.0
 44
0.0
 45
0.0
 46
0.0
 47
0.0
 48
0.0
 49
0.0
140
0.0
141
0.0
142
1.0
143
1.0
 70
   688
 72
     1
 73
     0
 74
     5
  7

 75
    16
147
1.0
148
0.0
149
0.0
100
AcDbLayout
  1
Layout2
 70
     1
 71
     2
 10
0.0
 20
0.0
 11
0.0
 21
0.0
 12
0.0
 22
0.0
 32
0.0
 14
0.0
 24
0.0
 34
0.0
 15
0.0
 25
0.0
 35
0.0
146
0.0
 13
0.0
 23
0.0
 33
0.0
 16
1.0
 26
0.0
 36
0.0
 17
0.0
 27
1.0
 37
0.0
 76
     0
330
23
  0
LAYOUT
  5
22
102
{ACAD_REACTORS
330
1A
102
}
330
1A
100
AcDbPlotSettings
  1

  2
none_device
  4
ANSI_A_(11.00_x_8.50_Inches)
  6

 40
6.35
 41
19.05
 42
6.35000508
 43
19.05000254
 44
279.4
 45
215.9
 46
86.17177212924734
 47
101.2914543987717
 48
0.0
 49
0.0
140
0.0
141
0.0
142
0.0736400973839136
143
1.0
 70
  1696
 72
     0
 73
     0
 74
     0
  7

 75
     0
147
0.0235690232323232
148
0.0
149
0.0
100
AcDbLayout
  1
Model
 70
     1
 71
     0
 10
0.0
 20
0.0
 11
420.0
 21
297.0
 12
0.0
 22
0.0
 32
0.0
 14
-67.72431625109141
 24
-44.8802256189195
 34
0.0
 15
99.1635088153456
 25
50.12401198635113
 35
0.0
146
0.0
 13
0.0
 23
0.0
 33
0.0
 16
1.0
 26
0.0
 36
0.0
 17
0.0
 27
1.0
 37
0.0
 76
     0
330
1F
331
29
  0
MLINESTYLE
  5
18
102
{ACAD_REACTORS
330
17
102
}
330
17
100
AcDbMlineStyle
  2
Standard
 70
     0
  3

 62
   256
 51
90.0
 52
90.0
 71
     2
 49
0.5
 62
   256
  6
BYLAYER
 49
-0.5
 62
   256
  6
BYLAYER
  0
ACDBPLACEHOLDER
  5
F
102
{ACAD_REACTORS
330
E
102
}
330
E
  0
SCALE
  5
48
102
{ACAD_REACTORS
330
47
102
}
330
47
100
AcDbScale
 70
     0
300
1:1
140
1.0
141
1.0
290
     1
  0
SCALE
  5
49
102
{ACAD_REACTORS
330
47
102
}
330
47
100
AcDbScale
 70
     0
300
1:2
140
1.0
141
2.0
290
     0
  0
SCALE
  5
4A
102
{ACAD_REACTORS
330
47
102
}
330
47
100
AcDbScale
 70
     0
300
1:4
140
1.0
141
4.0
290
     0
  0
SCALE
  5
4B
102
{ACAD_REACTORS
330
47
102
}
330
47
100
AcDbScale
 70
     0
300
1:5
140
1.0
141
5.0
290
     0
  0
SCALE
  5
4C
102
{ACAD_REACTORS
330
47
102
}
330
47
100
AcDbScale
 70
     0
300
1:8
140
1.0
141
8.0
290
     0
  0
SCALE
  5
4D
102
{ACAD_REACTORS
330
47
102
}
330
47
100
AcDbScale
 70
     0
300
1:10
140
1.0
141
10.0
290
     0
  0
SCALE
  5
4E
102
{ACAD_REACTORS
330
47
102
}
330
47
100
AcDbScale
 70
     0
300
1:16
140
1.0
141
16.0
290
     0
  0
SCALE
  5
4F
102
{ACAD_REACTORS
330
47
102
}
330
47
100
AcDbScale
 70
     0
300
1:20
140
1.0
141
20.0
290
     0
  0
SCALE
  5
50
102
{ACAD_REACTORS
330
47
102
}
330
47
100
AcDbScale
 70
     0
300
1:30
140
1.0
141
30.0
290
     0
  0
SCALE
  5
51
102
{ACAD_REACTORS
330
47
102
}
330
47
100
AcDbScale
 70
     0
300
1:40
140
1.0
141
40.0
290
     0
  0
SCALE
  5
52
102
{ACAD_REACTORS
330
47
102
}
330
47
100
AcDbScale
 70
     0
300
1:50
140
1.0
141
50.0
290
     0
  0
SCALE
  5
53
102
{ACAD_REACTORS
330
47
102
}
330
47
100
AcDbScale
 70
     0
300
1:100
140
1.0
141
100.0
290
     0
  0
SCALE
  5
54
102
{ACAD_REACTORS
330
47
102
}
330
47
100
AcDbScale
 70
     0
300
2:1
140
2.0
141
1.0
290
     0
  0
SCALE
  5
55
102
{ACAD_REACTORS
330
47
102
}
330
47
100
AcDbScale
 70
     0
300
4:1
140
4.0
141
1.0
290
     0
  0
SCALE
  5
56
102
{ACAD_REACTORS
330
47
102
}
330
47
100
AcDbScale
 70
     0
300
8:1
140
8.0
141
1.0
290
     0
  0
SCALE
  5
57
102
{ACAD_REACTORS
330
47
102
}
330
47
100
AcDbScale
 70
     0
300
10:1
140
10.0
141
1.0
290
     0
  0
SCALE
  5
58
102
{ACAD_REACTORS
330
47
102
}
330
47
100
AcDbScale
 70
     0
300
100:1
140
100.0
141
1.0
290
     0
  0
SCALE
  5
59
102
{ACAD_REACTORS
330
47
102
}
330
47
100
AcDbScale
 70
     0
300
1/128" = 1'-0"
140
0.0078125
141
12.0
290
     0
  0
SCALE
  5
5A
102
{ACAD_REACTORS
330
47
102
}
330
47
100
AcDbScale
 70
     0
300
1/64" = 1'-0"
140
0.015625
141
12.0
290
     0
  0
SCALE
  5
5B
102
{ACAD_REACTORS
330
47
102
}
330
47
100
AcDbScale
 70
     0
300
1/32" = 1'-0"
140
0.03125
141
12.0
290
     0
  0
SCALE
  5
5C
102
{ACAD_REACTORS
330
47
102
}
330
47
100
AcDbScale
 70
     0
300
1/16" = 1'-0"
140
0.0625
141
12.0
290
     0
  0
SCALE
  5
5D
102
{ACAD_REACTORS
330
47
102
}
330
47
100
AcDbScale
 70
     0
300
3/32" = 1'-0"
140
0.09375
141
12.0
290
     0
  0
SCALE
  5
5E
102
{ACAD_REACTORS
330
47
102
}
330
47
100
AcDbScale
 70
     0
300
1/8" = 1'-0"
140
0.125
141
12.0
290
     0
  0
SCALE
  5
5F
102
{ACAD_REACTORS
330
47
102
}
330
47
100
AcDbScale
 70
     0
300
3/16" = 1'-0"
140
0.1875
141
12.0
290
     0
  0
SCALE
  5
60
102
{ACAD_REACTORS
330
47
102
}
330
47
100
AcDbScale
 70
     0
300
1/4" = 1'-0"
140
0.25
141
12.0
290
     0
  0
SCALE
  5
61
102
{ACAD_REACTORS
330
47
102
}
330
47
100
AcDbScale
 70
     0
300
3/8" = 1'-0"
140
0.375
141
12.0
290
     0
  0
SCALE
  5
62
102
{ACAD_REACTORS
330
47
102
}
330
47
100
AcDbScale
 70
     0
300
1/2" = 1'-0"
140
0.5
141
12.0
290
     0
  0
SCALE
  5
63
102
{ACAD_REACTORS
330
47
102
}
330
47
100
AcDbScale
 70
     0
300
3/4" = 1'-0"
140
0.75
141
12.0
290
     0
  0
SCALE
  5
64
102
{ACAD_REACTORS
330
47
102
}
330
47
100
AcDbScale
 70
     0
300
1" = 1'-0"
140
1.0
141
12.0
290
     0
  0
SCALE
  5
65
102
{ACAD_REACTORS
330
47
102
}
330
47
100
AcDbScale
 70
     0
300
1-1/2" = 1'-0"
140
1.5
141
12.0
290
     0
  0
SCALE
  5
66
102
{ACAD_REACTORS
330
47
102
}
330
47
100
AcDbScale
 70
     0
300
3" = 1'-0"
140
3.0
141
12.0
290
     0
  0
SCALE
  5
67
102
{ACAD_REACTORS
330
47
102
}
330
47
100
AcDbScale
 70
     0
300
6" = 1'-0"
140
6.0
141
12.0
290
     0
  0
SCALE
  5
68
102
{ACAD_REACTORS
330
47
102
}
330
47
100
AcDbScale
 70
     0
300
1'-0" = 1'-0"
140
12.0
141
12.0
290
     0
  0
ENDSEC
  0
EOF
