  0
SECTION
  2
HEADER
  9
$ACADVER
  1
AC1015
  9
$ACADMAINTVER
 70
     6
  9
$DWGCODEPAGE
  3
ANSI_949
  9
$INSBASE
 10
0.0
 20
0.0
 30
0.0
  9
$EXTMIN
 10
-71.0960000000001
 20
-49.56673288368584
 30
0.0
  9
$EXTMAX
 10
99.1635088153456
 20
88.0536577036498
 30
0.0
  9
$LIMMIN
 10
0.0
 20
0.0
  9
$LIMMAX
 10
420.0
 20
297.0
  9
$ORTHOMODE
 70
     0
  9
$REGENMODE
 70
     1
  9
$FILLMODE
 70
     1
  9
$QTEXTMODE
 70
     0
  9
$MIRRTEXT
 70
     1
  9
$LTSCALE
 40
1.0
  9
$ATTMODE
 70
     1
  9
$TEXTSIZE
 40
3.5
  9
$TRACEWID
 40
1.0
  9
$TEXTSTYLE
  7
Standard
  9
$CLAYER
  8
0
  9
$CELTYPE
  6
ByLayer
  9
$CECOLOR
 62
   256
  9
$CELTSCALE
 40
1.0
  9
$DISPSILH
 70
     0
  9
$DIMSCALE
 40
1.0
  9
$DIMASZ
 40
3.302
  9
$DIMEXO
 40
1.0
  9
$DIMDLI
 40
3.75
  9
$DIMRND
 40
0.0
  9
$DIMDLE
 40
0.0
  9
$DIMEXE
 40
1.0
  9
$DIMTP
 40
0.0
  9
$DIMTM
 40
0.0
  9
$DIMTXT
 40
3.5
  9
$DIMCEN
 40
2.5
  9
$DIMTSZ
 40
0.0
  9
$DIMTOL
 70
     0
  9
$DIMLIM
 70
     0
  9
$DIMTIH
 70
     1
  9
$DIMTOH
 70
     1
  9
$DIMSE1
 70
     0
  9
$DIMSE2
 70
     0
  9
$DIMTAD
 70
     1
  9
$DIMZIN
 70
     0
  9
$DIMBLK
  1

  9
$DIMASO
 70
     1
  9
$DIMSHO
 70
     1
  9
$DIMPOST
  1

  9
$DIMAPOST
  1

  9
$DIMALT
 70
     0
  9
$DIMALTD
 70
     3
  9
$DIMALTF
 40
0.0393700787401575
  9
$DIMLFAC
 40
1.0
  9
$DIMTOFL
 70
     1
  9
$DIMTVP
 40
0.0
  9
$DIMTIX
 70
     0
  9
$DIMSOXD
 70
     0
  9
$DIMSAH
 70
     0
  9
$DIMBLK1
  1

  9
$DIMBLK2
  1

  9
$DIMSTYLE
  2
ISO-25
  9
$DIMCLRD
 70
     0
  9
$DIMCLRE
 70
     0
  9
$DIMCLRT
 70
     0
  9
$DIMTFAC
 40
1.0
  9
$DIMGAP
 40
1.524
  9
$DIMJUST
 70
     0
  9
$DIMSD1
 70
     0
  9
$DIMSD2
 70
     0
  9
$DIMTOLJ
 70
     0
  9
$DIMTZIN
 70
     0
  9
$DIMALTZ
 70
     0
  9
$DIMALTTZ
 70
     0
  9
$DIMUPT
 70
     0
  9
$DIMDEC
 70
     2
  9
$DIMTDEC
 70
     2
  9
$DIMALTU
 70
     2
  9
$DIMALTTD
 70
     3
  9
$DIMTXSTY
  7
Standard
  9
$DIMAUNIT
 70
     0
  9
$DIMADEC
 70
     2
  9
$DIMALTRND
 40
0.0
  9
$DIMAZIN
 70
     0
  9
$DIMDSEP
 70
    44
  9
$DIMATFIT
 70
     3
  9
$DIMFRAC
 70
     0
  9
$DIMLDRBLK
  1

  9
$DIMLUNIT
 70
     2
  9
$DIMLWD
 70
    -2
  9
$DIMLWE
 70
    -2
  9
$DIMTMOVE
 70
     0
  9
$LUNITS
 70
     2
  9
$LUPREC
 70
     2
  9
$SKETCHINC
 40
1.0
  9
$FILLETRAD
 40
10.0
  9
$AUNITS
 70
     0
  9
$AUPREC
 70
     2
  9
$MENU
  1
.
  9
$ELEVATION
 40
0.0
  9
$PELEVATION
 40
0.0
  9
$THICKNESS
 40
0.0
  9
$LIMCHECK
 70
     0
  9
$CHAMFERA
 40
0.0
  9
$CHAMFERB
 40
0.0
  9
$CHAMFERC
 40
0.0
  9
$CHAMFERD
 40
0.0
  9
$SKPOLY
 70
     0
  9
$TDCREATE
 40
2458270.634505486
  9
$TDUCREATE
 40
2458270.259505486
  9
$TDUPDATE
 40
2458275.440466065
  9
$TDUUPDATE
 40
2458275.065466065
  9
$TDINDWG
 40
0.0098240278
  9
$TDUSRTIMER
 40
2458275.065253078
  9
$USRTIMER
 70
     1
  9
$ANGBASE
 50
0.0
  9
$ANGDIR
 70
     0
  9
$PDMODE
 70
     0
  9
$PDSIZE
 40
-1.0
  9
$PLINEWID
 40
0.0
  9
$SPLFRAME
 70
     0
  9
$SPLINETYPE
 70
     6
  9
$SPLINESEGS
 70
     8
  9
$HANDSEED
  5
6EA
  9
$SURFTAB1
 70
     6
  9
$SURFTAB2
 70
     6
  9
$SURFTYPE
 70
     6
  9
$SURFU
 70
     6
  9
$SURFV
 70
     6
  9
$UCSBASE
  2

  9
$UCSNAME
  2

  9
$UCSORG
 10
0.0
 20
0.0
 30
0.0
  9
$UCSXDIR
 10
1.0
 20
0.0
 30
0.0
  9
$UCSYDIR
 10
0.0
 20
1.0
 30
0.0
  9
$UCSORTHOREF
  2

  9
$UCSORTHOVIEW
 70
     0
  9
$UCSORGTOP
 10
0.0
 20
0.0
 30
0.0
  9
$UCSORGBOTTOM
 10
0.0
 20
0.0
 30
0.0
  9
$UCSORGLEFT
 10
0.0
 20
0.0
 30
0.0
  9
$UCSORGRIGHT
 10
0.0
 20
0.0
 30
0.0
  9
$UCSORGFRONT
 10
0.0
 20
0.0
 30
0.0
  9
$UCSORGBACK
 10
0.0
 20
0.0
 30
0.0
  9
$PUCSBASE
  2

  9
$PUCSNAME
  2

  9
$PUCSORG
 10
0.0
 20
0.0
 30
0.0
  9
$PUCSXDIR
 10
1.0
 20
0.0
 30
0.0
  9
$PUCSYDIR
 10
0.0
 20
1.0
 30
0.0
  9
$PUCSORTHOREF
  2

  9
$PUCSORTHOVIEW
 70
     0
  9
$PUCSORGTOP
 10
0.0
 20
0.0
 30
0.0
  9
$PUCSORGBOTTOM
 10
0.0
 20
0.0
 30
0.0
  9
$PUCSORGLEFT
 10
0.0
 20
0.0
 30
0.0
  9
$PUCSORGRIGHT
 10
0.0
 20
0.0
 30
0.0
  9
$PUCSORGFRONT
 10
0.0
 20
0.0
 30
0.0
  9
$PUCSORGBACK
 10
0.0
 20
0.0
 30
0.0
  9
$USERI1
 70
     0
  9
$USERI2
 70
     0
  9
$USERI3
 70
     0
  9
$USERI4
 70
     0
  9
$USERI5
 70
     0
  9
$USERR1
 40
0.0
  9
$USERR2
 40
0.0
  9
$USERR3
 40
0.0
  9
$USERR4
 40
0.0
  9
$USERR5
 40
0.0
  9
$WORLDVIEW
 70
     1
  9
$SHADEDGE
 70
     3
  9
$SHADEDIF
 70
    70
  9
$TILEMODE
 70
     1
  9
$MAXACTVP
 70
    64
  9
$PINSBASE
 10
0.0
 20
0.0
 30
0.0
  9
$PLIMCHECK
 70
     0
  9
$PEXTMIN
 10
1.000000000000000E+20
 20
1.000000000000000E+20
 30
1.000000000000000E+20
  9
$PEXTMAX
 10
-1.000000000000000E+20
 20
-1.000000000000000E+20
 30
-1.000000000000000E+20
  9
$PLIMMIN
 10
0.0
 20
0.0
  9
$PLIMMAX
 10
0.0
 20
0.0
  9
$UNITMODE
 70
     0
  9
$VISRETAIN
 70
     1
  9
$PLINEGEN
 70
     0
  9
$PSLTSCALE
 70
     1
  9
$TREEDEPTH
 70
  3020
  9
$CMLSTYLE
  2
Standard
  9
$CMLJUST
 70
     0
  9
$CMLSCALE
 40
20.0
  9
$PROXYGRAPHICS
 70
     1
  9
$MEASUREMENT
 70
     1
  9
$CELWEIGHT
370
    -1
  9
$ENDCAPS
280
     0
  9
$JOINSTYLE
280
     0
  9
$LWDISPLAY
290
     1
  9
$INSUNITS
 70
     4
  9
$HYPERLINKBASE
  1

  9
$STYLESHEET
  1

  9
$XEDIT
290
     1
  9
$CEPSNTYPE
380
     0
  9
$PSTYLEMODE
290
     1
  9
$FINGERPRINTGUID
  2
{0CBA276D-93A1-4B21-A2E7-F2339FD7F036}
  9
$VERSIONGUID
  2
{FAEB1C32-E019-11D5-929B-00C0DF256EC4}
  9
$EXTNAMES
290
     1
  9
$PSVPSCALE
 40
0.0
  9
$OLESTARTUP
290
     0
  0
ENDSEC
  0
SECTION
  2
CLASSES
  0
CLASS
  1
ACDBDICTIONARYWDFLT
  2
AcDbDictionaryWithDefault
  3
ObjectDBX Classes
 90
        0
280
     0
281
     0
  0
CLASS
  1
VISUALSTYLE
  2
AcDbVisualStyle
  3
ObjectDBX Classes
 90
     4095
280
     0
281
     0
  0
CLASS
  1
MATERIAL
  2
AcDbMaterial
  3
ObjectDBX Classes
 90
     1153
280
     0
281
     0
  0
CLASS
  1
SCALE
  2
AcDbScale
  3
ObjectDBX Classes
 90
     1153
280
     0
281
     0
  0
CLASS
  1
SUN
  2
AcDbSun
  3
SCENEOE
 90
     1153
280
     0
281
     0
  0
CLASS
  1
ACDBPLACEHOLDER
  2
AcDbPlaceHolder
  3
ObjectDBX Classes
 90
        0
280
     0
281
     0
  0
CLASS
  1
LAYOUT
  2
AcDbLayout
  3
ObjectDBX Classes
 90
        0
280
     0
281
     0
  0
CLASS
  1
TABLESTYLE
  2
AcDbTableStyle
  3
ObjectDBX Classes
 90
     4095
280
     0
281
     0
  0
CLASS
  1
MLEADERSTYLE
  2
AcDbMLeaderStyle
  3
ACDB_MLEADERSTYLE_CLASS
 90
     4095
280
     0
281
     0
  0
CLASS
  1
DICTIONARYVAR
  2
AcDbDictionaryVar
  3
ObjectDBX Classes
 90
        0
280
     0
281
     0
  0
CLASS
  1
DIMASSOC
  2
AcDbDimAssoc
  3
"AcDbDimAssoc|Product Desc:     AcDim ARX App For Dimension|Company:          Autodesk, Inc.|WEB Address:      www.autodesk.com"
 90
        0
280
     0
281
     0
  0
CLASS
  1
RASTERVARIABLES
  2
AcDbRasterVariables
  3
ISM
 90
        0
280
     0
281
     0
  0
ENDSEC
  0
SECTION
  2
TABLES
  0
TABLE
  2
VPORT
  5
8
330
0
100
AcDbSymbolTable
 70
     1
  0
VPORT
  5
29
330
8
100
AcDbSymbolTableRecord
100
AcDbViewportTableRecord
  2
*Active
 70
     0
 10
0.0
 20
0.0
 11
1.0
 21
1.0
 12
20.0626175116993
 22
26.84073563957923
 13
0.0
 23
0.0
 14
10.0
 24
10.0
 15
10.0
 25
10.0
 16
0.0
 26
0.0
 36
1.0
 17
0.0
 27
0.0
 37
0.0
 40
141.8254672459687
 41
1.515444015444015
 42
50.0
 43
0.0
 44
0.0
 50
0.0
 51
0.0
 71
    16
 72
  2000
 73
     1
 74
     3
 75
     0
 76
     0
 77
     0
 78
     0
281
     0
 65
     1
110
0.0
120
0.0
130
0.0
111
1.0
121
0.0
131
0.0
112
0.0
122
1.0
132
0.0
 79
     0
146
0.0
  0
ENDTAB
  0
TABLE
  2
LTYPE
  5
5
330
0
100
AcDbSymbolTable
 70
     6
  0
LTYPE
  5
14
330
5
100
AcDbSymbolTableRecord
100
AcDbLinetypeTableRecord
  2
ByBlock
 70
     0
  3

 72
    65
 73
     0
 40
0.0
  0
LTYPE
  5
15
330
5
100
AcDbSymbolTableRecord
100
AcDbLinetypeTableRecord
  2
ByLayer
 70
     0
  3

 72
    65
 73
     0
 40
0.0
  0
LTYPE
  5
16
330
5
100
AcDbSymbolTableRecord
100
AcDbLinetypeTableRecord
  2
Continuous
 70
     0
  3
Solid line
 72
    65
 73
     0
 40
0.0
  0
LTYPE
  5
6A
330
5
100
AcDbSymbolTableRecord
100
AcDbLinetypeTableRecord
  2
HIDDEN
 70
     0
  3
Hidden __ __ __ __ __ __ __ __ __ __ __ __ __ __
 72
    65
 73
     2
 40
1.905
 49
1.27
 74
     0
 49
-0.635
 74
     0
  0
LTYPE
  5
6B
330
5
100
AcDbSymbolTableRecord
100
AcDbLinetypeTableRecord
  2
PHANTOM
 70
     0
  3
Phantom ______  __  __  ______  __  __  ______
 72
    65
 73
     6
 40
12.7
 49
6.35
 74
     0
 49
-1.27
 74
     0
 49
1.27
 74
     0
 49
-1.27
 74
     0
 49
1.27
 74
     0
 49
-1.27
 74
     0
  0
LTYPE
  5
6C
330
5
100
AcDbSymbolTableRecord
100
AcDbLinetypeTableRecord
  2
CENTER
 70
     0
  3
Center ____ _ ____ _ ____ _ ____ _ ____ _ ____
 72
    65
 73
     4
 40
10.16
 49
6.35
 74
     0
 49
-1.27
 74
     0
 49
1.27
 74
     0
 49
-1.27
 74
     0
  0
LTYPE
  5
6D
330
5
100
AcDbSymbolTableRecord
100
AcDbLinetypeTableRecord
  2
CENTERX2
 70
     0
  3
Center (2x) ________  __  ________  __  _____
 72
    65
 73
     4
 40
20.32
 49
12.7
 74
     0
 49
-2.54
 74
     0
 49
2.54
 74
     0
 49
-2.54
 74
     0
  0
LTYPE
  5
6E
330
5
100
AcDbSymbolTableRecord
100
AcDbLinetypeTableRecord
  2
DOT2
 70
     0
  3
Dot (.5x) ........................................
 72
    65
 73
     2
 40
0.635
 49
0.0
 74
     0
 49
-0.635
 74
     0
  0
ENDTAB
  0
TABLE
  2
LAYER
  5
2
330
0
100
AcDbSymbolTable
 70
    18
  0
LAYER
  5
10
330
2
100
AcDbSymbolTableRecord
100
AcDbLayerTableRecord
  2
0
 70
     0
 62
     7
  6
Continuous
370
    -3
390
F
  0
LAYER
  5
6F
330
2
100
AcDbSymbolTableRecord
100
AcDbLayerTableRecord
  2
FORMAT
 70
     0
 62
     2
  6
Continuous
370
    -3
390
F
  0
LAYER
  5
70
330
2
100
AcDbSymbolTableRecord
100
AcDbLayerTableRecord
  2
외형선
 70
     0
 62
     4
  6
Continuous
370
    30
390
F
  0
LAYER
  5
71
330
2
100
AcDbSymbolTableRecord
100
AcDbLayerTableRecord
  2
숨은선
 70
     0
 62
     2
  6
HIDDEN
370
    15
390
F
  0
LAYER
  5
72
330
2
100
AcDbSymbolTableRecord
100
AcDbLayerTableRecord
  2
중심선
 70
     0
 62
     1
  6
CENTERX2
370
    -3
390
F
  0
LAYER
  5
73
330
2
100
AcDbSymbolTableRecord
100
AcDbLayerTableRecord
  2
파단선
 70
     0
 62
     4
  6
Continuous
370
    -3
390
F
  0
LAYER
  5
74
330
2
100
AcDbSymbolTableRecord
100
AcDbLayerTableRecord
  2
해칭선
 70
     0
 62
   100
  6
Continuous
370
    -3
390
F
  0
LAYER
  5
75
330
2
100
AcDbSymbolTableRecord
100
AcDbLayerTableRecord
  2
가는실선
 70
     0
 62
     4
  6
Continuous
370
    -3
390
F
  0
LAYER
  5
76
330
2
100
AcDbSymbolTableRecord
100
AcDbLayerTableRecord
  2
치수_보조선
 70
     0
 62
     4
  6
Continuous
370
    -3
390
F
  0
LAYER
  5
77
330
2
100
AcDbSymbolTableRecord
100
AcDbLayerTableRecord
  2
치수문자_일반주서
 70
     0
 62
     7
  6
Continuous
370
    15
390
F
  0
LAYER
  5
78
330
2
100
AcDbSymbolTableRecord
100
AcDbLayerTableRecord
  2
개별주서
 70
     0
 62
   100
  6
Continuous
370
    30
390
F
  0
LAYER
  5
79
330
2
100
AcDbSymbolTableRecord
100
AcDbLayerTableRecord
  2
중간선
 70
     0
 62
     2
  6
Continuous
370
    15
390
F
  0
LAYER
  5
7A
330
2
100
AcDbSymbolTableRecord
100
AcDbLayerTableRecord
  2
윤곽선
 70
     0
 62
     3
  6
Continuous
370
    40
390
F
  0
LAYER
  5
7B
330
2
100
AcDbSymbolTableRecord
100
AcDbLayerTableRecord
  2
중심마크
 70
     0
 62
   100
  6
Continuous
370
    30
390
F
  0
LAYER
  5
7C
330
2
100
AcDbSymbolTableRecord
100
AcDbLayerTableRecord
  2
가상선
 70
     0
 62
     4
  6
PHANTOM
370
    -3
390
F
  0
LAYER
  5
7D
330
2
100
AcDbSymbolTableRecord
100
AcDbLayerTableRecord
  2
특수지정선
 70
     0
 62
     5
  6
CENTERX2
370
    60
390
F
  0
LAYER
  5
7E
330
2
100
AcDbSymbolTableRecord
100
AcDbLayerTableRecord
  2
참조1
 70
     0
 62
    -4
  6
Continuous
370
    -3
390
F
  0
LAYER
  5
159
330
2
100
AcDbSymbolTableRecord
100
AcDbLayerTableRecord
  2
Defpoints
 70
     0
 62
     7
  6
Continuous
290
     0
370
    -3
390
F
  0
ENDTAB
  0
TABLE
  2
STYLE
  5
3
330
0
100
AcDbSymbolTable
 70
     2
  0
STYLE
  5
11
330
3
100
AcDbSymbolTableRecord
100
AcDbTextStyleTableRecord
  2
Standard
 70
     0
 40
0.0
 41
1.0
 50
0.0
 71
     0
 42
3.5
  3
txt
  4

  0
STYLE
  5
94
330
3
100
AcDbSymbolTableRecord
100
AcDbTextStyleTableRecord
  2
SLDTEXTSTYLE0
 70
     0
 40
0.0
 41
0.75
 50
0.0
 71
     0
 42
3.5
  3
TXT
  4

  0
ENDTAB
  0
TABLE
  2
VIEW
  5
6
330
0
100
AcDbSymbolTable
 70
     0
  0
ENDTAB
  0
TABLE
  2
UCS
  5
7
330
0
100
AcDbSymbolTable
 70
     0
  0
ENDTAB
  0
TABLE
  2
APPID
  5
9
330
0
100
AcDbSymbolTable
 70
     5
  0
APPID
  5
12
330
9
100
AcDbSymbolTableRecord
100
AcDbRegAppTableRecord
  2
ACAD
 70
     0
  0
APPID
  5
15C
330
9
100
AcDbSymbolTableRecord
100
AcDbRegAppTableRecord
  2
PE_URL
 70
     0
  0
APPID
  5
68F
330
9
100
AcDbSymbolTableRecord
100
AcDbRegAppTableRecord
  2
PE_DIMMEASUREMENT
 70
     0
  0
APPID
  5
6C4
330
9
100
AcDbSymbolTableRecord
100
AcDbRegAppTableRecord
  2
ACAD_DSTYLE_DIMFLIPARROW_SYMBOL
 70
     0
  0
APPID
  5
6C5
330
9
100
AcDbSymbolTableRecord
100
AcDbRegAppTableRecord
  2
ACAD_DSTYLE_DIMFLIPARROW_WHICH_SYMBOL
 70
     0
  0
ENDTAB
  0
TABLE
  2
DIMSTYLE
  5
A
330
0
100
AcDbSymbolTable
 70
     3
100
AcDbDimStyleTable
  0
DIMSTYLE
105
27
330
A
100
AcDbSymbolTableRecord
100
AcDbDimStyleTableRecord
  2
ISO-25
 70
     0
 41
2.5
 42
0.625
 43
3.75
 44
1.25
 73
     0
 74
     0
 77
     1
 78
     8
140
2.5
141
2.5
143
0.03937007874016
147
0.625
171
     3
172
     1
178
     0
271
     2
272
     2
274
     3
278
    44
283
     0
284
     8
340
11
  0
DIMSTYLE
105
D8
102
{ACAD_REACTORS
102
}
330
A
100
AcDbSymbolTableRecord
100
AcDbDimStyleTableRecord
  2
SLDDIMSTYLE0
 70
     0
 41
3.302
 44
0.0
 45
0.000000001
 73
     0
 74
     0
 77
     1
 78
     4
 79
     1
140
3.5
143
0.0393700787401575
147
0.875
148
0.000000001
170
     1
173
     1
178
     0
271
     2
272
     2
276
     2
284
    12
340
94
  0
DIMSTYLE
105
EC
102
{ACAD_REACTORS
330
677
330
633
330
690
330
6A0
330
6B0
102
}
330
A
100
AcDbSymbolTableRecord
100
AcDbDimStyleTableRecord
  2
SLDDIMSTYLE1
 70
     0
 41
3.302
 44
0.0
 45
0.000000001
 73
     0
 74
     0
 77
     1
 78
    12
 79
     3
140
3.5
143
0.0393700787401575
147
0.875
148
0.000000001
170
     1
172
     1
173
     1
178
     0
271
     2
272
     2
276
     2
284
    12
289
     0
340
94
  0
ENDTAB
  0
TABLE
  2
BLOCK_RECORD
  5
1
330
0
100
AcDbSymbolTable
 70
    41
  0
BLOCK_RECORD
  5
1F
330
1
100
AcDbSymbolTableRecord
100
AcDbBlockTableRecord
  2
*Model_Space
340
22
  0
BLOCK_RECORD
  5
1B
330
1
100
AcDbSymbolTableRecord
100
AcDbBlockTableRecord
  2
*Paper_Space
340
1E
  0
BLOCK_RECORD
  5
23
330
1
100
AcDbSymbolTableRecord
100
AcDbBlockTableRecord
  2
*Paper_Space0
340
26
  0
BLOCK_RECORD
  5
7F
330
1
100
AcDbSymbolTableRecord
100
AcDbBlockTableRecord
  2
블럭10
340
0
102
{BLKREFS
331
62B
102
}
  0
BLOCK_RECORD
  5
D9
330
1
100
AcDbSymbolTableRecord
100
AcDbBlockTableRecord
  2
_D
340
0
  0
BLOCK_RECORD
  5
ED
330
1
100
AcDbSymbolTableRecord
100
AcDbBlockTableRecord
  2
_D_1
340
0
  0
BLOCK_RECORD
  5
101
330
1
100
AcDbSymbolTableRecord
100
AcDbBlockTableRecord
  2
_D_2
340
0
  0
BLOCK_RECORD
  5
115
330
1
100
AcDbSymbolTableRecord
100
AcDbBlockTableRecord
  2
_D_3
340
0
  0
BLOCK_RECORD
  5
130
330
1
100
AcDbSymbolTableRecord
100
AcDbBlockTableRecord
  2
SW_DOWELSYMBOL_0
340
0
102
{BLKREFS
331
637
102
}
  0
BLOCK_RECORD
  5
217
330
1
100
AcDbSymbolTableRecord
100
AcDbBlockTableRecord
  2
_D_4
340
0
  0
BLOCK_RECORD
  5
22C
330
1
100
AcDbSymbolTableRecord
100
AcDbBlockTableRecord
  2
*D8
340
0
  0
BLOCK_RECORD
  5
239
330
1
100
AcDbSymbolTableRecord
100
AcDbBlockTableRecord
  2
*D9
340
0
  0
BLOCK_RECORD
  5
246
330
1
100
AcDbSymbolTableRecord
100
AcDbBlockTableRecord
  2
*D10
340
0
  0
BLOCK_RECORD
  5
252
330
1
100
AcDbSymbolTableRecord
100
AcDbBlockTableRecord
  2
*D11
340
0
  0
BLOCK_RECORD
  5
29B
330
1
100
AcDbSymbolTableRecord
100
AcDbBlockTableRecord
  2
*D12
340
0
  0
BLOCK_RECORD
  5
2A8
330
1
100
AcDbSymbolTableRecord
100
AcDbBlockTableRecord
  2
*D13
340
0
  0
BLOCK_RECORD
  5
2B5
330
1
100
AcDbSymbolTableRecord
100
AcDbBlockTableRecord
  2
*D14
340
0
  0
BLOCK_RECORD
  5
2C1
330
1
100
AcDbSymbolTableRecord
100
AcDbBlockTableRecord
  2
*D15
340
0
  0
BLOCK_RECORD
  5
2CD
330
1
100
AcDbSymbolTableRecord
100
AcDbBlockTableRecord
  2
*D16
340
0
  0
BLOCK_RECORD
  5
3EB
330
1
100
AcDbSymbolTableRecord
100
AcDbBlockTableRecord
  2
*D17
340
0
  0
BLOCK_RECORD
  5
3F8
330
1
100
AcDbSymbolTableRecord
100
AcDbBlockTableRecord
  2
*D18
340
0
  0
BLOCK_RECORD
  5
405
330
1
100
AcDbSymbolTableRecord
100
AcDbBlockTableRecord
  2
*D19
340
0
  0
BLOCK_RECORD
  5
411
330
1
100
AcDbSymbolTableRecord
100
AcDbBlockTableRecord
  2
*D20
340
0
  0
BLOCK_RECORD
  5
41D
330
1
100
AcDbSymbolTableRecord
100
AcDbBlockTableRecord
  2
*D21
340
0
  0
BLOCK_RECORD
  5
466
330
1
100
AcDbSymbolTableRecord
100
AcDbBlockTableRecord
  2
*D22
340
0
  0
BLOCK_RECORD
  5
473
330
1
100
AcDbSymbolTableRecord
100
AcDbBlockTableRecord
  2
*D23
340
0
  0
BLOCK_RECORD
  5
480
330
1
100
AcDbSymbolTableRecord
100
AcDbBlockTableRecord
  2
*D24
340
0
  0
BLOCK_RECORD
  5
48C
330
1
100
AcDbSymbolTableRecord
100
AcDbBlockTableRecord
  2
*D25
340
0
  0
BLOCK_RECORD
  5
498
330
1
100
AcDbSymbolTableRecord
100
AcDbBlockTableRecord
  2
*D26
340
0
  0
BLOCK_RECORD
  5
5BC
330
1
100
AcDbSymbolTableRecord
100
AcDbBlockTableRecord
  2
*D27
340
0
  0
BLOCK_RECORD
  5
5C8
330
1
100
AcDbSymbolTableRecord
100
AcDbBlockTableRecord
  2
*D28
340
0
  0
BLOCK_RECORD
  5
5D4
330
1
100
AcDbSymbolTableRecord
100
AcDbBlockTableRecord
  2
*D29
340
0
  0
BLOCK_RECORD
  5
5E0
330
1
100
AcDbSymbolTableRecord
100
AcDbBlockTableRecord
  2
*D30
340
0
  0
BLOCK_RECORD
  5
5EC
330
1
100
AcDbSymbolTableRecord
100
AcDbBlockTableRecord
  2
*D31
340
0
  0
BLOCK_RECORD
  5
638
330
1
100
AcDbSymbolTableRecord
100
AcDbBlockTableRecord
  2
*D32
340
0
  0
BLOCK_RECORD
  5
644
330
1
100
AcDbSymbolTableRecord
100
AcDbBlockTableRecord
  2
*D33
340
0
  0
BLOCK_RECORD
  5
650
330
1
100
AcDbSymbolTableRecord
100
AcDbBlockTableRecord
  2
*D34
340
0
  0
BLOCK_RECORD
  5
65C
330
1
100
AcDbSymbolTableRecord
100
AcDbBlockTableRecord
  2
*D35
340
0
  0
BLOCK_RECORD
  5
668
330
1
100
AcDbSymbolTableRecord
100
AcDbBlockTableRecord
  2
*D36
340
0
  0
BLOCK_RECORD
  5
67A
330
1
100
AcDbSymbolTableRecord
100
AcDbBlockTableRecord
  2
*D37
340
0
  0
BLOCK_RECORD
  5
693
330
1
100
AcDbSymbolTableRecord
100
AcDbBlockTableRecord
  2
*D38
340
0
  0
BLOCK_RECORD
  5
6A3
330
1
100
AcDbSymbolTableRecord
100
AcDbBlockTableRecord
  2
*D39
340
0
  0
BLOCK_RECORD
  5
6B3
330
1
100
AcDbSymbolTableRecord
100
AcDbBlockTableRecord
  2
*D40
340
0
  0
ENDTAB
  0
ENDSEC
  0
SECTION
  2
BLOCKS
  0
BLOCK
  5
20
330
1F
100
AcDbEntity
  8
0
100
AcDbBlockBegin
  2
*Model_Space
 70
     0
 10
0.0
 20
0.0
 30
0.0
  3
*Model_Space
  1
*Model_Space
  0
ENDBLK
  5
21
330
1F
100
AcDbEntity
  8
0
100
AcDbBlockEnd
  0
BLOCK
  5
1C
330
1B
100
AcDbEntity
 67
     1
  8
0
100
AcDbBlockBegin
  2
*Paper_Space
 70
     0
 10
0.0
 20
0.0
 30
0.0
  3
*Paper_Space
  1
*Paper_Space
  0
ENDBLK
  5
1D
330
1B
100
AcDbEntity
 67
     1
  8
0
100
AcDbBlockEnd
  0
BLOCK
  5
24
330
23
100
AcDbEntity
  8
0
100
AcDbBlockBegin
  2
*Paper_Space0
 70
     0
 10
0.0
 20
0.0
 30
0.0
  3
*Paper_Space0
  1
*Paper_Space0
  0
ENDBLK
  5
25
330
23
100
AcDbEntity
  8
0
100
AcDbBlockEnd
  0
BLOCK
  5
80
330
7F
100
AcDbEntity
  8
0
100
AcDbBlockBegin
  2
블럭10
 70
     2
 10
0.0
 20
0.0
 30
0.0
  3
블럭10
  1
블럭10
  0
ELLIPSE
  5
82
330
7F
100
AcDbEntity
  8
중심선
100
AcDbEllipse
 10
20.54032771741204
 20
12.0471743016438
 30
0.0
 11
6.600054785286829
 21
-1.261213355974178E-13
 31
0.0
210
0.0
220
0.0
230
1.0
 40
0.636358354079598
 41
0.9219305317359503
 42
6.513795318482858
  0
ELLIPSE
  5
83
330
7F
100
AcDbEntity
  8
중심선
100
AcDbEllipse
 10
20.54032771746488
 20
12.04717430159265
 30
0.0
 11
3.960054785062283
 21
1.540847449632565E-10
 31
0.0
210
0.0
220
0.0
230
1.0
 40
0.3939339440162632
 41
1.131841032648279
 42
5.62031148352944
  0
LINE
  5
84
330
7F
100
AcDbEntity
  8
중심선
100
AcDbLine
 10
2.268634060543552
 20
16.24717430164393
 30
0.0
 11
5.714909304380834
 21
16.24717430164393
 31
0.0
  0
LINE
  5
85
330
7F
100
AcDbEntity
  8
중심선
100
AcDbLine
 10
5.245725140726316
 20
7.84717430164391
 30
0.0
 11
8.692000384563599
 21
7.84717430164391
 31
0.0
  0
LINE
  5
86
330
7F
100
AcDbEntity
  8
중심선
100
AcDbLine
 10
15.74043728645272
 20
16.24717430164393
 30
0.0
 11
8.692000384563599
 21
7.84717430164391
 31
0.0
  0
LINE
  5
87
330
7F
100
AcDbEntity
  8
중심선
100
AcDbLine
 10
0.1404042013395286
 20
13.71084872107135
 30
0.0
 11
3.58671253028996
 21
13.71088815037384
 31
0.0
  0
LINE
  5
88
330
7F
100
AcDbEntity
  8
중심선
100
AcDbLine
 10
2.750260043222114
 20
10.84717430164391
 30
0.0
 11
6.196535287059397
 21
10.84717430164391
 31
0.0
  0
LINE
  5
89
330
7F
100
AcDbEntity
  8
중심선
100
AcDbLine
 10
12.29416204261559
 20
16.24717430164393
 30
0.0
 11
5.245725140726316
 21
7.84717430164391
 31
0.0
  0
LINE
  5
8A
330
7F
100
AcDbEntity
  8
중심선
100
AcDbLine
 10
10.72767329541681
 20
16.24717430164393
 30
0.0
 11
6.196535287059397
 21
10.84717430164391
 31
0.0
  0
LINE
  5
8B
330
7F
100
AcDbEntity
  8
중심선
100
AcDbLine
 10
7.28139805157953
 20
16.24717430164393
 30
0.0
 11
2.750260043222114
 21
10.84717430164391
 31
0.0
  0
LINE
  5
8C
330
7F
100
AcDbEntity
  8
중심선
100
AcDbLine
 10
5.714909304380834
 20
16.24717430164393
 30
0.0
 11
3.58671253028996
 21
13.71088815037384
 31
0.0
  0
LINE
  5
8D
330
7F
100
AcDbEntity
  8
중심선
100
AcDbLine
 10
2.268634060543552
 20
16.24717430164393
 30
0.0
 11
0.1404042013395286
 21
13.71084872107135
 31
0.0
  0
LINE
  5
8E
330
7F
100
AcDbEntity
  8
중심선
100
AcDbLine
 10
7.28139805157953
 20
16.24717430164393
 30
0.0
 11
10.72767329541681
 21
16.24717430164393
 31
0.0
  0
LINE
  5
8F
330
7F
100
AcDbEntity
  8
중심선
100
AcDbLine
 10
12.29416204261559
 20
16.24717430164393
 30
0.0
 11
15.74043728645272
 21
16.24717430164393
 31
0.0
  0
LINE
  5
90
330
7F
100
AcDbEntity
  8
중심선
100
AcDbLine
 10
19.22036997980202
 20
11.08717430171403
 30
0.0
 11
23.66174974927406
 21
11.08717430171406
 31
0.0
  0
LINE
  5
91
330
7F
100
AcDbEntity
  8
중심선
100
AcDbLine
 10
19.22039502424796
 20
13.00717430171391
 30
0.0
 11
19.22036997980202
 21
11.08717430171403
 31
0.0
  0
LINE
  5
92
330
7F
100
AcDbEntity
  8
중심선
100
AcDbLine
 10
19.22039502424796
 20
13.00717430171391
 30
0.0
 11
26.96566020931264
 21
13.00717430171391
 31
0.0
  0
LINE
  5
93
330
7F
100
AcDbEntity
  8
중심선
100
AcDbLine
 10
22.22332737316547
 20
13.45928029700563
 30
0.0
 11
24.52862924686651
 21
15.39360700705356
 31
0.0
  0
ATTDEF
  5
95
330
7F
100
AcDbEntity
  8
FORMAT
 62
     2
100
AcDbText
 10
5.200277315438102
 20
2.075366912832191
 30
0.0
 40
4.233333333333333
  1
EI107012
 41
0.75
  7
SLDTEXTSTYLE0
 11
5.200277315438102
 21
-0.0412997538344756
 31
0.0
100
AcDbAttributeDefinition
  3

  2
AUTOATTR0
 70
     0
 74
     1
  0
ENDBLK
  5
81
330
7F
100
AcDbEntity
  8
0
100
AcDbBlockEnd
  0
BLOCK
  5
DA
330
D9
100
AcDbEntity
  8
0
100
AcDbBlockBegin
  2
_D
 70
     0
 10
0.0
 20
0.0
 30
0.0
  3
_D
  1
_D
  0
LINE
  5
DC
330
D9
100
AcDbEntity
  8
치수문자_일반주서
 62
     0
370
    -2
100
AcDbLine
 10
-24.925
 20
1.944824928723889
 30
0.0
 11
-24.925
 21
26.67217117410937
 31
0.0
  0
LINE
  5
DD
330
D9
100
AcDbEntity
  8
치수문자_일반주서
 62
     0
370
    -2
100
AcDbLine
 10
25.875
 20
2.454239777376156
 30
0.0
 11
25.875
 21
26.67217117410937
 31
0.0
  0
LINE
  5
DE
330
D9
100
AcDbEntity
  8
치수문자_일반주서
 62
     0
370
    -2
100
AcDbLine
 10
-21.623
 20
26.67217117410937
 30
0.0
 11
22.573
 21
26.67217117410937
 31
0.0
  0
SOLID
  5
DF
330
D9
100
AcDbEntity
  8
치수문자_일반주서
 62
     0
100
AcDbTrace
 10
-21.623
 20
27.2225045074427
 30
0.0
 11
-21.623
 21
26.12183784077603
 31
0.0
 12
-24.925
 22
26.67217117410937
 32
0.0
 13
-24.925
 23
26.67217117410937
 33
0.0
  0
SOLID
  5
E0
330
D9
100
AcDbEntity
  8
치수문자_일반주서
 62
     0
100
AcDbTrace
 10
22.573
 20
26.12183784077603
 30
0.0
 11
22.573
 21
27.2225045074427
 31
0.0
 12
25.875
 22
26.67217117410937
 32
0.0
 13
25.875
 23
26.67217117410937
 33
0.0
  0
MTEXT
  5
E1
330
D9
100
AcDbEntity
  8
치수문자_일반주서
 62
     0
100
AcDbMText
 10
0.474999999999998
 20
31.04717117410937
 30
0.0
 40
3.5
 41
0.0
 71
     2
 72
     1
  1
\A1;50.8 [2]
  7
SLDTEXTSTYLE0
 73
     1
 44
1.0
  0
POINT
  5
E2
330
D9
100
AcDbEntity
  8
Defpoints
 62
     0
100
AcDbPoint
 10
-24.925
 20
1.882324928723889
 30
0.0
  0
POINT
  5
E3
330
D9
100
AcDbEntity
  8
Defpoints
 62
     0
100
AcDbPoint
 10
25.875
 20
2.391739777376156
 30
0.0
  0
POINT
  5
E4
330
D9
100
AcDbEntity
  8
Defpoints
 62
     0
100
AcDbPoint
 10
25.875
 20
26.67217117410937
 30
0.0
  0
ENDBLK
  5
DB
330
D9
100
AcDbEntity
  8
0
100
AcDbBlockEnd
  0
BLOCK
  5
EE
330
ED
100
AcDbEntity
  8
0
100
AcDbBlockBegin
  2
_D_1
 70
     0
 10
0.0
 20
0.0
 30
0.0
  3
_D_1
  1
_D_1
  0
LINE
  5
F0
330
ED
100
AcDbEntity
  8
치수문자_일반주서
 62
     0
370
    -2
100
AcDbLine
 10
25.875
 20
2.382324928723894
 30
0.0
 11
52.51087757850773
 21
2.382324928723992
 31
0.0
  0
LINE
  5
F1
330
ED
100
AcDbEntity
  8
치수문자_일반주서
 62
     0
370
    -2
100
AcDbLine
 10
25.875
 20
-2.380175071276109
 30
0.0
 11
52.51087757850775
 21
-2.38017507127601
 31
0.0
  0
LINE
  5
F2
330
ED
100
AcDbEntity
  8
치수문자_일반주서
 62
     0
370
    -2
100
AcDbLine
 10
52.51087757850773
 20
2.382324928723992
 30
0.0
 11
52.51087757850763
 21
36.98632492872399
 31
0.0
  0
LINE
  5
F3
330
ED
100
AcDbEntity
  8
치수문자_일반주서
 62
     0
370
    -2
100
AcDbLine
 10
52.51087757850773
 20
2.382324928723992
 30
0.0
 11
52.51087757850775
 21
-2.38017507127601
 31
0.0
  0
LINE
  5
F4
330
ED
100
AcDbEntity
  8
치수문자_일반주서
 62
     0
370
    -2
100
AcDbLine
 10
52.51087757850772
 20
5.684324928723992
 30
0.0
 11
52.51087757850772
 21
8.986324928723992
 31
0.0
  0
LINE
  5
F5
330
ED
100
AcDbEntity
  8
치수문자_일반주서
 62
     0
370
    -2
100
AcDbLine
 10
52.51087757850775
 20
-5.68217507127601
 30
0.0
 11
52.51087757850776
 21
-8.98417507127601
 31
0.0
  0
SOLID
  5
F6
330
ED
100
AcDbEntity
  8
치수문자_일반주서
 62
     0
100
AcDbTrace
 10
51.96054424517439
 20
5.68432492872399
 30
0.0
 11
53.06121091184106
 21
5.684324928723994
 31
0.0
 12
52.51087757850773
 22
2.382324928723992
 32
0.0
 13
52.51087757850773
 23
2.382324928723992
 33
0.0
  0
SOLID
  5
F7
330
ED
100
AcDbEntity
  8
치수문자_일반주서
 62
     0
100
AcDbTrace
 10
53.06121091184109
 20
-5.682175071276008
 30
0.0
 11
51.96054424517442
 21
-5.682175071276012
 31
0.0
 12
52.51087757850775
 22
-2.38017507127601
 32
0.0
 13
52.51087757850775
 23
-2.38017507127601
 33
0.0
  0
MTEXT
  5
F8
330
ED
100
AcDbEntity
  8
치수문자_일반주서
 62
     0
100
AcDbMText
 10
48.13587757850767
 20
22.98632492872398
 30
0.0
 40
3.5
 41
0.0
 71
     2
 72
     1
  1
\A1;%%c4.76 [3/16]
  7
SLDTEXTSTYLE0
 11
-2.983906501879684E-15
 21
1.0
 31
0.0
 73
     1
 44
1.0
  0
POINT
  5
F9
330
ED
100
AcDbEntity
  8
Defpoints
 62
     0
100
AcDbPoint
 10
25.8125
 20
2.382324928723894
 30
0.0
  0
POINT
  5
FA
330
ED
100
AcDbEntity
  8
Defpoints
 62
     0
100
AcDbPoint
 10
25.8125
 20
-2.380175071276109
 30
0.0
  0
POINT
  5
FB
330
ED
100
AcDbEntity
  8
Defpoints
 62
     0
100
AcDbPoint
 10
52.51087757850775
 20
-2.380175071276009
 30
0.0
  0
ENDBLK
  5
EF
330
ED
100
AcDbEntity
  8
0
100
AcDbBlockEnd
  0
BLOCK
  5
102
330
101
100
AcDbEntity
  8
0
100
AcDbBlockBegin
  2
_D_2
 70
     0
 10
0.0
 20
0.0
 30
0.0
  3
_D_2
  1
_D_2
  0
LINE
  5
104
330
101
100
AcDbEntity
  8
치수문자_일반주서
 62
     0
370
    -2
100
AcDbLine
 10
-24.48749999999999
 20
2.382324928723894
 30
0.0
 11
-37.92499999999997
 21
2.382324928723847
 31
0.0
  0
LINE
  5
105
330
101
100
AcDbEntity
  8
치수문자_일반주서
 62
     0
370
    -2
100
AcDbLine
 10
-24.48749999999999
 20
-2.380175071276109
 30
0.0
 11
-37.92499999999995
 21
-2.380175071276156
 31
0.0
  0
LINE
  5
106
330
101
100
AcDbEntity
  8
치수문자_일반주서
 62
     0
370
    -2
100
AcDbLine
 10
-37.92499999999997
 20
2.382324928723847
 30
0.0
 11
-37.92500000000008
 21
36.98632492872385
 31
0.0
  0
LINE
  5
107
330
101
100
AcDbEntity
  8
치수문자_일반주서
 62
     0
370
    -2
100
AcDbLine
 10
-37.92499999999997
 20
2.382324928723847
 30
0.0
 11
-37.92499999999995
 21
-2.380175071276156
 31
0.0
  0
LINE
  5
108
330
101
100
AcDbEntity
  8
치수문자_일반주서
 62
     0
370
    -2
100
AcDbLine
 10
-37.92499999999998
 20
5.684324928723846
 30
0.0
 11
-37.92499999999998
 21
8.986324928723846
 31
0.0
  0
LINE
  5
109
330
101
100
AcDbEntity
  8
치수문자_일반주서
 62
     0
370
    -2
100
AcDbLine
 10
-37.92499999999995
 20
-5.682175071276156
 30
0.0
 11
-37.92499999999994
 21
-8.984175071276155
 31
0.0
  0
SOLID
  5
10A
330
101
100
AcDbEntity
  8
치수문자_일반주서
 62
     0
100
AcDbTrace
 10
-38.47533333333331
 20
5.684324928723845
 30
0.0
 11
-37.37466666666664
 21
5.684324928723848
 31
0.0
 12
-37.92499999999997
 22
2.382324928723847
 32
0.0
 13
-37.92499999999997
 23
2.382324928723847
 33
0.0
  0
SOLID
  5
10B
330
101
100
AcDbEntity
  8
치수문자_일반주서
 62
     0
100
AcDbTrace
 10
-37.37466666666661
 20
-5.682175071276154
 30
0.0
 11
-38.47533333333328
 21
-5.682175071276157
 31
0.0
 12
-37.92499999999995
 22
-2.380175071276156
 32
0.0
 13
-37.92499999999995
 23
-2.380175071276156
 33
0.0
  0
MTEXT
  5
10C
330
101
100
AcDbEntity
  8
치수문자_일반주서
 62
     0
100
AcDbMText
 10
-42.30000000000003
 20
22.98632492872383
 30
0.0
 40
3.5
 41
0.0
 71
     2
 72
     1
  1
\A1;%%c4.76 [3/16]
  7
SLDTEXTSTYLE0
 11
-2.983906501879684E-15
 21
1.0
 31
0.0
 73
     1
 44
1.0
  0
POINT
  5
15D
330
101
100
AcDbEntity
  8
Defpoints
 62
     0
100
AcDbPoint
 10
-24.42499999999999
 20
2.382324928723894
 30
0.0
  0
POINT
  5
15E
330
101
100
AcDbEntity
  8
Defpoints
 62
     0
100
AcDbPoint
 10
-24.42499999999999
 20
-2.380175071276109
 30
0.0
  0
POINT
  5
15F
330
101
100
AcDbEntity
  8
Defpoints
 62
     0
100
AcDbPoint
 10
-37.92499999999996
 20
-2.380175071276156
 30
0.0
  0
ENDBLK
  5
103
330
101
100
AcDbEntity
  8
0
100
AcDbBlockEnd
  0
BLOCK
  5
116
330
115
100
AcDbEntity
  8
0
100
AcDbBlockBegin
  2
_D_3
 70
     0
 10
0.0
 20
0.0
 30
0.0
  3
_D_3
  1
_D_3
  0
LINE
  5
118
330
115
100
AcDbEntity
  8
치수문자_일반주서
 62
     0
370
    -2
100
AcDbLine
 10
25.875
 20
2.444824928723894
 30
0.0
 11
25.875
 21
13.80387532676639
 31
0.0
  0
LINE
  5
119
330
115
100
AcDbEntity
  8
치수문자_일반주서
 62
     0
370
    -2
100
AcDbLine
 10
9.999999999999995
 20
2.171201999844017
 30
0.0
 11
9.999999999999995
 21
13.80387532676639
 31
0.0
  0
LINE
  5
11A
330
115
100
AcDbEntity
  8
치수문자_일반주서
 62
     0
370
    -2
100
AcDbLine
 10
22.573
 20
13.80387532676639
 30
0.0
 11
13.30199999999999
 21
13.80387532676639
 31
0.0
  0
SOLID
  5
11B
330
115
100
AcDbEntity
  8
치수문자_일반주서
 62
     0
100
AcDbTrace
 10
22.573
 20
13.25354199343306
 30
0.0
 11
22.573
 21
14.35420866009973
 31
0.0
 12
25.875
 22
13.80387532676639
 32
0.0
 13
25.875
 23
13.80387532676639
 33
0.0
  0
SOLID
  5
11C
330
115
100
AcDbEntity
  8
치수문자_일반주서
 62
     0
100
AcDbTrace
 10
13.30199999999999
 20
14.35420866009973
 30
0.0
 11
13.30199999999999
 21
13.25354199343306
 31
0.0
 12
9.999999999999995
 22
13.80387532676639
 32
0.0
 13
9.999999999999995
 23
13.80387532676639
 33
0.0
  0
MTEXT
  5
11D
330
115
100
AcDbEntity
  8
치수문자_일반주서
 62
     0
100
AcDbMText
 10
18.4450217873033
 20
18.17887532676639
 30
0.0
 40
3.5
 41
0.0
 71
     2
 72
     1
  1
\A1;15.88 [5/8]
  7
SLDTEXTSTYLE0
 73
     1
 44
1.0
  0
POINT
  5
11E
330
115
100
AcDbEntity
  8
Defpoints
 62
     0
100
AcDbPoint
 10
25.875
 20
2.382324928723894
 30
0.0
  0
POINT
  5
11F
330
115
100
AcDbEntity
  8
Defpoints
 62
     0
100
AcDbPoint
 10
9.999999999999995
 20
2.108701999844017
 30
0.0
  0
POINT
  5
120
330
115
100
AcDbEntity
  8
Defpoints
 62
     0
100
AcDbPoint
 10
9.999999999999995
 20
13.80387532676639
 30
0.0
  0
ENDBLK
  5
117
330
115
100
AcDbEntity
  8
0
100
AcDbBlockEnd
  0
BLOCK
  5
131
330
130
100
AcDbEntity
  8
0
100
AcDbBlockBegin
  2
SW_DOWELSYMBOL_0
 70
     0
 10
0.0
 20
0.0
 30
0.0
  3
SW_DOWELSYMBOL_0
  1
SW_DOWELSYMBOL_0
  0
CIRCLE
  5
133
330
130
100
AcDbEntity
  8
해칭선
 62
     0
100
AcDbCircle
 10
0.0
 20
0.0
 30
0.0
 40
3.000000000000002
  0
HATCH
  5
134
330
130
100
AcDbEntity
  8
0
  6
Continuous
 62
     0
370
     0
100
AcDbHatch
 10
0.0
 20
0.0
 30
0.0
210
0.0
220
0.0
230
1.0
  2
SOLID
 70
     1
 71
     0
 91
        1
 92
        0
 93
        3
 72
     2
 10
0.0000000000000069
 20
0.0
 40
3.000000000000002
 50
0.0
 51
90.0
 73
     1
 72
     1
 10
0.0000000000000069
 20
3.000000000000002
 11
0.0000000000000069
 21
0.0
 72
     1
 10
0.0000000000000069
 20
0.0
 11
3.000000000000009
 21
0.0
 97
        0
 75
     0
 76
     1
 98
        1
 10
0.0
 20
0.0
  0
HATCH
  5
135
330
130
100
AcDbEntity
  8
0
  6
Continuous
 62
     0
370
     0
100
AcDbHatch
 10
0.0
 20
0.0
 30
0.0
210
0.0
220
0.0
230
1.0
  2
SOLID
 70
     1
 71
     0
 91
        1
 92
        0
 93
        3
 72
     2
 10
0.0000000000000069
 20
0.0
 40
3.000000000000002
 50
180.0
 51
270.0000000000007
 73
     1
 72
     1
 10
0.0000000000000069
 20
-3.000000000000002
 11
0.0000000000000069
 21
0.0
 72
     1
 10
0.0000000000000069
 20
0.0
 11
-2.999999999999995
 21
0.0
 97
        0
 75
     0
 76
     1
 98
        1
 10
0.0
 20
0.0
  0
ENDBLK
  5
132
330
130
100
AcDbEntity
  8
0
100
AcDbBlockEnd
  0
BLOCK
  5
218
330
217
100
AcDbEntity
  8
0
100
AcDbBlockBegin
  2
_D_4
 70
     0
 10
0.0
 20
0.0
 30
0.0
  3
_D_4
  1
_D_4
  0
LINE
  5
219
330
217
100
AcDbEntity
  8
치수문자_일반주서
 62
     0
370
    -2
100
AcDbLine
 10
118.7724046535982
 20
11.52145291206001
 30
0.0
 11
118.7724046535982
 21
47.42369709597183
 31
0.0
  0
LINE
  5
21A
330
217
100
AcDbEntity
  8
치수문자_일반주서
 62
     0
370
    -2
100
AcDbLine
 10
67.98500000000006
 20
13.74890000000002
 30
0.0
 11
67.98500000000006
 21
47.42369709597183
 31
0.0
  0
LINE
  5
21B
330
217
100
AcDbEntity
  8
치수문자_일반주서
 62
     0
370
    -2
100
AcDbLine
 10
115.4704046535982
 20
47.42369709597183
 30
0.0
 11
71.28700000000006
 21
47.42369709597183
 31
0.0
  0
SOLID
  5
21C
330
217
100
AcDbEntity
  8
치수문자_일반주서
 62
     0
100
AcDbTrace
 10
115.4704046535982
 20
46.8733637626385
 30
0.0
 11
115.4704046535982
 21
47.97403042930517
 31
0.0
 12
118.7724046535982
 22
47.42369709597183
 32
0.0
 13
118.7724046535982
 23
47.42369709597183
 33
0.0
  0
SOLID
  5
21D
330
217
100
AcDbEntity
  8
치수문자_일반주서
 62
     0
100
AcDbTrace
 10
71.28700000000006
 20
47.97403042930517
 30
0.0
 11
71.28700000000006
 21
46.8733637626385
 31
0.0
 12
67.98500000000006
 22
47.42369709597183
 32
0.0
 13
67.98500000000006
 23
47.42369709597183
 33
0.0
  0
MTEXT
  5
21E
330
217
100
AcDbEntity
  8
치수문자_일반주서
 62
     0
100
AcDbMText
 10
93.37870232679913
 20
51.79869709597183
 30
0.0
 40
3.5
 41
0.0
 71
     2
 72
     1
  1
\A1;50.79 [2]
  7
SLDTEXTSTYLE0
 73
     1
 44
1.0
  0
POINT
  5
21F
330
217
100
AcDbEntity
  8
Defpoints
 62
     0
100
AcDbPoint
 10
118.7724046535982
 20
11.45895291206001
 30
0.0
  0
POINT
  5
220
330
217
100
AcDbEntity
  8
Defpoints
 62
     0
100
AcDbPoint
 10
67.98500000000006
 20
13.68640000000002
 30
0.0
  0
POINT
  5
221
330
217
100
AcDbEntity
  8
Defpoints
 62
     0
100
AcDbPoint
 10
67.98500000000006
 20
47.42369709597183
 30
0.0
  0
ENDBLK
  5
222
330
217
100
AcDbEntity
  8
0
100
AcDbBlockEnd
  0
BLOCK
  5
22D
330
22C
100
AcDbEntity
  8
0
100
AcDbBlockBegin
  2
*D8
 70
     1
 10
0.0
 20
0.0
 30
0.0
  3
*D8
  1
*D8
  0
LINE
  5
22F
330
22C
100
AcDbEntity
  8
치수문자_일반주서
 62
     0
370
    -2
100
AcDbLine
 10
111.6005715097399
 20
13.75625000000002
 30
0.0
 11
123.3942867360312
 21
13.75625000000007
 31
0.0
  0
LINE
  5
230
330
22C
100
AcDbEntity
  8
치수문자_일반주서
 62
     0
370
    -2
100
AcDbLine
 10
111.6005715097399
 20
8.993750000000023
 30
0.0
 11
123.3942867360312
 21
8.993750000000068
 31
0.0
  0
LINE
  5
231
330
22C
100
AcDbEntity
  8
치수문자_일반주서
 62
     0
370
    -2
100
AcDbLine
 10
123.3942867360312
 20
17.05825000000007
 30
0.0
 11
123.3942867360312
 21
20.36025000000007
 31
0.0
  0
LINE
  5
232
330
22C
100
AcDbEntity
  8
치수문자_일반주서
 62
     0
370
    -2
100
AcDbLine
 10
123.3942867360312
 20
5.691750000000068
 30
0.0
 11
123.3942867360313
 21
2.389750000000068
 31
0.0
  0
SOLID
  5
233
330
22C
100
AcDbEntity
  8
치수문자_일반주서
 62
     0
100
AcDbTrace
 10
122.8439534026979
 20
17.05825000000007
 30
0.0
 11
123.9446200693645
 21
17.05825000000007
 31
0.0
 12
123.3942867360312
 22
13.75625000000007
 32
0.0
 13
123.3942867360312
 23
13.75625000000007
 33
0.0
  0
SOLID
  5
234
330
22C
100
AcDbEntity
  8
치수문자_일반주서
 62
     0
100
AcDbTrace
 10
123.9446200693646
 20
5.69175000000007
 30
0.0
 11
122.8439534026979
 21
5.691750000000066
 31
0.0
 12
123.3942867360312
 22
8.993750000000068
 32
0.0
 13
123.3942867360312
 23
8.993750000000068
 33
0.0
  0
MTEXT
  5
235
330
22C
100
AcDbEntity
  8
치수문자_일반주서
 62
     0
100
AcDbMText
 10
119.0192867360312
 20
11.37500000000001
 30
0.0
 40
3.5
 41
0.0
 71
     2
 72
     1
  1
\A1;%%c4.76 [1/4]
  7
SLDTEXTSTYLE0
 11
-2.983906501879686E-15
 21
1.0
 31
0.0
 73
     1
 44
1.0
  0
POINT
  5
236
330
22C
100
AcDbEntity
  8
Defpoints
 62
     0
100
AcDbPoint
 10
111.5380715097399
 20
13.75625000000002
 30
0.0
  0
POINT
  5
237
330
22C
100
AcDbEntity
  8
Defpoints
 62
     0
100
AcDbPoint
 10
111.5380715097399
 20
8.993750000000023
 30
0.0
  0
POINT
  5
238
330
22C
100
AcDbEntity
  8
Defpoints
 62
     0
100
AcDbPoint
 10
123.3942867360312
 20
8.993750000000068
 30
0.0
  0
ENDBLK
  5
22E
330
22C
100
AcDbEntity
  8
0
100
AcDbBlockEnd
  0
BLOCK
  5
23A
330
239
100
AcDbEntity
  8
0
100
AcDbBlockBegin
  2
*D9
 70
     1
 10
0.0
 20
0.0
 30
0.0
  3
*D9
  1
*D9
  0
LINE
  5
23C
330
239
100
AcDbEntity
  8
치수문자_일반주서
 62
     0
370
    -2
100
AcDbLine
 10
18.12250000000007
 20
13.75625000000002
 30
0.0
 11
4.37500000000002
 21
13.75624999999997
 31
0.0
  0
LINE
  5
23D
330
239
100
AcDbEntity
  8
치수문자_일반주서
 62
     0
370
    -2
100
AcDbLine
 10
18.12250000000007
 20
8.993750000000022
 30
0.0
 11
4.375000000000037
 21
8.99374999999997
 31
0.0
  0
LINE
  5
23E
330
239
100
AcDbEntity
  8
치수문자_일반주서
 62
     0
370
    -2
100
AcDbLine
 10
4.375000000000009
 20
17.05824999999997
 30
0.0
 11
4.374999999999997
 21
20.36024999999997
 31
0.0
  0
LINE
  5
23F
330
239
100
AcDbEntity
  8
치수문자_일반주서
 62
     0
370
    -2
100
AcDbLine
 10
4.375000000000049
 20
5.691749999999971
 30
0.0
 11
4.37500000000006
 21
2.389749999999971
 31
0.0
  0
SOLID
  5
240
330
239
100
AcDbEntity
  8
치수문자_일반주서
 62
     0
100
AcDbTrace
 10
3.824666666666675
 20
17.05824999999997
 30
0.0
 11
4.925333333333342
 21
17.05824999999998
 31
0.0
 12
4.37500000000002
 22
13.75624999999997
 32
0.0
 13
4.37500000000002
 23
13.75624999999997
 33
0.0
  0
SOLID
  5
241
330
239
100
AcDbEntity
  8
치수문자_일반주서
 62
     0
100
AcDbTrace
 10
4.925333333333382
 20
5.691749999999972
 30
0.0
 11
3.824666666666715
 21
5.691749999999969
 31
0.0
 12
4.375000000000037
 22
8.99374999999997
 32
0.0
 13
4.375000000000037
 23
8.99374999999997
 33
0.0
  0
MTEXT
  5
242
330
239
100
AcDbEntity
  8
치수문자_일반주서
 62
     0
100
AcDbMText
 10
0.0000000000000284
 20
11.37500000000001
 30
0.0
 40
3.5
 41
0.0
 71
     2
 72
     1
  1
\A1;%%c4.76 [1/4]
  7
SLDTEXTSTYLE0
 11
-3.543388970982125E-15
 21
1.0
 31
0.0
 73
     1
 44
1.0
  0
POINT
  5
243
330
239
100
AcDbEntity
  8
Defpoints
 62
     0
100
AcDbPoint
 10
18.18500000000007
 20
13.75625000000002
 30
0.0
  0
POINT
  5
244
330
239
100
AcDbEntity
  8
Defpoints
 62
     0
100
AcDbPoint
 10
18.18500000000007
 20
8.993750000000022
 30
0.0
  0
POINT
  5
245
330
239
100
AcDbEntity
  8
Defpoints
 62
     0
100
AcDbPoint
 10
4.375000000000036
 20
8.99374999999997
 30
0.0
  0
ENDBLK
  5
23B
330
239
100
AcDbEntity
  8
0
100
AcDbBlockEnd
  0
BLOCK
  5
247
330
246
100
AcDbEntity
  8
0
100
AcDbBlockBegin
  2
*D10
 70
     1
 10
0.0
 20
0.0
 30
0.0
  3
*D10
  1
*D10
  0
LINE
  5
249
330
246
100
AcDbEntity
  8
치수문자_일반주서
 62
     0
370
    -2
100
AcDbLine
 10
118.7724046535982
 20
11.52145291206001
 30
0.0
 11
118.7724046535982
 21
35.42369709597151
 31
0.0
  0
LINE
  5
24A
330
246
100
AcDbEntity
  8
치수문자_일반주서
 62
     0
370
    -2
100
AcDbLine
 10
90.21000000000005
 20
13.81875000000002
 30
0.0
 11
90.21000000000005
 21
35.42369709597151
 31
0.0
  0
LINE
  5
24B
330
246
100
AcDbEntity
  8
치수문자_일반주서
 62
     0
370
    -2
100
AcDbLine
 10
115.4704046535982
 20
35.42369709597151
 30
0.0
 11
93.51200000000006
 21
35.42369709597151
 31
0.0
  0
SOLID
  5
24C
330
246
100
AcDbEntity
  8
치수문자_일반주서
 62
     0
100
AcDbTrace
 10
115.4704046535982
 20
34.87336376263817
 30
0.0
 11
115.4704046535982
 21
35.97403042930484
 31
0.0
 12
118.7724046535982
 22
35.42369709597151
 32
0.0
 13
118.7724046535982
 23
35.42369709597151
 33
0.0
  0
SOLID
  5
24D
330
246
100
AcDbEntity
  8
치수문자_일반주서
 62
     0
100
AcDbTrace
 10
93.51200000000006
 20
35.97403042930484
 30
0.0
 11
93.51200000000006
 21
34.87336376263817
 31
0.0
 12
90.21000000000005
 22
35.42369709597151
 32
0.0
 13
90.21000000000005
 23
35.42369709597151
 33
0.0
  0
MTEXT
  5
24E
330
246
100
AcDbEntity
  8
치수문자_일반주서
 62
     0
100
AcDbMText
 10
106.5522865216461
 20
39.79869709597151
 30
0.0
 40
3.5
 41
0.0
 71
     2
 72
     1
  1
\A1;28.56 [1]
  7
SLDTEXTSTYLE0
 73
     1
 44
1.0
  0
POINT
  5
24F
330
246
100
AcDbEntity
  8
Defpoints
 62
     0
100
AcDbPoint
 10
118.7724046535982
 20
11.45895291206001
 30
0.0
  0
POINT
  5
250
330
246
100
AcDbEntity
  8
Defpoints
 62
     0
100
AcDbPoint
 10
90.21000000000005
 20
13.75625000000002
 30
0.0
  0
POINT
  5
251
330
246
100
AcDbEntity
  8
Defpoints
 62
     0
100
AcDbPoint
 10
90.21000000000005
 20
35.42369709597151
 30
0.0
  0
ENDBLK
  5
248
330
246
100
AcDbEntity
  8
0
100
AcDbBlockEnd
  0
BLOCK
  5
253
330
252
100
AcDbEntity
  8
0
100
AcDbBlockBegin
  2
*D11
 70
     1
 10
0.0
 20
0.0
 30
0.0
  3
*D11
  1
*D11
  0
LINE
  5
255
330
252
100
AcDbEntity
  8
치수문자_일반주서
 62
     0
370
    -2
100
AcDbLine
 10
118.7724046535982
 20
11.52145291206001
 30
0.0
 11
118.7724046535982
 21
53.42369709597186
 31
0.0
  0
LINE
  5
256
330
252
100
AcDbEntity
  8
치수문자_일반주서
 62
     0
370
    -2
100
AcDbLine
 10
17.18500000000006
 20
12.81875000000002
 30
0.0
 11
17.18500000000006
 21
53.42369709597186
 31
0.0
  0
LINE
  5
257
330
252
100
AcDbEntity
  8
치수문자_일반주서
 62
     0
370
    -2
100
AcDbLine
 10
115.4704046535982
 20
53.42369709597186
 30
0.0
 11
20.48700000000006
 21
53.42369709597186
 31
0.0
  0
SOLID
  5
258
330
252
100
AcDbEntity
  8
치수문자_일반주서
 62
     0
100
AcDbTrace
 10
115.4704046535982
 20
52.87336376263853
 30
0.0
 11
115.4704046535982
 21
53.97403042930519
 31
0.0
 12
118.7724046535982
 22
53.42369709597186
 32
0.0
 13
118.7724046535982
 23
53.42369709597186
 33
0.0
  0
SOLID
  5
259
330
252
100
AcDbEntity
  8
치수문자_일반주서
 62
     0
100
AcDbTrace
 10
20.48700000000006
 20
53.97403042930519
 30
0.0
 11
20.48700000000006
 21
52.87336376263853
 31
0.0
 12
17.18500000000006
 22
53.42369709597186
 32
0.0
 13
17.18500000000006
 23
53.42369709597186
 33
0.0
  0
MTEXT
  5
25A
330
252
100
AcDbEntity
  8
치수문자_일반주서
 62
     0
100
AcDbMText
 10
66.91544771271477
 20
57.79869709597186
 30
0.0
 40
3.5
 41
0.0
 71
     2
 72
     1
  1
\A1;101.59 [4]
  7
SLDTEXTSTYLE0
 73
     1
 44
1.0
  0
POINT
  5
25B
330
252
100
AcDbEntity
  8
Defpoints
 62
     0
100
AcDbPoint
 10
118.7724046535982
 20
11.45895291206001
 30
0.0
  0
POINT
  5
25C
330
252
100
AcDbEntity
  8
Defpoints
 62
     0
100
AcDbPoint
 10
17.18500000000006
 20
12.75625000000002
 30
0.0
  0
POINT
  5
25D
330
252
100
AcDbEntity
  8
Defpoints
 62
     0
100
AcDbPoint
 10
17.18500000000006
 20
53.42369709597186
 30
0.0
  0
ENDBLK
  5
254
330
252
100
AcDbEntity
  8
0
100
AcDbBlockEnd
  0
BLOCK
  5
29C
330
29B
100
AcDbEntity
  8
0
100
AcDbBlockBegin
  2
*D12
 70
     1
 10
0.0
 20
0.0
 30
0.0
  3
*D12
  1
*D12
  0
LINE
  5
29E
330
29B
100
AcDbEntity
  8
치수문자_일반주서
 62
     0
370
    -2
100
AcDbLine
 10
51.04808840250686
 20
2.381250000000029
 30
0.0
 11
71.2497329736266
 21
2.381250000000104
 31
0.0
  0
LINE
  5
29F
330
29B
100
AcDbEntity
  8
치수문자_일반주서
 62
     0
370
    -2
100
AcDbLine
 10
51.04808840250686
 20
-2.38124999999997
 30
0.0
 11
71.24973297362662
 21
-2.381249999999895
 31
0.0
  0
LINE
  5
2A0
330
29B
100
AcDbEntity
  8
치수문자_일반주서
 62
     0
370
    -2
100
AcDbLine
 10
71.2497329736266
 20
2.381250000000104
 30
0.0
 11
71.24973297362651
 21
36.98525000000011
 31
0.0
  0
LINE
  5
2A1
330
29B
100
AcDbEntity
  8
치수문자_일반주서
 62
     0
370
    -2
100
AcDbLine
 10
71.24973297362662
 20
-0.9207499999998956
 30
0.0
 11
71.2497329736266
 21
0.9207500000001052
 31
0.0
  0
LINE
  5
2A2
330
29B
100
AcDbEntity
  8
치수문자_일반주서
 62
     0
370
    -2
100
AcDbLine
 10
71.24973297362662
 20
-0.9207499999998956
 30
0.0
 11
71.24973297362664
 21
-4.222749999999896
 31
0.0
  0
SOLID
  5
2A3
330
29B
100
AcDbEntity
  8
치수문자_일반주서
 62
     0
100
AcDbTrace
 10
71.80006630695995
 20
-0.9207499999998939
 30
0.0
 11
70.6993996402933
 21
-0.9207499999998973
 31
0.0
 12
71.2497329736266
 22
2.381250000000104
 32
0.0
 13
71.2497329736266
 23
2.381250000000104
 33
0.0
  0
SOLID
  5
2A4
330
29B
100
AcDbEntity
  8
치수문자_일반주서
 62
     0
100
AcDbTrace
 10
70.69939964029328
 20
0.9207500000001035
 30
0.0
 11
71.80006630695993
 21
0.9207500000001069
 31
0.0
 12
71.24973297362662
 22
-2.381249999999895
 32
0.0
 13
71.24973297362662
 23
-2.381249999999895
 33
0.0
  0
MTEXT
  5
2A5
330
29B
100
AcDbEntity
  8
치수문자_일반주서
 62
     0
100
AcDbMText
 10
66.87473297362655
 20
22.98525000000009
 30
0.0
 40
3.5
 41
0.0
 71
     2
 72
     1
  1
\A1;%%c4.76 [3/16]
  7
SLDTEXTSTYLE0
 11
-2.983906501879686E-15
 21
1.0
 31
0.0
 73
     1
 44
1.0
  0
POINT
  5
2A6
330
29B
100
AcDbEntity
  8
Defpoints
 62
     0
100
AcDbPoint
 10
50.98558840250686
 20
2.381250000000029
 30
0.0
  0
POINT
  5
2D9
330
29B
100
AcDbEntity
  8
Defpoints
 62
     0
100
AcDbPoint
 10
50.98558840250686
 20
-2.38124999999997
 30
0.0
  0
POINT
  5
2DA
330
29B
100
AcDbEntity
  8
Defpoints
 62
     0
100
AcDbPoint
 10
71.24973297362669
 20
-2.381249999999895
 30
0.0
  0
ENDBLK
  5
29D
330
29B
100
AcDbEntity
  8
0
100
AcDbBlockEnd
  0
BLOCK
  5
2A9
330
2A8
100
AcDbEntity
  8
0
100
AcDbBlockBegin
  2
*D13
 70
     1
 10
0.0
 20
0.0
 30
0.0
  3
*D13
  1
*D13
  0
LINE
  5
2AB
330
2A8
100
AcDbEntity
  8
치수문자_일반주서
 62
     0
370
    -2
100
AcDbLine
 10
-49.60181625109129
 20
2.381250000000004
 30
0.0
 11
-63.34931625109133
 21
2.381249999999952
 31
0.0
  0
LINE
  5
2AC
330
2A8
100
AcDbEntity
  8
치수문자_일반주서
 62
     0
370
    -2
100
AcDbLine
 10
-49.60181625109129
 20
-2.381249999999999
 30
0.0
 11
-63.34931625109132
 21
-2.381250000000051
 31
0.0
  0
LINE
  5
2AD
330
2A8
100
AcDbEntity
  8
치수문자_일반주서
 62
     0
370
    -2
100
AcDbLine
 10
-63.34931625109133
 20
2.381249999999952
 30
0.0
 11
-63.34931625109144
 21
36.98524999999995
 31
0.0
  0
LINE
  5
2AE
330
2A8
100
AcDbEntity
  8
치수문자_일반주서
 62
     0
370
    -2
100
AcDbLine
 10
-63.34931625109132
 20
-0.9207500000000484
 30
0.0
 11
-63.34931625109132
 21
0.9207499999999489
 31
0.0
  0
LINE
  5
2AF
330
2A8
100
AcDbEntity
  8
치수문자_일반주서
 62
     0
370
    -2
100
AcDbLine
 10
-63.34931625109132
 20
-0.9207500000000484
 30
0.0
 11
-63.34931625109132
 21
-4.222750000000048
 31
0.0
  0
SOLID
  5
2B0
330
2A8
100
AcDbEntity
  8
치수문자_일반주서
 62
     0
100
AcDbTrace
 10
-62.79898291775799
 20
-0.9207500000000467
 30
0.0
 11
-63.89964958442466
 21
-0.92075000000005
 31
0.0
 12
-63.34931625109133
 22
2.381249999999952
 32
0.0
 13
-63.34931625109133
 23
2.381249999999952
 33
0.0
  0
SOLID
  5
2B1
330
2A8
100
AcDbEntity
  8
치수문자_일반주서
 62
     0
100
AcDbTrace
 10
-63.89964958442466
 20
0.9207499999999472
 30
0.0
 11
-62.79898291775799
 21
0.9207499999999506
 31
0.0
 12
-63.34931625109132
 22
-2.381250000000051
 32
0.0
 13
-63.34931625109132
 23
-2.381250000000051
 33
0.0
  0
MTEXT
  5
2B2
330
2A8
100
AcDbEntity
  8
치수문자_일반주서
 62
     0
100
AcDbMText
 10
-67.7243162510914
 20
22.98524999999994
 30
0.0
 40
3.5
 41
0.0
 71
     2
 72
     1
  1
\A1;%%c4.76 [3/16]
  7
SLDTEXTSTYLE0
 11
-2.983906501879684E-15
 21
1.0
 31
0.0
 73
     1
 44
1.0
  0
POINT
  5
2B3
330
2A8
100
AcDbEntity
  8
Defpoints
 62
     0
100
AcDbPoint
 10
-49.53931625109129
 20
2.381250000000004
 30
0.0
  0
POINT
  5
2DB
330
2A8
100
AcDbEntity
  8
Defpoints
 62
     0
100
AcDbPoint
 10
-49.53931625109129
 20
-2.381249999999999
 30
0.0
  0
POINT
  5
2DC
330
2A8
100
AcDbEntity
  8
Defpoints
 62
     0
100
AcDbPoint
 10
-63.34931625109132
 20
-2.38125000000005
 30
0.0
  0
ENDBLK
  5
2AA
330
2A8
100
AcDbEntity
  8
0
100
AcDbBlockEnd
  0
BLOCK
  5
2B6
330
2B5
100
AcDbEntity
  8
0
100
AcDbBlockBegin
  2
*D14
 70
     1
 10
0.0
 20
0.0
 30
0.0
  3
*D14
  1
*D14
  0
LINE
  5
2B8
330
2B5
100
AcDbEntity
  8
치수문자_일반주서
 62
     0
370
    -2
100
AcDbLine
 10
51.04808840250686
 20
2.443750000000029
 30
0.0
 11
51.04808840250686
 21
24.04869709597148
 31
0.0
  0
LINE
  5
2B9
330
2B5
100
AcDbEntity
  8
치수문자_일반주서
 62
     0
370
    -2
100
AcDbLine
 10
22.48568374890868
 20
2.443750000000002
 30
0.0
 11
22.48568374890868
 21
24.04869709597148
 31
0.0
  0
LINE
  5
2BA
330
2B5
100
AcDbEntity
  8
치수문자_일반주서
 62
     0
370
    -2
100
AcDbLine
 10
47.74608840250686
 20
24.04869709597148
 30
0.0
 11
25.78768374890868
 21
24.04869709597148
 31
0.0
  0
SOLID
  5
2BB
330
2B5
100
AcDbEntity
  8
치수문자_일반주서
 62
     0
100
AcDbTrace
 10
47.74608840250686
 20
23.49836376263815
 30
0.0
 11
47.74608840250686
 21
24.59903042930482
 31
0.0
 12
51.04808840250686
 22
24.04869709597148
 32
0.0
 13
51.04808840250686
 23
24.04869709597148
 33
0.0
  0
SOLID
  5
2BC
330
2B5
100
AcDbEntity
  8
치수문자_일반주서
 62
     0
100
AcDbTrace
 10
25.78768374890868
 20
24.59903042930482
 30
0.0
 11
25.78768374890868
 21
23.49836376263815
 31
0.0
 12
22.48568374890868
 22
24.04869709597148
 32
0.0
 13
22.48568374890868
 23
24.04869709597148
 33
0.0
  0
MTEXT
  5
2BD
330
2B5
100
AcDbEntity
  8
치수문자_일반주서
 62
     0
100
AcDbMText
 10
38.82797027055474
 20
28.42369709597148
 30
0.0
 40
3.5
 41
0.0
 71
     2
 72
     1
  1
\A1;28.56 [1 1/8]
  7
SLDTEXTSTYLE0
 73
     1
 44
1.0
  0
POINT
  5
2BE
330
2B5
100
AcDbEntity
  8
Defpoints
 62
     0
100
AcDbPoint
 10
51.04808840250686
 20
2.381250000000029
 30
0.0
  0
POINT
  5
2BF
330
2B5
100
AcDbEntity
  8
Defpoints
 62
     0
100
AcDbPoint
 10
22.48568374890868
 20
2.381250000000002
 30
0.0
  0
POINT
  5
2C0
330
2B5
100
AcDbEntity
  8
Defpoints
 62
     0
100
AcDbPoint
 10
22.48568374890868
 20
24.04869709597148
 30
0.0
  0
ENDBLK
  5
2B7
330
2B5
100
AcDbEntity
  8
0
100
AcDbBlockEnd
  0
BLOCK
  5
2C2
330
2C1
100
AcDbEntity
  8
0
100
AcDbBlockBegin
  2
*D15
 70
     1
 10
0.0
 20
0.0
 30
0.0
  3
*D15
  1
*D15
  0
LINE
  5
2C4
330
2C1
100
AcDbEntity
  8
치수문자_일반주서
 62
     0
370
    -2
100
AcDbLine
 10
51.04808840250686
 20
2.443750000000029
 30
0.0
 11
51.04808840250686
 21
46.98122308546625
 31
0.0
  0
LINE
  5
2C5
330
2C1
100
AcDbEntity
  8
치수문자_일반주서
 62
     0
370
    -2
100
AcDbLine
 10
-50.53931625109132
 20
1.443749999999995
 30
0.0
 11
-50.53931625109132
 21
46.98122308546625
 31
0.0
  0
LINE
  5
2C6
330
2C1
100
AcDbEntity
  8
치수문자_일반주서
 62
     0
370
    -2
100
AcDbLine
 10
47.74608840250686
 20
46.98122308546625
 30
0.0
 11
-47.23731625109132
 21
46.98122308546625
 31
0.0
  0
SOLID
  5
2C7
330
2C1
100
AcDbEntity
  8
치수문자_일반주서
 62
     0
100
AcDbTrace
 10
47.74608840250686
 20
46.43088975213291
 30
0.0
 11
47.74608840250686
 21
47.53155641879958
 31
0.0
 12
51.04808840250686
 22
46.98122308546625
 32
0.0
 13
51.04808840250686
 23
46.98122308546625
 33
0.0
  0
SOLID
  5
2C8
330
2C1
100
AcDbEntity
  8
치수문자_일반주서
 62
     0
100
AcDbTrace
 10
-47.23731625109132
 20
47.53155641879958
 30
0.0
 11
-47.23731625109132
 21
46.43088975213291
 31
0.0
 12
-50.53931625109132
 22
46.98122308546625
 32
0.0
 13
-50.53931625109132
 23
46.98122308546625
 33
0.0
  0
MTEXT
  5
2C9
330
2C1
100
AcDbEntity
  8
치수문자_일반주서
 62
     0
100
AcDbMText
 10
-1.470213597750387
 20
51.35622308546625
 30
0.0
 40
3.5
 41
0.0
 71
     2
 72
     1
  1
\A1;101.59 [4]
  7
SLDTEXTSTYLE0
 73
     1
 44
1.0
  0
POINT
  5
2CA
330
2C1
100
AcDbEntity
  8
Defpoints
 62
     0
100
AcDbPoint
 10
51.04808840250686
 20
2.381250000000029
 30
0.0
  0
POINT
  5
2CB
330
2C1
100
AcDbEntity
  8
Defpoints
 62
     0
100
AcDbPoint
 10
-50.53931625109132
 20
1.381249999999995
 30
0.0
  0
POINT
  5
2CC
330
2C1
100
AcDbEntity
  8
Defpoints
 62
     0
100
AcDbPoint
 10
-50.53931625109132
 20
46.98122308546625
 30
0.0
  0
ENDBLK
  5
2C3
330
2C1
100
AcDbEntity
  8
0
100
AcDbBlockEnd
  0
BLOCK
  5
2CE
330
2CD
100
AcDbEntity
  8
0
100
AcDbBlockBegin
  2
*D16
 70
     1
 10
0.0
 20
0.0
 30
0.0
  3
*D16
  1
*D16
  0
LINE
  5
2D0
330
2CD
100
AcDbEntity
  8
치수문자_일반주서
 62
     0
370
    -2
100
AcDbLine
 10
51.04808840250686
 20
2.443750000000029
 30
0.0
 11
51.04808840250686
 21
36.04869709597181
 31
0.0
  0
LINE
  5
2D1
330
2CD
100
AcDbEntity
  8
치수문자_일반주서
 62
     0
370
    -2
100
AcDbLine
 10
0.2606837489086899
 20
2.373900000000003
 30
0.0
 11
0.2606837489086899
 21
36.04869709597181
 31
0.0
  0
LINE
  5
2D2
330
2CD
100
AcDbEntity
  8
치수문자_일반주서
 62
     0
370
    -2
100
AcDbLine
 10
47.74608840250686
 20
36.04869709597181
 30
0.0
 11
3.56268374890869
 21
36.04869709597181
 31
0.0
  0
SOLID
  5
2D3
330
2CD
100
AcDbEntity
  8
치수문자_일반주서
 62
     0
100
AcDbTrace
 10
47.74608840250686
 20
35.49836376263848
 30
0.0
 11
47.74608840250686
 21
36.59903042930515
 31
0.0
 12
51.04808840250686
 22
36.04869709597181
 32
0.0
 13
51.04808840250686
 23
36.04869709597181
 33
0.0
  0
SOLID
  5
2D4
330
2CD
100
AcDbEntity
  8
치수문자_일반주서
 62
     0
100
AcDbTrace
 10
3.56268374890869
 20
36.59903042930515
 30
0.0
 11
3.56268374890869
 21
35.49836376263848
 31
0.0
 12
0.2606837489086899
 22
36.04869709597181
 32
0.0
 13
0.2606837489086899
 23
36.04869709597181
 33
0.0
  0
MTEXT
  5
2D5
330
2CD
100
AcDbEntity
  8
치수문자_일반주서
 62
     0
100
AcDbMText
 10
25.65438607570778
 20
40.42369709597181
 30
0.0
 40
3.5
 41
0.0
 71
     2
 72
     1
  1
\A1;50.79 [2]
  7
SLDTEXTSTYLE0
 73
     1
 44
1.0
  0
POINT
  5
2D6
330
2CD
100
AcDbEntity
  8
Defpoints
 62
     0
100
AcDbPoint
 10
51.04808840250686
 20
2.381250000000029
 30
0.0
  0
POINT
  5
2D7
330
2CD
100
AcDbEntity
  8
Defpoints
 62
     0
100
AcDbPoint
 10
0.2606837489086899
 20
2.311400000000003
 30
0.0
  0
POINT
  5
2D8
330
2CD
100
AcDbEntity
  8
Defpoints
 62
     0
100
AcDbPoint
 10
0.2606837489086899
 20
36.04869709597181
 30
0.0
  0
ENDBLK
  5
2CF
330
2CD
100
AcDbEntity
  8
0
100
AcDbBlockEnd
  0
BLOCK
  5
3EC
330
3EB
100
AcDbEntity
  8
0
100
AcDbBlockBegin
  2
*D17
 70
     1
 10
0.0
 20
0.0
 30
0.0
  3
*D17
  1
*D17
  0
LINE
  5
3EE
330
3EB
100
AcDbEntity
  8
치수문자_일반주서
 62
     0
370
    -2
100
AcDbLine
 10
111.6005715097399
 20
13.75625000000002
 30
0.0
 11
123.3942867360312
 21
13.75625000000007
 31
0.0
  0
LINE
  5
3EF
330
3EB
100
AcDbEntity
  8
치수문자_일반주서
 62
     0
370
    -2
100
AcDbLine
 10
111.6005715097399
 20
8.993750000000023
 30
0.0
 11
123.3942867360312
 21
8.993750000000068
 31
0.0
  0
LINE
  5
3F0
330
3EB
100
AcDbEntity
  8
치수문자_일반주서
 62
     0
370
    -2
100
AcDbLine
 10
123.3942867360312
 20
17.05825000000007
 30
0.0
 11
123.3942867360312
 21
20.36025000000007
 31
0.0
  0
LINE
  5
3F1
330
3EB
100
AcDbEntity
  8
치수문자_일반주서
 62
     0
370
    -2
100
AcDbLine
 10
123.3942867360312
 20
5.691750000000068
 30
0.0
 11
123.3942867360313
 21
2.389750000000068
 31
0.0
  0
SOLID
  5
3F2
330
3EB
100
AcDbEntity
  8
치수문자_일반주서
 62
     0
100
AcDbTrace
 10
122.8439534026979
 20
17.05825000000007
 30
0.0
 11
123.9446200693645
 21
17.05825000000007
 31
0.0
 12
123.3942867360312
 22
13.75625000000007
 32
0.0
 13
123.3942867360312
 23
13.75625000000007
 33
0.0
  0
SOLID
  5
3F3
330
3EB
100
AcDbEntity
  8
치수문자_일반주서
 62
     0
100
AcDbTrace
 10
123.9446200693646
 20
5.69175000000007
 30
0.0
 11
122.8439534026979
 21
5.691750000000066
 31
0.0
 12
123.3942867360312
 22
8.993750000000068
 32
0.0
 13
123.3942867360312
 23
8.993750000000068
 33
0.0
  0
MTEXT
  5
3F4
330
3EB
100
AcDbEntity
  8
치수문자_일반주서
 62
     0
100
AcDbMText
 10
119.0192867360312
 20
11.37500000000001
 30
0.0
 40
3.5
 41
0.0
 71
     2
 72
     1
  1
\A1;%%c4.76 [1/4]
  7
SLDTEXTSTYLE0
 11
-2.983906501879686E-15
 21
1.0
 31
0.0
 73
     1
 44
1.0
  0
POINT
  5
3F5
330
3EB
100
AcDbEntity
  8
Defpoints
 62
     0
100
AcDbPoint
 10
111.5380715097399
 20
13.75625000000002
 30
0.0
  0
POINT
  5
3F6
330
3EB
100
AcDbEntity
  8
Defpoints
 62
     0
100
AcDbPoint
 10
111.5380715097399
 20
8.993750000000023
 30
0.0
  0
POINT
  5
3F7
330
3EB
100
AcDbEntity
  8
Defpoints
 62
     0
100
AcDbPoint
 10
123.3942867360312
 20
8.993750000000068
 30
0.0
  0
ENDBLK
  5
3ED
330
3EB
100
AcDbEntity
  8
0
100
AcDbBlockEnd
  0
BLOCK
  5
3F9
330
3F8
100
AcDbEntity
  8
0
100
AcDbBlockBegin
  2
*D18
 70
     1
 10
0.0
 20
0.0
 30
0.0
  3
*D18
  1
*D18
  0
LINE
  5
3FB
330
3F8
100
AcDbEntity
  8
치수문자_일반주서
 62
     0
370
    -2
100
AcDbLine
 10
18.12250000000007
 20
13.75625000000002
 30
0.0
 11
4.37500000000002
 21
13.75624999999997
 31
0.0
  0
LINE
  5
3FC
330
3F8
100
AcDbEntity
  8
치수문자_일반주서
 62
     0
370
    -2
100
AcDbLine
 10
18.12250000000007
 20
8.993750000000022
 30
0.0
 11
4.375000000000037
 21
8.99374999999997
 31
0.0
  0
LINE
  5
3FD
330
3F8
100
AcDbEntity
  8
치수문자_일반주서
 62
     0
370
    -2
100
AcDbLine
 10
4.375000000000009
 20
17.05824999999997
 30
0.0
 11
4.374999999999997
 21
20.36024999999997
 31
0.0
  0
LINE
  5
3FE
330
3F8
100
AcDbEntity
  8
치수문자_일반주서
 62
     0
370
    -2
100
AcDbLine
 10
4.375000000000049
 20
5.691749999999971
 30
0.0
 11
4.37500000000006
 21
2.389749999999971
 31
0.0
  0
SOLID
  5
3FF
330
3F8
100
AcDbEntity
  8
치수문자_일반주서
 62
     0
100
AcDbTrace
 10
3.824666666666675
 20
17.05824999999997
 30
0.0
 11
4.925333333333342
 21
17.05824999999998
 31
0.0
 12
4.37500000000002
 22
13.75624999999997
 32
0.0
 13
4.37500000000002
 23
13.75624999999997
 33
0.0
  0
SOLID
  5
400
330
3F8
100
AcDbEntity
  8
치수문자_일반주서
 62
     0
100
AcDbTrace
 10
4.925333333333382
 20
5.691749999999972
 30
0.0
 11
3.824666666666715
 21
5.691749999999969
 31
0.0
 12
4.375000000000037
 22
8.99374999999997
 32
0.0
 13
4.375000000000037
 23
8.99374999999997
 33
0.0
  0
MTEXT
  5
401
330
3F8
100
AcDbEntity
  8
치수문자_일반주서
 62
     0
100
AcDbMText
 10
0.0000000000000284
 20
11.37500000000001
 30
0.0
 40
3.5
 41
0.0
 71
     2
 72
     1
  1
\A1;%%c4.76 [1/4]
  7
SLDTEXTSTYLE0
 11
-3.543388970982125E-15
 21
1.0
 31
0.0
 73
     1
 44
1.0
  0
POINT
  5
402
330
3F8
100
AcDbEntity
  8
Defpoints
 62
     0
100
AcDbPoint
 10
18.18500000000007
 20
13.75625000000002
 30
0.0
  0
POINT
  5
403
330
3F8
100
AcDbEntity
  8
Defpoints
 62
     0
100
AcDbPoint
 10
18.18500000000007
 20
8.993750000000022
 30
0.0
  0
POINT
  5
404
330
3F8
100
AcDbEntity
  8
Defpoints
 62
     0
100
AcDbPoint
 10
4.375000000000036
 20
8.99374999999997
 30
0.0
  0
ENDBLK
  5
3FA
330
3F8
100
AcDbEntity
  8
0
100
AcDbBlockEnd
  0
BLOCK
  5
406
330
405
100
AcDbEntity
  8
0
100
AcDbBlockBegin
  2
*D19
 70
     1
 10
0.0
 20
0.0
 30
0.0
  3
*D19
  1
*D19
  0
LINE
  5
408
330
405
100
AcDbEntity
  8
치수문자_일반주서
 62
     0
370
    -2
100
AcDbLine
 10
118.7724046535982
 20
11.52145291206001
 30
0.0
 11
118.7724046535982
 21
35.42369709597151
 31
0.0
  0
LINE
  5
409
330
405
100
AcDbEntity
  8
치수문자_일반주서
 62
     0
370
    -2
100
AcDbLine
 10
90.21000000000005
 20
13.81875000000002
 30
0.0
 11
90.21000000000005
 21
35.42369709597151
 31
0.0
  0
LINE
  5
40A
330
405
100
AcDbEntity
  8
치수문자_일반주서
 62
     0
370
    -2
100
AcDbLine
 10
115.4704046535982
 20
35.42369709597151
 30
0.0
 11
93.51200000000006
 21
35.42369709597151
 31
0.0
  0
SOLID
  5
40B
330
405
100
AcDbEntity
  8
치수문자_일반주서
 62
     0
100
AcDbTrace
 10
115.4704046535982
 20
34.87336376263817
 30
0.0
 11
115.4704046535982
 21
35.97403042930484
 31
0.0
 12
118.7724046535982
 22
35.42369709597151
 32
0.0
 13
118.7724046535982
 23
35.42369709597151
 33
0.0
  0
SOLID
  5
40C
330
405
100
AcDbEntity
  8
치수문자_일반주서
 62
     0
100
AcDbTrace
 10
93.51200000000006
 20
35.97403042930484
 30
0.0
 11
93.51200000000006
 21
34.87336376263817
 31
0.0
 12
90.21000000000005
 22
35.42369709597151
 32
0.0
 13
90.21000000000005
 23
35.42369709597151
 33
0.0
  0
MTEXT
  5
40D
330
405
100
AcDbEntity
  8
치수문자_일반주서
 62
     0
100
AcDbMText
 10
106.5522865216461
 20
39.79869709597151
 30
0.0
 40
3.5
 41
0.0
 71
     2
 72
     1
  1
\A1;28.56 [1]
  7
SLDTEXTSTYLE0
 73
     1
 44
1.0
  0
POINT
  5
40E
330
405
100
AcDbEntity
  8
Defpoints
 62
     0
100
AcDbPoint
 10
118.7724046535982
 20
11.45895291206001
 30
0.0
  0
POINT
  5
40F
330
405
100
AcDbEntity
  8
Defpoints
 62
     0
100
AcDbPoint
 10
90.21000000000005
 20
13.75625000000002
 30
0.0
  0
POINT
  5
410
330
405
100
AcDbEntity
  8
Defpoints
 62
     0
100
AcDbPoint
 10
90.21000000000005
 20
35.42369709597151
 30
0.0
  0
ENDBLK
  5
407
330
405
100
AcDbEntity
  8
0
100
AcDbBlockEnd
  0
BLOCK
  5
412
330
411
100
AcDbEntity
  8
0
100
AcDbBlockBegin
  2
*D20
 70
     1
 10
0.0
 20
0.0
 30
0.0
  3
*D20
  1
*D20
  0
LINE
  5
414
330
411
100
AcDbEntity
  8
치수문자_일반주서
 62
     0
370
    -2
100
AcDbLine
 10
118.7724046535982
 20
11.52145291206001
 30
0.0
 11
118.7724046535982
 21
53.42369709597186
 31
0.0
  0
LINE
  5
415
330
411
100
AcDbEntity
  8
치수문자_일반주서
 62
     0
370
    -2
100
AcDbLine
 10
17.18500000000006
 20
12.81875000000002
 30
0.0
 11
17.18500000000006
 21
53.42369709597186
 31
0.0
  0
LINE
  5
416
330
411
100
AcDbEntity
  8
치수문자_일반주서
 62
     0
370
    -2
100
AcDbLine
 10
115.4704046535982
 20
53.42369709597186
 30
0.0
 11
20.48700000000006
 21
53.42369709597186
 31
0.0
  0
SOLID
  5
417
330
411
100
AcDbEntity
  8
치수문자_일반주서
 62
     0
100
AcDbTrace
 10
115.4704046535982
 20
52.87336376263853
 30
0.0
 11
115.4704046535982
 21
53.97403042930519
 31
0.0
 12
118.7724046535982
 22
53.42369709597186
 32
0.0
 13
118.7724046535982
 23
53.42369709597186
 33
0.0
  0
SOLID
  5
418
330
411
100
AcDbEntity
  8
치수문자_일반주서
 62
     0
100
AcDbTrace
 10
20.48700000000006
 20
53.97403042930519
 30
0.0
 11
20.48700000000006
 21
52.87336376263853
 31
0.0
 12
17.18500000000006
 22
53.42369709597186
 32
0.0
 13
17.18500000000006
 23
53.42369709597186
 33
0.0
  0
MTEXT
  5
419
330
411
100
AcDbEntity
  8
치수문자_일반주서
 62
     0
100
AcDbMText
 10
66.91544771271477
 20
57.79869709597186
 30
0.0
 40
3.5
 41
0.0
 71
     2
 72
     1
  1
\A1;101.59 [4]
  7
SLDTEXTSTYLE0
 73
     1
 44
1.0
  0
POINT
  5
41A
330
411
100
AcDbEntity
  8
Defpoints
 62
     0
100
AcDbPoint
 10
118.7724046535982
 20
11.45895291206001
 30
0.0
  0
POINT
  5
41B
330
411
100
AcDbEntity
  8
Defpoints
 62
     0
100
AcDbPoint
 10
17.18500000000006
 20
12.75625000000002
 30
0.0
  0
POINT
  5
41C
330
411
100
AcDbEntity
  8
Defpoints
 62
     0
100
AcDbPoint
 10
17.18500000000006
 20
53.42369709597186
 30
0.0
  0
ENDBLK
  5
413
330
411
100
AcDbEntity
  8
0
100
AcDbBlockEnd
  0
BLOCK
  5
41E
330
41D
100
AcDbEntity
  8
0
100
AcDbBlockBegin
  2
*D21
 70
     1
 10
0.0
 20
0.0
 30
0.0
  3
*D21
  1
*D21
  0
LINE
  5
420
330
41D
100
AcDbEntity
  8
치수문자_일반주서
 62
     0
370
    -2
100
AcDbLine
 10
118.7724046535982
 20
11.52145291206001
 30
0.0
 11
118.7724046535982
 21
47.42369709597183
 31
0.0
  0
LINE
  5
421
330
41D
100
AcDbEntity
  8
치수문자_일반주서
 62
     0
370
    -2
100
AcDbLine
 10
67.98500000000006
 20
13.74890000000002
 30
0.0
 11
67.98500000000006
 21
47.42369709597183
 31
0.0
  0
LINE
  5
422
330
41D
100
AcDbEntity
  8
치수문자_일반주서
 62
     0
370
    -2
100
AcDbLine
 10
115.4704046535982
 20
47.42369709597183
 30
0.0
 11
71.28700000000006
 21
47.42369709597183
 31
0.0
  0
SOLID
  5
423
330
41D
100
AcDbEntity
  8
치수문자_일반주서
 62
     0
100
AcDbTrace
 10
115.4704046535982
 20
46.8733637626385
 30
0.0
 11
115.4704046535982
 21
47.97403042930517
 31
0.0
 12
118.7724046535982
 22
47.42369709597183
 32
0.0
 13
118.7724046535982
 23
47.42369709597183
 33
0.0
  0
SOLID
  5
424
330
41D
100
AcDbEntity
  8
치수문자_일반주서
 62
     0
100
AcDbTrace
 10
71.28700000000006
 20
47.97403042930517
 30
0.0
 11
71.28700000000006
 21
46.8733637626385
 31
0.0
 12
67.98500000000006
 22
47.42369709597183
 32
0.0
 13
67.98500000000006
 23
47.42369709597183
 33
0.0
  0
MTEXT
  5
425
330
41D
100
AcDbEntity
  8
치수문자_일반주서
 62
     0
100
AcDbMText
 10
93.37870232679913
 20
51.79869709597183
 30
0.0
 40
3.5
 41
0.0
 71
     2
 72
     1
  1
\A1;50.79 [2]
  7
SLDTEXTSTYLE0
 73
     1
 44
1.0
  0
POINT
  5
426
330
41D
100
AcDbEntity
  8
Defpoints
 62
     0
100
AcDbPoint
 10
118.7724046535982
 20
11.45895291206001
 30
0.0
  0
POINT
  5
427
330
41D
100
AcDbEntity
  8
Defpoints
 62
     0
100
AcDbPoint
 10
67.98500000000006
 20
13.68640000000002
 30
0.0
  0
POINT
  5
428
330
41D
100
AcDbEntity
  8
Defpoints
 62
     0
100
AcDbPoint
 10
67.98500000000006
 20
47.42369709597183
 30
0.0
  0
ENDBLK
  5
41F
330
41D
100
AcDbEntity
  8
0
100
AcDbBlockEnd
  0
BLOCK
  5
467
330
466
100
AcDbEntity
  8
0
100
AcDbBlockBegin
  2
*D22
 70
     1
 10
0.0
 20
0.0
 30
0.0
  3
*D22
  1
*D22
  0
LINE
  5
469
330
466
100
AcDbEntity
  8
치수문자_일반주서
 62
     0
370
    -2
100
AcDbLine
 10
51.04808840250685
 20
2.381250000000023
 30
0.0
 11
62.84180362879815
 21
2.381250000000065
 31
0.0
  0
LINE
  5
46A
330
466
100
AcDbEntity
  8
치수문자_일반주서
 62
     0
370
    -2
100
AcDbLine
 10
51.04808840250685
 20
-2.381249999999965
 30
0.0
 11
62.84180362879817
 21
-2.381249999999923
 31
0.0
  0
LINE
  5
46B
330
466
100
AcDbEntity
  8
치수문자_일반주서
 62
     0
370
    -2
100
AcDbLine
 10
62.84180362879815
 20
2.381250000000065
 30
0.0
 11
62.84180362879805
 21
36.98525000000006
 31
0.0
  0
LINE
  5
46C
330
466
100
AcDbEntity
  8
치수문자_일반주서
 62
     0
370
    -2
100
AcDbLine
 10
62.84180362879815
 20
2.381250000000065
 30
0.0
 11
62.84180362879817
 21
-2.381249999999923
 31
0.0
  0
LINE
  5
46D
330
466
100
AcDbEntity
  8
치수문자_일반주서
 62
     0
370
    -2
100
AcDbLine
 10
62.84180362879815
 20
5.683250000000065
 30
0.0
 11
62.84180362879814
 21
8.985250000000065
 31
0.0
  0
LINE
  5
46E
330
466
100
AcDbEntity
  8
치수문자_일반주서
 62
     0
370
    -2
100
AcDbLine
 10
62.84180362879817
 20
-5.683249999999923
 30
0.0
 11
62.84180362879818
 21
-8.985249999999922
 31
0.0
  0
SOLID
  5
46F
330
466
100
AcDbEntity
  8
치수문자_일반주서
 62
     0
100
AcDbTrace
 10
62.29147029546481
 20
5.683250000000063
 30
0.0
 11
63.39213696213148
 21
5.683250000000067
 31
0.0
 12
62.84180362879815
 22
2.381250000000065
 32
0.0
 13
62.84180362879815
 23
2.381250000000065
 33
0.0
  0
SOLID
  5
470
330
466
100
AcDbEntity
  8
치수문자_일반주서
 62
     0
100
AcDbTrace
 10
63.39213696213151
 20
-5.683249999999921
 30
0.0
 11
62.29147029546484
 21
-5.683249999999925
 31
0.0
 12
62.84180362879817
 22
-2.381249999999923
 32
0.0
 13
62.84180362879817
 23
-2.381249999999923
 33
0.0
  0
MTEXT
  5
471
330
466
100
AcDbEntity
  8
치수문자_일반주서
 62
     0
100
AcDbMText
 10
58.46680362879809
 20
22.98525000000005
 30
0.0
 40
3.5
 41
0.0
 71
     2
 72
     1
  1
\A1;%%c4.76 [3/16]
  7
SLDTEXTSTYLE0
 11
-2.983906501879693E-15
 21
1.0
 31
0.0
 73
     1
 44
1.0
  0
POINT
  5
4F8
330
466
100
AcDbEntity
  8
Defpoints
 62
     0
100
AcDbPoint
 10
50.98558840250685
 20
2.381250000000023
 30
0.0
  0
POINT
  5
4F9
330
466
100
AcDbEntity
  8
Defpoints
 62
     0
100
AcDbPoint
 10
50.98558840250685
 20
-2.381249999999966
 30
0.0
  0
POINT
  5
4FA
330
466
100
AcDbEntity
  8
Defpoints
 62
     0
100
AcDbPoint
 10
62.84180362879817
 20
-2.381249999999921
 30
0.0
  0
ENDBLK
  5
468
330
466
100
AcDbEntity
  8
0
100
AcDbBlockEnd
  0
BLOCK
  5
474
330
473
100
AcDbEntity
  8
0
100
AcDbBlockBegin
  2
*D23
 70
     1
 10
0.0
 20
0.0
 30
0.0
  3
*D23
  1
*D23
  0
LINE
  5
476
330
473
100
AcDbEntity
  8
치수문자_일반주서
 62
     0
370
    -2
100
AcDbLine
 10
-49.60181625109129
 20
2.381250000000022
 30
0.0
 11
-63.34931625109132
 21
2.381249999999969
 31
0.0
  0
LINE
  5
477
330
473
100
AcDbEntity
  8
치수문자_일반주서
 62
     0
370
    -2
100
AcDbLine
 10
-49.60181625109129
 20
-2.381249999999966
 30
0.0
 11
-63.3493162510913
 21
-2.381250000000019
 31
0.0
  0
LINE
  5
478
330
473
100
AcDbEntity
  8
치수문자_일반주서
 62
     0
370
    -2
100
AcDbLine
 10
-63.34931625109132
 20
2.381249999999969
 30
0.0
 11
-63.34931625109142
 21
36.98524999999997
 31
0.0
  0
LINE
  5
479
330
473
100
AcDbEntity
  8
치수문자_일반주서
 62
     0
370
    -2
100
AcDbLine
 10
-63.34931625109132
 20
2.381249999999969
 30
0.0
 11
-63.3493162510913
 21
-2.381250000000019
 31
0.0
  0
LINE
  5
47A
330
473
100
AcDbEntity
  8
치수문자_일반주서
 62
     0
370
    -2
100
AcDbLine
 10
-63.34931625109132
 20
5.683249999999969
 30
0.0
 11
-63.34931625109133
 21
8.985249999999969
 31
0.0
  0
LINE
  5
47B
330
473
100
AcDbEntity
  8
치수문자_일반주서
 62
     0
370
    -2
100
AcDbLine
 10
-63.3493162510913
 20
-5.683250000000019
 30
0.0
 11
-63.34931625109129
 21
-8.985250000000018
 31
0.0
  0
SOLID
  5
47C
330
473
100
AcDbEntity
  8
치수문자_일반주서
 62
     0
100
AcDbTrace
 10
-63.89964958442466
 20
5.683249999999967
 30
0.0
 11
-62.79898291775799
 21
5.683249999999971
 31
0.0
 12
-63.34931625109132
 22
2.381249999999969
 32
0.0
 13
-63.34931625109132
 23
2.381249999999969
 33
0.0
  0
SOLID
  5
47D
330
473
100
AcDbEntity
  8
치수문자_일반주서
 62
     0
100
AcDbTrace
 10
-62.79898291775796
 20
-5.683250000000017
 30
0.0
 11
-63.89964958442463
 21
-5.683250000000021
 31
0.0
 12
-63.3493162510913
 22
-2.381250000000019
 32
0.0
 13
-63.3493162510913
 23
-2.381250000000019
 33
0.0
  0
MTEXT
  5
47E
330
473
100
AcDbEntity
  8
치수문자_일반주서
 62
     0
100
AcDbMText
 10
-67.72431625109138
 20
22.98524999999995
 30
0.0
 40
3.5
 41
0.0
 71
     2
 72
     1
  1
\A1;%%c4.76 [3/16]
  7
SLDTEXTSTYLE0
 11
-2.983906501879693E-15
 21
1.0
 31
0.0
 73
     1
 44
1.0
  0
POINT
  5
4F4
330
473
100
AcDbEntity
  8
Defpoints
 62
     0
100
AcDbPoint
 10
-49.53931625109129
 20
2.381250000000023
 30
0.0
  0
POINT
  5
4F5
330
473
100
AcDbEntity
  8
Defpoints
 62
     0
100
AcDbPoint
 10
-49.53931625109129
 20
-2.381249999999966
 30
0.0
  0
POINT
  5
4F6
330
473
100
AcDbEntity
  8
Defpoints
 62
     0
100
AcDbPoint
 10
-63.34931625109131
 20
-2.381250000000017
 30
0.0
  0
ENDBLK
  5
475
330
473
100
AcDbEntity
  8
0
100
AcDbBlockEnd
  0
BLOCK
  5
481
330
480
100
AcDbEntity
  8
0
100
AcDbBlockBegin
  2
*D24
 70
     1
 10
0.0
 20
0.0
 30
0.0
  3
*D24
  1
*D24
  0
LINE
  5
483
330
480
100
AcDbEntity
  8
치수문자_일반주서
 62
     0
370
    -2
100
AcDbLine
 10
51.06068374890869
 20
2.443750000000023
 30
0.0
 11
51.06068374890869
 21
24.04869709597151
 31
0.0
  0
LINE
  5
484
330
480
100
AcDbEntity
  8
치수문자_일반주서
 62
     0
370
    -2
100
AcDbLine
 10
22.48568374890868
 20
2.443750000000023
 30
0.0
 11
22.48568374890868
 21
24.04869709597151
 31
0.0
  0
LINE
  5
485
330
480
100
AcDbEntity
  8
치수문자_일반주서
 62
     0
370
    -2
100
AcDbLine
 10
47.75868374890869
 20
24.04869709597151
 30
0.0
 11
25.78768374890868
 21
24.04869709597151
 31
0.0
  0
SOLID
  5
486
330
480
100
AcDbEntity
  8
치수문자_일반주서
 62
     0
100
AcDbTrace
 10
47.75868374890869
 20
23.49836376263817
 30
0.0
 11
47.75868374890869
 21
24.59903042930484
 31
0.0
 12
51.06068374890869
 22
24.04869709597151
 32
0.0
 13
51.06068374890869
 23
24.04869709597151
 33
0.0
  0
SOLID
  5
487
330
480
100
AcDbEntity
  8
치수문자_일반주서
 62
     0
100
AcDbTrace
 10
25.78768374890868
 20
24.59903042930484
 30
0.0
 11
25.78768374890868
 21
23.49836376263817
 31
0.0
 12
22.48568374890868
 22
24.04869709597151
 32
0.0
 13
22.48568374890868
 23
24.04869709597151
 33
0.0
  0
MTEXT
  5
488
330
480
100
AcDbEntity
  8
치수문자_일반주서
 62
     0
100
AcDbMText
 10
38.82797027055476
 20
28.42369709597151
 30
0.0
 40
3.5
 41
0.0
 71
     2
 72
     1
  1
\A1;28.58 [1 1/8]
  7
SLDTEXTSTYLE0
 73
     1
 44
1.0
  0
POINT
  5
489
330
480
100
AcDbEntity
  8
Defpoints
 62
     0
100
AcDbPoint
 10
51.06068374890869
 20
2.381250000000023
 30
0.0
  0
POINT
  5
48A
330
480
100
AcDbEntity
  8
Defpoints
 62
     0
100
AcDbPoint
 10
22.48568374890868
 20
2.381250000000023
 30
0.0
  0
POINT
  5
48B
330
480
100
AcDbEntity
  8
Defpoints
 62
     0
100
AcDbPoint
 10
22.48568374890868
 20
24.04869709597151
 30
0.0
  0
ENDBLK
  5
482
330
480
100
AcDbEntity
  8
0
100
AcDbBlockEnd
  0
BLOCK
  5
48D
330
48C
100
AcDbEntity
  8
0
100
AcDbBlockBegin
  2
*D25
 70
     1
 10
0.0
 20
0.0
 30
0.0
  3
*D25
  1
*D25
  0
LINE
  5
48F
330
48C
100
AcDbEntity
  8
치수문자_일반주서
 62
     0
370
    -2
100
AcDbLine
 10
51.06068374890869
 20
2.443750000000023
 30
0.0
 11
51.06068374890869
 21
45.74901198635113
 31
0.0
  0
LINE
  5
490
330
48C
100
AcDbEntity
  8
치수문자_일반주서
 62
     0
370
    -2
100
AcDbLine
 10
-50.53931625109131
 20
1.443750000000023
 30
0.0
 11
-50.53931625109131
 21
45.74901198635113
 31
0.0
  0
LINE
  5
491
330
48C
100
AcDbEntity
  8
치수문자_일반주서
 62
     0
370
    -2
100
AcDbLine
 10
47.75868374890869
 20
45.74901198635113
 30
0.0
 11
-47.23731625109131
 21
45.74901198635113
 31
0.0
  0
SOLID
  5
492
330
48C
100
AcDbEntity
  8
치수문자_일반주서
 62
     0
100
AcDbTrace
 10
47.75868374890869
 20
45.19867865301779
 30
0.0
 11
47.75868374890869
 21
46.29934531968446
 31
0.0
 12
51.06068374890869
 22
45.74901198635113
 32
0.0
 13
51.06068374890869
 23
45.74901198635113
 33
0.0
  0
SOLID
  5
493
330
48C
100
AcDbEntity
  8
치수문자_일반주서
 62
     0
100
AcDbTrace
 10
-47.23731625109131
 20
46.29934531968446
 30
0.0
 11
-47.23731625109131
 21
45.19867865301779
 31
0.0
 12
-50.53931625109131
 22
45.74901198635113
 32
0.0
 13
-50.53931625109131
 23
45.74901198635113
 33
0.0
  0
MTEXT
  5
494
330
48C
100
AcDbEntity
  8
치수문자_일반주서
 62
     0
100
AcDbMText
 10
-0.8088685383766006
 20
50.12401198635113
 30
0.0
 40
3.5
 41
0.0
 71
     2
 72
     1
  1
\A1;101.6 [4]
  7
SLDTEXTSTYLE0
 73
     1
 44
1.0
  0
POINT
  5
495
330
48C
100
AcDbEntity
  8
Defpoints
 62
     0
100
AcDbPoint
 10
51.06068374890869
 20
2.381250000000023
 30
0.0
  0
POINT
  5
496
330
48C
100
AcDbEntity
  8
Defpoints
 62
     0
100
AcDbPoint
 10
-50.53931625109131
 20
1.381250000000023
 30
0.0
  0
POINT
  5
497
330
48C
100
AcDbEntity
  8
Defpoints
 62
     0
100
AcDbPoint
 10
-50.53931625109131
 20
45.74901198635113
 30
0.0
  0
ENDBLK
  5
48E
330
48C
100
AcDbEntity
  8
0
100
AcDbBlockEnd
  0
BLOCK
  5
499
330
498
100
AcDbEntity
  8
0
100
AcDbBlockBegin
  2
*D26
 70
     1
 10
0.0
 20
0.0
 30
0.0
  3
*D26
  1
*D26
  0
LINE
  5
49B
330
498
100
AcDbEntity
  8
치수문자_일반주서
 62
     0
370
    -2
100
AcDbLine
 10
51.06068374890869
 20
2.443750000000023
 30
0.0
 11
51.06068374890869
 21
36.04869709597182
 31
0.0
  0
LINE
  5
49C
330
498
100
AcDbEntity
  8
치수문자_일반주서
 62
     0
370
    -2
100
AcDbLine
 10
0.2606837489086899
 20
2.37390000000002
 30
0.0
 11
0.2606837489086899
 21
36.04869709597182
 31
0.0
  0
LINE
  5
49D
330
498
100
AcDbEntity
  8
치수문자_일반주서
 62
     0
370
    -2
100
AcDbLine
 10
47.75868374890869
 20
36.04869709597182
 30
0.0
 11
3.56268374890869
 21
36.04869709597182
 31
0.0
  0
SOLID
  5
49E
330
498
100
AcDbEntity
  8
치수문자_일반주서
 62
     0
100
AcDbTrace
 10
47.75868374890869
 20
35.49836376263848
 30
0.0
 11
47.75868374890869
 21
36.59903042930515
 31
0.0
 12
51.06068374890869
 22
36.04869709597182
 32
0.0
 13
51.06068374890869
 23
36.04869709597182
 33
0.0
  0
SOLID
  5
49F
330
498
100
AcDbEntity
  8
치수문자_일반주서
 62
     0
100
AcDbTrace
 10
3.56268374890869
 20
36.59903042930515
 30
0.0
 11
3.56268374890869
 21
35.49836376263848
 31
0.0
 12
0.2606837489086899
 22
36.04869709597182
 32
0.0
 13
0.2606837489086899
 23
36.04869709597182
 33
0.0
  0
MTEXT
  5
4A0
330
498
100
AcDbEntity
  8
치수문자_일반주서
 62
     0
100
AcDbMText
 10
25.65438607570776
 20
40.42369709597182
 30
0.0
 40
3.5
 41
0.0
 71
     2
 72
     1
  1
\A1;50.8 [2]
  7
SLDTEXTSTYLE0
 73
     1
 44
1.0
  0
POINT
  5
4A1
330
498
100
AcDbEntity
  8
Defpoints
 62
     0
100
AcDbPoint
 10
51.06068374890869
 20
2.381250000000023
 30
0.0
  0
POINT
  5
4A2
330
498
100
AcDbEntity
  8
Defpoints
 62
     0
100
AcDbPoint
 10
0.2606837489086899
 20
2.31140000000002
 30
0.0
  0
POINT
  5
4A3
330
498
100
AcDbEntity
  8
Defpoints
 62
     0
100
AcDbPoint
 10
0.2606837489086899
 20
36.04869709597182
 30
0.0
  0
ENDBLK
  5
49A
330
498
100
AcDbEntity
  8
0
100
AcDbBlockEnd
  0
BLOCK
  5
5BD
330
5BC
100
AcDbEntity
  8
0
100
AcDbBlockBegin
  2
*D27
 70
     1
 10
0.0
 20
0.0
 30
0.0
  3
*D27
  1
*D27
  0
LINE
  5
5BF
330
5BC
100
AcDbEntity
  8
치수문자_일반주서
 62
     0
370
    -2
100
AcDbLine
 10
128.3514990808299
 20
56.28655157272357
 30
0.0
 11
126.949496001893
 21
56.28655157272356
 31
0.0
  0
LINE
  5
5C0
330
5BC
100
AcDbEntity
  8
치수문자_일반주서
 62
     0
370
    -2
100
AcDbLine
 10
128.3514990808299
 20
43.58655157272356
 30
0.0
 11
126.949496001893
 21
43.58655157272356
 31
0.0
  0
LINE
  5
5C1
330
5BC
100
AcDbEntity
  8
치수문자_일반주서
 62
     0
370
    -2
100
AcDbLine
 10
126.949496001893
 20
52.98455157272356
 30
0.0
 11
126.949496001893
 21
46.88855157272356
 31
0.0
  0
SOLID
  5
5C2
330
5BC
100
AcDbEntity
  8
치수문자_일반주서
 62
     0
100
AcDbTrace
 10
127.4998293352263
 20
52.98455157272356
 30
0.0
 11
126.3991626685597
 21
52.98455157272356
 31
0.0
 12
126.949496001893
 22
56.28655157272356
 32
0.0
 13
126.949496001893
 23
56.28655157272356
 33
0.0
  0
SOLID
  5
5C3
330
5BC
100
AcDbEntity
  8
치수문자_일반주서
 62
     0
100
AcDbTrace
 10
126.3991626685597
 20
46.88855157272356
 30
0.0
 11
127.4998293352263
 21
46.88855157272356
 31
0.0
 12
126.949496001893
 22
43.58655157272356
 32
0.0
 13
126.949496001893
 23
43.58655157272356
 33
0.0
  0
MTEXT
  5
5C4
330
5BC
100
AcDbEntity
  8
치수문자_일반주서
 62
     0
100
AcDbMText
 10
122.574496001893
 20
49.93655157272354
 30
0.0
 40
3.5
 41
0.0
 71
     2
 72
     1
  1
\A1;%%c12.70 [0.50]
  7
SLDTEXTSTYLE0
 11
-3.356894814614646E-15
 21
1.0
 31
0.0
 73
     1
 44
1.0
  0
POINT
  5
5C5
330
5BC
100
AcDbEntity
  8
Defpoints
 62
     0
100
AcDbPoint
 10
128.4139990808299
 20
56.28655157272357
 30
0.0
  0
POINT
  5
5C6
330
5BC
100
AcDbEntity
  8
Defpoints
 62
     0
100
AcDbPoint
 10
128.4139990808299
 20
43.58655157272356
 30
0.0
  0
POINT
  5
5C7
330
5BC
100
AcDbEntity
  8
Defpoints
 62
     0
100
AcDbPoint
 10
126.949496001893
 20
43.58655157272356
 30
0.0
  0
ENDBLK
  5
5BE
330
5BC
100
AcDbEntity
  8
0
100
AcDbBlockEnd
  0
BLOCK
  5
5C9
330
5C8
100
AcDbEntity
  8
0
100
AcDbBlockBegin
  2
*D28
 70
     1
 10
0.0
 20
0.0
 30
0.0
  3
*D28
  1
*D28
  0
LINE
  5
5CB
330
5C8
100
AcDbEntity
  8
치수문자_일반주서
 62
     0
370
    -2
100
AcDbLine
 10
18.31270926586183
 20
56.28655157272356
 30
0.0
 11
4.56520926586176
 21
56.28655157272351
 31
0.0
  0
LINE
  5
5CC
330
5C8
100
AcDbEntity
  8
치수문자_일반주서
 62
     0
370
    -2
100
AcDbLine
 10
18.31270926586183
 20
43.58655157272357
 30
0.0
 11
4.565209265861804
 21
43.58655157272352
 31
0.0
  0
LINE
  5
5CD
330
5C8
100
AcDbEntity
  8
치수문자_일반주서
 62
     0
370
    -2
100
AcDbLine
 10
4.565209265861771
 20
52.98455157272351
 30
0.0
 11
4.565209265861792
 21
46.88855157272352
 31
0.0
  0
SOLID
  5
5CE
330
5C8
100
AcDbEntity
  8
치수문자_일반주서
 62
     0
100
AcDbTrace
 10
5.115542599195105
 20
52.98455157272351
 30
0.0
 11
4.014875932528438
 21
52.98455157272351
 31
0.0
 12
4.56520926586176
 22
56.28655157272351
 32
0.0
 13
4.56520926586176
 23
56.28655157272351
 33
0.0
  0
SOLID
  5
5CF
330
5C8
100
AcDbEntity
  8
치수문자_일반주서
 62
     0
100
AcDbTrace
 10
4.014875932528459
 20
46.88855157272352
 30
0.0
 11
5.115542599195126
 21
46.88855157272352
 31
0.0
 12
4.565209265861804
 22
43.58655157272352
 32
0.0
 13
4.565209265861804
 23
43.58655157272352
 33
0.0
  0
MTEXT
  5
5D0
330
5C8
100
AcDbEntity
  8
치수문자_일반주서
 62
     0
100
AcDbMText
 10
0.1902092658617818
 20
49.93655157272354
 30
0.0
 40
3.5
 41
0.0
 71
     2
 72
     1
  1
\A1;%%c12.70 [0.50]
  7
SLDTEXTSTYLE0
 11
-3.496765431890260E-15
 21
1.0
 31
0.0
 73
     1
 44
1.0
  0
POINT
  5
5D1
330
5C8
100
AcDbEntity
  8
Defpoints
 62
     0
100
AcDbPoint
 10
18.37520926586183
 20
56.28655157272356
 30
0.0
  0
POINT
  5
5D2
330
5C8
100
AcDbEntity
  8
Defpoints
 62
     0
100
AcDbPoint
 10
18.37520926586183
 20
43.58655157272357
 30
0.0
  0
POINT
  5
5D3
330
5C8
100
AcDbEntity
  8
Defpoints
 62
     0
100
AcDbPoint
 10
4.565209265861782
 20
43.58655157272352
 30
0.0
  0
ENDBLK
  5
5CA
330
5C8
100
AcDbEntity
  8
0
100
AcDbBlockEnd
  0
BLOCK
  5
5D5
330
5D4
100
AcDbEntity
  8
0
100
AcDbBlockBegin
  2
*D29
 70
     1
 10
0.0
 20
0.0
 30
0.0
  3
*D29
  1
*D29
  0
LINE
  5
5D7
330
5D4
100
AcDbEntity
  8
치수문자_일반주서
 62
     0
370
    -2
100
AcDbLine
 10
147.706621675457
 20
50.22292600488352
 30
0.0
 11
147.706621675457
 21
74.12517018879504
 31
0.0
  0
LINE
  5
5D8
330
5D4
100
AcDbEntity
  8
치수문자_일반주서
 62
     0
370
    -2
100
AcDbLine
 10
93.76520926586184
 20
56.33787502017019
 30
0.0
 11
93.76520926586184
 21
74.12517018879504
 31
0.0
  0
LINE
  5
5D9
330
5D4
100
AcDbEntity
  8
치수문자_일반주서
 62
     0
370
    -2
100
AcDbLine
 10
144.404621675457
 20
74.12517018879504
 30
0.0
 11
97.06720926586185
 21
74.12517018879504
 31
0.0
  0
SOLID
  5
5DA
330
5D4
100
AcDbEntity
  8
치수문자_일반주서
 62
     0
100
AcDbTrace
 10
144.404621675457
 20
73.57483685546171
 30
0.0
 11
144.404621675457
 21
74.67550352212837
 31
0.0
 12
147.706621675457
 22
74.12517018879504
 32
0.0
 13
147.706621675457
 23
74.12517018879504
 33
0.0
  0
SOLID
  5
5DB
330
5D4
100
AcDbEntity
  8
치수문자_일반주서
 62
     0
100
AcDbTrace
 10
97.06720926586185
 20
74.67550352212837
 30
0.0
 11
97.06720926586185
 21
73.57483685546171
 31
0.0
 12
93.76520926586184
 22
74.12517018879504
 32
0.0
 13
93.76520926586184
 23
74.12517018879504
 33
0.0
  0
MTEXT
  5
5DC
330
5D4
100
AcDbEntity
  8
치수문자_일반주서
 62
     0
100
AcDbMText
 10
124.6283675913227
 20
78.50017018879504
 30
0.0
 40
3.5
 41
0.0
 71
     2
 72
     1
  1
\A1;53.94 [2.12]
  7
SLDTEXTSTYLE0
 73
     1
 44
1.0
  0
POINT
  5
5DD
330
5D4
100
AcDbEntity
  8
Defpoints
 62
     0
100
AcDbPoint
 10
147.706621675457
 20
50.16042600488352
 30
0.0
  0
POINT
  5
5DE
330
5D4
100
AcDbEntity
  8
Defpoints
 62
     0
100
AcDbPoint
 10
93.76520926586184
 20
56.27537502017019
 30
0.0
  0
POINT
  5
5DF
330
5D4
100
AcDbEntity
  8
Defpoints
 62
     0
100
AcDbPoint
 10
93.76520926586184
 20
74.12517018879504
 30
0.0
  0
ENDBLK
  5
5D6
330
5D4
100
AcDbEntity
  8
0
100
AcDbBlockEnd
  0
BLOCK
  5
5E1
330
5E0
100
AcDbEntity
  8
0
100
AcDbBlockBegin
  2
*D30
 70
     1
 10
0.0
 20
0.0
 30
0.0
  3
*D30
  1
*D30
  0
LINE
  5
5E3
330
5E0
100
AcDbEntity
  8
치수문자_일반주서
 62
     0
370
    -2
100
AcDbLine
 10
147.706621675457
 20
50.22292600488352
 30
0.0
 11
147.706621675457
 21
92.12517018879538
 31
0.0
  0
LINE
  5
5E4
330
5E0
100
AcDbEntity
  8
치수문자_일반주서
 62
     0
370
    -2
100
AcDbLine
 10
17.56520926586182
 20
55.53905157272356
 30
0.0
 11
17.56520926586182
 21
92.12517018879538
 31
0.0
  0
LINE
  5
5E5
330
5E0
100
AcDbEntity
  8
치수문자_일반주서
 62
     0
370
    -2
100
AcDbLine
 10
144.404621675457
 20
92.12517018879538
 30
0.0
 11
20.86720926586182
 21
92.12517018879538
 31
0.0
  0
SOLID
  5
5E6
330
5E0
100
AcDbEntity
  8
치수문자_일반주서
 62
     0
100
AcDbTrace
 10
144.404621675457
 20
91.57483685546205
 30
0.0
 11
144.404621675457
 21
92.67550352212871
 31
0.0
 12
147.706621675457
 22
92.12517018879538
 32
0.0
 13
147.706621675457
 23
92.12517018879538
 33
0.0
  0
SOLID
  5
5E7
330
5E0
100
AcDbEntity
  8
치수문자_일반주서
 62
     0
100
AcDbTrace
 10
20.86720926586182
 20
92.67550352212871
 30
0.0
 11
20.86720926586182
 21
91.57483685546205
 31
0.0
 12
17.56520926586182
 22
92.12517018879538
 32
0.0
 13
17.56520926586182
 23
92.12517018879538
 33
0.0
  0
MTEXT
  5
5E8
330
5E0
100
AcDbEntity
  8
치수문자_일반주서
 62
     0
100
AcDbMText
 10
81.2738031330148
 20
96.50017018879538
 30
0.0
 40
3.5
 41
0.0
 71
     2
 72
     1
  1
\A1;130.14 [5.12]
  7
SLDTEXTSTYLE0
 73
     1
 44
1.0
  0
POINT
  5
5E9
330
5E0
100
AcDbEntity
  8
Defpoints
 62
     0
100
AcDbPoint
 10
147.706621675457
 20
50.16042600488352
 30
0.0
  0
POINT
  5
5EA
330
5E0
100
AcDbEntity
  8
Defpoints
 62
     0
100
AcDbPoint
 10
17.56520926586182
 20
55.47655157272356
 30
0.0
  0
POINT
  5
5EB
330
5E0
100
AcDbEntity
  8
Defpoints
 62
     0
100
AcDbPoint
 10
17.56520926586182
 20
92.12517018879537
 30
0.0
  0
ENDBLK
  5
5E2
330
5E0
100
AcDbEntity
  8
0
100
AcDbBlockEnd
  0
BLOCK
  5
5ED
330
5EC
100
AcDbEntity
  8
0
100
AcDbBlockBegin
  2
*D31
 70
     1
 10
0.0
 20
0.0
 30
0.0
  3
*D31
  1
*D31
  0
LINE
  5
5EF
330
5EC
100
AcDbEntity
  8
치수문자_일반주서
 62
     0
370
    -2
100
AcDbLine
 10
147.706621675457
 20
50.22292600488352
 30
0.0
 11
147.706621675457
 21
86.12517018879534
 31
0.0
  0
LINE
  5
5F0
330
5EC
100
AcDbEntity
  8
치수문자_일반주서
 62
     0
370
    -2
100
AcDbLine
 10
71.54020926586185
 20
56.09505157272356
 30
0.0
 11
71.54020926586185
 21
86.12517018879534
 31
0.0
  0
LINE
  5
5F1
330
5EC
100
AcDbEntity
  8
치수문자_일반주서
 62
     0
370
    -2
100
AcDbLine
 10
144.404621675457
 20
86.12517018879534
 30
0.0
 11
74.84220926586185
 21
86.12517018879534
 31
0.0
  0
SOLID
  5
5F2
330
5EC
100
AcDbEntity
  8
치수문자_일반주서
 62
     0
100
AcDbTrace
 10
144.404621675457
 20
85.57483685546201
 30
0.0
 11
144.404621675457
 21
86.67550352212866
 31
0.0
 12
147.706621675457
 22
86.12517018879534
 32
0.0
 13
147.706621675457
 23
86.12517018879534
 33
0.0
  0
SOLID
  5
5F3
330
5EC
100
AcDbEntity
  8
치수문자_일반주서
 62
     0
100
AcDbTrace
 10
74.84220926586185
 20
86.67550352212866
 30
0.0
 11
74.84220926586185
 21
85.57483685546201
 31
0.0
 12
71.54020926586185
 22
86.12517018879534
 32
0.0
 13
71.54020926586185
 23
86.12517018879534
 33
0.0
  0
MTEXT
  5
5F4
330
5EC
100
AcDbEntity
  8
치수문자_일반주서
 62
     0
100
AcDbMText
 10
109.6234154706594
 20
90.50017018879534
 30
0.0
 40
3.5
 41
0.0
 71
     2
 72
     1
  1
\A1;76.17 [3.00]
  7
SLDTEXTSTYLE0
 73
     1
 44
1.0
  0
POINT
  5
5F5
330
5EC
100
AcDbEntity
  8
Defpoints
 62
     0
100
AcDbPoint
 10
147.706621675457
 20
50.16042600488352
 30
0.0
  0
POINT
  5
5F6
330
5EC
100
AcDbEntity
  8
Defpoints
 62
     0
100
AcDbPoint
 10
71.54020926586185
 20
56.03255157272356
 30
0.0
  0
POINT
  5
5F7
330
5EC
100
AcDbEntity
  8
Defpoints
 62
     0
100
AcDbPoint
 10
71.54020926586185
 20
86.12517018879532
 30
0.0
  0
ENDBLK
  5
5EE
330
5EC
100
AcDbEntity
  8
0
100
AcDbBlockEnd
  0
BLOCK
  5
639
330
638
100
AcDbEntity
  8
0
100
AcDbBlockBegin
  2
*D32
 70
     1
 10
0.0
 20
0.0
 30
0.0
  3
*D32
  1
*D32
  0
LINE
  5
63B
330
638
100
AcDbEntity
  8
치수문자_일반주서
 62
     0
370
    -2
100
AcDbLine
 10
219.3038872347475
 20
-12.29480145752635
 30
0.0
 11
217.9018841558106
 21
-12.29480145752635
 31
0.0
  0
LINE
  5
63C
330
638
100
AcDbEntity
  8
치수문자_일반주서
 62
     0
370
    -2
100
AcDbLine
 10
219.3038872347475
 20
-24.99480145752635
 30
0.0
 11
217.9018841558107
 21
-24.99480145752636
 31
0.0
  0
LINE
  5
63D
330
638
100
AcDbEntity
  8
치수문자_일반주서
 62
     0
370
    -2
100
AcDbLine
 10
217.9018841558107
 20
-15.59680145752635
 30
0.0
 11
217.9018841558107
 21
-21.69280145752636
 31
0.0
  0
SOLID
  5
63E
330
638
100
AcDbEntity
  8
치수문자_일반주서
 62
     0
100
AcDbTrace
 10
218.452217489144
 20
-15.59680145752635
 30
0.0
 11
217.3515508224773
 21
-15.59680145752635
 31
0.0
 12
217.9018841558106
 22
-12.29480145752635
 32
0.0
 13
217.9018841558106
 23
-12.29480145752635
 33
0.0
  0
SOLID
  5
63F
330
638
100
AcDbEntity
  8
치수문자_일반주서
 62
     0
100
AcDbTrace
 10
217.3515508224773
 20
-21.69280145752636
 30
0.0
 11
218.452217489144
 21
-21.69280145752635
 31
0.0
 12
217.9018841558107
 22
-24.99480145752636
 32
0.0
 13
217.9018841558107
 23
-24.99480145752636
 33
0.0
  0
MTEXT
  5
640
330
638
100
AcDbEntity
  8
치수문자_일반주서
 62
     0
100
AcDbMText
 10
213.5268841558107
 20
-18.64480145752638
 30
0.0
 40
3.5
 41
0.0
 71
     2
 72
     1
  1
\A1;%%c12.70 [0.50]
  7
SLDTEXTSTYLE0
 11
-4.475859752819527E-15
 21
1.0
 31
0.0
 73
     1
 44
1.0
  0
POINT
  5
641
330
638
100
AcDbEntity
  8
Defpoints
 62
     0
100
AcDbPoint
 10
219.3663872347475
 20
-12.29480145752635
 30
0.0
  0
POINT
  5
642
330
638
100
AcDbEntity
  8
Defpoints
 62
     0
100
AcDbPoint
 10
219.3663872347475
 20
-24.99480145752635
 30
0.0
  0
POINT
  5
643
330
638
100
AcDbEntity
  8
Defpoints
 62
     0
100
AcDbPoint
 10
217.9018841558107
 20
-24.99480145752636
 30
0.0
  0
ENDBLK
  5
63A
330
638
100
AcDbEntity
  8
0
100
AcDbBlockEnd
  0
BLOCK
  5
645
330
644
100
AcDbEntity
  8
0
100
AcDbBlockBegin
  2
*D33
 70
     1
 10
0.0
 20
0.0
 30
0.0
  3
*D33
  1
*D33
  0
LINE
  5
647
330
644
100
AcDbEntity
  8
치수문자_일반주서
 62
     0
370
    -2
100
AcDbLine
 10
-52.97350000000003
 20
6.349999999999994
 30
0.0
 11
-66.72100000000012
 21
6.349999999999941
 31
0.0
  0
LINE
  5
648
330
644
100
AcDbEntity
  8
치수문자_일반주서
 62
     0
370
    -2
100
AcDbLine
 10
-52.97350000000003
 20
-6.349999999999994
 30
0.0
 11
-66.72100000000007
 21
-6.350000000000048
 31
0.0
  0
LINE
  5
649
330
644
100
AcDbEntity
  8
치수문자_일반주서
 62
     0
370
    -2
100
AcDbLine
 10
-66.72100000000012
 20
6.349999999999941
 30
0.0
 11
-66.72100000000022
 21
37.45399999999994
 31
0.0
  0
LINE
  5
64A
330
644
100
AcDbEntity
  8
치수문자_일반주서
 62
     0
370
    -2
100
AcDbLine
 10
-66.7210000000001
 20
3.047999999999941
 30
0.0
 11
-66.72100000000009
 21
-3.048000000000048
 31
0.0
  0
LINE
  5
64B
330
644
100
AcDbEntity
  8
치수문자_일반주서
 62
     0
370
    -2
100
AcDbLine
 10
-66.7210000000001
 20
3.047999999999941
 30
0.0
 11
-66.72100000000009
 21
-0.2540000000000591
 31
0.0
  0
SOLID
  5
64C
330
644
100
AcDbEntity
  8
치수문자_일반주서
 62
     0
100
AcDbTrace
 10
-66.17066666666678
 20
3.047999999999943
 30
0.0
 11
-67.27133333333343
 21
3.047999999999939
 31
0.0
 12
-66.72100000000012
 22
6.349999999999941
 32
0.0
 13
-66.72100000000012
 23
6.349999999999941
 33
0.0
  0
SOLID
  5
64D
330
644
100
AcDbEntity
  8
치수문자_일반주서
 62
     0
100
AcDbTrace
 10
-67.27133333333342
 20
-3.048000000000049
 30
0.0
 11
-66.17066666666676
 21
-3.048000000000046
 31
0.0
 12
-66.72100000000007
 22
-6.350000000000048
 32
0.0
 13
-66.72100000000007
 23
-6.350000000000048
 33
0.0
  0
MTEXT
  5
64E
330
644
100
AcDbEntity
  8
치수문자_일반주서
 62
     0
100
AcDbMText
 10
-71.09600000000017
 20
25.20399999999993
 30
0.0
 40
3.5
 41
0.0
 71
     2
 72
     1
  1
\A1;%%c12.7 [1/2]
  7
SLDTEXTSTYLE0
 11
-3.356894814614650E-15
 21
1.0
 31
0.0
 73
     1
 44
1.0
  0
POINT
  5
64F
330
644
100
AcDbEntity
  8
Defpoints
 62
     0
100
AcDbPoint
 10
-52.91100000000003
 20
6.349999999999994
 30
0.0
  0
POINT
  5
6C1
330
644
100
AcDbEntity
  8
Defpoints
 62
     0
100
AcDbPoint
 10
-52.91100000000003
 20
-6.349999999999994
 30
0.0
  0
POINT
  5
6C2
330
644
100
AcDbEntity
  8
Defpoints
 62
     0
100
AcDbPoint
 10
-66.72100000000005
 20
-6.350000000000046
 30
0.0
  0
ENDBLK
  5
646
330
644
100
AcDbEntity
  8
0
100
AcDbBlockEnd
  0
BLOCK
  5
651
330
650
100
AcDbEntity
  8
0
100
AcDbBlockBegin
  2
*D34
 70
     1
 10
0.0
 20
0.0
 30
0.0
  3
*D34
  1
*D34
  0
LINE
  5
653
330
650
100
AcDbEntity
  8
치수문자_일반주서
 62
     0
370
    -2
100
AcDbLine
 10
238.6590098293747
 20
-12.23230145752635
 30
0.0
 11
238.6590098293747
 21
5.543817158545124
 31
0.0
  0
LINE
  5
654
330
650
100
AcDbEntity
  8
치수문자_일반주서
 62
     0
370
    -2
100
AcDbLine
 10
184.7175974197795
 20
-12.24347801007973
 30
0.0
 11
184.7175974197795
 21
5.543817158545124
 31
0.0
  0
LINE
  5
655
330
650
100
AcDbEntity
  8
치수문자_일반주서
 62
     0
370
    -2
100
AcDbLine
 10
235.3570098293747
 20
5.543817158545124
 30
0.0
 11
188.0195974197795
 21
5.543817158545124
 31
0.0
  0
SOLID
  5
656
330
650
100
AcDbEntity
  8
치수문자_일반주서
 62
     0
100
AcDbTrace
 10
235.3570098293747
 20
4.993483825211791
 30
0.0
 11
235.3570098293747
 21
6.094150491878458
 31
0.0
 12
238.6590098293747
 22
5.543817158545124
 32
0.0
 13
238.6590098293747
 23
5.543817158545124
 33
0.0
  0
SOLID
  5
657
330
650
100
AcDbEntity
  8
치수문자_일반주서
 62
     0
100
AcDbTrace
 10
188.0195974197795
 20
6.094150491878458
 30
0.0
 11
188.0195974197795
 21
4.993483825211791
 31
0.0
 12
184.7175974197795
 22
5.543817158545124
 32
0.0
 13
184.7175974197795
 23
5.543817158545124
 33
0.0
  0
MTEXT
  5
658
330
650
100
AcDbEntity
  8
치수문자_일반주서
 62
     0
100
AcDbMText
 10
215.5807557452403
 20
9.918817158545124
 30
0.0
 40
3.5
 41
0.0
 71
     2
 72
     1
  1
\A1;53.94 [2 1/8]
  7
SLDTEXTSTYLE0
 73
     1
 44
1.0
  0
POINT
  5
659
330
650
100
AcDbEntity
  8
Defpoints
 62
     0
100
AcDbPoint
 10
238.6590098293747
 20
-12.29480145752635
 30
0.0
  0
POINT
  5
65A
330
650
100
AcDbEntity
  8
Defpoints
 62
     0
100
AcDbPoint
 10
184.7175974197795
 20
-12.30597801007973
 30
0.0
  0
POINT
  5
65B
330
650
100
AcDbEntity
  8
Defpoints
 62
     0
100
AcDbPoint
 10
184.7175974197795
 20
5.543817158545124
 30
0.0
  0
ENDBLK
  5
652
330
650
100
AcDbEntity
  8
0
100
AcDbBlockEnd
  0
BLOCK
  5
65D
330
65C
100
AcDbEntity
  8
0
100
AcDbBlockBegin
  2
*D35
 70
     1
 10
0.0
 20
0.0
 30
0.0
  3
*D35
  1
*D35
  0
LINE
  5
65F
330
65C
100
AcDbEntity
  8
치수문자_일반주서
 62
     0
370
    -2
100
AcDbLine
 10
238.6590098293747
 20
-12.23230145752635
 30
0.0
 11
238.6590098293747
 21
23.54381715854547
 31
0.0
  0
LINE
  5
660
330
65C
100
AcDbEntity
  8
치수문자_일반주서
 62
     0
370
    -2
100
AcDbLine
 10
108.5175974197795
 20
-13.04230145752636
 30
0.0
 11
108.5175974197795
 21
23.54381715854547
 31
0.0
  0
LINE
  5
661
330
65C
100
AcDbEntity
  8
치수문자_일반주서
 62
     0
370
    -2
100
AcDbLine
 10
235.3570098293747
 20
23.54381715854547
 30
0.0
 11
111.8195974197795
 21
23.54381715854547
 31
0.0
  0
SOLID
  5
662
330
65C
100
AcDbEntity
  8
치수문자_일반주서
 62
     0
100
AcDbTrace
 10
235.3570098293747
 20
22.99348382521213
 30
0.0
 11
235.3570098293747
 21
24.0941504918788
 31
0.0
 12
238.6590098293747
 22
23.54381715854547
 32
0.0
 13
238.6590098293747
 23
23.54381715854547
 33
0.0
  0
SOLID
  5
663
330
65C
100
AcDbEntity
  8
치수문자_일반주서
 62
     0
100
AcDbTrace
 10
111.8195974197795
 20
24.0941504918788
 30
0.0
 11
111.8195974197795
 21
22.99348382521213
 31
0.0
 12
108.5175974197795
 22
23.54381715854547
 32
0.0
 13
108.5175974197795
 23
23.54381715854547
 33
0.0
  0
MTEXT
  5
664
330
65C
100
AcDbEntity
  8
치수문자_일반주서
 62
     0
100
AcDbMText
 10
172.2261912869325
 20
27.91881715854547
 30
0.0
 40
3.5
 41
0.0
 71
     2
 72
     1
  1
\A1;130.14 [5 1/8]
  7
SLDTEXTSTYLE0
 73
     1
 44
1.0
  0
POINT
  5
665
330
65C
100
AcDbEntity
  8
Defpoints
 62
     0
100
AcDbPoint
 10
238.6590098293747
 20
-12.29480145752635
 30
0.0
  0
POINT
  5
666
330
65C
100
AcDbEntity
  8
Defpoints
 62
     0
100
AcDbPoint
 10
108.5175974197795
 20
-13.10480145752636
 30
0.0
  0
POINT
  5
667
330
65C
100
AcDbEntity
  8
Defpoints
 62
     0
100
AcDbPoint
 10
108.5175974197795
 20
23.54381715854547
 30
0.0
  0
ENDBLK
  5
65E
330
65C
100
AcDbEntity
  8
0
100
AcDbBlockEnd
  0
BLOCK
  5
669
330
668
100
AcDbEntity
  8
0
100
AcDbBlockBegin
  2
*D36
 70
     1
 10
0.0
 20
0.0
 30
0.0
  3
*D36
  1
*D36
  0
LINE
  5
66B
330
668
100
AcDbEntity
  8
치수문자_일반주서
 62
     0
370
    -2
100
AcDbLine
 10
238.6590098293747
 20
-12.23230145752635
 30
0.0
 11
238.6590098293747
 21
17.54381715854542
 31
0.0
  0
LINE
  5
66C
330
668
100
AcDbEntity
  8
치수문자_일반주서
 62
     0
370
    -2
100
AcDbLine
 10
162.4925974197795
 20
-12.48630145752635
 30
0.0
 11
162.4925974197795
 21
17.54381715854542
 31
0.0
  0
LINE
  5
66D
330
668
100
AcDbEntity
  8
치수문자_일반주서
 62
     0
370
    -2
100
AcDbLine
 10
235.3570098293747
 20
17.54381715854542
 30
0.0
 11
165.7945974197795
 21
17.54381715854542
 31
0.0
  0
SOLID
  5
66E
330
668
100
AcDbEntity
  8
치수문자_일반주서
 62
     0
100
AcDbTrace
 10
235.3570098293747
 20
16.99348382521209
 30
0.0
 11
235.3570098293747
 21
18.09415049187876
 31
0.0
 12
238.6590098293747
 22
17.54381715854542
 32
0.0
 13
238.6590098293747
 23
17.54381715854542
 33
0.0
  0
SOLID
  5
66F
330
668
100
AcDbEntity
  8
치수문자_일반주서
 62
     0
100
AcDbTrace
 10
165.7945974197795
 20
18.09415049187876
 30
0.0
 11
165.7945974197795
 21
16.99348382521209
 31
0.0
 12
162.4925974197795
 22
17.54381715854542
 32
0.0
 13
162.4925974197795
 23
17.54381715854542
 33
0.0
  0
MTEXT
  5
670
330
668
100
AcDbEntity
  8
치수문자_일반주서
 62
     0
100
AcDbMText
 10
200.5758036245771
 20
21.91881715854542
 30
0.0
 40
3.5
 41
0.0
 71
     2
 72
     1
  1
\A1;76.17 [3]
  7
SLDTEXTSTYLE0
 73
     1
 44
1.0
  0
POINT
  5
671
330
668
100
AcDbEntity
  8
Defpoints
 62
     0
100
AcDbPoint
 10
238.6590098293747
 20
-12.29480145752635
 30
0.0
  0
POINT
  5
672
330
668
100
AcDbEntity
  8
Defpoints
 62
     0
100
AcDbPoint
 10
162.4925974197795
 20
-12.54880145752635
 30
0.0
  0
POINT
  5
673
330
668
100
AcDbEntity
  8
Defpoints
 62
     0
100
AcDbPoint
 10
162.4925974197795
 20
17.54381715854542
 30
0.0
  0
ENDBLK
  5
66A
330
668
100
AcDbEntity
  8
0
100
AcDbBlockEnd
  0
BLOCK
  5
67B
330
67A
100
AcDbEntity
  8
0
100
AcDbBlockBegin
  2
*D37
 70
     1
 10
0.0
 20
0.0
 30
0.0
  3
*D37
  1
*D37
  0
LINE
  5
67D
330
67A
100
AcDbEntity
  8
치수문자_일반주서
 62
     0
370
    -2
100
AcDbLine
 10
76.48291240959514
 20
-6.350000000000001
 30
0.0
 11
92.88925463711803
 21
-6.350000000000004
 31
0.0
  0
LINE
  5
67E
330
67A
100
AcDbEntity
  8
치수문자_일반주서
 62
     0
370
    -2
100
AcDbLine
 10
76.48291240959514
 20
6.349999999999994
 30
0.0
 11
92.88925463711803
 21
6.349999999999993
 31
0.0
  0
LINE
  5
67F
330
67A
100
AcDbEntity
  8
치수문자_일반주서
 62
     0
370
    -2
100
AcDbLine
 10
92.88925463711803
 20
-6.350000000000004
 30
0.0
 11
92.88925463711803
 21
37.45399999999999
 31
0.0
  0
LINE
  5
680
330
67A
100
AcDbEntity
  8
치수문자_일반주서
 62
     0
370
    -2
100
AcDbLine
 10
92.88925463711803
 20
-6.350000000000004
 30
0.0
 11
92.88925463711803
 21
6.349999999999993
 31
0.0
  0
LINE
  5
681
330
67A
100
AcDbEntity
  8
치수문자_일반주서
 62
     0
370
    -2
100
AcDbLine
 10
92.88925463711803
 20
-9.652000000000005
 30
0.0
 11
92.88925463711803
 21
-12.954
 31
0.0
  0
SOLID
  5
682
330
67A
100
AcDbEntity
  8
치수문자_일반주서
 62
     0
100
AcDbTrace
 10
93.43958797045136
 20
-9.652000000000005
 30
0.0
 11
92.3389213037847
 21
-9.652000000000005
 31
0.0
 12
92.88925463711803
 22
-6.350000000000004
 32
0.0
 13
92.88925463711803
 23
-6.350000000000004
 33
0.0
  0
SOLID
  5
683
330
67A
100
AcDbEntity
  8
치수문자_일반주서
 62
     0
100
AcDbTrace
 10
92.3389213037847
 20
9.651999999999994
 30
0.0
 11
93.43958797045136
 21
9.651999999999994
 31
0.0
 12
92.88925463711803
 22
6.349999999999993
 32
0.0
 13
92.88925463711803
 23
6.349999999999993
 33
0.0
  0
MTEXT
  5
684
330
67A
100
AcDbEntity
  8
치수문자_일반주서
 62
     0
100
AcDbMText
 10
90.26425463711803
 20
25.20399999999999
 30
0.0
 40
3.5
 41
0.0
 71
     5
 72
     1
  1
\A1;{%%c12.7 [1/2]}
  7
SLDTEXTSTYLE0
 11
0.0
 21
1.0
 31
0.0
 73
     1
 44
1.0
  0
POINT
  5
685
330
67A
100
AcDbEntity
  8
Defpoints
 62
     0
100
AcDbPoint
 10
76.42041240959514
 20
-6.350000000000001
 30
0.0
  0
POINT
  5
686
330
67A
100
AcDbEntity
  8
Defpoints
 62
     0
100
AcDbPoint
 10
76.42041240959514
 20
6.349999999999994
 30
0.0
  0
POINT
  5
687
330
67A
100
AcDbEntity
  8
Defpoints
 62
     0
100
AcDbPoint
 10
92.88925463711803
 20
6.349999999999993
 30
0.0
  0
ENDBLK
  5
67C
330
67A
100
AcDbEntity
  8
0
100
AcDbBlockEnd
  0
BLOCK
  5
694
330
693
100
AcDbEntity
  8
0
100
AcDbBlockBegin
  2
*D38
 70
     1
 10
0.0
 20
0.0
 30
0.0
  3
*D38
  1
*D38
  0
LINE
  5
696
330
693
100
AcDbEntity
  8
치수문자_일반주서
 62
     0
370
    -2
100
AcDbLine
 10
76.42041240959514
 20
6.412499999999994
 30
0.0
 11
76.42041240959514
 21
41.22575439831355
 31
0.0
  0
LINE
  5
697
330
693
100
AcDbEntity
  8
치수문자_일반주서
 62
     0
370
    -2
100
AcDbLine
 10
22.44541240959515
 20
6.401323447446629
 30
0.0
 11
22.44541240959515
 21
41.22575439831355
 31
0.0
  0
LINE
  5
698
330
693
100
AcDbEntity
  8
치수문자_일반주서
 62
     0
370
    -2
100
AcDbLine
 10
73.11841240959514
 20
41.22575439831355
 30
0.0
 11
25.74741240959515
 21
41.22575439831355
 31
0.0
  0
SOLID
  5
699
330
693
100
AcDbEntity
  8
치수문자_일반주서
 62
     0
100
AcDbTrace
 10
73.11841240959514
 20
40.67542106498022
 30
0.0
 11
73.11841240959514
 21
41.77608773164689
 31
0.0
 12
76.42041240959514
 22
41.22575439831355
 32
0.0
 13
76.42041240959514
 23
41.22575439831355
 33
0.0
  0
SOLID
  5
69A
330
693
100
AcDbEntity
  8
치수문자_일반주서
 62
     0
100
AcDbTrace
 10
25.74741240959515
 20
41.77608773164689
 30
0.0
 11
25.74741240959515
 21
40.67542106498022
 31
0.0
 12
22.44541240959515
 22
41.22575439831355
 32
0.0
 13
22.44541240959515
 23
41.22575439831355
 33
0.0
  0
MTEXT
  5
69B
330
693
100
AcDbEntity
  8
치수문자_일반주서
 62
     0
100
AcDbMText
 10
49.43291240959515
 20
43.85075439831355
 30
0.0
 40
3.5
 41
0.0
 71
     5
 72
     1
  1
\A1;53.98 [2 1/8]
  7
SLDTEXTSTYLE0
 73
     1
 44
1.0
  0
POINT
  5
69C
330
693
100
AcDbEntity
  8
Defpoints
 62
     0
100
AcDbPoint
 10
76.42041240959514
 20
6.349999999999994
 30
0.0
  0
POINT
  5
69D
330
693
100
AcDbEntity
  8
Defpoints
 62
     0
100
AcDbPoint
 10
22.44541240959515
 20
6.338823447446629
 30
0.0
  0
POINT
  5
69E
330
693
100
AcDbEntity
  8
Defpoints
 62
     0
100
AcDbPoint
 10
22.44541240959515
 20
41.22575439831355
 30
0.0
  0
ENDBLK
  5
695
330
693
100
AcDbEntity
  8
0
100
AcDbBlockEnd
  0
BLOCK
  5
6A4
330
6A3
100
AcDbEntity
  8
0
100
AcDbBlockBegin
  2
*D39
 70
     1
 10
0.0
 20
0.0
 30
0.0
  3
*D39
  1
*D39
  0
LINE
  5
6A6
330
6A3
100
AcDbEntity
  8
치수문자_일반주서
 62
     0
370
    -2
100
AcDbLine
 10
76.42041240959514
 20
6.412499999999994
 30
0.0
 11
76.42041240959514
 21
66.60169424698796
 31
0.0
  0
LINE
  5
6A7
330
6A3
100
AcDbEntity
  8
치수문자_일반주서
 62
     0
370
    -2
100
AcDbLine
 10
0.2539999999999907
 20
6.158499999999997
 30
0.0
 11
0.2539999999999907
 21
66.60169424698796
 31
0.0
  0
LINE
  5
6A8
330
6A3
100
AcDbEntity
  8
치수문자_일반주서
 62
     0
370
    -2
100
AcDbLine
 10
73.11841240959514
 20
66.60169424698796
 30
0.0
 11
3.555999999999991
 21
66.60169424698796
 31
0.0
  0
SOLID
  5
6A9
330
6A3
100
AcDbEntity
  8
치수문자_일반주서
 62
     0
100
AcDbTrace
 10
73.11841240959514
 20
66.05136091365463
 30
0.0
 11
73.11841240959514
 21
67.15202758032129
 31
0.0
 12
76.42041240959514
 22
66.60169424698796
 32
0.0
 13
76.42041240959514
 23
66.60169424698796
 33
0.0
  0
SOLID
  5
6AA
330
6A3
100
AcDbEntity
  8
치수문자_일반주서
 62
     0
100
AcDbTrace
 10
3.555999999999991
 20
67.15202758032129
 30
0.0
 11
3.555999999999991
 21
66.05136091365463
 31
0.0
 12
0.2539999999999907
 22
66.60169424698796
 32
0.0
 13
0.2539999999999907
 23
66.60169424698796
 33
0.0
  0
MTEXT
  5
6AB
330
6A3
100
AcDbEntity
  8
치수문자_일반주서
 62
     0
100
AcDbMText
 10
38.33720620479757
 20
69.22669424698796
 30
0.0
 40
3.5
 41
0.0
 71
     5
 72
     1
  1
\A1;76.17 [3]
  7
SLDTEXTSTYLE0
 73
     1
 44
1.0
  0
POINT
  5
6AC
330
6A3
100
AcDbEntity
  8
Defpoints
 62
     0
100
AcDbPoint
 10
76.42041240959514
 20
6.349999999999994
 30
0.0
  0
POINT
  5
6AD
330
6A3
100
AcDbEntity
  8
Defpoints
 62
     0
100
AcDbPoint
 10
0.2539999999999907
 20
6.095999999999997
 30
0.0
  0
POINT
  5
6AE
330
6A3
100
AcDbEntity
  8
Defpoints
 62
     0
100
AcDbPoint
 10
0.2539999999999907
 20
66.60169424698796
 30
0.0
  0
ENDBLK
  5
6A5
330
6A3
100
AcDbEntity
  8
0
100
AcDbBlockEnd
  0
BLOCK
  5
6B4
330
6B3
100
AcDbEntity
  8
0
100
AcDbBlockBegin
  2
*D40
 70
     1
 10
0.0
 20
0.0
 30
0.0
  3
*D40
  1
*D40
  0
LINE
  5
6B6
330
6B3
100
AcDbEntity
  8
치수문자_일반주서
 62
     0
370
    -2
100
AcDbLine
 10
76.42041240959514
 20
6.412499999999994
 30
0.0
 11
76.42041240959514
 21
83.6786577036498
 31
0.0
  0
LINE
  5
6B7
330
6B3
100
AcDbEntity
  8
치수문자_일반주서
 62
     0
370
    -2
100
AcDbLine
 10
-53.72100000000003
 20
5.602499999999992
 30
0.0
 11
-53.72100000000003
 21
83.6786577036498
 31
0.0
  0
LINE
  5
6B8
330
6B3
100
AcDbEntity
  8
치수문자_일반주서
 62
     0
370
    -2
100
AcDbLine
 10
73.11841240959514
 20
83.6786577036498
 30
0.0
 11
-50.41900000000003
 21
83.6786577036498
 31
0.0
  0
SOLID
  5
6B9
330
6B3
100
AcDbEntity
  8
치수문자_일반주서
 62
     0
100
AcDbTrace
 10
73.11841240959514
 20
83.12832437031648
 30
0.0
 11
73.11841240959514
 21
84.22899103698313
 31
0.0
 12
76.42041240959514
 22
83.6786577036498
 32
0.0
 13
76.42041240959514
 23
83.6786577036498
 33
0.0
  0
SOLID
  5
6BA
330
6B3
100
AcDbEntity
  8
치수문자_일반주서
 62
     0
100
AcDbTrace
 10
-50.41900000000003
 20
84.22899103698313
 30
0.0
 11
-50.41900000000003
 21
83.12832437031648
 31
0.0
 12
-53.72100000000003
 22
83.6786577036498
 32
0.0
 13
-53.72100000000003
 23
83.6786577036498
 33
0.0
  0
MTEXT
  5
6BB
330
6B3
100
AcDbEntity
  8
치수문자_일반주서
 62
     0
100
AcDbMText
 10
11.34970620479756
 20
86.3036577036498
 30
0.0
 40
3.5
 41
0.0
 71
     5
 72
     1
  1
\A1;130.14 [5 1/8]
  7
SLDTEXTSTYLE0
 73
     1
 44
1.0
  0
POINT
  5
6BC
330
6B3
100
AcDbEntity
  8
Defpoints
 62
     0
100
AcDbPoint
 10
76.42041240959514
 20
6.349999999999994
 30
0.0
  0
POINT
  5
6BD
330
6B3
100
AcDbEntity
  8
Defpoints
 62
     0
100
AcDbPoint
 10
-53.72100000000003
 20
5.539999999999992
 30
0.0
  0
POINT
  5
6BE
330
6B3
100
AcDbEntity
  8
Defpoints
 62
     0
100
AcDbPoint
 10
-53.72100000000003
 20
83.6786577036498
 30
0.0
  0
ENDBLK
  5
6B5
330
6B3
100
AcDbEntity
  8
0
100
AcDbBlockEnd
  0
ENDSEC
  0
SECTION
  2
ENTITIES
  0
LINE
  5
CD
330
1F
100
AcDbEntity
  8
참조1
100
AcDbLine
 10
3.649511632443772
 20
-2.498925071276081
 30
0.0
 11
3.649511632443777
 21
-39.9989250712761
 31
0.0
  0
LINE
  5
CE
330
1F
100
AcDbEntity
  8
참조1
100
AcDbLine
 10
3.649511632443777
 20
-39.9989250712761
 30
0.0
 11
-11.50883181430867
 21
-39.9989250712761
 31
0.0
  0
LINE
  5
129
330
1F
100
AcDbEntity
  8
참조1
100
AcDbLine
 10
86.46350881534559
 20
7.441074928723896
 30
0.0
 11
86.46350881534559
 21
-7.438925071276109
 31
0.0
  0
LINE
  5
12A
330
1F
100
AcDbEntity
  8
참조1
100
AcDbLine
 10
99.1635088153456
 20
5.441074928723896
 30
0.0
 11
86.46350881534559
 21
5.441074928723896
 31
0.0
  0
SOLID
  5
12B
330
1F
100
AcDbEntity
  8
참조1
100
AcDbTrace
 10
86.46350881534559
 20
5.441074928723896
 30
0.0
 11
92.81350881534559
 21
4.425074928723896
 31
0.0
 12
92.81350881534559
 22
6.457074928723896
 32
0.0
 13
92.81350881534559
 23
6.457074928723896
 33
0.0
  0
LINE
  5
12C
330
1F
100
AcDbEntity
  8
참조1
100
AcDbLine
 10
99.1635088153456
 20
-5.438925071276109
 30
0.0
 11
86.46350881534559
 21
-5.438925071276109
 31
0.0
  0
SOLID
  5
12D
330
1F
100
AcDbEntity
  8
참조1
100
AcDbTrace
 10
86.46350881534559
 20
-5.438925071276109
 30
0.0
 11
92.81350881534559
 21
-6.454925071276109
 31
0.0
 12
92.81350881534559
 22
-4.422925071276109
 32
0.0
 13
92.81350881534559
 23
-4.422925071276109
 33
0.0
  0
MTEXT
  5
12E
330
1F
100
AcDbEntity
  8
참조1
100
AcDbMText
 10
96.06362362590816
 20
11.06679249473997
 30
0.0
 40
3.5
 41
0.0
 71
     1
 72
     1
  1
A
  7
SLDTEXTSTYLE0
 73
     1
 44
1.0
  0
MTEXT
  5
12F
330
1F
100
AcDbEntity
  8
참조1
100
AcDbMText
 10
96.06362362590816
 20
0.1867924947399659
 30
0.0
 40
3.5
 41
0.0
 71
     1
 72
     1
  1
A
  7
SLDTEXTSTYLE0
 73
     1
 44
1.0
  0
LINE
  5
5F9
330
1F
100
AcDbEntity
  8
외형선
  6
Continuous
370
    15
100
AcDbLine
 10
0.0
 20
-6.350000000000001
 30
0.0
 11
0.2539999999999907
 21
-6.096000000000004
 31
0.0
  0
LINE
  5
5FA
330
1F
100
AcDbEntity
  8
외형선
  6
Continuous
370
    15
100
AcDbLine
 10
0.2539999999999907
 20
6.095999999999997
 30
0.0
 11
0.0
 21
6.349999999999994
 31
0.0
  0
LINE
  5
5FB
330
1F
100
AcDbEntity
  8
외형선
  6
Continuous
370
    15
100
AcDbLine
 10
-52.91100000000003
 20
6.349999999999987
 30
0.0
 11
-53.72100000000003
 21
5.539999999999992
 31
0.0
  0
LINE
  5
5FC
330
1F
100
AcDbEntity
  8
외형선
  6
Continuous
370
    15
100
AcDbLine
 10
-53.72100000000003
 20
-5.540000000000013
 30
0.0
 11
-52.91100000000003
 21
-6.350000000000009
 31
0.0
  0
LINE
  5
5FD
330
1F
100
AcDbEntity
  8
외형선
  6
Continuous
370
    15
100
AcDbLine
 10
0.0
 20
6.349999999999994
 30
0.0
 11
-52.91100000000003
 21
6.349999999999987
 31
0.0
  0
LINE
  5
5FE
330
1F
100
AcDbEntity
  8
외형선
  6
Continuous
370
    15
100
AcDbLine
 10
-52.91100000000003
 20
-6.350000000000009
 30
0.0
 11
0.0
 21
-6.350000000000001
 31
0.0
  0
LINE
  5
5FF
330
1F
100
AcDbEntity
  8
외형선
  6
Continuous
370
    15
100
AcDbLine
 10
20.44871912433129
 20
6.095999999999997
 30
0.0
 11
0.2539999999999907
 21
6.095999999999997
 31
0.0
  0
LINE
  5
600
330
1F
100
AcDbEntity
  8
외형선
  6
Continuous
370
    15
100
AcDbLine
 10
0.2539999999999907
 20
-6.096000000000004
 30
0.0
 11
20.44871912433129
 21
-6.096000000000004
 31
0.0
  0
LINE
  5
601
330
1F
100
AcDbEntity
  8
외형선
  6
Continuous
 62
     1
370
    15
100
AcDbLine
 10
22.9791934143916
 20
-6.350000000000001
 30
0.0
 11
30.65424735990015
 21
-6.350000000000001
 31
0.0
  0
LINE
  5
602
330
1F
100
AcDbEntity
  8
외형선
  6
Continuous
 62
     1
370
    15
100
AcDbLine
 10
57.1280090225718
 20
6.350000000000001
 30
0.0
 11
49.45312919398083
 21
6.350000000000001
 31
0.0
  0
LINE
  5
603
330
1F
100
AcDbEntity
  8
외형선
  6
Continuous
 62
     1
370
    15
100
AcDbLine
 10
49.4531291939808
 20
-6.350000000000001
 30
0.0
 11
57.12800902257183
 21
-6.350000000000001
 31
0.0
  0
LINE
  5
604
330
1F
100
AcDbEntity
  8
외형선
  6
Continuous
 62
     1
370
    15
100
AcDbLine
 10
30.65424735990015
 20
6.350000000000001
 30
0.0
 11
22.9791934143916
 21
6.350000000000001
 31
0.0
  0
LINE
  5
607
330
1F
100
AcDbEntity
  8
외형선
  6
Continuous
370
    15
100
AcDbLine
 10
0.2539999999999907
 20
6.095999999999997
 30
0.0
 11
0.2539999999999907
 21
-6.096000000000004
 31
0.0
  0
LINE
  5
608
330
1F
100
AcDbEntity
  8
외형선
  6
Continuous
370
    15
100
AcDbLine
 10
0.0
 20
6.349999999999994
 30
0.0
 11
0.0
 21
-6.350000000000009
 31
0.0
  0
LINE
  5
609
330
1F
100
AcDbEntity
  8
외형선
  6
Continuous
370
    15
100
AcDbLine
 10
-52.91100000000003
 20
6.349999999999987
 30
0.0
 11
-52.91100000000003
 21
-6.350000000000016
 31
0.0
  0
LINE
  5
60A
330
1F
100
AcDbEntity
  8
외형선
  6
Continuous
370
    15
100
AcDbLine
 10
-53.72100000000003
 20
5.539999999999992
 30
0.0
 11
-53.72100000000003
 21
-5.540000000000013
 31
0.0
  0
SPLINE
  5
60B
330
1F
100
AcDbEntity
  8
외형선
  6
Continuous
370
    15
100
AcDbSpline
210
0.0
220
0.0
230
1.0
 70
     8
 71
     3
 72
    10
 73
     6
 74
     0
 42
0.000000001
 43
0.00000001
 40
0.0
 40
0.0
 40
0.0
 40
0.0
 40
0.5
 40
0.5
 40
0.9834993190649381
 40
0.9834993190649381
 40
0.9834993190649381
 40
0.9834993190649381
 10
20.44895407087915
 20
5.81574268267606
 30
0.0
 10
20.788119348328
 20
5.889152911255188
 30
0.0
 10
21.12808641510412
 20
5.948486662933902
 30
0.0
 10
21.79113671036987
 20
6.0364143742237
 30
0.0
 10
22.11741303465169
 20
6.066137537858081
 30
0.0
 10
22.44541240959515
 20
6.082114697595072
 30
0.0
  0
SPLINE
  5
60C
330
1F
100
AcDbEntity
  8
외형선
  6
Continuous
370
    15
100
AcDbSpline
210
0.0
220
0.0
230
1.0
 70
     8
 71
     3
 72
    10
 73
     6
 74
     0
 42
0.000000001
 43
0.00000001
 40
0.0164987772443094
 40
0.0164987772443094
 40
0.0164987772443094
 40
0.0164987772443094
 40
0.5
 40
0.5
 40
1.0
 40
1.0
 40
1.0
 40
1.0
 10
22.44541240959515
 20
-3.446798842495429
 30
0.0
 10
22.11737391933741
 20
-3.251421010650745
 30
0.0
 10
21.7910595148775
 20
-3.04857946389604
 30
0.0
 10
21.12793008048226
 20
-2.623082935077825
 30
0.0
 10
20.78792318716768
 20
-2.399277640674441
 30
0.0
 10
20.44871912433129
 20
-2.170374155649156
 30
0.0
  0
SPLINE
  5
60E
330
1F
100
AcDbEntity
  8
외형선
  6
Continuous
370
    15
100
AcDbSpline
210
0.0
220
0.0
230
1.0
 70
     8
 71
     3
 72
    10
 73
     6
 74
     0
 42
0.000000001
 43
0.00000001
 40
0.0
 40
0.0
 40
0.0
 40
0.0
 40
0.4999999999999999
 40
0.4999999999999999
 40
0.9834993190649604
 40
0.9834993190649604
 40
0.9834993190649604
 40
0.9834993190649604
 10
20.44895407087915
 20
-5.81574268267606
 30
0.0
 10
20.788119348328
 20
-5.889152911255188
 30
0.0
 10
21.12808641510412
 20
-5.948486662933895
 30
0.0
 10
21.7911367103699
 20
-6.0364143742237
 30
0.0
 10
22.11741303465169
 20
-6.066137537858086
 30
0.0
 10
22.44541240959518
 20
-6.082114697595067
 30
0.0
  0
LINE
  5
60F
330
1F
100
AcDbEntity
  8
외형선
  6
Continuous
370
    15
100
AcDbLine
 10
20.44871912433129
 20
-6.096000000000004
 30
0.0
 11
20.44871912433129
 21
-5.815707120809321
 31
0.0
  0
LINE
  5
610
330
1F
100
AcDbEntity
  8
외형선
  6
Continuous
370
    15
100
AcDbLine
 10
20.44871912433129
 20
-2.170455646048083
 30
0.0
 11
20.44871912433129
 21
6.095999999999997
 31
0.0
  0
SPLINE
  5
612
330
1F
100
AcDbEntity
  8
외형선
  6
Continuous
370
    15
100
AcDbSpline
210
0.0
220
0.0
230
1.0
 70
     8
 71
     3
 72
    10
 73
     6
 74
     0
 42
0.000000001
 43
0.00000001
 40
0.0
 40
0.0
 40
0.0
 40
0.0
 40
0.5
 40
0.5
 40
1.0
 40
1.0
 40
1.0
 40
1.0
 10
22.47899999999998
 20
1.417886560197502
 30
0.0
 10
22.13964429305307
 20
1.518643787384534
 30
0.0
 10
21.80218387809035
 20
1.615776495981237
 30
0.0
 10
21.12793008048226
 20
1.801734639953899
 30
0.0
 10
20.78792318716768
 20
1.890841050835448
 30
0.0
 10
20.44871912433129
 20
1.975081248759018
 30
0.0
  0
SPLINE
  5
614
330
1F
100
AcDbEntity
  8
외형선
  6
Continuous
 62
     1
370
    15
100
AcDbSpline
210
0.0
220
0.0
230
1.0
 70
     8
 71
     3
 72
    18
 73
    14
 74
     0
 42
0.000000001
 43
0.00000001
 40
0.0837611339136532
 40
0.0837611339136532
 40
0.0837611339136532
 40
0.0837611339136532
 40
0.1569123456058278
 40
0.2443886459255337
 40
0.3318270956731906
 40
0.4191921975452338
 40
0.5066240619595754
 40
0.5940995699148001
 40
0.6815546777647651
 40
0.7689301155382099
 40
0.8563390261622517
 40
0.9438089755508681
 40
1.0
 40
1.0
 40
1.0
 40
1.0
 10
64.40584766463587
 20
-2.792722581789555
 30
0.0
 10
63.75504822529447
 20
-2.740992468711624
 30
0.0
 10
62.32594768830293
 20
-2.55354165347196
 30
0.0
 10
60.11888526262791
 20
-2.115048994564042
 30
0.0
 10
57.7854134841331
 20
-1.483610655101103
 30
0.0
 10
55.45260584262607
 20
-0.7403107314845059
 30
0.0
 10
53.11921918186238
 20
0.0592844850513004
 30
0.0
 10
50.7849604523862
 20
0.8544507917539761
 30
0.0
 10
48.451215874486
 20
1.583825169666845
 30
0.0
 10
46.1183306450892
 20
2.19533693686553
 30
0.0
 10
43.78518810375144
 20
2.630397067827467
 30
0.0
 10
41.72933045354176
 20
2.866213270959236
 30
0.0
 10
40.45118845073222
 20
2.857955925481612
 30
0.0
 10
39.95126069296518
 20
2.85472617776918
 30
0.0
  0
LINE
  5
615
330
1F
100
AcDbEntity
  8
외형선
  6
Continuous
370
    15
100
AcDbLine
 10
22.47899999999998
 20
-6.338823447446622
 30
0.0
 11
22.9791934143916
 21
-6.338924806586476
 31
0.0
  0
SPLINE
  5
616
330
1F
100
AcDbEntity
  8
외형선
  6
Continuous
 62
     1
370
    15
100
AcDbSpline
210
0.0
220
0.0
230
1.0
 70
     8
 71
     3
 72
    21
 73
    17
 74
     0
 42
0.000000001
 43
0.00000001
 40
0.0
 40
0.0
 40
0.0
 40
0.0
 40
0.0355887052633308
 40
0.0748222907614267
 40
0.1137830321597411
 40
0.1525715781819954
 40
0.1916289629809062
 40
0.2303597043347259
 40
0.2693589888131279
 40
0.3091935431570317
 40
0.3493206437940823
 40
0.3882564702986896
 40
0.4274644138403752
 40
0.4675197146015833
 40
0.5078712109259187
 40
0.522847612224287
 40
0.522847612224287
 40
0.522847612224287
 40
0.522847612224287
 10
40.14646876493416
 20
2.852903479395287
 30
0.0
 10
40.50165808861357
 20
3.088851935802857
 30
0.0
 10
41.24841407917438
 20
3.584913927364759
 30
0.0
 10
42.38503588316493
 20
4.257245311675412
 30
0.0
 10
43.55348171197011
 20
4.871823213137517
 30
0.0
 10
44.71885459168897
 20
5.3919859997728
 30
0.0
 10
45.88421674954995
 20
5.807072131375719
 30
0.0
 10
47.04962264998426
 20
6.113147534439456
 30
0.0
 10
48.22343720547278
 20
6.303206469204838
 30
0.0
 10
49.41225824758061
 20
6.371355366936726
 30
0.0
 10
50.5984586800071
 20
6.311997371298304
 30
0.0
 10
51.78024295044594
 20
6.129055516067986
 30
0.0
 10
52.96052271274061
 20
5.827196902039994
 30
0.0
 10
54.15411942463254
 20
5.404707764643121
 30
0.0
 10
55.10756444358503
 20
4.981853639573545
 30
0.0
 10
55.65999152922467
 20
4.704764168173931
 30
0.0
 10
55.80950084847854
 20
4.627555888764856
 30
0.0
  0
SPLINE
  5
618
330
1F
100
AcDbEntity
  8
외형선
  6
Continuous
 62
     1
370
    15
100
AcDbSpline
210
0.0
220
0.0
230
1.0
 70
     8
 71
     3
 72
    11
 73
     7
 74
     0
 42
0.000000001
 43
0.00000001
 40
0.0
 40
0.0
 40
0.0
 40
0.0
 40
0.261317978013358
 40
0.5225305026184384
 40
0.8904754636160302
 40
1.0
 40
1.0
 40
1.0
 40
1.0
 10
72.76530470386712
 20
2.12620941193267
 30
0.0
 10
72.21302616293048
 20
2.24606594453072
 30
0.0
 10
71.10869194997306
 20
2.485730642293532
 30
0.0
 10
69.22694243174982
 20
2.750744604935534
 30
0.0
 10
67.66545420145673
 20
2.897847731665792
 30
0.0
 10
66.6562956355981
 20
2.864654727204162
 30
0.0
 10
66.42480938428841
 20
2.857040736269063
 30
0.0
  0
SPLINE
  5
619
330
1F
100
AcDbEntity
  8
외형선
  6
Continuous
 62
     1
370
    15
100
AcDbSpline
210
0.0
220
0.0
230
1.0
 70
     8
 71
     3
 72
    15
 73
    11
 74
     0
 42
0.000000001
 43
0.00000001
 40
0.0
 40
0.0
 40
0.0
 40
0.0
 40
0.0582975982202685
 40
0.1903334769381675
 40
0.32234247816929
 40
0.454468192796336
 40
0.5866158811763799
 40
0.718688819773213
 40
0.8592573326812897
 40
1.0
 40
1.0
 40
1.0
 40
1.0
 10
40.14646876493416
 20
-2.85290347939528
 30
0.0
 10
39.80313536608367
 20
-2.860430071559854
 30
0.0
 10
38.68220000086842
 20
-2.885003338725433
 30
0.0
 10
36.78397409087984
 20
-2.692616955128905
 30
0.0
 10
34.45103327006069
 20
-2.297906947699325
 30
0.0
 10
32.11719528071777
 20
-1.715917247144993
 30
0.0
 10
29.78296261991565
 20
-1.005963475104309
 30
0.0
 10
27.39914727719324
 20
-0.2036247802041942
 30
0.0
 10
24.96478241212046
 20
0.6429980298705118
 30
0.0
 10
23.30793604474971
 20
1.159483801243525
 30
0.0
 10
22.47899999999998
 20
1.417886560197502
 30
0.0
  0
SPLINE
  5
61B
330
1F
100
AcDbEntity
  8
외형선
  6
Continuous
 62
     1
370
    15
100
AcDbSpline
210
0.0
220
0.0
230
1.0
 70
     8
 71
     3
 72
    32
 73
    28
 74
     0
 42
0.000000001
 43
0.00000001
 40
0.0
 40
0.0
 40
0.0
 40
0.0
 40
0.0369171777849115
 40
0.074021947527543
 40
0.111704744275584
 40
0.1495869984241775
 40
0.186504252339778
 40
0.223608984143998
 40
0.2612919471100006
 40
0.2991743729741801
 40
0.3423832782125028
 40
0.3858939434278884
 40
0.4303444634680184
 40
0.4751249049490434
 40
0.518372464758705
 40
0.5619226970472047
 40
0.6064150070292612
 40
0.6512363627776824
 40
0.6945050371964785
 40
0.7380768521727511
 40
0.7813456534814701
 40
0.8244232190168026
 40
0.8677993500104334
 40
0.9108127191618296
 40
0.9541243254279059
 40
0.9983635610088358
 40
1.0
 40
1.0
 40
1.0
 40
1.0
 10
22.47899999999998
 20
6.338823447446622
 30
0.0
 10
22.81095472815269
 20
6.345125607727212
 30
0.0
 10
23.47655098830026
 20
6.357761952258151
 30
0.0
 10
24.48088023020568
 20
6.263349548131586
 30
0.0
 10
25.49347816628793
 20
6.084337756104823
 30
0.0
 10
26.50551802916235
 20
5.816241653287349
 30
0.0
 10
27.51060467645394
 20
5.465961338257273
 30
0.0
 10
28.51612623933465
 20
5.040664697222077
 30
0.0
 10
29.52778385933954
 20
4.537140990952068
 30
0.0
 10
30.5970860971604
 20
3.939525072145422
 30
0.0
 10
31.71618966510638
 20
3.241342690625338
 30
0.0
 10
32.89636832190712
 20
2.445729862187257
 30
0.0
 10
34.09000819143631
 20
1.591060376068057
 30
0.0
 10
35.28028650878161
 20
0.7045749896812623
 30
0.0
 10
36.46454415940764
 20
-0.1867665825070119
 30
0.0
 10
37.64438155383013
 20
-1.075026766256101
 30
0.0
 10
38.83867342293343
 20
-1.95217200716997
 30
0.0
 10
40.03190298713713
 20
-2.786363187093258
 30
0.0
 10
41.21464303384039
 20
-3.562002289275924
 30
0.0
 10
42.38505931774347
 20
-4.258053616812077
 30
0.0
 10
43.55347525731716
 20
-4.871565550794692
 30
0.0
 10
44.71885717340322
 20
-5.392214923656717
 30
0.0
 10
45.88421290312883
 20
-5.806412635506696
 30
0.0
 10
47.04963537762922
 20
-6.115540327508612
 30
0.0
 10
48.22338931393895
 20
-6.294137931796321
 30
0.0
 10
49.02608672282392
 20
-6.369723163089688
 30
0.0
 10
49.43842075652611
 20
-6.34847296643332
 30
0.0
 10
49.4531291939808
 20
-6.34771494705371
 30
0.0
  0
SPLINE
  5
61F
330
1F
100
AcDbEntity
  8
외형선
  6
Continuous
 62
     1
370
    15
100
AcDbSpline
210
0.0
220
0.0
230
1.0
 70
     8
 71
     3
 72
    28
 73
    24
 74
     0
 42
0.000000001
 43
0.00000001
 40
0.0330025196957801
 40
0.0330025196957801
 40
0.0330025196957801
 40
0.0330025196957801
 40
0.0575477846254287
 40
0.1110115175110034
 40
0.1599318457264001
 40
0.2088550431693119
 40
0.2577823603066168
 40
0.3067150422786357
 40
0.3556543273022897
 40
0.404598720830732
 40
0.4535369942606696
 40
0.5024688397798808
 40
0.5513954966837701
 40
0.6003182109657215
 40
0.6492382337178845
 40
0.6981568195177916
 40
0.747075224805271
 40
0.79599470625417
 40
0.8449165191434279
 40
0.8938419157320343
 40
0.941658123495781
 40
0.9894849179517181
 40
1.0
 40
1.0
 40
1.0
 40
1.0
 10
65.24415765828428
 20
-3.63353653558358
 30
0.0
 10
64.95145840122078
 20
-3.812639166597634
 30
0.0
 10
64.02120396945725
 20
-4.354233944289213
 30
0.0
 10
62.507471037383
 20
-5.141755312628852
 30
0.0
 10
60.70359355687884
 20
-5.827981085768059
 30
0.0
 10
58.95361685600184
 20
-6.246416508160593
 30
0.0
 10
57.20348611483249
 20
-6.395520220840496
 30
0.0
 10
55.45309119391615
 20
-6.269964382416248
 30
0.0
 10
53.70242250669369
 20
-5.874804469534809
 30
0.0
 10
51.95158959204861
 20
-5.227156966322788
 30
0.0
 10
50.20095748629666
 20
-4.354763748138303
 30
0.0
 10
48.45060328160571
 20
-3.295224239611606
 30
0.0
 10
46.70049546845399
 20
-2.094102378162653
 30
0.0
 10
44.95057304398526
 20
-0.8030215929591407
 30
0.0
 10
43.20077768247688
 20
0.5225295222323254
 30
0.0
 10
41.45104993732582
 20
1.825639421431191
 30
0.0
 10
39.70133110577348
 20
3.050175516511416
 30
0.0
 10
37.95156006248126
 20
4.144081039437658
 30
0.0
 10
36.20168455766239
 20
5.058283650962444
 30
0.0
 10
34.46490243125913
 20
5.755869167129539
 30
0.0
 10
32.74119708571877
 20
6.184957580765982
 30
0.0
 10
31.47533768323299
 20
6.372677591023496
 30
0.0
 10
30.77963529890292
 20
6.334484598209237
 30
0.0
 10
30.65424735990015
 20
6.327600992861328
 30
0.0
  0
SPLINE
  5
620
330
1F
100
AcDbEntity
  8
외형선
  6
Continuous
 62
     1
370
    15
100
AcDbSpline
210
0.0
220
0.0
230
1.0
 70
     8
 71
     3
 72
     8
 73
     4
 74
     0
 42
0.000000001
 43
0.00000001
 40
0.0
 40
0.0
 40
0.0
 40
0.0
 40
1.0
 40
1.0
 40
1.0
 40
1.0
 10
72.75284576821002
 20
2.095314306919164
 30
0.0
 10
73.76694350566058
 20
1.797072483951055
 30
0.0
 10
74.78638968806766
 20
1.473362318039868
 30
0.0
 10
75.81112999113674
 20
1.1244424918074
 30
0.0
  0
SPLINE
  5
621
330
1F
100
AcDbEntity
  8
외형선
  6
Continuous
 62
     1
370
    15
100
AcDbSpline
210
0.0
220
0.0
230
1.0
 70
     8
 71
     3
 72
    30
 73
    26
 74
     0
 42
0.000000001
 43
0.00000001
 40
0.0
 40
0.0
 40
0.0
 40
0.0
 40
0.1250000000000023
 40
0.1250000000000023
 40
0.1875000000000018
 40
0.1875000000000018
 40
0.2500000000000013
 40
0.2500000000000013
 40
0.3750000000000003
 40
0.3750000000000003
 40
0.4375000000000013
 40
0.4375000000000013
 40
0.5000000000000023
 40
0.5000000000000023
 40
0.6250000000000017
 40
0.6250000000000017
 40
0.6875000000000013
 40
0.6875000000000013
 40
0.7500000000000011
 40
0.7500000000000011
 40
0.8125000000000008
 40
0.8125000000000008
 40
0.8750000000000006
 40
0.8750000000000006
 40
1.0
 40
1.0
 40
1.0
 40
1.0
 10
70.10399999999998
 20
0.1960645983982161
 30
0.0
 10
70.4405424559852
 20
-0.0570137255867635
 30
0.0
 10
70.76907910793696
 20
-0.310358634500858
 30
0.0
 10
71.26062995940205
 20
-0.67681425810364
 30
0.0
 10
71.42427259887643
 20
-0.7966856820658705
 30
0.0
 10
71.7525925391507
 20
-1.029774676991515
 30
0.0
 10
71.9177011581028
 20
-1.143227245588626
 30
0.0
 10
72.40578173703005
 20
-1.462292126300895
 30
0.0
 10
72.72453051348256
 20
-1.650578904216488
 30
0.0
 10
73.20629601836637
 20
-1.872549972957493
 30
0.0
 10
73.36683645348941
 20
-1.935866810208928
 30
0.0
 10
73.6821362453064
 20
-2.034041891397628
 30
0.0
 10
73.83795089752047
 20
-2.069484084830954
 30
0.0
 10
74.30308969255643
 20
-2.125468906706111
 30
0.0
 10
74.6055817789696
 20
-2.094816885223707
 30
0.0
 10
75.02207159406208
 20
-1.897859337855706
 30
0.0
 10
75.15178655895059
 20
-1.808796313424033
 30
0.0
 10
75.3924777140007
 20
-1.575872915346615
 30
0.0
 10
75.49912783979457
 20
-1.435525600828804
 30
0.0
 10
75.67985969271743
 20
-1.112827389196895
 30
0.0
 10
75.75416607631149
 20
-0.9285490004753072
 30
0.0
 10
75.86191712108294
 20
-0.5416399773179705
 30
0.0
 10
75.89683510130746
 20
-0.3342504961338122
 30
0.0
 10
75.94506539976751
 20
0.2874084064602656
 30
0.0
 10
75.90470536926074
 20
0.7142852865491349
 30
0.0
 10
75.81112999113239
 20
1.124442491793808
 30
0.0
  0
SPLINE
  5
622
330
1F
100
AcDbEntity
  8
외형선
  6
Continuous
 62
     1
370
    15
100
AcDbSpline
210
0.0
220
0.0
230
1.0
 70
     8
 71
     3
 72
    15
 73
    11
 74
     0
 42
0.000000001
 43
0.00000001
 40
0.0
 40
0.0
 40
0.0
 40
0.0
 40
0.1473894274329836
 40
0.2947789977009856
 40
0.4421686982500299
 40
0.5895585165221021
 40
0.7244229918648424
 40
0.8592953771476337
 40
0.9941791196809415
 40
1.0
 40
1.0
 40
1.0
 40
1.0
 10
70.10400000000001
 20
0.196064598398209
 30
0.0
 10
69.46645138584645
 20
0.6752809430344371
 30
0.0
 10
68.19135353969133
 20
1.633714096715224
 30
0.0
 10
66.27869363532974
 20
2.984697019104054
 30
0.0
 10
64.36607754974219
 20
4.183988957473836
 30
0.0
 10
62.50747104554927
 20
5.138088849828819
 30
0.0
 10
60.7035948180955
 20
5.833745867469069
 30
0.0
 10
58.95361176481308
 20
6.226738816870807
 30
0.0
 10
57.76175813578439
 20
6.391365921153294
 30
0.0
 10
57.15318537522356
 20
6.346229969588869
 30
0.0
 10
57.1280090225718
 20
6.344362717704627
 30
0.0
  0
SPLINE
  5
623
330
1F
100
AcDbEntity
  8
외형선
  6
Continuous
 62
     1
370
    15
100
AcDbSpline
210
0.0
220
0.0
230
1.0
 70
     8
 71
     3
 72
    18
 73
    14
 74
     0
 42
0.000000001
 43
0.00000001
 40
0.0
 40
0.0
 40
0.0
 40
0.0
 40
0.0143044504944684
 40
0.114453445607913
 40
0.2146072136952768
 40
0.3147683184075988
 40
0.4126586683426693
 40
0.5105706915774774
 40
0.6084928353097374
 40
0.7063923328524083
 40
0.8042730927796471
 40
0.9021405080590297
 40
0.9999999999999999
 40
0.9999999999999999
 40
0.9999999999999999
 40
0.9999999999999999
 10
39.95126069296521
 20
-2.85472617776918
 30
0.0
 10
39.86795437169911
 20
-2.912933407397951
 30
0.0
 10
39.20139989527837
 20
-3.378663845129928
 30
0.0
 10
37.95155961596939
 20
-4.137096407936951
 30
0.0
 10
36.20168461055584
 20
-5.06110371515642
 30
0.0
 10
34.46490266488701
 20
-5.751627699212982
 30
0.0
 10
32.74119612565011
 20
-6.198803714033083
 30
0.0
 10
31.03036680648722
 20
-6.387368597332717
 30
0.0
 10
29.31939339693415
 20
-6.31371502236761
 30
0.0
 10
27.60879093038636
 20
-5.981558653743761
 30
0.0
 10
25.89859691566645
 20
-5.401065947841815
 30
0.0
 10
24.18871310299821
 20
-4.609502516685239
 30
0.0
 10
23.04888898703132
 20
-3.92936338752493
 30
0.0
 10
22.44541240959518
 20
-3.570861760757992
 30
0.0
  0
SPLINE
  5
625
330
1F
100
AcDbEntity
  8
외형선
  6
Continuous
 62
     1
370
    15
100
AcDbSpline
210
0.0
220
0.0
230
1.0
 70
     8
 71
     3
 72
     8
 73
     4
 74
     0
 42
0.000000001
 43
0.00000001
 40
0.0
 40
0.0
 40
0.0
 40
0.0
 40
1.0
 40
1.0
 40
1.0
 40
1.0
 10
72.76530470622734
 20
2.126209411386817
 30
0.0
 10
72.76123101333772
 20
2.115856766469925
 30
0.0
 10
72.75707815872758
 20
2.105558312928927
 30
0.0
 10
72.75284576821002
 20
2.095314306919207
 30
0.0
  0
ARC
  5
627
330
1F
100
AcDbEntity
  8
외형선
  6
Continuous
 62
     1
370
    15
100
AcDbCircle
 10
74.28346588588249
 20
-0.5654940011512579
 30
0.0
 40
2.278078788961356
100
AcDbArc
 50
20.27376719500985
 51
47.88713656150559
  0
ARC
  5
628
330
1F
100
AcDbEntity
  8
외형선
  6
Continuous
 62
     1
370
    15
100
AcDbCircle
 10
70.41284825402377
 20
0.010912687985936
 30
0.0
 40
6.011337603877105
100
AcDbArc
 50
2.03022416950544
 51
27.3407839017303
  0
LINE
  5
629
330
1F
100
AcDbEntity
  8
중심선
 62
     1
100
AcDbLine
 10
-56.72100000000006
 20
-0.0000000000000071
 30
0.0
 11
79.41447704110712
 21
-0.0000000000000071
 31
0.0
  0
CIRCLE
  5
62A
330
1F
100
AcDbEntity
  8
해칭선
100
AcDbCircle
 10
-0.0000000000000284
 20
-0.0010749287239022
 30
0.0
 40
2.999999999999987
  0
INSERT
  5
62B
330
1F
100
AcDbEntity
  8
0
  6
Continuous
 62
     7
100
AcDbBlockReference
 66
     1
  2
블럭10
 10
16.77856935798708
 20
-51.64209979651802
 30
0.0
  0
ATTRIB
  5
62C
330
62B
100
AcDbEntity
  8
FORMAT
 62
     2
100
AcDbText
 10
8.389064033087251
 20
-49.56673288368584
 30
0.0
 40
4.233333333333333
  1
EI971032 [ 2 FLUTE ]
 41
0.75
  7
SLDTEXTSTYLE0
 11
8.389064033087251
 21
-51.68339955035251
 31
0.0
100
AcDbAttribute
  2
AUTOATTR0
 70
     0
 74
     1
  0
SEQEND
  5
62D
330
62B
100
AcDbEntity
  8
0
  6
Continuous
 62
     7
  0
HATCH
  5
62E
330
1F
100
AcDbEntity
  8
중심선
100
AcDbHatch
 10
0.0
 20
0.0
 30
0.0
210
0.0
220
0.0
230
1.0
  2
SOLID
 70
     1
 71
     0
 91
        1
 92
        0
 93
        4
 72
     1
 10
22.49347866236793
 20
-35.39492549487409
 11
19.04720341853066
 21
-35.39492549487409
 72
     1
 10
19.04720341853066
 20
-35.39492549487409
 11
16.91897355932663
 21
-37.9312510754467
 72
     1
 10
16.91897355932663
 20
-37.9312510754467
 11
20.36528188827706
 21
-37.93121164614421
 72
     1
 10
20.36528188827707
 20
-37.93121164614421
 11
22.49347866236794
 21
-35.39492549487409
 97
        0
 75
     0
 76
     1
 98
        1
 10
56.89400357991046
 20
0.3687437603138264
  0
HATCH
  5
62F
330
1F
100
AcDbEntity
  8
중심선
100
AcDbHatch
 10
0.0
 20
0.0
 30
0.0
210
0.0
220
0.0
230
1.0
  2
SOLID
 70
     1
 71
     0
 91
        1
 92
        0
 93
        4
 72
     1
 10
27.5062426534039
 20
-35.39492549487409
 11
24.05996740956662
 21
-35.39492549487409
 72
     1
 10
24.05996740956661
 20
-35.39492549487409
 11
19.52882940120922
 21
-40.79492549487411
 72
     1
 10
19.52882940120922
 20
-40.79492549487411
 11
22.97510464504651
 21
-40.79492549487411
 72
     1
 10
22.9751046450465
 20
-40.79492549487411
 11
27.50624265340389
 21
-35.39492549487409
 97
        0
 75
     0
 76
     1
 98
        1
 10
56.89400357991046
 20
0.3687437603138264
  0
HATCH
  5
630
330
1F
100
AcDbEntity
  8
중심선
100
AcDbHatch
 10
0.0
 20
0.0
 30
0.0
210
0.0
220
0.0
230
1.0
  2
SOLID
 70
     1
 71
     0
 91
        1
 92
        0
 93
        4
 72
     1
 10
32.51900664443981
 20
-35.39492549487409
 11
29.0727314006027
 21
-35.39492549487409
 72
     1
 10
29.07273140060271
 20
-35.39492549487409
 11
22.02429449871343
 21
-43.79492549487411
 72
     1
 10
22.02429449871342
 20
-43.79492549487411
 11
25.4705697425507
 21
-43.79492549487411
 72
     1
 10
25.47056974255071
 20
-43.79492549487411
 11
32.51900664443982
 21
-35.39492549487409
 97
        0
 75
     0
 76
     1
 98
        1
 10
56.89400357991046
 20
0.3687437603138264
  0
HATCH
  5
631
330
1F
100
AcDbEntity
  8
중심선
100
AcDbHatch
 10
0.0
 20
0.0
 30
0.0
210
0.0
220
0.0
230
1.0
  2
SOLID
 70
     1
 71
     0
 91
        1
 92
        0
 93
        6
 72
     3
 10
37.318897075452
 20
-39.59492549492537
 11
3.960054785062255
 21
1.540882976769353E-10
 40
0.3939339440162656
 50
17.09539180608454
 51
320.0019657685076
 73
     0
 72
     1
 10
39.00189673115254
 20
-38.1828194995124
 11
41.30719860485361
 21
-36.24849278946445
 72
     3
 10
37.31889707539914
 20
-39.59492549487425
 11
6.600054785286829
 21
-1.278976924368180E-13
 40
0.636358354079598
 50
39.99873849337424
 51
368.4976242363723
 73
     1
 72
     1
 10
43.74422956729977
 20
-38.63492549480412
 11
35.99896438223508
 21
-38.63492549480412
 72
     1
 10
35.99896438223506
 20
-38.63492549480412
 11
35.99893933778912
 21
-40.55492549480401
 72
     1
 10
35.99893933778914
 20
-40.55492549480401
 11
40.44031910726117
 21
-40.55492549480399
 97
        0
 75
     0
 76
     1
 98
        1
 10
56.89400357991046
 20
0.3687437603138264
  0
DIMENSION
  5
633
330
1F
100
AcDbEntity
  8
치수문자_일반주서
100
AcDbDimension
  2
*D33
 10
-66.72100000000007
 20
-6.350000000000048
 30
0.0
 11
-66.72100000000017
 21
25.20399999999994
 31
0.0
 70
   160
  1
%%c<>
 71
     2
 42
12.69999999999999
 52
-270.0
  3
SLDDIMSTYLE1
100
AcDbAlignedDimension
 13
-52.91100000000003
 23
6.349999999999994
 33
0.0
 14
-52.91100000000003
 24
-6.349999999999994
 34
0.0
 50
90.0000000000002
100
AcDbRotatedDimension
1001
PE_URL
1000

1001
ACAD
1000
DSTYLE
1002
{
1070
   171
1070
     6
1070
   273
1070
     7
1002
}
1001
ACAD_DSTYLE_DIMFLIPARROW_SYMBOL
1070
   385
1070
     0
1001
ACAD_DSTYLE_DIMFLIPARROW_WHICH_SYMBOL
1070
   386
1070
     3
  0
INSERT
  5
637
330
1F
100
AcDbEntity
  8
해칭선
100
AcDbBlockReference
  2
SW_DOWELSYMBOL_0
 10
-0.0000000000000284
 20
-0.0010749287239022
 30
0.0
  0
DIMENSION
  5
677
330
1F
100
AcDbEntity
  8
치수문자_일반주서
100
AcDbDimension
  2
*D37
 10
92.88925463711803
 20
6.349999999999993
 30
0.0
 11
90.26425463711803
 21
25.20399999999999
 31
0.0
 70
    32
  1
{%%c<>[]}
 71
     5
 42
12.7
  3
SLDDIMSTYLE1
100
AcDbAlignedDimension
 13
76.42041240959514
 23
-6.350000000000001
 33
0.0
 14
76.42041240959514
 24
6.349999999999994
 34
0.0
 50
90.0
100
AcDbRotatedDimension
1001
PE_URL
1000

1001
ACAD
1000
DSTYLE
1002
{
1070
   283
1070
     1
1070
   170
1070
     1
1070
   171
1070
     6
1070
   273
1070
     7
1002
}
  0
ARC
  5
68A
330
1F
100
AcDbEntity
  8
외형선
  6
Continuous
 62
     1
370
    15
100
AcDbCircle
 10
70.07041240959515
 20
-0.0000000000000071
 30
0.0
 40
6.35
100
AcDbArc
 50
270.0
 51
90.0
1001
PE_URL
1000

  0
SPLINE
  5
68C
330
1F
100
AcDbEntity
  8
외형선
  6
Continuous
 62
     1
370
    15
100
AcDbSpline
210
0.0
220
0.0
230
1.0
 70
     8
 71
     3
 72
     9
 73
     5
 74
     0
 42
0.000000001
 43
0.0000000001
 40
0.0
 40
0.0
 40
0.0
 40
0.0
 40
2.23206477043517
 40
5.870134249971638
 40
5.870134249971638
 40
5.870134249971638
 40
5.870134249971638
 10
70.07041240959515
 20
6.349999999999991
 30
0.0
 10
69.3585507928627
 20
6.12661824616055
 30
0.0
 10
67.48641728089174
 20
5.539143858588913
 30
0.0
 10
65.7857736029622
 20
4.567252839043205
 30
0.0
 10
64.74972104384364
 20
3.924706505217234
 30
0.0
1001
PE_URL
1000

  0
SPLINE
  5
68D
330
1F
100
AcDbEntity
  8
외형선
  6
Continuous
 62
     1
370
    15
100
AcDbSpline
210
0.0
220
0.0
230
1.0
 70
  1064
 71
     3
 72
    11
 73
     7
 74
     5
 42
0.000000001
 43
0.0000000001
 44
0.0
 40
0.0
 40
0.0
 40
0.0
 40
0.0
 40
2.084922624565833
 40
7.55054485772908
 40
13.40199047047486
 40
18.14302424723614
 40
18.14302424723614
 40
18.14302424723614
 40
18.14302424723614
 10
70.07041240959515
 20
-6.350000000000009
 30
0.0
 10
69.39013944426694
 20
-6.173093733338589
 30
0.0
 10
66.92653169226186
 20
-5.532427894567423
 30
0.0
 10
63.81355112425719
 20
-2.028271601257161
 30
0.0
 10
59.84918683669596
 20
1.477365770356258
 30
0.0
 10
57.05854844181029
 20
3.653535284833715
 30
0.0
 10
55.80950084847856
 20
4.627555888764855
 30
0.0
 11
70.07041240959515
 21
-6.350000000000009
 31
0.0
 11
68.08371265097091
 21
-5.717602641127549
 31
0.0
 11
63.86463359273142
 21
-2.243066946106786
 31
0.0
 11
59.52146397395546
 21
1.678194766845223
 31
0.0
 11
55.80950084847856
 21
4.627555888764855
 31
0.0
1001
PE_URL
1000

  0
SPLINE
  5
68E
330
1F
100
AcDbEntity
  8
외형선
  6
Continuous
 62
     1
370
    15
100
AcDbSpline
210
0.0
220
0.0
230
1.0
 70
  1064
 71
     3
 72
     9
 73
     5
 74
     3
 42
0.000000001
 43
0.0000000001
 44
0.0
 40
0.0
 40
0.0
 40
0.0
 40
0.0
 40
1.567713371836187
 40
6.590341859012565
 40
6.590341859012565
 40
6.590341859012565
 40
6.590341859012565
 10
72.76530470386712
 20
2.12620941193267
 30
0.0
 10
73.25402281361158
 20
2.470938448210605
 30
0.0
 10
75.30849238296537
 20
3.920107817186895
 30
0.0
 10
72.33589048351371
 20
5.299067694625647
 30
0.0
 10
70.07041240959515
 20
6.349999999999991
 30
0.0
 11
72.76530470386712
 21
2.12620941193267
 31
0.0
 11
73.94699163631847
 21
3.156423569235747
 31
0.0
 11
70.07041240959515
 21
6.349999999999991
 31
0.0
1001
PE_URL
1000

  0
DIMENSION
  5
690
330
1F
100
AcDbEntity
  8
치수문자_일반주서
100
AcDbDimension
  2
*D38
 10
22.44541240959515
 20
41.22575439831355
 30
0.0
 11
49.43291240959515
 21
43.85075439831355
 31
0.0
 70
    32
 71
     5
 42
53.97499999999999
  3
SLDDIMSTYLE1
100
AcDbAlignedDimension
 13
76.42041240959514
 23
6.349999999999994
 33
0.0
 14
22.44541240959515
 24
6.338823447446629
 34
0.0
100
AcDbRotatedDimension
1001
ACAD
1000
DSTYLE
1002
{
1070
   171
1070
     6
1070
   273
1070
     7
1002
}
1001
PE_URL
1000

  0
DIMENSION
  5
6A0
330
1F
100
AcDbEntity
  8
치수문자_일반주서
100
AcDbDimension
  2
*D39
 10
0.2539999999999907
 20
66.60169424698796
 30
0.0
 11
38.33720620479757
 21
69.22669424698796
 31
0.0
 70
    32
 71
     5
 42
76.16641240959515
  3
SLDDIMSTYLE1
100
AcDbAlignedDimension
 13
76.42041240959514
 23
6.349999999999994
 33
0.0
 14
0.2539999999999907
 24
6.095999999999997
 34
0.0
100
AcDbRotatedDimension
1001
ACAD
1000
DSTYLE
1002
{
1070
   171
1070
     6
1070
   273
1070
     7
1002
}
1001
PE_URL
1000

  0
DIMENSION
  5
6B0
330
1F
100
AcDbEntity
  8
치수문자_일반주서
100
AcDbDimension
  2
*D40
 10
-53.72100000000003
 20
83.6786577036498
 30
0.0
 11
11.34970620479756
 21
86.3036577036498
 31
0.0
 70
    32
 71
     5
 42
130.1414124095952
  3
SLDDIMSTYLE1
100
AcDbAlignedDimension
 13
76.42041240959514
 23
6.349999999999994
 33
0.0
 14
-53.72100000000003
 24
5.539999999999992
 34
0.0
100
AcDbRotatedDimension
1001
ACAD
1000
DSTYLE
1002
{
1070
   171
1070
     6
1070
   273
1070
     7
1002
}
  0
LINE
  5
6C0
330
1F
100
AcDbEntity
  8
외형선
  6
Continuous
370
    15
100
AcDbLine
 10
22.44541240959515
 20
6.349999999999952
 30
0.0
 11
22.44541240959515
 21
-6.082114697595067
 31
0.0
1001
PE_URL
1000

  0
ENDSEC
  0
SECTION
  2
OBJECTS
  0
DICTIONARY
  5
C
330
0
100
AcDbDictionary
281
     1
  3
ACAD_DETAILVIEWSTYLE
350
2E5
  3
ACAD_GROUP
350
D
  3
ACAD_IMAGE_VARS
350
6E8
  3
ACAD_LAYOUT
350
1A
  3
ACAD_MLINESTYLE
350
17
  3
ACAD_PLOTSETTINGS
350
19
  3
ACAD_PLOTSTYLENAME
350
E
  3
ACAD_SCALELIST
350
47
  3
ACAD_SECTIONVIEWSTYLE
350
2E6
  3
AcDbVariableDictionary
350
2E0
  3
APPDATA
350
158
  3
DWGPROPS
350
6E9
  0
DICTIONARY
  5
2E5
102
{ACAD_REACTORS
330
C
102
}
330
C
100
AcDbDictionary
281
     1
  0
DICTIONARY
  5
D
102
{ACAD_REACTORS
330
C
102
}
330
C
100
AcDbDictionary
281
     1
  0
RASTERVARIABLES
  5
6E8
102
{ACAD_REACTORS
330
C
102
}
330
C
100
AcDbRasterVariables
 90
        0
 70
     1
 71
     1
 72
     1
  0
DICTIONARY
  5
1A
102
{ACAD_REACTORS
330
C
102
}
330
C
100
AcDbDictionary
281
     1
  3
Layout1
350
1E
  3
Layout2
350
26
  3
Model
350
22
  0
DICTIONARY
  5
17
102
{ACAD_REACTORS
330
C
102
}
330
C
100
AcDbDictionary
281
     1
  3
Standard
350
18
  0
DICTIONARY
  5
19
102
{ACAD_REACTORS
330
C
102
}
330
C
100
AcDbDictionary
281
     1
  0
ACDBDICTIONARYWDFLT
  5
E
102
{ACAD_REACTORS
330
C
102
}
330
C
100
AcDbDictionary
281
     1
  3
Normal
350
F
100
AcDbDictionaryWithDefault
340
F
  0
DICTIONARY
  5
47
102
{ACAD_REACTORS
330
C
102
}
330
C
100
AcDbDictionary
281
     1
  3
A0
350
48
  3
A1
350
49
  3
A2
350
4A
  3
A3
350
4B
  3
A4
350
4C
  3
A5
350
4D
  3
A6
350
4E
  3
A7
350
4F
  3
A8
350
50
  3
A9
350
51
  3
B0
350
52
  3
B1
350
53
  3
B2
350
54
  3
B3
350
55
  3
B4
350
56
  3
B5
350
57
  3
B6
350
58
  3
B7
350
59
  3
B8
350
5A
  3
B9
350
5B
  3
C0
350
5C
  3
C1
350
5D
  3
C2
350
5E
  3
C3
350
5F
  3
C4
350
60
  3
C5
350
61
  3
C6
350
62
  3
C7
350
63
  3
C8
350
64
  3
C9
350
65
  3
D0
350
66
  3
D1
350
67
  3
D2
350
68
  0
DICTIONARY
  5
2E6
102
{ACAD_REACTORS
330
C
102
}
330
C
100
AcDbDictionary
281
     1
  0
DICTIONARY
  5
2E0
102
{ACAD_REACTORS
330
C
102
}
330
C
100
AcDbDictionary
281
     1
  0
DICTIONARY
  5
158
102
{ACAD_REACTORS
330
C
102
}
330
C
100
AcDbDictionary
281
     1
  0
XRECORD
  5
6E9
102
{ACAD_REACTORS
330
C
102
}
330
C
100
AcDbXrecord
280
     1
  1
DWGPROPS COOKIE
  2

  3

  4

  6

  7

  8
12016016
  9

300
=
301
=
302
=
303
=
304
=
305
=
306
=
307
=
308
=
309
=
 40
0.0
 41
2458270.259505486
 42
2458275.065466065
  1

 90
        0
  0
LAYOUT
  5
1E
102
{ACAD_REACTORS
330
1A
102
}
330
1A
100
AcDbPlotSettings
  1

  2
none_device
  4

  6

 40
0.0
 41
0.0
 42
0.0
 43
0.0
 44
0.0
 45
0.0
 46
0.0
 47
0.0
 48
0.0
 49
0.0
140
0.0
141
0.0
142
1.0
143
1.0
 70
   688
 72
     1
 73
     0
 74
     5
  7

 75
    16
147
1.0
148
0.0
149
0.0
100
AcDbLayout
  1
Layout1
 70
     1
 71
     1
 10
0.0
 20
0.0
 11
420.0
 21
297.0
 12
0.0
 22
0.0
 32
0.0
 14
1.000000000000000E+20
 24
1.000000000000000E+20
 34
1.000000000000000E+20
 15
-1.000000000000000E+20
 25
-1.000000000000000E+20
 35
-1.000000000000000E+20
146
0.0
 13
0.0
 23
0.0
 33
0.0
 16
1.0
 26
0.0
 36
0.0
 17
0.0
 27
1.0
 37
0.0
 76
     0
330
1B
  0
LAYOUT
  5
26
102
{ACAD_REACTORS
330
1A
102
}
330
1A
100
AcDbPlotSettings
  1

  2
none_device
  4

  6

 40
0.0
 41
0.0
 42
0.0
 43
0.0
 44
0.0
 45
0.0
 46
0.0
 47
0.0
 48
0.0
 49
0.0
140
0.0
141
0.0
142
1.0
143
1.0
 70
   688
 72
     1
 73
     0
 74
     5
  7

 75
    16
147
1.0
148
0.0
149
0.0
100
AcDbLayout
  1
Layout2
 70
     1
 71
     2
 10
0.0
 20
0.0
 11
0.0
 21
0.0
 12
0.0
 22
0.0
 32
0.0
 14
0.0
 24
0.0
 34
0.0
 15
0.0
 25
0.0
 35
0.0
146
0.0
 13
0.0
 23
0.0
 33
0.0
 16
1.0
 26
0.0
 36
0.0
 17
0.0
 27
1.0
 37
0.0
 76
     0
330
23
  0
LAYOUT
  5
22
102
{ACAD_REACTORS
330
1A
102
}
330
1A
100
AcDbPlotSettings
  1

  2
none_device
  4
ANSI_A_(11.00_x_8.50_Inches)
  6

 40
6.35
 41
19.05
 42
6.35000508
 43
19.05000254
 44
279.4
 45
215.9
 46
86.17177212924734
 47
101.2914543987717
 48
0.0
 49
0.0
140
0.0
141
0.0
142
0.0736400973839136
143
1.0
 70
  1696
 72
     0
 73
     0
 74
     0
  7

 75
     0
147
0.0235690232323232
148
0.0
149
0.0
100
AcDbLayout
  1
Model
 70
     1
 71
     0
 10
0.0
 20
0.0
 11
420.0
 21
297.0
 12
0.0
 22
0.0
 32
0.0
 14
-71.0960000000001
 24
-49.56673288368584
 34
0.0
 15
99.1635088153456
 25
88.0536577036498
 35
0.0
146
0.0
 13
0.0
 23
0.0
 33
0.0
 16
1.0
 26
0.0
 36
0.0
 17
0.0
 27
1.0
 37
0.0
 76
     0
330
1F
331
29
  0
MLINESTYLE
  5
18
102
{ACAD_REACTORS
330
17
102
}
330
17
100
AcDbMlineStyle
  2
Standard
 70
     0
  3

 62
   256
 51
90.0
 52
90.0
 71
     2
 49
0.5
 62
   256
  6
BYLAYER
 49
-0.5
 62
   256
  6
BYLAYER
  0
ACDBPLACEHOLDER
  5
F
102
{ACAD_REACTORS
330
E
102
}
330
E
  0
SCALE
  5
48
102
{ACAD_REACTORS
330
47
102
}
330
47
100
AcDbScale
 70
     0
300
1:1
140
1.0
141
1.0
290
     1
  0
SCALE
  5
49
102
{ACAD_REACTORS
330
47
102
}
330
47
100
AcDbScale
 70
     0
300
1:2
140
1.0
141
2.0
290
     0
  0
SCALE
  5
4A
102
{ACAD_REACTORS
330
47
102
}
330
47
100
AcDbScale
 70
     0
300
1:4
140
1.0
141
4.0
290
     0
  0
SCALE
  5
4B
102
{ACAD_REACTORS
330
47
102
}
330
47
100
AcDbScale
 70
     0
300
1:5
140
1.0
141
5.0
290
     0
  0
SCALE
  5
4C
102
{ACAD_REACTORS
330
47
102
}
330
47
100
AcDbScale
 70
     0
300
1:8
140
1.0
141
8.0
290
     0
  0
SCALE
  5
4D
102
{ACAD_REACTORS
330
47
102
}
330
47
100
AcDbScale
 70
     0
300
1:10
140
1.0
141
10.0
290
     0
  0
SCALE
  5
4E
102
{ACAD_REACTORS
330
47
102
}
330
47
100
AcDbScale
 70
     0
300
1:16
140
1.0
141
16.0
290
     0
  0
SCALE
  5
4F
102
{ACAD_REACTORS
330
47
102
}
330
47
100
AcDbScale
 70
     0
300
1:20
140
1.0
141
20.0
290
     0
  0
SCALE
  5
50
102
{ACAD_REACTORS
330
47
102
}
330
47
100
AcDbScale
 70
     0
300
1:30
140
1.0
141
30.0
290
     0
  0
SCALE
  5
51
102
{ACAD_REACTORS
330
47
102
}
330
47
100
AcDbScale
 70
     0
300
1:40
140
1.0
141
40.0
290
     0
  0
SCALE
  5
52
102
{ACAD_REACTORS
330
47
102
}
330
47
100
AcDbScale
 70
     0
300
1:50
140
1.0
141
50.0
290
     0
  0
SCALE
  5
53
102
{ACAD_REACTORS
330
47
102
}
330
47
100
AcDbScale
 70
     0
300
1:100
140
1.0
141
100.0
290
     0
  0
SCALE
  5
54
102
{ACAD_REACTORS
330
47
102
}
330
47
100
AcDbScale
 70
     0
300
2:1
140
2.0
141
1.0
290
     0
  0
SCALE
  5
55
102
{ACAD_REACTORS
330
47
102
}
330
47
100
AcDbScale
 70
     0
300
4:1
140
4.0
141
1.0
290
     0
  0
SCALE
  5
56
102
{ACAD_REACTORS
330
47
102
}
330
47
100
AcDbScale
 70
     0
300
8:1
140
8.0
141
1.0
290
     0
  0
SCALE
  5
57
102
{ACAD_REACTORS
330
47
102
}
330
47
100
AcDbScale
 70
     0
300
10:1
140
10.0
141
1.0
290
     0
  0
SCALE
  5
58
102
{ACAD_REACTORS
330
47
102
}
330
47
100
AcDbScale
 70
     0
300
100:1
140
100.0
141
1.0
290
     0
  0
SCALE
  5
59
102
{ACAD_REACTORS
330
47
102
}
330
47
100
AcDbScale
 70
     0
300
1/128" = 1'-0"
140
0.0078125
141
12.0
290
     0
  0
SCALE
  5
5A
102
{ACAD_REACTORS
330
47
102
}
330
47
100
AcDbScale
 70
     0
300
1/64" = 1'-0"
140
0.015625
141
12.0
290
     0
  0
SCALE
  5
5B
102
{ACAD_REACTORS
330
47
102
}
330
47
100
AcDbScale
 70
     0
300
1/32" = 1'-0"
140
0.03125
141
12.0
290
     0
  0
SCALE
  5
5C
102
{ACAD_REACTORS
330
47
102
}
330
47
100
AcDbScale
 70
     0
300
1/16" = 1'-0"
140
0.0625
141
12.0
290
     0
  0
SCALE
  5
5D
102
{ACAD_REACTORS
330
47
102
}
330
47
100
AcDbScale
 70
     0
300
3/32" = 1'-0"
140
0.09375
141
12.0
290
     0
  0
SCALE
  5
5E
102
{ACAD_REACTORS
330
47
102
}
330
47
100
AcDbScale
 70
     0
300
1/8" = 1'-0"
140
0.125
141
12.0
290
     0
  0
SCALE
  5
5F
102
{ACAD_REACTORS
330
47
102
}
330
47
100
AcDbScale
 70
     0
300
3/16" = 1'-0"
140
0.1875
141
12.0
290
     0
  0
SCALE
  5
60
102
{ACAD_REACTORS
330
47
102
}
330
47
100
AcDbScale
 70
     0
300
1/4" = 1'-0"
140
0.25
141
12.0
290
     0
  0
SCALE
  5
61
102
{ACAD_REACTORS
330
47
102
}
330
47
100
AcDbScale
 70
     0
300
3/8" = 1'-0"
140
0.375
141
12.0
290
     0
  0
SCALE
  5
62
102
{ACAD_REACTORS
330
47
102
}
330
47
100
AcDbScale
 70
     0
300
1/2" = 1'-0"
140
0.5
141
12.0
290
     0
  0
SCALE
  5
63
102
{ACAD_REACTORS
330
47
102
}
330
47
100
AcDbScale
 70
     0
300
3/4" = 1'-0"
140
0.75
141
12.0
290
     0
  0
SCALE
  5
64
102
{ACAD_REACTORS
330
47
102
}
330
47
100
AcDbScale
 70
     0
300
1" = 1'-0"
140
1.0
141
12.0
290
     0
  0
SCALE
  5
65
102
{ACAD_REACTORS
330
47
102
}
330
47
100
AcDbScale
 70
     0
300
1-1/2" = 1'-0"
140
1.5
141
12.0
290
     0
  0
SCALE
  5
66
102
{ACAD_REACTORS
330
47
102
}
330
47
100
AcDbScale
 70
     0
300
3" = 1'-0"
140
3.0
141
12.0
290
     0
  0
SCALE
  5
67
102
{ACAD_REACTORS
330
47
102
}
330
47
100
AcDbScale
 70
     0
300
6" = 1'-0"
140
6.0
141
12.0
290
     0
  0
SCALE
  5
68
102
{ACAD_REACTORS
330
47
102
}
330
47
100
AcDbScale
 70
     0
300
1'-0" = 1'-0"
140
12.0
141
12.0
290
     0
  0
ENDSEC
  0
EOF
