  0
SECTION
  2
HEADER
  9
$ACADVER
  1
AC1015
  9
$ACADMAINTVER
 70
     6
  9
$DWGCODEPAGE
  3
ANSI_949
  9
$INSBASE
 10
0.0
 20
0.0
 30
0.0
  9
$EXTMIN
 10
-67.92100000000009
 20
-52.24791837920936
 30
0.0
  9
$EXTMAX
 10
99.16350881534561
 20
46.50765000803185
 30
0.0
  9
$LIMMIN
 10
0.0
 20
0.0
  9
$LIMMAX
 10
420.0
 20
297.0
  9
$ORTHOMODE
 70
     0
  9
$REGENMODE
 70
     1
  9
$FILLMODE
 70
     1
  9
$QTEXTMODE
 70
     0
  9
$MIRRTEXT
 70
     1
  9
$LTSCALE
 40
1.0
  9
$ATTMODE
 70
     1
  9
$TEXTSIZE
 40
3.5
  9
$TRACEWID
 40
1.0
  9
$TEXTSTYLE
  7
Standard
  9
$CLAYER
  8
0
  9
$CELTYPE
  6
ByLayer
  9
$CECOLOR
 62
   256
  9
$CELTSCALE
 40
1.0
  9
$DISPSILH
 70
     0
  9
$DIMSCALE
 40
1.0
  9
$DIMASZ
 40
3.302
  9
$DIMEXO
 40
1.0
  9
$DIMDLI
 40
3.75
  9
$DIMRND
 40
0.0
  9
$DIMDLE
 40
0.0
  9
$DIMEXE
 40
1.0
  9
$DIMTP
 40
0.0
  9
$DIMTM
 40
0.0
  9
$DIMTXT
 40
3.5
  9
$DIMCEN
 40
2.5
  9
$DIMTSZ
 40
0.0
  9
$DIMTOL
 70
     0
  9
$DIMLIM
 70
     0
  9
$DIMTIH
 70
     1
  9
$DIMTOH
 70
     1
  9
$DIMSE1
 70
     0
  9
$DIMSE2
 70
     0
  9
$DIMTAD
 70
     1
  9
$DIMZIN
 70
     0
  9
$DIMBLK
  1

  9
$DIMASO
 70
     1
  9
$DIMSHO
 70
     1
  9
$DIMPOST
  1

  9
$DIMAPOST
  1

  9
$DIMALT
 70
     0
  9
$DIMALTD
 70
     3
  9
$DIMALTF
 40
0.0393700787401575
  9
$DIMLFAC
 40
1.0
  9
$DIMTOFL
 70
     1
  9
$DIMTVP
 40
0.0
  9
$DIMTIX
 70
     0
  9
$DIMSOXD
 70
     0
  9
$DIMSAH
 70
     0
  9
$DIMBLK1
  1

  9
$DIMBLK2
  1

  9
$DIMSTYLE
  2
ISO-25
  9
$DIMCLRD
 70
     0
  9
$DIMCLRE
 70
     0
  9
$DIMCLRT
 70
     0
  9
$DIMTFAC
 40
1.0
  9
$DIMGAP
 40
1.524
  9
$DIMJUST
 70
     0
  9
$DIMSD1
 70
     0
  9
$DIMSD2
 70
     0
  9
$DIMTOLJ
 70
     0
  9
$DIMTZIN
 70
     0
  9
$DIMALTZ
 70
     0
  9
$DIMALTTZ
 70
     0
  9
$DIMUPT
 70
     0
  9
$DIMDEC
 70
     2
  9
$DIMTDEC
 70
     2
  9
$DIMALTU
 70
     2
  9
$DIMALTTD
 70
     3
  9
$DIMTXSTY
  7
Standard
  9
$DIMAUNIT
 70
     0
  9
$DIMADEC
 70
     2
  9
$DIMALTRND
 40
0.0
  9
$DIMAZIN
 70
     0
  9
$DIMDSEP
 70
    44
  9
$DIMATFIT
 70
     3
  9
$DIMFRAC
 70
     0
  9
$DIMLDRBLK
  1

  9
$DIMLUNIT
 70
     2
  9
$DIMLWD
 70
    -2
  9
$DIMLWE
 70
    -2
  9
$DIMTMOVE
 70
     0
  9
$LUNITS
 70
     2
  9
$LUPREC
 70
     2
  9
$SKETCHINC
 40
1.0
  9
$FILLETRAD
 40
10.0
  9
$AUNITS
 70
     0
  9
$AUPREC
 70
     2
  9
$MENU
  1
.
  9
$ELEVATION
 40
0.0
  9
$PELEVATION
 40
0.0
  9
$THICKNESS
 40
0.0
  9
$LIMCHECK
 70
     0
  9
$CHAMFERA
 40
0.0
  9
$CHAMFERB
 40
0.0
  9
$CHAMFERC
 40
0.0
  9
$CHAMFERD
 40
0.0
  9
$SKPOLY
 70
     0
  9
$TDCREATE
 40
2458270.634505486
  9
$TDUCREATE
 40
2458270.259505486
  9
$TDUPDATE
 40
2458275.440624132
  9
$TDUUPDATE
 40
2458275.065624132
  9
$TDINDWG
 40
0.0156641898
  9
$TDUSRTIMER
 40
2458275.065498565
  9
$USRTIMER
 70
     1
  9
$ANGBASE
 50
0.0
  9
$ANGDIR
 70
     0
  9
$PDMODE
 70
     0
  9
$PDSIZE
 40
-1.0
  9
$PLINEWID
 40
0.0
  9
$SPLFRAME
 70
     0
  9
$SPLINETYPE
 70
     6
  9
$SPLINESEGS
 70
     8
  9
$HANDSEED
  5
BDF
  9
$SURFTAB1
 70
     6
  9
$SURFTAB2
 70
     6
  9
$SURFTYPE
 70
     6
  9
$SURFU
 70
     6
  9
$SURFV
 70
     6
  9
$UCSBASE
  2

  9
$UCSNAME
  2

  9
$UCSORG
 10
0.0
 20
0.0
 30
0.0
  9
$UCSXDIR
 10
1.0
 20
0.0
 30
0.0
  9
$UCSYDIR
 10
0.0
 20
1.0
 30
0.0
  9
$UCSORTHOREF
  2

  9
$UCSORTHOVIEW
 70
     0
  9
$UCSORGTOP
 10
0.0
 20
0.0
 30
0.0
  9
$UCSORGBOTTOM
 10
0.0
 20
0.0
 30
0.0
  9
$UCSORGLEFT
 10
0.0
 20
0.0
 30
0.0
  9
$UCSORGRIGHT
 10
0.0
 20
0.0
 30
0.0
  9
$UCSORGFRONT
 10
0.0
 20
0.0
 30
0.0
  9
$UCSORGBACK
 10
0.0
 20
0.0
 30
0.0
  9
$PUCSBASE
  2

  9
$PUCSNAME
  2

  9
$PUCSORG
 10
0.0
 20
0.0
 30
0.0
  9
$PUCSXDIR
 10
1.0
 20
0.0
 30
0.0
  9
$PUCSYDIR
 10
0.0
 20
1.0
 30
0.0
  9
$PUCSORTHOREF
  2

  9
$PUCSORTHOVIEW
 70
     0
  9
$PUCSORGTOP
 10
0.0
 20
0.0
 30
0.0
  9
$PUCSORGBOTTOM
 10
0.0
 20
0.0
 30
0.0
  9
$PUCSORGLEFT
 10
0.0
 20
0.0
 30
0.0
  9
$PUCSORGRIGHT
 10
0.0
 20
0.0
 30
0.0
  9
$PUCSORGFRONT
 10
0.0
 20
0.0
 30
0.0
  9
$PUCSORGBACK
 10
0.0
 20
0.0
 30
0.0
  9
$USERI1
 70
     0
  9
$USERI2
 70
     0
  9
$USERI3
 70
     0
  9
$USERI4
 70
     0
  9
$USERI5
 70
     0
  9
$USERR1
 40
0.0
  9
$USERR2
 40
0.0
  9
$USERR3
 40
0.0
  9
$USERR4
 40
0.0
  9
$USERR5
 40
0.0
  9
$WORLDVIEW
 70
     1
  9
$SHADEDGE
 70
     3
  9
$SHADEDIF
 70
    70
  9
$TILEMODE
 70
     1
  9
$MAXACTVP
 70
    64
  9
$PINSBASE
 10
0.0
 20
0.0
 30
0.0
  9
$PLIMCHECK
 70
     0
  9
$PEXTMIN
 10
1.000000000000000E+20
 20
1.000000000000000E+20
 30
1.000000000000000E+20
  9
$PEXTMAX
 10
-1.000000000000000E+20
 20
-1.000000000000000E+20
 30
-1.000000000000000E+20
  9
$PLIMMIN
 10
0.0
 20
0.0
  9
$PLIMMAX
 10
0.0
 20
0.0
  9
$UNITMODE
 70
     0
  9
$VISRETAIN
 70
     1
  9
$PLINEGEN
 70
     0
  9
$PSLTSCALE
 70
     1
  9
$TREEDEPTH
 70
  3020
  9
$CMLSTYLE
  2
Standard
  9
$CMLJUST
 70
     0
  9
$CMLSCALE
 40
20.0
  9
$PROXYGRAPHICS
 70
     1
  9
$MEASUREMENT
 70
     1
  9
$CELWEIGHT
370
    -1
  9
$ENDCAPS
280
     0
  9
$JOINSTYLE
280
     0
  9
$LWDISPLAY
290
     1
  9
$INSUNITS
 70
     4
  9
$HYPERLINKBASE
  1

  9
$STYLESHEET
  1

  9
$XEDIT
290
     1
  9
$CEPSNTYPE
380
     0
  9
$PSTYLEMODE
290
     1
  9
$FINGERPRINTGUID
  2
{0CBA276D-93A1-4B21-A2E7-F2339FD7F036}
  9
$VERSIONGUID
  2
{FAEB1C32-E019-11D5-929B-00C0DF256EC4}
  9
$EXTNAMES
290
     1
  9
$PSVPSCALE
 40
0.0
  9
$OLESTARTUP
290
     0
  0
ENDSEC
  0
SECTION
  2
CLASSES
  0
CLASS
  1
ACDBDICTIONARYWDFLT
  2
AcDbDictionaryWithDefault
  3
ObjectDBX Classes
 90
        0
280
     0
281
     0
  0
CLASS
  1
VISUALSTYLE
  2
AcDbVisualStyle
  3
ObjectDBX Classes
 90
     4095
280
     0
281
     0
  0
CLASS
  1
MATERIAL
  2
AcDbMaterial
  3
ObjectDBX Classes
 90
     1153
280
     0
281
     0
  0
CLASS
  1
SCALE
  2
AcDbScale
  3
ObjectDBX Classes
 90
     1153
280
     0
281
     0
  0
CLASS
  1
SUN
  2
AcDbSun
  3
SCENEOE
 90
     1153
280
     0
281
     0
  0
CLASS
  1
ACDBPLACEHOLDER
  2
AcDbPlaceHolder
  3
ObjectDBX Classes
 90
        0
280
     0
281
     0
  0
CLASS
  1
LAYOUT
  2
AcDbLayout
  3
ObjectDBX Classes
 90
        0
280
     0
281
     0
  0
CLASS
  1
TABLESTYLE
  2
AcDbTableStyle
  3
ObjectDBX Classes
 90
     4095
280
     0
281
     0
  0
CLASS
  1
MLEADERSTYLE
  2
AcDbMLeaderStyle
  3
ACDB_MLEADERSTYLE_CLASS
 90
     4095
280
     0
281
     0
  0
CLASS
  1
DICTIONARYVAR
  2
AcDbDictionaryVar
  3
ObjectDBX Classes
 90
        0
280
     0
281
     0
  0
CLASS
  1
DIMASSOC
  2
AcDbDimAssoc
  3
"AcDbDimAssoc|Product Desc:     AcDim ARX App For Dimension|Company:          Autodesk, Inc.|WEB Address:      www.autodesk.com"
 90
        0
280
     0
281
     0
  0
CLASS
  1
RASTERVARIABLES
  2
AcDbRasterVariables
  3
ISM
 90
        0
280
     0
281
     0
  0
ENDSEC
  0
SECTION
  2
TABLES
  0
TABLE
  2
VPORT
  5
8
330
0
100
AcDbSymbolTable
 70
     1
  0
VPORT
  5
29
330
8
100
AcDbSymbolTableRecord
100
AcDbViewportTableRecord
  2
*Active
 70
     0
 10
0.0
 20
0.0
 11
1.0
 21
1.0
 12
1.775112654795564
 22
-6.609895714255671
 13
0.0
 23
0.0
 14
10.0
 24
10.0
 15
10.0
 25
10.0
 16
0.0
 26
0.0
 36
1.0
 17
0.0
 27
0.0
 37
0.0
 40
141.8254672459686
 41
1.515444015444015
 42
50.0
 43
0.0
 44
0.0
 50
0.0
 51
0.0
 71
    16
 72
  2000
 73
     1
 74
     3
 75
     0
 76
     0
 77
     0
 78
     0
281
     0
 65
     1
110
0.0
120
0.0
130
0.0
111
1.0
121
0.0
131
0.0
112
0.0
122
1.0
132
0.0
 79
     0
146
0.0
  0
ENDTAB
  0
TABLE
  2
LTYPE
  5
5
330
0
100
AcDbSymbolTable
 70
     6
  0
LTYPE
  5
14
330
5
100
AcDbSymbolTableRecord
100
AcDbLinetypeTableRecord
  2
ByBlock
 70
     0
  3

 72
    65
 73
     0
 40
0.0
  0
LTYPE
  5
15
330
5
100
AcDbSymbolTableRecord
100
AcDbLinetypeTableRecord
  2
ByLayer
 70
     0
  3

 72
    65
 73
     0
 40
0.0
  0
LTYPE
  5
16
330
5
100
AcDbSymbolTableRecord
100
AcDbLinetypeTableRecord
  2
Continuous
 70
     0
  3
Solid line
 72
    65
 73
     0
 40
0.0
  0
LTYPE
  5
6A
330
5
100
AcDbSymbolTableRecord
100
AcDbLinetypeTableRecord
  2
HIDDEN
 70
     0
  3
Hidden __ __ __ __ __ __ __ __ __ __ __ __ __ __
 72
    65
 73
     2
 40
1.905
 49
1.27
 74
     0
 49
-0.635
 74
     0
  0
LTYPE
  5
6B
330
5
100
AcDbSymbolTableRecord
100
AcDbLinetypeTableRecord
  2
PHANTOM
 70
     0
  3
Phantom ______  __  __  ______  __  __  ______
 72
    65
 73
     6
 40
12.7
 49
6.35
 74
     0
 49
-1.27
 74
     0
 49
1.27
 74
     0
 49
-1.27
 74
     0
 49
1.27
 74
     0
 49
-1.27
 74
     0
  0
LTYPE
  5
6C
330
5
100
AcDbSymbolTableRecord
100
AcDbLinetypeTableRecord
  2
CENTER
 70
     0
  3
Center ____ _ ____ _ ____ _ ____ _ ____ _ ____
 72
    65
 73
     4
 40
10.16
 49
6.35
 74
     0
 49
-1.27
 74
     0
 49
1.27
 74
     0
 49
-1.27
 74
     0
  0
LTYPE
  5
6D
330
5
100
AcDbSymbolTableRecord
100
AcDbLinetypeTableRecord
  2
CENTERX2
 70
     0
  3
Center (2x) ________  __  ________  __  _____
 72
    65
 73
     4
 40
20.32
 49
12.7
 74
     0
 49
-2.54
 74
     0
 49
2.54
 74
     0
 49
-2.54
 74
     0
  0
LTYPE
  5
6E
330
5
100
AcDbSymbolTableRecord
100
AcDbLinetypeTableRecord
  2
DOT2
 70
     0
  3
Dot (.5x) ........................................
 72
    65
 73
     2
 40
0.635
 49
0.0
 74
     0
 49
-0.635
 74
     0
  0
ENDTAB
  0
TABLE
  2
LAYER
  5
2
330
0
100
AcDbSymbolTable
 70
    18
  0
LAYER
  5
10
330
2
100
AcDbSymbolTableRecord
100
AcDbLayerTableRecord
  2
0
 70
     0
 62
     7
  6
Continuous
370
    -3
390
F
  0
LAYER
  5
6F
330
2
100
AcDbSymbolTableRecord
100
AcDbLayerTableRecord
  2
FORMAT
 70
     0
 62
     2
  6
Continuous
370
    -3
390
F
  0
LAYER
  5
70
330
2
100
AcDbSymbolTableRecord
100
AcDbLayerTableRecord
  2
외형선
 70
     0
 62
     4
  6
Continuous
370
    30
390
F
  0
LAYER
  5
71
330
2
100
AcDbSymbolTableRecord
100
AcDbLayerTableRecord
  2
숨은선
 70
     0
 62
     2
  6
HIDDEN
370
    15
390
F
  0
LAYER
  5
72
330
2
100
AcDbSymbolTableRecord
100
AcDbLayerTableRecord
  2
중심선
 70
     0
 62
     1
  6
CENTERX2
370
    -3
390
F
  0
LAYER
  5
73
330
2
100
AcDbSymbolTableRecord
100
AcDbLayerTableRecord
  2
파단선
 70
     0
 62
     4
  6
Continuous
370
    -3
390
F
  0
LAYER
  5
74
330
2
100
AcDbSymbolTableRecord
100
AcDbLayerTableRecord
  2
해칭선
 70
     0
 62
   100
  6
Continuous
370
    -3
390
F
  0
LAYER
  5
75
330
2
100
AcDbSymbolTableRecord
100
AcDbLayerTableRecord
  2
가는실선
 70
     0
 62
     4
  6
Continuous
370
    -3
390
F
  0
LAYER
  5
76
330
2
100
AcDbSymbolTableRecord
100
AcDbLayerTableRecord
  2
치수_보조선
 70
     0
 62
     4
  6
Continuous
370
    -3
390
F
  0
LAYER
  5
77
330
2
100
AcDbSymbolTableRecord
100
AcDbLayerTableRecord
  2
치수문자_일반주서
 70
     0
 62
     7
  6
Continuous
370
    15
390
F
  0
LAYER
  5
78
330
2
100
AcDbSymbolTableRecord
100
AcDbLayerTableRecord
  2
개별주서
 70
     0
 62
   100
  6
Continuous
370
    30
390
F
  0
LAYER
  5
79
330
2
100
AcDbSymbolTableRecord
100
AcDbLayerTableRecord
  2
중간선
 70
     0
 62
     2
  6
Continuous
370
    15
390
F
  0
LAYER
  5
7A
330
2
100
AcDbSymbolTableRecord
100
AcDbLayerTableRecord
  2
윤곽선
 70
     0
 62
     3
  6
Continuous
370
    40
390
F
  0
LAYER
  5
7B
330
2
100
AcDbSymbolTableRecord
100
AcDbLayerTableRecord
  2
중심마크
 70
     0
 62
   100
  6
Continuous
370
    30
390
F
  0
LAYER
  5
7C
330
2
100
AcDbSymbolTableRecord
100
AcDbLayerTableRecord
  2
가상선
 70
     0
 62
     4
  6
PHANTOM
370
    -3
390
F
  0
LAYER
  5
7D
330
2
100
AcDbSymbolTableRecord
100
AcDbLayerTableRecord
  2
특수지정선
 70
     0
 62
     5
  6
CENTERX2
370
    60
390
F
  0
LAYER
  5
7E
330
2
100
AcDbSymbolTableRecord
100
AcDbLayerTableRecord
  2
참조1
 70
     0
 62
    -4
  6
Continuous
370
    -3
390
F
  0
LAYER
  5
159
330
2
100
AcDbSymbolTableRecord
100
AcDbLayerTableRecord
  2
Defpoints
 70
     0
 62
     7
  6
Continuous
290
     0
370
    -3
390
F
  0
ENDTAB
  0
TABLE
  2
STYLE
  5
3
330
0
100
AcDbSymbolTable
 70
     2
  0
STYLE
  5
11
330
3
100
AcDbSymbolTableRecord
100
AcDbTextStyleTableRecord
  2
Standard
 70
     0
 40
0.0
 41
1.0
 50
0.0
 71
     0
 42
3.5
  3
txt
  4

  0
STYLE
  5
94
330
3
100
AcDbSymbolTableRecord
100
AcDbTextStyleTableRecord
  2
SLDTEXTSTYLE0
 70
     0
 40
0.0
 41
0.75
 50
0.0
 71
     0
 42
3.5
  3
TXT
  4

  0
ENDTAB
  0
TABLE
  2
VIEW
  5
6
330
0
100
AcDbSymbolTable
 70
     0
  0
ENDTAB
  0
TABLE
  2
UCS
  5
7
330
0
100
AcDbSymbolTable
 70
     0
  0
ENDTAB
  0
TABLE
  2
APPID
  5
9
330
0
100
AcDbSymbolTable
 70
     3
  0
APPID
  5
12
330
9
100
AcDbSymbolTableRecord
100
AcDbRegAppTableRecord
  2
ACAD
 70
     0
  0
APPID
  5
15C
330
9
100
AcDbSymbolTableRecord
100
AcDbRegAppTableRecord
  2
PE_URL
 70
     0
  0
APPID
  5
68F
330
9
100
AcDbSymbolTableRecord
100
AcDbRegAppTableRecord
  2
PE_DIMMEASUREMENT
 70
     0
  0
ENDTAB
  0
TABLE
  2
DIMSTYLE
  5
A
330
0
100
AcDbSymbolTable
 70
     4
100
AcDbDimStyleTable
  0
DIMSTYLE
105
27
330
A
100
AcDbSymbolTableRecord
100
AcDbDimStyleTableRecord
  2
ISO-25
 70
     0
 41
2.5
 42
0.625
 43
3.75
 44
1.25
 73
     0
 74
     0
 77
     1
 78
     8
140
2.5
141
2.5
143
0.03937007874016
147
0.625
171
     3
172
     1
178
     0
271
     2
272
     2
274
     3
278
    44
283
     0
284
     8
340
11
  0
DIMSTYLE
105
D8
102
{ACAD_REACTORS
102
}
330
A
100
AcDbSymbolTableRecord
100
AcDbDimStyleTableRecord
  2
SLDDIMSTYLE0
 70
     0
 41
3.302
 44
0.0
 45
0.000000001
 73
     0
 74
     0
 77
     1
 78
     4
 79
     1
140
3.5
143
0.0393700787401575
147
0.875
148
0.000000001
170
     1
173
     1
178
     0
271
     2
272
     2
276
     2
284
    12
340
94
  0
DIMSTYLE
105
EC
102
{ACAD_REACTORS
330
B46
330
B47
330
B45
330
B8A
330
B9A
102
}
330
A
100
AcDbSymbolTableRecord
100
AcDbDimStyleTableRecord
  2
SLDDIMSTYLE1
 70
     0
 41
3.302
 44
0.0
 45
0.000000001
 73
     0
 74
     0
 77
     1
 78
    12
 79
     3
140
3.5
143
0.0393700787401575
147
0.875
148
0.000000001
170
     1
172
     1
173
     1
178
     0
271
     2
272
     2
276
     2
284
    12
289
     0
340
94
  0
DIMSTYLE
105
866
330
A
100
AcDbSymbolTableRecord
100
AcDbDimStyleTableRecord
  2
SLDDIMSTYLE2
 70
     0
 41
3.302
 44
0.0
 45
0.000000001
 73
     0
 74
     0
 77
     1
 78
     4
 79
     1
140
3.5
147
0.875
173
     1
178
     0
271
     2
272
     2
276
     2
284
    12
340
94
  0
ENDTAB
  0
TABLE
  2
BLOCK_RECORD
  5
1
330
0
100
AcDbSymbolTable
 70
    75
  0
BLOCK_RECORD
  5
1F
330
1
100
AcDbSymbolTableRecord
100
AcDbBlockTableRecord
  2
*Model_Space
340
22
  0
BLOCK_RECORD
  5
1B
330
1
100
AcDbSymbolTableRecord
100
AcDbBlockTableRecord
  2
*Paper_Space
340
1E
  0
BLOCK_RECORD
  5
23
330
1
100
AcDbSymbolTableRecord
100
AcDbBlockTableRecord
  2
*Paper_Space0
340
26
  0
BLOCK_RECORD
  5
7F
330
1
100
AcDbSymbolTableRecord
100
AcDbBlockTableRecord
  2
블럭10
340
0
102
{BLKREFS
331
B3D
102
}
  0
BLOCK_RECORD
  5
D9
330
1
100
AcDbSymbolTableRecord
100
AcDbBlockTableRecord
  2
_D
340
0
  0
BLOCK_RECORD
  5
ED
330
1
100
AcDbSymbolTableRecord
100
AcDbBlockTableRecord
  2
_D_1
340
0
  0
BLOCK_RECORD
  5
101
330
1
100
AcDbSymbolTableRecord
100
AcDbBlockTableRecord
  2
_D_2
340
0
  0
BLOCK_RECORD
  5
115
330
1
100
AcDbSymbolTableRecord
100
AcDbBlockTableRecord
  2
_D_3
340
0
  0
BLOCK_RECORD
  5
130
330
1
100
AcDbSymbolTableRecord
100
AcDbBlockTableRecord
  2
SW_DOWELSYMBOL_0
340
0
102
{BLKREFS
331
B49
102
}
  0
BLOCK_RECORD
  5
217
330
1
100
AcDbSymbolTableRecord
100
AcDbBlockTableRecord
  2
_D_4
340
0
  0
BLOCK_RECORD
  5
22C
330
1
100
AcDbSymbolTableRecord
100
AcDbBlockTableRecord
  2
*D8
340
0
  0
BLOCK_RECORD
  5
239
330
1
100
AcDbSymbolTableRecord
100
AcDbBlockTableRecord
  2
*D9
340
0
  0
BLOCK_RECORD
  5
246
330
1
100
AcDbSymbolTableRecord
100
AcDbBlockTableRecord
  2
*D10
340
0
  0
BLOCK_RECORD
  5
252
330
1
100
AcDbSymbolTableRecord
100
AcDbBlockTableRecord
  2
*D11
340
0
  0
BLOCK_RECORD
  5
29B
330
1
100
AcDbSymbolTableRecord
100
AcDbBlockTableRecord
  2
*D12
340
0
  0
BLOCK_RECORD
  5
2A8
330
1
100
AcDbSymbolTableRecord
100
AcDbBlockTableRecord
  2
*D13
340
0
  0
BLOCK_RECORD
  5
2B5
330
1
100
AcDbSymbolTableRecord
100
AcDbBlockTableRecord
  2
*D14
340
0
  0
BLOCK_RECORD
  5
2C1
330
1
100
AcDbSymbolTableRecord
100
AcDbBlockTableRecord
  2
*D15
340
0
  0
BLOCK_RECORD
  5
2CD
330
1
100
AcDbSymbolTableRecord
100
AcDbBlockTableRecord
  2
*D16
340
0
  0
BLOCK_RECORD
  5
3EB
330
1
100
AcDbSymbolTableRecord
100
AcDbBlockTableRecord
  2
*D17
340
0
  0
BLOCK_RECORD
  5
3F8
330
1
100
AcDbSymbolTableRecord
100
AcDbBlockTableRecord
  2
*D18
340
0
  0
BLOCK_RECORD
  5
405
330
1
100
AcDbSymbolTableRecord
100
AcDbBlockTableRecord
  2
*D19
340
0
  0
BLOCK_RECORD
  5
411
330
1
100
AcDbSymbolTableRecord
100
AcDbBlockTableRecord
  2
*D20
340
0
  0
BLOCK_RECORD
  5
41D
330
1
100
AcDbSymbolTableRecord
100
AcDbBlockTableRecord
  2
*D21
340
0
  0
BLOCK_RECORD
  5
466
330
1
100
AcDbSymbolTableRecord
100
AcDbBlockTableRecord
  2
*D22
340
0
  0
BLOCK_RECORD
  5
473
330
1
100
AcDbSymbolTableRecord
100
AcDbBlockTableRecord
  2
*D23
340
0
  0
BLOCK_RECORD
  5
480
330
1
100
AcDbSymbolTableRecord
100
AcDbBlockTableRecord
  2
*D24
340
0
  0
BLOCK_RECORD
  5
48C
330
1
100
AcDbSymbolTableRecord
100
AcDbBlockTableRecord
  2
*D25
340
0
  0
BLOCK_RECORD
  5
498
330
1
100
AcDbSymbolTableRecord
100
AcDbBlockTableRecord
  2
*D26
340
0
  0
BLOCK_RECORD
  5
5BC
330
1
100
AcDbSymbolTableRecord
100
AcDbBlockTableRecord
  2
*D27
340
0
  0
BLOCK_RECORD
  5
5C8
330
1
100
AcDbSymbolTableRecord
100
AcDbBlockTableRecord
  2
*D28
340
0
  0
BLOCK_RECORD
  5
5D4
330
1
100
AcDbSymbolTableRecord
100
AcDbBlockTableRecord
  2
*D29
340
0
  0
BLOCK_RECORD
  5
5E0
330
1
100
AcDbSymbolTableRecord
100
AcDbBlockTableRecord
  2
*D30
340
0
  0
BLOCK_RECORD
  5
5EC
330
1
100
AcDbSymbolTableRecord
100
AcDbBlockTableRecord
  2
*D31
340
0
  0
BLOCK_RECORD
  5
638
330
1
100
AcDbSymbolTableRecord
100
AcDbBlockTableRecord
  2
*D32
340
0
  0
BLOCK_RECORD
  5
644
330
1
100
AcDbSymbolTableRecord
100
AcDbBlockTableRecord
  2
*D33
340
0
  0
BLOCK_RECORD
  5
650
330
1
100
AcDbSymbolTableRecord
100
AcDbBlockTableRecord
  2
*D34
340
0
  0
BLOCK_RECORD
  5
65C
330
1
100
AcDbSymbolTableRecord
100
AcDbBlockTableRecord
  2
*D35
340
0
  0
BLOCK_RECORD
  5
668
330
1
100
AcDbSymbolTableRecord
100
AcDbBlockTableRecord
  2
*D36
340
0
  0
BLOCK_RECORD
  5
67A
330
1
100
AcDbSymbolTableRecord
100
AcDbBlockTableRecord
  2
*D37
340
0
  0
BLOCK_RECORD
  5
693
330
1
100
AcDbSymbolTableRecord
100
AcDbBlockTableRecord
  2
*D38
340
0
  0
BLOCK_RECORD
  5
6A3
330
1
100
AcDbSymbolTableRecord
100
AcDbBlockTableRecord
  2
*D39
340
0
  0
BLOCK_RECORD
  5
6B3
330
1
100
AcDbSymbolTableRecord
100
AcDbBlockTableRecord
  2
*D40
340
0
  0
BLOCK_RECORD
  5
782
330
1
100
AcDbSymbolTableRecord
100
AcDbBlockTableRecord
  2
*D41
340
0
  0
BLOCK_RECORD
  5
78E
330
1
100
AcDbSymbolTableRecord
100
AcDbBlockTableRecord
  2
*D42
340
0
  0
BLOCK_RECORD
  5
79A
330
1
100
AcDbSymbolTableRecord
100
AcDbBlockTableRecord
  2
*D43
340
0
  0
BLOCK_RECORD
  5
7A6
330
1
100
AcDbSymbolTableRecord
100
AcDbBlockTableRecord
  2
*D44
340
0
  0
BLOCK_RECORD
  5
7B2
330
1
100
AcDbSymbolTableRecord
100
AcDbBlockTableRecord
  2
*D45
340
0
  0
BLOCK_RECORD
  5
7FF
330
1
100
AcDbSymbolTableRecord
100
AcDbBlockTableRecord
  2
*D46
340
0
  0
BLOCK_RECORD
  5
80B
330
1
100
AcDbSymbolTableRecord
100
AcDbBlockTableRecord
  2
*D47
340
0
  0
BLOCK_RECORD
  5
817
330
1
100
AcDbSymbolTableRecord
100
AcDbBlockTableRecord
  2
*D48
340
0
  0
BLOCK_RECORD
  5
823
330
1
100
AcDbSymbolTableRecord
100
AcDbBlockTableRecord
  2
*D49
340
0
  0
BLOCK_RECORD
  5
82F
330
1
100
AcDbSymbolTableRecord
100
AcDbBlockTableRecord
  2
*D50
340
0
  0
BLOCK_RECORD
  5
847
330
1
100
AcDbSymbolTableRecord
100
AcDbBlockTableRecord
  2
*D51
340
0
  0
BLOCK_RECORD
  5
916
330
1
100
AcDbSymbolTableRecord
100
AcDbBlockTableRecord
  2
*D52
340
0
  0
BLOCK_RECORD
  5
923
330
1
100
AcDbSymbolTableRecord
100
AcDbBlockTableRecord
  2
*D53
340
0
  0
BLOCK_RECORD
  5
930
330
1
100
AcDbSymbolTableRecord
100
AcDbBlockTableRecord
  2
*D54
340
0
  0
BLOCK_RECORD
  5
93C
330
1
100
AcDbSymbolTableRecord
100
AcDbBlockTableRecord
  2
*D55
340
0
  0
BLOCK_RECORD
  5
948
330
1
100
AcDbSymbolTableRecord
100
AcDbBlockTableRecord
  2
*D56
340
0
  0
BLOCK_RECORD
  5
995
330
1
100
AcDbSymbolTableRecord
100
AcDbBlockTableRecord
  2
*D57
340
0
  0
BLOCK_RECORD
  5
9A2
330
1
100
AcDbSymbolTableRecord
100
AcDbBlockTableRecord
  2
*D58
340
0
  0
BLOCK_RECORD
  5
9AF
330
1
100
AcDbSymbolTableRecord
100
AcDbBlockTableRecord
  2
*D59
340
0
  0
BLOCK_RECORD
  5
9BB
330
1
100
AcDbSymbolTableRecord
100
AcDbBlockTableRecord
  2
*D60
340
0
  0
BLOCK_RECORD
  5
9C7
330
1
100
AcDbSymbolTableRecord
100
AcDbBlockTableRecord
  2
*D61
340
0
  0
BLOCK_RECORD
  5
9DF
330
1
100
AcDbSymbolTableRecord
100
AcDbBlockTableRecord
  2
*D62
340
0
  0
BLOCK_RECORD
  5
ACD
330
1
100
AcDbSymbolTableRecord
100
AcDbBlockTableRecord
  2
*D63
340
0
  0
BLOCK_RECORD
  5
AD9
330
1
100
AcDbSymbolTableRecord
100
AcDbBlockTableRecord
  2
*D64
340
0
  0
BLOCK_RECORD
  5
AE5
330
1
100
AcDbSymbolTableRecord
100
AcDbBlockTableRecord
  2
*D65
340
0
  0
BLOCK_RECORD
  5
AF1
330
1
100
AcDbSymbolTableRecord
100
AcDbBlockTableRecord
  2
*D66
340
0
  0
BLOCK_RECORD
  5
AFD
330
1
100
AcDbSymbolTableRecord
100
AcDbBlockTableRecord
  2
*D67
340
0
  0
BLOCK_RECORD
  5
B4A
330
1
100
AcDbSymbolTableRecord
100
AcDbBlockTableRecord
  2
*D68
340
0
  0
BLOCK_RECORD
  5
B56
330
1
100
AcDbSymbolTableRecord
100
AcDbBlockTableRecord
  2
*D69
340
0
  0
BLOCK_RECORD
  5
B62
330
1
100
AcDbSymbolTableRecord
100
AcDbBlockTableRecord
  2
*D70
340
0
  0
BLOCK_RECORD
  5
B6E
330
1
100
AcDbSymbolTableRecord
100
AcDbBlockTableRecord
  2
*D71
340
0
  0
BLOCK_RECORD
  5
B7A
330
1
100
AcDbSymbolTableRecord
100
AcDbBlockTableRecord
  2
*D72
340
0
  0
BLOCK_RECORD
  5
B8D
330
1
100
AcDbSymbolTableRecord
100
AcDbBlockTableRecord
  2
*D73
340
0
  0
BLOCK_RECORD
  5
B9D
330
1
100
AcDbSymbolTableRecord
100
AcDbBlockTableRecord
  2
*D74
340
0
  0
ENDTAB
  0
ENDSEC
  0
SECTION
  2
BLOCKS
  0
BLOCK
  5
20
330
1F
100
AcDbEntity
  8
0
100
AcDbBlockBegin
  2
*Model_Space
 70
     0
 10
0.0
 20
0.0
 30
0.0
  3
*Model_Space
  1
*Model_Space
  0
ENDBLK
  5
21
330
1F
100
AcDbEntity
  8
0
100
AcDbBlockEnd
  0
BLOCK
  5
1C
330
1B
100
AcDbEntity
 67
     1
  8
0
100
AcDbBlockBegin
  2
*Paper_Space
 70
     0
 10
0.0
 20
0.0
 30
0.0
  3
*Paper_Space
  1
*Paper_Space
  0
ENDBLK
  5
1D
330
1B
100
AcDbEntity
 67
     1
  8
0
100
AcDbBlockEnd
  0
BLOCK
  5
24
330
23
100
AcDbEntity
  8
0
100
AcDbBlockBegin
  2
*Paper_Space0
 70
     0
 10
0.0
 20
0.0
 30
0.0
  3
*Paper_Space0
  1
*Paper_Space0
  0
ENDBLK
  5
25
330
23
100
AcDbEntity
  8
0
100
AcDbBlockEnd
  0
BLOCK
  5
80
330
7F
100
AcDbEntity
  8
0
100
AcDbBlockBegin
  2
블럭10
 70
     2
 10
0.0
 20
0.0
 30
0.0
  3
블럭10
  1
블럭10
  0
ELLIPSE
  5
82
330
7F
100
AcDbEntity
  8
중심선
100
AcDbEllipse
 10
20.54032771741204
 20
12.0471743016438
 30
0.0
 11
6.600054785286829
 21
-1.261213355974178E-13
 31
0.0
210
0.0
220
0.0
230
1.0
 40
0.636358354079598
 41
0.9219305317359503
 42
6.513795318482858
  0
ELLIPSE
  5
83
330
7F
100
AcDbEntity
  8
중심선
100
AcDbEllipse
 10
20.54032771746488
 20
12.04717430159265
 30
0.0
 11
3.960054785062283
 21
1.540847449632565E-10
 31
0.0
210
0.0
220
0.0
230
1.0
 40
0.3939339440162632
 41
1.131841032648279
 42
5.62031148352944
  0
LINE
  5
84
330
7F
100
AcDbEntity
  8
중심선
100
AcDbLine
 10
2.268634060543552
 20
16.24717430164393
 30
0.0
 11
5.714909304380834
 21
16.24717430164393
 31
0.0
  0
LINE
  5
85
330
7F
100
AcDbEntity
  8
중심선
100
AcDbLine
 10
5.245725140726316
 20
7.84717430164391
 30
0.0
 11
8.692000384563599
 21
7.84717430164391
 31
0.0
  0
LINE
  5
86
330
7F
100
AcDbEntity
  8
중심선
100
AcDbLine
 10
15.74043728645272
 20
16.24717430164393
 30
0.0
 11
8.692000384563599
 21
7.84717430164391
 31
0.0
  0
LINE
  5
87
330
7F
100
AcDbEntity
  8
중심선
100
AcDbLine
 10
0.1404042013395286
 20
13.71084872107135
 30
0.0
 11
3.58671253028996
 21
13.71088815037384
 31
0.0
  0
LINE
  5
88
330
7F
100
AcDbEntity
  8
중심선
100
AcDbLine
 10
2.750260043222114
 20
10.84717430164391
 30
0.0
 11
6.196535287059397
 21
10.84717430164391
 31
0.0
  0
LINE
  5
89
330
7F
100
AcDbEntity
  8
중심선
100
AcDbLine
 10
12.29416204261559
 20
16.24717430164393
 30
0.0
 11
5.245725140726316
 21
7.84717430164391
 31
0.0
  0
LINE
  5
8A
330
7F
100
AcDbEntity
  8
중심선
100
AcDbLine
 10
10.72767329541681
 20
16.24717430164393
 30
0.0
 11
6.196535287059397
 21
10.84717430164391
 31
0.0
  0
LINE
  5
8B
330
7F
100
AcDbEntity
  8
중심선
100
AcDbLine
 10
7.28139805157953
 20
16.24717430164393
 30
0.0
 11
2.750260043222114
 21
10.84717430164391
 31
0.0
  0
LINE
  5
8C
330
7F
100
AcDbEntity
  8
중심선
100
AcDbLine
 10
5.714909304380834
 20
16.24717430164393
 30
0.0
 11
3.58671253028996
 21
13.71088815037384
 31
0.0
  0
LINE
  5
8D
330
7F
100
AcDbEntity
  8
중심선
100
AcDbLine
 10
2.268634060543552
 20
16.24717430164393
 30
0.0
 11
0.1404042013395286
 21
13.71084872107135
 31
0.0
  0
LINE
  5
8E
330
7F
100
AcDbEntity
  8
중심선
100
AcDbLine
 10
7.28139805157953
 20
16.24717430164393
 30
0.0
 11
10.72767329541681
 21
16.24717430164393
 31
0.0
  0
LINE
  5
8F
330
7F
100
AcDbEntity
  8
중심선
100
AcDbLine
 10
12.29416204261559
 20
16.24717430164393
 30
0.0
 11
15.74043728645272
 21
16.24717430164393
 31
0.0
  0
LINE
  5
90
330
7F
100
AcDbEntity
  8
중심선
100
AcDbLine
 10
19.22036997980202
 20
11.08717430171403
 30
0.0
 11
23.66174974927406
 21
11.08717430171406
 31
0.0
  0
LINE
  5
91
330
7F
100
AcDbEntity
  8
중심선
100
AcDbLine
 10
19.22039502424796
 20
13.00717430171391
 30
0.0
 11
19.22036997980202
 21
11.08717430171403
 31
0.0
  0
LINE
  5
92
330
7F
100
AcDbEntity
  8
중심선
100
AcDbLine
 10
19.22039502424796
 20
13.00717430171391
 30
0.0
 11
26.96566020931264
 21
13.00717430171391
 31
0.0
  0
LINE
  5
93
330
7F
100
AcDbEntity
  8
중심선
100
AcDbLine
 10
22.22332737316547
 20
13.45928029700563
 30
0.0
 11
24.52862924686651
 21
15.39360700705356
 31
0.0
  0
ATTDEF
  5
95
330
7F
100
AcDbEntity
  8
FORMAT
 62
     2
100
AcDbText
 10
5.200277315438102
 20
2.075366912832191
 30
0.0
 40
4.233333333333333
  1
EI107012
 41
0.75
  7
SLDTEXTSTYLE0
 11
5.200277315438102
 21
-0.0412997538344756
 31
0.0
100
AcDbAttributeDefinition
  3

  2
AUTOATTR0
 70
     0
 74
     1
  0
ENDBLK
  5
81
330
7F
100
AcDbEntity
  8
0
100
AcDbBlockEnd
  0
BLOCK
  5
DA
330
D9
100
AcDbEntity
  8
0
100
AcDbBlockBegin
  2
_D
 70
     0
 10
0.0
 20
0.0
 30
0.0
  3
_D
  1
_D
  0
LINE
  5
DC
330
D9
100
AcDbEntity
  8
치수문자_일반주서
 62
     0
370
    -2
100
AcDbLine
 10
-24.925
 20
1.944824928723889
 30
0.0
 11
-24.925
 21
26.67217117410937
 31
0.0
  0
LINE
  5
DD
330
D9
100
AcDbEntity
  8
치수문자_일반주서
 62
     0
370
    -2
100
AcDbLine
 10
25.875
 20
2.454239777376156
 30
0.0
 11
25.875
 21
26.67217117410937
 31
0.0
  0
LINE
  5
DE
330
D9
100
AcDbEntity
  8
치수문자_일반주서
 62
     0
370
    -2
100
AcDbLine
 10
-21.623
 20
26.67217117410937
 30
0.0
 11
22.573
 21
26.67217117410937
 31
0.0
  0
SOLID
  5
DF
330
D9
100
AcDbEntity
  8
치수문자_일반주서
 62
     0
100
AcDbTrace
 10
-21.623
 20
27.2225045074427
 30
0.0
 11
-21.623
 21
26.12183784077603
 31
0.0
 12
-24.925
 22
26.67217117410937
 32
0.0
 13
-24.925
 23
26.67217117410937
 33
0.0
  0
SOLID
  5
E0
330
D9
100
AcDbEntity
  8
치수문자_일반주서
 62
     0
100
AcDbTrace
 10
22.573
 20
26.12183784077603
 30
0.0
 11
22.573
 21
27.2225045074427
 31
0.0
 12
25.875
 22
26.67217117410937
 32
0.0
 13
25.875
 23
26.67217117410937
 33
0.0
  0
MTEXT
  5
E1
330
D9
100
AcDbEntity
  8
치수문자_일반주서
 62
     0
100
AcDbMText
 10
0.474999999999998
 20
31.04717117410937
 30
0.0
 40
3.5
 41
0.0
 71
     2
 72
     1
  1
\A1;50.8 [2]
  7
SLDTEXTSTYLE0
 73
     1
 44
1.0
  0
POINT
  5
E2
330
D9
100
AcDbEntity
  8
Defpoints
 62
     0
100
AcDbPoint
 10
-24.925
 20
1.882324928723889
 30
0.0
  0
POINT
  5
E3
330
D9
100
AcDbEntity
  8
Defpoints
 62
     0
100
AcDbPoint
 10
25.875
 20
2.391739777376156
 30
0.0
  0
POINT
  5
E4
330
D9
100
AcDbEntity
  8
Defpoints
 62
     0
100
AcDbPoint
 10
25.875
 20
26.67217117410937
 30
0.0
  0
ENDBLK
  5
DB
330
D9
100
AcDbEntity
  8
0
100
AcDbBlockEnd
  0
BLOCK
  5
EE
330
ED
100
AcDbEntity
  8
0
100
AcDbBlockBegin
  2
_D_1
 70
     0
 10
0.0
 20
0.0
 30
0.0
  3
_D_1
  1
_D_1
  0
LINE
  5
F0
330
ED
100
AcDbEntity
  8
치수문자_일반주서
 62
     0
370
    -2
100
AcDbLine
 10
25.875
 20
2.382324928723894
 30
0.0
 11
52.51087757850773
 21
2.382324928723992
 31
0.0
  0
LINE
  5
F1
330
ED
100
AcDbEntity
  8
치수문자_일반주서
 62
     0
370
    -2
100
AcDbLine
 10
25.875
 20
-2.380175071276109
 30
0.0
 11
52.51087757850775
 21
-2.38017507127601
 31
0.0
  0
LINE
  5
F2
330
ED
100
AcDbEntity
  8
치수문자_일반주서
 62
     0
370
    -2
100
AcDbLine
 10
52.51087757850773
 20
2.382324928723992
 30
0.0
 11
52.51087757850763
 21
36.98632492872399
 31
0.0
  0
LINE
  5
F3
330
ED
100
AcDbEntity
  8
치수문자_일반주서
 62
     0
370
    -2
100
AcDbLine
 10
52.51087757850773
 20
2.382324928723992
 30
0.0
 11
52.51087757850775
 21
-2.38017507127601
 31
0.0
  0
LINE
  5
F4
330
ED
100
AcDbEntity
  8
치수문자_일반주서
 62
     0
370
    -2
100
AcDbLine
 10
52.51087757850772
 20
5.684324928723992
 30
0.0
 11
52.51087757850772
 21
8.986324928723992
 31
0.0
  0
LINE
  5
F5
330
ED
100
AcDbEntity
  8
치수문자_일반주서
 62
     0
370
    -2
100
AcDbLine
 10
52.51087757850775
 20
-5.68217507127601
 30
0.0
 11
52.51087757850776
 21
-8.98417507127601
 31
0.0
  0
SOLID
  5
F6
330
ED
100
AcDbEntity
  8
치수문자_일반주서
 62
     0
100
AcDbTrace
 10
51.96054424517439
 20
5.68432492872399
 30
0.0
 11
53.06121091184106
 21
5.684324928723994
 31
0.0
 12
52.51087757850773
 22
2.382324928723992
 32
0.0
 13
52.51087757850773
 23
2.382324928723992
 33
0.0
  0
SOLID
  5
F7
330
ED
100
AcDbEntity
  8
치수문자_일반주서
 62
     0
100
AcDbTrace
 10
53.06121091184109
 20
-5.682175071276008
 30
0.0
 11
51.96054424517442
 21
-5.682175071276012
 31
0.0
 12
52.51087757850775
 22
-2.38017507127601
 32
0.0
 13
52.51087757850775
 23
-2.38017507127601
 33
0.0
  0
MTEXT
  5
F8
330
ED
100
AcDbEntity
  8
치수문자_일반주서
 62
     0
100
AcDbMText
 10
48.13587757850767
 20
22.98632492872398
 30
0.0
 40
3.5
 41
0.0
 71
     2
 72
     1
  1
\A1;%%c4.76 [3/16]
  7
SLDTEXTSTYLE0
 11
-2.983906501879684E-15
 21
1.0
 31
0.0
 73
     1
 44
1.0
  0
POINT
  5
F9
330
ED
100
AcDbEntity
  8
Defpoints
 62
     0
100
AcDbPoint
 10
25.8125
 20
2.382324928723894
 30
0.0
  0
POINT
  5
FA
330
ED
100
AcDbEntity
  8
Defpoints
 62
     0
100
AcDbPoint
 10
25.8125
 20
-2.380175071276109
 30
0.0
  0
POINT
  5
FB
330
ED
100
AcDbEntity
  8
Defpoints
 62
     0
100
AcDbPoint
 10
52.51087757850775
 20
-2.380175071276009
 30
0.0
  0
ENDBLK
  5
EF
330
ED
100
AcDbEntity
  8
0
100
AcDbBlockEnd
  0
BLOCK
  5
102
330
101
100
AcDbEntity
  8
0
100
AcDbBlockBegin
  2
_D_2
 70
     0
 10
0.0
 20
0.0
 30
0.0
  3
_D_2
  1
_D_2
  0
LINE
  5
104
330
101
100
AcDbEntity
  8
치수문자_일반주서
 62
     0
370
    -2
100
AcDbLine
 10
-24.48749999999999
 20
2.382324928723894
 30
0.0
 11
-37.92499999999997
 21
2.382324928723847
 31
0.0
  0
LINE
  5
105
330
101
100
AcDbEntity
  8
치수문자_일반주서
 62
     0
370
    -2
100
AcDbLine
 10
-24.48749999999999
 20
-2.380175071276109
 30
0.0
 11
-37.92499999999995
 21
-2.380175071276156
 31
0.0
  0
LINE
  5
106
330
101
100
AcDbEntity
  8
치수문자_일반주서
 62
     0
370
    -2
100
AcDbLine
 10
-37.92499999999997
 20
2.382324928723847
 30
0.0
 11
-37.92500000000008
 21
36.98632492872385
 31
0.0
  0
LINE
  5
107
330
101
100
AcDbEntity
  8
치수문자_일반주서
 62
     0
370
    -2
100
AcDbLine
 10
-37.92499999999997
 20
2.382324928723847
 30
0.0
 11
-37.92499999999995
 21
-2.380175071276156
 31
0.0
  0
LINE
  5
108
330
101
100
AcDbEntity
  8
치수문자_일반주서
 62
     0
370
    -2
100
AcDbLine
 10
-37.92499999999998
 20
5.684324928723846
 30
0.0
 11
-37.92499999999998
 21
8.986324928723846
 31
0.0
  0
LINE
  5
109
330
101
100
AcDbEntity
  8
치수문자_일반주서
 62
     0
370
    -2
100
AcDbLine
 10
-37.92499999999995
 20
-5.682175071276156
 30
0.0
 11
-37.92499999999994
 21
-8.984175071276155
 31
0.0
  0
SOLID
  5
10A
330
101
100
AcDbEntity
  8
치수문자_일반주서
 62
     0
100
AcDbTrace
 10
-38.47533333333331
 20
5.684324928723845
 30
0.0
 11
-37.37466666666664
 21
5.684324928723848
 31
0.0
 12
-37.92499999999997
 22
2.382324928723847
 32
0.0
 13
-37.92499999999997
 23
2.382324928723847
 33
0.0
  0
SOLID
  5
10B
330
101
100
AcDbEntity
  8
치수문자_일반주서
 62
     0
100
AcDbTrace
 10
-37.37466666666661
 20
-5.682175071276154
 30
0.0
 11
-38.47533333333328
 21
-5.682175071276157
 31
0.0
 12
-37.92499999999995
 22
-2.380175071276156
 32
0.0
 13
-37.92499999999995
 23
-2.380175071276156
 33
0.0
  0
MTEXT
  5
10C
330
101
100
AcDbEntity
  8
치수문자_일반주서
 62
     0
100
AcDbMText
 10
-42.30000000000003
 20
22.98632492872383
 30
0.0
 40
3.5
 41
0.0
 71
     2
 72
     1
  1
\A1;%%c4.76 [3/16]
  7
SLDTEXTSTYLE0
 11
-2.983906501879684E-15
 21
1.0
 31
0.0
 73
     1
 44
1.0
  0
POINT
  5
15D
330
101
100
AcDbEntity
  8
Defpoints
 62
     0
100
AcDbPoint
 10
-24.42499999999999
 20
2.382324928723894
 30
0.0
  0
POINT
  5
15E
330
101
100
AcDbEntity
  8
Defpoints
 62
     0
100
AcDbPoint
 10
-24.42499999999999
 20
-2.380175071276109
 30
0.0
  0
POINT
  5
15F
330
101
100
AcDbEntity
  8
Defpoints
 62
     0
100
AcDbPoint
 10
-37.92499999999996
 20
-2.380175071276156
 30
0.0
  0
ENDBLK
  5
103
330
101
100
AcDbEntity
  8
0
100
AcDbBlockEnd
  0
BLOCK
  5
116
330
115
100
AcDbEntity
  8
0
100
AcDbBlockBegin
  2
_D_3
 70
     0
 10
0.0
 20
0.0
 30
0.0
  3
_D_3
  1
_D_3
  0
LINE
  5
118
330
115
100
AcDbEntity
  8
치수문자_일반주서
 62
     0
370
    -2
100
AcDbLine
 10
25.875
 20
2.444824928723894
 30
0.0
 11
25.875
 21
13.80387532676639
 31
0.0
  0
LINE
  5
119
330
115
100
AcDbEntity
  8
치수문자_일반주서
 62
     0
370
    -2
100
AcDbLine
 10
9.999999999999995
 20
2.171201999844017
 30
0.0
 11
9.999999999999995
 21
13.80387532676639
 31
0.0
  0
LINE
  5
11A
330
115
100
AcDbEntity
  8
치수문자_일반주서
 62
     0
370
    -2
100
AcDbLine
 10
22.573
 20
13.80387532676639
 30
0.0
 11
13.30199999999999
 21
13.80387532676639
 31
0.0
  0
SOLID
  5
11B
330
115
100
AcDbEntity
  8
치수문자_일반주서
 62
     0
100
AcDbTrace
 10
22.573
 20
13.25354199343306
 30
0.0
 11
22.573
 21
14.35420866009973
 31
0.0
 12
25.875
 22
13.80387532676639
 32
0.0
 13
25.875
 23
13.80387532676639
 33
0.0
  0
SOLID
  5
11C
330
115
100
AcDbEntity
  8
치수문자_일반주서
 62
     0
100
AcDbTrace
 10
13.30199999999999
 20
14.35420866009973
 30
0.0
 11
13.30199999999999
 21
13.25354199343306
 31
0.0
 12
9.999999999999995
 22
13.80387532676639
 32
0.0
 13
9.999999999999995
 23
13.80387532676639
 33
0.0
  0
MTEXT
  5
11D
330
115
100
AcDbEntity
  8
치수문자_일반주서
 62
     0
100
AcDbMText
 10
18.4450217873033
 20
18.17887532676639
 30
0.0
 40
3.5
 41
0.0
 71
     2
 72
     1
  1
\A1;15.88 [5/8]
  7
SLDTEXTSTYLE0
 73
     1
 44
1.0
  0
POINT
  5
11E
330
115
100
AcDbEntity
  8
Defpoints
 62
     0
100
AcDbPoint
 10
25.875
 20
2.382324928723894
 30
0.0
  0
POINT
  5
11F
330
115
100
AcDbEntity
  8
Defpoints
 62
     0
100
AcDbPoint
 10
9.999999999999995
 20
2.108701999844017
 30
0.0
  0
POINT
  5
120
330
115
100
AcDbEntity
  8
Defpoints
 62
     0
100
AcDbPoint
 10
9.999999999999995
 20
13.80387532676639
 30
0.0
  0
ENDBLK
  5
117
330
115
100
AcDbEntity
  8
0
100
AcDbBlockEnd
  0
BLOCK
  5
131
330
130
100
AcDbEntity
  8
0
100
AcDbBlockBegin
  2
SW_DOWELSYMBOL_0
 70
     0
 10
0.0
 20
0.0
 30
0.0
  3
SW_DOWELSYMBOL_0
  1
SW_DOWELSYMBOL_0
  0
CIRCLE
  5
133
330
130
100
AcDbEntity
  8
해칭선
 62
     0
100
AcDbCircle
 10
0.0
 20
0.0
 30
0.0
 40
3.000000000000002
  0
HATCH
  5
134
330
130
100
AcDbEntity
  8
0
  6
Continuous
 62
     0
370
     0
100
AcDbHatch
 10
0.0
 20
0.0
 30
0.0
210
0.0
220
0.0
230
1.0
  2
SOLID
 70
     1
 71
     0
 91
        1
 92
        0
 93
        3
 72
     2
 10
0.0000000000000069
 20
0.0
 40
3.000000000000002
 50
0.0
 51
90.0
 73
     1
 72
     1
 10
0.0000000000000069
 20
3.000000000000002
 11
0.0000000000000069
 21
0.0
 72
     1
 10
0.0000000000000069
 20
0.0
 11
3.000000000000009
 21
0.0
 97
        0
 75
     0
 76
     1
 98
        1
 10
0.0
 20
0.0
  0
HATCH
  5
135
330
130
100
AcDbEntity
  8
0
  6
Continuous
 62
     0
370
     0
100
AcDbHatch
 10
0.0
 20
0.0
 30
0.0
210
0.0
220
0.0
230
1.0
  2
SOLID
 70
     1
 71
     0
 91
        1
 92
        0
 93
        3
 72
     2
 10
0.0000000000000069
 20
0.0
 40
3.000000000000002
 50
180.0
 51
270.0000000000007
 73
     1
 72
     1
 10
0.0000000000000069
 20
-3.000000000000002
 11
0.0000000000000069
 21
0.0
 72
     1
 10
0.0000000000000069
 20
0.0
 11
-2.999999999999995
 21
0.0
 97
        0
 75
     0
 76
     1
 98
        1
 10
0.0
 20
0.0
  0
ENDBLK
  5
132
330
130
100
AcDbEntity
  8
0
100
AcDbBlockEnd
  0
BLOCK
  5
218
330
217
100
AcDbEntity
  8
0
100
AcDbBlockBegin
  2
_D_4
 70
     0
 10
0.0
 20
0.0
 30
0.0
  3
_D_4
  1
_D_4
  0
LINE
  5
219
330
217
100
AcDbEntity
  8
치수문자_일반주서
 62
     0
370
    -2
100
AcDbLine
 10
118.7724046535982
 20
11.52145291206001
 30
0.0
 11
118.7724046535982
 21
47.42369709597183
 31
0.0
  0
LINE
  5
21A
330
217
100
AcDbEntity
  8
치수문자_일반주서
 62
     0
370
    -2
100
AcDbLine
 10
67.98500000000006
 20
13.74890000000002
 30
0.0
 11
67.98500000000006
 21
47.42369709597183
 31
0.0
  0
LINE
  5
21B
330
217
100
AcDbEntity
  8
치수문자_일반주서
 62
     0
370
    -2
100
AcDbLine
 10
115.4704046535982
 20
47.42369709597183
 30
0.0
 11
71.28700000000006
 21
47.42369709597183
 31
0.0
  0
SOLID
  5
21C
330
217
100
AcDbEntity
  8
치수문자_일반주서
 62
     0
100
AcDbTrace
 10
115.4704046535982
 20
46.8733637626385
 30
0.0
 11
115.4704046535982
 21
47.97403042930517
 31
0.0
 12
118.7724046535982
 22
47.42369709597183
 32
0.0
 13
118.7724046535982
 23
47.42369709597183
 33
0.0
  0
SOLID
  5
21D
330
217
100
AcDbEntity
  8
치수문자_일반주서
 62
     0
100
AcDbTrace
 10
71.28700000000006
 20
47.97403042930517
 30
0.0
 11
71.28700000000006
 21
46.8733637626385
 31
0.0
 12
67.98500000000006
 22
47.42369709597183
 32
0.0
 13
67.98500000000006
 23
47.42369709597183
 33
0.0
  0
MTEXT
  5
21E
330
217
100
AcDbEntity
  8
치수문자_일반주서
 62
     0
100
AcDbMText
 10
93.37870232679913
 20
51.79869709597183
 30
0.0
 40
3.5
 41
0.0
 71
     2
 72
     1
  1
\A1;50.79 [2]
  7
SLDTEXTSTYLE0
 73
     1
 44
1.0
  0
POINT
  5
21F
330
217
100
AcDbEntity
  8
Defpoints
 62
     0
100
AcDbPoint
 10
118.7724046535982
 20
11.45895291206001
 30
0.0
  0
POINT
  5
220
330
217
100
AcDbEntity
  8
Defpoints
 62
     0
100
AcDbPoint
 10
67.98500000000006
 20
13.68640000000002
 30
0.0
  0
POINT
  5
221
330
217
100
AcDbEntity
  8
Defpoints
 62
     0
100
AcDbPoint
 10
67.98500000000006
 20
47.42369709597183
 30
0.0
  0
ENDBLK
  5
222
330
217
100
AcDbEntity
  8
0
100
AcDbBlockEnd
  0
BLOCK
  5
22D
330
22C
100
AcDbEntity
  8
0
100
AcDbBlockBegin
  2
*D8
 70
     1
 10
0.0
 20
0.0
 30
0.0
  3
*D8
  1
*D8
  0
LINE
  5
22F
330
22C
100
AcDbEntity
  8
치수문자_일반주서
 62
     0
370
    -2
100
AcDbLine
 10
111.6005715097399
 20
13.75625000000002
 30
0.0
 11
123.3942867360312
 21
13.75625000000007
 31
0.0
  0
LINE
  5
230
330
22C
100
AcDbEntity
  8
치수문자_일반주서
 62
     0
370
    -2
100
AcDbLine
 10
111.6005715097399
 20
8.993750000000023
 30
0.0
 11
123.3942867360312
 21
8.993750000000068
 31
0.0
  0
LINE
  5
231
330
22C
100
AcDbEntity
  8
치수문자_일반주서
 62
     0
370
    -2
100
AcDbLine
 10
123.3942867360312
 20
17.05825000000007
 30
0.0
 11
123.3942867360312
 21
20.36025000000007
 31
0.0
  0
LINE
  5
232
330
22C
100
AcDbEntity
  8
치수문자_일반주서
 62
     0
370
    -2
100
AcDbLine
 10
123.3942867360312
 20
5.691750000000068
 30
0.0
 11
123.3942867360313
 21
2.389750000000068
 31
0.0
  0
SOLID
  5
233
330
22C
100
AcDbEntity
  8
치수문자_일반주서
 62
     0
100
AcDbTrace
 10
122.8439534026979
 20
17.05825000000007
 30
0.0
 11
123.9446200693645
 21
17.05825000000007
 31
0.0
 12
123.3942867360312
 22
13.75625000000007
 32
0.0
 13
123.3942867360312
 23
13.75625000000007
 33
0.0
  0
SOLID
  5
234
330
22C
100
AcDbEntity
  8
치수문자_일반주서
 62
     0
100
AcDbTrace
 10
123.9446200693646
 20
5.69175000000007
 30
0.0
 11
122.8439534026979
 21
5.691750000000066
 31
0.0
 12
123.3942867360312
 22
8.993750000000068
 32
0.0
 13
123.3942867360312
 23
8.993750000000068
 33
0.0
  0
MTEXT
  5
235
330
22C
100
AcDbEntity
  8
치수문자_일반주서
 62
     0
100
AcDbMText
 10
119.0192867360312
 20
11.37500000000001
 30
0.0
 40
3.5
 41
0.0
 71
     2
 72
     1
  1
\A1;%%c4.76 [1/4]
  7
SLDTEXTSTYLE0
 11
-2.983906501879686E-15
 21
1.0
 31
0.0
 73
     1
 44
1.0
  0
POINT
  5
236
330
22C
100
AcDbEntity
  8
Defpoints
 62
     0
100
AcDbPoint
 10
111.5380715097399
 20
13.75625000000002
 30
0.0
  0
POINT
  5
237
330
22C
100
AcDbEntity
  8
Defpoints
 62
     0
100
AcDbPoint
 10
111.5380715097399
 20
8.993750000000023
 30
0.0
  0
POINT
  5
238
330
22C
100
AcDbEntity
  8
Defpoints
 62
     0
100
AcDbPoint
 10
123.3942867360312
 20
8.993750000000068
 30
0.0
  0
ENDBLK
  5
22E
330
22C
100
AcDbEntity
  8
0
100
AcDbBlockEnd
  0
BLOCK
  5
23A
330
239
100
AcDbEntity
  8
0
100
AcDbBlockBegin
  2
*D9
 70
     1
 10
0.0
 20
0.0
 30
0.0
  3
*D9
  1
*D9
  0
LINE
  5
23C
330
239
100
AcDbEntity
  8
치수문자_일반주서
 62
     0
370
    -2
100
AcDbLine
 10
18.12250000000007
 20
13.75625000000002
 30
0.0
 11
4.37500000000002
 21
13.75624999999997
 31
0.0
  0
LINE
  5
23D
330
239
100
AcDbEntity
  8
치수문자_일반주서
 62
     0
370
    -2
100
AcDbLine
 10
18.12250000000007
 20
8.993750000000022
 30
0.0
 11
4.375000000000037
 21
8.99374999999997
 31
0.0
  0
LINE
  5
23E
330
239
100
AcDbEntity
  8
치수문자_일반주서
 62
     0
370
    -2
100
AcDbLine
 10
4.375000000000009
 20
17.05824999999997
 30
0.0
 11
4.374999999999997
 21
20.36024999999997
 31
0.0
  0
LINE
  5
23F
330
239
100
AcDbEntity
  8
치수문자_일반주서
 62
     0
370
    -2
100
AcDbLine
 10
4.375000000000049
 20
5.691749999999971
 30
0.0
 11
4.37500000000006
 21
2.389749999999971
 31
0.0
  0
SOLID
  5
240
330
239
100
AcDbEntity
  8
치수문자_일반주서
 62
     0
100
AcDbTrace
 10
3.824666666666675
 20
17.05824999999997
 30
0.0
 11
4.925333333333342
 21
17.05824999999998
 31
0.0
 12
4.37500000000002
 22
13.75624999999997
 32
0.0
 13
4.37500000000002
 23
13.75624999999997
 33
0.0
  0
SOLID
  5
241
330
239
100
AcDbEntity
  8
치수문자_일반주서
 62
     0
100
AcDbTrace
 10
4.925333333333382
 20
5.691749999999972
 30
0.0
 11
3.824666666666715
 21
5.691749999999969
 31
0.0
 12
4.375000000000037
 22
8.99374999999997
 32
0.0
 13
4.375000000000037
 23
8.99374999999997
 33
0.0
  0
MTEXT
  5
242
330
239
100
AcDbEntity
  8
치수문자_일반주서
 62
     0
100
AcDbMText
 10
0.0000000000000284
 20
11.37500000000001
 30
0.0
 40
3.5
 41
0.0
 71
     2
 72
     1
  1
\A1;%%c4.76 [1/4]
  7
SLDTEXTSTYLE0
 11
-3.543388970982125E-15
 21
1.0
 31
0.0
 73
     1
 44
1.0
  0
POINT
  5
243
330
239
100
AcDbEntity
  8
Defpoints
 62
     0
100
AcDbPoint
 10
18.18500000000007
 20
13.75625000000002
 30
0.0
  0
POINT
  5
244
330
239
100
AcDbEntity
  8
Defpoints
 62
     0
100
AcDbPoint
 10
18.18500000000007
 20
8.993750000000022
 30
0.0
  0
POINT
  5
245
330
239
100
AcDbEntity
  8
Defpoints
 62
     0
100
AcDbPoint
 10
4.375000000000036
 20
8.99374999999997
 30
0.0
  0
ENDBLK
  5
23B
330
239
100
AcDbEntity
  8
0
100
AcDbBlockEnd
  0
BLOCK
  5
247
330
246
100
AcDbEntity
  8
0
100
AcDbBlockBegin
  2
*D10
 70
     1
 10
0.0
 20
0.0
 30
0.0
  3
*D10
  1
*D10
  0
LINE
  5
249
330
246
100
AcDbEntity
  8
치수문자_일반주서
 62
     0
370
    -2
100
AcDbLine
 10
118.7724046535982
 20
11.52145291206001
 30
0.0
 11
118.7724046535982
 21
35.42369709597151
 31
0.0
  0
LINE
  5
24A
330
246
100
AcDbEntity
  8
치수문자_일반주서
 62
     0
370
    -2
100
AcDbLine
 10
90.21000000000005
 20
13.81875000000002
 30
0.0
 11
90.21000000000005
 21
35.42369709597151
 31
0.0
  0
LINE
  5
24B
330
246
100
AcDbEntity
  8
치수문자_일반주서
 62
     0
370
    -2
100
AcDbLine
 10
115.4704046535982
 20
35.42369709597151
 30
0.0
 11
93.51200000000006
 21
35.42369709597151
 31
0.0
  0
SOLID
  5
24C
330
246
100
AcDbEntity
  8
치수문자_일반주서
 62
     0
100
AcDbTrace
 10
115.4704046535982
 20
34.87336376263817
 30
0.0
 11
115.4704046535982
 21
35.97403042930484
 31
0.0
 12
118.7724046535982
 22
35.42369709597151
 32
0.0
 13
118.7724046535982
 23
35.42369709597151
 33
0.0
  0
SOLID
  5
24D
330
246
100
AcDbEntity
  8
치수문자_일반주서
 62
     0
100
AcDbTrace
 10
93.51200000000006
 20
35.97403042930484
 30
0.0
 11
93.51200000000006
 21
34.87336376263817
 31
0.0
 12
90.21000000000005
 22
35.42369709597151
 32
0.0
 13
90.21000000000005
 23
35.42369709597151
 33
0.0
  0
MTEXT
  5
24E
330
246
100
AcDbEntity
  8
치수문자_일반주서
 62
     0
100
AcDbMText
 10
106.5522865216461
 20
39.79869709597151
 30
0.0
 40
3.5
 41
0.0
 71
     2
 72
     1
  1
\A1;28.56 [1]
  7
SLDTEXTSTYLE0
 73
     1
 44
1.0
  0
POINT
  5
24F
330
246
100
AcDbEntity
  8
Defpoints
 62
     0
100
AcDbPoint
 10
118.7724046535982
 20
11.45895291206001
 30
0.0
  0
POINT
  5
250
330
246
100
AcDbEntity
  8
Defpoints
 62
     0
100
AcDbPoint
 10
90.21000000000005
 20
13.75625000000002
 30
0.0
  0
POINT
  5
251
330
246
100
AcDbEntity
  8
Defpoints
 62
     0
100
AcDbPoint
 10
90.21000000000005
 20
35.42369709597151
 30
0.0
  0
ENDBLK
  5
248
330
246
100
AcDbEntity
  8
0
100
AcDbBlockEnd
  0
BLOCK
  5
253
330
252
100
AcDbEntity
  8
0
100
AcDbBlockBegin
  2
*D11
 70
     1
 10
0.0
 20
0.0
 30
0.0
  3
*D11
  1
*D11
  0
LINE
  5
255
330
252
100
AcDbEntity
  8
치수문자_일반주서
 62
     0
370
    -2
100
AcDbLine
 10
118.7724046535982
 20
11.52145291206001
 30
0.0
 11
118.7724046535982
 21
53.42369709597186
 31
0.0
  0
LINE
  5
256
330
252
100
AcDbEntity
  8
치수문자_일반주서
 62
     0
370
    -2
100
AcDbLine
 10
17.18500000000006
 20
12.81875000000002
 30
0.0
 11
17.18500000000006
 21
53.42369709597186
 31
0.0
  0
LINE
  5
257
330
252
100
AcDbEntity
  8
치수문자_일반주서
 62
     0
370
    -2
100
AcDbLine
 10
115.4704046535982
 20
53.42369709597186
 30
0.0
 11
20.48700000000006
 21
53.42369709597186
 31
0.0
  0
SOLID
  5
258
330
252
100
AcDbEntity
  8
치수문자_일반주서
 62
     0
100
AcDbTrace
 10
115.4704046535982
 20
52.87336376263853
 30
0.0
 11
115.4704046535982
 21
53.97403042930519
 31
0.0
 12
118.7724046535982
 22
53.42369709597186
 32
0.0
 13
118.7724046535982
 23
53.42369709597186
 33
0.0
  0
SOLID
  5
259
330
252
100
AcDbEntity
  8
치수문자_일반주서
 62
     0
100
AcDbTrace
 10
20.48700000000006
 20
53.97403042930519
 30
0.0
 11
20.48700000000006
 21
52.87336376263853
 31
0.0
 12
17.18500000000006
 22
53.42369709597186
 32
0.0
 13
17.18500000000006
 23
53.42369709597186
 33
0.0
  0
MTEXT
  5
25A
330
252
100
AcDbEntity
  8
치수문자_일반주서
 62
     0
100
AcDbMText
 10
66.91544771271477
 20
57.79869709597186
 30
0.0
 40
3.5
 41
0.0
 71
     2
 72
     1
  1
\A1;101.59 [4]
  7
SLDTEXTSTYLE0
 73
     1
 44
1.0
  0
POINT
  5
25B
330
252
100
AcDbEntity
  8
Defpoints
 62
     0
100
AcDbPoint
 10
118.7724046535982
 20
11.45895291206001
 30
0.0
  0
POINT
  5
25C
330
252
100
AcDbEntity
  8
Defpoints
 62
     0
100
AcDbPoint
 10
17.18500000000006
 20
12.75625000000002
 30
0.0
  0
POINT
  5
25D
330
252
100
AcDbEntity
  8
Defpoints
 62
     0
100
AcDbPoint
 10
17.18500000000006
 20
53.42369709597186
 30
0.0
  0
ENDBLK
  5
254
330
252
100
AcDbEntity
  8
0
100
AcDbBlockEnd
  0
BLOCK
  5
29C
330
29B
100
AcDbEntity
  8
0
100
AcDbBlockBegin
  2
*D12
 70
     1
 10
0.0
 20
0.0
 30
0.0
  3
*D12
  1
*D12
  0
LINE
  5
29E
330
29B
100
AcDbEntity
  8
치수문자_일반주서
 62
     0
370
    -2
100
AcDbLine
 10
51.04808840250686
 20
2.381250000000029
 30
0.0
 11
71.2497329736266
 21
2.381250000000104
 31
0.0
  0
LINE
  5
29F
330
29B
100
AcDbEntity
  8
치수문자_일반주서
 62
     0
370
    -2
100
AcDbLine
 10
51.04808840250686
 20
-2.38124999999997
 30
0.0
 11
71.24973297362662
 21
-2.381249999999895
 31
0.0
  0
LINE
  5
2A0
330
29B
100
AcDbEntity
  8
치수문자_일반주서
 62
     0
370
    -2
100
AcDbLine
 10
71.2497329736266
 20
2.381250000000104
 30
0.0
 11
71.24973297362651
 21
36.98525000000011
 31
0.0
  0
LINE
  5
2A1
330
29B
100
AcDbEntity
  8
치수문자_일반주서
 62
     0
370
    -2
100
AcDbLine
 10
71.24973297362662
 20
-0.9207499999998956
 30
0.0
 11
71.2497329736266
 21
0.9207500000001052
 31
0.0
  0
LINE
  5
2A2
330
29B
100
AcDbEntity
  8
치수문자_일반주서
 62
     0
370
    -2
100
AcDbLine
 10
71.24973297362662
 20
-0.9207499999998956
 30
0.0
 11
71.24973297362664
 21
-4.222749999999896
 31
0.0
  0
SOLID
  5
2A3
330
29B
100
AcDbEntity
  8
치수문자_일반주서
 62
     0
100
AcDbTrace
 10
71.80006630695995
 20
-0.9207499999998939
 30
0.0
 11
70.6993996402933
 21
-0.9207499999998973
 31
0.0
 12
71.2497329736266
 22
2.381250000000104
 32
0.0
 13
71.2497329736266
 23
2.381250000000104
 33
0.0
  0
SOLID
  5
2A4
330
29B
100
AcDbEntity
  8
치수문자_일반주서
 62
     0
100
AcDbTrace
 10
70.69939964029328
 20
0.9207500000001035
 30
0.0
 11
71.80006630695993
 21
0.9207500000001069
 31
0.0
 12
71.24973297362662
 22
-2.381249999999895
 32
0.0
 13
71.24973297362662
 23
-2.381249999999895
 33
0.0
  0
MTEXT
  5
2A5
330
29B
100
AcDbEntity
  8
치수문자_일반주서
 62
     0
100
AcDbMText
 10
66.87473297362655
 20
22.98525000000009
 30
0.0
 40
3.5
 41
0.0
 71
     2
 72
     1
  1
\A1;%%c4.76 [3/16]
  7
SLDTEXTSTYLE0
 11
-2.983906501879686E-15
 21
1.0
 31
0.0
 73
     1
 44
1.0
  0
POINT
  5
2A6
330
29B
100
AcDbEntity
  8
Defpoints
 62
     0
100
AcDbPoint
 10
50.98558840250686
 20
2.381250000000029
 30
0.0
  0
POINT
  5
2D9
330
29B
100
AcDbEntity
  8
Defpoints
 62
     0
100
AcDbPoint
 10
50.98558840250686
 20
-2.38124999999997
 30
0.0
  0
POINT
  5
2DA
330
29B
100
AcDbEntity
  8
Defpoints
 62
     0
100
AcDbPoint
 10
71.24973297362669
 20
-2.381249999999895
 30
0.0
  0
ENDBLK
  5
29D
330
29B
100
AcDbEntity
  8
0
100
AcDbBlockEnd
  0
BLOCK
  5
2A9
330
2A8
100
AcDbEntity
  8
0
100
AcDbBlockBegin
  2
*D13
 70
     1
 10
0.0
 20
0.0
 30
0.0
  3
*D13
  1
*D13
  0
LINE
  5
2AB
330
2A8
100
AcDbEntity
  8
치수문자_일반주서
 62
     0
370
    -2
100
AcDbLine
 10
-49.60181625109129
 20
2.381250000000004
 30
0.0
 11
-63.34931625109133
 21
2.381249999999952
 31
0.0
  0
LINE
  5
2AC
330
2A8
100
AcDbEntity
  8
치수문자_일반주서
 62
     0
370
    -2
100
AcDbLine
 10
-49.60181625109129
 20
-2.381249999999999
 30
0.0
 11
-63.34931625109132
 21
-2.381250000000051
 31
0.0
  0
LINE
  5
2AD
330
2A8
100
AcDbEntity
  8
치수문자_일반주서
 62
     0
370
    -2
100
AcDbLine
 10
-63.34931625109133
 20
2.381249999999952
 30
0.0
 11
-63.34931625109144
 21
36.98524999999995
 31
0.0
  0
LINE
  5
2AE
330
2A8
100
AcDbEntity
  8
치수문자_일반주서
 62
     0
370
    -2
100
AcDbLine
 10
-63.34931625109132
 20
-0.9207500000000484
 30
0.0
 11
-63.34931625109132
 21
0.9207499999999489
 31
0.0
  0
LINE
  5
2AF
330
2A8
100
AcDbEntity
  8
치수문자_일반주서
 62
     0
370
    -2
100
AcDbLine
 10
-63.34931625109132
 20
-0.9207500000000484
 30
0.0
 11
-63.34931625109132
 21
-4.222750000000048
 31
0.0
  0
SOLID
  5
2B0
330
2A8
100
AcDbEntity
  8
치수문자_일반주서
 62
     0
100
AcDbTrace
 10
-62.79898291775799
 20
-0.9207500000000467
 30
0.0
 11
-63.89964958442466
 21
-0.92075000000005
 31
0.0
 12
-63.34931625109133
 22
2.381249999999952
 32
0.0
 13
-63.34931625109133
 23
2.381249999999952
 33
0.0
  0
SOLID
  5
2B1
330
2A8
100
AcDbEntity
  8
치수문자_일반주서
 62
     0
100
AcDbTrace
 10
-63.89964958442466
 20
0.9207499999999472
 30
0.0
 11
-62.79898291775799
 21
0.9207499999999506
 31
0.0
 12
-63.34931625109132
 22
-2.381250000000051
 32
0.0
 13
-63.34931625109132
 23
-2.381250000000051
 33
0.0
  0
MTEXT
  5
2B2
330
2A8
100
AcDbEntity
  8
치수문자_일반주서
 62
     0
100
AcDbMText
 10
-67.7243162510914
 20
22.98524999999994
 30
0.0
 40
3.5
 41
0.0
 71
     2
 72
     1
  1
\A1;%%c4.76 [3/16]
  7
SLDTEXTSTYLE0
 11
-2.983906501879684E-15
 21
1.0
 31
0.0
 73
     1
 44
1.0
  0
POINT
  5
2B3
330
2A8
100
AcDbEntity
  8
Defpoints
 62
     0
100
AcDbPoint
 10
-49.53931625109129
 20
2.381250000000004
 30
0.0
  0
POINT
  5
2DB
330
2A8
100
AcDbEntity
  8
Defpoints
 62
     0
100
AcDbPoint
 10
-49.53931625109129
 20
-2.381249999999999
 30
0.0
  0
POINT
  5
2DC
330
2A8
100
AcDbEntity
  8
Defpoints
 62
     0
100
AcDbPoint
 10
-63.34931625109132
 20
-2.38125000000005
 30
0.0
  0
ENDBLK
  5
2AA
330
2A8
100
AcDbEntity
  8
0
100
AcDbBlockEnd
  0
BLOCK
  5
2B6
330
2B5
100
AcDbEntity
  8
0
100
AcDbBlockBegin
  2
*D14
 70
     1
 10
0.0
 20
0.0
 30
0.0
  3
*D14
  1
*D14
  0
LINE
  5
2B8
330
2B5
100
AcDbEntity
  8
치수문자_일반주서
 62
     0
370
    -2
100
AcDbLine
 10
51.04808840250686
 20
2.443750000000029
 30
0.0
 11
51.04808840250686
 21
24.04869709597148
 31
0.0
  0
LINE
  5
2B9
330
2B5
100
AcDbEntity
  8
치수문자_일반주서
 62
     0
370
    -2
100
AcDbLine
 10
22.48568374890868
 20
2.443750000000002
 30
0.0
 11
22.48568374890868
 21
24.04869709597148
 31
0.0
  0
LINE
  5
2BA
330
2B5
100
AcDbEntity
  8
치수문자_일반주서
 62
     0
370
    -2
100
AcDbLine
 10
47.74608840250686
 20
24.04869709597148
 30
0.0
 11
25.78768374890868
 21
24.04869709597148
 31
0.0
  0
SOLID
  5
2BB
330
2B5
100
AcDbEntity
  8
치수문자_일반주서
 62
     0
100
AcDbTrace
 10
47.74608840250686
 20
23.49836376263815
 30
0.0
 11
47.74608840250686
 21
24.59903042930482
 31
0.0
 12
51.04808840250686
 22
24.04869709597148
 32
0.0
 13
51.04808840250686
 23
24.04869709597148
 33
0.0
  0
SOLID
  5
2BC
330
2B5
100
AcDbEntity
  8
치수문자_일반주서
 62
     0
100
AcDbTrace
 10
25.78768374890868
 20
24.59903042930482
 30
0.0
 11
25.78768374890868
 21
23.49836376263815
 31
0.0
 12
22.48568374890868
 22
24.04869709597148
 32
0.0
 13
22.48568374890868
 23
24.04869709597148
 33
0.0
  0
MTEXT
  5
2BD
330
2B5
100
AcDbEntity
  8
치수문자_일반주서
 62
     0
100
AcDbMText
 10
38.82797027055474
 20
28.42369709597148
 30
0.0
 40
3.5
 41
0.0
 71
     2
 72
     1
  1
\A1;28.56 [1 1/8]
  7
SLDTEXTSTYLE0
 73
     1
 44
1.0
  0
POINT
  5
2BE
330
2B5
100
AcDbEntity
  8
Defpoints
 62
     0
100
AcDbPoint
 10
51.04808840250686
 20
2.381250000000029
 30
0.0
  0
POINT
  5
2BF
330
2B5
100
AcDbEntity
  8
Defpoints
 62
     0
100
AcDbPoint
 10
22.48568374890868
 20
2.381250000000002
 30
0.0
  0
POINT
  5
2C0
330
2B5
100
AcDbEntity
  8
Defpoints
 62
     0
100
AcDbPoint
 10
22.48568374890868
 20
24.04869709597148
 30
0.0
  0
ENDBLK
  5
2B7
330
2B5
100
AcDbEntity
  8
0
100
AcDbBlockEnd
  0
BLOCK
  5
2C2
330
2C1
100
AcDbEntity
  8
0
100
AcDbBlockBegin
  2
*D15
 70
     1
 10
0.0
 20
0.0
 30
0.0
  3
*D15
  1
*D15
  0
LINE
  5
2C4
330
2C1
100
AcDbEntity
  8
치수문자_일반주서
 62
     0
370
    -2
100
AcDbLine
 10
51.04808840250686
 20
2.443750000000029
 30
0.0
 11
51.04808840250686
 21
46.98122308546625
 31
0.0
  0
LINE
  5
2C5
330
2C1
100
AcDbEntity
  8
치수문자_일반주서
 62
     0
370
    -2
100
AcDbLine
 10
-50.53931625109132
 20
1.443749999999995
 30
0.0
 11
-50.53931625109132
 21
46.98122308546625
 31
0.0
  0
LINE
  5
2C6
330
2C1
100
AcDbEntity
  8
치수문자_일반주서
 62
     0
370
    -2
100
AcDbLine
 10
47.74608840250686
 20
46.98122308546625
 30
0.0
 11
-47.23731625109132
 21
46.98122308546625
 31
0.0
  0
SOLID
  5
2C7
330
2C1
100
AcDbEntity
  8
치수문자_일반주서
 62
     0
100
AcDbTrace
 10
47.74608840250686
 20
46.43088975213291
 30
0.0
 11
47.74608840250686
 21
47.53155641879958
 31
0.0
 12
51.04808840250686
 22
46.98122308546625
 32
0.0
 13
51.04808840250686
 23
46.98122308546625
 33
0.0
  0
SOLID
  5
2C8
330
2C1
100
AcDbEntity
  8
치수문자_일반주서
 62
     0
100
AcDbTrace
 10
-47.23731625109132
 20
47.53155641879958
 30
0.0
 11
-47.23731625109132
 21
46.43088975213291
 31
0.0
 12
-50.53931625109132
 22
46.98122308546625
 32
0.0
 13
-50.53931625109132
 23
46.98122308546625
 33
0.0
  0
MTEXT
  5
2C9
330
2C1
100
AcDbEntity
  8
치수문자_일반주서
 62
     0
100
AcDbMText
 10
-1.470213597750387
 20
51.35622308546625
 30
0.0
 40
3.5
 41
0.0
 71
     2
 72
     1
  1
\A1;101.59 [4]
  7
SLDTEXTSTYLE0
 73
     1
 44
1.0
  0
POINT
  5
2CA
330
2C1
100
AcDbEntity
  8
Defpoints
 62
     0
100
AcDbPoint
 10
51.04808840250686
 20
2.381250000000029
 30
0.0
  0
POINT
  5
2CB
330
2C1
100
AcDbEntity
  8
Defpoints
 62
     0
100
AcDbPoint
 10
-50.53931625109132
 20
1.381249999999995
 30
0.0
  0
POINT
  5
2CC
330
2C1
100
AcDbEntity
  8
Defpoints
 62
     0
100
AcDbPoint
 10
-50.53931625109132
 20
46.98122308546625
 30
0.0
  0
ENDBLK
  5
2C3
330
2C1
100
AcDbEntity
  8
0
100
AcDbBlockEnd
  0
BLOCK
  5
2CE
330
2CD
100
AcDbEntity
  8
0
100
AcDbBlockBegin
  2
*D16
 70
     1
 10
0.0
 20
0.0
 30
0.0
  3
*D16
  1
*D16
  0
LINE
  5
2D0
330
2CD
100
AcDbEntity
  8
치수문자_일반주서
 62
     0
370
    -2
100
AcDbLine
 10
51.04808840250686
 20
2.443750000000029
 30
0.0
 11
51.04808840250686
 21
36.04869709597181
 31
0.0
  0
LINE
  5
2D1
330
2CD
100
AcDbEntity
  8
치수문자_일반주서
 62
     0
370
    -2
100
AcDbLine
 10
0.2606837489086899
 20
2.373900000000003
 30
0.0
 11
0.2606837489086899
 21
36.04869709597181
 31
0.0
  0
LINE
  5
2D2
330
2CD
100
AcDbEntity
  8
치수문자_일반주서
 62
     0
370
    -2
100
AcDbLine
 10
47.74608840250686
 20
36.04869709597181
 30
0.0
 11
3.56268374890869
 21
36.04869709597181
 31
0.0
  0
SOLID
  5
2D3
330
2CD
100
AcDbEntity
  8
치수문자_일반주서
 62
     0
100
AcDbTrace
 10
47.74608840250686
 20
35.49836376263848
 30
0.0
 11
47.74608840250686
 21
36.59903042930515
 31
0.0
 12
51.04808840250686
 22
36.04869709597181
 32
0.0
 13
51.04808840250686
 23
36.04869709597181
 33
0.0
  0
SOLID
  5
2D4
330
2CD
100
AcDbEntity
  8
치수문자_일반주서
 62
     0
100
AcDbTrace
 10
3.56268374890869
 20
36.59903042930515
 30
0.0
 11
3.56268374890869
 21
35.49836376263848
 31
0.0
 12
0.2606837489086899
 22
36.04869709597181
 32
0.0
 13
0.2606837489086899
 23
36.04869709597181
 33
0.0
  0
MTEXT
  5
2D5
330
2CD
100
AcDbEntity
  8
치수문자_일반주서
 62
     0
100
AcDbMText
 10
25.65438607570778
 20
40.42369709597181
 30
0.0
 40
3.5
 41
0.0
 71
     2
 72
     1
  1
\A1;50.79 [2]
  7
SLDTEXTSTYLE0
 73
     1
 44
1.0
  0
POINT
  5
2D6
330
2CD
100
AcDbEntity
  8
Defpoints
 62
     0
100
AcDbPoint
 10
51.04808840250686
 20
2.381250000000029
 30
0.0
  0
POINT
  5
2D7
330
2CD
100
AcDbEntity
  8
Defpoints
 62
     0
100
AcDbPoint
 10
0.2606837489086899
 20
2.311400000000003
 30
0.0
  0
POINT
  5
2D8
330
2CD
100
AcDbEntity
  8
Defpoints
 62
     0
100
AcDbPoint
 10
0.2606837489086899
 20
36.04869709597181
 30
0.0
  0
ENDBLK
  5
2CF
330
2CD
100
AcDbEntity
  8
0
100
AcDbBlockEnd
  0
BLOCK
  5
3EC
330
3EB
100
AcDbEntity
  8
0
100
AcDbBlockBegin
  2
*D17
 70
     1
 10
0.0
 20
0.0
 30
0.0
  3
*D17
  1
*D17
  0
LINE
  5
3EE
330
3EB
100
AcDbEntity
  8
치수문자_일반주서
 62
     0
370
    -2
100
AcDbLine
 10
111.6005715097399
 20
13.75625000000002
 30
0.0
 11
123.3942867360312
 21
13.75625000000007
 31
0.0
  0
LINE
  5
3EF
330
3EB
100
AcDbEntity
  8
치수문자_일반주서
 62
     0
370
    -2
100
AcDbLine
 10
111.6005715097399
 20
8.993750000000023
 30
0.0
 11
123.3942867360312
 21
8.993750000000068
 31
0.0
  0
LINE
  5
3F0
330
3EB
100
AcDbEntity
  8
치수문자_일반주서
 62
     0
370
    -2
100
AcDbLine
 10
123.3942867360312
 20
17.05825000000007
 30
0.0
 11
123.3942867360312
 21
20.36025000000007
 31
0.0
  0
LINE
  5
3F1
330
3EB
100
AcDbEntity
  8
치수문자_일반주서
 62
     0
370
    -2
100
AcDbLine
 10
123.3942867360312
 20
5.691750000000068
 30
0.0
 11
123.3942867360313
 21
2.389750000000068
 31
0.0
  0
SOLID
  5
3F2
330
3EB
100
AcDbEntity
  8
치수문자_일반주서
 62
     0
100
AcDbTrace
 10
122.8439534026979
 20
17.05825000000007
 30
0.0
 11
123.9446200693645
 21
17.05825000000007
 31
0.0
 12
123.3942867360312
 22
13.75625000000007
 32
0.0
 13
123.3942867360312
 23
13.75625000000007
 33
0.0
  0
SOLID
  5
3F3
330
3EB
100
AcDbEntity
  8
치수문자_일반주서
 62
     0
100
AcDbTrace
 10
123.9446200693646
 20
5.69175000000007
 30
0.0
 11
122.8439534026979
 21
5.691750000000066
 31
0.0
 12
123.3942867360312
 22
8.993750000000068
 32
0.0
 13
123.3942867360312
 23
8.993750000000068
 33
0.0
  0
MTEXT
  5
3F4
330
3EB
100
AcDbEntity
  8
치수문자_일반주서
 62
     0
100
AcDbMText
 10
119.0192867360312
 20
11.37500000000001
 30
0.0
 40
3.5
 41
0.0
 71
     2
 72
     1
  1
\A1;%%c4.76 [1/4]
  7
SLDTEXTSTYLE0
 11
-2.983906501879686E-15
 21
1.0
 31
0.0
 73
     1
 44
1.0
  0
POINT
  5
3F5
330
3EB
100
AcDbEntity
  8
Defpoints
 62
     0
100
AcDbPoint
 10
111.5380715097399
 20
13.75625000000002
 30
0.0
  0
POINT
  5
3F6
330
3EB
100
AcDbEntity
  8
Defpoints
 62
     0
100
AcDbPoint
 10
111.5380715097399
 20
8.993750000000023
 30
0.0
  0
POINT
  5
3F7
330
3EB
100
AcDbEntity
  8
Defpoints
 62
     0
100
AcDbPoint
 10
123.3942867360312
 20
8.993750000000068
 30
0.0
  0
ENDBLK
  5
3ED
330
3EB
100
AcDbEntity
  8
0
100
AcDbBlockEnd
  0
BLOCK
  5
3F9
330
3F8
100
AcDbEntity
  8
0
100
AcDbBlockBegin
  2
*D18
 70
     1
 10
0.0
 20
0.0
 30
0.0
  3
*D18
  1
*D18
  0
LINE
  5
3FB
330
3F8
100
AcDbEntity
  8
치수문자_일반주서
 62
     0
370
    -2
100
AcDbLine
 10
18.12250000000007
 20
13.75625000000002
 30
0.0
 11
4.37500000000002
 21
13.75624999999997
 31
0.0
  0
LINE
  5
3FC
330
3F8
100
AcDbEntity
  8
치수문자_일반주서
 62
     0
370
    -2
100
AcDbLine
 10
18.12250000000007
 20
8.993750000000022
 30
0.0
 11
4.375000000000037
 21
8.99374999999997
 31
0.0
  0
LINE
  5
3FD
330
3F8
100
AcDbEntity
  8
치수문자_일반주서
 62
     0
370
    -2
100
AcDbLine
 10
4.375000000000009
 20
17.05824999999997
 30
0.0
 11
4.374999999999997
 21
20.36024999999997
 31
0.0
  0
LINE
  5
3FE
330
3F8
100
AcDbEntity
  8
치수문자_일반주서
 62
     0
370
    -2
100
AcDbLine
 10
4.375000000000049
 20
5.691749999999971
 30
0.0
 11
4.37500000000006
 21
2.389749999999971
 31
0.0
  0
SOLID
  5
3FF
330
3F8
100
AcDbEntity
  8
치수문자_일반주서
 62
     0
100
AcDbTrace
 10
3.824666666666675
 20
17.05824999999997
 30
0.0
 11
4.925333333333342
 21
17.05824999999998
 31
0.0
 12
4.37500000000002
 22
13.75624999999997
 32
0.0
 13
4.37500000000002
 23
13.75624999999997
 33
0.0
  0
SOLID
  5
400
330
3F8
100
AcDbEntity
  8
치수문자_일반주서
 62
     0
100
AcDbTrace
 10
4.925333333333382
 20
5.691749999999972
 30
0.0
 11
3.824666666666715
 21
5.691749999999969
 31
0.0
 12
4.375000000000037
 22
8.99374999999997
 32
0.0
 13
4.375000000000037
 23
8.99374999999997
 33
0.0
  0
MTEXT
  5
401
330
3F8
100
AcDbEntity
  8
치수문자_일반주서
 62
     0
100
AcDbMText
 10
0.0000000000000284
 20
11.37500000000001
 30
0.0
 40
3.5
 41
0.0
 71
     2
 72
     1
  1
\A1;%%c4.76 [1/4]
  7
SLDTEXTSTYLE0
 11
-3.543388970982125E-15
 21
1.0
 31
0.0
 73
     1
 44
1.0
  0
POINT
  5
402
330
3F8
100
AcDbEntity
  8
Defpoints
 62
     0
100
AcDbPoint
 10
18.18500000000007
 20
13.75625000000002
 30
0.0
  0
POINT
  5
403
330
3F8
100
AcDbEntity
  8
Defpoints
 62
     0
100
AcDbPoint
 10
18.18500000000007
 20
8.993750000000022
 30
0.0
  0
POINT
  5
404
330
3F8
100
AcDbEntity
  8
Defpoints
 62
     0
100
AcDbPoint
 10
4.375000000000036
 20
8.99374999999997
 30
0.0
  0
ENDBLK
  5
3FA
330
3F8
100
AcDbEntity
  8
0
100
AcDbBlockEnd
  0
BLOCK
  5
406
330
405
100
AcDbEntity
  8
0
100
AcDbBlockBegin
  2
*D19
 70
     1
 10
0.0
 20
0.0
 30
0.0
  3
*D19
  1
*D19
  0
LINE
  5
408
330
405
100
AcDbEntity
  8
치수문자_일반주서
 62
     0
370
    -2
100
AcDbLine
 10
118.7724046535982
 20
11.52145291206001
 30
0.0
 11
118.7724046535982
 21
35.42369709597151
 31
0.0
  0
LINE
  5
409
330
405
100
AcDbEntity
  8
치수문자_일반주서
 62
     0
370
    -2
100
AcDbLine
 10
90.21000000000005
 20
13.81875000000002
 30
0.0
 11
90.21000000000005
 21
35.42369709597151
 31
0.0
  0
LINE
  5
40A
330
405
100
AcDbEntity
  8
치수문자_일반주서
 62
     0
370
    -2
100
AcDbLine
 10
115.4704046535982
 20
35.42369709597151
 30
0.0
 11
93.51200000000006
 21
35.42369709597151
 31
0.0
  0
SOLID
  5
40B
330
405
100
AcDbEntity
  8
치수문자_일반주서
 62
     0
100
AcDbTrace
 10
115.4704046535982
 20
34.87336376263817
 30
0.0
 11
115.4704046535982
 21
35.97403042930484
 31
0.0
 12
118.7724046535982
 22
35.42369709597151
 32
0.0
 13
118.7724046535982
 23
35.42369709597151
 33
0.0
  0
SOLID
  5
40C
330
405
100
AcDbEntity
  8
치수문자_일반주서
 62
     0
100
AcDbTrace
 10
93.51200000000006
 20
35.97403042930484
 30
0.0
 11
93.51200000000006
 21
34.87336376263817
 31
0.0
 12
90.21000000000005
 22
35.42369709597151
 32
0.0
 13
90.21000000000005
 23
35.42369709597151
 33
0.0
  0
MTEXT
  5
40D
330
405
100
AcDbEntity
  8
치수문자_일반주서
 62
     0
100
AcDbMText
 10
106.5522865216461
 20
39.79869709597151
 30
0.0
 40
3.5
 41
0.0
 71
     2
 72
     1
  1
\A1;28.56 [1]
  7
SLDTEXTSTYLE0
 73
     1
 44
1.0
  0
POINT
  5
40E
330
405
100
AcDbEntity
  8
Defpoints
 62
     0
100
AcDbPoint
 10
118.7724046535982
 20
11.45895291206001
 30
0.0
  0
POINT
  5
40F
330
405
100
AcDbEntity
  8
Defpoints
 62
     0
100
AcDbPoint
 10
90.21000000000005
 20
13.75625000000002
 30
0.0
  0
POINT
  5
410
330
405
100
AcDbEntity
  8
Defpoints
 62
     0
100
AcDbPoint
 10
90.21000000000005
 20
35.42369709597151
 30
0.0
  0
ENDBLK
  5
407
330
405
100
AcDbEntity
  8
0
100
AcDbBlockEnd
  0
BLOCK
  5
412
330
411
100
AcDbEntity
  8
0
100
AcDbBlockBegin
  2
*D20
 70
     1
 10
0.0
 20
0.0
 30
0.0
  3
*D20
  1
*D20
  0
LINE
  5
414
330
411
100
AcDbEntity
  8
치수문자_일반주서
 62
     0
370
    -2
100
AcDbLine
 10
118.7724046535982
 20
11.52145291206001
 30
0.0
 11
118.7724046535982
 21
53.42369709597186
 31
0.0
  0
LINE
  5
415
330
411
100
AcDbEntity
  8
치수문자_일반주서
 62
     0
370
    -2
100
AcDbLine
 10
17.18500000000006
 20
12.81875000000002
 30
0.0
 11
17.18500000000006
 21
53.42369709597186
 31
0.0
  0
LINE
  5
416
330
411
100
AcDbEntity
  8
치수문자_일반주서
 62
     0
370
    -2
100
AcDbLine
 10
115.4704046535982
 20
53.42369709597186
 30
0.0
 11
20.48700000000006
 21
53.42369709597186
 31
0.0
  0
SOLID
  5
417
330
411
100
AcDbEntity
  8
치수문자_일반주서
 62
     0
100
AcDbTrace
 10
115.4704046535982
 20
52.87336376263853
 30
0.0
 11
115.4704046535982
 21
53.97403042930519
 31
0.0
 12
118.7724046535982
 22
53.42369709597186
 32
0.0
 13
118.7724046535982
 23
53.42369709597186
 33
0.0
  0
SOLID
  5
418
330
411
100
AcDbEntity
  8
치수문자_일반주서
 62
     0
100
AcDbTrace
 10
20.48700000000006
 20
53.97403042930519
 30
0.0
 11
20.48700000000006
 21
52.87336376263853
 31
0.0
 12
17.18500000000006
 22
53.42369709597186
 32
0.0
 13
17.18500000000006
 23
53.42369709597186
 33
0.0
  0
MTEXT
  5
419
330
411
100
AcDbEntity
  8
치수문자_일반주서
 62
     0
100
AcDbMText
 10
66.91544771271477
 20
57.79869709597186
 30
0.0
 40
3.5
 41
0.0
 71
     2
 72
     1
  1
\A1;101.59 [4]
  7
SLDTEXTSTYLE0
 73
     1
 44
1.0
  0
POINT
  5
41A
330
411
100
AcDbEntity
  8
Defpoints
 62
     0
100
AcDbPoint
 10
118.7724046535982
 20
11.45895291206001
 30
0.0
  0
POINT
  5
41B
330
411
100
AcDbEntity
  8
Defpoints
 62
     0
100
AcDbPoint
 10
17.18500000000006
 20
12.75625000000002
 30
0.0
  0
POINT
  5
41C
330
411
100
AcDbEntity
  8
Defpoints
 62
     0
100
AcDbPoint
 10
17.18500000000006
 20
53.42369709597186
 30
0.0
  0
ENDBLK
  5
413
330
411
100
AcDbEntity
  8
0
100
AcDbBlockEnd
  0
BLOCK
  5
41E
330
41D
100
AcDbEntity
  8
0
100
AcDbBlockBegin
  2
*D21
 70
     1
 10
0.0
 20
0.0
 30
0.0
  3
*D21
  1
*D21
  0
LINE
  5
420
330
41D
100
AcDbEntity
  8
치수문자_일반주서
 62
     0
370
    -2
100
AcDbLine
 10
118.7724046535982
 20
11.52145291206001
 30
0.0
 11
118.7724046535982
 21
47.42369709597183
 31
0.0
  0
LINE
  5
421
330
41D
100
AcDbEntity
  8
치수문자_일반주서
 62
     0
370
    -2
100
AcDbLine
 10
67.98500000000006
 20
13.74890000000002
 30
0.0
 11
67.98500000000006
 21
47.42369709597183
 31
0.0
  0
LINE
  5
422
330
41D
100
AcDbEntity
  8
치수문자_일반주서
 62
     0
370
    -2
100
AcDbLine
 10
115.4704046535982
 20
47.42369709597183
 30
0.0
 11
71.28700000000006
 21
47.42369709597183
 31
0.0
  0
SOLID
  5
423
330
41D
100
AcDbEntity
  8
치수문자_일반주서
 62
     0
100
AcDbTrace
 10
115.4704046535982
 20
46.8733637626385
 30
0.0
 11
115.4704046535982
 21
47.97403042930517
 31
0.0
 12
118.7724046535982
 22
47.42369709597183
 32
0.0
 13
118.7724046535982
 23
47.42369709597183
 33
0.0
  0
SOLID
  5
424
330
41D
100
AcDbEntity
  8
치수문자_일반주서
 62
     0
100
AcDbTrace
 10
71.28700000000006
 20
47.97403042930517
 30
0.0
 11
71.28700000000006
 21
46.8733637626385
 31
0.0
 12
67.98500000000006
 22
47.42369709597183
 32
0.0
 13
67.98500000000006
 23
47.42369709597183
 33
0.0
  0
MTEXT
  5
425
330
41D
100
AcDbEntity
  8
치수문자_일반주서
 62
     0
100
AcDbMText
 10
93.37870232679913
 20
51.79869709597183
 30
0.0
 40
3.5
 41
0.0
 71
     2
 72
     1
  1
\A1;50.79 [2]
  7
SLDTEXTSTYLE0
 73
     1
 44
1.0
  0
POINT
  5
426
330
41D
100
AcDbEntity
  8
Defpoints
 62
     0
100
AcDbPoint
 10
118.7724046535982
 20
11.45895291206001
 30
0.0
  0
POINT
  5
427
330
41D
100
AcDbEntity
  8
Defpoints
 62
     0
100
AcDbPoint
 10
67.98500000000006
 20
13.68640000000002
 30
0.0
  0
POINT
  5
428
330
41D
100
AcDbEntity
  8
Defpoints
 62
     0
100
AcDbPoint
 10
67.98500000000006
 20
47.42369709597183
 30
0.0
  0
ENDBLK
  5
41F
330
41D
100
AcDbEntity
  8
0
100
AcDbBlockEnd
  0
BLOCK
  5
467
330
466
100
AcDbEntity
  8
0
100
AcDbBlockBegin
  2
*D22
 70
     1
 10
0.0
 20
0.0
 30
0.0
  3
*D22
  1
*D22
  0
LINE
  5
469
330
466
100
AcDbEntity
  8
치수문자_일반주서
 62
     0
370
    -2
100
AcDbLine
 10
51.04808840250685
 20
2.381250000000023
 30
0.0
 11
62.84180362879815
 21
2.381250000000065
 31
0.0
  0
LINE
  5
46A
330
466
100
AcDbEntity
  8
치수문자_일반주서
 62
     0
370
    -2
100
AcDbLine
 10
51.04808840250685
 20
-2.381249999999965
 30
0.0
 11
62.84180362879817
 21
-2.381249999999923
 31
0.0
  0
LINE
  5
46B
330
466
100
AcDbEntity
  8
치수문자_일반주서
 62
     0
370
    -2
100
AcDbLine
 10
62.84180362879815
 20
2.381250000000065
 30
0.0
 11
62.84180362879805
 21
36.98525000000006
 31
0.0
  0
LINE
  5
46C
330
466
100
AcDbEntity
  8
치수문자_일반주서
 62
     0
370
    -2
100
AcDbLine
 10
62.84180362879815
 20
2.381250000000065
 30
0.0
 11
62.84180362879817
 21
-2.381249999999923
 31
0.0
  0
LINE
  5
46D
330
466
100
AcDbEntity
  8
치수문자_일반주서
 62
     0
370
    -2
100
AcDbLine
 10
62.84180362879815
 20
5.683250000000065
 30
0.0
 11
62.84180362879814
 21
8.985250000000065
 31
0.0
  0
LINE
  5
46E
330
466
100
AcDbEntity
  8
치수문자_일반주서
 62
     0
370
    -2
100
AcDbLine
 10
62.84180362879817
 20
-5.683249999999923
 30
0.0
 11
62.84180362879818
 21
-8.985249999999922
 31
0.0
  0
SOLID
  5
46F
330
466
100
AcDbEntity
  8
치수문자_일반주서
 62
     0
100
AcDbTrace
 10
62.29147029546481
 20
5.683250000000063
 30
0.0
 11
63.39213696213148
 21
5.683250000000067
 31
0.0
 12
62.84180362879815
 22
2.381250000000065
 32
0.0
 13
62.84180362879815
 23
2.381250000000065
 33
0.0
  0
SOLID
  5
470
330
466
100
AcDbEntity
  8
치수문자_일반주서
 62
     0
100
AcDbTrace
 10
63.39213696213151
 20
-5.683249999999921
 30
0.0
 11
62.29147029546484
 21
-5.683249999999925
 31
0.0
 12
62.84180362879817
 22
-2.381249999999923
 32
0.0
 13
62.84180362879817
 23
-2.381249999999923
 33
0.0
  0
MTEXT
  5
471
330
466
100
AcDbEntity
  8
치수문자_일반주서
 62
     0
100
AcDbMText
 10
58.46680362879809
 20
22.98525000000005
 30
0.0
 40
3.5
 41
0.0
 71
     2
 72
     1
  1
\A1;%%c4.76 [3/16]
  7
SLDTEXTSTYLE0
 11
-2.983906501879693E-15
 21
1.0
 31
0.0
 73
     1
 44
1.0
  0
POINT
  5
4F8
330
466
100
AcDbEntity
  8
Defpoints
 62
     0
100
AcDbPoint
 10
50.98558840250685
 20
2.381250000000023
 30
0.0
  0
POINT
  5
4F9
330
466
100
AcDbEntity
  8
Defpoints
 62
     0
100
AcDbPoint
 10
50.98558840250685
 20
-2.381249999999966
 30
0.0
  0
POINT
  5
4FA
330
466
100
AcDbEntity
  8
Defpoints
 62
     0
100
AcDbPoint
 10
62.84180362879817
 20
-2.381249999999921
 30
0.0
  0
ENDBLK
  5
468
330
466
100
AcDbEntity
  8
0
100
AcDbBlockEnd
  0
BLOCK
  5
474
330
473
100
AcDbEntity
  8
0
100
AcDbBlockBegin
  2
*D23
 70
     1
 10
0.0
 20
0.0
 30
0.0
  3
*D23
  1
*D23
  0
LINE
  5
476
330
473
100
AcDbEntity
  8
치수문자_일반주서
 62
     0
370
    -2
100
AcDbLine
 10
-49.60181625109129
 20
2.381250000000022
 30
0.0
 11
-63.34931625109132
 21
2.381249999999969
 31
0.0
  0
LINE
  5
477
330
473
100
AcDbEntity
  8
치수문자_일반주서
 62
     0
370
    -2
100
AcDbLine
 10
-49.60181625109129
 20
-2.381249999999966
 30
0.0
 11
-63.3493162510913
 21
-2.381250000000019
 31
0.0
  0
LINE
  5
478
330
473
100
AcDbEntity
  8
치수문자_일반주서
 62
     0
370
    -2
100
AcDbLine
 10
-63.34931625109132
 20
2.381249999999969
 30
0.0
 11
-63.34931625109142
 21
36.98524999999997
 31
0.0
  0
LINE
  5
479
330
473
100
AcDbEntity
  8
치수문자_일반주서
 62
     0
370
    -2
100
AcDbLine
 10
-63.34931625109132
 20
2.381249999999969
 30
0.0
 11
-63.3493162510913
 21
-2.381250000000019
 31
0.0
  0
LINE
  5
47A
330
473
100
AcDbEntity
  8
치수문자_일반주서
 62
     0
370
    -2
100
AcDbLine
 10
-63.34931625109132
 20
5.683249999999969
 30
0.0
 11
-63.34931625109133
 21
8.985249999999969
 31
0.0
  0
LINE
  5
47B
330
473
100
AcDbEntity
  8
치수문자_일반주서
 62
     0
370
    -2
100
AcDbLine
 10
-63.3493162510913
 20
-5.683250000000019
 30
0.0
 11
-63.34931625109129
 21
-8.985250000000018
 31
0.0
  0
SOLID
  5
47C
330
473
100
AcDbEntity
  8
치수문자_일반주서
 62
     0
100
AcDbTrace
 10
-63.89964958442466
 20
5.683249999999967
 30
0.0
 11
-62.79898291775799
 21
5.683249999999971
 31
0.0
 12
-63.34931625109132
 22
2.381249999999969
 32
0.0
 13
-63.34931625109132
 23
2.381249999999969
 33
0.0
  0
SOLID
  5
47D
330
473
100
AcDbEntity
  8
치수문자_일반주서
 62
     0
100
AcDbTrace
 10
-62.79898291775796
 20
-5.683250000000017
 30
0.0
 11
-63.89964958442463
 21
-5.683250000000021
 31
0.0
 12
-63.3493162510913
 22
-2.381250000000019
 32
0.0
 13
-63.3493162510913
 23
-2.381250000000019
 33
0.0
  0
MTEXT
  5
47E
330
473
100
AcDbEntity
  8
치수문자_일반주서
 62
     0
100
AcDbMText
 10
-67.72431625109138
 20
22.98524999999995
 30
0.0
 40
3.5
 41
0.0
 71
     2
 72
     1
  1
\A1;%%c4.76 [3/16]
  7
SLDTEXTSTYLE0
 11
-2.983906501879693E-15
 21
1.0
 31
0.0
 73
     1
 44
1.0
  0
POINT
  5
4F4
330
473
100
AcDbEntity
  8
Defpoints
 62
     0
100
AcDbPoint
 10
-49.53931625109129
 20
2.381250000000023
 30
0.0
  0
POINT
  5
4F5
330
473
100
AcDbEntity
  8
Defpoints
 62
     0
100
AcDbPoint
 10
-49.53931625109129
 20
-2.381249999999966
 30
0.0
  0
POINT
  5
4F6
330
473
100
AcDbEntity
  8
Defpoints
 62
     0
100
AcDbPoint
 10
-63.34931625109131
 20
-2.381250000000017
 30
0.0
  0
ENDBLK
  5
475
330
473
100
AcDbEntity
  8
0
100
AcDbBlockEnd
  0
BLOCK
  5
481
330
480
100
AcDbEntity
  8
0
100
AcDbBlockBegin
  2
*D24
 70
     1
 10
0.0
 20
0.0
 30
0.0
  3
*D24
  1
*D24
  0
LINE
  5
483
330
480
100
AcDbEntity
  8
치수문자_일반주서
 62
     0
370
    -2
100
AcDbLine
 10
51.06068374890869
 20
2.443750000000023
 30
0.0
 11
51.06068374890869
 21
24.04869709597151
 31
0.0
  0
LINE
  5
484
330
480
100
AcDbEntity
  8
치수문자_일반주서
 62
     0
370
    -2
100
AcDbLine
 10
22.48568374890868
 20
2.443750000000023
 30
0.0
 11
22.48568374890868
 21
24.04869709597151
 31
0.0
  0
LINE
  5
485
330
480
100
AcDbEntity
  8
치수문자_일반주서
 62
     0
370
    -2
100
AcDbLine
 10
47.75868374890869
 20
24.04869709597151
 30
0.0
 11
25.78768374890868
 21
24.04869709597151
 31
0.0
  0
SOLID
  5
486
330
480
100
AcDbEntity
  8
치수문자_일반주서
 62
     0
100
AcDbTrace
 10
47.75868374890869
 20
23.49836376263817
 30
0.0
 11
47.75868374890869
 21
24.59903042930484
 31
0.0
 12
51.06068374890869
 22
24.04869709597151
 32
0.0
 13
51.06068374890869
 23
24.04869709597151
 33
0.0
  0
SOLID
  5
487
330
480
100
AcDbEntity
  8
치수문자_일반주서
 62
     0
100
AcDbTrace
 10
25.78768374890868
 20
24.59903042930484
 30
0.0
 11
25.78768374890868
 21
23.49836376263817
 31
0.0
 12
22.48568374890868
 22
24.04869709597151
 32
0.0
 13
22.48568374890868
 23
24.04869709597151
 33
0.0
  0
MTEXT
  5
488
330
480
100
AcDbEntity
  8
치수문자_일반주서
 62
     0
100
AcDbMText
 10
38.82797027055476
 20
28.42369709597151
 30
0.0
 40
3.5
 41
0.0
 71
     2
 72
     1
  1
\A1;28.58 [1 1/8]
  7
SLDTEXTSTYLE0
 73
     1
 44
1.0
  0
POINT
  5
489
330
480
100
AcDbEntity
  8
Defpoints
 62
     0
100
AcDbPoint
 10
51.06068374890869
 20
2.381250000000023
 30
0.0
  0
POINT
  5
48A
330
480
100
AcDbEntity
  8
Defpoints
 62
     0
100
AcDbPoint
 10
22.48568374890868
 20
2.381250000000023
 30
0.0
  0
POINT
  5
48B
330
480
100
AcDbEntity
  8
Defpoints
 62
     0
100
AcDbPoint
 10
22.48568374890868
 20
24.04869709597151
 30
0.0
  0
ENDBLK
  5
482
330
480
100
AcDbEntity
  8
0
100
AcDbBlockEnd
  0
BLOCK
  5
48D
330
48C
100
AcDbEntity
  8
0
100
AcDbBlockBegin
  2
*D25
 70
     1
 10
0.0
 20
0.0
 30
0.0
  3
*D25
  1
*D25
  0
LINE
  5
48F
330
48C
100
AcDbEntity
  8
치수문자_일반주서
 62
     0
370
    -2
100
AcDbLine
 10
51.06068374890869
 20
2.443750000000023
 30
0.0
 11
51.06068374890869
 21
45.74901198635113
 31
0.0
  0
LINE
  5
490
330
48C
100
AcDbEntity
  8
치수문자_일반주서
 62
     0
370
    -2
100
AcDbLine
 10
-50.53931625109131
 20
1.443750000000023
 30
0.0
 11
-50.53931625109131
 21
45.74901198635113
 31
0.0
  0
LINE
  5
491
330
48C
100
AcDbEntity
  8
치수문자_일반주서
 62
     0
370
    -2
100
AcDbLine
 10
47.75868374890869
 20
45.74901198635113
 30
0.0
 11
-47.23731625109131
 21
45.74901198635113
 31
0.0
  0
SOLID
  5
492
330
48C
100
AcDbEntity
  8
치수문자_일반주서
 62
     0
100
AcDbTrace
 10
47.75868374890869
 20
45.19867865301779
 30
0.0
 11
47.75868374890869
 21
46.29934531968446
 31
0.0
 12
51.06068374890869
 22
45.74901198635113
 32
0.0
 13
51.06068374890869
 23
45.74901198635113
 33
0.0
  0
SOLID
  5
493
330
48C
100
AcDbEntity
  8
치수문자_일반주서
 62
     0
100
AcDbTrace
 10
-47.23731625109131
 20
46.29934531968446
 30
0.0
 11
-47.23731625109131
 21
45.19867865301779
 31
0.0
 12
-50.53931625109131
 22
45.74901198635113
 32
0.0
 13
-50.53931625109131
 23
45.74901198635113
 33
0.0
  0
MTEXT
  5
494
330
48C
100
AcDbEntity
  8
치수문자_일반주서
 62
     0
100
AcDbMText
 10
-0.8088685383766006
 20
50.12401198635113
 30
0.0
 40
3.5
 41
0.0
 71
     2
 72
     1
  1
\A1;101.6 [4]
  7
SLDTEXTSTYLE0
 73
     1
 44
1.0
  0
POINT
  5
495
330
48C
100
AcDbEntity
  8
Defpoints
 62
     0
100
AcDbPoint
 10
51.06068374890869
 20
2.381250000000023
 30
0.0
  0
POINT
  5
496
330
48C
100
AcDbEntity
  8
Defpoints
 62
     0
100
AcDbPoint
 10
-50.53931625109131
 20
1.381250000000023
 30
0.0
  0
POINT
  5
497
330
48C
100
AcDbEntity
  8
Defpoints
 62
     0
100
AcDbPoint
 10
-50.53931625109131
 20
45.74901198635113
 30
0.0
  0
ENDBLK
  5
48E
330
48C
100
AcDbEntity
  8
0
100
AcDbBlockEnd
  0
BLOCK
  5
499
330
498
100
AcDbEntity
  8
0
100
AcDbBlockBegin
  2
*D26
 70
     1
 10
0.0
 20
0.0
 30
0.0
  3
*D26
  1
*D26
  0
LINE
  5
49B
330
498
100
AcDbEntity
  8
치수문자_일반주서
 62
     0
370
    -2
100
AcDbLine
 10
51.06068374890869
 20
2.443750000000023
 30
0.0
 11
51.06068374890869
 21
36.04869709597182
 31
0.0
  0
LINE
  5
49C
330
498
100
AcDbEntity
  8
치수문자_일반주서
 62
     0
370
    -2
100
AcDbLine
 10
0.2606837489086899
 20
2.37390000000002
 30
0.0
 11
0.2606837489086899
 21
36.04869709597182
 31
0.0
  0
LINE
  5
49D
330
498
100
AcDbEntity
  8
치수문자_일반주서
 62
     0
370
    -2
100
AcDbLine
 10
47.75868374890869
 20
36.04869709597182
 30
0.0
 11
3.56268374890869
 21
36.04869709597182
 31
0.0
  0
SOLID
  5
49E
330
498
100
AcDbEntity
  8
치수문자_일반주서
 62
     0
100
AcDbTrace
 10
47.75868374890869
 20
35.49836376263848
 30
0.0
 11
47.75868374890869
 21
36.59903042930515
 31
0.0
 12
51.06068374890869
 22
36.04869709597182
 32
0.0
 13
51.06068374890869
 23
36.04869709597182
 33
0.0
  0
SOLID
  5
49F
330
498
100
AcDbEntity
  8
치수문자_일반주서
 62
     0
100
AcDbTrace
 10
3.56268374890869
 20
36.59903042930515
 30
0.0
 11
3.56268374890869
 21
35.49836376263848
 31
0.0
 12
0.2606837489086899
 22
36.04869709597182
 32
0.0
 13
0.2606837489086899
 23
36.04869709597182
 33
0.0
  0
MTEXT
  5
4A0
330
498
100
AcDbEntity
  8
치수문자_일반주서
 62
     0
100
AcDbMText
 10
25.65438607570776
 20
40.42369709597182
 30
0.0
 40
3.5
 41
0.0
 71
     2
 72
     1
  1
\A1;50.8 [2]
  7
SLDTEXTSTYLE0
 73
     1
 44
1.0
  0
POINT
  5
4A1
330
498
100
AcDbEntity
  8
Defpoints
 62
     0
100
AcDbPoint
 10
51.06068374890869
 20
2.381250000000023
 30
0.0
  0
POINT
  5
4A2
330
498
100
AcDbEntity
  8
Defpoints
 62
     0
100
AcDbPoint
 10
0.2606837489086899
 20
2.31140000000002
 30
0.0
  0
POINT
  5
4A3
330
498
100
AcDbEntity
  8
Defpoints
 62
     0
100
AcDbPoint
 10
0.2606837489086899
 20
36.04869709597182
 30
0.0
  0
ENDBLK
  5
49A
330
498
100
AcDbEntity
  8
0
100
AcDbBlockEnd
  0
BLOCK
  5
5BD
330
5BC
100
AcDbEntity
  8
0
100
AcDbBlockBegin
  2
*D27
 70
     1
 10
0.0
 20
0.0
 30
0.0
  3
*D27
  1
*D27
  0
LINE
  5
5BF
330
5BC
100
AcDbEntity
  8
치수문자_일반주서
 62
     0
370
    -2
100
AcDbLine
 10
128.3514990808299
 20
56.28655157272357
 30
0.0
 11
126.949496001893
 21
56.28655157272356
 31
0.0
  0
LINE
  5
5C0
330
5BC
100
AcDbEntity
  8
치수문자_일반주서
 62
     0
370
    -2
100
AcDbLine
 10
128.3514990808299
 20
43.58655157272356
 30
0.0
 11
126.949496001893
 21
43.58655157272356
 31
0.0
  0
LINE
  5
5C1
330
5BC
100
AcDbEntity
  8
치수문자_일반주서
 62
     0
370
    -2
100
AcDbLine
 10
126.949496001893
 20
52.98455157272356
 30
0.0
 11
126.949496001893
 21
46.88855157272356
 31
0.0
  0
SOLID
  5
5C2
330
5BC
100
AcDbEntity
  8
치수문자_일반주서
 62
     0
100
AcDbTrace
 10
127.4998293352263
 20
52.98455157272356
 30
0.0
 11
126.3991626685597
 21
52.98455157272356
 31
0.0
 12
126.949496001893
 22
56.28655157272356
 32
0.0
 13
126.949496001893
 23
56.28655157272356
 33
0.0
  0
SOLID
  5
5C3
330
5BC
100
AcDbEntity
  8
치수문자_일반주서
 62
     0
100
AcDbTrace
 10
126.3991626685597
 20
46.88855157272356
 30
0.0
 11
127.4998293352263
 21
46.88855157272356
 31
0.0
 12
126.949496001893
 22
43.58655157272356
 32
0.0
 13
126.949496001893
 23
43.58655157272356
 33
0.0
  0
MTEXT
  5
5C4
330
5BC
100
AcDbEntity
  8
치수문자_일반주서
 62
     0
100
AcDbMText
 10
122.574496001893
 20
49.93655157272354
 30
0.0
 40
3.5
 41
0.0
 71
     2
 72
     1
  1
\A1;%%c12.70 [0.50]
  7
SLDTEXTSTYLE0
 11
-3.356894814614646E-15
 21
1.0
 31
0.0
 73
     1
 44
1.0
  0
POINT
  5
5C5
330
5BC
100
AcDbEntity
  8
Defpoints
 62
     0
100
AcDbPoint
 10
128.4139990808299
 20
56.28655157272357
 30
0.0
  0
POINT
  5
5C6
330
5BC
100
AcDbEntity
  8
Defpoints
 62
     0
100
AcDbPoint
 10
128.4139990808299
 20
43.58655157272356
 30
0.0
  0
POINT
  5
5C7
330
5BC
100
AcDbEntity
  8
Defpoints
 62
     0
100
AcDbPoint
 10
126.949496001893
 20
43.58655157272356
 30
0.0
  0
ENDBLK
  5
5BE
330
5BC
100
AcDbEntity
  8
0
100
AcDbBlockEnd
  0
BLOCK
  5
5C9
330
5C8
100
AcDbEntity
  8
0
100
AcDbBlockBegin
  2
*D28
 70
     1
 10
0.0
 20
0.0
 30
0.0
  3
*D28
  1
*D28
  0
LINE
  5
5CB
330
5C8
100
AcDbEntity
  8
치수문자_일반주서
 62
     0
370
    -2
100
AcDbLine
 10
18.31270926586183
 20
56.28655157272356
 30
0.0
 11
4.56520926586176
 21
56.28655157272351
 31
0.0
  0
LINE
  5
5CC
330
5C8
100
AcDbEntity
  8
치수문자_일반주서
 62
     0
370
    -2
100
AcDbLine
 10
18.31270926586183
 20
43.58655157272357
 30
0.0
 11
4.565209265861804
 21
43.58655157272352
 31
0.0
  0
LINE
  5
5CD
330
5C8
100
AcDbEntity
  8
치수문자_일반주서
 62
     0
370
    -2
100
AcDbLine
 10
4.565209265861771
 20
52.98455157272351
 30
0.0
 11
4.565209265861792
 21
46.88855157272352
 31
0.0
  0
SOLID
  5
5CE
330
5C8
100
AcDbEntity
  8
치수문자_일반주서
 62
     0
100
AcDbTrace
 10
5.115542599195105
 20
52.98455157272351
 30
0.0
 11
4.014875932528438
 21
52.98455157272351
 31
0.0
 12
4.56520926586176
 22
56.28655157272351
 32
0.0
 13
4.56520926586176
 23
56.28655157272351
 33
0.0
  0
SOLID
  5
5CF
330
5C8
100
AcDbEntity
  8
치수문자_일반주서
 62
     0
100
AcDbTrace
 10
4.014875932528459
 20
46.88855157272352
 30
0.0
 11
5.115542599195126
 21
46.88855157272352
 31
0.0
 12
4.565209265861804
 22
43.58655157272352
 32
0.0
 13
4.565209265861804
 23
43.58655157272352
 33
0.0
  0
MTEXT
  5
5D0
330
5C8
100
AcDbEntity
  8
치수문자_일반주서
 62
     0
100
AcDbMText
 10
0.1902092658617818
 20
49.93655157272354
 30
0.0
 40
3.5
 41
0.0
 71
     2
 72
     1
  1
\A1;%%c12.70 [0.50]
  7
SLDTEXTSTYLE0
 11
-3.496765431890260E-15
 21
1.0
 31
0.0
 73
     1
 44
1.0
  0
POINT
  5
5D1
330
5C8
100
AcDbEntity
  8
Defpoints
 62
     0
100
AcDbPoint
 10
18.37520926586183
 20
56.28655157272356
 30
0.0
  0
POINT
  5
5D2
330
5C8
100
AcDbEntity
  8
Defpoints
 62
     0
100
AcDbPoint
 10
18.37520926586183
 20
43.58655157272357
 30
0.0
  0
POINT
  5
5D3
330
5C8
100
AcDbEntity
  8
Defpoints
 62
     0
100
AcDbPoint
 10
4.565209265861782
 20
43.58655157272352
 30
0.0
  0
ENDBLK
  5
5CA
330
5C8
100
AcDbEntity
  8
0
100
AcDbBlockEnd
  0
BLOCK
  5
5D5
330
5D4
100
AcDbEntity
  8
0
100
AcDbBlockBegin
  2
*D29
 70
     1
 10
0.0
 20
0.0
 30
0.0
  3
*D29
  1
*D29
  0
LINE
  5
5D7
330
5D4
100
AcDbEntity
  8
치수문자_일반주서
 62
     0
370
    -2
100
AcDbLine
 10
147.706621675457
 20
50.22292600488352
 30
0.0
 11
147.706621675457
 21
74.12517018879504
 31
0.0
  0
LINE
  5
5D8
330
5D4
100
AcDbEntity
  8
치수문자_일반주서
 62
     0
370
    -2
100
AcDbLine
 10
93.76520926586184
 20
56.33787502017019
 30
0.0
 11
93.76520926586184
 21
74.12517018879504
 31
0.0
  0
LINE
  5
5D9
330
5D4
100
AcDbEntity
  8
치수문자_일반주서
 62
     0
370
    -2
100
AcDbLine
 10
144.404621675457
 20
74.12517018879504
 30
0.0
 11
97.06720926586185
 21
74.12517018879504
 31
0.0
  0
SOLID
  5
5DA
330
5D4
100
AcDbEntity
  8
치수문자_일반주서
 62
     0
100
AcDbTrace
 10
144.404621675457
 20
73.57483685546171
 30
0.0
 11
144.404621675457
 21
74.67550352212837
 31
0.0
 12
147.706621675457
 22
74.12517018879504
 32
0.0
 13
147.706621675457
 23
74.12517018879504
 33
0.0
  0
SOLID
  5
5DB
330
5D4
100
AcDbEntity
  8
치수문자_일반주서
 62
     0
100
AcDbTrace
 10
97.06720926586185
 20
74.67550352212837
 30
0.0
 11
97.06720926586185
 21
73.57483685546171
 31
0.0
 12
93.76520926586184
 22
74.12517018879504
 32
0.0
 13
93.76520926586184
 23
74.12517018879504
 33
0.0
  0
MTEXT
  5
5DC
330
5D4
100
AcDbEntity
  8
치수문자_일반주서
 62
     0
100
AcDbMText
 10
124.6283675913227
 20
78.50017018879504
 30
0.0
 40
3.5
 41
0.0
 71
     2
 72
     1
  1
\A1;53.94 [2.12]
  7
SLDTEXTSTYLE0
 73
     1
 44
1.0
  0
POINT
  5
5DD
330
5D4
100
AcDbEntity
  8
Defpoints
 62
     0
100
AcDbPoint
 10
147.706621675457
 20
50.16042600488352
 30
0.0
  0
POINT
  5
5DE
330
5D4
100
AcDbEntity
  8
Defpoints
 62
     0
100
AcDbPoint
 10
93.76520926586184
 20
56.27537502017019
 30
0.0
  0
POINT
  5
5DF
330
5D4
100
AcDbEntity
  8
Defpoints
 62
     0
100
AcDbPoint
 10
93.76520926586184
 20
74.12517018879504
 30
0.0
  0
ENDBLK
  5
5D6
330
5D4
100
AcDbEntity
  8
0
100
AcDbBlockEnd
  0
BLOCK
  5
5E1
330
5E0
100
AcDbEntity
  8
0
100
AcDbBlockBegin
  2
*D30
 70
     1
 10
0.0
 20
0.0
 30
0.0
  3
*D30
  1
*D30
  0
LINE
  5
5E3
330
5E0
100
AcDbEntity
  8
치수문자_일반주서
 62
     0
370
    -2
100
AcDbLine
 10
147.706621675457
 20
50.22292600488352
 30
0.0
 11
147.706621675457
 21
92.12517018879538
 31
0.0
  0
LINE
  5
5E4
330
5E0
100
AcDbEntity
  8
치수문자_일반주서
 62
     0
370
    -2
100
AcDbLine
 10
17.56520926586182
 20
55.53905157272356
 30
0.0
 11
17.56520926586182
 21
92.12517018879538
 31
0.0
  0
LINE
  5
5E5
330
5E0
100
AcDbEntity
  8
치수문자_일반주서
 62
     0
370
    -2
100
AcDbLine
 10
144.404621675457
 20
92.12517018879538
 30
0.0
 11
20.86720926586182
 21
92.12517018879538
 31
0.0
  0
SOLID
  5
5E6
330
5E0
100
AcDbEntity
  8
치수문자_일반주서
 62
     0
100
AcDbTrace
 10
144.404621675457
 20
91.57483685546205
 30
0.0
 11
144.404621675457
 21
92.67550352212871
 31
0.0
 12
147.706621675457
 22
92.12517018879538
 32
0.0
 13
147.706621675457
 23
92.12517018879538
 33
0.0
  0
SOLID
  5
5E7
330
5E0
100
AcDbEntity
  8
치수문자_일반주서
 62
     0
100
AcDbTrace
 10
20.86720926586182
 20
92.67550352212871
 30
0.0
 11
20.86720926586182
 21
91.57483685546205
 31
0.0
 12
17.56520926586182
 22
92.12517018879538
 32
0.0
 13
17.56520926586182
 23
92.12517018879538
 33
0.0
  0
MTEXT
  5
5E8
330
5E0
100
AcDbEntity
  8
치수문자_일반주서
 62
     0
100
AcDbMText
 10
81.2738031330148
 20
96.50017018879538
 30
0.0
 40
3.5
 41
0.0
 71
     2
 72
     1
  1
\A1;130.14 [5.12]
  7
SLDTEXTSTYLE0
 73
     1
 44
1.0
  0
POINT
  5
5E9
330
5E0
100
AcDbEntity
  8
Defpoints
 62
     0
100
AcDbPoint
 10
147.706621675457
 20
50.16042600488352
 30
0.0
  0
POINT
  5
5EA
330
5E0
100
AcDbEntity
  8
Defpoints
 62
     0
100
AcDbPoint
 10
17.56520926586182
 20
55.47655157272356
 30
0.0
  0
POINT
  5
5EB
330
5E0
100
AcDbEntity
  8
Defpoints
 62
     0
100
AcDbPoint
 10
17.56520926586182
 20
92.12517018879537
 30
0.0
  0
ENDBLK
  5
5E2
330
5E0
100
AcDbEntity
  8
0
100
AcDbBlockEnd
  0
BLOCK
  5
5ED
330
5EC
100
AcDbEntity
  8
0
100
AcDbBlockBegin
  2
*D31
 70
     1
 10
0.0
 20
0.0
 30
0.0
  3
*D31
  1
*D31
  0
LINE
  5
5EF
330
5EC
100
AcDbEntity
  8
치수문자_일반주서
 62
     0
370
    -2
100
AcDbLine
 10
147.706621675457
 20
50.22292600488352
 30
0.0
 11
147.706621675457
 21
86.12517018879534
 31
0.0
  0
LINE
  5
5F0
330
5EC
100
AcDbEntity
  8
치수문자_일반주서
 62
     0
370
    -2
100
AcDbLine
 10
71.54020926586185
 20
56.09505157272356
 30
0.0
 11
71.54020926586185
 21
86.12517018879534
 31
0.0
  0
LINE
  5
5F1
330
5EC
100
AcDbEntity
  8
치수문자_일반주서
 62
     0
370
    -2
100
AcDbLine
 10
144.404621675457
 20
86.12517018879534
 30
0.0
 11
74.84220926586185
 21
86.12517018879534
 31
0.0
  0
SOLID
  5
5F2
330
5EC
100
AcDbEntity
  8
치수문자_일반주서
 62
     0
100
AcDbTrace
 10
144.404621675457
 20
85.57483685546201
 30
0.0
 11
144.404621675457
 21
86.67550352212866
 31
0.0
 12
147.706621675457
 22
86.12517018879534
 32
0.0
 13
147.706621675457
 23
86.12517018879534
 33
0.0
  0
SOLID
  5
5F3
330
5EC
100
AcDbEntity
  8
치수문자_일반주서
 62
     0
100
AcDbTrace
 10
74.84220926586185
 20
86.67550352212866
 30
0.0
 11
74.84220926586185
 21
85.57483685546201
 31
0.0
 12
71.54020926586185
 22
86.12517018879534
 32
0.0
 13
71.54020926586185
 23
86.12517018879534
 33
0.0
  0
MTEXT
  5
5F4
330
5EC
100
AcDbEntity
  8
치수문자_일반주서
 62
     0
100
AcDbMText
 10
109.6234154706594
 20
90.50017018879534
 30
0.0
 40
3.5
 41
0.0
 71
     2
 72
     1
  1
\A1;76.17 [3.00]
  7
SLDTEXTSTYLE0
 73
     1
 44
1.0
  0
POINT
  5
5F5
330
5EC
100
AcDbEntity
  8
Defpoints
 62
     0
100
AcDbPoint
 10
147.706621675457
 20
50.16042600488352
 30
0.0
  0
POINT
  5
5F6
330
5EC
100
AcDbEntity
  8
Defpoints
 62
     0
100
AcDbPoint
 10
71.54020926586185
 20
56.03255157272356
 30
0.0
  0
POINT
  5
5F7
330
5EC
100
AcDbEntity
  8
Defpoints
 62
     0
100
AcDbPoint
 10
71.54020926586185
 20
86.12517018879532
 30
0.0
  0
ENDBLK
  5
5EE
330
5EC
100
AcDbEntity
  8
0
100
AcDbBlockEnd
  0
BLOCK
  5
639
330
638
100
AcDbEntity
  8
0
100
AcDbBlockBegin
  2
*D32
 70
     1
 10
0.0
 20
0.0
 30
0.0
  3
*D32
  1
*D32
  0
LINE
  5
63B
330
638
100
AcDbEntity
  8
치수문자_일반주서
 62
     0
370
    -2
100
AcDbLine
 10
219.3038872347475
 20
-12.29480145752635
 30
0.0
 11
217.9018841558106
 21
-12.29480145752635
 31
0.0
  0
LINE
  5
63C
330
638
100
AcDbEntity
  8
치수문자_일반주서
 62
     0
370
    -2
100
AcDbLine
 10
219.3038872347475
 20
-24.99480145752635
 30
0.0
 11
217.9018841558107
 21
-24.99480145752636
 31
0.0
  0
LINE
  5
63D
330
638
100
AcDbEntity
  8
치수문자_일반주서
 62
     0
370
    -2
100
AcDbLine
 10
217.9018841558107
 20
-15.59680145752635
 30
0.0
 11
217.9018841558107
 21
-21.69280145752636
 31
0.0
  0
SOLID
  5
63E
330
638
100
AcDbEntity
  8
치수문자_일반주서
 62
     0
100
AcDbTrace
 10
218.452217489144
 20
-15.59680145752635
 30
0.0
 11
217.3515508224773
 21
-15.59680145752635
 31
0.0
 12
217.9018841558106
 22
-12.29480145752635
 32
0.0
 13
217.9018841558106
 23
-12.29480145752635
 33
0.0
  0
SOLID
  5
63F
330
638
100
AcDbEntity
  8
치수문자_일반주서
 62
     0
100
AcDbTrace
 10
217.3515508224773
 20
-21.69280145752636
 30
0.0
 11
218.452217489144
 21
-21.69280145752635
 31
0.0
 12
217.9018841558107
 22
-24.99480145752636
 32
0.0
 13
217.9018841558107
 23
-24.99480145752636
 33
0.0
  0
MTEXT
  5
640
330
638
100
AcDbEntity
  8
치수문자_일반주서
 62
     0
100
AcDbMText
 10
213.5268841558107
 20
-18.64480145752638
 30
0.0
 40
3.5
 41
0.0
 71
     2
 72
     1
  1
\A1;%%c12.70 [0.50]
  7
SLDTEXTSTYLE0
 11
-4.475859752819527E-15
 21
1.0
 31
0.0
 73
     1
 44
1.0
  0
POINT
  5
641
330
638
100
AcDbEntity
  8
Defpoints
 62
     0
100
AcDbPoint
 10
219.3663872347475
 20
-12.29480145752635
 30
0.0
  0
POINT
  5
642
330
638
100
AcDbEntity
  8
Defpoints
 62
     0
100
AcDbPoint
 10
219.3663872347475
 20
-24.99480145752635
 30
0.0
  0
POINT
  5
643
330
638
100
AcDbEntity
  8
Defpoints
 62
     0
100
AcDbPoint
 10
217.9018841558107
 20
-24.99480145752636
 30
0.0
  0
ENDBLK
  5
63A
330
638
100
AcDbEntity
  8
0
100
AcDbBlockEnd
  0
BLOCK
  5
645
330
644
100
AcDbEntity
  8
0
100
AcDbBlockBegin
  2
*D33
 70
     1
 10
0.0
 20
0.0
 30
0.0
  3
*D33
  1
*D33
  0
LINE
  5
647
330
644
100
AcDbEntity
  8
치수문자_일반주서
 62
     0
370
    -2
100
AcDbLine
 10
-52.97350000000003
 20
6.349999999999994
 30
0.0
 11
-66.72100000000012
 21
6.349999999999941
 31
0.0
  0
LINE
  5
648
330
644
100
AcDbEntity
  8
치수문자_일반주서
 62
     0
370
    -2
100
AcDbLine
 10
-52.97350000000003
 20
-6.349999999999994
 30
0.0
 11
-66.72100000000007
 21
-6.350000000000048
 31
0.0
  0
LINE
  5
649
330
644
100
AcDbEntity
  8
치수문자_일반주서
 62
     0
370
    -2
100
AcDbLine
 10
-66.72100000000012
 20
6.349999999999941
 30
0.0
 11
-66.72100000000022
 21
37.45399999999994
 31
0.0
  0
LINE
  5
64A
330
644
100
AcDbEntity
  8
치수문자_일반주서
 62
     0
370
    -2
100
AcDbLine
 10
-66.7210000000001
 20
3.047999999999941
 30
0.0
 11
-66.72100000000009
 21
-3.048000000000048
 31
0.0
  0
LINE
  5
64B
330
644
100
AcDbEntity
  8
치수문자_일반주서
 62
     0
370
    -2
100
AcDbLine
 10
-66.7210000000001
 20
3.047999999999941
 30
0.0
 11
-66.72100000000009
 21
-0.2540000000000591
 31
0.0
  0
SOLID
  5
64C
330
644
100
AcDbEntity
  8
치수문자_일반주서
 62
     0
100
AcDbTrace
 10
-66.17066666666678
 20
3.047999999999943
 30
0.0
 11
-67.27133333333343
 21
3.047999999999939
 31
0.0
 12
-66.72100000000012
 22
6.349999999999941
 32
0.0
 13
-66.72100000000012
 23
6.349999999999941
 33
0.0
  0
SOLID
  5
64D
330
644
100
AcDbEntity
  8
치수문자_일반주서
 62
     0
100
AcDbTrace
 10
-67.27133333333342
 20
-3.048000000000049
 30
0.0
 11
-66.17066666666676
 21
-3.048000000000046
 31
0.0
 12
-66.72100000000007
 22
-6.350000000000048
 32
0.0
 13
-66.72100000000007
 23
-6.350000000000048
 33
0.0
  0
MTEXT
  5
64E
330
644
100
AcDbEntity
  8
치수문자_일반주서
 62
     0
100
AcDbMText
 10
-71.09600000000017
 20
25.20399999999993
 30
0.0
 40
3.5
 41
0.0
 71
     2
 72
     1
  1
\A1;%%c12.7 [1/2]
  7
SLDTEXTSTYLE0
 11
-3.356894814614650E-15
 21
1.0
 31
0.0
 73
     1
 44
1.0
  0
POINT
  5
64F
330
644
100
AcDbEntity
  8
Defpoints
 62
     0
100
AcDbPoint
 10
-52.91100000000003
 20
6.349999999999994
 30
0.0
  0
POINT
  5
6C1
330
644
100
AcDbEntity
  8
Defpoints
 62
     0
100
AcDbPoint
 10
-52.91100000000003
 20
-6.349999999999994
 30
0.0
  0
POINT
  5
6C2
330
644
100
AcDbEntity
  8
Defpoints
 62
     0
100
AcDbPoint
 10
-66.72100000000005
 20
-6.350000000000046
 30
0.0
  0
ENDBLK
  5
646
330
644
100
AcDbEntity
  8
0
100
AcDbBlockEnd
  0
BLOCK
  5
651
330
650
100
AcDbEntity
  8
0
100
AcDbBlockBegin
  2
*D34
 70
     1
 10
0.0
 20
0.0
 30
0.0
  3
*D34
  1
*D34
  0
LINE
  5
653
330
650
100
AcDbEntity
  8
치수문자_일반주서
 62
     0
370
    -2
100
AcDbLine
 10
238.6590098293747
 20
-12.23230145752635
 30
0.0
 11
238.6590098293747
 21
5.543817158545124
 31
0.0
  0
LINE
  5
654
330
650
100
AcDbEntity
  8
치수문자_일반주서
 62
     0
370
    -2
100
AcDbLine
 10
184.7175974197795
 20
-12.24347801007973
 30
0.0
 11
184.7175974197795
 21
5.543817158545124
 31
0.0
  0
LINE
  5
655
330
650
100
AcDbEntity
  8
치수문자_일반주서
 62
     0
370
    -2
100
AcDbLine
 10
235.3570098293747
 20
5.543817158545124
 30
0.0
 11
188.0195974197795
 21
5.543817158545124
 31
0.0
  0
SOLID
  5
656
330
650
100
AcDbEntity
  8
치수문자_일반주서
 62
     0
100
AcDbTrace
 10
235.3570098293747
 20
4.993483825211791
 30
0.0
 11
235.3570098293747
 21
6.094150491878458
 31
0.0
 12
238.6590098293747
 22
5.543817158545124
 32
0.0
 13
238.6590098293747
 23
5.543817158545124
 33
0.0
  0
SOLID
  5
657
330
650
100
AcDbEntity
  8
치수문자_일반주서
 62
     0
100
AcDbTrace
 10
188.0195974197795
 20
6.094150491878458
 30
0.0
 11
188.0195974197795
 21
4.993483825211791
 31
0.0
 12
184.7175974197795
 22
5.543817158545124
 32
0.0
 13
184.7175974197795
 23
5.543817158545124
 33
0.0
  0
MTEXT
  5
658
330
650
100
AcDbEntity
  8
치수문자_일반주서
 62
     0
100
AcDbMText
 10
215.5807557452403
 20
9.918817158545124
 30
0.0
 40
3.5
 41
0.0
 71
     2
 72
     1
  1
\A1;53.94 [2 1/8]
  7
SLDTEXTSTYLE0
 73
     1
 44
1.0
  0
POINT
  5
659
330
650
100
AcDbEntity
  8
Defpoints
 62
     0
100
AcDbPoint
 10
238.6590098293747
 20
-12.29480145752635
 30
0.0
  0
POINT
  5
65A
330
650
100
AcDbEntity
  8
Defpoints
 62
     0
100
AcDbPoint
 10
184.7175974197795
 20
-12.30597801007973
 30
0.0
  0
POINT
  5
65B
330
650
100
AcDbEntity
  8
Defpoints
 62
     0
100
AcDbPoint
 10
184.7175974197795
 20
5.543817158545124
 30
0.0
  0
ENDBLK
  5
652
330
650
100
AcDbEntity
  8
0
100
AcDbBlockEnd
  0
BLOCK
  5
65D
330
65C
100
AcDbEntity
  8
0
100
AcDbBlockBegin
  2
*D35
 70
     1
 10
0.0
 20
0.0
 30
0.0
  3
*D35
  1
*D35
  0
LINE
  5
65F
330
65C
100
AcDbEntity
  8
치수문자_일반주서
 62
     0
370
    -2
100
AcDbLine
 10
238.6590098293747
 20
-12.23230145752635
 30
0.0
 11
238.6590098293747
 21
23.54381715854547
 31
0.0
  0
LINE
  5
660
330
65C
100
AcDbEntity
  8
치수문자_일반주서
 62
     0
370
    -2
100
AcDbLine
 10
108.5175974197795
 20
-13.04230145752636
 30
0.0
 11
108.5175974197795
 21
23.54381715854547
 31
0.0
  0
LINE
  5
661
330
65C
100
AcDbEntity
  8
치수문자_일반주서
 62
     0
370
    -2
100
AcDbLine
 10
235.3570098293747
 20
23.54381715854547
 30
0.0
 11
111.8195974197795
 21
23.54381715854547
 31
0.0
  0
SOLID
  5
662
330
65C
100
AcDbEntity
  8
치수문자_일반주서
 62
     0
100
AcDbTrace
 10
235.3570098293747
 20
22.99348382521213
 30
0.0
 11
235.3570098293747
 21
24.0941504918788
 31
0.0
 12
238.6590098293747
 22
23.54381715854547
 32
0.0
 13
238.6590098293747
 23
23.54381715854547
 33
0.0
  0
SOLID
  5
663
330
65C
100
AcDbEntity
  8
치수문자_일반주서
 62
     0
100
AcDbTrace
 10
111.8195974197795
 20
24.0941504918788
 30
0.0
 11
111.8195974197795
 21
22.99348382521213
 31
0.0
 12
108.5175974197795
 22
23.54381715854547
 32
0.0
 13
108.5175974197795
 23
23.54381715854547
 33
0.0
  0
MTEXT
  5
664
330
65C
100
AcDbEntity
  8
치수문자_일반주서
 62
     0
100
AcDbMText
 10
172.2261912869325
 20
27.91881715854547
 30
0.0
 40
3.5
 41
0.0
 71
     2
 72
     1
  1
\A1;130.14 [5 1/8]
  7
SLDTEXTSTYLE0
 73
     1
 44
1.0
  0
POINT
  5
665
330
65C
100
AcDbEntity
  8
Defpoints
 62
     0
100
AcDbPoint
 10
238.6590098293747
 20
-12.29480145752635
 30
0.0
  0
POINT
  5
666
330
65C
100
AcDbEntity
  8
Defpoints
 62
     0
100
AcDbPoint
 10
108.5175974197795
 20
-13.10480145752636
 30
0.0
  0
POINT
  5
667
330
65C
100
AcDbEntity
  8
Defpoints
 62
     0
100
AcDbPoint
 10
108.5175974197795
 20
23.54381715854547
 30
0.0
  0
ENDBLK
  5
65E
330
65C
100
AcDbEntity
  8
0
100
AcDbBlockEnd
  0
BLOCK
  5
669
330
668
100
AcDbEntity
  8
0
100
AcDbBlockBegin
  2
*D36
 70
     1
 10
0.0
 20
0.0
 30
0.0
  3
*D36
  1
*D36
  0
LINE
  5
66B
330
668
100
AcDbEntity
  8
치수문자_일반주서
 62
     0
370
    -2
100
AcDbLine
 10
238.6590098293747
 20
-12.23230145752635
 30
0.0
 11
238.6590098293747
 21
17.54381715854542
 31
0.0
  0
LINE
  5
66C
330
668
100
AcDbEntity
  8
치수문자_일반주서
 62
     0
370
    -2
100
AcDbLine
 10
162.4925974197795
 20
-12.48630145752635
 30
0.0
 11
162.4925974197795
 21
17.54381715854542
 31
0.0
  0
LINE
  5
66D
330
668
100
AcDbEntity
  8
치수문자_일반주서
 62
     0
370
    -2
100
AcDbLine
 10
235.3570098293747
 20
17.54381715854542
 30
0.0
 11
165.7945974197795
 21
17.54381715854542
 31
0.0
  0
SOLID
  5
66E
330
668
100
AcDbEntity
  8
치수문자_일반주서
 62
     0
100
AcDbTrace
 10
235.3570098293747
 20
16.99348382521209
 30
0.0
 11
235.3570098293747
 21
18.09415049187876
 31
0.0
 12
238.6590098293747
 22
17.54381715854542
 32
0.0
 13
238.6590098293747
 23
17.54381715854542
 33
0.0
  0
SOLID
  5
66F
330
668
100
AcDbEntity
  8
치수문자_일반주서
 62
     0
100
AcDbTrace
 10
165.7945974197795
 20
18.09415049187876
 30
0.0
 11
165.7945974197795
 21
16.99348382521209
 31
0.0
 12
162.4925974197795
 22
17.54381715854542
 32
0.0
 13
162.4925974197795
 23
17.54381715854542
 33
0.0
  0
MTEXT
  5
670
330
668
100
AcDbEntity
  8
치수문자_일반주서
 62
     0
100
AcDbMText
 10
200.5758036245771
 20
21.91881715854542
 30
0.0
 40
3.5
 41
0.0
 71
     2
 72
     1
  1
\A1;76.17 [3]
  7
SLDTEXTSTYLE0
 73
     1
 44
1.0
  0
POINT
  5
671
330
668
100
AcDbEntity
  8
Defpoints
 62
     0
100
AcDbPoint
 10
238.6590098293747
 20
-12.29480145752635
 30
0.0
  0
POINT
  5
672
330
668
100
AcDbEntity
  8
Defpoints
 62
     0
100
AcDbPoint
 10
162.4925974197795
 20
-12.54880145752635
 30
0.0
  0
POINT
  5
673
330
668
100
AcDbEntity
  8
Defpoints
 62
     0
100
AcDbPoint
 10
162.4925974197795
 20
17.54381715854542
 30
0.0
  0
ENDBLK
  5
66A
330
668
100
AcDbEntity
  8
0
100
AcDbBlockEnd
  0
BLOCK
  5
67B
330
67A
100
AcDbEntity
  8
0
100
AcDbBlockBegin
  2
*D37
 70
     1
 10
0.0
 20
0.0
 30
0.0
  3
*D37
  1
*D37
  0
LINE
  5
67D
330
67A
100
AcDbEntity
  8
치수문자_일반주서
 62
     0
370
    -2
100
AcDbLine
 10
76.48291240959514
 20
-6.350000000000001
 30
0.0
 11
92.88925463711803
 21
-6.350000000000004
 31
0.0
  0
LINE
  5
67E
330
67A
100
AcDbEntity
  8
치수문자_일반주서
 62
     0
370
    -2
100
AcDbLine
 10
76.48291240959514
 20
6.349999999999994
 30
0.0
 11
92.88925463711803
 21
6.349999999999993
 31
0.0
  0
LINE
  5
67F
330
67A
100
AcDbEntity
  8
치수문자_일반주서
 62
     0
370
    -2
100
AcDbLine
 10
92.88925463711803
 20
-6.350000000000004
 30
0.0
 11
92.88925463711803
 21
37.45399999999999
 31
0.0
  0
LINE
  5
680
330
67A
100
AcDbEntity
  8
치수문자_일반주서
 62
     0
370
    -2
100
AcDbLine
 10
92.88925463711803
 20
-6.350000000000004
 30
0.0
 11
92.88925463711803
 21
6.349999999999993
 31
0.0
  0
LINE
  5
681
330
67A
100
AcDbEntity
  8
치수문자_일반주서
 62
     0
370
    -2
100
AcDbLine
 10
92.88925463711803
 20
-9.652000000000005
 30
0.0
 11
92.88925463711803
 21
-12.954
 31
0.0
  0
SOLID
  5
682
330
67A
100
AcDbEntity
  8
치수문자_일반주서
 62
     0
100
AcDbTrace
 10
93.43958797045136
 20
-9.652000000000005
 30
0.0
 11
92.3389213037847
 21
-9.652000000000005
 31
0.0
 12
92.88925463711803
 22
-6.350000000000004
 32
0.0
 13
92.88925463711803
 23
-6.350000000000004
 33
0.0
  0
SOLID
  5
683
330
67A
100
AcDbEntity
  8
치수문자_일반주서
 62
     0
100
AcDbTrace
 10
92.3389213037847
 20
9.651999999999994
 30
0.0
 11
93.43958797045136
 21
9.651999999999994
 31
0.0
 12
92.88925463711803
 22
6.349999999999993
 32
0.0
 13
92.88925463711803
 23
6.349999999999993
 33
0.0
  0
MTEXT
  5
684
330
67A
100
AcDbEntity
  8
치수문자_일반주서
 62
     0
100
AcDbMText
 10
90.26425463711803
 20
25.20399999999999
 30
0.0
 40
3.5
 41
0.0
 71
     5
 72
     1
  1
\A1;{%%c12.7 [1/2]}
  7
SLDTEXTSTYLE0
 11
0.0
 21
1.0
 31
0.0
 73
     1
 44
1.0
  0
POINT
  5
685
330
67A
100
AcDbEntity
  8
Defpoints
 62
     0
100
AcDbPoint
 10
76.42041240959514
 20
-6.350000000000001
 30
0.0
  0
POINT
  5
686
330
67A
100
AcDbEntity
  8
Defpoints
 62
     0
100
AcDbPoint
 10
76.42041240959514
 20
6.349999999999994
 30
0.0
  0
POINT
  5
687
330
67A
100
AcDbEntity
  8
Defpoints
 62
     0
100
AcDbPoint
 10
92.88925463711803
 20
6.349999999999993
 30
0.0
  0
ENDBLK
  5
67C
330
67A
100
AcDbEntity
  8
0
100
AcDbBlockEnd
  0
BLOCK
  5
694
330
693
100
AcDbEntity
  8
0
100
AcDbBlockBegin
  2
*D38
 70
     1
 10
0.0
 20
0.0
 30
0.0
  3
*D38
  1
*D38
  0
LINE
  5
696
330
693
100
AcDbEntity
  8
치수문자_일반주서
 62
     0
370
    -2
100
AcDbLine
 10
76.42041240959514
 20
6.412499999999994
 30
0.0
 11
76.42041240959514
 21
41.22575439831355
 31
0.0
  0
LINE
  5
697
330
693
100
AcDbEntity
  8
치수문자_일반주서
 62
     0
370
    -2
100
AcDbLine
 10
22.44541240959515
 20
6.401323447446629
 30
0.0
 11
22.44541240959515
 21
41.22575439831355
 31
0.0
  0
LINE
  5
698
330
693
100
AcDbEntity
  8
치수문자_일반주서
 62
     0
370
    -2
100
AcDbLine
 10
73.11841240959514
 20
41.22575439831355
 30
0.0
 11
25.74741240959515
 21
41.22575439831355
 31
0.0
  0
SOLID
  5
699
330
693
100
AcDbEntity
  8
치수문자_일반주서
 62
     0
100
AcDbTrace
 10
73.11841240959514
 20
40.67542106498022
 30
0.0
 11
73.11841240959514
 21
41.77608773164689
 31
0.0
 12
76.42041240959514
 22
41.22575439831355
 32
0.0
 13
76.42041240959514
 23
41.22575439831355
 33
0.0
  0
SOLID
  5
69A
330
693
100
AcDbEntity
  8
치수문자_일반주서
 62
     0
100
AcDbTrace
 10
25.74741240959515
 20
41.77608773164689
 30
0.0
 11
25.74741240959515
 21
40.67542106498022
 31
0.0
 12
22.44541240959515
 22
41.22575439831355
 32
0.0
 13
22.44541240959515
 23
41.22575439831355
 33
0.0
  0
MTEXT
  5
69B
330
693
100
AcDbEntity
  8
치수문자_일반주서
 62
     0
100
AcDbMText
 10
49.43291240959515
 20
43.85075439831355
 30
0.0
 40
3.5
 41
0.0
 71
     5
 72
     1
  1
\A1;53.98 [2 1/8]
  7
SLDTEXTSTYLE0
 73
     1
 44
1.0
  0
POINT
  5
69C
330
693
100
AcDbEntity
  8
Defpoints
 62
     0
100
AcDbPoint
 10
76.42041240959514
 20
6.349999999999994
 30
0.0
  0
POINT
  5
69D
330
693
100
AcDbEntity
  8
Defpoints
 62
     0
100
AcDbPoint
 10
22.44541240959515
 20
6.338823447446629
 30
0.0
  0
POINT
  5
69E
330
693
100
AcDbEntity
  8
Defpoints
 62
     0
100
AcDbPoint
 10
22.44541240959515
 20
41.22575439831355
 30
0.0
  0
ENDBLK
  5
695
330
693
100
AcDbEntity
  8
0
100
AcDbBlockEnd
  0
BLOCK
  5
6A4
330
6A3
100
AcDbEntity
  8
0
100
AcDbBlockBegin
  2
*D39
 70
     1
 10
0.0
 20
0.0
 30
0.0
  3
*D39
  1
*D39
  0
LINE
  5
6A6
330
6A3
100
AcDbEntity
  8
치수문자_일반주서
 62
     0
370
    -2
100
AcDbLine
 10
76.42041240959514
 20
6.412499999999994
 30
0.0
 11
76.42041240959514
 21
66.60169424698796
 31
0.0
  0
LINE
  5
6A7
330
6A3
100
AcDbEntity
  8
치수문자_일반주서
 62
     0
370
    -2
100
AcDbLine
 10
0.2539999999999907
 20
6.158499999999997
 30
0.0
 11
0.2539999999999907
 21
66.60169424698796
 31
0.0
  0
LINE
  5
6A8
330
6A3
100
AcDbEntity
  8
치수문자_일반주서
 62
     0
370
    -2
100
AcDbLine
 10
73.11841240959514
 20
66.60169424698796
 30
0.0
 11
3.555999999999991
 21
66.60169424698796
 31
0.0
  0
SOLID
  5
6A9
330
6A3
100
AcDbEntity
  8
치수문자_일반주서
 62
     0
100
AcDbTrace
 10
73.11841240959514
 20
66.05136091365463
 30
0.0
 11
73.11841240959514
 21
67.15202758032129
 31
0.0
 12
76.42041240959514
 22
66.60169424698796
 32
0.0
 13
76.42041240959514
 23
66.60169424698796
 33
0.0
  0
SOLID
  5
6AA
330
6A3
100
AcDbEntity
  8
치수문자_일반주서
 62
     0
100
AcDbTrace
 10
3.555999999999991
 20
67.15202758032129
 30
0.0
 11
3.555999999999991
 21
66.05136091365463
 31
0.0
 12
0.2539999999999907
 22
66.60169424698796
 32
0.0
 13
0.2539999999999907
 23
66.60169424698796
 33
0.0
  0
MTEXT
  5
6AB
330
6A3
100
AcDbEntity
  8
치수문자_일반주서
 62
     0
100
AcDbMText
 10
38.33720620479757
 20
69.22669424698796
 30
0.0
 40
3.5
 41
0.0
 71
     5
 72
     1
  1
\A1;76.17 [3]
  7
SLDTEXTSTYLE0
 73
     1
 44
1.0
  0
POINT
  5
6AC
330
6A3
100
AcDbEntity
  8
Defpoints
 62
     0
100
AcDbPoint
 10
76.42041240959514
 20
6.349999999999994
 30
0.0
  0
POINT
  5
6AD
330
6A3
100
AcDbEntity
  8
Defpoints
 62
     0
100
AcDbPoint
 10
0.2539999999999907
 20
6.095999999999997
 30
0.0
  0
POINT
  5
6AE
330
6A3
100
AcDbEntity
  8
Defpoints
 62
     0
100
AcDbPoint
 10
0.2539999999999907
 20
66.60169424698796
 30
0.0
  0
ENDBLK
  5
6A5
330
6A3
100
AcDbEntity
  8
0
100
AcDbBlockEnd
  0
BLOCK
  5
6B4
330
6B3
100
AcDbEntity
  8
0
100
AcDbBlockBegin
  2
*D40
 70
     1
 10
0.0
 20
0.0
 30
0.0
  3
*D40
  1
*D40
  0
LINE
  5
6B6
330
6B3
100
AcDbEntity
  8
0
 62
     0
370
    -2
100
AcDbLine
 10
76.42041240959514
 20
7.349999999999994
 30
0.0
 11
76.42041240959514
 21
84.6786577036498
 31
0.0
  0
LINE
  5
6B7
330
6B3
100
AcDbEntity
  8
0
 62
     0
370
    -2
100
AcDbLine
 10
-53.72100000000003
 20
6.539999999999992
 30
0.0
 11
-53.72100000000003
 21
84.6786577036498
 31
0.0
  0
LINE
  5
6B8
330
6B3
100
AcDbEntity
  8
0
 62
     0
370
    -2
100
AcDbLine
 10
73.11841240959514
 20
83.6786577036498
 30
0.0
 11
-50.41900000000003
 21
83.6786577036498
 31
0.0
  0
LINE
  5
6B9
330
6B3
100
AcDbEntity
  8
0
 62
     0
370
    -2
100
AcDbLine
 10
-50.41900000000003
 20
83.6786577036498
 30
0.0
 11
73.11841240959514
 21
83.6786577036498
 31
0.0
  0
SOLID
  5
6BA
330
6B3
100
AcDbEntity
  8
0
 62
     0
100
AcDbTrace
 10
73.11841240959514
 20
83.12832437031648
 30
0.0
 11
73.11841240959514
 21
84.22899103698313
 31
0.0
 12
76.42041240959514
 22
83.6786577036498
 32
0.0
 13
76.42041240959514
 23
83.6786577036498
 33
0.0
  0
SOLID
  5
6BB
330
6B3
100
AcDbEntity
  8
0
 62
     0
100
AcDbTrace
 10
-50.41900000000003
 20
84.22899103698313
 30
0.0
 11
-50.41900000000003
 21
83.12832437031648
 31
0.0
 12
-53.72100000000003
 22
83.6786577036498
 32
0.0
 13
-53.72100000000003
 23
83.6786577036498
 33
0.0
  0
MTEXT
  5
6BC
330
6B3
100
AcDbEntity
  8
0
 62
     0
100
AcDbMText
 10
11.34970620479756
 20
87.24432437031648
 30
0.0
 40
3.5
 41
0.0
 71
     5
 72
     1
  1
130,14
 73
     1
 44
1.0
  0
POINT
  5
6BD
330
6B3
100
AcDbEntity
  8
Defpoints
 62
     0
100
AcDbPoint
 10
76.42041240959514
 20
6.349999999999994
 30
0.0
  0
POINT
  5
6BE
330
6B3
100
AcDbEntity
  8
Defpoints
 62
     0
100
AcDbPoint
 10
-53.72100000000003
 20
5.539999999999992
 30
0.0
  0
POINT
  5
6BF
330
6B3
100
AcDbEntity
  8
Defpoints
 62
     0
100
AcDbPoint
 10
-53.72100000000003
 20
83.6786577036498
 30
0.0
  0
ENDBLK
  5
6B5
330
6B3
100
AcDbEntity
  8
0
100
AcDbBlockEnd
  0
BLOCK
  5
783
330
782
100
AcDbEntity
  8
0
100
AcDbBlockBegin
  2
*D41
 70
     1
 10
0.0
 20
0.0
 30
0.0
  3
*D41
  1
*D41
  0
LINE
  5
785
330
782
100
AcDbEntity
  8
치수문자_일반주서
 62
     0
370
    -2
100
AcDbLine
 10
123.7815806548386
 20
54.69905157272356
 30
0.0
 11
123.774496001893
 21
54.69905157272356
 31
0.0
  0
LINE
  5
786
330
782
100
AcDbEntity
  8
치수문자_일반주서
 62
     0
370
    -2
100
AcDbLine
 10
123.7815806548386
 20
45.17405157272356
 30
0.0
 11
123.774496001893
 21
45.17405157272356
 31
0.0
  0
LINE
  5
787
330
782
100
AcDbEntity
  8
치수문자_일반주서
 62
     0
370
    -2
100
AcDbLine
 10
123.774496001893
 20
51.39705157272356
 30
0.0
 11
123.774496001893
 21
48.47605157272356
 31
0.0
  0
SOLID
  5
788
330
782
100
AcDbEntity
  8
치수문자_일반주서
 62
     0
100
AcDbTrace
 10
124.3248293352264
 20
51.39705157272356
 30
0.0
 11
123.2241626685597
 21
51.39705157272356
 31
0.0
 12
123.774496001893
 22
54.69905157272356
 32
0.0
 13
123.774496001893
 23
54.69905157272356
 33
0.0
  0
SOLID
  5
789
330
782
100
AcDbEntity
  8
치수문자_일반주서
 62
     0
100
AcDbTrace
 10
123.2241626685597
 20
48.47605157272356
 30
0.0
 11
124.3248293352264
 21
48.47605157272356
 31
0.0
 12
123.774496001893
 22
45.17405157272356
 32
0.0
 13
123.774496001893
 23
45.17405157272356
 33
0.0
  0
MTEXT
  5
78A
330
782
100
AcDbEntity
  8
치수문자_일반주서
 62
     0
100
AcDbMText
 10
119.399496001893
 20
49.93655157272354
 30
0.0
 40
3.5
 41
0.0
 71
     2
 72
     1
  1
\A1;%%c9.53 [0.38]
  7
SLDTEXTSTYLE0
 11
-2.983906501879686E-15
 21
1.0
 31
0.0
 73
     1
 44
1.0
  0
POINT
  5
78B
330
782
100
AcDbEntity
  8
Defpoints
 62
     0
100
AcDbPoint
 10
123.7190806548386
 20
54.69905157272356
 30
0.0
  0
POINT
  5
78C
330
782
100
AcDbEntity
  8
Defpoints
 62
     0
100
AcDbPoint
 10
123.7190806548386
 20
45.17405157272356
 30
0.0
  0
POINT
  5
78D
330
782
100
AcDbEntity
  8
Defpoints
 62
     0
100
AcDbPoint
 10
123.774496001893
 20
45.17405157272356
 30
0.0
  0
ENDBLK
  5
784
330
782
100
AcDbEntity
  8
0
100
AcDbBlockEnd
  0
BLOCK
  5
78F
330
78E
100
AcDbEntity
  8
0
100
AcDbBlockBegin
  2
*D42
 70
     1
 10
0.0
 20
0.0
 30
0.0
  3
*D42
  1
*D42
  0
LINE
  5
791
330
78E
100
AcDbEntity
  8
치수문자_일반주서
 62
     0
370
    -2
100
AcDbLine
 10
18.31270926586184
 20
54.69905157272357
 30
0.0
 11
4.56520926586178
 21
54.69905157272352
 31
0.0
  0
LINE
  5
792
330
78E
100
AcDbEntity
  8
치수문자_일반주서
 62
     0
370
    -2
100
AcDbLine
 10
18.31270926586184
 20
45.17405157272356
 30
0.0
 11
4.565209265861813
 21
45.17405157272351
 31
0.0
  0
LINE
  5
793
330
78E
100
AcDbEntity
  8
치수문자_일반주서
 62
     0
370
    -2
100
AcDbLine
 10
4.565209265861792
 20
51.39705157272352
 30
0.0
 11
4.565209265861801
 21
48.47605157272351
 31
0.0
  0
SOLID
  5
794
330
78E
100
AcDbEntity
  8
치수문자_일반주서
 62
     0
100
AcDbTrace
 10
5.115542599195125
 20
51.39705157272352
 30
0.0
 11
4.014875932528458
 21
51.39705157272352
 31
0.0
 12
4.56520926586178
 22
54.69905157272352
 32
0.0
 13
4.56520926586178
 23
54.69905157272352
 33
0.0
  0
SOLID
  5
795
330
78E
100
AcDbEntity
  8
치수문자_일반주서
 62
     0
100
AcDbTrace
 10
4.014875932528468
 20
48.47605157272351
 30
0.0
 11
5.115542599195135
 21
48.47605157272351
 31
0.0
 12
4.565209265861813
 22
45.17405157272351
 32
0.0
 13
4.565209265861813
 23
45.17405157272351
 33
0.0
  0
MTEXT
  5
796
330
78E
100
AcDbEntity
  8
치수문자_일반주서
 62
     0
100
AcDbMText
 10
0.190209265861796
 20
49.93655157272355
 30
0.0
 40
3.5
 41
0.0
 71
     2
 72
     1
  1
\A1;%%c9.53 [0.38]
  7
SLDTEXTSTYLE0
 11
-3.450141892798385E-15
 21
1.0
 31
0.0
 73
     1
 44
1.0
  0
POINT
  5
797
330
78E
100
AcDbEntity
  8
Defpoints
 62
     0
100
AcDbPoint
 10
18.37520926586184
 20
54.69905157272357
 30
0.0
  0
POINT
  5
798
330
78E
100
AcDbEntity
  8
Defpoints
 62
     0
100
AcDbPoint
 10
18.37520926586184
 20
45.17405157272356
 30
0.0
  0
POINT
  5
799
330
78E
100
AcDbEntity
  8
Defpoints
 62
     0
100
AcDbPoint
 10
4.565209265861796
 20
45.17405157272351
 30
0.0
  0
ENDBLK
  5
790
330
78E
100
AcDbEntity
  8
0
100
AcDbBlockEnd
  0
BLOCK
  5
79B
330
79A
100
AcDbEntity
  8
0
100
AcDbBlockBegin
  2
*D43
 70
     1
 10
0.0
 20
0.0
 30
0.0
  3
*D43
  1
*D43
  0
LINE
  5
79D
330
79A
100
AcDbEntity
  8
치수문자_일반주서
 62
     0
370
    -2
100
AcDbLine
 10
138.1900185730582
 20
50.16695739684354
 30
0.0
 11
138.1900185730582
 21
74.06920158075506
 31
0.0
  0
LINE
  5
79E
330
79A
100
AcDbEntity
  8
치수문자_일반주서
 62
     0
370
    -2
100
AcDbLine
 10
87.41520926586185
 20
54.08650032259519
 30
0.0
 11
87.41520926586185
 21
74.06920158075506
 31
0.0
  0
LINE
  5
79F
330
79A
100
AcDbEntity
  8
치수문자_일반주서
 62
     0
370
    -2
100
AcDbLine
 10
134.8880185730582
 20
74.06920158075506
 30
0.0
 11
90.71720926586185
 21
74.06920158075506
 31
0.0
  0
SOLID
  5
7A0
330
79A
100
AcDbEntity
  8
치수문자_일반주서
 62
     0
100
AcDbTrace
 10
134.8880185730582
 20
73.51886824742174
 30
0.0
 11
134.8880185730582
 21
74.61953491408839
 31
0.0
 12
138.1900185730582
 22
74.06920158075506
 32
0.0
 13
138.1900185730582
 23
74.06920158075506
 33
0.0
  0
SOLID
  5
7A1
330
79A
100
AcDbEntity
  8
치수문자_일반주서
 62
     0
100
AcDbTrace
 10
90.71720926586185
 20
74.61953491408839
 30
0.0
 11
90.71720926586185
 21
73.51886824742174
 31
0.0
 12
87.41520926586185
 22
74.06920158075506
 32
0.0
 13
87.41520926586185
 23
74.06920158075506
 33
0.0
  0
MTEXT
  5
7A2
330
79A
100
AcDbEntity
  8
치수문자_일반주서
 62
     0
100
AcDbMText
 10
116.4665616237458
 20
78.44420158075506
 30
0.0
 40
3.5
 41
0.0
 71
     2
 72
     1
  1
\A1;50.77 [2.00]
  7
SLDTEXTSTYLE0
 73
     1
 44
1.0
  0
POINT
  5
7A3
330
79A
100
AcDbEntity
  8
Defpoints
 62
     0
100
AcDbPoint
 10
138.1900185730582
 20
50.10445739684354
 30
0.0
  0
POINT
  5
7A4
330
79A
100
AcDbEntity
  8
Defpoints
 62
     0
100
AcDbPoint
 10
87.41520926586185
 20
54.02400032259519
 30
0.0
  0
POINT
  5
7A5
330
79A
100
AcDbEntity
  8
Defpoints
 62
     0
100
AcDbPoint
 10
87.41520926586185
 20
74.06920158075509
 30
0.0
  0
ENDBLK
  5
79C
330
79A
100
AcDbEntity
  8
0
100
AcDbBlockEnd
  0
BLOCK
  5
7A7
330
7A6
100
AcDbEntity
  8
0
100
AcDbBlockBegin
  2
*D44
 70
     1
 10
0.0
 20
0.0
 30
0.0
  3
*D44
  1
*D44
  0
LINE
  5
7A9
330
7A6
100
AcDbEntity
  8
치수문자_일반주서
 62
     0
370
    -2
100
AcDbLine
 10
138.1900185730582
 20
50.16695739684354
 30
0.0
 11
138.1900185730582
 21
92.06920158075539
 31
0.0
  0
LINE
  5
7AA
330
7A6
100
AcDbEntity
  8
치수문자_일반주서
 62
     0
370
    -2
100
AcDbLine
 10
17.56520926586184
 20
53.95155157272356
 30
0.0
 11
17.56520926586184
 21
92.06920158075539
 31
0.0
  0
LINE
  5
7AB
330
7A6
100
AcDbEntity
  8
치수문자_일반주서
 62
     0
370
    -2
100
AcDbLine
 10
134.8880185730582
 20
92.06920158075539
 30
0.0
 11
20.86720926586184
 21
92.06920158075539
 31
0.0
  0
SOLID
  5
7AC
330
7A6
100
AcDbEntity
  8
치수문자_일반주서
 62
     0
100
AcDbTrace
 10
134.8880185730582
 20
91.51886824742206
 30
0.0
 11
134.8880185730582
 21
92.61953491408872
 31
0.0
 12
138.1900185730582
 22
92.06920158075539
 32
0.0
 13
138.1900185730582
 23
92.06920158075539
 33
0.0
  0
SOLID
  5
7AD
330
7A6
100
AcDbEntity
  8
치수문자_일반주서
 62
     0
100
AcDbTrace
 10
20.86720926586184
 20
92.61953491408872
 30
0.0
 11
20.86720926586184
 21
91.51886824742206
 31
0.0
 12
17.56520926586184
 22
92.06920158075539
 32
0.0
 13
17.56520926586184
 23
92.06920158075539
 33
0.0
  0
MTEXT
  5
7AE
330
7A6
100
AcDbEntity
  8
치수문자_일반주서
 62
     0
100
AcDbMText
 10
76.6151061754512
 20
96.44420158075539
 30
0.0
 40
3.5
 41
0.0
 71
     2
 72
     1
  1
\A1;120.62 [4.75]
  7
SLDTEXTSTYLE0
 73
     1
 44
1.0
  0
POINT
  5
7AF
330
7A6
100
AcDbEntity
  8
Defpoints
 62
     0
100
AcDbPoint
 10
138.1900185730582
 20
50.10445739684354
 30
0.0
  0
POINT
  5
7B0
330
7A6
100
AcDbEntity
  8
Defpoints
 62
     0
100
AcDbPoint
 10
17.56520926586184
 20
53.88905157272356
 30
0.0
  0
POINT
  5
7B1
330
7A6
100
AcDbEntity
  8
Defpoints
 62
     0
100
AcDbPoint
 10
17.56520926586184
 20
92.06920158075539
 30
0.0
  0
ENDBLK
  5
7A8
330
7A6
100
AcDbEntity
  8
0
100
AcDbBlockEnd
  0
BLOCK
  5
7B3
330
7B2
100
AcDbEntity
  8
0
100
AcDbBlockBegin
  2
*D45
 70
     1
 10
0.0
 20
0.0
 30
0.0
  3
*D45
  1
*D45
  0
LINE
  5
7B5
330
7B2
100
AcDbEntity
  8
치수문자_일반주서
 62
     0
370
    -2
100
AcDbLine
 10
138.1900185730582
 20
50.16695739684354
 30
0.0
 11
138.1900185730582
 21
86.06920158075535
 31
0.0
  0
LINE
  5
7B6
330
7B2
100
AcDbEntity
  8
치수문자_일반주서
 62
     0
370
    -2
100
AcDbLine
 10
68.36520926586185
 20
54.50755157272356
 30
0.0
 11
68.36520926586185
 21
86.06920158075535
 31
0.0
  0
LINE
  5
7B7
330
7B2
100
AcDbEntity
  8
치수문자_일반주서
 62
     0
370
    -2
100
AcDbLine
 10
134.8880185730582
 20
86.06920158075535
 30
0.0
 11
71.66720926586186
 21
86.06920158075535
 31
0.0
  0
SOLID
  5
7B8
330
7B2
100
AcDbEntity
  8
치수문자_일반주서
 62
     0
100
AcDbTrace
 10
134.8880185730582
 20
85.51886824742202
 30
0.0
 11
134.8880185730582
 21
86.61953491408867
 31
0.0
 12
138.1900185730582
 22
86.06920158075535
 32
0.0
 13
138.1900185730582
 23
86.06920158075535
 33
0.0
  0
SOLID
  5
7B9
330
7B2
100
AcDbEntity
  8
치수문자_일반주서
 62
     0
100
AcDbTrace
 10
71.66720926586186
 20
86.61953491408867
 30
0.0
 11
71.66720926586186
 21
85.51886824742202
 31
0.0
 12
68.36520926586185
 22
86.06920158075535
 32
0.0
 13
68.36520926586185
 23
86.06920158075535
 33
0.0
  0
MTEXT
  5
7BA
330
7B2
100
AcDbEntity
  8
치수문자_일반주서
 62
     0
100
AcDbMText
 10
103.27761391946
 20
90.44420158075535
 30
0.0
 40
3.5
 41
0.0
 71
     2
 72
     1
  1
\A1;69.82 [2.75]
  7
SLDTEXTSTYLE0
 73
     1
 44
1.0
  0
POINT
  5
7BB
330
7B2
100
AcDbEntity
  8
Defpoints
 62
     0
100
AcDbPoint
 10
138.1900185730582
 20
50.10445739684354
 30
0.0
  0
POINT
  5
7BC
330
7B2
100
AcDbEntity
  8
Defpoints
 62
     0
100
AcDbPoint
 10
68.36520926586185
 20
54.44505157272356
 30
0.0
  0
POINT
  5
7BD
330
7B2
100
AcDbEntity
  8
Defpoints
 62
     0
100
AcDbPoint
 10
68.36520926586185
 20
86.06920158075533
 30
0.0
  0
ENDBLK
  5
7B4
330
7B2
100
AcDbEntity
  8
0
100
AcDbBlockEnd
  0
BLOCK
  5
800
330
7FF
100
AcDbEntity
  8
0
100
AcDbBlockBegin
  2
*D46
 70
     1
 10
0.0
 20
0.0
 30
0.0
  3
*D46
  1
*D46
  0
LINE
  5
802
330
7FF
100
AcDbEntity
  8
치수문자_일반주서
 62
     0
370
    -2
100
AcDbLine
 10
60.42513387723119
 20
223.6927219206358
 30
0.0
 11
60.41804922428555
 21
223.6927219206358
 31
0.0
  0
LINE
  5
803
330
7FF
100
AcDbEntity
  8
치수문자_일반주서
 62
     0
370
    -2
100
AcDbLine
 10
60.42513387723119
 20
214.1677219206358
 30
0.0
 11
60.41804922428558
 21
214.1677219206358
 31
0.0
  0
LINE
  5
804
330
7FF
100
AcDbEntity
  8
치수문자_일반주서
 62
     0
370
    -2
100
AcDbLine
 10
60.41804922428556
 20
220.3907219206359
 30
0.0
 11
60.41804922428557
 21
217.4697219206358
 31
0.0
  0
SOLID
  5
805
330
7FF
100
AcDbEntity
  8
치수문자_일반주서
 62
     0
100
AcDbTrace
 10
60.9683825576189
 20
220.3907219206359
 30
0.0
 11
59.86771589095223
 21
220.3907219206359
 31
0.0
 12
60.41804922428555
 22
223.6927219206358
 32
0.0
 13
60.41804922428555
 23
223.6927219206358
 33
0.0
  0
SOLID
  5
806
330
7FF
100
AcDbEntity
  8
치수문자_일반주서
 62
     0
100
AcDbTrace
 10
59.86771589095223
 20
217.4697219206358
 30
0.0
 11
60.9683825576189
 21
217.4697219206358
 31
0.0
 12
60.41804922428558
 22
214.1677219206358
 32
0.0
 13
60.41804922428558
 23
214.1677219206358
 33
0.0
  0
MTEXT
  5
807
330
7FF
100
AcDbEntity
  8
치수문자_일반주서
 62
     0
100
AcDbMText
 10
56.04304922428557
 20
218.9302219206358
 30
0.0
 40
3.5
 41
0.0
 71
     2
 72
     1
  1
\A1;%%c9.53 [0.38]
  7
SLDTEXTSTYLE0
 11
-3.729883127349605E-15
 21
1.0
 31
0.0
 73
     1
 44
1.0
  0
POINT
  5
808
330
7FF
100
AcDbEntity
  8
Defpoints
 62
     0
100
AcDbPoint
 10
60.36263387723119
 20
223.6927219206358
 30
0.0
  0
POINT
  5
809
330
7FF
100
AcDbEntity
  8
Defpoints
 62
     0
100
AcDbPoint
 10
60.36263387723119
 20
214.1677219206358
 30
0.0
  0
POINT
  5
80A
330
7FF
100
AcDbEntity
  8
Defpoints
 62
     0
100
AcDbPoint
 10
60.41804922428558
 20
214.1677219206358
 30
0.0
  0
ENDBLK
  5
801
330
7FF
100
AcDbEntity
  8
0
100
AcDbBlockEnd
  0
BLOCK
  5
80C
330
80B
100
AcDbEntity
  8
0
100
AcDbBlockBegin
  2
*D47
 70
     1
 10
0.0
 20
0.0
 30
0.0
  3
*D47
  1
*D47
  0
LINE
  5
80E
330
80B
100
AcDbEntity
  8
치수문자_일반주서
 62
     0
370
    -2
100
AcDbLine
 10
-49.7985
 20
4.762499999999989
 30
0.0
 11
-62.81262007121526
 21
4.762499999999939
 31
0.0
  0
LINE
  5
80F
330
80B
100
AcDbEntity
  8
치수문자_일반주서
 62
     0
370
    -2
100
AcDbLine
 10
-49.7985
 20
-4.762500000000017
 30
0.0
 11
-62.81262007121523
 21
-4.762500000000067
 31
0.0
  0
LINE
  5
810
330
80B
100
AcDbEntity
  8
치수문자_일반주서
 62
     0
370
    -2
100
AcDbLine
 10
-62.81262007121526
 20
4.762499999999939
 30
0.0
 11
-62.81262007121538
 21
34.31449999999993
 31
0.0
  0
LINE
  5
811
330
80B
100
AcDbEntity
  8
치수문자_일반주서
 62
     0
370
    -2
100
AcDbLine
 10
-62.81262007121525
 20
1.460499999999939
 30
0.0
 11
-62.81262007121524
 21
-1.460500000000067
 31
0.0
  0
SOLID
  5
812
330
80B
100
AcDbEntity
  8
치수문자_일반주서
 62
     0
100
AcDbTrace
 10
-62.26228673788192
 20
1.460499999999941
 30
0.0
 11
-63.36295340454858
 21
1.460499999999937
 31
0.0
 12
-62.81262007121526
 22
4.762499999999939
 32
0.0
 13
-62.81262007121526
 23
4.762499999999939
 33
0.0
  0
SOLID
  5
813
330
80B
100
AcDbEntity
  8
치수문자_일반주서
 62
     0
100
AcDbTrace
 10
-63.36295340454858
 20
-1.460500000000069
 30
0.0
 11
-62.26228673788191
 21
-1.460500000000065
 31
0.0
 12
-62.81262007121523
 22
-4.762500000000067
 32
0.0
 13
-62.81262007121523
 23
-4.762500000000067
 33
0.0
  0
MTEXT
  5
814
330
80B
100
AcDbEntity
  8
치수문자_일반주서
 62
     0
100
AcDbMText
 10
-67.18762007121532
 20
21.18949999999992
 30
0.0
 40
3.5
 41
0.0
 71
     2
 72
     1
  1
\A1;%%c9.53 [3/8]
  7
SLDTEXTSTYLE0
 11
-3.729883127349605E-15
 21
1.0
 31
0.0
 73
     1
 44
1.0
  0
POINT
  5
815
330
80B
100
AcDbEntity
  8
Defpoints
 62
     0
100
AcDbPoint
 10
-49.736
 20
4.762499999999989
 30
0.0
  0
POINT
  5
816
330
80B
100
AcDbEntity
  8
Defpoints
 62
     0
100
AcDbPoint
 10
-49.736
 20
-4.762500000000017
 30
0.0
  0
POINT
  5
857
330
80B
100
AcDbEntity
  8
Defpoints
 62
     0
100
AcDbPoint
 10
-62.81262007121523
 20
-4.762500000000066
 30
0.0
  0
ENDBLK
  5
80D
330
80B
100
AcDbEntity
  8
0
100
AcDbBlockEnd
  0
BLOCK
  5
818
330
817
100
AcDbEntity
  8
0
100
AcDbBlockBegin
  2
*D48
 70
     1
 10
0.0
 20
0.0
 30
0.0
  3
*D48
  1
*D48
  0
LINE
  5
81A
330
817
100
AcDbEntity
  8
치수문자_일반주서
 62
     0
370
    -2
100
AcDbLine
 10
70.07880930719634
 20
4.825000000000017
 30
0.0
 11
70.07880930719634
 21
24.13265000803148
 31
0.0
  0
LINE
  5
81B
330
817
100
AcDbEntity
  8
치수문자_일반주서
 62
     0
370
    -2
100
AcDbLine
 10
19.304
 20
4.149948749871612
 30
0.0
 11
19.304
 21
24.13265000803148
 31
0.0
  0
LINE
  5
81C
330
817
100
AcDbEntity
  8
치수문자_일반주서
 62
     0
370
    -2
100
AcDbLine
 10
66.77680930719633
 20
24.13265000803148
 30
0.0
 11
22.606
 21
24.13265000803148
 31
0.0
  0
SOLID
  5
81D
330
817
100
AcDbEntity
  8
치수문자_일반주서
 62
     0
100
AcDbTrace
 10
66.77680930719633
 20
23.58231667469814
 30
0.0
 11
66.77680930719633
 21
24.68298334136481
 31
0.0
 12
70.07880930719634
 22
24.13265000803148
 32
0.0
 13
70.07880930719634
 23
24.13265000803148
 33
0.0
  0
SOLID
  5
81E
330
817
100
AcDbEntity
  8
치수문자_일반주서
 62
     0
100
AcDbTrace
 10
22.606
 20
24.68298334136481
 30
0.0
 11
22.606
 21
23.58231667469814
 31
0.0
 12
19.304
 22
24.13265000803148
 32
0.0
 13
19.304
 23
24.13265000803148
 33
0.0
  0
MTEXT
  5
81F
330
817
100
AcDbEntity
  8
치수문자_일반주서
 62
     0
100
AcDbMText
 10
48.35535235788397
 20
28.50765000803148
 30
0.0
 40
3.5
 41
0.0
 71
     2
 72
     1
  1
\A1;50.77 [2]
  7
SLDTEXTSTYLE0
 73
     1
 44
1.0
  0
POINT
  5
820
330
817
100
AcDbEntity
  8
Defpoints
 62
     0
100
AcDbPoint
 10
70.07880930719634
 20
4.762500000000017
 30
0.0
  0
POINT
  5
821
330
817
100
AcDbEntity
  8
Defpoints
 62
     0
100
AcDbPoint
 10
19.304
 20
4.087448749871612
 30
0.0
  0
POINT
  5
822
330
817
100
AcDbEntity
  8
Defpoints
 62
     0
100
AcDbPoint
 10
19.304
 20
24.13265000803148
 30
0.0
  0
ENDBLK
  5
819
330
817
100
AcDbEntity
  8
0
100
AcDbBlockEnd
  0
BLOCK
  5
824
330
823
100
AcDbEntity
  8
0
100
AcDbBlockBegin
  2
*D49
 70
     1
 10
0.0
 20
0.0
 30
0.0
  3
*D49
  1
*D49
  0
LINE
  5
826
330
823
100
AcDbEntity
  8
치수문자_일반주서
 62
     0
370
    -2
100
AcDbLine
 10
70.07880930719634
 20
4.825000000000017
 30
0.0
 11
70.07880930719634
 21
42.13265000803182
 31
0.0
  0
LINE
  5
827
330
823
100
AcDbEntity
  8
치수문자_일반주서
 62
     0
370
    -2
100
AcDbLine
 10
-50.54600000000001
 20
4.014999999999986
 30
0.0
 11
-50.54600000000001
 21
42.13265000803182
 31
0.0
  0
LINE
  5
828
330
823
100
AcDbEntity
  8
치수문자_일반주서
 62
     0
370
    -2
100
AcDbLine
 10
66.77680930719633
 20
42.13265000803182
 30
0.0
 11
-47.24400000000001
 21
42.13265000803182
 31
0.0
  0
SOLID
  5
829
330
823
100
AcDbEntity
  8
치수문자_일반주서
 62
     0
100
AcDbTrace
 10
66.77680930719633
 20
41.58231667469848
 30
0.0
 11
66.77680930719633
 21
42.68298334136515
 31
0.0
 12
70.07880930719634
 22
42.13265000803182
 32
0.0
 13
70.07880930719634
 23
42.13265000803182
 33
0.0
  0
SOLID
  5
82A
330
823
100
AcDbEntity
  8
치수문자_일반주서
 62
     0
100
AcDbTrace
 10
-47.24400000000001
 20
42.68298334136515
 30
0.0
 11
-47.24400000000001
 21
41.58231667469848
 31
0.0
 12
-50.54600000000001
 22
42.13265000803182
 32
0.0
 13
-50.54600000000001
 23
42.13265000803182
 33
0.0
  0
MTEXT
  5
82B
330
823
100
AcDbEntity
  8
치수문자_일반주서
 62
     0
100
AcDbMText
 10
8.503896909589358
 20
46.50765000803182
 30
0.0
 40
3.5
 41
0.0
 71
     2
 72
     1
  1
\A1;120.62 [4 3/4]
  7
SLDTEXTSTYLE0
 73
     1
 44
1.0
  0
POINT
  5
82C
330
823
100
AcDbEntity
  8
Defpoints
 62
     0
100
AcDbPoint
 10
70.07880930719634
 20
4.762500000000017
 30
0.0
  0
POINT
  5
82D
330
823
100
AcDbEntity
  8
Defpoints
 62
     0
100
AcDbPoint
 10
-50.54600000000001
 20
3.952499999999986
 30
0.0
  0
POINT
  5
82E
330
823
100
AcDbEntity
  8
Defpoints
 62
     0
100
AcDbPoint
 10
-50.54600000000001
 20
42.13265000803182
 30
0.0
  0
ENDBLK
  5
825
330
823
100
AcDbEntity
  8
0
100
AcDbBlockEnd
  0
BLOCK
  5
830
330
82F
100
AcDbEntity
  8
0
100
AcDbBlockBegin
  2
*D50
 70
     1
 10
0.0
 20
0.0
 30
0.0
  3
*D50
  1
*D50
  0
LINE
  5
832
330
82F
100
AcDbEntity
  8
치수문자_일반주서
 62
     0
370
    -2
100
AcDbLine
 10
70.07880930719634
 20
4.825000000000017
 30
0.0
 11
70.07880930719634
 21
32.90094180609333
 31
0.0
  0
LINE
  5
833
330
82F
100
AcDbEntity
  8
치수문자_일반주서
 62
     0
370
    -2
100
AcDbLine
 10
0.2540000000000049
 20
4.570999999999998
 30
0.0
 11
0.2540000000000049
 21
32.90094180609333
 31
0.0
  0
LINE
  5
834
330
82F
100
AcDbEntity
  8
치수문자_일반주서
 62
     0
370
    -2
100
AcDbLine
 10
66.77680930719633
 20
32.90094180609333
 30
0.0
 11
3.556000000000005
 21
32.90094180609333
 31
0.0
  0
SOLID
  5
835
330
82F
100
AcDbEntity
  8
치수문자_일반주서
 62
     0
100
AcDbTrace
 10
66.77680930719633
 20
32.35060847275999
 30
0.0
 11
66.77680930719633
 21
33.45127513942666
 31
0.0
 12
70.07880930719634
 22
32.90094180609333
 32
0.0
 13
70.07880930719634
 23
32.90094180609333
 33
0.0
  0
SOLID
  5
836
330
82F
100
AcDbEntity
  8
치수문자_일반주서
 62
     0
100
AcDbTrace
 10
3.556000000000005
 20
33.45127513942666
 30
0.0
 11
3.556000000000005
 21
32.35060847275999
 31
0.0
 12
0.2540000000000049
 22
32.90094180609333
 32
0.0
 13
0.2540000000000049
 23
32.90094180609333
 33
0.0
  0
MTEXT
  5
837
330
82F
100
AcDbEntity
  8
치수문자_일반주서
 62
     0
100
AcDbMText
 10
35.16640465359816
 20
37.27594180609333
 30
0.0
 40
3.5
 41
0.0
 71
     2
 72
     1
  1
\A1;69.82 [2 3/4]
  7
SLDTEXTSTYLE0
 73
     1
 44
1.0
  0
POINT
  5
838
330
82F
100
AcDbEntity
  8
Defpoints
 62
     0
100
AcDbPoint
 10
70.07880930719634
 20
4.762500000000017
 30
0.0
  0
POINT
  5
839
330
82F
100
AcDbEntity
  8
Defpoints
 62
     0
100
AcDbPoint
 10
0.2540000000000049
 20
4.508499999999998
 30
0.0
  0
POINT
  5
83A
330
82F
100
AcDbEntity
  8
Defpoints
 62
     0
100
AcDbPoint
 10
0.2540000000000049
 20
32.90094180609333
 30
0.0
  0
ENDBLK
  5
831
330
82F
100
AcDbEntity
  8
0
100
AcDbBlockEnd
  0
BLOCK
  5
848
330
847
100
AcDbEntity
  8
0
100
AcDbBlockBegin
  2
*D51
 70
     1
 10
0.0
 20
0.0
 30
0.0
  3
*D51
  1
*D51
  0
LINE
  5
84A
330
847
100
AcDbEntity
  8
치수문자_일반주서
 62
     0
370
    -2
100
AcDbLine
 10
70.14130930719634
 20
4.762500000000017
 30
0.0
 11
83.72572409317794
 21
4.762500000000017
 31
0.0
  0
LINE
  5
84B
330
847
100
AcDbEntity
  8
치수문자_일반주서
 62
     0
370
    -2
100
AcDbLine
 10
70.1665
 20
-4.762499999999989
 30
0.0
 11
83.72572409317794
 21
-4.762499999999989
 31
0.0
  0
LINE
  5
84C
330
847
100
AcDbEntity
  8
치수문자_일반주서
 62
     0
370
    -2
100
AcDbLine
 10
83.72572409317794
 20
4.762500000000017
 30
0.0
 11
83.72572409317794
 21
34.99150000000003
 31
0.0
  0
LINE
  5
84D
330
847
100
AcDbEntity
  8
치수문자_일반주서
 62
     0
370
    -2
100
AcDbLine
 10
83.72572409317794
 20
4.762500000000017
 30
0.0
 11
83.72572409317794
 21
-4.762499999999989
 31
0.0
  0
LINE
  5
84E
330
847
100
AcDbEntity
  8
치수문자_일반주서
 62
     0
370
    -2
100
AcDbLine
 10
83.72572409317794
 20
8.064500000000017
 30
0.0
 11
83.72572409317794
 21
11.36650000000002
 31
0.0
  0
LINE
  5
84F
330
847
100
AcDbEntity
  8
치수문자_일반주서
 62
     0
370
    -2
100
AcDbLine
 10
83.72572409317794
 20
-8.064499999999988
 30
0.0
 11
83.72572409317794
 21
-11.36649999999999
 31
0.0
  0
SOLID
  5
850
330
847
100
AcDbEntity
  8
치수문자_일반주서
 62
     0
100
AcDbTrace
 10
83.17539075984462
 20
8.064500000000017
 30
0.0
 11
84.27605742651127
 21
8.064500000000017
 31
0.0
 12
83.72572409317794
 22
4.762500000000017
 32
0.0
 13
83.72572409317794
 23
4.762500000000017
 33
0.0
  0
SOLID
  5
851
330
847
100
AcDbEntity
  8
치수문자_일반주서
 62
     0
100
AcDbTrace
 10
84.27605742651127
 20
-8.064499999999988
 30
0.0
 11
83.17539075984462
 21
-8.064499999999988
 31
0.0
 12
83.72572409317794
 22
-4.762499999999989
 32
0.0
 13
83.72572409317794
 23
-4.762499999999989
 33
0.0
  0
MTEXT
  5
852
330
847
100
AcDbEntity
  8
치수문자_일반주서
 62
     0
100
AcDbMText
 10
81.10072409317794
 20
23.17900000000003
 30
0.0
 40
3.5
 41
0.0
 71
     5
 72
     1
  1
\A1;9.53 [3/8]
  7
SLDTEXTSTYLE0
 11
0.0
 21
1.0
 31
0.0
 73
     1
 44
1.0
  0
POINT
  5
853
330
847
100
AcDbEntity
  8
Defpoints
 62
     0
100
AcDbPoint
 10
70.07880930719634
 20
4.762500000000017
 30
0.0
  0
POINT
  5
854
330
847
100
AcDbEntity
  8
Defpoints
 62
     0
100
AcDbPoint
 10
70.104
 20
-4.762499999999989
 30
0.0
  0
POINT
  5
856
330
847
100
AcDbEntity
  8
Defpoints
 62
     0
100
AcDbPoint
 10
83.72572409317794
 20
-4.76249999999999
 30
0.0
  0
ENDBLK
  5
849
330
847
100
AcDbEntity
  8
0
100
AcDbBlockEnd
  0
BLOCK
  5
917
330
916
100
AcDbEntity
  8
0
100
AcDbBlockBegin
  2
*D52
 70
     1
 10
0.0
 20
0.0
 30
0.0
  3
*D52
  1
*D52
  0
LINE
  5
919
330
916
100
AcDbEntity
  8
치수문자_일반주서
 62
     0
370
    -2
100
AcDbLine
 10
120.2276020900092
 20
53.90530157272357
 30
0.0
 11
127.329496001893
 21
53.90530157272359
 31
0.0
  0
LINE
  5
91A
330
916
100
AcDbEntity
  8
치수문자_일반주서
 62
     0
370
    -2
100
AcDbLine
 10
120.2276020900092
 20
45.96780157272357
 30
0.0
 11
127.329496001893
 21
45.96780157272359
 31
0.0
  0
LINE
  5
91B
330
916
100
AcDbEntity
  8
치수문자_일반주서
 62
     0
370
    -2
100
AcDbLine
 10
127.329496001893
 20
57.20730157272359
 30
0.0
 11
127.329496001893
 21
60.50930157272359
 31
0.0
  0
LINE
  5
91C
330
916
100
AcDbEntity
  8
치수문자_일반주서
 62
     0
370
    -2
100
AcDbLine
 10
127.329496001893
 20
42.66580157272359
 30
0.0
 11
127.329496001893
 21
39.3638015727236
 31
0.0
  0
SOLID
  5
91D
330
916
100
AcDbEntity
  8
치수문자_일반주서
 62
     0
100
AcDbTrace
 10
126.7791626685596
 20
57.20730157272359
 30
0.0
 11
127.8798293352263
 21
57.20730157272359
 31
0.0
 12
127.329496001893
 22
53.90530157272359
 32
0.0
 13
127.329496001893
 23
53.90530157272359
 33
0.0
  0
SOLID
  5
91E
330
916
100
AcDbEntity
  8
치수문자_일반주서
 62
     0
100
AcDbTrace
 10
127.8798293352264
 20
42.66580157272359
 30
0.0
 11
126.7791626685597
 21
42.66580157272359
 31
0.0
 12
127.329496001893
 22
45.96780157272359
 32
0.0
 13
127.329496001893
 23
45.96780157272359
 33
0.0
  0
MTEXT
  5
91F
330
916
100
AcDbEntity
  8
치수문자_일반주서
 62
     0
100
AcDbMText
 10
122.954496001893
 20
49.93655157272354
 30
0.0
 40
3.5
 41
0.0
 71
     2
 72
     1
  1
\A1;%%c7.94 [0.31]
  7
SLDTEXTSTYLE0
 11
-3.580687802255623E-15
 21
1.0
 31
0.0
 73
     1
 44
1.0
  0
POINT
  5
920
330
916
100
AcDbEntity
  8
Defpoints
 62
     0
100
AcDbPoint
 10
120.1651020900092
 20
53.90530157272357
 30
0.0
  0
POINT
  5
921
330
916
100
AcDbEntity
  8
Defpoints
 62
     0
100
AcDbPoint
 10
120.1651020900092
 20
45.96780157272357
 30
0.0
  0
POINT
  5
922
330
916
100
AcDbEntity
  8
Defpoints
 62
     0
100
AcDbPoint
 10
127.329496001893
 20
45.96780157272359
 30
0.0
  0
ENDBLK
  5
918
330
916
100
AcDbEntity
  8
0
100
AcDbBlockEnd
  0
BLOCK
  5
924
330
923
100
AcDbEntity
  8
0
100
AcDbBlockBegin
  2
*D53
 70
     1
 10
0.0
 20
0.0
 30
0.0
  3
*D53
  1
*D53
  0
LINE
  5
926
330
923
100
AcDbEntity
  8
치수문자_일반주서
 62
     0
370
    -2
100
AcDbLine
 10
18.31270926586182
 20
53.90530157272356
 30
0.0
 11
4.565209265861761
 21
53.90530157272351
 31
0.0
  0
LINE
  5
927
330
923
100
AcDbEntity
  8
치수문자_일반주서
 62
     0
370
    -2
100
AcDbLine
 10
18.31270926586182
 20
45.96780157272354
 30
0.0
 11
4.565209265861789
 21
45.96780157272349
 31
0.0
  0
LINE
  5
928
330
923
100
AcDbEntity
  8
치수문자_일반주서
 62
     0
370
    -2
100
AcDbLine
 10
4.56520926586175
 20
57.20730157272351
 30
0.0
 11
4.565209265861738
 21
60.50930157272351
 31
0.0
  0
LINE
  5
929
330
923
100
AcDbEntity
  8
치수문자_일반주서
 62
     0
370
    -2
100
AcDbLine
 10
4.5652092658618
 20
42.6658015727235
 30
0.0
 11
4.565209265861812
 21
39.3638015727235
 31
0.0
  0
SOLID
  5
92A
330
923
100
AcDbEntity
  8
치수문자_일반주서
 62
     0
100
AcDbTrace
 10
4.014875932528416
 20
57.20730157272351
 30
0.0
 11
5.115542599195083
 21
57.20730157272351
 31
0.0
 12
4.565209265861761
 22
53.90530157272351
 32
0.0
 13
4.565209265861761
 23
53.90530157272351
 33
0.0
  0
SOLID
  5
92B
330
923
100
AcDbEntity
  8
치수문자_일반주서
 62
     0
100
AcDbTrace
 10
5.115542599195134
 20
42.6658015727235
 30
0.0
 11
4.014875932528467
 21
42.6658015727235
 31
0.0
 12
4.565209265861789
 22
45.96780157272349
 32
0.0
 13
4.565209265861789
 23
45.96780157272349
 33
0.0
  0
MTEXT
  5
92C
330
923
100
AcDbEntity
  8
치수문자_일반주서
 62
     0
100
AcDbMText
 10
0.1902092658617747
 20
49.93655157272354
 30
0.0
 40
3.5
 41
0.0
 71
     2
 72
     1
  1
\A1;%%c7.94 [0.31]
  7
SLDTEXTSTYLE0
 11
-3.468791308435129E-15
 21
1.0
 31
0.0
 73
     1
 44
1.0
  0
POINT
  5
92D
330
923
100
AcDbEntity
  8
Defpoints
 62
     0
100
AcDbPoint
 10
18.37520926586182
 20
53.90530157272356
 30
0.0
  0
POINT
  5
92E
330
923
100
AcDbEntity
  8
Defpoints
 62
     0
100
AcDbPoint
 10
18.37520926586182
 20
45.96780157272354
 30
0.0
  0
POINT
  5
92F
330
923
100
AcDbEntity
  8
Defpoints
 62
     0
100
AcDbPoint
 10
4.565209265861775
 20
45.96780157272349
 30
0.0
  0
ENDBLK
  5
925
330
923
100
AcDbEntity
  8
0
100
AcDbBlockEnd
  0
BLOCK
  5
931
330
930
100
AcDbEntity
  8
0
100
AcDbBlockBegin
  2
*D54
 70
     1
 10
0.0
 20
0.0
 30
0.0
  3
*D54
  1
*D54
  0
LINE
  5
933
330
930
100
AcDbEntity
  8
치수문자_일반주서
 62
     0
370
    -2
100
AcDbLine
 10
132.2242170218587
 20
50.13897309282354
 30
0.0
 11
132.2242170218587
 21
74.0412172767353
 31
0.0
  0
LINE
  5
934
330
930
100
AcDbEntity
  8
치수문자_일반주서
 62
     0
370
    -2
100
AcDbLine
 10
94.1452092658619
 20
51.75293304892288
 30
0.0
 11
94.1452092658619
 21
74.0412172767353
 31
0.0
  0
LINE
  5
935
330
930
100
AcDbEntity
  8
치수문자_일반주서
 62
     0
370
    -2
100
AcDbLine
 10
128.9222170218588
 20
74.0412172767353
 30
0.0
 11
97.4472092658619
 21
74.0412172767353
 31
0.0
  0
SOLID
  5
936
330
930
100
AcDbEntity
  8
치수문자_일반주서
 62
     0
100
AcDbTrace
 10
128.9222170218588
 20
73.49088394340197
 30
0.0
 11
128.9222170218588
 21
74.59155061006862
 31
0.0
 12
132.2242170218587
 22
74.0412172767353
 32
0.0
 13
132.2242170218587
 23
74.0412172767353
 33
0.0
  0
SOLID
  5
937
330
930
100
AcDbEntity
  8
치수문자_일반주서
 62
     0
100
AcDbTrace
 10
97.4472092658619
 20
74.59155061006862
 30
0.0
 11
97.4472092658619
 21
73.49088394340197
 31
0.0
 12
94.1452092658619
 22
74.0412172767353
 32
0.0
 13
94.1452092658619
 23
74.0412172767353
 33
0.0
  0
MTEXT
  5
938
330
930
100
AcDbEntity
  8
치수문자_일반주서
 62
     0
100
AcDbMText
 10
115.9325224404934
 20
78.4162172767353
 30
0.0
 40
3.5
 41
0.0
 71
     2
 72
     1
  1
\A1;38.08 [1.50]
  7
SLDTEXTSTYLE0
 73
     1
 44
1.0
  0
POINT
  5
939
330
930
100
AcDbEntity
  8
Defpoints
 62
     0
100
AcDbPoint
 10
132.2242170218587
 20
50.07647309282354
 30
0.0
  0
POINT
  5
93A
330
930
100
AcDbEntity
  8
Defpoints
 62
     0
100
AcDbPoint
 10
94.1452092658619
 20
51.69043304892288
 30
0.0
  0
POINT
  5
93B
330
930
100
AcDbEntity
  8
Defpoints
 62
     0
100
AcDbPoint
 10
94.1452092658619
 20
74.04121727673567
 30
0.0
  0
ENDBLK
  5
932
330
930
100
AcDbEntity
  8
0
100
AcDbBlockEnd
  0
BLOCK
  5
93D
330
93C
100
AcDbEntity
  8
0
100
AcDbBlockBegin
  2
*D55
 70
     1
 10
0.0
 20
0.0
 30
0.0
  3
*D55
  1
*D55
  0
LINE
  5
93F
330
93C
100
AcDbEntity
  8
치수문자_일반주서
 62
     0
370
    -2
100
AcDbLine
 10
132.2242170218587
 20
50.13897309282354
 30
0.0
 11
132.2242170218587
 21
92.04121727673538
 31
0.0
  0
LINE
  5
940
330
93C
100
AcDbEntity
  8
치수문자_일반주서
 62
     0
370
    -2
100
AcDbLine
 10
17.94520926586182
 20
53.53780157272356
 30
0.0
 11
17.94520926586182
 21
92.04121727673538
 31
0.0
  0
LINE
  5
941
330
93C
100
AcDbEntity
  8
치수문자_일반주서
 62
     0
370
    -2
100
AcDbLine
 10
128.9222170218588
 20
92.04121727673538
 30
0.0
 11
21.24720926586182
 21
92.04121727673538
 31
0.0
  0
SOLID
  5
942
330
93C
100
AcDbEntity
  8
치수문자_일반주서
 62
     0
100
AcDbTrace
 10
128.9222170218588
 20
91.49088394340205
 30
0.0
 11
128.9222170218588
 21
92.59155061006871
 31
0.0
 12
132.2242170218587
 22
92.04121727673538
 32
0.0
 13
132.2242170218587
 23
92.04121727673538
 33
0.0
  0
SOLID
  5
943
330
93C
100
AcDbEntity
  8
치수문자_일반주서
 62
     0
100
AcDbTrace
 10
21.24720926586182
 20
92.59155061006871
 30
0.0
 11
21.24720926586182
 21
91.49088394340205
 31
0.0
 12
17.94520926586182
 22
92.04121727673538
 32
0.0
 13
17.94520926586182
 23
92.04121727673538
 33
0.0
  0
MTEXT
  5
944
330
93C
100
AcDbEntity
  8
치수문자_일반주서
 62
     0
100
AcDbMText
 10
73.8886231098263
 20
96.41621727673538
 30
0.0
 40
3.5
 41
0.0
 71
     2
 72
     1
  1
\A1;114.28 [4.50]
  7
SLDTEXTSTYLE0
 73
     1
 44
1.0
  0
POINT
  5
945
330
93C
100
AcDbEntity
  8
Defpoints
 62
     0
100
AcDbPoint
 10
132.2242170218587
 20
50.07647309282354
 30
0.0
  0
POINT
  5
946
330
93C
100
AcDbEntity
  8
Defpoints
 62
     0
100
AcDbPoint
 10
17.94520926586182
 20
53.47530157272356
 30
0.0
  0
POINT
  5
947
330
93C
100
AcDbEntity
  8
Defpoints
 62
     0
100
AcDbPoint
 10
17.94520926586182
 20
92.04121727673538
 30
0.0
  0
ENDBLK
  5
93E
330
93C
100
AcDbEntity
  8
0
100
AcDbBlockEnd
  0
BLOCK
  5
949
330
948
100
AcDbEntity
  8
0
100
AcDbBlockBegin
  2
*D56
 70
     1
 10
0.0
 20
0.0
 30
0.0
  3
*D56
  1
*D56
  0
LINE
  5
94B
330
948
100
AcDbEntity
  8
치수문자_일반주서
 62
     0
370
    -2
100
AcDbLine
 10
132.2242170218587
 20
50.13897309282354
 30
0.0
 11
132.2242170218587
 21
86.04121727673535
 31
0.0
  0
LINE
  5
94C
330
948
100
AcDbEntity
  8
치수문자_일반주서
 62
     0
370
    -2
100
AcDbLine
 10
71.92020926586183
 20
53.72015157272357
 30
0.0
 11
71.92020926586183
 21
86.04121727673535
 31
0.0
  0
LINE
  5
94D
330
948
100
AcDbEntity
  8
치수문자_일반주서
 62
     0
370
    -2
100
AcDbLine
 10
128.9222170218588
 20
86.04121727673535
 30
0.0
 11
75.22220926586184
 21
86.04121727673535
 31
0.0
  0
SOLID
  5
94E
330
948
100
AcDbEntity
  8
치수문자_일반주서
 62
     0
100
AcDbTrace
 10
128.9222170218588
 20
85.49088394340203
 30
0.0
 11
128.9222170218588
 21
86.59155061006868
 31
0.0
 12
132.2242170218587
 22
86.04121727673535
 32
0.0
 13
132.2242170218587
 23
86.04121727673535
 33
0.0
  0
SOLID
  5
94F
330
948
100
AcDbEntity
  8
치수문자_일반주서
 62
     0
100
AcDbTrace
 10
75.22220926586184
 20
86.59155061006868
 30
0.0
 11
75.22220926586184
 21
85.49088394340203
 31
0.0
 12
71.92020926586183
 22
86.04121727673535
 32
0.0
 13
71.92020926586183
 23
86.04121727673535
 33
0.0
  0
MTEXT
  5
950
330
948
100
AcDbEntity
  8
치수문자_일반주서
 62
     0
100
AcDbMText
 10
102.0722131438603
 20
90.41621727673535
 30
0.0
 40
3.5
 41
0.0
 71
     2
 72
     1
  1
\A1;60.30
  7
SLDTEXTSTYLE0
 73
     1
 44
1.0
  0
POINT
  5
951
330
948
100
AcDbEntity
  8
Defpoints
 62
     0
100
AcDbPoint
 10
132.2242170218587
 20
50.07647309282354
 30
0.0
  0
POINT
  5
952
330
948
100
AcDbEntity
  8
Defpoints
 62
     0
100
AcDbPoint
 10
71.92020926586183
 20
53.65765157272357
 30
0.0
  0
POINT
  5
953
330
948
100
AcDbEntity
  8
Defpoints
 62
     0
100
AcDbPoint
 10
71.92020926586183
 20
86.04121727673535
 30
0.0
  0
ENDBLK
  5
94A
330
948
100
AcDbEntity
  8
0
100
AcDbBlockEnd
  0
BLOCK
  5
996
330
995
100
AcDbEntity
  8
0
100
AcDbBlockBegin
  2
*D57
 70
     1
 10
0.0
 20
0.0
 30
0.0
  3
*D57
  1
*D57
  0
LINE
  5
998
330
995
100
AcDbEntity
  8
치수문자_일반주서
 62
     0
370
    -2
100
AcDbLine
 10
115.2272767276555
 20
152.3911842119234
 30
0.0
 11
122.3291706395393
 21
152.3911842119234
 31
0.0
  0
LINE
  5
999
330
995
100
AcDbEntity
  8
치수문자_일반주서
 62
     0
370
    -2
100
AcDbLine
 10
115.2272767276555
 20
144.4536842119234
 30
0.0
 11
122.3291706395393
 21
144.4536842119234
 31
0.0
  0
LINE
  5
99A
330
995
100
AcDbEntity
  8
치수문자_일반주서
 62
     0
370
    -2
100
AcDbLine
 10
122.3291706395393
 20
155.6931842119234
 30
0.0
 11
122.3291706395393
 21
158.9951842119234
 31
0.0
  0
LINE
  5
99B
330
995
100
AcDbEntity
  8
치수문자_일반주서
 62
     0
370
    -2
100
AcDbLine
 10
122.3291706395393
 20
141.1516842119235
 30
0.0
 11
122.3291706395394
 21
137.8496842119235
 31
0.0
  0
SOLID
  5
99C
330
995
100
AcDbEntity
  8
치수문자_일반주서
 62
     0
100
AcDbTrace
 10
121.778837306206
 20
155.6931842119234
 30
0.0
 11
122.8795039728726
 21
155.6931842119234
 31
0.0
 12
122.3291706395393
 22
152.3911842119234
 32
0.0
 13
122.3291706395393
 23
152.3911842119234
 33
0.0
  0
SOLID
  5
99D
330
995
100
AcDbEntity
  8
치수문자_일반주서
 62
     0
100
AcDbTrace
 10
122.8795039728727
 20
141.1516842119235
 30
0.0
 11
121.778837306206
 21
141.1516842119235
 31
0.0
 12
122.3291706395393
 22
144.4536842119234
 32
0.0
 13
122.3291706395393
 23
144.4536842119234
 33
0.0
  0
MTEXT
  5
99E
330
995
100
AcDbEntity
  8
치수문자_일반주서
 62
     0
100
AcDbMText
 10
117.9541706395393
 20
148.4224342119234
 30
0.0
 40
3.5
 41
0.0
 71
     2
 72
     1
  1
\A1;%%c7.94 [0.31]
  7
SLDTEXTSTYLE0
 11
-3.580687802255623E-15
 21
1.0
 31
0.0
 73
     1
 44
1.0
  0
POINT
  5
99F
330
995
100
AcDbEntity
  8
Defpoints
 62
     0
100
AcDbPoint
 10
115.1647767276555
 20
152.3911842119234
 30
0.0
  0
POINT
  5
9A0
330
995
100
AcDbEntity
  8
Defpoints
 62
     0
100
AcDbPoint
 10
115.1647767276555
 20
144.4536842119234
 30
0.0
  0
POINT
  5
9A1
330
995
100
AcDbEntity
  8
Defpoints
 62
     0
100
AcDbPoint
 10
122.3291706395393
 20
144.4536842119234
 30
0.0
  0
ENDBLK
  5
997
330
995
100
AcDbEntity
  8
0
100
AcDbBlockEnd
  0
BLOCK
  5
9A3
330
9A2
100
AcDbEntity
  8
0
100
AcDbBlockBegin
  2
*D58
 70
     1
 10
0.0
 20
0.0
 30
0.0
  3
*D58
  1
*D58
  0
LINE
  5
9A5
330
9A2
100
AcDbEntity
  8
치수문자_일반주서
 62
     0
370
    -2
100
AcDbLine
 10
-53.35985
 20
3.96875
 30
0.0
 11
-66.86250457341413
 21
3.96874999999995
 31
0.0
  0
LINE
  5
9A6
330
9A2
100
AcDbEntity
  8
치수문자_일반주서
 62
     0
370
    -2
100
AcDbLine
 10
-53.35985
 20
-3.968750000000029
 30
0.0
 11
-66.8625045734141
 21
-3.968750000000078
 31
0.0
  0
LINE
  5
9A7
330
9A2
100
AcDbEntity
  8
치수문자_일반주서
 62
     0
370
    -2
100
AcDbLine
 10
-66.86250457341413
 20
3.96874999999995
 30
0.0
 11
-66.86250457341426
 21
38.57274999999995
 31
0.0
  0
LINE
  5
9A8
330
9A2
100
AcDbEntity
  8
치수문자_일반주서
 62
     0
370
    -2
100
AcDbLine
 10
-66.86250457341414
 20
7.27074999999995
 30
0.0
 11
-66.86250457341416
 21
10.57274999999995
 31
0.0
  0
LINE
  5
9A9
330
9A2
100
AcDbEntity
  8
치수문자_일반주서
 62
     0
370
    -2
100
AcDbLine
 10
-66.86250457341409
 20
-7.270750000000078
 30
0.0
 11
-66.86250457341407
 21
-10.57275000000008
 31
0.0
  0
SOLID
  5
9AA
330
9A2
100
AcDbEntity
  8
치수문자_일반주서
 62
     0
100
AcDbTrace
 10
-67.41283790674747
 20
7.270749999999948
 30
0.0
 11
-66.31217124008081
 21
7.270749999999952
 31
0.0
 12
-66.86250457341413
 22
3.96874999999995
 32
0.0
 13
-66.86250457341413
 23
3.96874999999995
 33
0.0
  0
SOLID
  5
9AB
330
9A2
100
AcDbEntity
  8
치수문자_일반주서
 62
     0
100
AcDbTrace
 10
-66.31217124008076
 20
-7.270750000000076
 30
0.0
 11
-67.41283790674741
 21
-7.27075000000008
 31
0.0
 12
-66.8625045734141
 22
-3.968750000000078
 32
0.0
 13
-66.8625045734141
 23
-3.968750000000078
 33
0.0
  0
MTEXT
  5
9AC
330
9A2
100
AcDbEntity
  8
치수문자_일반주서
 62
     0
100
AcDbMText
 10
-71.2375045734142
 20
24.57274999999993
 30
0.0
 40
3.5
 41
0.0
 71
     2
 72
     1
  1
\A1;%%c7.94 [5/16]
  7
SLDTEXTSTYLE0
 11
-3.580687802255610E-15
 21
1.0
 31
0.0
 73
     1
 44
1.0
  0
POINT
  5
9AD
330
9A2
100
AcDbEntity
  8
Defpoints
 62
     0
100
AcDbPoint
 10
-53.29735
 20
3.96875
 30
0.0
  0
POINT
  5
9AE
330
9A2
100
AcDbEntity
  8
Defpoints
 62
     0
100
AcDbPoint
 10
-53.29735
 20
-3.968750000000028
 30
0.0
  0
POINT
  5
9EE
330
9A2
100
AcDbEntity
  8
Defpoints
 62
     0
100
AcDbPoint
 10
-66.8625045734141
 20
-3.968750000000079
 30
0.0
  0
ENDBLK
  5
9A4
330
9A2
100
AcDbEntity
  8
0
100
AcDbBlockEnd
  0
BLOCK
  5
9B0
330
9AF
100
AcDbEntity
  8
0
100
AcDbBlockBegin
  2
*D59
 70
     1
 10
0.0
 20
0.0
 30
0.0
  3
*D59
  1
*D59
  0
LINE
  5
9B2
330
9AF
100
AcDbEntity
  8
치수문자_일반주서
 62
     0
370
    -2
100
AcDbLine
 10
60.57265000000001
 20
4.03125
 30
0.0
 11
60.57265000000001
 21
24.10466570401172
 31
0.0
  0
LINE
  5
9B3
330
9AF
100
AcDbEntity
  8
치수문자_일반주서
 62
     0
370
    -2
100
AcDbLine
 10
22.47265000000007
 20
1.816381476199297
 30
0.0
 11
22.47265000000007
 21
24.10466570401172
 31
0.0
  0
LINE
  5
9B4
330
9AF
100
AcDbEntity
  8
치수문자_일반주서
 62
     0
370
    -2
100
AcDbLine
 10
57.27065000000001
 20
24.10466570401172
 30
0.0
 11
25.77465000000007
 21
24.10466570401172
 31
0.0
  0
SOLID
  5
9B5
330
9AF
100
AcDbEntity
  8
치수문자_일반주서
 62
     0
100
AcDbTrace
 10
57.27065000000001
 20
23.55433237067839
 30
0.0
 11
57.27065000000001
 21
24.65499903734506
 31
0.0
 12
60.57265000000001
 22
24.10466570401172
 32
0.0
 13
60.57265000000001
 23
24.10466570401172
 33
0.0
  0
SOLID
  5
9B6
330
9AF
100
AcDbEntity
  8
치수문자_일반주서
 62
     0
100
AcDbTrace
 10
25.77465000000007
 20
24.65499903734506
 30
0.0
 11
25.77465000000007
 21
23.55433237067839
 31
0.0
 12
22.47265000000007
 22
24.10466570401172
 32
0.0
 13
22.47265000000007
 23
24.10466570401172
 33
0.0
  0
MTEXT
  5
9B7
330
9AF
100
AcDbEntity
  8
치수문자_일반주서
 62
     0
100
AcDbMText
 10
44.25996317463155
 20
28.47966570401172
 30
0.0
 40
3.5
 41
0.0
 71
     2
 72
     1
  1
\A1;38.1 [1 1/2]
  7
SLDTEXTSTYLE0
 73
     1
 44
1.0
  0
POINT
  5
9B8
330
9AF
100
AcDbEntity
  8
Defpoints
 62
     0
100
AcDbPoint
 10
60.57265000000001
 20
3.96875
 30
0.0
  0
POINT
  5
9B9
330
9AF
100
AcDbEntity
  8
Defpoints
 62
     0
100
AcDbPoint
 10
22.47265000000007
 20
1.753881476199297
 30
0.0
  0
POINT
  5
9BA
330
9AF
100
AcDbEntity
  8
Defpoints
 62
     0
100
AcDbPoint
 10
22.47265000000007
 20
24.10466570401172
 30
0.0
  0
ENDBLK
  5
9B1
330
9AF
100
AcDbEntity
  8
0
100
AcDbBlockEnd
  0
BLOCK
  5
9BC
330
9BB
100
AcDbEntity
  8
0
100
AcDbBlockBegin
  2
*D60
 70
     1
 10
0.0
 20
0.0
 30
0.0
  3
*D60
  1
*D60
  0
LINE
  5
9BE
330
9BB
100
AcDbEntity
  8
치수문자_일반주서
 62
     0
370
    -2
100
AcDbLine
 10
60.57265000000001
 20
4.03125
 30
0.0
 11
60.57265000000001
 21
47.38256920034925
 31
0.0
  0
LINE
  5
9BF
330
9BB
100
AcDbEntity
  8
치수문자_일반주서
 62
     0
370
    -2
100
AcDbLine
 10
-53.72735
 20
3.601249999999993
 30
0.0
 11
-53.72735
 21
47.38256920034925
 31
0.0
  0
LINE
  5
9C0
330
9BB
100
AcDbEntity
  8
치수문자_일반주서
 62
     0
370
    -2
100
AcDbLine
 10
57.27065000000001
 20
47.38256920034925
 30
0.0
 11
-50.42535
 21
47.38256920034925
 31
0.0
  0
SOLID
  5
9C1
330
9BB
100
AcDbEntity
  8
치수문자_일반주서
 62
     0
100
AcDbTrace
 10
57.27065000000001
 20
46.83223586701592
 30
0.0
 11
57.27065000000001
 21
47.93290253368259
 31
0.0
 12
60.57265000000001
 22
47.38256920034925
 32
0.0
 13
60.57265000000001
 23
47.38256920034925
 33
0.0
  0
SOLID
  5
9C2
330
9BB
100
AcDbEntity
  8
치수문자_일반주서
 62
     0
100
AcDbTrace
 10
-50.42535
 20
47.93290253368259
 30
0.0
 11
-50.42535
 21
46.83223586701592
 31
0.0
 12
-53.72735
 22
47.38256920034925
 32
0.0
 13
-53.72735
 23
47.38256920034925
 33
0.0
  0
MTEXT
  5
9C3
330
9BB
100
AcDbEntity
  8
치수문자_일반주서
 62
     0
100
AcDbMText
 10
1.699071837663368
 20
51.75756920034925
 30
0.0
 40
3.5
 41
0.0
 71
     2
 72
     1
  1
\A1;114.3 [4 1/2]
  7
SLDTEXTSTYLE0
 73
     1
 44
1.0
  0
POINT
  5
9C4
330
9BB
100
AcDbEntity
  8
Defpoints
 62
     0
100
AcDbPoint
 10
60.57265000000001
 20
3.96875
 30
0.0
  0
POINT
  5
9C5
330
9BB
100
AcDbEntity
  8
Defpoints
 62
     0
100
AcDbPoint
 10
-53.72735
 20
3.538749999999993
 30
0.0
  0
POINT
  5
9C6
330
9BB
100
AcDbEntity
  8
Defpoints
 62
     0
100
AcDbPoint
 10
-53.72735
 20
47.38256920034925
 30
0.0
  0
ENDBLK
  5
9BD
330
9BB
100
AcDbEntity
  8
0
100
AcDbBlockEnd
  0
BLOCK
  5
9C8
330
9C7
100
AcDbEntity
  8
0
100
AcDbBlockBegin
  2
*D61
 70
     1
 10
0.0
 20
0.0
 30
0.0
  3
*D61
  1
*D61
  0
LINE
  5
9CA
330
9C7
100
AcDbEntity
  8
치수문자_일반주서
 62
     0
370
    -2
100
AcDbLine
 10
60.57265000000001
 20
4.03125
 30
0.0
 11
60.57265000000001
 21
36.10466570401178
 31
0.0
  0
LINE
  5
9CB
330
9C7
100
AcDbEntity
  8
치수문자_일반주서
 62
     0
370
    -2
100
AcDbLine
 10
0.2476500000000073
 20
3.783599999999979
 30
0.0
 11
0.2476500000000073
 21
36.10466570401178
 31
0.0
  0
LINE
  5
9CC
330
9C7
100
AcDbEntity
  8
치수문자_일반주서
 62
     0
370
    -2
100
AcDbLine
 10
57.27065000000001
 20
36.10466570401178
 30
0.0
 11
3.549650000000007
 21
36.10466570401178
 31
0.0
  0
SOLID
  5
9CD
330
9C7
100
AcDbEntity
  8
치수문자_일반주서
 62
     0
100
AcDbTrace
 10
57.27065000000001
 20
35.55433237067844
 30
0.0
 11
57.27065000000001
 21
36.65499903734511
 31
0.0
 12
60.57265000000001
 22
36.10466570401178
 32
0.0
 13
60.57265000000001
 23
36.10466570401178
 33
0.0
  0
SOLID
  5
9CE
330
9C7
100
AcDbEntity
  8
치수문자_일반주서
 62
     0
100
AcDbTrace
 10
3.549650000000007
 20
36.65499903734511
 30
0.0
 11
3.549650000000007
 21
35.55433237067844
 31
0.0
 12
0.2476500000000073
 22
36.10466570401178
 32
0.0
 13
0.2476500000000073
 23
36.10466570401178
 33
0.0
  0
MTEXT
  5
9CF
330
9C7
100
AcDbEntity
  8
치수문자_일반주서
 62
     0
100
AcDbMText
 10
30.39965387799847
 20
40.47966570401178
 30
0.0
 40
3.5
 41
0.0
 71
     2
 72
     1
  1
\A1;60.33 [2 3/8]
  7
SLDTEXTSTYLE0
 73
     1
 44
1.0
  0
POINT
  5
9D0
330
9C7
100
AcDbEntity
  8
Defpoints
 62
     0
100
AcDbPoint
 10
60.57265000000001
 20
3.96875
 30
0.0
  0
POINT
  5
9D1
330
9C7
100
AcDbEntity
  8
Defpoints
 62
     0
100
AcDbPoint
 10
0.2476500000000073
 20
3.721099999999979
 30
0.0
  0
POINT
  5
9D2
330
9C7
100
AcDbEntity
  8
Defpoints
 62
     0
100
AcDbPoint
 10
0.2476500000000073
 20
36.10466570401178
 30
0.0
  0
ENDBLK
  5
9C9
330
9C7
100
AcDbEntity
  8
0
100
AcDbBlockEnd
  0
BLOCK
  5
9E0
330
9DF
100
AcDbEntity
  8
0
100
AcDbBlockBegin
  2
*D62
 70
     1
 10
0.0
 20
0.0
 30
0.0
  3
*D62
  1
*D62
  0
LINE
  5
9E2
330
9DF
100
AcDbEntity
  8
치수문자_일반주서
 62
     0
370
    -2
100
AcDbLine
 10
60.63515000000001
 20
-3.96875
 30
0.0
 11
74.89381989672455
 21
-3.968750000000001
 31
0.0
  0
LINE
  5
9E3
330
9DF
100
AcDbEntity
  8
치수문자_일반주서
 62
     0
370
    -2
100
AcDbLine
 10
60.63515000000001
 20
3.96875
 30
0.0
 11
74.89381989672455
 21
3.968749999999999
 31
0.0
  0
LINE
  5
9E4
330
9DF
100
AcDbEntity
  8
치수문자_일반주서
 62
     0
370
    -2
100
AcDbLine
 10
74.89381989672455
 20
-3.968750000000001
 30
0.0
 11
74.89381989672455
 21
38.57275
 31
0.0
  0
LINE
  5
9E5
330
9DF
100
AcDbEntity
  8
치수문자_일반주서
 62
     0
370
    -2
100
AcDbLine
 10
74.89381989672455
 20
-3.968750000000001
 30
0.0
 11
74.89381989672455
 21
3.968749999999999
 31
0.0
  0
LINE
  5
9E6
330
9DF
100
AcDbEntity
  8
치수문자_일반주서
 62
     0
370
    -2
100
AcDbLine
 10
74.89381989672455
 20
-7.270750000000001
 30
0.0
 11
74.89381989672455
 21
-10.57275
 31
0.0
  0
SOLID
  5
9E7
330
9DF
100
AcDbEntity
  8
치수문자_일반주서
 62
     0
100
AcDbTrace
 10
75.44415323005788
 20
-7.270750000000001
 30
0.0
 11
74.34348656339122
 21
-7.270750000000001
 31
0.0
 12
74.89381989672455
 22
-3.968750000000001
 32
0.0
 13
74.89381989672455
 23
-3.968750000000001
 33
0.0
  0
SOLID
  5
9E8
330
9DF
100
AcDbEntity
  8
치수문자_일반주서
 62
     0
100
AcDbTrace
 10
74.34348656339122
 20
7.27075
 30
0.0
 11
75.44415323005788
 21
7.27075
 31
0.0
 12
74.89381989672455
 22
3.968749999999999
 32
0.0
 13
74.89381989672455
 23
3.968749999999999
 33
0.0
  0
MTEXT
  5
9E9
330
9DF
100
AcDbEntity
  8
치수문자_일반주서
 62
     0
100
AcDbMText
 10
72.26881989672455
 20
24.57275
 30
0.0
 40
3.5
 41
0.0
 71
     5
 72
     1
  1
\A1;{%%c7.94 [5/16]}
  7
SLDTEXTSTYLE0
 11
0.0
 21
1.0
 31
0.0
 73
     1
 44
1.0
  0
POINT
  5
9EA
330
9DF
100
AcDbEntity
  8
Defpoints
 62
     0
100
AcDbPoint
 10
60.57265000000001
 20
-3.96875
 30
0.0
  0
POINT
  5
9EB
330
9DF
100
AcDbEntity
  8
Defpoints
 62
     0
100
AcDbPoint
 10
60.57265000000001
 20
3.96875
 30
0.0
  0
POINT
  5
9EC
330
9DF
100
AcDbEntity
  8
Defpoints
 62
     0
100
AcDbPoint
 10
74.89381989672455
 20
3.968749999999999
 30
0.0
  0
ENDBLK
  5
9E1
330
9DF
100
AcDbEntity
  8
0
100
AcDbBlockEnd
  0
BLOCK
  5
ACE
330
ACD
100
AcDbEntity
  8
0
100
AcDbBlockBegin
  2
*D63
 70
     1
 10
0.0
 20
0.0
 30
0.0
  3
*D63
  1
*D63
  0
LINE
  5
AD0
330
ACD
100
AcDbEntity
  8
치수문자_일반주서
 62
     0
370
    -2
100
AcDbLine
 10
123.7815806548386
 20
54.69905157272356
 30
0.0
 11
123.774496001893
 21
54.69905157272356
 31
0.0
  0
LINE
  5
AD1
330
ACD
100
AcDbEntity
  8
치수문자_일반주서
 62
     0
370
    -2
100
AcDbLine
 10
123.7815806548386
 20
45.17405157272356
 30
0.0
 11
123.774496001893
 21
45.17405157272356
 31
0.0
  0
LINE
  5
AD2
330
ACD
100
AcDbEntity
  8
치수문자_일반주서
 62
     0
370
    -2
100
AcDbLine
 10
123.774496001893
 20
51.39705157272356
 30
0.0
 11
123.774496001893
 21
48.47605157272356
 31
0.0
  0
SOLID
  5
AD3
330
ACD
100
AcDbEntity
  8
치수문자_일반주서
 62
     0
100
AcDbTrace
 10
124.3248293352264
 20
51.39705157272356
 30
0.0
 11
123.2241626685597
 21
51.39705157272356
 31
0.0
 12
123.774496001893
 22
54.69905157272356
 32
0.0
 13
123.774496001893
 23
54.69905157272356
 33
0.0
  0
SOLID
  5
AD4
330
ACD
100
AcDbEntity
  8
치수문자_일반주서
 62
     0
100
AcDbTrace
 10
123.2241626685597
 20
48.47605157272356
 30
0.0
 11
124.3248293352264
 21
48.47605157272356
 31
0.0
 12
123.774496001893
 22
45.17405157272356
 32
0.0
 13
123.774496001893
 23
45.17405157272356
 33
0.0
  0
MTEXT
  5
AD5
330
ACD
100
AcDbEntity
  8
치수문자_일반주서
 62
     0
100
AcDbMText
 10
119.399496001893
 20
49.93655157272354
 30
0.0
 40
3.5
 41
0.0
 71
     2
 72
     1
  1
\A1;%%c9.53 [0.38]
  7
SLDTEXTSTYLE0
 11
-2.983906501879686E-15
 21
1.0
 31
0.0
 73
     1
 44
1.0
  0
POINT
  5
AD6
330
ACD
100
AcDbEntity
  8
Defpoints
 62
     0
100
AcDbPoint
 10
123.7190806548386
 20
54.69905157272356
 30
0.0
  0
POINT
  5
AD7
330
ACD
100
AcDbEntity
  8
Defpoints
 62
     0
100
AcDbPoint
 10
123.7190806548386
 20
45.17405157272356
 30
0.0
  0
POINT
  5
AD8
330
ACD
100
AcDbEntity
  8
Defpoints
 62
     0
100
AcDbPoint
 10
123.774496001893
 20
45.17405157272356
 30
0.0
  0
ENDBLK
  5
ACF
330
ACD
100
AcDbEntity
  8
0
100
AcDbBlockEnd
  0
BLOCK
  5
ADA
330
AD9
100
AcDbEntity
  8
0
100
AcDbBlockBegin
  2
*D64
 70
     1
 10
0.0
 20
0.0
 30
0.0
  3
*D64
  1
*D64
  0
LINE
  5
ADC
330
AD9
100
AcDbEntity
  8
치수문자_일반주서
 62
     0
370
    -2
100
AcDbLine
 10
18.31270926586184
 20
54.69905157272357
 30
0.0
 11
4.56520926586178
 21
54.69905157272352
 31
0.0
  0
LINE
  5
ADD
330
AD9
100
AcDbEntity
  8
치수문자_일반주서
 62
     0
370
    -2
100
AcDbLine
 10
18.31270926586184
 20
45.17405157272356
 30
0.0
 11
4.565209265861813
 21
45.17405157272351
 31
0.0
  0
LINE
  5
ADE
330
AD9
100
AcDbEntity
  8
치수문자_일반주서
 62
     0
370
    -2
100
AcDbLine
 10
4.565209265861792
 20
51.39705157272352
 30
0.0
 11
4.565209265861801
 21
48.47605157272351
 31
0.0
  0
SOLID
  5
ADF
330
AD9
100
AcDbEntity
  8
치수문자_일반주서
 62
     0
100
AcDbTrace
 10
5.115542599195125
 20
51.39705157272352
 30
0.0
 11
4.014875932528458
 21
51.39705157272352
 31
0.0
 12
4.56520926586178
 22
54.69905157272352
 32
0.0
 13
4.56520926586178
 23
54.69905157272352
 33
0.0
  0
SOLID
  5
AE0
330
AD9
100
AcDbEntity
  8
치수문자_일반주서
 62
     0
100
AcDbTrace
 10
4.014875932528468
 20
48.47605157272351
 30
0.0
 11
5.115542599195135
 21
48.47605157272351
 31
0.0
 12
4.565209265861813
 22
45.17405157272351
 32
0.0
 13
4.565209265861813
 23
45.17405157272351
 33
0.0
  0
MTEXT
  5
AE1
330
AD9
100
AcDbEntity
  8
치수문자_일반주서
 62
     0
100
AcDbMText
 10
0.190209265861796
 20
49.93655157272355
 30
0.0
 40
3.5
 41
0.0
 71
     2
 72
     1
  1
\A1;%%c9.53 [0.38]
  7
SLDTEXTSTYLE0
 11
-3.450141892798385E-15
 21
1.0
 31
0.0
 73
     1
 44
1.0
  0
POINT
  5
AE2
330
AD9
100
AcDbEntity
  8
Defpoints
 62
     0
100
AcDbPoint
 10
18.37520926586184
 20
54.69905157272357
 30
0.0
  0
POINT
  5
AE3
330
AD9
100
AcDbEntity
  8
Defpoints
 62
     0
100
AcDbPoint
 10
18.37520926586184
 20
45.17405157272356
 30
0.0
  0
POINT
  5
AE4
330
AD9
100
AcDbEntity
  8
Defpoints
 62
     0
100
AcDbPoint
 10
4.565209265861796
 20
45.17405157272351
 30
0.0
  0
ENDBLK
  5
ADB
330
AD9
100
AcDbEntity
  8
0
100
AcDbBlockEnd
  0
BLOCK
  5
AE6
330
AE5
100
AcDbEntity
  8
0
100
AcDbBlockBegin
  2
*D65
 70
     1
 10
0.0
 20
0.0
 30
0.0
  3
*D65
  1
*D65
  0
LINE
  5
AE8
330
AE5
100
AcDbEntity
  8
치수문자_일반주서
 62
     0
370
    -2
100
AcDbLine
 10
138.1900185730582
 20
50.16695739684354
 30
0.0
 11
138.1900185730582
 21
74.06920158075506
 31
0.0
  0
LINE
  5
AE9
330
AE5
100
AcDbEntity
  8
치수문자_일반주서
 62
     0
370
    -2
100
AcDbLine
 10
87.41520926586185
 20
54.08650032259519
 30
0.0
 11
87.41520926586185
 21
74.06920158075506
 31
0.0
  0
LINE
  5
AEA
330
AE5
100
AcDbEntity
  8
치수문자_일반주서
 62
     0
370
    -2
100
AcDbLine
 10
134.8880185730582
 20
74.06920158075506
 30
0.0
 11
90.71720926586185
 21
74.06920158075506
 31
0.0
  0
SOLID
  5
AEB
330
AE5
100
AcDbEntity
  8
치수문자_일반주서
 62
     0
100
AcDbTrace
 10
134.8880185730582
 20
73.51886824742174
 30
0.0
 11
134.8880185730582
 21
74.61953491408839
 31
0.0
 12
138.1900185730582
 22
74.06920158075506
 32
0.0
 13
138.1900185730582
 23
74.06920158075506
 33
0.0
  0
SOLID
  5
AEC
330
AE5
100
AcDbEntity
  8
치수문자_일반주서
 62
     0
100
AcDbTrace
 10
90.71720926586185
 20
74.61953491408839
 30
0.0
 11
90.71720926586185
 21
73.51886824742174
 31
0.0
 12
87.41520926586185
 22
74.06920158075506
 32
0.0
 13
87.41520926586185
 23
74.06920158075506
 33
0.0
  0
MTEXT
  5
AED
330
AE5
100
AcDbEntity
  8
치수문자_일반주서
 62
     0
100
AcDbMText
 10
116.4665616237458
 20
78.44420158075506
 30
0.0
 40
3.5
 41
0.0
 71
     2
 72
     1
  1
\A1;50.77 [2.00]
  7
SLDTEXTSTYLE0
 73
     1
 44
1.0
  0
POINT
  5
AEE
330
AE5
100
AcDbEntity
  8
Defpoints
 62
     0
100
AcDbPoint
 10
138.1900185730582
 20
50.10445739684354
 30
0.0
  0
POINT
  5
AEF
330
AE5
100
AcDbEntity
  8
Defpoints
 62
     0
100
AcDbPoint
 10
87.41520926586185
 20
54.02400032259519
 30
0.0
  0
POINT
  5
AF0
330
AE5
100
AcDbEntity
  8
Defpoints
 62
     0
100
AcDbPoint
 10
87.41520926586185
 20
74.06920158075509
 30
0.0
  0
ENDBLK
  5
AE7
330
AE5
100
AcDbEntity
  8
0
100
AcDbBlockEnd
  0
BLOCK
  5
AF2
330
AF1
100
AcDbEntity
  8
0
100
AcDbBlockBegin
  2
*D66
 70
     1
 10
0.0
 20
0.0
 30
0.0
  3
*D66
  1
*D66
  0
LINE
  5
AF4
330
AF1
100
AcDbEntity
  8
치수문자_일반주서
 62
     0
370
    -2
100
AcDbLine
 10
138.1900185730582
 20
50.16695739684354
 30
0.0
 11
138.1900185730582
 21
92.06920158075539
 31
0.0
  0
LINE
  5
AF5
330
AF1
100
AcDbEntity
  8
치수문자_일반주서
 62
     0
370
    -2
100
AcDbLine
 10
17.56520926586184
 20
53.95155157272356
 30
0.0
 11
17.56520926586184
 21
92.06920158075539
 31
0.0
  0
LINE
  5
AF6
330
AF1
100
AcDbEntity
  8
치수문자_일반주서
 62
     0
370
    -2
100
AcDbLine
 10
134.8880185730582
 20
92.06920158075539
 30
0.0
 11
20.86720926586184
 21
92.06920158075539
 31
0.0
  0
SOLID
  5
AF7
330
AF1
100
AcDbEntity
  8
치수문자_일반주서
 62
     0
100
AcDbTrace
 10
134.8880185730582
 20
91.51886824742206
 30
0.0
 11
134.8880185730582
 21
92.61953491408872
 31
0.0
 12
138.1900185730582
 22
92.06920158075539
 32
0.0
 13
138.1900185730582
 23
92.06920158075539
 33
0.0
  0
SOLID
  5
AF8
330
AF1
100
AcDbEntity
  8
치수문자_일반주서
 62
     0
100
AcDbTrace
 10
20.86720926586184
 20
92.61953491408872
 30
0.0
 11
20.86720926586184
 21
91.51886824742206
 31
0.0
 12
17.56520926586184
 22
92.06920158075539
 32
0.0
 13
17.56520926586184
 23
92.06920158075539
 33
0.0
  0
MTEXT
  5
AF9
330
AF1
100
AcDbEntity
  8
치수문자_일반주서
 62
     0
100
AcDbMText
 10
76.6151061754512
 20
96.44420158075539
 30
0.0
 40
3.5
 41
0.0
 71
     2
 72
     1
  1
\A1;120.62 [4.75]
  7
SLDTEXTSTYLE0
 73
     1
 44
1.0
  0
POINT
  5
AFA
330
AF1
100
AcDbEntity
  8
Defpoints
 62
     0
100
AcDbPoint
 10
138.1900185730582
 20
50.10445739684354
 30
0.0
  0
POINT
  5
AFB
330
AF1
100
AcDbEntity
  8
Defpoints
 62
     0
100
AcDbPoint
 10
17.56520926586184
 20
53.88905157272356
 30
0.0
  0
POINT
  5
AFC
330
AF1
100
AcDbEntity
  8
Defpoints
 62
     0
100
AcDbPoint
 10
17.56520926586184
 20
92.06920158075539
 30
0.0
  0
ENDBLK
  5
AF3
330
AF1
100
AcDbEntity
  8
0
100
AcDbBlockEnd
  0
BLOCK
  5
AFE
330
AFD
100
AcDbEntity
  8
0
100
AcDbBlockBegin
  2
*D67
 70
     1
 10
0.0
 20
0.0
 30
0.0
  3
*D67
  1
*D67
  0
LINE
  5
B00
330
AFD
100
AcDbEntity
  8
치수문자_일반주서
 62
     0
370
    -2
100
AcDbLine
 10
138.1900185730582
 20
50.16695739684354
 30
0.0
 11
138.1900185730582
 21
86.06920158075535
 31
0.0
  0
LINE
  5
B01
330
AFD
100
AcDbEntity
  8
치수문자_일반주서
 62
     0
370
    -2
100
AcDbLine
 10
68.36520926586185
 20
54.50755157272356
 30
0.0
 11
68.36520926586185
 21
86.06920158075535
 31
0.0
  0
LINE
  5
B02
330
AFD
100
AcDbEntity
  8
치수문자_일반주서
 62
     0
370
    -2
100
AcDbLine
 10
134.8880185730582
 20
86.06920158075535
 30
0.0
 11
71.66720926586186
 21
86.06920158075535
 31
0.0
  0
SOLID
  5
B03
330
AFD
100
AcDbEntity
  8
치수문자_일반주서
 62
     0
100
AcDbTrace
 10
134.8880185730582
 20
85.51886824742202
 30
0.0
 11
134.8880185730582
 21
86.61953491408867
 31
0.0
 12
138.1900185730582
 22
86.06920158075535
 32
0.0
 13
138.1900185730582
 23
86.06920158075535
 33
0.0
  0
SOLID
  5
B04
330
AFD
100
AcDbEntity
  8
치수문자_일반주서
 62
     0
100
AcDbTrace
 10
71.66720926586186
 20
86.61953491408867
 30
0.0
 11
71.66720926586186
 21
85.51886824742202
 31
0.0
 12
68.36520926586185
 22
86.06920158075535
 32
0.0
 13
68.36520926586185
 23
86.06920158075535
 33
0.0
  0
MTEXT
  5
B05
330
AFD
100
AcDbEntity
  8
치수문자_일반주서
 62
     0
100
AcDbMText
 10
103.27761391946
 20
90.44420158075535
 30
0.0
 40
3.5
 41
0.0
 71
     2
 72
     1
  1
\A1;69.82 [2.75]
  7
SLDTEXTSTYLE0
 73
     1
 44
1.0
  0
POINT
  5
B06
330
AFD
100
AcDbEntity
  8
Defpoints
 62
     0
100
AcDbPoint
 10
138.1900185730582
 20
50.10445739684354
 30
0.0
  0
POINT
  5
B07
330
AFD
100
AcDbEntity
  8
Defpoints
 62
     0
100
AcDbPoint
 10
68.36520926586185
 20
54.44505157272356
 30
0.0
  0
POINT
  5
B08
330
AFD
100
AcDbEntity
  8
Defpoints
 62
     0
100
AcDbPoint
 10
68.36520926586185
 20
86.06920158075533
 30
0.0
  0
ENDBLK
  5
AFF
330
AFD
100
AcDbEntity
  8
0
100
AcDbBlockEnd
  0
BLOCK
  5
B4B
330
B4A
100
AcDbEntity
  8
0
100
AcDbBlockBegin
  2
*D68
 70
     1
 10
0.0
 20
0.0
 30
0.0
  3
*D68
  1
*D68
  0
LINE
  5
B4D
330
B4A
100
AcDbEntity
  8
치수문자_일반주서
 62
     0
370
    -2
100
AcDbLine
 10
43.43323433568442
 20
166.287469507798
 30
0.0
 11
43.42614968273877
 21
166.287469507798
 31
0.0
  0
LINE
  5
B4E
330
B4A
100
AcDbEntity
  8
치수문자_일반주서
 62
     0
370
    -2
100
AcDbLine
 10
43.43323433568442
 20
156.762469507798
 30
0.0
 11
43.42614968273881
 21
156.762469507798
 31
0.0
  0
LINE
  5
B4F
330
B4A
100
AcDbEntity
  8
치수문자_일반주서
 62
     0
370
    -2
100
AcDbLine
 10
43.42614968273879
 20
162.985469507798
 30
0.0
 11
43.4261496827388
 21
160.064469507798
 31
0.0
  0
SOLID
  5
B50
330
B4A
100
AcDbEntity
  8
치수문자_일반주서
 62
     0
100
AcDbTrace
 10
43.97648301607212
 20
162.985469507798
 30
0.0
 11
42.87581634940545
 21
162.985469507798
 31
0.0
 12
43.42614968273877
 22
166.287469507798
 32
0.0
 13
43.42614968273877
 23
166.287469507798
 33
0.0
  0
SOLID
  5
B51
330
B4A
100
AcDbEntity
  8
치수문자_일반주서
 62
     0
100
AcDbTrace
 10
42.87581634940546
 20
160.064469507798
 30
0.0
 11
43.97648301607213
 21
160.064469507798
 31
0.0
 12
43.42614968273881
 22
156.762469507798
 32
0.0
 13
43.42614968273881
 23
156.762469507798
 33
0.0
  0
MTEXT
  5
B52
330
B4A
100
AcDbEntity
  8
치수문자_일반주서
 62
     0
100
AcDbMText
 10
39.0511496827388
 20
161.524969507798
 30
0.0
 40
3.5
 41
0.0
 71
     2
 72
     1
  1
\A1;%%c9.53 [0.38]
  7
SLDTEXTSTYLE0
 11
-3.729883127349605E-15
 21
1.0
 31
0.0
 73
     1
 44
1.0
  0
POINT
  5
B53
330
B4A
100
AcDbEntity
  8
Defpoints
 62
     0
100
AcDbPoint
 10
43.37073433568442
 20
166.287469507798
 30
0.0
  0
POINT
  5
B54
330
B4A
100
AcDbEntity
  8
Defpoints
 62
     0
100
AcDbPoint
 10
43.37073433568442
 20
156.762469507798
 30
0.0
  0
POINT
  5
B55
330
B4A
100
AcDbEntity
  8
Defpoints
 62
     0
100
AcDbPoint
 10
43.42614968273881
 20
156.762469507798
 30
0.0
  0
ENDBLK
  5
B4C
330
B4A
100
AcDbEntity
  8
0
100
AcDbBlockEnd
  0
BLOCK
  5
B57
330
B56
100
AcDbEntity
  8
0
100
AcDbBlockBegin
  2
*D69
 70
     1
 10
0.0
 20
0.0
 30
0.0
  3
*D69
  1
*D69
  0
LINE
  5
B59
330
B56
100
AcDbEntity
  8
치수문자_일반주서
 62
     0
370
    -2
100
AcDbLine
 10
-49.7985
 20
4.762500000000017
 30
0.0
 11
-63.54600000000006
 21
4.762499999999966
 31
0.0
  0
LINE
  5
B5A
330
B56
100
AcDbEntity
  8
치수문자_일반주서
 62
     0
370
    -2
100
AcDbLine
 10
-49.7985
 20
-4.762499999999989
 30
0.0
 11
-63.54600000000003
 21
-4.76250000000004
 31
0.0
  0
LINE
  5
B5B
330
B56
100
AcDbEntity
  8
치수문자_일반주서
 62
     0
370
    -2
100
AcDbLine
 10
-63.54600000000005
 20
1.460499999999965
 30
0.0
 11
-63.54600000000004
 21
-1.46050000000004
 31
0.0
  0
SOLID
  5
B5C
330
B56
100
AcDbEntity
  8
치수문자_일반주서
 62
     0
100
AcDbTrace
 10
-62.99566666666671
 20
1.460499999999967
 30
0.0
 11
-64.09633333333338
 21
1.460499999999963
 31
0.0
 12
-63.54600000000006
 22
4.762499999999966
 32
0.0
 13
-63.54600000000006
 23
4.762499999999966
 33
0.0
  0
SOLID
  5
B5D
330
B56
100
AcDbEntity
  8
치수문자_일반주서
 62
     0
100
AcDbTrace
 10
-64.09633333333338
 20
-1.460500000000042
 30
0.0
 11
-62.99566666666671
 21
-1.460500000000038
 31
0.0
 12
-63.54600000000003
 22
-4.76250000000004
 32
0.0
 13
-63.54600000000003
 23
-4.76250000000004
 33
0.0
  0
MTEXT
  5
B5E
330
B56
100
AcDbEntity
  8
치수문자_일반주서
 62
     0
100
AcDbMText
 10
-67.92100000000005
 20
0.0000000000000121
 30
0.0
 40
3.5
 41
0.0
 71
     2
 72
     1
  1
\A1;%%c9.53 [3/8]
  7
SLDTEXTSTYLE0
 11
-3.729883127349605E-15
 21
1.0
 31
0.0
 73
     1
 44
1.0
  0
POINT
  5
B5F
330
B56
100
AcDbEntity
  8
Defpoints
 62
     0
100
AcDbPoint
 10
-49.736
 20
4.762500000000017
 30
0.0
  0
POINT
  5
B60
330
B56
100
AcDbEntity
  8
Defpoints
 62
     0
100
AcDbPoint
 10
-49.736
 20
-4.762499999999989
 30
0.0
  0
POINT
  5
B61
330
B56
100
AcDbEntity
  8
Defpoints
 62
     0
100
AcDbPoint
 10
-63.54600000000003
 20
-4.76250000000004
 30
0.0
  0
ENDBLK
  5
B58
330
B56
100
AcDbEntity
  8
0
100
AcDbBlockEnd
  0
BLOCK
  5
B63
330
B62
100
AcDbEntity
  8
0
100
AcDbBlockBegin
  2
*D70
 70
     1
 10
0.0
 20
0.0
 30
0.0
  3
*D70
  1
*D70
  0
LINE
  5
B65
330
B62
100
AcDbEntity
  8
치수문자_일반주서
 62
     0
370
    -2
100
AcDbLine
 10
70.104
 20
4.825000000000017
 30
0.0
 11
70.104
 21
24.13265000803153
 31
0.0
  0
LINE
  5
B66
330
B62
100
AcDbEntity
  8
치수문자_일반주서
 62
     0
370
    -2
100
AcDbLine
 10
19.304
 20
4.149948749871641
 30
0.0
 11
19.304
 21
24.13265000803153
 31
0.0
  0
LINE
  5
B67
330
B62
100
AcDbEntity
  8
치수문자_일반주서
 62
     0
370
    -2
100
AcDbLine
 10
66.80199999999999
 20
24.13265000803153
 30
0.0
 11
22.606
 21
24.13265000803153
 31
0.0
  0
SOLID
  5
B68
330
B62
100
AcDbEntity
  8
치수문자_일반주서
 62
     0
100
AcDbTrace
 10
66.80199999999999
 20
23.5823166746982
 30
0.0
 11
66.80199999999999
 21
24.68298334136487
 31
0.0
 12
70.104
 22
24.13265000803153
 32
0.0
 13
70.104
 23
24.13265000803153
 33
0.0
  0
SOLID
  5
B69
330
B62
100
AcDbEntity
  8
치수문자_일반주서
 62
     0
100
AcDbTrace
 10
22.606
 20
24.68298334136487
 30
0.0
 11
22.606
 21
23.5823166746982
 31
0.0
 12
19.304
 22
24.13265000803153
 32
0.0
 13
19.304
 23
24.13265000803153
 33
0.0
  0
MTEXT
  5
B6A
330
B62
100
AcDbEntity
  8
치수문자_일반주서
 62
     0
100
AcDbMText
 10
48.35535235788397
 20
28.50765000803153
 30
0.0
 40
3.5
 41
0.0
 71
     2
 72
     1
  1
\A1;50.8 [2]
  7
SLDTEXTSTYLE0
 73
     1
 44
1.0
  0
POINT
  5
B6B
330
B62
100
AcDbEntity
  8
Defpoints
 62
     0
100
AcDbPoint
 10
70.104
 20
4.762500000000017
 30
0.0
  0
POINT
  5
B6C
330
B62
100
AcDbEntity
  8
Defpoints
 62
     0
100
AcDbPoint
 10
19.304
 20
4.087448749871641
 30
0.0
  0
POINT
  5
B6D
330
B62
100
AcDbEntity
  8
Defpoints
 62
     0
100
AcDbPoint
 10
19.304
 20
24.13265000803153
 30
0.0
  0
ENDBLK
  5
B64
330
B62
100
AcDbEntity
  8
0
100
AcDbBlockEnd
  0
BLOCK
  5
B6F
330
B6E
100
AcDbEntity
  8
0
100
AcDbBlockBegin
  2
*D71
 70
     1
 10
0.0
 20
0.0
 30
0.0
  3
*D71
  1
*D71
  0
LINE
  5
B71
330
B6E
100
AcDbEntity
  8
치수문자_일반주서
 62
     0
370
    -2
100
AcDbLine
 10
70.104
 20
4.825000000000017
 30
0.0
 11
70.104
 21
42.13265000803185
 31
0.0
  0
LINE
  5
B72
330
B6E
100
AcDbEntity
  8
치수문자_일반주서
 62
     0
370
    -2
100
AcDbLine
 10
-50.54600000000001
 20
4.015000000000015
 30
0.0
 11
-50.54600000000001
 21
42.13265000803185
 31
0.0
  0
LINE
  5
B73
330
B6E
100
AcDbEntity
  8
치수문자_일반주서
 62
     0
370
    -2
100
AcDbLine
 10
66.80199999999999
 20
42.13265000803185
 30
0.0
 11
-47.24400000000001
 21
42.13265000803185
 31
0.0
  0
SOLID
  5
B74
330
B6E
100
AcDbEntity
  8
치수문자_일반주서
 62
     0
100
AcDbTrace
 10
66.80199999999999
 20
41.58231667469851
 30
0.0
 11
66.80199999999999
 21
42.68298334136518
 31
0.0
 12
70.104
 22
42.13265000803185
 32
0.0
 13
70.104
 23
42.13265000803185
 33
0.0
  0
SOLID
  5
B75
330
B6E
100
AcDbEntity
  8
치수문자_일반주서
 62
     0
100
AcDbTrace
 10
-47.24400000000001
 20
42.68298334136518
 30
0.0
 11
-47.24400000000001
 21
41.58231667469851
 31
0.0
 12
-50.54600000000001
 22
42.13265000803185
 32
0.0
 13
-50.54600000000001
 23
42.13265000803185
 33
0.0
  0
MTEXT
  5
B76
330
B6E
100
AcDbEntity
  8
치수문자_일반주서
 62
     0
100
AcDbMText
 10
8.503896909589358
 20
46.50765000803185
 30
0.0
 40
3.5
 41
0.0
 71
     2
 72
     1
  1
\A1;120.65 [4 3/4]
  7
SLDTEXTSTYLE0
 73
     1
 44
1.0
  0
POINT
  5
B77
330
B6E
100
AcDbEntity
  8
Defpoints
 62
     0
100
AcDbPoint
 10
70.104
 20
4.762500000000017
 30
0.0
  0
POINT
  5
B78
330
B6E
100
AcDbEntity
  8
Defpoints
 62
     0
100
AcDbPoint
 10
-50.54600000000001
 20
3.952500000000015
 30
0.0
  0
POINT
  5
B79
330
B6E
100
AcDbEntity
  8
Defpoints
 62
     0
100
AcDbPoint
 10
-50.54600000000001
 20
42.13265000803185
 30
0.0
  0
ENDBLK
  5
B70
330
B6E
100
AcDbEntity
  8
0
100
AcDbBlockEnd
  0
BLOCK
  5
B7B
330
B7A
100
AcDbEntity
  8
0
100
AcDbBlockBegin
  2
*D72
 70
     1
 10
0.0
 20
0.0
 30
0.0
  3
*D72
  1
*D72
  0
LINE
  5
B7D
330
B7A
100
AcDbEntity
  8
치수문자_일반주서
 62
     0
370
    -2
100
AcDbLine
 10
57.84167225390395
 20
161.755375331918
 30
0.0
 11
57.84167225390395
 21
197.6576195158298
 31
0.0
  0
LINE
  5
B7E
330
B7A
100
AcDbEntity
  8
치수문자_일반주서
 62
     0
370
    -2
100
AcDbLine
 10
-11.98313705329238
 20
166.095969507798
 30
0.0
 11
-11.98313705329238
 21
197.6576195158298
 31
0.0
  0
LINE
  5
B7F
330
B7A
100
AcDbEntity
  8
치수문자_일반주서
 62
     0
370
    -2
100
AcDbLine
 10
54.53967225390395
 20
197.6576195158298
 30
0.0
 11
-8.681137053292382
 21
197.6576195158298
 31
0.0
  0
SOLID
  5
B80
330
B7A
100
AcDbEntity
  8
치수문자_일반주서
 62
     0
100
AcDbTrace
 10
54.53967225390395
 20
197.1072861824965
 30
0.0
 11
54.53967225390395
 21
198.2079528491631
 31
0.0
 12
57.84167225390395
 22
197.6576195158298
 32
0.0
 13
57.84167225390395
 23
197.6576195158298
 33
0.0
  0
SOLID
  5
B81
330
B7A
100
AcDbEntity
  8
치수문자_일반주서
 62
     0
100
AcDbTrace
 10
-8.681137053292382
 20
198.2079528491631
 30
0.0
 11
-8.681137053292382
 21
197.1072861824965
 31
0.0
 12
-11.98313705329238
 22
197.6576195158298
 32
0.0
 13
-11.98313705329238
 23
197.6576195158298
 33
0.0
  0
MTEXT
  5
B82
330
B7A
100
AcDbEntity
  8
치수문자_일반주서
 62
     0
100
AcDbMText
 10
22.92926760030578
 20
202.0326195158298
 30
0.0
 40
3.5
 41
0.0
 71
     2
 72
     1
  1
\A1;69.82 [2 3/4]
  7
SLDTEXTSTYLE0
 73
     1
 44
1.0
  0
POINT
  5
B83
330
B7A
100
AcDbEntity
  8
Defpoints
 62
     0
100
AcDbPoint
 10
57.84167225390395
 20
161.692875331918
 30
0.0
  0
POINT
  5
B84
330
B7A
100
AcDbEntity
  8
Defpoints
 62
     0
100
AcDbPoint
 10
-11.98313705329238
 20
166.033469507798
 30
0.0
  0
POINT
  5
B85
330
B7A
100
AcDbEntity
  8
Defpoints
 62
     0
100
AcDbPoint
 10
-11.98313705329238
 20
197.6576195158298
 30
0.0
  0
ENDBLK
  5
B7C
330
B7A
100
AcDbEntity
  8
0
100
AcDbBlockEnd
  0
BLOCK
  5
B8E
330
B8D
100
AcDbEntity
  8
0
100
AcDbBlockBegin
  2
*D73
 70
     1
 10
0.0
 20
0.0
 30
0.0
  3
*D73
  1
*D73
  0
LINE
  5
B90
330
B8D
100
AcDbEntity
  8
치수문자_일반주서
 62
     0
370
    -2
100
AcDbLine
 10
0.2540000000000049
 20
4.571000000000026
 30
0.0
 11
0.2540000000000049
 21
33.25652674425726
 31
0.0
  0
LINE
  5
B91
330
B8D
100
AcDbEntity
  8
치수문자_일반주서
 62
     0
370
    -2
100
AcDbLine
 10
70.104
 20
4.825000000000017
 30
0.0
 11
70.104
 21
33.25652674425726
 31
0.0
  0
LINE
  5
B92
330
B8D
100
AcDbEntity
  8
치수문자_일반주서
 62
     0
370
    -2
100
AcDbLine
 10
3.556000000000005
 20
33.25652674425726
 30
0.0
 11
66.80199999999999
 21
33.25652674425726
 31
0.0
  0
SOLID
  5
B93
330
B8D
100
AcDbEntity
  8
치수문자_일반주서
 62
     0
100
AcDbTrace
 10
3.556000000000005
 20
33.80686007759059
 30
0.0
 11
3.556000000000005
 21
32.70619341092392
 31
0.0
 12
0.2540000000000049
 22
33.25652674425726
 32
0.0
 13
0.2540000000000049
 23
33.25652674425726
 33
0.0
  0
SOLID
  5
B94
330
B8D
100
AcDbEntity
  8
치수문자_일반주서
 62
     0
100
AcDbTrace
 10
66.80199999999999
 20
32.70619341092392
 30
0.0
 11
66.80199999999999
 21
33.80686007759059
 31
0.0
 12
70.104
 22
33.25652674425726
 32
0.0
 13
70.104
 23
33.25652674425726
 33
0.0
  0
MTEXT
  5
B95
330
B8D
100
AcDbEntity
  8
치수문자_일반주서
 62
     0
100
AcDbMText
 10
35.179
 20
35.88152674425726
 30
0.0
 40
3.5
 41
0.0
 71
     5
 72
     1
  1
\A1;69.85 [2 3/4]
  7
SLDTEXTSTYLE0
 73
     1
 44
1.0
  0
POINT
  5
B96
330
B8D
100
AcDbEntity
  8
Defpoints
 62
     0
100
AcDbPoint
 10
0.2540000000000049
 20
4.508500000000026
 30
0.0
  0
POINT
  5
B97
330
B8D
100
AcDbEntity
  8
Defpoints
 62
     0
100
AcDbPoint
 10
70.104
 20
4.762500000000017
 30
0.0
  0
POINT
  5
B98
330
B8D
100
AcDbEntity
  8
Defpoints
 62
     0
100
AcDbPoint
 10
70.104
 20
33.25652674425726
 30
0.0
  0
ENDBLK
  5
B8F
330
B8D
100
AcDbEntity
  8
0
100
AcDbBlockEnd
  0
BLOCK
  5
B9E
330
B9D
100
AcDbEntity
  8
0
100
AcDbBlockBegin
  2
*D74
 70
     1
 10
0.0
 20
0.0
 30
0.0
  3
*D74
  1
*D74
  0
LINE
  5
BA0
330
B9D
100
AcDbEntity
  8
치수문자_일반주서
 62
     0
370
    -2
100
AcDbLine
 10
70.1665
 20
4.762500000000017
 30
0.0
 11
79.57961581602008
 21
4.762500000000017
 31
0.0
  0
LINE
  5
BA1
330
B9D
100
AcDbEntity
  8
치수문자_일반주서
 62
     0
370
    -2
100
AcDbLine
 10
70.1665
 20
-4.762500000000017
 30
0.0
 11
79.57961581602008
 21
-4.762500000000017
 31
0.0
  0
LINE
  5
BA2
330
B9D
100
AcDbEntity
  8
치수문자_일반주서
 62
     0
370
    -2
100
AcDbLine
 10
79.57961581602008
 20
4.762500000000017
 30
0.0
 11
79.57961581602008
 21
37.61650000000003
 31
0.0
  0
LINE
  5
BA3
330
B9D
100
AcDbEntity
  8
치수문자_일반주서
 62
     0
370
    -2
100
AcDbLine
 10
79.57961581602008
 20
4.762500000000017
 30
0.0
 11
79.57961581602008
 21
-4.762500000000017
 31
0.0
  0
LINE
  5
BA4
330
B9D
100
AcDbEntity
  8
치수문자_일반주서
 62
     0
370
    -2
100
AcDbLine
 10
79.57961581602008
 20
8.064500000000017
 30
0.0
 11
79.57961581602008
 21
11.36650000000002
 31
0.0
  0
LINE
  5
BA5
330
B9D
100
AcDbEntity
  8
치수문자_일반주서
 62
     0
370
    -2
100
AcDbLine
 10
79.57961581602008
 20
-8.064500000000017
 30
0.0
 11
79.57961581602008
 21
-11.36650000000002
 31
0.0
  0
SOLID
  5
BA6
330
B9D
100
AcDbEntity
  8
치수문자_일반주서
 62
     0
100
AcDbTrace
 10
79.02928248268675
 20
8.064500000000017
 30
0.0
 11
80.12994914935341
 21
8.064500000000017
 31
0.0
 12
79.57961581602008
 22
4.762500000000017
 32
0.0
 13
79.57961581602008
 23
4.762500000000017
 33
0.0
  0
SOLID
  5
BA7
330
B9D
100
AcDbEntity
  8
치수문자_일반주서
 62
     0
100
AcDbTrace
 10
80.12994914935341
 20
-8.064500000000017
 30
0.0
 11
79.02928248268675
 21
-8.064500000000017
 31
0.0
 12
79.57961581602008
 22
-4.762500000000017
 32
0.0
 13
79.57961581602008
 23
-4.762500000000017
 33
0.0
  0
MTEXT
  5
BA8
330
B9D
100
AcDbEntity
  8
치수문자_일반주서
 62
     0
100
AcDbMText
 10
76.95461581602008
 20
24.49150000000003
 30
0.0
 40
3.5
 41
0.0
 71
     5
 72
     1
  1
\A1;{%%c9.53 [3/8]}
  7
SLDTEXTSTYLE0
 11
0.0
 21
1.0
 31
0.0
 73
     1
 44
1.0
  0
POINT
  5
BA9
330
B9D
100
AcDbEntity
  8
Defpoints
 62
     0
100
AcDbPoint
 10
70.104
 20
4.762500000000017
 30
0.0
  0
POINT
  5
BAA
330
B9D
100
AcDbEntity
  8
Defpoints
 62
     0
100
AcDbPoint
 10
70.104
 20
-4.762500000000017
 30
0.0
  0
POINT
  5
BAC
330
B9D
100
AcDbEntity
  8
Defpoints
 62
     0
100
AcDbPoint
 10
79.57961581602008
 20
-4.762500000000018
 30
0.0
  0
ENDBLK
  5
B9F
330
B9D
100
AcDbEntity
  8
0
100
AcDbBlockEnd
  0
ENDSEC
  0
SECTION
  2
ENTITIES
  0
LINE
  5
CD
330
1F
100
AcDbEntity
  8
참조1
100
AcDbLine
 10
3.649511632443772
 20
-2.498925071276081
 30
0.0
 11
3.649511632443777
 21
-39.9989250712761
 31
0.0
  0
LINE
  5
CE
330
1F
100
AcDbEntity
  8
참조1
100
AcDbLine
 10
3.649511632443777
 20
-39.9989250712761
 30
0.0
 11
-11.50883181430867
 21
-39.9989250712761
 31
0.0
  0
LINE
  5
129
330
1F
100
AcDbEntity
  8
참조1
100
AcDbLine
 10
86.46350881534559
 20
7.441074928723896
 30
0.0
 11
86.46350881534559
 21
-7.438925071276109
 31
0.0
  0
LINE
  5
12A
330
1F
100
AcDbEntity
  8
참조1
100
AcDbLine
 10
99.1635088153456
 20
5.441074928723896
 30
0.0
 11
86.46350881534559
 21
5.441074928723896
 31
0.0
  0
SOLID
  5
12B
330
1F
100
AcDbEntity
  8
참조1
100
AcDbTrace
 10
86.46350881534559
 20
5.441074928723896
 30
0.0
 11
92.81350881534559
 21
4.425074928723896
 31
0.0
 12
92.81350881534559
 22
6.457074928723896
 32
0.0
 13
92.81350881534559
 23
6.457074928723896
 33
0.0
  0
LINE
  5
12C
330
1F
100
AcDbEntity
  8
참조1
100
AcDbLine
 10
99.1635088153456
 20
-5.438925071276109
 30
0.0
 11
86.46350881534559
 21
-5.438925071276109
 31
0.0
  0
SOLID
  5
12D
330
1F
100
AcDbEntity
  8
참조1
100
AcDbTrace
 10
86.46350881534559
 20
-5.438925071276109
 30
0.0
 11
92.81350881534559
 21
-6.454925071276109
 31
0.0
 12
92.81350881534559
 22
-4.422925071276109
 32
0.0
 13
92.81350881534559
 23
-4.422925071276109
 33
0.0
  0
MTEXT
  5
12E
330
1F
100
AcDbEntity
  8
참조1
100
AcDbMText
 10
96.06362362590816
 20
11.06679249473997
 30
0.0
 40
3.5
 41
0.0
 71
     1
 72
     1
  1
A
  7
SLDTEXTSTYLE0
 73
     1
 44
1.0
  0
MTEXT
  5
12F
330
1F
100
AcDbEntity
  8
참조1
100
AcDbMText
 10
96.06362362590816
 20
0.1867924947399659
 30
0.0
 40
3.5
 41
0.0
 71
     1
 72
     1
  1
A
  7
SLDTEXTSTYLE0
 73
     1
 44
1.0
  0
LINE
  5
B0A
330
1F
100
AcDbEntity
  8
외형선
  6
Continuous
370
    15
100
AcDbLine
 10
-49.73600000000002
 20
4.762500000000017
 30
0.0
 11
-50.54600000000001
 21
3.952500000000015
 31
0.0
  0
LINE
  5
B0B
330
1F
100
AcDbEntity
  8
외형선
  6
Continuous
370
    15
100
AcDbLine
 10
-50.54600000000001
 20
-3.952499999999986
 30
0.0
 11
-49.73600000000002
 21
-4.762499999999989
 31
0.0
  0
LINE
  5
B0C
330
1F
100
AcDbEntity
  8
외형선
  6
Continuous
370
    15
100
AcDbLine
 10
0.0
 20
4.762500000000017
 30
0.0
 11
-49.73600000000002
 21
4.762500000000017
 31
0.0
  0
LINE
  5
B0D
330
1F
100
AcDbEntity
  8
외형선
  6
Continuous
370
    15
100
AcDbLine
 10
-49.73600000000002
 20
-4.762499999999989
 30
0.0
 11
0.0
 21
-4.762499999999989
 31
0.0
  0
LINE
  5
B0E
330
1F
100
AcDbEntity
  8
외형선
  6
Continuous
370
    15
100
AcDbLine
 10
0.0
 20
-4.762499999999989
 30
0.0
 11
0.2540000000000049
 21
-4.50849999999997
 31
0.0
  0
LINE
  5
B0F
330
1F
100
AcDbEntity
  8
외형선
  6
Continuous
370
    15
100
AcDbLine
 10
0.2540000000000049
 20
4.508500000000026
 30
0.0
 11
0.0
 21
4.762500000000017
 31
0.0
  0
LINE
  5
B10
330
1F
100
AcDbEntity
  8
외형선
  6
Continuous
370
    15
100
AcDbLine
 10
17.78365569533963
 20
4.508500000000026
 30
0.0
 11
0.2540000000000049
 21
4.508500000000026
 31
0.0
  0
LINE
  5
B11
330
1F
100
AcDbEntity
  8
외형선
  6
Continuous
370
    15
100
AcDbLine
 10
0.2540000000000049
 20
-4.50849999999997
 30
0.0
 11
17.78365569533963
 21
-4.50849999999997
 31
0.0
  0
ARC
  5
B12
330
1F
100
AcDbEntity
  8
외형선
  6
Continuous
 62
     1
370
    15
100
AcDbCircle
 10
65.3415
 20
0.0000000000000284
 30
0.0
 40
4.762500000000003
100
AcDbArc
 50
323.1040808722036
 51
0.0
  0
ARC
  5
B13
330
1F
100
AcDbEntity
  8
외형선
  6
Continuous
 62
     1
370
    15
100
AcDbCircle
 10
65.3415
 20
0.0000000000000284
 30
0.0
 40
4.762500000000005
100
AcDbArc
 50
0.0
 51
36.84071678598566
  0
LINE
  5
B14
330
1F
100
AcDbEntity
  8
외형선
  6
Continuous
 62
     1
370
    15
100
AcDbLine
 10
29.99673371345105
 20
-4.762499999999989
 30
0.0
 11
35.75293713006812
 21
-4.762499999999989
 31
0.0
  0
LINE
  5
B15
330
1F
100
AcDbEntity
  8
외형선
  6
Continuous
 62
     1
370
    15
100
AcDbLine
 10
55.60729111966279
 20
4.762500000000017
 30
0.0
 11
49.85360387421515
 21
4.762500000000017
 31
0.0
  0
LINE
  5
B16
330
1F
100
AcDbEntity
  8
외형선
  6
Continuous
 62
     1
370
    15
100
AcDbLine
 10
49.85303992697669
 20
-4.762499999999989
 30
0.0
 11
55.60729111966279
 21
-4.762499999999989
 31
0.0
  0
LINE
  5
B17
330
1F
100
AcDbEntity
  8
외형선
  6
Continuous
 62
     1
370
    15
100
AcDbLine
 10
35.75293713006809
 20
4.762500000000017
 30
0.0
 11
29.99797629626121
 21
4.762500000000017
 31
0.0
  0
LINE
  5
B18
330
1F
100
AcDbEntity
  8
외형선
  6
Continuous
370
    15
100
AcDbLine
 10
-49.73600000000002
 20
4.762500000000017
 30
0.0
 11
-49.73600000000002
 21
-4.762499999999989
 31
0.0
  0
LINE
  5
B19
330
1F
100
AcDbEntity
  8
외형선
  6
Continuous
370
    15
100
AcDbLine
 10
-50.54600000000001
 20
3.952500000000015
 30
0.0
 11
-50.54600000000001
 21
-3.952499999999986
 31
0.0
  0
LINE
  5
B1A
330
1F
100
AcDbEntity
  8
외형선
  6
Continuous
370
    15
100
AcDbLine
 10
0.0
 20
4.762500000000017
 30
0.0
 11
0.0
 21
-4.762499999999989
 31
0.0
  0
LINE
  5
B1B
330
1F
100
AcDbEntity
  8
외형선
  6
Continuous
370
    15
100
AcDbLine
 10
0.2540000000000049
 20
4.508500000000026
 30
0.0
 11
0.2540000000000049
 21
-4.508499999999998
 31
0.0
  0
LINE
  5
B1C
330
1F
100
AcDbEntity
  8
외형선
  6
Continuous
370
    15
100
AcDbLine
 10
17.78365569533963
 20
4.302406854840513
 30
0.0
 11
17.78365569533963
 21
4.508500000000026
 31
0.0
  0
SPLINE
  5
B1D
330
1F
100
AcDbEntity
  8
외형선
  6
Continuous
370
    15
100
AcDbSpline
210
0.0
220
0.0
230
1.0
 70
     8
 71
     3
 72
    10
 73
     6
 74
     0
 42
0.000000001
 43
0.00000001
 40
0.0
 40
0.0
 40
0.0
 40
0.0
 40
0.5000000000000001
 40
0.5000000000000001
 40
1.0
 40
1.0
 40
1.0
 40
1.0
 10
19.30400000000037
 20
3.857390764276431
 30
0.0
 10
19.0499892036888
 20
3.951056694471362
 30
0.0
 10
18.79917781946156
 20
4.035042741221673
 30
0.0
 10
18.29308780873066
 20
4.183715081348936
 30
0.0
 10
18.03800857106428
 20
4.24831097330096
 30
0.0
 10
17.78365569533963
 20
4.302414723916399
 30
0.0
  0
SPLINE
  5
B1E
330
1F
100
AcDbEntity
  8
외형선
  6
Continuous
370
    15
100
AcDbSpline
210
0.0
220
0.0
230
1.0
 70
     8
 71
     3
 72
    10
 73
     6
 74
     0
 42
0.000000001
 43
0.00000001
 40
0.0
 40
0.0
 40
0.0
 40
0.0
 40
0.5
 40
0.5
 40
1.0
 40
1.0
 40
1.0
 40
1.0
 10
17.78394373541519
 20
1.617230015188795
 30
0.0
 10
18.03824915411471
 20
1.448289047529329
 30
0.0
 10
18.29327961334852
 20
1.275266424835877
 30
0.0
 10
18.79927257308779
 20
0.9248383166393808
 30
0.0
 10
19.05003714575221
 20
0.7474968823449331
 30
0.0
 10
19.30400000000061
 20
0.5680342265825971
 30
0.0
  0
SPLINE
  5
B1F
330
1F
100
AcDbEntity
  8
외형선
  6
Continuous
370
    15
100
AcDbSpline
210
0.0
220
0.0
230
1.0
 70
     8
 71
     3
 72
    10
 73
     6
 74
     0
 42
0.000000001
 43
0.00000001
 40
0.0
 40
0.0
 40
0.0
 40
0.0
 40
0.5000000000000001
 40
0.5000000000000001
 40
1.0
 40
1.0
 40
1.0
 40
1.0
 10
19.30400000000037
 20
-3.857390764276403
 30
0.0
 10
19.0499892036888
 20
-3.951056694471333
 30
0.0
 10
18.79917781946156
 20
-4.035042741221645
 30
0.0
 10
18.29308780873066
 20
-4.183715081348879
 30
0.0
 10
18.03800857106428
 20
-4.248310973300903
 30
0.0
 10
17.78365569533963
 20
-4.302414723916371
 30
0.0
  0
LINE
  5
B20
330
1F
100
AcDbEntity
  8
외형선
  6
Continuous
370
    15
100
AcDbLine
 10
17.78365569533963
 20
-4.50849999999997
 30
0.0
 11
17.78365569533963
 21
1.617278923439869
 31
0.0
  0
SPLINE
  5
B21
330
1F
100
AcDbEntity
  8
외형선
  6
Continuous
370
    15
100
AcDbSpline
210
0.0
220
0.0
230
1.0
 70
    24
 71
     3
 72
    14
 73
    10
 74
     0
 42
0.000000001
 43
0.00000001
 40
0.0
 40
0.0
 40
0.0
 40
0.0
 40
0.25
 40
0.25
 40
0.5
 40
0.5
 40
0.75
 40
0.75
 40
1.0
 40
1.0
 40
1.0
 40
1.0
 10
19.30399999999999
 20
0.5680342265830518
 30
0.0
 10
19.30399999999999
 20
0.5431783780796877
 30
0.0
 10
19.304
 20
0.455198226482338
 30
0.0
 10
19.30399999999999
 20
0.1718606876360127
 30
0.0
 10
19.304
 20
-0.022826562602603
 30
0.0
 10
19.30399999999999
 20
-0.4758602811983508
 30
0.0
 10
19.30399999999997
 20
-0.733520170461361
 30
0.0
 10
19.30399999999999
 20
-1.266955371956669
 30
0.0
 10
19.30399999999999
 20
-1.542464392685105
 30
0.0
 10
19.30399999999999
 20
-1.811058192415601
 30
0.0
  0
SPLINE
  5
B22
330
1F
100
AcDbEntity
  8
외형선
  6
Continuous
370
    15
100
AcDbSpline
210
0.0
220
0.0
230
1.0
 70
     8
 71
     3
 72
    10
 73
     6
 74
     0
 42
0.000000001
 43
0.00000001
 40
0.0
 40
0.0
 40
0.0
 40
0.0
 40
0.5
 40
0.5
 40
1.0
 40
1.0
 40
1.0
 40
1.0
 10
19.30400000000017
 20
-1.811058192415658
 30
0.0
 10
19.04998920368864
 20
-1.763801467165081
 30
0.0
 10
18.79917781946142
 20
-1.712383513524912
 30
0.0
 10
18.29308780873059
 20
-1.601265046110711
 30
0.0
 10
18.03800857106424
 20
-1.541550219258539
 30
0.0
 10
17.78365569533963
 20
-1.478307128740255
 30
0.0
  0
SPLINE
  5
B23
330
1F
100
AcDbEntity
  8
외형선
  6
Continuous
370
    15
100
AcDbSpline
210
0.0
220
0.0
230
1.0
 70
    24
 71
     3
 72
    13
 73
     9
 74
     0
 42
0.000000001
 43
0.00000001
 40
0.0
 40
0.0
 40
0.0
 40
0.0
 40
0.0877977030528525
 40
0.2831101563714412
 40
0.4784226096900298
 40
0.6737350630085542
 40
0.8690475163270787
 40
1.0
 40
1.0
 40
1.0
 40
1.0
 10
19.30399999999999
 20
-1.919410815638344
 30
0.0
 10
19.30399999999999
 20
-1.938030910382395
 30
0.0
 10
19.30399999999997
 20
-1.998072776528602
 30
0.0
 10
19.304
 20
-2.212172657311839
 30
0.0
 10
19.304
 20
-2.546397483258431
 30
0.0
 10
19.304
 20
-2.976367092992831
 30
0.0
 10
19.304
 20
-3.420727068793099
 30
0.0
 10
19.304
 20
-3.732325110883551
 30
0.0
 10
19.304
 20
-3.857390764262163
 30
0.0
  0
SPLINE
  5
B24
330
1F
100
AcDbEntity
  8
외형선
  6
Continuous
 62
     1
370
    15
100
AcDbSpline
210
0.0
220
0.0
230
1.0
 70
     8
 71
     3
 72
    24
 73
    20
 74
     0
 42
0.000000001
 43
0.00000001
 40
0.0309268659897877
 40
0.0309268659897877
 40
0.0309268659897877
 40
0.0309268659897877
 40
0.085345098986844
 40
0.1462864620166961
 40
0.2072275442463067
 40
0.2681683535088893
 40
0.3291088976498449
 40
0.3900491845264237
 40
0.4509892220073769
 40
0.5119290179726114
 40
0.5728685803128455
 40
0.6338079169292591
 40
0.6947470357331452
 40
0.7556859446455613
 40
0.8166246515969781
 40
0.8775631645269274
 40
0.93850149138365
 40
0.9994396401237439
 40
1.0
 40
1.0
 40
1.0
 40
1.0
 10
61.75335019409702
 20
-2.686220686494238
 30
0.0
 10
61.26666115906193
 20
-2.995974575569846
 30
0.0
 10
60.23494477734441
 20
-3.572496399022612
 30
0.0
 10
58.65820467313634
 20
-4.267353895138882
 30
0.0
 10
57.02313264660847
 20
-4.695328796909706
 30
0.0
 10
55.38807022841971
 20
-4.813106572475931
 30
0.0
 10
53.75301719564933
 20
-4.609935733800143
 30
0.0
 10
52.11797325628788
 20
-4.100120578823464
 30
0.0
 10
50.48293813629046
 20
-3.31738488094274
 30
0.0
 10
48.84791155623455
 20
-2.313875091814964
 30
0.0
 10
47.21289323771374
 20
-1.156382107682873
 30
0.0
 10
45.57788290118384
 20
0.0781218048723815
 30
0.0
 10
43.94288026826297
 20
1.307227113795307
 30
0.0
 10
42.30788505476472
 20
2.450068590684765
 30
0.0
 10
40.67289699634379
 20
3.427097833932606
 30
0.0
 10
39.03791575296064
 20
4.186317052705988
 30
0.0
 10
37.40294126545562
 20
4.628590001729037
 30
0.0
 10
36.30794901317114
 20
4.814311244161559
 30
0.0
 10
35.75794860381376
 20
4.761536766334956
 30
0.0
 10
35.75293713006809
 20
4.761055897765459
 30
0.0
  0
SPLINE
  5
B25
330
1F
100
AcDbEntity
  8
외형선
  6
Continuous
 62
     1
370
    15
100
AcDbSpline
210
0.0
220
0.0
230
1.0
 70
     8
 71
     3
 72
    10
 73
     6
 74
     0
 42
0.000000001
 43
0.00000001
 40
0.0
 40
0.0
 40
0.0
 40
0.0
 40
0.2924085184776726
 40
0.6463634176750902
 40
1.0
 40
1.0
 40
1.0
 40
1.0
 10
22.85386350394784
 20
-2.151896038384365
 30
0.0
 10
22.50801163212917
 20
-2.380973972002892
 30
0.0
 10
21.74351270767286
 20
-2.887346347399102
 30
0.0
 10
20.55956104885789
 20
-3.553671902214262
 30
0.0
 10
19.72239481384331
 20
-3.909576503028177
 30
0.0
 10
19.3040000000004
 20
-4.087448749871442
 30
0.0
  0
SPLINE
  5
B26
330
1F
100
AcDbEntity
  8
외형선
  6
Continuous
370
    15
100
AcDbSpline
210
0.0
220
0.0
230
1.0
 70
    24
 71
     3
 72
    13
 73
     9
 74
     0
 42
0.000000001
 43
0.00000001
 40
0.0
 40
0.0
 40
0.0
 40
0.0
 40
0.0816928372379649
 40
0.2603394001849186
 40
0.4441667255597127
 40
0.6228132885066097
 40
0.8066406138813413
 40
1.0
 40
1.0
 40
1.0
 40
1.0
 10
19.30399999999999
 20
-1.919410815638344
 30
0.0
 10
19.30399999999999
 20
-1.93801887905741
 30
0.0
 10
19.30399999999997
 20
-1.997319207371561
 30
0.0
 10
19.304
 20
-2.21018689027278
 30
0.0
 10
19.304
 20
-2.54301812896955
 30
0.0
 10
19.304
 20
-2.973674449117567
 30
0.0
 10
19.30399999999999
 20
-3.483792855894535
 30
0.0
 10
19.304
 20
-3.882868377532105
 30
0.0
 10
19.304
 20
-4.087448749871612
 30
0.0
  0
SPLINE
  5
B27
330
1F
100
AcDbEntity
  8
외형선
  6
Continuous
 62
     1
370
    15
100
AcDbSpline
210
0.0
220
0.0
230
1.0
 70
     8
 71
     3
 72
    16
 73
    12
 74
     0
 42
0.000000001
 43
0.00000001
 40
0.0875328439836797
 40
0.0875328439836797
 40
0.0875328439836797
 40
0.0875328439836797
 40
0.1756565061602892
 40
0.2847841844432114
 40
0.3937847135526069
 40
0.5029713563786059
 40
0.6121256642604904
 40
0.721115862918079
 40
0.8302854849862082
 40
0.9394607808708536
 40
1.0
 40
1.0
 40
1.0
 40
1.0
 10
60.96430057516903
 20
-2.088939628286283
 30
0.0
 10
60.37738658771636
 20
-2.04071572306583
 30
0.0
 10
59.06357097748054
 20
-1.844124945926751
 30
0.0
 10
57.02391630536907
 20
-1.386477715923121
 30
0.0
 10
54.84434731621056
 20
-0.7221832182432308
 30
0.0
 10
52.6640712970449
 20
0.0231818744508416
 30
0.0
 10
50.48395007831252
 20
0.7659682802012924
 30
0.0
 10
48.30441719023796
 20
1.42264122407974
 30
0.0
 10
46.12422831947551
 20
1.898570957560878
 30
0.0
 10
44.26672886396214
 20
2.151896363240837
 30
0.0
 10
43.1365653848485
 20
2.13460671288081
 30
0.0
 10
42.7334224096689
 20
2.128439285588399
 30
0.0
  0
SPLINE
  5
B28
330
1F
100
AcDbEntity
  8
외형선
  6
Continuous
 62
     1
370
    15
100
AcDbSpline
210
0.0
220
0.0
230
1.0
 70
     8
 71
     3
 72
    10
 73
     6
 74
     0
 42
0.000000001
 43
0.00000001
 40
0.0
 40
0.0
 40
0.0
 40
0.0
 40
0.1060331052360063
 40
0.5530170581419608
 40
1.0
 40
1.0
 40
1.0
 40
1.0
 10
23.04712195304555
 20
-2.14628382809957
 30
0.0
 10
22.9148236412033
 20
-2.151091503680988
 30
0.0
 10
22.22482005176485
 20
-2.176165999053211
 30
0.0
 10
20.97711269004327
 20
-2.078999552382527
 30
0.0
 10
19.86170380951718
 20
-1.900371911730531
 30
0.0
 10
19.30399999999999
 20
-1.811058192415601
 30
0.0
  0
SPLINE
  5
B29
330
1F
100
AcDbEntity
  8
외형선
  6
Continuous
370
    15
100
AcDbSpline
210
0.0
220
0.0
230
1.0
 70
    24
 71
     3
 72
    13
 73
     9
 74
     0
 42
0.000000001
 43
0.00000001
 40
0.0
 40
0.0
 40
0.0
 40
0.0
 40
0.0554355629430407
 40
0.2341548228480695
 40
0.4180569533976476
 40
0.5967762133026755
 40
0.7806783438522521
 40
1.0
 40
1.0
 40
1.0
 40
1.0
 10
19.304
 20
0.4397723690681801
 30
0.0
 10
19.304
 20
0.4259309205365867
 30
0.0
 10
19.304
 20
0.3674658891233094
 30
0.0
 10
19.30399999999997
 20
0.1620376047054606
 30
0.0
 10
19.304
 20
-0.1736038558984774
 30
0.0
 10
19.30400000000002
 20
-0.6076446842796486
 30
0.0
 10
19.30399999999999
 20
-1.144256920695625
 30
0.0
 10
19.304
 20
-1.576145286191917
 30
0.0
 10
19.304
 20
-1.811058192415601
 30
0.0
  0
SPLINE
  5
B2A
330
1F
100
AcDbEntity
  8
외형선
  6
Continuous
 62
     1
370
    15
100
AcDbSpline
210
0.0
220
0.0
230
1.0
 70
     8
 71
     3
 72
    17
 73
    13
 74
     0
 42
0.000000001
 43
0.00000001
 40
0.0
 40
0.0
 40
0.0
 40
0.0
 40
0.1398265301564059
 40
0.2825582447707828
 40
0.4223856094798156
 40
0.565122751273893
 40
0.6470482498128144
 40
0.7289735352625589
 40
0.8132706344933979
 40
0.8975681941777656
 40
0.9795619282915287
 40
1.0
 40
1.0
 40
1.0
 40
1.0
 10
19.304
 20
0.575508260776104
 30
0.0
 10
19.80246743912761
 20
0.1994864403416727
 30
0.0
 10
20.80975900616956
 20
-0.5603698291275805
 30
0.0
 10
22.31575905434029
 20
-1.673545060175883
 30
0.0
 10
23.8320299166017
 20
-2.695763934458455
 30
0.0
 10
25.13215116957728
 20
-3.440953972977837
 30
0.0
 10
26.22441840171494
 20
-3.951004351344352
 30
0.0
 10
27.10846959615419
 20
-4.287157925528845
 30
0.0
 10
28.00055265916447
 20
-4.543564626609651
 30
0.0
 10
28.89387722943249
 20
-4.700875499186736
 30
0.0
 10
29.55887129166835
 20
-4.769317784231276
 30
0.0
 10
29.92390004783107
 20
-4.75645104412817
 30
0.0
 10
29.99673371345105
 20
-4.753883761878569
 30
0.0
  0
SPLINE
  5
B2B
330
1F
100
AcDbEntity
  8
외형선
  6
Continuous
 62
     1
370
    15
100
AcDbSpline
210
0.0
220
0.0
230
1.0
 70
     8
 71
     3
 72
    19
 73
    15
 74
     0
 42
0.000000001
 43
0.00000001
 40
0.0
 40
0.0
 40
0.0
 40
0.0
 40
0.0101484508999965
 40
0.0490587176649842
 40
0.0879689443293621
 40
0.1279980958334212
 40
0.1680271467685566
 40
0.2070915543797966
 40
0.2461558686356283
 40
0.2863553520081745
 40
0.3265546255039669
 40
0.3655578989706114
 40
0.4045611767531789
 40
0.4250268552195235
 40
0.4250268552195235
 40
0.4250268552195235
 40
0.4250268552195235
 10
42.85903469967047
 20
2.128095132401427
 30
0.0
 10
42.93514115578725
 20
2.180404234683749
 30
0.0
 10
43.30304805900892
 20
2.43327213594921
 30
0.0
 10
43.9622391419653
 20
2.845673254309986
 30
0.0
 10
44.84531445029432
 20
3.355408915553369
 30
0.0
 10
45.73723410176919
 20
3.799591287762951
 30
0.0
 10
46.62963223445921
 20
4.170076788989945
 30
0.0
 10
47.51545217271487
 20
4.45420085873721
 30
0.0
 10
48.40182871172252
 20
4.652901018573914
 30
0.0
 10
49.2975627127994
 20
4.760123437343168
 30
0.0
 10
50.1918340611351
 20
4.771465966666852
 30
0.0
 10
51.07767531509458
 20
4.688348358990368
 30
0.0
 10
51.81564475359723
 20
4.543400349163903
 30
0.0
 10
52.26111314664208
 20
4.422023633662661
 30
0.0
 10
52.41442713160466
 20
4.376396722573276
 30
0.0
  0
SPLINE
  5
B2D
330
1F
100
AcDbEntity
  8
외형선
  6
Continuous
 62
     1
370
    15
100
AcDbSpline
210
0.0
220
0.0
230
1.0
 70
     8
 71
     3
 72
     8
 73
     4
 74
     0
 42
0.000000001
 43
0.00000001
 40
0.0
 40
0.0
 40
0.0
 40
0.0
 40
1.0
 40
1.0
 40
1.0
 40
1.0
 10
67.32798717229764
 20
1.571560818014149
 30
0.0
 10
68.08876928390109
 20
1.347584149982708
 30
0.0
 10
68.85337246649217
 20
1.104968427238418
 30
0.0
 10
69.62188211100883
 20
0.8432971156817075
 30
0.0
  0
SPLINE
  5
B2E
330
1F
100
AcDbEntity
  8
외형선
  6
Continuous
 62
     1
370
    15
100
AcDbSpline
210
0.0
220
0.0
230
1.0
 70
     8
 71
     3
 72
    28
 73
    24
 74
     0
 42
0.000000001
 43
0.00000001
 40
0.0
 40
0.0
 40
0.0
 40
0.0
 40
0.1249999999999987
 40
0.1249999999999987
 40
0.187499999999998
 40
0.187499999999998
 40
0.2499999999999973
 40
0.2499999999999973
 40
0.374999999999996
 40
0.374999999999996
 40
0.4999999999999947
 40
0.4999999999999947
 40
0.6249999999999933
 40
0.6249999999999933
 40
0.6874999999999944
 40
0.6874999999999944
 40
0.7499999999999956
 40
0.7499999999999956
 40
0.8124999999999968
 40
0.8124999999999968
 40
0.874999999999998
 40
0.874999999999998
 40
1.0
 40
1.0
 40
1.0
 40
1.0
 10
65.3415
 20
0.1461785409112224
 30
0.0
 10
65.5936005191887
 20
-0.0440919444395149
 30
0.0
 10
65.84078278911235
 20
-0.2330833986829077
 30
0.0
 10
66.20991021096663
 20
-0.5073434095363041
 30
0.0
 10
66.33267752980342
 20
-0.5972127298325063
 30
0.0
 10
66.57875343456791
 20
-0.7722727328606425
 30
0.0
 10
66.70233678371585
 20
-0.8577044720423146
 30
0.0
 10
67.06764689342344
 20
-1.098102849342524
 30
0.0
 10
67.30723324669273
 20
-1.238351483679708
 30
0.0
 10
67.78941324074145
 20
-1.459528857364063
 30
0.0
 10
68.0263124778678
 20
-1.537707689639632
 30
0.0
 10
68.4912048845072
 20
-1.594367308852156
 30
0.0
 10
68.71808056885129
 20
-1.57130817749362
 30
0.0
 10
69.03027927195197
 20
-1.423272135351539
 30
0.0
 10
69.12753596479203
 20
-1.356410844492956
 30
0.0
 10
69.30803091168647
 20
-1.181593366523089
 30
0.0
 10
69.38794000448328
 20
-1.076382276277855
 30
0.0
 10
69.52344341613971
 20
-0.8343765444408859
 30
0.0
 10
69.57915577638292
 20
-0.6961915574133855
 30
0.0
 10
69.65994597157678
 20
-0.406061436862359
 30
0.0
 10
69.68612853701967
 20
-0.2505456912546435
 30
0.0
 10
69.72229515976562
 20
0.2156181742687409
 30
0.0
 10
69.69203849174843
 20
0.5357256185538972
 30
0.0
 10
69.62188211100911
 20
0.8432971156824749
 30
0.0
  0
SPLINE
  5
B2F
330
1F
100
AcDbEntity
  8
외형선
  6
Continuous
 62
     1
370
    15
100
AcDbSpline
210
0.0
220
0.0
230
1.0
 70
     8
 71
     3
 72
    14
 73
    10
 74
     0
 42
0.000000001
 43
0.00000001
 40
0.0
 40
0.0
 40
0.0
 40
0.0
 40
0.0912752905416057
 40
0.1827767134087718
 40
0.3507264896147445
 40
0.518675448893455
 40
0.6866236127624201
 40
0.8545710027746379
 40
1.0
 40
1.0
 40
1.0
 40
1.0
 10
65.3415
 20
0.1461785409112224
 30
0.0
 10
65.04570161457056
 20
0.3691126985908966
 30
0.0
 10
64.45337201036332
 20
0.8155333279360093
 30
0.0
 10
63.315492950568
 20
1.648554553307775
 30
0.0
 10
61.9283437299338
 20
2.601872967219066
 30
0.0
 10
60.29329609639439
 20
3.553522051760268
 30
0.0
 10
58.65820221312318
 20
4.260712647156652
 30
0.0
 10
57.09620743987172
 20
4.694847196043611
 30
0.0
 10
56.07923764586567
 20
4.728463731291924
 30
0.0
 10
55.60729111966279
 20
4.744064201558501
 30
0.0
  0
SPLINE
  5
B30
330
1F
100
AcDbEntity
  8
외형선
  6
Continuous
 62
     1
370
    15
100
AcDbSpline
210
0.0
220
0.0
230
1.0
 70
     8
 71
     3
 72
    23
 73
    19
 74
     0
 42
0.000000001
 43
0.00000001
 40
0.0
 40
0.0
 40
0.0
 40
0.0
 40
0.0181609163750907
 40
0.0879381183703477
 40
0.1577150982034388
 40
0.2274918649754106
 40
0.2972684277968783
 40
0.3670447957876191
 40
0.4368209780761657
 40
0.506596983799401
 40
0.5763728221021474
 40
0.6461485021367601
 40
0.7159240330627166
 40
0.7856994240462075
 40
0.8392225884463208
 40
0.8927694446681228
 40
0.946408841685341
 40
1.0
 40
1.0
 40
1.0
 40
1.0
 10
42.7334224096689
 20
-2.128439285588342
 30
0.0
 10
42.59157610537012
 20
-2.227599679001344
 30
0.0
 10
41.90473317078508
 20
-2.707750472799489
 30
0.0
 10
40.6728970738708
 20
-3.42232259569198
 30
0.0
 10
39.03791576172418
 20
-4.181599248576447
 30
0.0
 10
37.4029411528753
 20
-4.65223632754288
 30
0.0
 10
35.76797286642852
 20
-4.816029347286388
 30
0.0
 10
34.13301038501407
 20
-4.65856450454902
 30
0.0
 10
32.49805446965433
 20
-4.191263440400519
 30
0.0
 10
30.86310090256185
 20
-3.444977157705466
 30
0.0
 10
29.22816410107851
 20
-2.469430230424564
 30
0.0
 10
27.59318891949124
 20
-1.32956709589422
 30
0.0
 10
25.95837982689106
 20
-0.1011097961666962
 30
0.0
 10
24.44994551659596
 20
1.037789465783931
 30
0.0
 10
23.06998093545386
 20
2.025811113306105
 30
0.0
 10
21.81562298391155
 20
2.840976734121512
 30
0.0
 10
20.55956971475787
 20
3.55511307163718
 30
0.0
 10
19.72239770161019
 20
3.91005674874225
 30
0.0
 10
19.3040000000004
 20
4.087448749871498
 30
0.0
  0
SPLINE
  5
B31
330
1F
100
AcDbEntity
  8
외형선
  6
Continuous
 62
     1
370
    15
100
AcDbSpline
210
0.0
220
0.0
230
1.0
 70
     8
 71
     3
 72
    10
 73
     6
 74
     0
 42
0.000000001
 43
0.00000001
 40
0.0
 40
0.0
 40
0.0
 40
0.0
 40
0.3970050491467118
 40
0.7938046366935203
 40
1.0
 40
1.0
 40
1.0
 40
1.0
 10
67.33728830452426
 20
1.594593786064223
 30
0.0
 10
66.70813299319482
 20
1.723571968343947
 30
0.0
 10
65.45014797661358
 20
1.981461582962254
 30
0.0
 10
63.86557792542493
 20
2.161432457118508
 30
0.0
 10
62.90992179212211
 20
2.136776452776871
 30
0.0
 10
62.58313321234451
 20
2.128345281395241
 30
0.0
  0
SPLINE
  5
B32
330
1F
100
AcDbEntity
  8
외형선
  6
Continuous
 62
     1
370
    15
100
AcDbSpline
210
0.0
220
0.0
230
1.0
 70
     8
 71
     3
 72
    17
 73
    13
 74
     0
 42
0.000000001
 43
0.00000001
 40
0.0
 40
0.0
 40
0.0
 40
0.0
 40
0.0546698817368242
 40
0.1636764155600372
 40
0.2727265714279918
 40
0.3815923044293151
 40
0.4905705646354692
 40
0.5996303690396239
 40
0.7085221544429814
 40
0.8174665339040743
 40
0.9265303173584263
 40
1.0
 40
1.0
 40
1.0
 40
1.0
 10
42.85903469967047
 20
-2.12809513240137
 30
0.0
 10
42.49450552141769
 20
-2.13528364131767
 30
0.0
 10
41.4031399034952
 20
-2.156805351906058
 30
0.0
 10
39.5843834152447
 20
-1.915326372767765
 30
0.0
 10
37.40408177521795
 20
-1.449791425907591
 30
0.0
 10
35.22449577504915
 20
-0.7992167593481554
 30
0.0
 10
33.04451468994779
 20
-0.0586159393457706
 30
0.0
 10
30.86414667555792
 20
0.6888520799615208
 30
0.0
 10
28.68445757311449
 20
1.357623936110031
 30
0.0
 10
26.50464916065511
 20
1.860379627508763
 30
0.0
 10
24.56054600476503
 20
2.131557057937755
 30
0.0
 10
23.34365990810667
 20
2.146059006902419
 30
0.0
 10
22.85386350394785
 20
2.151896038384422
 30
0.0
  0
SPLINE
  5
B33
330
1F
100
AcDbEntity
  8
외형선
  6
Continuous
 62
     1
370
    15
100
AcDbSpline
210
0.0
220
0.0
230
1.0
 70
     8
 71
     3
 72
     8
 73
     4
 74
     0
 42
0.000000001
 43
0.00000001
 40
0.0
 40
0.0
 40
0.0
 40
0.0
 40
1.0
 40
1.0
 40
1.0
 40
1.0
 10
67.33728830455021
 20
1.594593786058255
 30
0.0
 10
67.33424670766132
 20
1.586875872983228
 30
0.0
 10
67.33114642007766
 20
1.579198155443947
 30
0.0
 10
67.32798717229767
 20
1.571560818014149
 30
0.0
  0
SPLINE
  5
B34
330
1F
100
AcDbEntity
  8
외형선
  6
Continuous
 62
     1
370
    15
100
AcDbSpline
210
0.0
220
0.0
230
1.0
 70
     8
 71
     3
 72
    37
 73
    33
 74
     0
 42
0.000000001
 43
0.00000001
 40
0.0
 40
0.0
 40
0.0
 40
0.0
 40
0.0288807883324222
 40
0.0858033477695718
 40
0.1183608763149217
 40
0.1511458661588482
 40
0.1846390580711056
 40
0.218380287449965
 40
0.250965024219287
 40
0.2837776078846863
 40
0.31729925519737
 40
0.3510688866002858
 40
0.3836940804392447
 40
0.4165475273292333
 40
0.4501107267544697
 40
0.4839223466130952
 40
0.5165894134063019
 40
0.5494852248461094
 40
0.5820281507686744
 40
0.6147970591854122
 40
0.6482692821214379
 40
0.6819873494114593
 40
0.714669746948229
 40
0.7475808904512263
 40
0.7801050624530176
 40
0.8128547358012478
 40
0.8463072634700789
 40
0.8800054669653836
 40
0.912657211762373
 40
0.9455376553634132
 40
0.9791308932220334
 40
1.0
 40
1.0
 40
1.0
 40
1.0
 10
23.04712195304555
 20
2.146283828099598
 30
0.0
 10
23.30532125683851
 20
2.322362008667398
 30
0.0
 10
24.0724182073167
 20
2.845481294332188
 30
0.0
 10
25.13128019442541
 20
3.438108035452217
 30
0.0
 10
26.22311985834648
 20
3.951158323454678
 30
0.0
 10
27.10621721546713
 20
4.286657314599211
 30
0.0
 10
28.00027852023698
 20
4.541805862603383
 30
0.0
 10
28.89123848351252
 20
4.705346932621012
 30
0.0
 10
29.77828213464001
 20
4.774881374758081
 30
0.0
 10
30.66058279203078
 20
4.7517899831862
 30
0.0
 10
31.55673903016492
 20
4.634529826988029
 30
0.0
 10
32.44766489828106
 20
4.423023482734976
 30
0.0
 10
33.33628517866073
 20
4.127609904992738
 30
0.0
 10
34.21940937687395
 20
3.750296364683663
 30
0.0
 10
35.11661404196596
 20
3.296441962747053
 30
0.0
 10
36.00909811801155
 20
2.774096500728774
 30
0.0
 10
36.89803391415398
 20
2.203029742260924
 30
0.0
 10
37.77386593342922
 20
1.594831776905949
 30
0.0
 10
38.65163327772437
 20
0.9565904168211148
 30
0.0
 10
39.53430750734907
 20
0.2958183136220782
 30
0.0
 10
40.42684209356635
 20
-0.3796464154490593
 30
0.0
 10
41.32022648729371
 20
-1.044858997205296
 30
0.0
 10
42.20617460935304
 20
-1.688560686945891
 30
0.0
 10
43.08444449997016
 20
-2.288463492335325
 30
0.0
 10
43.95995575338958
 20
-2.848525279372637
 30
0.0
 10
44.84390055443146
 20
-3.35298763909131
 30
0.0
 10
45.73463777863464
 20
-3.800705106035537
 30
0.0
 10
46.6282090202666
 20
-4.16852663491602
 30
0.0
 10
47.51313198850778
 20
-4.455394302604958
 30
0.0
 10
48.40027626414229
 20
-4.649733379356803
 30
0.0
 10
49.17964073996384
 20
-4.754430482420616
 30
0.0
 10
49.66648783918228
 20
-4.751891362031472
 30
0.0
 10
49.85303992697669
 20
-4.750918411364808
 30
0.0
  0
ARC
  5
B38
330
1F
100
AcDbEntity
  8
외형선
  6
Continuous
 62
     1
370
    15
100
AcDbCircle
 10
68.47615327286454
 20
-0.4240905542003759
 30
0.0
 40
1.708498193245929
100
AcDbArc
 50
20.27345098267845
 51
47.88616020283391
  0
ARC
  5
B39
330
1F
100
AcDbEntity
  8
외형선
  6
Continuous
 62
     1
370
    15
100
AcDbCircle
 10
65.57313052527081
 20
0.008183472576178
 30
0.0
 40
4.508508901563418
100
AcDbArc
 50
2.030234870679138
 51
27.33944908744114
  0
LINE
  5
B3A
330
1F
100
AcDbEntity
  8
외형선
  6
Continuous
370
    15
100
AcDbLine
 10
19.304
 20
0.5755082607761324
 30
0.0
 11
19.304
 21
4.087448749871641
 31
0.0
  0
LINE
  5
B3B
330
1F
100
AcDbEntity
  8
중심선
 62
     1
100
AcDbLine
 10
-53.54600000000003
 20
0.0
 30
0.0
 11
73.07587520159524
 21
0.0
 31
0.0
  0
CIRCLE
  5
B3C
330
1F
100
AcDbEntity
  8
해칭선
100
AcDbCircle
 10
-0.0000000000000142
 20
-0.0010749287238809
 30
0.0
 40
2.999999999999987
  0
INSERT
  5
B3D
330
1F
100
AcDbEntity
  8
0
  6
Continuous
 62
     7
100
AcDbBlockReference
 66
     1
  2
블럭10
 10
-3.237867186179962
 20
-54.32328529204153
 30
0.0
  0
ATTRIB
  5
B3E
330
B3D
100
AcDbEntity
  8
FORMAT
 62
     2
100
AcDbText
 10
-11.6273725110798
 20
-52.24791837920936
 30
0.0
 40
4.233333333333333
  1
EI971024 [ 2 FLUTE ]
 41
0.75
  7
SLDTEXTSTYLE0
 11
-11.6273725110798
 21
-54.36458504587603
 31
0.0
100
AcDbAttribute
  2
AUTOATTR0
 70
     0
 74
     1
  0
SEQEND
  5
B3F
330
B3D
100
AcDbEntity
  8
0
  6
Continuous
 62
     7
  0
HATCH
  5
B40
330
1F
100
AcDbEntity
  8
중심선
100
AcDbHatch
 10
0.0
 20
0.0
 30
0.0
210
0.0
220
0.0
230
1.0
  2
SOLID
 70
     1
 71
     0
 91
        1
 92
        0
 93
        4
 72
     1
 10
2.477042118200892
 20
-38.07611099039761
 11
-0.9692331256363858
 21
-38.07611099039761
 72
     1
 10
-0.9692331256363858
 20
-38.07611099039761
 11
-3.097462984840412
 21
-40.61243657097021
 72
     1
 10
-3.097462984840412
 20
-40.6124365709702
 11
0.3488453441100177
 21
-40.61239714166771
 72
     1
 10
0.3488453441100177
 20
-40.61239714166771
 11
2.477042118200892
 21
-38.0761109903976
 97
        0
 75
     0
 76
     1
 98
        1
 10
36.8775670357434
 20
-2.312441735209688
  0
HATCH
  5
B41
330
1F
100
AcDbEntity
  8
중심선
100
AcDbHatch
 10
0.0
 20
0.0
 30
0.0
210
0.0
220
0.0
230
1.0
  2
SOLID
 70
     1
 71
     0
 91
        1
 92
        0
 93
        4
 72
     1
 10
7.489806109236845
 20
-38.07611099039761
 11
4.043530865399561
 21
-38.07611099039761
 72
     1
 10
4.043530865399561
 20
-38.07611099039761
 11
-0.4876071429578275
 21
-43.47611099039763
 72
     1
 10
-0.4876071429578275
 20
-43.47611099039763
 11
2.958668100879457
 21
-43.47611099039763
 72
     1
 10
2.958668100879457
 20
-43.47611099039763
 11
7.489806109236845
 21
-38.07611099039761
 97
        0
 75
     0
 76
     1
 98
        1
 10
36.8775670357434
 20
-2.312441735209688
  0
HATCH
  5
B42
330
1F
100
AcDbEntity
  8
중심선
100
AcDbHatch
 10
0.0
 20
0.0
 30
0.0
210
0.0
220
0.0
230
1.0
  2
SOLID
 70
     1
 71
     0
 91
        1
 92
        0
 93
        4
 72
     1
 10
12.50257010027277
 20
-38.07611099039761
 11
9.056294856435656
 21
-38.07611099039761
 72
     1
 10
9.056294856435656
 20
-38.07611099039761
 11
2.007857954546377
 21
-46.47611099039763
 72
     1
 10
2.007857954546374
 20
-46.47611099039763
 11
5.454133198383659
 21
-46.47611099039763
 72
     1
 10
5.454133198383659
 20
-46.47611099039763
 11
12.50257010027277
 21
-38.07611099039761
 97
        0
 75
     0
 76
     1
 98
        1
 10
36.8775670357434
 20
-2.312441735209688
  0
HATCH
  5
B43
330
1F
100
AcDbEntity
  8
중심선
100
AcDbHatch
 10
0.0
 20
0.0
 30
0.0
210
0.0
220
0.0
230
1.0
  2
SOLID
 70
     1
 71
     0
 91
        1
 92
        0
 93
        6
 72
     3
 10
17.30246053128494
 20
-42.27611099044888
 11
3.960054785062283
 21
1.540882976769353E-10
 40
0.3939339440162628
 50
17.09539180608453
 51
320.0019657685078
 73
     0
 72
     1
 10
18.98546018698551
 20
-40.86400499503591
 11
21.29076206068657
 21
-38.92967828498796
 72
     3
 10
17.30246053123209
 20
-42.27611099039777
 11
6.600054785286829
 21
-1.136868377216160E-13
 40
0.636358354079598
 50
39.99873849337404
 51
368.4976242363723
 73
     1
 72
     1
 10
23.7277930231327
 20
-41.31611099032764
 11
15.98252783806802
 21
-41.31611099032764
 72
     1
 10
15.98252783806802
 20
-41.31611099032764
 11
15.98250279362208
 21
-43.23611099032753
 72
     1
 10
15.98250279362208
 20
-43.23611099032752
 11
20.42388256309412
 21
-43.2361109903275
 97
        0
 75
     0
 76
     1
 98
        1
 10
36.8775670357434
 20
-2.312441735209688
  0
DIMENSION
  5
B45
330
1F
100
AcDbEntity
  8
치수문자_일반주서
100
AcDbDimension
  2
*D69
 10
-63.54600000000003
 20
-4.76250000000004
 30
0.0
 11
-63.54600000000005
 21
0.0000000000000284
 31
0.0
 70
   160
  1
%%c<>
 71
     2
 42
9.525000000000006
 52
-270.0
  3
SLDDIMSTYLE1
100
AcDbAlignedDimension
 13
-49.736
 23
4.762500000000017
 33
0.0
 14
-49.736
 24
-4.762499999999989
 34
0.0
 50
90.0000000000002
100
AcDbRotatedDimension
1001
PE_URL
1000

1001
ACAD
1000
DSTYLE
1002
{
1070
   171
1070
     5
1070
   273
1070
     7
1002
}
  0
DIMENSION
  5
B46
330
1F
100
AcDbEntity
  8
치수문자_일반주서
100
AcDbDimension
  2
*D70
 10
19.304
 20
24.13265000803153
 30
0.0
 11
48.35535235788397
 21
24.13265000803153
 31
0.0
 70
   160
  1
<>
 71
     2
 42
50.8
  3
SLDDIMSTYLE1
100
AcDbAlignedDimension
 13
70.104
 23
4.762500000000017
 33
0.0
 14
19.304
 24
4.087448749871641
 34
0.0
 50
-0.0000000000000641
100
AcDbRotatedDimension
1001
PE_URL
1000

1001
ACAD
1000
DSTYLE
1002
{
1070
   171
1070
     5
1070
   273
1070
     7
1002
}
  0
DIMENSION
  5
B47
330
1F
100
AcDbEntity
  8
치수문자_일반주서
100
AcDbDimension
  2
*D71
 10
-50.54600000000001
 20
42.13265000803185
 30
0.0
 11
8.503896909589358
 21
42.13265000803185
 31
0.0
 70
   160
  1
<>
 71
     2
 42
120.65
  3
SLDDIMSTYLE1
100
AcDbAlignedDimension
 13
70.104
 23
4.762500000000017
 33
0.0
 14
-50.54600000000001
 24
3.952500000000015
 34
0.0
 50
0.0000000000000068
100
AcDbRotatedDimension
1001
PE_URL
1000

1001
ACAD
1000
DSTYLE
1002
{
1070
   171
1070
     5
1070
   273
1070
     7
1002
}
  0
INSERT
  5
B49
330
1F
100
AcDbEntity
  8
해칭선
100
AcDbBlockReference
  2
SW_DOWELSYMBOL_0
 10
-0.0000000000000142
 20
-0.0010749287238809
 30
0.0
  0
DIMENSION
  5
B8A
330
1F
100
AcDbEntity
  8
치수문자_일반주서
100
AcDbDimension
  2
*D73
 10
70.104
 20
33.25652674425726
 30
0.0
 11
35.179
 21
35.88152674425726
 31
0.0
 70
    32
 71
     5
 42
69.85
  3
SLDDIMSTYLE1
100
AcDbAlignedDimension
 13
0.2540000000000049
 23
4.508500000000026
 33
0.0
 14
70.104
 24
4.762500000000017
 34
0.0
100
AcDbRotatedDimension
1001
ACAD
1000
DSTYLE
1002
{
1070
   171
1070
     5
1070
   273
1070
     7
1002
}
1001
PE_URL
1000

  0
DIMENSION
  5
B9A
330
1F
100
AcDbEntity
  8
치수문자_일반주서
100
AcDbDimension
  2
*D74
 10
79.57961581602008
 20
-4.762500000000017
 30
0.0
 11
79.57961581602008
 21
24.49150000000003
 31
0.0
 70
   160
  1
{%%c<>[]}
 71
     5
 42
9.525000000000034
  3
SLDDIMSTYLE1
100
AcDbAlignedDimension
 13
70.104
 23
4.762500000000017
 33
0.0
 14
70.104
 24
-4.762500000000017
 34
0.0
 50
90.0
100
AcDbRotatedDimension
1001
ACAD
1000
DSTYLE
1002
{
1070
   283
1070
     1
1070
   170
1070
     1
1070
   171
1070
     5
1070
   273
1070
     7
1002
}
1001
PE_URL
1000

  0
ARC
  5
BB1
330
1F
100
AcDbEntity
  8
외형선
  6
Continuous
 62
     1
370
    15
100
AcDbCircle
 10
65.34016232009233
 20
0.0
 30
0.0
 40
4.762499999999999
100
AcDbArc
 50
270.0000000000002
 51
89.99999999999982
1001
PE_URL
1000

  0
SPLINE
  5
BB6
330
1F
100
AcDbEntity
  8
외형선
  6
Continuous
 62
     1
370
    15
100
AcDbSpline
210
0.0
220
0.0
230
1.0
 70
     8
 71
     3
 72
    10
 73
     6
 74
     0
 42
0.000000001
 43
0.0000000001
 40
0.0
 40
0.0
 40
0.0
 40
0.0
 40
1.557426873737118
 40
3.652982548250782
 40
4.576993521815601
 40
4.576993521815601
 40
4.576993521815601
 40
4.576993521815601
 10
65.34016232009235
 20
4.762500000000017
 30
0.0
 10
64.71961348821043
 20
4.696426225083627
 30
0.0
 10
63.60140862910431
 20
4.371130266070963
 30
0.0
 10
62.21472308181509
 20
3.781202233015335
 30
0.0
 10
61.3644535676971
 20
3.242689160078214
 30
0.0
 10
61.1080478306142
 20
3.070617239939224
 30
0.0
1001
PE_URL
1000

  0
SPLINE
  5
BB7
330
1F
100
AcDbEntity
  8
외형선
  6
Continuous
 62
     1
370
    15
100
AcDbSpline
210
0.0
220
0.0
230
1.0
 70
  1064
 71
     3
 72
    12
 73
     8
 74
     6
 42
0.000000001
 43
0.0000000001
 44
0.0
 40
0.0
 40
0.0
 40
0.0
 40
0.0
 40
1.749725295153303
 40
6.195091886687844
 40
10.25944704790327
 40
13.49792064483444
 40
15.87966126535087
 40
15.87966126535087
 40
15.87966126535087
 40
15.87966126535087
 10
65.34016232009233
 20
-4.762499999999989
 30
0.0
 10
64.81519950469216
 20
-4.507674846550502
 30
0.0
 10
62.95651180811097
 20
-3.605438795536227
 30
0.0
 10
60.16269168622591
 20
-1.579956554702989
 30
0.0
 10
57.40187930202255
 20
1.212634140701797
 30
0.0
 10
54.69813428332522
 20
3.001176255378606
 30
0.0
 10
53.09416079653504
 20
3.96706943752745
 30
0.0
 10
52.41442713160466
 20
4.376396722573276
 30
0.0
 11
65.34016232009233
 21
-4.762499999999989
 31
0.0
 11
63.7789673303647
 21
-3.972431134299882
 31
0.0
 11
60.14559571785727
 21
-1.411201964827427
 31
0.0
 11
57.10785879592483
 21
1.289008632445842
 31
0.0
 11
54.44735717802322
 21
3.135476173228312
 31
0.0
 11
52.41442713160466
 21
4.376396722573276
 31
0.0
1001
PE_URL
1000

  0
SPLINE
  5
BB8
330
1F
100
AcDbEntity
  8
외형선
  6
Continuous
 62
     1
370
    15
100
AcDbSpline
210
0.0
220
0.0
230
1.0
 70
  1064
 71
     3
 72
    10
 73
     6
 74
     4
 42
0.000000001
 43
0.0000000001
 44
0.0
 40
0.0
 40
0.0
 40
0.0
 40
0.0
 40
0.7037329473915234
 40
2.711780816432583
 40
4.241897951963351
 40
4.241897951963351
 40
4.241897951963351
 40
4.241897951963351
 10
67.33728830452426
 20
1.594593786064223
 30
0.0
 10
67.45105888410971
 20
1.804668422252937
 30
0.0
 10
67.88946506693495
 20
2.614174884252746
 30
0.0
 10
67.12758213582327
 20
4.248513398072749
 30
0.0
 10
65.98770182313785
 20
4.605575271496428
 30
0.0
 10
65.49474844288552
 20
4.759990481150112
 30
0.0
 11
67.33728830452426
 21
1.594593786064223
 31
0.0
 11
67.61627433368017
 21
2.240664104822315
 31
0.0
 11
66.87927567654205
 21
4.1085744944655
 31
0.0
 11
65.49474844288552
 21
4.759990481150112
 31
0.0
1001
PE_URL
1000

  0
ENDSEC
  0
SECTION
  2
OBJECTS
  0
DICTIONARY
  5
C
330
0
100
AcDbDictionary
281
     1
  3
ACAD_DETAILVIEWSTYLE
350
2E5
  3
ACAD_GROUP
350
D
  3
ACAD_IMAGE_VARS
350
BDD
  3
ACAD_LAYOUT
350
1A
  3
ACAD_MLINESTYLE
350
17
  3
ACAD_PLOTSETTINGS
350
19
  3
ACAD_PLOTSTYLENAME
350
E
  3
ACAD_SCALELIST
350
47
  3
ACAD_SECTIONVIEWSTYLE
350
2E6
  3
AcDbVariableDictionary
350
2E0
  3
APPDATA
350
158
  3
DWGPROPS
350
BDE
  0
DICTIONARY
  5
2E5
102
{ACAD_REACTORS
330
C
102
}
330
C
100
AcDbDictionary
281
     1
  0
DICTIONARY
  5
D
102
{ACAD_REACTORS
330
C
102
}
330
C
100
AcDbDictionary
281
     1
  0
RASTERVARIABLES
  5
BDD
102
{ACAD_REACTORS
330
C
102
}
330
C
100
AcDbRasterVariables
 90
        0
 70
     1
 71
     1
 72
     1
  0
DICTIONARY
  5
1A
102
{ACAD_REACTORS
330
C
102
}
330
C
100
AcDbDictionary
281
     1
  3
Layout1
350
1E
  3
Layout2
350
26
  3
Model
350
22
  0
DICTIONARY
  5
17
102
{ACAD_REACTORS
330
C
102
}
330
C
100
AcDbDictionary
281
     1
  3
Standard
350
18
  0
DICTIONARY
  5
19
102
{ACAD_REACTORS
330
C
102
}
330
C
100
AcDbDictionary
281
     1
  0
ACDBDICTIONARYWDFLT
  5
E
102
{ACAD_REACTORS
330
C
102
}
330
C
100
AcDbDictionary
281
     1
  3
Normal
350
F
100
AcDbDictionaryWithDefault
340
F
  0
DICTIONARY
  5
47
102
{ACAD_REACTORS
330
C
102
}
330
C
100
AcDbDictionary
281
     1
  3
A0
350
48
  3
A1
350
49
  3
A2
350
4A
  3
A3
350
4B
  3
A4
350
4C
  3
A5
350
4D
  3
A6
350
4E
  3
A7
350
4F
  3
A8
350
50
  3
A9
350
51
  3
B0
350
52
  3
B1
350
53
  3
B2
350
54
  3
B3
350
55
  3
B4
350
56
  3
B5
350
57
  3
B6
350
58
  3
B7
350
59
  3
B8
350
5A
  3
B9
350
5B
  3
C0
350
5C
  3
C1
350
5D
  3
C2
350
5E
  3
C3
350
5F
  3
C4
350
60
  3
C5
350
61
  3
C6
350
62
  3
C7
350
63
  3
C8
350
64
  3
C9
350
65
  3
D0
350
66
  3
D1
350
67
  3
D2
350
68
  0
DICTIONARY
  5
2E6
102
{ACAD_REACTORS
330
C
102
}
330
C
100
AcDbDictionary
281
     1
  0
DICTIONARY
  5
2E0
102
{ACAD_REACTORS
330
C
102
}
330
C
100
AcDbDictionary
281
     1
  0
DICTIONARY
  5
158
102
{ACAD_REACTORS
330
C
102
}
330
C
100
AcDbDictionary
281
     1
  0
XRECORD
  5
BDE
102
{ACAD_REACTORS
330
C
102
}
330
C
100
AcDbXrecord
280
     1
  1
DWGPROPS COOKIE
  2

  3

  4

  6

  7

  8
12016016
  9

300
=
301
=
302
=
303
=
304
=
305
=
306
=
307
=
308
=
309
=
 40
0.0
 41
2458270.259505486
 42
2458275.065624132
  1

 90
        0
  0
LAYOUT
  5
1E
102
{ACAD_REACTORS
330
1A
102
}
330
1A
100
AcDbPlotSettings
  1

  2
none_device
  4

  6

 40
0.0
 41
0.0
 42
0.0
 43
0.0
 44
0.0
 45
0.0
 46
0.0
 47
0.0
 48
0.0
 49
0.0
140
0.0
141
0.0
142
1.0
143
1.0
 70
   688
 72
     1
 73
     0
 74
     5
  7

 75
    16
147
1.0
148
0.0
149
0.0
100
AcDbLayout
  1
Layout1
 70
     1
 71
     1
 10
0.0
 20
0.0
 11
420.0
 21
297.0
 12
0.0
 22
0.0
 32
0.0
 14
1.000000000000000E+20
 24
1.000000000000000E+20
 34
1.000000000000000E+20
 15
-1.000000000000000E+20
 25
-1.000000000000000E+20
 35
-1.000000000000000E+20
146
0.0
 13
0.0
 23
0.0
 33
0.0
 16
1.0
 26
0.0
 36
0.0
 17
0.0
 27
1.0
 37
0.0
 76
     0
330
1B
  0
LAYOUT
  5
26
102
{ACAD_REACTORS
330
1A
102
}
330
1A
100
AcDbPlotSettings
  1

  2
none_device
  4

  6

 40
0.0
 41
0.0
 42
0.0
 43
0.0
 44
0.0
 45
0.0
 46
0.0
 47
0.0
 48
0.0
 49
0.0
140
0.0
141
0.0
142
1.0
143
1.0
 70
   688
 72
     1
 73
     0
 74
     5
  7

 75
    16
147
1.0
148
0.0
149
0.0
100
AcDbLayout
  1
Layout2
 70
     1
 71
     2
 10
0.0
 20
0.0
 11
0.0
 21
0.0
 12
0.0
 22
0.0
 32
0.0
 14
0.0
 24
0.0
 34
0.0
 15
0.0
 25
0.0
 35
0.0
146
0.0
 13
0.0
 23
0.0
 33
0.0
 16
1.0
 26
0.0
 36
0.0
 17
0.0
 27
1.0
 37
0.0
 76
     0
330
23
  0
LAYOUT
  5
22
102
{ACAD_REACTORS
330
1A
102
}
330
1A
100
AcDbPlotSettings
  1

  2
none_device
  4
ANSI_A_(11.00_x_8.50_Inches)
  6

 40
6.35
 41
19.05
 42
6.35000508
 43
19.05000254
 44
279.4
 45
215.9
 46
86.17177212924734
 47
101.2914543987717
 48
0.0
 49
0.0
140
0.0
141
0.0
142
0.0736400973839136
143
1.0
 70
  1696
 72
     0
 73
     0
 74
     0
  7

 75
     0
147
0.0235690232323232
148
0.0
149
0.0
100
AcDbLayout
  1
Model
 70
     1
 71
     0
 10
0.0
 20
0.0
 11
420.0
 21
297.0
 12
0.0
 22
0.0
 32
0.0
 14
-67.92100000000009
 24
-52.24791837920936
 34
0.0
 15
99.16350881534561
 25
46.50765000803185
 35
0.0
146
0.0
 13
0.0
 23
0.0
 33
0.0
 16
1.0
 26
0.0
 36
0.0
 17
0.0
 27
1.0
 37
0.0
 76
     0
330
1F
331
29
  0
MLINESTYLE
  5
18
102
{ACAD_REACTORS
330
17
102
}
330
17
100
AcDbMlineStyle
  2
Standard
 70
     0
  3

 62
   256
 51
90.0
 52
90.0
 71
     2
 49
0.5
 62
   256
  6
BYLAYER
 49
-0.5
 62
   256
  6
BYLAYER
  0
ACDBPLACEHOLDER
  5
F
102
{ACAD_REACTORS
330
E
102
}
330
E
  0
SCALE
  5
48
102
{ACAD_REACTORS
330
47
102
}
330
47
100
AcDbScale
 70
     0
300
1:1
140
1.0
141
1.0
290
     1
  0
SCALE
  5
49
102
{ACAD_REACTORS
330
47
102
}
330
47
100
AcDbScale
 70
     0
300
1:2
140
1.0
141
2.0
290
     0
  0
SCALE
  5
4A
102
{ACAD_REACTORS
330
47
102
}
330
47
100
AcDbScale
 70
     0
300
1:4
140
1.0
141
4.0
290
     0
  0
SCALE
  5
4B
102
{ACAD_REACTORS
330
47
102
}
330
47
100
AcDbScale
 70
     0
300
1:5
140
1.0
141
5.0
290
     0
  0
SCALE
  5
4C
102
{ACAD_REACTORS
330
47
102
}
330
47
100
AcDbScale
 70
     0
300
1:8
140
1.0
141
8.0
290
     0
  0
SCALE
  5
4D
102
{ACAD_REACTORS
330
47
102
}
330
47
100
AcDbScale
 70
     0
300
1:10
140
1.0
141
10.0
290
     0
  0
SCALE
  5
4E
102
{ACAD_REACTORS
330
47
102
}
330
47
100
AcDbScale
 70
     0
300
1:16
140
1.0
141
16.0
290
     0
  0
SCALE
  5
4F
102
{ACAD_REACTORS
330
47
102
}
330
47
100
AcDbScale
 70
     0
300
1:20
140
1.0
141
20.0
290
     0
  0
SCALE
  5
50
102
{ACAD_REACTORS
330
47
102
}
330
47
100
AcDbScale
 70
     0
300
1:30
140
1.0
141
30.0
290
     0
  0
SCALE
  5
51
102
{ACAD_REACTORS
330
47
102
}
330
47
100
AcDbScale
 70
     0
300
1:40
140
1.0
141
40.0
290
     0
  0
SCALE
  5
52
102
{ACAD_REACTORS
330
47
102
}
330
47
100
AcDbScale
 70
     0
300
1:50
140
1.0
141
50.0
290
     0
  0
SCALE
  5
53
102
{ACAD_REACTORS
330
47
102
}
330
47
100
AcDbScale
 70
     0
300
1:100
140
1.0
141
100.0
290
     0
  0
SCALE
  5
54
102
{ACAD_REACTORS
330
47
102
}
330
47
100
AcDbScale
 70
     0
300
2:1
140
2.0
141
1.0
290
     0
  0
SCALE
  5
55
102
{ACAD_REACTORS
330
47
102
}
330
47
100
AcDbScale
 70
     0
300
4:1
140
4.0
141
1.0
290
     0
  0
SCALE
  5
56
102
{ACAD_REACTORS
330
47
102
}
330
47
100
AcDbScale
 70
     0
300
8:1
140
8.0
141
1.0
290
     0
  0
SCALE
  5
57
102
{ACAD_REACTORS
330
47
102
}
330
47
100
AcDbScale
 70
     0
300
10:1
140
10.0
141
1.0
290
     0
  0
SCALE
  5
58
102
{ACAD_REACTORS
330
47
102
}
330
47
100
AcDbScale
 70
     0
300
100:1
140
100.0
141
1.0
290
     0
  0
SCALE
  5
59
102
{ACAD_REACTORS
330
47
102
}
330
47
100
AcDbScale
 70
     0
300
1/128" = 1'-0"
140
0.0078125
141
12.0
290
     0
  0
SCALE
  5
5A
102
{ACAD_REACTORS
330
47
102
}
330
47
100
AcDbScale
 70
     0
300
1/64" = 1'-0"
140
0.015625
141
12.0
290
     0
  0
SCALE
  5
5B
102
{ACAD_REACTORS
330
47
102
}
330
47
100
AcDbScale
 70
     0
300
1/32" = 1'-0"
140
0.03125
141
12.0
290
     0
  0
SCALE
  5
5C
102
{ACAD_REACTORS
330
47
102
}
330
47
100
AcDbScale
 70
     0
300
1/16" = 1'-0"
140
0.0625
141
12.0
290
     0
  0
SCALE
  5
5D
102
{ACAD_REACTORS
330
47
102
}
330
47
100
AcDbScale
 70
     0
300
3/32" = 1'-0"
140
0.09375
141
12.0
290
     0
  0
SCALE
  5
5E
102
{ACAD_REACTORS
330
47
102
}
330
47
100
AcDbScale
 70
     0
300
1/8" = 1'-0"
140
0.125
141
12.0
290
     0
  0
SCALE
  5
5F
102
{ACAD_REACTORS
330
47
102
}
330
47
100
AcDbScale
 70
     0
300
3/16" = 1'-0"
140
0.1875
141
12.0
290
     0
  0
SCALE
  5
60
102
{ACAD_REACTORS
330
47
102
}
330
47
100
AcDbScale
 70
     0
300
1/4" = 1'-0"
140
0.25
141
12.0
290
     0
  0
SCALE
  5
61
102
{ACAD_REACTORS
330
47
102
}
330
47
100
AcDbScale
 70
     0
300
3/8" = 1'-0"
140
0.375
141
12.0
290
     0
  0
SCALE
  5
62
102
{ACAD_REACTORS
330
47
102
}
330
47
100
AcDbScale
 70
     0
300
1/2" = 1'-0"
140
0.5
141
12.0
290
     0
  0
SCALE
  5
63
102
{ACAD_REACTORS
330
47
102
}
330
47
100
AcDbScale
 70
     0
300
3/4" = 1'-0"
140
0.75
141
12.0
290
     0
  0
SCALE
  5
64
102
{ACAD_REACTORS
330
47
102
}
330
47
100
AcDbScale
 70
     0
300
1" = 1'-0"
140
1.0
141
12.0
290
     0
  0
SCALE
  5
65
102
{ACAD_REACTORS
330
47
102
}
330
47
100
AcDbScale
 70
     0
300
1-1/2" = 1'-0"
140
1.5
141
12.0
290
     0
  0
SCALE
  5
66
102
{ACAD_REACTORS
330
47
102
}
330
47
100
AcDbScale
 70
     0
300
3" = 1'-0"
140
3.0
141
12.0
290
     0
  0
SCALE
  5
67
102
{ACAD_REACTORS
330
47
102
}
330
47
100
AcDbScale
 70
     0
300
6" = 1'-0"
140
6.0
141
12.0
290
     0
  0
SCALE
  5
68
102
{ACAD_REACTORS
330
47
102
}
330
47
100
AcDbScale
 70
     0
300
1'-0" = 1'-0"
140
12.0
141
12.0
290
     0
  0
ENDSEC
  0
EOF
