  0
SECTION
  2
HEADER
  9
$ACADVER
  1
AC1015
  9
$ACADMAINTVER
 70
     6
  9
$DWGCODEPAGE
  3
ANSI_949
  9
$INSBASE
 10
0.0
 20
0.0
 30
0.0
  9
$EXTMIN
 10
-52.58402804451197
 20
-49.97073246008785
 30
0.0
  9
$EXTMAX
 10
90.4696414795995
 20
46.26930621787319
 30
0.0
  9
$LIMMIN
 10
0.0
 20
0.0
  9
$LIMMAX
 10
420.0
 20
297.0
  9
$ORTHOMODE
 70
     1
  9
$REGENMODE
 70
     1
  9
$FILLMODE
 70
     1
  9
$QTEXTMODE
 70
     0
  9
$MIRRTEXT
 70
     1
  9
$LTSCALE
 40
1.0
  9
$ATTMODE
 70
     1
  9
$TEXTSIZE
 40
3.5
  9
$TRACEWID
 40
1.0
  9
$TEXTSTYLE
  7
Standard
  9
$CLAYER
  8
0
  9
$CELTYPE
  6
ByLayer
  9
$CECOLOR
 62
   256
  9
$CELTSCALE
 40
1.0
  9
$DISPSILH
 70
     0
  9
$DIMSCALE
 40
1.0
  9
$DIMASZ
 40
3.302
  9
$DIMEXO
 40
1.0
  9
$DIMDLI
 40
3.75
  9
$DIMRND
 40
0.0
  9
$DIMDLE
 40
0.0
  9
$DIMEXE
 40
1.0
  9
$DIMTP
 40
0.0
  9
$DIMTM
 40
0.0
  9
$DIMTXT
 40
3.5
  9
$DIMCEN
 40
2.5
  9
$DIMTSZ
 40
0.0
  9
$DIMTOL
 70
     0
  9
$DIMLIM
 70
     0
  9
$DIMTIH
 70
     1
  9
$DIMTOH
 70
     1
  9
$DIMSE1
 70
     0
  9
$DIMSE2
 70
     0
  9
$DIMTAD
 70
     1
  9
$DIMZIN
 70
     0
  9
$DIMBLK
  1

  9
$DIMASO
 70
     1
  9
$DIMSHO
 70
     1
  9
$DIMPOST
  1

  9
$DIMAPOST
  1

  9
$DIMALT
 70
     0
  9
$DIMALTD
 70
     3
  9
$DIMALTF
 40
0.0393700787401575
  9
$DIMLFAC
 40
1.0
  9
$DIMTOFL
 70
     1
  9
$DIMTVP
 40
0.0
  9
$DIMTIX
 70
     0
  9
$DIMSOXD
 70
     0
  9
$DIMSAH
 70
     0
  9
$DIMBLK1
  1

  9
$DIMBLK2
  1

  9
$DIMSTYLE
  2
ISO-25
  9
$DIMCLRD
 70
     0
  9
$DIMCLRE
 70
     0
  9
$DIMCLRT
 70
     0
  9
$DIMTFAC
 40
1.0
  9
$DIMGAP
 40
1.524
  9
$DIMJUST
 70
     0
  9
$DIMSD1
 70
     0
  9
$DIMSD2
 70
     0
  9
$DIMTOLJ
 70
     0
  9
$DIMTZIN
 70
     0
  9
$DIMALTZ
 70
     0
  9
$DIMALTTZ
 70
     0
  9
$DIMUPT
 70
     0
  9
$DIMDEC
 70
     2
  9
$DIMTDEC
 70
     2
  9
$DIMALTU
 70
     2
  9
$DIMALTTD
 70
     3
  9
$DIMTXSTY
  7
Standard
  9
$DIMAUNIT
 70
     0
  9
$DIMADEC
 70
     2
  9
$DIMALTRND
 40
0.0
  9
$DIMAZIN
 70
     0
  9
$DIMDSEP
 70
    44
  9
$DIMATFIT
 70
     3
  9
$DIMFRAC
 70
     0
  9
$DIMLDRBLK
  1

  9
$DIMLUNIT
 70
     2
  9
$DIMLWD
 70
    -2
  9
$DIMLWE
 70
    -2
  9
$DIMTMOVE
 70
     0
  9
$LUNITS
 70
     2
  9
$LUPREC
 70
     2
  9
$SKETCHINC
 40
1.0
  9
$FILLETRAD
 40
10.0
  9
$AUNITS
 70
     0
  9
$AUPREC
 70
     2
  9
$MENU
  1
.
  9
$ELEVATION
 40
0.0
  9
$PELEVATION
 40
0.0
  9
$THICKNESS
 40
0.0
  9
$LIMCHECK
 70
     0
  9
$CHAMFERA
 40
0.0
  9
$CHAMFERB
 40
0.0
  9
$CHAMFERC
 40
0.0
  9
$CHAMFERD
 40
0.0
  9
$SKPOLY
 70
     0
  9
$TDCREATE
 40
2458270.696763044
  9
$TDUCREATE
 40
2458270.321763044
  9
$TDUPDATE
 40
2458274.641233403
  9
$TDUUPDATE
 40
2458274.266233403
  9
$TDINDWG
 40
0.0014468287
  9
$TDUSRTIMER
 40
2458274.26478669
  9
$USRTIMER
 70
     1
  9
$ANGBASE
 50
0.0
  9
$ANGDIR
 70
     0
  9
$PDMODE
 70
     0
  9
$PDSIZE
 40
-1.0
  9
$PLINEWID
 40
0.0
  9
$SPLFRAME
 70
     0
  9
$SPLINETYPE
 70
     6
  9
$SPLINESEGS
 70
     8
  9
$HANDSEED
  5
150
  9
$SURFTAB1
 70
     6
  9
$SURFTAB2
 70
     6
  9
$SURFTYPE
 70
     6
  9
$SURFU
 70
     6
  9
$SURFV
 70
     6
  9
$UCSBASE
  2

  9
$UCSNAME
  2

  9
$UCSORG
 10
0.0
 20
0.0
 30
0.0
  9
$UCSXDIR
 10
1.0
 20
0.0
 30
0.0
  9
$UCSYDIR
 10
0.0
 20
1.0
 30
0.0
  9
$UCSORTHOREF
  2

  9
$UCSORTHOVIEW
 70
     0
  9
$UCSORGTOP
 10
0.0
 20
0.0
 30
0.0
  9
$UCSORGBOTTOM
 10
0.0
 20
0.0
 30
0.0
  9
$UCSORGLEFT
 10
0.0
 20
0.0
 30
0.0
  9
$UCSORGRIGHT
 10
0.0
 20
0.0
 30
0.0
  9
$UCSORGFRONT
 10
0.0
 20
0.0
 30
0.0
  9
$UCSORGBACK
 10
0.0
 20
0.0
 30
0.0
  9
$PUCSBASE
  2

  9
$PUCSNAME
  2

  9
$PUCSORG
 10
0.0
 20
0.0
 30
0.0
  9
$PUCSXDIR
 10
1.0
 20
0.0
 30
0.0
  9
$PUCSYDIR
 10
0.0
 20
1.0
 30
0.0
  9
$PUCSORTHOREF
  2

  9
$PUCSORTHOVIEW
 70
     0
  9
$PUCSORGTOP
 10
0.0
 20
0.0
 30
0.0
  9
$PUCSORGBOTTOM
 10
0.0
 20
0.0
 30
0.0
  9
$PUCSORGLEFT
 10
0.0
 20
0.0
 30
0.0
  9
$PUCSORGRIGHT
 10
0.0
 20
0.0
 30
0.0
  9
$PUCSORGFRONT
 10
0.0
 20
0.0
 30
0.0
  9
$PUCSORGBACK
 10
0.0
 20
0.0
 30
0.0
  9
$USERI1
 70
     0
  9
$USERI2
 70
     0
  9
$USERI3
 70
     0
  9
$USERI4
 70
     0
  9
$USERI5
 70
     0
  9
$USERR1
 40
0.0
  9
$USERR2
 40
0.0
  9
$USERR3
 40
0.0
  9
$USERR4
 40
0.0
  9
$USERR5
 40
0.0
  9
$WORLDVIEW
 70
     1
  9
$SHADEDGE
 70
     3
  9
$SHADEDIF
 70
    70
  9
$TILEMODE
 70
     1
  9
$MAXACTVP
 70
    64
  9
$PINSBASE
 10
0.0
 20
0.0
 30
0.0
  9
$PLIMCHECK
 70
     0
  9
$PEXTMIN
 10
1.000000000000000E+20
 20
1.000000000000000E+20
 30
1.000000000000000E+20
  9
$PEXTMAX
 10
-1.000000000000000E+20
 20
-1.000000000000000E+20
 30
-1.000000000000000E+20
  9
$PLIMMIN
 10
0.0
 20
0.0
  9
$PLIMMAX
 10
0.0
 20
0.0
  9
$UNITMODE
 70
     0
  9
$VISRETAIN
 70
     1
  9
$PLINEGEN
 70
     0
  9
$PSLTSCALE
 70
     1
  9
$TREEDEPTH
 70
  3020
  9
$CMLSTYLE
  2
Standard
  9
$CMLJUST
 70
     0
  9
$CMLSCALE
 40
20.0
  9
$PROXYGRAPHICS
 70
     1
  9
$MEASUREMENT
 70
     1
  9
$CELWEIGHT
370
    -1
  9
$ENDCAPS
280
     0
  9
$JOINSTYLE
280
     0
  9
$LWDISPLAY
290
     1
  9
$INSUNITS
 70
     4
  9
$HYPERLINKBASE
  1

  9
$STYLESHEET
  1

  9
$XEDIT
290
     1
  9
$CEPSNTYPE
380
     0
  9
$PSTYLEMODE
290
     1
  9
$FINGERPRINTGUID
  2
{1026387B-0642-41F4-9615-CCAA0A287ADA}
  9
$VERSIONGUID
  2
{FAEB1C32-E019-11D5-929B-00C0DF256EC4}
  9
$EXTNAMES
290
     1
  9
$PSVPSCALE
 40
0.0
  9
$OLESTARTUP
290
     0
  0
ENDSEC
  0
SECTION
  2
CLASSES
  0
CLASS
  1
ACDBDICTIONARYWDFLT
  2
AcDbDictionaryWithDefault
  3
ObjectDBX Classes
 90
        0
280
     0
281
     0
  0
CLASS
  1
VISUALSTYLE
  2
AcDbVisualStyle
  3
ObjectDBX Classes
 90
     4095
280
     0
281
     0
  0
CLASS
  1
MATERIAL
  2
AcDbMaterial
  3
ObjectDBX Classes
 90
     1153
280
     0
281
     0
  0
CLASS
  1
SCALE
  2
AcDbScale
  3
ObjectDBX Classes
 90
     1153
280
     0
281
     0
  0
CLASS
  1
SUN
  2
AcDbSun
  3
SCENEOE
 90
     1153
280
     0
281
     0
  0
CLASS
  1
ACDBPLACEHOLDER
  2
AcDbPlaceHolder
  3
ObjectDBX Classes
 90
        0
280
     0
281
     0
  0
CLASS
  1
LAYOUT
  2
AcDbLayout
  3
ObjectDBX Classes
 90
        0
280
     0
281
     0
  0
CLASS
  1
TABLESTYLE
  2
AcDbTableStyle
  3
ObjectDBX Classes
 90
     4095
280
     0
281
     0
  0
CLASS
  1
MLEADERSTYLE
  2
AcDbMLeaderStyle
  3
ACDB_MLEADERSTYLE_CLASS
 90
     4095
280
     0
281
     0
  0
CLASS
  1
RASTERVARIABLES
  2
AcDbRasterVariables
  3
ISM
 90
        0
280
     0
281
     0
  0
ENDSEC
  0
SECTION
  2
TABLES
  0
TABLE
  2
VPORT
  5
8
330
0
100
AcDbSymbolTable
 70
     1
  0
VPORT
  5
29
330
8
100
AcDbSymbolTableRecord
100
AcDbViewportTableRecord
  2
*Active
 70
     0
 10
0.0
 20
0.0
 11
1.0
 21
1.0
 12
24.13357306963464
 22
-15.46473479768156
 13
0.0
 23
0.0
 14
10.0
 24
10.0
 15
10.0
 25
10.0
 16
0.0
 26
0.0
 36
1.0
 17
0.0
 27
0.0
 37
0.0
 40
174.7198225109041
 41
2.213513513513513
 42
50.0
 43
0.0
 44
0.0
 50
0.0
 51
0.0
 71
    16
 72
  2000
 73
     1
 74
     3
 75
     0
 76
     0
 77
     0
 78
     0
281
     0
 65
     1
110
0.0
120
0.0
130
0.0
111
1.0
121
0.0
131
0.0
112
0.0
122
1.0
132
0.0
 79
     0
146
0.0
  0
ENDTAB
  0
TABLE
  2
LTYPE
  5
5
330
0
100
AcDbSymbolTable
 70
     6
  0
LTYPE
  5
14
330
5
100
AcDbSymbolTableRecord
100
AcDbLinetypeTableRecord
  2
ByBlock
 70
     0
  3

 72
    65
 73
     0
 40
0.0
  0
LTYPE
  5
15
330
5
100
AcDbSymbolTableRecord
100
AcDbLinetypeTableRecord
  2
ByLayer
 70
     0
  3

 72
    65
 73
     0
 40
0.0
  0
LTYPE
  5
16
330
5
100
AcDbSymbolTableRecord
100
AcDbLinetypeTableRecord
  2
Continuous
 70
     0
  3
Solid line
 72
    65
 73
     0
 40
0.0
  0
LTYPE
  5
6A
330
5
100
AcDbSymbolTableRecord
100
AcDbLinetypeTableRecord
  2
HIDDEN
 70
     0
  3
Hidden __ __ __ __ __ __ __ __ __ __ __ __ __ __
 72
    65
 73
     2
 40
1.905
 49
1.27
 74
     0
 49
-0.635
 74
     0
  0
LTYPE
  5
6B
330
5
100
AcDbSymbolTableRecord
100
AcDbLinetypeTableRecord
  2
PHANTOM
 70
     0
  3
Phantom ______  __  __  ______  __  __  ______
 72
    65
 73
     6
 40
12.7
 49
6.35
 74
     0
 49
-1.27
 74
     0
 49
1.27
 74
     0
 49
-1.27
 74
     0
 49
1.27
 74
     0
 49
-1.27
 74
     0
  0
LTYPE
  5
6C
330
5
100
AcDbSymbolTableRecord
100
AcDbLinetypeTableRecord
  2
CENTER
 70
     0
  3
Center ____ _ ____ _ ____ _ ____ _ ____ _ ____
 72
    65
 73
     4
 40
10.16
 49
6.35
 74
     0
 49
-1.27
 74
     0
 49
1.27
 74
     0
 49
-1.27
 74
     0
  0
LTYPE
  5
6D
330
5
100
AcDbSymbolTableRecord
100
AcDbLinetypeTableRecord
  2
CENTERX2
 70
     0
  3
Center (2x) ________  __  ________  __  _____
 72
    65
 73
     4
 40
20.32
 49
12.7
 74
     0
 49
-2.54
 74
     0
 49
2.54
 74
     0
 49
-2.54
 74
     0
  0
LTYPE
  5
6E
330
5
100
AcDbSymbolTableRecord
100
AcDbLinetypeTableRecord
  2
DOT2
 70
     0
  3
Dot (.5x) ........................................
 72
    65
 73
     2
 40
0.635
 49
0.0
 74
     0
 49
-0.635
 74
     0
  0
ENDTAB
  0
TABLE
  2
LAYER
  5
2
330
0
100
AcDbSymbolTable
 70
    18
  0
LAYER
  5
10
330
2
100
AcDbSymbolTableRecord
100
AcDbLayerTableRecord
  2
0
 70
     0
 62
     7
  6
Continuous
370
    -3
390
F
  0
LAYER
  5
6F
330
2
100
AcDbSymbolTableRecord
100
AcDbLayerTableRecord
  2
FORMAT
 70
     0
 62
     2
  6
Continuous
370
    -3
390
F
  0
LAYER
  5
70
330
2
100
AcDbSymbolTableRecord
100
AcDbLayerTableRecord
  2
외형선
 70
     0
 62
     4
  6
Continuous
370
    30
390
F
  0
LAYER
  5
71
330
2
100
AcDbSymbolTableRecord
100
AcDbLayerTableRecord
  2
숨은선
 70
     0
 62
     2
  6
HIDDEN
370
    15
390
F
  0
LAYER
  5
72
330
2
100
AcDbSymbolTableRecord
100
AcDbLayerTableRecord
  2
중심선
 70
     0
 62
     1
  6
CENTERX2
370
    -3
390
F
  0
LAYER
  5
73
330
2
100
AcDbSymbolTableRecord
100
AcDbLayerTableRecord
  2
파단선
 70
     0
 62
     4
  6
Continuous
370
    -3
390
F
  0
LAYER
  5
74
330
2
100
AcDbSymbolTableRecord
100
AcDbLayerTableRecord
  2
해칭선
 70
     0
 62
   100
  6
Continuous
370
    -3
390
F
  0
LAYER
  5
75
330
2
100
AcDbSymbolTableRecord
100
AcDbLayerTableRecord
  2
가는실선
 70
     0
 62
     4
  6
Continuous
370
    -3
390
F
  0
LAYER
  5
76
330
2
100
AcDbSymbolTableRecord
100
AcDbLayerTableRecord
  2
치수_보조선
 70
     0
 62
     4
  6
Continuous
370
    -3
390
F
  0
LAYER
  5
77
330
2
100
AcDbSymbolTableRecord
100
AcDbLayerTableRecord
  2
치수문자_일반주서
 70
     0
 62
     7
  6
Continuous
370
    15
390
F
  0
LAYER
  5
78
330
2
100
AcDbSymbolTableRecord
100
AcDbLayerTableRecord
  2
개별주서
 70
     0
 62
   100
  6
Continuous
370
    30
390
F
  0
LAYER
  5
79
330
2
100
AcDbSymbolTableRecord
100
AcDbLayerTableRecord
  2
중간선
 70
     0
 62
     2
  6
Continuous
370
    15
390
F
  0
LAYER
  5
7A
330
2
100
AcDbSymbolTableRecord
100
AcDbLayerTableRecord
  2
윤곽선
 70
     0
 62
     3
  6
Continuous
370
    40
390
F
  0
LAYER
  5
7B
330
2
100
AcDbSymbolTableRecord
100
AcDbLayerTableRecord
  2
중심마크
 70
     0
 62
   100
  6
Continuous
370
    30
390
F
  0
LAYER
  5
7C
330
2
100
AcDbSymbolTableRecord
100
AcDbLayerTableRecord
  2
가상선
 70
     0
 62
     4
  6
PHANTOM
370
    -3
390
F
  0
LAYER
  5
7D
330
2
100
AcDbSymbolTableRecord
100
AcDbLayerTableRecord
  2
특수지정선
 70
     0
 62
     5
  6
CENTERX2
370
    60
390
F
  0
LAYER
  5
7E
330
2
100
AcDbSymbolTableRecord
100
AcDbLayerTableRecord
  2
참조1
 70
     0
 62
    -4
  6
Continuous
370
    -3
390
F
  0
LAYER
  5
144
330
2
100
AcDbSymbolTableRecord
100
AcDbLayerTableRecord
  2
Defpoints
 70
     0
 62
     7
  6
Continuous
290
     0
370
    -3
390
F
  0
ENDTAB
  0
TABLE
  2
STYLE
  5
3
330
0
100
AcDbSymbolTable
 70
     2
  0
STYLE
  5
11
330
3
100
AcDbSymbolTableRecord
100
AcDbTextStyleTableRecord
  2
Standard
 70
     0
 40
0.0
 41
1.0
 50
0.0
 71
     0
 42
3.5
  3
txt
  4

  0
STYLE
  5
94
330
3
100
AcDbSymbolTableRecord
100
AcDbTextStyleTableRecord
  2
SLDTEXTSTYLE0
 70
     0
 40
0.0
 41
0.75
 50
0.0
 71
     0
 42
3.5
  3
TXT
  4

  0
ENDTAB
  0
TABLE
  2
VIEW
  5
6
330
0
100
AcDbSymbolTable
 70
     0
  0
ENDTAB
  0
TABLE
  2
UCS
  5
7
330
0
100
AcDbSymbolTable
 70
     0
  0
ENDTAB
  0
TABLE
  2
APPID
  5
9
330
0
100
AcDbSymbolTable
 70
     3
  0
APPID
  5
12
330
9
100
AcDbSymbolTableRecord
100
AcDbRegAppTableRecord
  2
ACAD
 70
     0
  0
APPID
  5
14E
330
9
100
AcDbSymbolTableRecord
100
AcDbRegAppTableRecord
  2
ACAD_DSTYLE_DIMFLIPARROW_SYMBOL
 70
     0
  0
APPID
  5
14F
330
9
100
AcDbSymbolTableRecord
100
AcDbRegAppTableRecord
  2
ACAD_DSTYLE_DIMFLIPARROW_WHICH_SYMBOL
 70
     0
  0
ENDTAB
  0
TABLE
  2
DIMSTYLE
  5
A
330
0
100
AcDbSymbolTable
 70
     3
100
AcDbDimStyleTable
  0
DIMSTYLE
105
27
330
A
100
AcDbSymbolTableRecord
100
AcDbDimStyleTableRecord
  2
ISO-25
 70
     0
 41
2.5
 42
0.625
 43
3.75
 44
1.25
 73
     0
 74
     0
 77
     1
 78
     8
140
2.5
141
2.5
143
0.03937007874016
147
0.625
171
     3
172
     1
178
     0
271
     2
272
     2
274
     3
278
    44
283
     0
284
     8
340
11
  0
DIMSTYLE
105
C3
102
{ACAD_REACTORS
330
C2
330
D7
330
EA
102
}
330
A
100
AcDbSymbolTableRecord
100
AcDbDimStyleTableRecord
  2
SLDDIMSTYLE0
 70
     0
 41
3.302
 44
0.0
 45
0.000000001
 73
     0
 74
     0
 77
     1
 78
     4
 79
     1
140
3.5
143
0.0393700787401575
147
0.875
148
0.000000001
170
     1
173
     1
178
     0
271
     2
272
     2
276
     2
284
    12
340
94
  0
DIMSTYLE
105
FE
102
{ACAD_REACTORS
330
FD
102
}
330
A
100
AcDbSymbolTableRecord
100
AcDbDimStyleTableRecord
  2
SLDDIMSTYLE1
 70
     0
 41
3.302
 44
0.0
 45
0.000000001
 73
     0
 74
     0
 77
     1
 78
     4
 79
     1
140
3.5
143
0.0393700787401575
147
0.875
148
0.000000001
170
     1
172
     1
173
     1
178
     0
271
     2
272
     2
276
     2
284
    12
289
     0
340
94
  0
ENDTAB
  0
TABLE
  2
BLOCK_RECORD
  5
1
330
0
100
AcDbSymbolTable
 70
     7
  0
BLOCK_RECORD
  5
1F
330
1
100
AcDbSymbolTableRecord
100
AcDbBlockTableRecord
  2
*Model_Space
340
22
  0
BLOCK_RECORD
  5
1B
330
1
100
AcDbSymbolTableRecord
100
AcDbBlockTableRecord
  2
*Paper_Space
340
1E
  0
BLOCK_RECORD
  5
23
330
1
100
AcDbSymbolTableRecord
100
AcDbBlockTableRecord
  2
*Paper_Space0
340
26
  0
BLOCK_RECORD
  5
7F
330
1
100
AcDbSymbolTableRecord
100
AcDbBlockTableRecord
  2
블럭10
340
0
102
{BLKREFS
331
B9
102
}
  0
BLOCK_RECORD
  5
C4
330
1
100
AcDbSymbolTableRecord
100
AcDbBlockTableRecord
  2
_D
340
0
  0
BLOCK_RECORD
  5
D8
330
1
100
AcDbSymbolTableRecord
100
AcDbBlockTableRecord
  2
_D_1
340
0
  0
BLOCK_RECORD
  5
EB
330
1
100
AcDbSymbolTableRecord
100
AcDbBlockTableRecord
  2
_D_2
340
0
  0
BLOCK_RECORD
  5
FF
330
1
100
AcDbSymbolTableRecord
100
AcDbBlockTableRecord
  2
_D_3
340
0
  0
BLOCK_RECORD
  5
119
330
1
100
AcDbSymbolTableRecord
100
AcDbBlockTableRecord
  2
SW_DOWELSYMBOL_0
340
0
102
{BLKREFS
331
11F
102
}
  0
ENDTAB
  0
ENDSEC
  0
SECTION
  2
BLOCKS
  0
BLOCK
  5
20
330
1F
100
AcDbEntity
  8
0
100
AcDbBlockBegin
  2
*Model_Space
 70
     0
 10
0.0
 20
0.0
 30
0.0
  3
*Model_Space
  1
*Model_Space
  0
ENDBLK
  5
21
330
1F
100
AcDbEntity
  8
0
100
AcDbBlockEnd
  0
BLOCK
  5
1C
330
1B
100
AcDbEntity
 67
     1
  8
0
100
AcDbBlockBegin
  2
*Paper_Space
 70
     0
 10
0.0
 20
0.0
 30
0.0
  3
*Paper_Space
  1
*Paper_Space
  0
ENDBLK
  5
1D
330
1B
100
AcDbEntity
 67
     1
  8
0
100
AcDbBlockEnd
  0
BLOCK
  5
24
330
23
100
AcDbEntity
  8
0
100
AcDbBlockBegin
  2
*Paper_Space0
 70
     0
 10
0.0
 20
0.0
 30
0.0
  3
*Paper_Space0
  1
*Paper_Space0
  0
ENDBLK
  5
25
330
23
100
AcDbEntity
  8
0
100
AcDbBlockEnd
  0
BLOCK
  5
80
330
7F
100
AcDbEntity
  8
0
100
AcDbBlockBegin
  2
블럭10
 70
     2
 10
0.0
 20
0.0
 30
0.0
  3
블럭10
  1
블럭10
  0
ELLIPSE
  5
82
330
7F
100
AcDbEntity
  8
중심선
100
AcDbEllipse
 10
20.54032771741204
 20
12.0471743016438
 30
0.0
 11
6.600054785286829
 21
-1.261213355974178E-13
 31
0.0
210
0.0
220
0.0
230
1.0
 40
0.636358354079598
 41
0.9219305317359503
 42
6.513795318482858
  0
ELLIPSE
  5
83
330
7F
100
AcDbEntity
  8
중심선
100
AcDbEllipse
 10
20.54032771746488
 20
12.04717430159265
 30
0.0
 11
3.960054785062283
 21
1.540847449632565E-10
 31
0.0
210
0.0
220
0.0
230
1.0
 40
0.3939339440162632
 41
1.131841032648279
 42
5.62031148352944
  0
LINE
  5
84
330
7F
100
AcDbEntity
  8
중심선
100
AcDbLine
 10
2.268634060543552
 20
16.24717430164393
 30
0.0
 11
5.714909304380834
 21
16.24717430164393
 31
0.0
  0
LINE
  5
85
330
7F
100
AcDbEntity
  8
중심선
100
AcDbLine
 10
5.245725140726316
 20
7.84717430164391
 30
0.0
 11
8.692000384563599
 21
7.84717430164391
 31
0.0
  0
LINE
  5
86
330
7F
100
AcDbEntity
  8
중심선
100
AcDbLine
 10
15.74043728645272
 20
16.24717430164393
 30
0.0
 11
8.692000384563599
 21
7.84717430164391
 31
0.0
  0
LINE
  5
87
330
7F
100
AcDbEntity
  8
중심선
100
AcDbLine
 10
0.1404042013395286
 20
13.71084872107135
 30
0.0
 11
3.58671253028996
 21
13.71088815037384
 31
0.0
  0
LINE
  5
88
330
7F
100
AcDbEntity
  8
중심선
100
AcDbLine
 10
2.750260043222114
 20
10.84717430164391
 30
0.0
 11
6.196535287059397
 21
10.84717430164391
 31
0.0
  0
LINE
  5
89
330
7F
100
AcDbEntity
  8
중심선
100
AcDbLine
 10
12.29416204261559
 20
16.24717430164393
 30
0.0
 11
5.245725140726316
 21
7.84717430164391
 31
0.0
  0
LINE
  5
8A
330
7F
100
AcDbEntity
  8
중심선
100
AcDbLine
 10
10.72767329541681
 20
16.24717430164393
 30
0.0
 11
6.196535287059397
 21
10.84717430164391
 31
0.0
  0
LINE
  5
8B
330
7F
100
AcDbEntity
  8
중심선
100
AcDbLine
 10
7.28139805157953
 20
16.24717430164393
 30
0.0
 11
2.750260043222114
 21
10.84717430164391
 31
0.0
  0
LINE
  5
8C
330
7F
100
AcDbEntity
  8
중심선
100
AcDbLine
 10
5.714909304380834
 20
16.24717430164393
 30
0.0
 11
3.58671253028996
 21
13.71088815037384
 31
0.0
  0
LINE
  5
8D
330
7F
100
AcDbEntity
  8
중심선
100
AcDbLine
 10
2.268634060543552
 20
16.24717430164393
 30
0.0
 11
0.1404042013395286
 21
13.71084872107135
 31
0.0
  0
LINE
  5
8E
330
7F
100
AcDbEntity
  8
중심선
100
AcDbLine
 10
7.28139805157953
 20
16.24717430164393
 30
0.0
 11
10.72767329541681
 21
16.24717430164393
 31
0.0
  0
LINE
  5
8F
330
7F
100
AcDbEntity
  8
중심선
100
AcDbLine
 10
12.29416204261559
 20
16.24717430164393
 30
0.0
 11
15.74043728645272
 21
16.24717430164393
 31
0.0
  0
LINE
  5
90
330
7F
100
AcDbEntity
  8
중심선
100
AcDbLine
 10
19.22036997980202
 20
11.08717430171403
 30
0.0
 11
23.66174974927406
 21
11.08717430171406
 31
0.0
  0
LINE
  5
91
330
7F
100
AcDbEntity
  8
중심선
100
AcDbLine
 10
19.22039502424796
 20
13.00717430171391
 30
0.0
 11
19.22036997980202
 21
11.08717430171403
 31
0.0
  0
LINE
  5
92
330
7F
100
AcDbEntity
  8
중심선
100
AcDbLine
 10
19.22039502424796
 20
13.00717430171391
 30
0.0
 11
26.96566020931264
 21
13.00717430171391
 31
0.0
  0
LINE
  5
93
330
7F
100
AcDbEntity
  8
중심선
100
AcDbLine
 10
22.22332737316547
 20
13.45928029700563
 30
0.0
 11
24.52862924686651
 21
15.39360700705356
 31
0.0
  0
ATTDEF
  5
95
330
7F
100
AcDbEntity
  8
FORMAT
 62
     2
100
AcDbText
 10
5.200277315438102
 20
2.075366912832191
 30
0.0
 40
4.233333333333333
  1
EI106032
 41
0.75
  7
SLDTEXTSTYLE0
 11
5.200277315438102
 21
-0.0412997538344756
 31
0.0
100
AcDbAttributeDefinition
  3

  2
AUTOATTR0
 70
     0
 74
     1
  0
ENDBLK
  5
81
330
7F
100
AcDbEntity
  8
0
100
AcDbBlockEnd
  0
BLOCK
  5
C5
330
C4
100
AcDbEntity
  8
0
100
AcDbBlockBegin
  2
_D
 70
     0
 10
0.0
 20
0.0
 30
0.0
  3
_D
  1
_D
  0
LINE
  5
C7
330
C4
100
AcDbEntity
  8
치수문자_일반주서
 62
     0
370
    -2
100
AcDbLine
 10
39.74083112483272
 20
6.413574928723891
 30
0.0
 11
39.74083112483272
 21
30.93890113070297
 31
0.0
  0
LINE
  5
C8
330
C4
100
AcDbEntity
  8
치수문자_일반주서
 62
     0
370
    -2
100
AcDbLine
 10
14.34083112483277
 20
6.413574928723888
 30
0.0
 11
14.34083112483277
 21
30.93890113070297
 31
0.0
  0
LINE
  5
C9
330
C4
100
AcDbEntity
  8
치수문자_일반주서
 62
     0
370
    -2
100
AcDbLine
 10
14.34083112483277
 20
30.93890113070297
 30
0.0
 11
-12.05977068067305
 21
30.93890113070297
 31
0.0
  0
LINE
  5
CA
330
C4
100
AcDbEntity
  8
치수문자_일반주서
 62
     0
370
    -2
100
AcDbLine
 10
36.43883112483272
 20
30.93890113070297
 30
0.0
 11
17.64283112483277
 21
30.93890113070297
 31
0.0
  0
SOLID
  5
CB
330
C4
100
AcDbEntity
  8
치수문자_일반주서
 62
     0
100
AcDbTrace
 10
36.43883112483272
 20
30.38856779736964
 30
0.0
 11
36.43883112483272
 21
31.4892344640363
 31
0.0
 12
39.74083112483272
 22
30.93890113070297
 32
0.0
 13
39.74083112483272
 23
30.93890113070297
 33
0.0
  0
SOLID
  5
CC
330
C4
100
AcDbEntity
  8
치수문자_일반주서
 62
     0
100
AcDbTrace
 10
17.64283112483277
 20
31.4892344640363
 30
0.0
 11
17.64283112483277
 21
30.38856779736964
 31
0.0
 12
14.34083112483277
 22
30.93890113070297
 32
0.0
 13
14.34083112483277
 23
30.93890113070297
 33
0.0
  0
MTEXT
  5
CD
330
C4
100
AcDbEntity
  8
치수문자_일반주서
 62
     0
100
AcDbMText
 10
-2.216020680673051
 20
35.31390113070297
 30
0.0
 40
3.5
 41
0.0
 71
     2
 72
     1
  1
\A1;25.40 [1]
  7
SLDTEXTSTYLE0
 73
     1
 44
1.0
  0
POINT
  5
CE
330
C4
100
AcDbEntity
  8
Defpoints
 62
     0
100
AcDbPoint
 10
39.74083112483272
 20
6.351074928723891
 30
0.0
  0
POINT
  5
CF
330
C4
100
AcDbEntity
  8
Defpoints
 62
     0
100
AcDbPoint
 10
14.34083112483277
 20
6.351074928723888
 30
0.0
  0
POINT
  5
D0
330
C4
100
AcDbEntity
  8
Defpoints
 62
     0
100
AcDbPoint
 10
14.34083112483277
 20
30.93890113070297
 30
0.0
  0
ENDBLK
  5
C6
330
C4
100
AcDbEntity
  8
0
100
AcDbBlockEnd
  0
BLOCK
  5
D9
330
D8
100
AcDbEntity
  8
0
100
AcDbBlockBegin
  2
_D_1
 70
     0
 10
0.0
 20
0.0
 30
0.0
  3
_D_1
  1
_D_1
  0
LINE
  5
DB
330
D8
100
AcDbEntity
  8
치수문자_일반주서
 62
     0
370
    -2
100
AcDbLine
 10
39.74083112483272
 20
6.413574928723891
 30
0.0
 11
39.74083112483272
 21
41.89430621787319
 31
0.0
  0
LINE
  5
DC
330
D8
100
AcDbEntity
  8
치수문자_일반주서
 62
     0
370
    -2
100
AcDbLine
 10
-36.45916887516725
 20
5.143574928723894
 30
0.0
 11
-36.45916887516725
 21
41.89430621787319
 31
0.0
  0
LINE
  5
DD
330
D8
100
AcDbEntity
  8
치수문자_일반주서
 62
     0
370
    -2
100
AcDbLine
 10
36.43883112483272
 20
41.89430621787319
 30
0.0
 11
-33.15716887516725
 21
41.89430621787319
 31
0.0
  0
SOLID
  5
DE
330
D8
100
AcDbEntity
  8
치수문자_일반주서
 62
     0
100
AcDbTrace
 10
36.43883112483272
 20
41.34397288453986
 30
0.0
 11
36.43883112483272
 21
42.44463955120653
 31
0.0
 12
39.74083112483272
 22
41.89430621787319
 32
0.0
 13
39.74083112483272
 23
41.89430621787319
 33
0.0
  0
SOLID
  5
DF
330
D8
100
AcDbEntity
  8
치수문자_일반주서
 62
     0
100
AcDbTrace
 10
-33.15716887516725
 20
42.44463955120653
 30
0.0
 11
-33.15716887516725
 21
41.34397288453986
 31
0.0
 12
-36.45916887516725
 22
41.89430621787319
 32
0.0
 13
-36.45916887516725
 23
41.89430621787319
 33
0.0
  0
MTEXT
  5
E0
330
D8
100
AcDbEntity
  8
치수문자_일반주서
 62
     0
100
AcDbMText
 10
3.109049054998689
 20
46.26930621787319
 30
0.0
 40
3.5
 41
0.0
 71
     2
 72
     1
  1
\A1;76.20 [3]
  7
SLDTEXTSTYLE0
 73
     1
 44
1.0
  0
POINT
  5
E1
330
D8
100
AcDbEntity
  8
Defpoints
 62
     0
100
AcDbPoint
 10
39.74083112483272
 20
6.351074928723891
 30
0.0
  0
POINT
  5
E2
330
D8
100
AcDbEntity
  8
Defpoints
 62
     0
100
AcDbPoint
 10
-36.45916887516725
 20
5.081074928723894
 30
0.0
  0
POINT
  5
E3
330
D8
100
AcDbEntity
  8
Defpoints
 62
     0
100
AcDbPoint
 10
-36.45916887516725
 20
41.89430621787319
 30
0.0
  0
ENDBLK
  5
DA
330
D8
100
AcDbEntity
  8
0
100
AcDbBlockEnd
  0
BLOCK
  5
EC
330
EB
100
AcDbEntity
  8
0
100
AcDbBlockBegin
  2
_D_2
 70
     0
 10
0.0
 20
0.0
 30
0.0
  3
_D_2
  1
_D_2
  0
LINE
  5
EE
330
EB
100
AcDbEntity
  8
치수문자_일반주서
 62
     0
370
    -2
100
AcDbLine
 10
39.74083112483262
 20
6.351074928723909
 30
0.0
 11
56.95031663807093
 21
6.351074928723975
 31
0.0
  0
LINE
  5
EF
330
EB
100
AcDbEntity
  8
치수문자_일반주서
 62
     0
370
    -2
100
AcDbLine
 10
39.74083112483272
 20
-6.348925071276105
 30
0.0
 11
56.95031663807097
 21
-6.348925071276042
 31
0.0
  0
LINE
  5
F0
330
EB
100
AcDbEntity
  8
치수문자_일반주서
 62
     0
370
    -2
100
AcDbLine
 10
56.95031663807093
 20
6.351074928723975
 30
0.0
 11
56.95031663807083
 21
36.34057492872397
 31
0.0
  0
LINE
  5
F1
330
EB
100
AcDbEntity
  8
치수문자_일반주서
 62
     0
370
    -2
100
AcDbLine
 10
56.95031663807093
 20
6.351074928723975
 30
0.0
 11
56.95031663807097
 21
-6.348925071276042
 31
0.0
  0
LINE
  5
F2
330
EB
100
AcDbEntity
  8
치수문자_일반주서
 62
     0
370
    -2
100
AcDbLine
 10
56.95031663807092
 20
9.653074928723974
 30
0.0
 11
56.9503166380709
 21
12.95507492872397
 31
0.0
  0
LINE
  5
F3
330
EB
100
AcDbEntity
  8
치수문자_일반주서
 62
     0
370
    -2
100
AcDbLine
 10
56.95031663807099
 20
-9.650925071276042
 30
0.0
 11
56.950316638071
 21
-12.95292507127604
 31
0.0
  0
SOLID
  5
F4
330
EB
100
AcDbEntity
  8
치수문자_일반주서
 62
     0
100
AcDbTrace
 10
56.39998330473758
 20
9.653074928723973
 30
0.0
 11
57.50064997140425
 21
9.653074928723976
 31
0.0
 12
56.95031663807093
 22
6.351074928723975
 32
0.0
 13
56.95031663807093
 23
6.351074928723975
 33
0.0
  0
SOLID
  5
F5
330
EB
100
AcDbEntity
  8
치수문자_일반주서
 62
     0
100
AcDbTrace
 10
57.50064997140432
 20
-9.65092507127604
 30
0.0
 11
56.39998330473765
 21
-9.650925071276044
 31
0.0
 12
56.95031663807097
 22
-6.348925071276042
 32
0.0
 13
56.95031663807097
 23
-6.348925071276042
 33
0.0
  0
MTEXT
  5
F6
330
EB
100
AcDbEntity
  8
치수문자_일반주서
 62
     0
100
AcDbMText
 10
52.57531663807087
 20
22.99682492872396
 30
0.0
 40
3.5
 41
0.0
 71
     2
 72
     1
  1
\A1;%%c12.70 [1/2]
  7
SLDTEXTSTYLE0
 11
-3.356894814614643E-15
 21
1.0
 31
0.0
 73
     1
 44
1.0
  0
POINT
  5
F7
330
EB
100
AcDbEntity
  8
Defpoints
 62
     0
100
AcDbPoint
 10
39.67833112483262
 20
6.351074928723909
 30
0.0
  0
POINT
  5
14B
330
EB
100
AcDbEntity
  8
Defpoints
 62
     0
100
AcDbPoint
 10
39.67833112483272
 20
-6.348925071276105
 30
0.0
  0
POINT
  5
14C
330
EB
100
AcDbEntity
  8
Defpoints
 62
     0
100
AcDbPoint
 10
56.95031663807097
 20
-6.34892507127604
 30
0.0
  0
ENDBLK
  5
ED
330
EB
100
AcDbEntity
  8
0
100
AcDbBlockEnd
  0
BLOCK
  5
100
330
FF
100
AcDbEntity
  8
0
100
AcDbBlockBegin
  2
_D_3
 70
     0
 10
0.0
 20
0.0
 30
0.0
  3
_D_3
  1
_D_3
  0
LINE
  5
102
330
FF
100
AcDbEntity
  8
치수문자_일반주서
 62
     0
370
    -2
100
AcDbLine
 10
-35.25166887516724
 20
6.351074928723888
 30
0.0
 11
-48.20902804451186
 21
6.35107492872384
 31
0.0
  0
LINE
  5
103
330
FF
100
AcDbEntity
  8
치수문자_일반주서
 62
     0
370
    -2
100
AcDbLine
 10
-35.25166887516724
 20
-6.348925071276101
 30
0.0
 11
-48.20902804451182
 21
-6.348925071276152
 31
0.0
  0
LINE
  5
104
330
FF
100
AcDbEntity
  8
치수문자_일반주서
 62
     0
370
    -2
100
AcDbLine
 10
-48.20902804451186
 20
6.35107492872384
 30
0.0
 11
-48.20902804451197
 21
39.64257492872385
 31
0.0
  0
LINE
  5
105
330
FF
100
AcDbEntity
  8
치수문자_일반주서
 62
     0
370
    -2
100
AcDbLine
 10
-48.20902804451186
 20
6.35107492872384
 30
0.0
 11
-48.20902804451182
 21
-6.348925071276152
 31
0.0
  0
LINE
  5
106
330
FF
100
AcDbEntity
  8
치수문자_일반주서
 62
     0
370
    -2
100
AcDbLine
 10
-48.20902804451188
 20
9.65307492872384
 30
0.0
 11
-48.20902804451189
 21
12.95507492872384
 31
0.0
  0
LINE
  5
107
330
FF
100
AcDbEntity
  8
치수문자_일반주서
 62
     0
370
    -2
100
AcDbLine
 10
-48.2090280445118
 20
-9.650925071276152
 30
0.0
 11
-48.20902804451179
 21
-12.95292507127615
 31
0.0
  0
SOLID
  5
108
330
FF
100
AcDbEntity
  8
치수문자_일반주서
 62
     0
100
AcDbTrace
 10
-48.75936137784521
 20
9.653074928723838
 30
0.0
 11
-47.65869471117854
 21
9.653074928723841
 31
0.0
 12
-48.20902804451186
 22
6.35107492872384
 32
0.0
 13
-48.20902804451186
 23
6.35107492872384
 33
0.0
  0
SOLID
  5
109
330
FF
100
AcDbEntity
  8
치수문자_일반주서
 62
     0
100
AcDbTrace
 10
-47.65869471117847
 20
-9.65092507127615
 30
0.0
 11
-48.75936137784514
 21
-9.650925071276154
 31
0.0
 12
-48.20902804451182
 22
-6.348925071276152
 32
0.0
 13
-48.20902804451182
 23
-6.348925071276152
 33
0.0
  0
MTEXT
  5
10A
330
FF
100
AcDbEntity
  8
치수문자_일반주서
 62
     0
100
AcDbMText
 10
-52.58402804451192
 20
26.29882492872383
 30
0.0
 40
3.5
 41
0.0
 71
     2
 72
     1
  1
\A1;%%c12.70 [1/2]
  7
SLDTEXTSTYLE0
 11
-3.356894814614649E-15
 21
1.0
 31
0.0
 73
     1
 44
1.0
  0
POINT
  5
148
330
FF
100
AcDbEntity
  8
Defpoints
 62
     0
100
AcDbPoint
 10
-35.18916887516724
 20
6.351074928723888
 30
0.0
  0
POINT
  5
149
330
FF
100
AcDbEntity
  8
Defpoints
 62
     0
100
AcDbPoint
 10
-35.18916887516724
 20
-6.348925071276101
 30
0.0
  0
POINT
  5
14A
330
FF
100
AcDbEntity
  8
Defpoints
 62
     0
100
AcDbPoint
 10
-48.20902804451181
 20
-6.34892507127615
 30
0.0
  0
ENDBLK
  5
101
330
FF
100
AcDbEntity
  8
0
100
AcDbBlockEnd
  0
BLOCK
  5
11A
330
119
100
AcDbEntity
  8
0
100
AcDbBlockBegin
  2
SW_DOWELSYMBOL_0
 70
     0
 10
0.0
 20
0.0
 30
0.0
  3
SW_DOWELSYMBOL_0
  1
SW_DOWELSYMBOL_0
  0
CIRCLE
  5
11C
330
119
100
AcDbEntity
  8
해칭선
 62
     0
100
AcDbCircle
 10
0.0
 20
0.0
 30
0.0
 40
3.000000000000001
  0
HATCH
  5
11D
330
119
100
AcDbEntity
  8
0
  6
Continuous
 62
     0
370
     0
100
AcDbHatch
 10
0.0
 20
0.0
 30
0.0
210
0.0
220
0.0
230
1.0
  2
SOLID
 70
     1
 71
     0
 91
        1
 92
        0
 93
        3
 72
     2
 10
-0.0000000000000052
 20
0.0
 40
3.000000000000001
 50
0.0
 51
90.0
 73
     1
 72
     1
 10
-0.0000000000000052
 20
3.000000000000001
 11
-0.0000000000000052
 21
0.0
 72
     1
 10
-0.0000000000000052
 20
0.0
 11
2.999999999999996
 21
0.0
 97
        0
 75
     0
 76
     1
 98
        1
 10
0.0
 20
0.0
  0
HATCH
  5
11E
330
119
100
AcDbEntity
  8
0
  6
Continuous
 62
     0
370
     0
100
AcDbHatch
 10
0.0
 20
0.0
 30
0.0
210
0.0
220
0.0
230
1.0
  2
SOLID
 70
     1
 71
     0
 91
        1
 92
        0
 93
        3
 72
     2
 10
-0.0000000000000052
 20
0.0
 40
3.000000000000001
 50
180.0
 51
270.0000000000008
 73
     1
 72
     1
 10
-0.0000000000000052
 20
-3.000000000000001
 11
-0.0000000000000052
 21
0.0
 72
     1
 10
-0.0000000000000052
 20
0.0
 11
-3.000000000000007
 21
0.0
 97
        0
 75
     0
 76
     1
 98
        1
 10
0.0
 20
0.0
  0
ENDBLK
  5
11B
330
119
100
AcDbEntity
  8
0
100
AcDbBlockEnd
  0
ENDSEC
  0
SECTION
  2
ENTITIES
  0
ARC
  5
96
330
1F
100
AcDbEntity
  8
외형선
  6
Continuous
 62
     1
370
    15
100
AcDbCircle
 10
33.39083112483274
 20
0.0010749287238974
 30
0.0
 40
6.350000000000009
100
AcDbArc
 50
332.895365521947
 51
0.0
  0
ARC
  5
97
330
1F
100
AcDbEntity
  8
외형선
  6
Continuous
 62
     1
370
    15
100
AcDbCircle
 10
33.39083112483274
 20
0.0010749287238974
 30
0.0
 40
6.350000000000014
100
AcDbArc
 50
270.0000000000007
 51
295.9799835837164
  0
ARC
  5
98
330
1F
100
AcDbEntity
  8
외형선
  6
Continuous
 62
     1
370
    15
100
AcDbCircle
 10
33.39083112483274
 20
0.0010749287238974
 30
0.0
 40
6.350000000000011
100
AcDbArc
 50
64.02736816707379
 51
90.0
  0
ARC
  5
99
330
1F
100
AcDbEntity
  8
외형선
  6
Continuous
 62
     1
370
    15
100
AcDbCircle
 10
33.39083112483274
 20
0.0010749287238974
 30
0.0
 40
6.350000000000011
100
AcDbArc
 50
0.0
 51
27.11629274397976
  0
LINE
  5
9A
330
1F
100
AcDbEntity
  8
외형선
  6
Continuous
 62
     1
370
    15
100
AcDbLine
 10
32.56050543922822
 20
-6.348925071276113
 30
0.0
 11
33.39083112483274
 21
-6.348925071276113
 31
0.0
  0
LINE
  5
9B
330
1F
100
AcDbEntity
  8
외형선
  6
Continuous
 62
     1
370
    15
100
AcDbLine
 10
19.15566700697594
 20
6.3510749287239
 30
0.0
 11
15.28484345839535
 21
6.3510749287239
 31
0.0
  0
LINE
  5
9C
330
1F
100
AcDbEntity
  8
외형선
  6
Continuous
 62
     1
370
    15
100
AcDbLine
 10
15.28484345839538
 20
-6.348925071276113
 30
0.0
 11
19.15566700697602
 21
-6.348925071276113
 31
0.0
  0
LINE
  5
9D
330
1F
100
AcDbEntity
  8
외형선
  6
Continuous
 62
     1
370
    15
100
AcDbLine
 10
33.39083112483274
 20
6.3510749287239
 30
0.0
 11
32.56050543922814
 21
6.3510749287239
 31
0.0
  0
LINE
  5
9E
330
1F
100
AcDbEntity
  8
외형선
  6
Continuous
370
    15
100
AcDbLine
 10
-35.18916887516724
 20
-6.348925071276105
 30
0.0
 11
14.34083112483277
 21
-6.348925071276105
 31
0.0
  0
LINE
  5
9F
330
1F
100
AcDbEntity
  8
외형선
  6
Continuous
370
    15
100
AcDbLine
 10
14.34083112483277
 20
6.351074928723891
 30
0.0
 11
-35.18916887516724
 21
6.351074928723891
 31
0.0
  0
LINE
  5
A0
330
1F
100
AcDbEntity
  8
외형선
  6
Continuous
370
    15
100
AcDbLine
 10
-35.18916887516724
 20
6.351074928723892
 30
0.0
 11
-36.45916887516724
 21
5.081074928723895
 31
0.0
  0
LINE
  5
A1
330
1F
100
AcDbEntity
  8
외형선
  6
Continuous
370
    15
100
AcDbLine
 10
-36.45916887516724
 20
-5.078925071276108
 30
0.0
 11
-35.18916887516724
 21
-6.348925071276105
 31
0.0
  0
SPLINE
  5
A2
330
1F
100
AcDbEntity
  8
외형선
  6
Continuous
 62
     1
370
    15
100
AcDbSpline
210
0.0
220
0.0
230
1.0
 70
     8
 71
     3
 72
    18
 73
    14
 74
     0
 42
0.000000001
 43
0.00000001
 40
0.0
 40
0.0
 40
0.0
 40
0.0
 40
0.0976464376673699
 40
0.1951947119552453
 40
0.2927271297409654
 40
0.3903261666183966
 40
0.4880055070690256
 40
0.5855817946905838
 40
0.6775261074671817
 40
0.7695428989607408
 40
0.8616529590375814
 40
0.9536274890343915
 40
1.0
 40
1.0
 40
1.0
 40
1.0
 10
14.34083112483277
 20
0.5451514964979551
 30
0.0
 10
14.93396660628461
 20
0.202816256207284
 30
0.0
 10
16.11964129363794
 20
-0.4815100768054445
 30
0.0
 10
17.8972257960061
 20
-1.499902429415119
 30
0.0
 10
19.67451015994633
 20
-2.477980362716601
 30
0.0
 10
21.45282537796637
 20
-3.391712016205005
 30
0.0
 10
23.23193743346971
 20
-4.216237098374149
 30
0.0
 10
24.9761044242892
 20
-4.917993918080589
 30
0.0
 10
26.68554199330719
 20
-5.485354662143401
 30
0.0
 10
28.36210059518616
 20
-5.916162340278434
 30
0.0
 10
30.03951037342183
 20
-6.20181839675945
 30
0.0
 10
31.43882639321867
 20
-6.344400134239172
 30
0.0
 10
32.27891600639309
 20
-6.333991848212161
 30
0.0
 10
32.56050543922822
 20
-6.330503097353717
 30
0.0
  0
SPLINE
  5
A3
330
1F
100
AcDbEntity
  8
외형선
  6
Continuous
 62
     1
370
    15
100
AcDbSpline
210
0.0
220
0.0
230
1.0
 70
     8
 71
     3
 72
    14
 73
    10
 74
     0
 42
0.000000001
 43
0.00000001
 40
0.0
 40
0.0
 40
0.0
 40
0.0
 40
0.1181523716889146
 40
0.2723806167726937
 40
0.4178906323921717
 40
0.563550280270816
 40
0.7089958777297398
 40
0.8544052971426556
 40
1.0
 40
1.0
 40
1.0
 40
1.0
 10
25.86213274689404
 20
-5.192051598221645
 30
0.0
 10
25.40837961134836
 20
-5.339395622143572
 30
0.0
 10
24.3623273217855
 20
-5.67907273179393
 30
0.0
 10
22.75764476083122
 20
-6.033892114643075
 30
0.0
 10
21.04721921685786
 20
-6.280216798388782
 30
0.0
 10
19.36980676932396
 20
-6.372582348559135
 30
0.0
 10
17.69368228041111
 20
-6.315780390022124
 30
0.0
 10
16.01787119256188
 20
-6.121580680372942
 30
0.0
 10
14.90008171436314
 20
-5.873913882958688
 30
0.0
 10
14.34083112483277
 20
-5.750001639050096
 30
0.0
  0
SPLINE
  5
A4
330
1F
100
AcDbEntity
  8
외형선
  6
Continuous
 62
     1
370
    15
100
AcDbSpline
210
0.0
220
0.0
230
1.0
 70
     8
 71
     3
 72
    12
 73
     8
 74
     0
 42
0.000000001
 43
0.00000001
 40
0.0
 40
0.0
 40
0.0
 40
0.0
 40
0.1093324748503314
 40
0.3320073538700206
 40
0.5549079370265471
 40
0.7774805458679022
 40
1.0
 40
1.0
 40
1.0
 40
1.0
 10
25.86213274689395
 20
5.194201455669429
 30
0.0
 10
26.13646891338552
 20
5.287854846402829
 30
0.0
 10
26.9695390952541
 20
5.5722498944516
 30
0.0
 10
28.36210096165584
 20
5.913495482720967
 30
0.0
 10
30.03950857629465
 20
6.208060099730266
 30
0.0
 10
31.71559143259633
 20
6.363215108703045
 30
0.0
 10
32.83246235451396
 20
6.343049106957377
 30
0.0
 10
33.39083112483272
 20
6.332967310237627
 30
0.0
  0
SPLINE
  5
A5
330
1F
100
AcDbEntity
  8
외형선
  6
Continuous
 62
     1
370
    15
100
AcDbSpline
210
0.0
220
0.0
230
1.0
 70
     8
 71
     3
 72
    48
 73
    44
 74
     0
 42
0.000000001
 43
0.00000001
 40
0.0
 40
0.0
 40
0.0
 40
0.0
 40
0.0625000000000003
 40
0.0625000000000003
 40
0.0937500000000015
 40
0.0937500000000015
 40
0.1250000000000027
 40
0.1250000000000027
 40
0.187500000000003
 40
0.187500000000003
 40
0.2500000000000033
 40
0.2500000000000033
 40
0.3125000000000036
 40
0.3125000000000036
 40
0.3750000000000039
 40
0.3750000000000039
 40
0.4375000000000042
 40
0.4375000000000042
 40
0.4687500000000043
 40
0.4687500000000043
 40
0.5000000000000046
 40
0.5000000000000046
 40
0.5312500000000047
 40
0.5312500000000047
 40
0.5625000000000049
 40
0.5625000000000049
 40
0.593750000000005
 40
0.593750000000005
 40
0.6250000000000052
 40
0.6250000000000052
 40
0.6875000000000056
 40
0.6875000000000056
 40
0.750000000000006
 40
0.750000000000006
 40
0.7812500000000052
 40
0.7812500000000052
 40
0.8125000000000046
 40
0.8125000000000046
 40
0.875000000000003
 40
0.875000000000003
 40
0.9375000000000016
 40
0.9375000000000016
 40
1.0
 40
1.0
 40
1.0
 40
1.0
 10
33.39083112483273
 20
6.332967310237628
 30
0.0
 10
33.71347455164553
 20
6.318919131321027
 30
0.0
 10
34.03482987288456
 20
6.273138671228396
 30
0.0
 10
34.51822201840845
 20
6.15935402817001
 30
0.0
 10
34.67955883471689
 20
6.113856736521684
 30
0.0
 10
35.0029650468317
 20
6.007518124127357
 30
0.0
 10
35.16590598114252
 20
5.946265218040466
 30
0.0
 10
35.64896938130383
 20
5.742013710543843
 30
0.0
 10
35.96270068121689
 20
5.579386222628713
 30
0.0
 10
36.57271084609373
 20
5.202251292533465
 30
0.0
 10
36.8717375817811
 20
4.98519159592229
 30
0.0
 10
37.43064959163368
 20
4.508328425744332
 30
0.0
 10
37.6908442879721
 20
4.249289157303791
 30
0.0
 10
38.16791651746276
 20
3.687185473701045
 30
0.0
 10
38.38547365026403
 20
3.381892783361023
 30
0.0
 10
38.75295010266049
 20
2.74271699149319
 30
0.0
 10
38.90588209115718
 20
2.405285044942465
 30
0.0
 10
39.07378241745172
 20
1.876146038742383
 30
0.0
 10
39.1185700429477
 20
1.698648367106253
 30
0.0
 10
39.18353004692871
 20
1.342188341076108
 30
0.0
 10
39.20375117706369
 20
1.161308719352372
 30
0.0
 10
39.21462371272433
 20
0.8098235581906391
 30
0.0
 10
39.20565041076759
 20
0.639532685979486
 30
0.0
 10
39.15538287975745
 20
0.3128675063899162
 30
0.0
 10
39.11428753123265
 20
0.1604114597334272
 30
0.0
 10
39.00247460273418
 20
-0.1107644040883665
 30
0.0
 10
38.92993115068623
 20
-0.2326425808139
 30
0.0
 10
38.76119336722468
 20
-0.4318627368992785
 30
0.0
 10
38.66429882984605
 20
-0.5111062699442904
 30
0.0
 10
38.34424638455242
 20
-0.6870361121349838
 30
0.0
 10
38.09664170825491
 20
-0.7189179632061484
 30
0.0
 10
37.57788668398315
 20
-0.662608677778741
 30
0.0
 10
37.30062674470874
 20
-0.5739602762716076
 30
0.0
 10
36.88030783576171
 20
-0.3910303516519976
 30
0.0
 10
36.73863122419289
 20
-0.3214891935392795
 30
0.0
 10
36.4508438180484
 20
-0.1687266948041419
 30
0.0
 10
36.30390165980137
 20
-0.08496757911898
 30
0.0
 10
35.86278096276709
 20
0.178000037293481
 30
0.0
 10
35.56730005622094
 20
0.3689192194465343
 30
0.0
 10
34.96393036930316
 20
0.7638078096023957
 30
0.0
 10
34.65361545444438
 20
0.9691419607146304
 30
0.0
 10
34.02894890709538
 20
1.364281385448521
 30
0.0
 10
33.71332882136295
 20
1.555489260607068
 30
0.0
 10
33.39083112483273
 20
1.734491698499914
 30
0.0
  0
SPLINE
  5
A6
330
1F
100
AcDbEntity
  8
외형선
  6
Continuous
 62
     1
370
    15
100
AcDbSpline
210
0.0
220
0.0
230
1.0
 70
     8
 71
     3
 72
    16
 73
    12
 74
     0
 42
0.000000001
 43
0.00000001
 40
0.0
 40
0.0
 40
0.0
 40
0.0
 40
0.1248419185104859
 40
0.2496831532221092
 40
0.3746291823748612
 40
0.4996368168166159
 40
0.6245070778357141
 40
0.7493360735793898
 40
0.8671087235279056
 40
0.9850024825808685
 40
1.0
 40
1.0
 40
1.0
 40
1.0
 10
33.39083112483276
 20
1.734491698499899
 30
0.0
 10
32.79850199733262
 20
2.059244284504079
 30
0.0
 10
31.6138469867072
 20
2.708747677739317
 30
0.0
 10
29.83646918219666
 20
3.600722258693053
 30
0.0
 10
28.05791532048321
 20
4.401764410859318
 30
0.0
 10
26.27889200856489
 20
5.087198478220806
 30
0.0
 10
24.50109032066337
 20
5.639588568801573
 30
0.0
 10
22.75762557929777
 20
6.041175913015699
 30
0.0
 10
21.04725830415735
 20
6.272739556229165
 30
0.0
 10
19.85731253310876
 20
6.368972375827114
 30
0.0
 10
19.22682142458498
 20
6.345532801730616
 30
0.0
 10
19.15566700697594
 20
6.342887515823659
 30
0.0
  0
SPLINE
  5
A7
330
1F
100
AcDbEntity
  8
외형선
  6
Continuous
 62
     1
370
    15
100
AcDbSpline
210
0.0
220
0.0
230
1.0
 70
     8
 71
     3
 72
    36
 73
    32
 74
     0
 42
0.000000001
 43
0.00000001
 40
0.0
 40
0.0
 40
0.0
 40
0.0
 40
0.1249999999999993
 40
0.1249999999999993
 40
0.187499999999999
 40
0.187499999999999
 40
0.2499999999999987
 40
0.2499999999999987
 40
0.3124999999999983
 40
0.3124999999999983
 40
0.374999999999998
 40
0.374999999999998
 40
0.4374999999999977
 40
0.4374999999999977
 40
0.4999999999999973
 40
0.4999999999999973
 40
0.562499999999997
 40
0.562499999999997
 40
0.6249999999999967
 40
0.6249999999999967
 40
0.6874999999999972
 40
0.6874999999999972
 40
0.7499999999999978
 40
0.7499999999999978
 40
0.8124999999999983
 40
0.8124999999999983
 40
0.8749999999999989
 40
0.8749999999999989
 40
0.9374999999999994
 40
0.9374999999999994
 40
1.0
 40
1.0
 40
1.0
 40
1.0
 10
14.34083112483277
 20
6.327723384928754
 30
0.0
 10
15.13028035073194
 20
6.366919359876198
 30
0.0
 10
15.93154111729134
 20
6.356548829601071
 30
0.0
 10
17.11698929306136
 20
6.267072065722154
 30
0.0
 10
17.51528316515424
 20
6.224869620592241
 30
0.0
 10
18.31119367551966
 20
6.116278740789607
 30
0.0
 10
18.7073842427871
 20
6.049987255099103
 30
0.0
 10
19.49847404902931
 20
5.89420726232668
 30
0.0
 10
19.89693817323269
 20
5.804454828647547
 30
0.0
 10
20.69272879200399
 20
5.602663740102911
 30
0.0
 10
21.08818205924059
 20
5.490824959559684
 30
0.0
 10
21.88000415533575
 20
5.246133742044544
 30
0.0
 10
22.27860843590064
 20
5.113013517691121
 30
0.0
 10
23.07421925490184
 20
4.827462159516543
 30
0.0
 10
23.46907827939176
 20
4.675332537403572
 30
0.0
 10
24.26157375021807
 20
4.353112020583976
 30
0.0
 10
24.66028805596295
 20
4.182836305178811
 30
0.0
 10
25.45565921214119
 20
3.826880712383216
 30
0.0
 10
25.85006719960464
 20
3.641577466050728
 30
0.0
 10
26.64317696196754
 20
3.256843484271614
 30
0.0
 10
27.04197113388492
 20
3.057364158365435
 30
0.0
 10
27.83704282431442
 20
2.647650352807748
 30
0.0
 10
28.23114309317377
 20
2.437821862874502
 30
0.0
 10
29.02480791040062
 20
2.008523003127815
 30
0.0
 10
29.42365176927856
 20
1.789159372540811
 30
0.0
 10
30.21836426613303
 20
1.344843175473978
 30
0.0
 10
30.61230021171989
 20
1.12026945389758
 30
0.0
 10
31.40646070833489
 20
0.6664479773739913
 30
0.0
 10
31.80532406238916
 20
0.4374504399902139
 30
0.0
 10
32.59961772787467
 20
-0.0207001395531521
 30
0.0
 10
32.99353278659679
 20
-0.2495586476278771
 30
0.0
 10
33.39083112483272
 20
-0.4781315705313378
 30
0.0
  0
SPLINE
  5
A8
330
1F
100
AcDbEntity
  8
외형선
  6
Continuous
 62
     1
370
    15
100
AcDbSpline
210
0.0
220
0.0
230
1.0
 70
     8
 71
     3
 72
    48
 73
    44
 74
     0
 42
0.000000001
 43
0.00000001
 40
0.0
 40
0.0
 40
0.0
 40
0.0
 40
0.0624999999999998
 40
0.0624999999999998
 40
0.0937499999999986
 40
0.0937499999999986
 40
0.1249999999999974
 40
0.1249999999999974
 40
0.1874999999999971
 40
0.1874999999999971
 40
0.2499999999999968
 40
0.2499999999999968
 40
0.3124999999999964
 40
0.3124999999999964
 40
0.3749999999999961
 40
0.3749999999999961
 40
0.4374999999999957
 40
0.4374999999999957
 40
0.4687499999999956
 40
0.4687499999999956
 40
0.4999999999999954
 40
0.4999999999999954
 40
0.5312499999999953
 40
0.5312499999999953
 40
0.5624999999999952
 40
0.5624999999999952
 40
0.5937499999999951
 40
0.5937499999999951
 40
0.624999999999995
 40
0.624999999999995
 40
0.6874999999999946
 40
0.6874999999999946
 40
0.7499999999999942
 40
0.7499999999999942
 40
0.781249999999995
 40
0.781249999999995
 40
0.8124999999999958
 40
0.8124999999999958
 40
0.8749999999999971
 40
0.8749999999999971
 40
0.9374999999999986
 40
0.9374999999999986
 40
1.0
 40
1.0
 40
1.0
 40
1.0
 10
33.39083112483273
 20
-0.4781315705313458
 30
0.0
 10
33.71347455164553
 20
-0.6637541720495196
 30
0.0
 10
34.03482987288456
 20
-0.8378875463403491
 30
0.0
 10
34.51822201840844
 20
-1.076332751512487
 30
0.0
 10
34.67955883471689
 20
-1.152040890820001
 30
0.0
 10
35.0029650468317
 20
-1.295173886581623
 30
0.0
 10
35.16590598114252
 20
-1.363009412133934
 30
0.0
 10
35.64896938130386
 20
-1.548941574639679
 30
0.0
 10
35.9627006812169
 20
-1.649819083729972
 30
0.0
 10
36.57271084609374
 20
-1.810257955948132
 30
0.0
 10
36.8717375817811
 20
-1.870046150155314
 30
0.0
 10
37.43064959163368
 20
-1.954367597914741
 30
0.0
 10
37.69084428797208
 20
-1.979130914492446
 30
0.0
 10
38.16791651746276
 20
-2.011559344639725
 30
0.0
 10
38.38547365026403
 20
-2.019367436927809
 30
0.0
 10
38.75295010266052
 20
-2.045788413874566
 30
0.0
 10
38.9058820911572
 20
-2.064217390198798
 30
0.0
 10
39.0737824174517
 20
-2.130921644858174
 30
0.0
 10
39.11857004294771
 20
-2.159485526306747
 30
0.0
 10
39.18353004692868
 20
-2.235624466767085
 30
0.0
 10
39.20375117706371
 20
-2.283846866790237
 30
0.0
 10
39.21462371272433
 20
-2.404421930911312
 30
0.0
 10
39.20565041076759
 20
-2.476348652497061
 30
0.0
 10
39.15538287975744
 20
-2.650360095932805
 30
0.0
 10
39.11428753123265
 20
-2.750862660355452
 30
0.0
 10
39.0024746027342
 20
-2.974400041902544
 30
0.0
 10
38.92993115068624
 20
-3.100654175280465
 30
0.0
 10
38.76119336722468
 20
-3.364746036282765
 30
0.0
 10
38.66429882984603
 20
-3.504018822118296
 30
0.0
 10
38.34424638455239
 20
-3.92990130286861
 30
0.0
 10
38.09664170825488
 20
-4.217461188301445
 30
0.0
 10
37.57788668398312
 20
-4.74099000094255
 30
0.0
 10
37.30062674470872
 20
-4.983039932781856
 30
0.0
 10
36.88030783576171
 20
-5.292914378991292
 30
0.0
 10
36.7386312241928
 20
-5.388257274559846
 30
0.0
 10
36.45084381804836
 20
-5.563473969579049
 30
0.0
 10
36.30390165980131
 20
-5.643699708294616
 30
0.0
 10
35.86278096276703
 20
-5.85709179261835
 30
0.0
 10
35.56730005622092
 20
-5.964310217163119
 30
0.0
 10
34.96393036930318
 20
-6.114621572064719
 30
0.0
 10
34.65361545444441
 20
-6.157449588879803
 30
0.0
 10
34.02894890709538
 20
-6.179028316997041
 30
0.0
 10
33.71332882136296
 20
-6.158545018114115
 30
0.0
 10
33.39083112483273
 20
-6.107751988308486
 30
0.0
  0
SPLINE
  5
A9
330
1F
100
AcDbEntity
  8
외형선
  6
Continuous
 62
     1
370
    15
100
AcDbSpline
210
0.0
220
0.0
230
1.0
 70
     8
 71
     3
 72
    36
 73
    32
 74
     0
 42
0.000000001
 43
0.00000001
 40
0.0
 40
0.0
 40
0.0
 40
0.0
 40
0.1250000000000012
 40
0.1250000000000012
 40
0.1875000000000019
 40
0.1875000000000019
 40
0.2500000000000025
 40
0.2500000000000025
 40
0.3125000000000031
 40
0.3125000000000031
 40
0.3750000000000038
 40
0.3750000000000038
 40
0.4375000000000044
 40
0.4375000000000044
 40
0.500000000000005
 40
0.500000000000005
 40
0.5625000000000057
 40
0.5625000000000057
 40
0.6250000000000062
 40
0.6250000000000062
 40
0.6875000000000052
 40
0.6875000000000052
 40
0.7500000000000041
 40
0.7500000000000041
 40
0.8125000000000031
 40
0.8125000000000031
 40
0.8750000000000021
 40
0.8750000000000021
 40
0.937500000000001
 40
0.937500000000001
 40
1.0
 40
1.0
 40
1.0
 40
1.0
 10
14.34083112483277
 20
2.693215027530182
 30
0.0
 10
15.13028035073195
 20
2.278900082864261
 30
0.0
 10
15.93154111729134
 20
1.841381237524194
 30
0.0
 10
17.11698929306136
 20
1.171683280692354
 30
0.0
 10
17.51528316515423
 20
0.9451370342144352
 30
0.0
 10
18.31119367551967
 20
0.4893580892503903
 30
0.0
 10
18.7073842427871
 20
0.2604055671128547
 30
0.0
 10
19.49847404902934
 20
-0.1973674923210569
 30
0.0
 10
19.89693817323272
 20
-0.4268754078262648
 30
0.0
 10
20.692728792004
 20
-0.8831033709977177
 30
0.0
 10
21.0881820592406
 20
-1.109466172539792
 30
0.0
 10
21.88000415533577
 20
-1.557160789170129
 30
0.0
 10
22.27860843590069
 20
-1.778904637152005
 30
0.0
 10
23.0742192549019
 20
-2.214265748746584
 30
0.0
 10
23.46907827939181
 20
-2.427505254142306
 30
0.0
 10
24.26157375021809
 20
-2.844192922850642
 30
0.0
 10
24.66028805596297
 20
-3.047807586217561
 30
0.0
 10
25.45565921214117
 20
-3.441965316419057
 30
0.0
 10
25.85006719960465
 20
-3.63216621777481
 30
0.0
 10
26.64317696196754
 20
-3.998356640163987
 30
0.0
 10
27.04197113388493
 20
-4.174323201377747
 30
0.0
 10
27.83704282431442
 20
-4.508872382202449
 30
0.0
 10
28.23114309317381
 20
-4.667193974228884
 30
0.0
 10
29.02480791040065
 20
-4.965748755895392
 30
0.0
 10
29.42365176927859
 20
-5.105840496087128
 30
0.0
 10
30.21836426613302
 20
-5.365168596135991
 30
0.0
 10
30.61230021171995
 20
-5.484251493376187
 30
0.0
 10
31.40646070833495
 20
-5.701188087961071
 30
0.0
 10
31.80532406238921
 20
-5.798855958586331
 30
0.0
 10
32.59961772787472
 20
-5.970873215005466
 30
0.0
 10
32.99353278659686
 20
-6.045177940329679
 30
0.0
 10
33.39083112483276
 20
-6.1077519883085
 30
0.0
  0
SPLINE
  5
AA
330
1F
100
AcDbEntity
  8
외형선
  6
Continuous
 62
     1
370
    15
100
AcDbSpline
210
0.0
220
0.0
230
1.0
 70
     8
 71
     3
 72
    17
 73
    13
 74
     0
 42
0.000000001
 43
0.00000001
 40
0.0
 40
0.0
 40
0.0
 40
0.0
 40
0.0677408626224136
 40
0.1467838687479104
 40
0.2280778346810889
 40
0.308508488514279
 40
0.3906917754339931
 40
0.5076243572991321
 40
0.6279073041669694
 40
0.7894567980648707
 40
0.9555327066232046
 40
0.9999999999999999
 40
0.9999999999999999
 40
0.9999999999999999
 40
0.9999999999999999
 10
39.04043635378265
 20
2.894055693289448
 30
0.0
 10
39.00865595861751
 20
2.955624854259469
 30
0.0
 10
38.93979280612595
 20
3.089035609494707
 30
0.0
 10
38.7870367632872
 20
3.328617810184492
 30
0.0
 10
38.60268513508124
 20
3.591911439484174
 30
0.0
 10
38.39142720321158
 20
3.865444719789918
 30
0.0
 10
38.12919531677612
 20
4.176561740873306
 30
0.0
 10
37.80732625847151
 20
4.51930731964109
 30
0.0
 10
37.38457626605546
 20
4.915115634859387
 30
0.0
 10
36.88828436121295
 20
5.295757818423583
 30
0.0
 10
36.46711631381893
 20
5.576514325523283
 30
0.0
 10
36.21956152906212
 20
5.677667852126156
 30
0.0
 10
36.16727728934585
 20
5.699031750376993
 30
0.0
  0
LINE
  5
AB
330
1F
100
AcDbEntity
  8
외형선
  6
Continuous
370
    15
100
AcDbLine
 10
14.34083112483277
 20
0.5451514964979557
 30
0.0
 11
14.34083112483277
 21
2.693215027530182
 31
0.0
  0
LINE
  5
AC
330
1F
100
AcDbEntity
  8
외형선
  6
Continuous
370
    15
100
AcDbLine
 10
14.34083112483277
 20
-6.325573527480967
 30
0.0
 11
15.28484345839538
 21
-6.328258687862265
 31
0.0
  0
LINE
  5
AD
330
1F
100
AcDbEntity
  8
외형선
  6
Continuous
370
    15
100
AcDbLine
 10
14.34083112483277
 20
-6.325573527480967
 30
0.0
 11
14.34083112483277
 21
-5.750001639050096
 31
0.0
  0
LINE
  5
AE
330
1F
100
AcDbEntity
  8
외형선
  6
Continuous
370
    15
100
AcDbLine
 10
14.34083112483277
 20
0.0010749287238931
 30
0.0
 11
14.34083112483277
 21
6.351074928723887
 31
0.0
  0
LINE
  5
AF
330
1F
100
AcDbEntity
  8
외형선
  6
Continuous
370
    15
100
AcDbLine
 10
14.34083112483277
 20
-6.348925071276097
 30
0.0
 11
14.34083112483277
 21
0.0010749287238931
 31
0.0
  0
LINE
  5
B0
330
1F
100
AcDbEntity
  8
외형선
  6
Continuous
370
    15
100
AcDbLine
 10
-35.18916887516724
 20
0.0010749287238931
 30
0.0
 11
-35.18916887516724
 21
6.351074928723886
 31
0.0
  0
LINE
  5
B1
330
1F
100
AcDbEntity
  8
외형선
  6
Continuous
370
    15
100
AcDbLine
 10
-35.18916887516724
 20
-6.348925071276096
 30
0.0
 11
-35.18916887516724
 21
0.0010749287238931
 31
0.0
  0
LINE
  5
B2
330
1F
100
AcDbEntity
  8
외형선
  6
Continuous
370
    15
100
AcDbLine
 10
-36.45916887516724
 20
0.0010749287238931
 30
0.0
 11
-36.45916887516724
 21
5.081074928723895
 31
0.0
  0
LINE
  5
B3
330
1F
100
AcDbEntity
  8
외형선
  6
Continuous
370
    15
100
AcDbLine
 10
-36.45916887516724
 20
-5.078925071276108
 30
0.0
 11
-36.45916887516724
 21
0.0010749287238931
 31
0.0
  0
LINE
  5
B4
330
1F
100
AcDbEntity
  8
중심선
 62
     1
100
AcDbLine
 10
-39.45916887516725
 20
0.0010749287238931
 30
0.0
 11
42.74083112483275
 21
0.0010749287238892
 31
0.0
  0
LINE
  5
B5
330
1F
100
AcDbEntity
  8
참조1
100
AcDbLine
 10
-5.044355703302319
 20
-2.498925071276081
 30
0.0
 11
-5.044355703302315
 21
-39.9989250712761
 31
0.0
  0
LINE
  5
B6
330
1F
100
AcDbEntity
  8
참조1
100
AcDbLine
 10
52.10615766425389
 20
0.0010749287238974
 30
0.0
 11
52.10615766425389
 21
1.896976238366589
 31
0.0
  0
LINE
  5
B7
330
1F
100
AcDbEntity
  8
참조1
100
AcDbLine
 10
-5.044355703302315
 20
-39.9989250712761
 30
0.0
 11
-20.20269915005477
 21
-39.9989250712761
 31
0.0
  0
CIRCLE
  5
B8
330
1F
100
AcDbEntity
  8
해칭선
100
AcDbCircle
 10
-0.0000000000000052
 20
0.0
 30
0.0
 40
3.000000000000001
  0
INSERT
  5
B9
330
1F
100
AcDbEntity
  8
0
  6
Continuous
 62
     7
100
AcDbBlockReference
 66
     1
  2
블럭10
 10
-18.98462863542753
 20
-52.04609937292004
 30
0.0
  0
ATTRIB
  5
BA
330
B9
100
AcDbEntity
  8
FORMAT
 62
     2
100
AcDbText
 10
-27.37413396032737
 20
-49.97073246008785
 30
0.0
 40
4.233333333333333
  1
EI106032 [ 4 FLUTE ]
 41
0.75
  7
SLDTEXTSTYLE0
 11
-27.37413396032737
 21
-52.08739912675452
 31
0.0
100
AcDbAttribute
  2
AUTOATTR0
 70
     0
 74
     1
  0
SEQEND
  5
BB
330
B9
100
AcDbEntity
  8
0
  6
Continuous
 62
     7
  0
HATCH
  5
BC
330
1F
100
AcDbEntity
  8
중심선
100
AcDbHatch
 10
0.0
 20
0.0
 30
0.0
210
0.0
220
0.0
230
1.0
  2
SOLID
 70
     1
 71
     0
 91
        1
 92
        0
 93
        4
 72
     1
 10
-13.26971933104667
 20
-35.7989250712761
 11
-16.71599457488396
 21
-35.7989250712761
 72
     1
 10
-16.71599457488396
 20
-35.7989250712761
 11
-18.84422443408798
 21
-38.3352506518487
 72
     1
 10
-18.84422443408798
 20
-38.3352506518487
 11
-15.39791610513755
 21
-38.33521122254621
 72
     1
 10
-15.39791610513755
 20
-38.33521122254621
 11
-13.26971933104667
 21
-35.7989250712761
 97
        0
 75
     0
 76
     1
 98
        1
 10
0.0
 20
0.0
  0
HATCH
  5
BD
330
1F
100
AcDbEntity
  8
중심선
100
AcDbHatch
 10
0.0
 20
0.0
 30
0.0
210
0.0
220
0.0
230
1.0
  2
SOLID
 70
     1
 71
     0
 91
        1
 92
        0
 93
        4
 72
     1
 10
-8.256955340010725
 20
-35.7989250712761
 11
-11.70323058384801
 21
-35.7989250712761
 72
     1
 10
-11.70323058384801
 20
-35.7989250712761
 11
-16.2343685922054
 21
-41.19892507127612
 72
     1
 10
-16.2343685922054
 20
-41.19892507127612
 11
-12.78809334836811
 21
-41.19892507127612
 72
     1
 10
-12.78809334836811
 20
-41.19892507127612
 11
-8.256955340010725
 21
-35.7989250712761
 97
        0
 75
     0
 76
     1
 98
        1
 10
0.0
 20
0.0
  0
HATCH
  5
BE
330
1F
100
AcDbEntity
  8
중심선
100
AcDbHatch
 10
0.0
 20
0.0
 30
0.0
210
0.0
220
0.0
230
1.0
  2
SOLID
 70
     1
 71
     0
 91
        1
 92
        0
 93
        4
 72
     1
 10
-3.244191348974828
 20
-35.79892507127613
 11
-6.690466592811944
 21
-35.7989250712761
 72
     1
 10
-6.690466592811944
 20
-35.7989250712761
 11
-13.73890349470119
 21
-44.19892507127612
 72
     1
 10
-13.73890349470119
 20
-44.19892507127612
 11
-10.29262825086391
 21
-44.19892507127612
 72
     1
 10
-10.29262825086391
 20
-44.19892507127612
 11
-3.244191348974828
 21
-35.79892507127613
 97
        0
 75
     0
 76
     1
 98
        1
 10
0.0
 20
0.0
  0
HATCH
  5
BF
330
1F
100
AcDbEntity
  8
중심선
100
AcDbHatch
 10
0.0
 20
0.0
 30
0.0
210
0.0
220
0.0
230
1.0
  2
SOLID
 70
     1
 71
     0
 91
        1
 92
        0
 93
        6
 72
     3
 10
1.555699082037371
 20
-39.99892507132738
 11
3.960054785062284
 21
1.540850780301639E-10
 40
0.3939339440162633
 50
17.09539180608433
 51
320.0019657685079
 73
     0
 72
     1
 10
3.238698737737966
 20
-38.58681907591441
 11
5.544000611439004
 21
-36.65249236586649
 72
     3
 10
1.555699081984524
 20
-39.99892507127625
 11
6.600054785286829
 21
-1.249000902703301E-13
 40
0.6363583540795982
 50
39.99873849337408
 51
368.4976242363725
 73
     1
 72
     1
 10
7.981031573885133
 20
-39.03892507120613
 11
0.235766388820446
 21
-39.0389250712061
 72
     1
 10
0.2357663888204464
 20
-39.0389250712061
 11
0.2357413443745127
 21
-40.95892507120602
 72
     1
 10
0.2357413443745127
 20
-40.95892507120602
 11
4.67712111384655
 21
-40.95892507120599
 97
        0
 75
     0
 76
     1
 98
        1
 10
0.0
 20
0.0
  0
DIMENSION
  5
C2
330
1F
100
AcDbEntity
  8
치수문자_일반주서
100
AcDbDimension
  2
_D
 10
14.34083112483277
 20
30.93890113070297
 30
0.0
 11
-2.216020680673051
 21
30.93890113070297
 31
0.0
 70
   160
  1
<>
 71
     2
 42
25.39999999999996
  3
SLDDIMSTYLE0
100
AcDbAlignedDimension
 13
39.74083112483272
 23
6.351074928723891
 33
0.0
 14
14.34083112483277
 24
6.351074928723888
 34
0.0
 50
0.000000000000004
100
AcDbRotatedDimension
1001
ACAD
1000
DSTYLE
1002
{
1070
   171
1070
     6
1070
   273
1070
     7
1002
}
  0
DIMENSION
  5
D7
330
1F
100
AcDbEntity
  8
치수문자_일반주서
100
AcDbDimension
  2
_D_1
 10
-36.45916887516725
 20
41.89430621787319
 30
0.0
 11
3.109049054998689
 21
41.89430621787319
 31
0.0
 70
   160
  1
<>
 71
     2
 42
76.19999999999997
  3
SLDDIMSTYLE0
100
AcDbAlignedDimension
 13
39.74083112483272
 23
6.351074928723891
 33
0.0
 14
-36.45916887516725
 24
5.081074928723894
 34
0.0
 50
0.0000000000000053
100
AcDbRotatedDimension
1001
ACAD
1000
DSTYLE
1002
{
1070
   171
1070
     6
1070
   273
1070
     7
1002
}
  0
DIMENSION
  5
EA
330
1F
100
AcDbEntity
  8
치수문자_일반주서
100
AcDbDimension
  2
_D_2
 10
56.95031663807097
 20
-6.348925071276042
 30
0.0
 11
56.95031663807087
 21
22.99682492872397
 31
0.0
 70
   160
  1
%%c<>
 71
     2
 42
12.70000000000001
 52
-270.0
  3
SLDDIMSTYLE0
100
AcDbAlignedDimension
 13
39.67833112483262
 23
6.351074928723909
 33
0.0
 14
39.67833112483272
 24
-6.348925071276105
 34
0.0
 50
90.0000000000002
100
AcDbRotatedDimension
1001
ACAD
1000
DSTYLE
1002
{
1070
   171
1070
     6
1070
   273
1070
     7
1002
}
1001
ACAD_DSTYLE_DIMFLIPARROW_SYMBOL
1070
   385
1070
     0
1001
ACAD_DSTYLE_DIMFLIPARROW_WHICH_SYMBOL
1070
   386
1070
     3
  0
DIMENSION
  5
FD
330
1F
100
AcDbEntity
  8
치수문자_일반주서
100
AcDbDimension
  2
_D_3
 10
-48.20902804451182
 20
-6.348925071276152
 30
0.0
 11
-48.20902804451192
 21
26.29882492872384
 31
0.0
 70
   160
  1
%%c<>
 71
     2
 42
12.69999999999999
 52
-270.0
  3
SLDDIMSTYLE1
100
AcDbAlignedDimension
 13
-35.18916887516724
 23
6.351074928723888
 33
0.0
 14
-35.18916887516724
 24
-6.348925071276101
 34
0.0
 50
90.0000000000002
100
AcDbRotatedDimension
1001
ACAD
1000
DSTYLE
1002
{
1070
   171
1070
     6
1070
   273
1070
     7
1002
}
  0
LINE
  5
112
330
1F
100
AcDbEntity
  8
참조1
100
AcDbLine
 10
77.7696414795995
 20
7.441074928723896
 30
0.0
 11
77.7696414795995
 21
-7.438925071276109
 31
0.0
  0
LINE
  5
113
330
1F
100
AcDbEntity
  8
참조1
100
AcDbLine
 10
90.4696414795995
 20
5.441074928723896
 30
0.0
 11
77.7696414795995
 21
5.441074928723896
 31
0.0
  0
SOLID
  5
114
330
1F
100
AcDbEntity
  8
참조1
100
AcDbTrace
 10
77.7696414795995
 20
5.441074928723896
 30
0.0
 11
84.1196414795995
 21
4.425074928723896
 31
0.0
 12
84.1196414795995
 22
6.457074928723896
 32
0.0
 13
84.1196414795995
 23
6.457074928723896
 33
0.0
  0
LINE
  5
115
330
1F
100
AcDbEntity
  8
참조1
100
AcDbLine
 10
90.4696414795995
 20
-5.438925071276109
 30
0.0
 11
77.7696414795995
 21
-5.438925071276109
 31
0.0
  0
SOLID
  5
116
330
1F
100
AcDbEntity
  8
참조1
100
AcDbTrace
 10
77.7696414795995
 20
-5.438925071276109
 30
0.0
 11
84.1196414795995
 21
-6.454925071276109
 31
0.0
 12
84.1196414795995
 22
-4.422925071276109
 32
0.0
 13
84.1196414795995
 23
-4.422925071276109
 33
0.0
  0
MTEXT
  5
117
330
1F
100
AcDbEntity
  8
참조1
100
AcDbMText
 10
87.36975629016207
 20
11.06679249473997
 30
0.0
 40
3.5
 41
0.0
 71
     1
 72
     1
  1
A
  7
SLDTEXTSTYLE0
 73
     1
 44
1.0
  0
MTEXT
  5
118
330
1F
100
AcDbEntity
  8
참조1
100
AcDbMText
 10
87.36975629016207
 20
0.1867924947399659
 30
0.0
 40
3.5
 41
0.0
 71
     1
 72
     1
  1
A
  7
SLDTEXTSTYLE0
 73
     1
 44
1.0
  0
INSERT
  5
11F
330
1F
100
AcDbEntity
  8
해칭선
100
AcDbBlockReference
  2
SW_DOWELSYMBOL_0
 10
-0.0000000000000052
 20
0.0
 30
0.0
  0
ENDSEC
  0
SECTION
  2
OBJECTS
  0
DICTIONARY
  5
C
330
0
100
AcDbDictionary
281
     1
  3
ACAD_GROUP
350
D
  3
ACAD_IMAGE_VARS
350
143
  3
ACAD_LAYOUT
350
1A
  3
ACAD_MLINESTYLE
350
17
  3
ACAD_PLOTSETTINGS
350
19
  3
ACAD_PLOTSTYLENAME
350
E
  3
ACAD_SCALELIST
350
47
  3
APPDATA
350
141
  3
DWGPROPS
350
14D
  0
DICTIONARY
  5
D
102
{ACAD_REACTORS
330
C
102
}
330
C
100
AcDbDictionary
281
     1
  0
RASTERVARIABLES
  5
143
102
{ACAD_REACTORS
330
C
102
}
330
C
100
AcDbRasterVariables
 90
        0
 70
     1
 71
     1
 72
     1
  0
DICTIONARY
  5
1A
102
{ACAD_REACTORS
330
C
102
}
330
C
100
AcDbDictionary
281
     1
  3
Layout1
350
1E
  3
Layout2
350
26
  3
Model
350
22
  0
DICTIONARY
  5
17
102
{ACAD_REACTORS
330
C
102
}
330
C
100
AcDbDictionary
281
     1
  3
Standard
350
18
  0
DICTIONARY
  5
19
102
{ACAD_REACTORS
330
C
102
}
330
C
100
AcDbDictionary
281
     1
  0
ACDBDICTIONARYWDFLT
  5
E
102
{ACAD_REACTORS
330
C
102
}
330
C
100
AcDbDictionary
281
     1
  3
Normal
350
F
100
AcDbDictionaryWithDefault
340
F
  0
DICTIONARY
  5
47
102
{ACAD_REACTORS
330
C
102
}
330
C
100
AcDbDictionary
281
     1
  3
A0
350
48
  3
A1
350
49
  3
A2
350
4A
  3
A3
350
4B
  3
A4
350
4C
  3
A5
350
4D
  3
A6
350
4E
  3
A7
350
4F
  3
A8
350
50
  3
A9
350
51
  3
B0
350
52
  3
B1
350
53
  3
B2
350
54
  3
B3
350
55
  3
B4
350
56
  3
B5
350
57
  3
B6
350
58
  3
B7
350
59
  3
B8
350
5A
  3
B9
350
5B
  3
C0
350
5C
  3
C1
350
5D
  3
C2
350
5E
  3
C3
350
5F
  3
C4
350
60
  3
C5
350
61
  3
C6
350
62
  3
C7
350
63
  3
C8
350
64
  3
C9
350
65
  3
D0
350
66
  3
D1
350
67
  3
D2
350
68
  0
DICTIONARY
  5
141
102
{ACAD_REACTORS
330
C
102
}
330
C
100
AcDbDictionary
281
     1
  0
XRECORD
  5
14D
102
{ACAD_REACTORS
330
C
102
}
330
C
100
AcDbXrecord
280
     1
  1
DWGPROPS COOKIE
  2

  3

  4

  6

  7

  8
12015048
  9

300
=
301
=
302
=
303
=
304
=
305
=
306
=
307
=
308
=
309
=
 40
0.0
 41
2458270.321763044
 42
2458274.266233403
  1

 90
        0
  0
LAYOUT
  5
1E
102
{ACAD_REACTORS
330
1A
102
}
330
1A
100
AcDbPlotSettings
  1

  2
none_device
  4

  6

 40
0.0
 41
0.0
 42
0.0
 43
0.0
 44
0.0
 45
0.0
 46
0.0
 47
0.0
 48
0.0
 49
0.0
140
0.0
141
0.0
142
1.0
143
1.0
 70
   688
 72
     1
 73
     0
 74
     5
  7

 75
    16
147
1.0
148
0.0
149
0.0
100
AcDbLayout
  1
Layout1
 70
     1
 71
     1
 10
0.0
 20
0.0
 11
420.0
 21
297.0
 12
0.0
 22
0.0
 32
0.0
 14
1.000000000000000E+20
 24
1.000000000000000E+20
 34
1.000000000000000E+20
 15
-1.000000000000000E+20
 25
-1.000000000000000E+20
 35
-1.000000000000000E+20
146
0.0
 13
0.0
 23
0.0
 33
0.0
 16
1.0
 26
0.0
 36
0.0
 17
0.0
 27
1.0
 37
0.0
 76
     0
330
1B
  0
LAYOUT
  5
26
102
{ACAD_REACTORS
330
1A
102
}
330
1A
100
AcDbPlotSettings
  1

  2
none_device
  4

  6

 40
0.0
 41
0.0
 42
0.0
 43
0.0
 44
0.0
 45
0.0
 46
0.0
 47
0.0
 48
0.0
 49
0.0
140
0.0
141
0.0
142
1.0
143
1.0
 70
   688
 72
     1
 73
     0
 74
     5
  7

 75
    16
147
1.0
148
0.0
149
0.0
100
AcDbLayout
  1
Layout2
 70
     1
 71
     2
 10
0.0
 20
0.0
 11
0.0
 21
0.0
 12
0.0
 22
0.0
 32
0.0
 14
0.0
 24
0.0
 34
0.0
 15
0.0
 25
0.0
 35
0.0
146
0.0
 13
0.0
 23
0.0
 33
0.0
 16
1.0
 26
0.0
 36
0.0
 17
0.0
 27
1.0
 37
0.0
 76
     0
330
23
  0
LAYOUT
  5
22
102
{ACAD_REACTORS
330
1A
102
}
330
1A
100
AcDbPlotSettings
  1

  2
none_device
  4
ANSI_A_(11.00_x_8.50_Inches)
  6

 40
6.35
 41
19.05
 42
6.35000508
 43
19.05000254
 44
279.4
 45
215.9
 46
90.07770012088267
 47
82.16129820178105
 48
0.0
 49
0.0
140
0.0
141
0.0
142
0.0777328263733235
143
1.0
 70
  1696
 72
     0
 73
     0
 74
     0
  7

 75
     0
147
0.0235690232323232
148
0.0
149
0.0
100
AcDbLayout
  1
Model
 70
     1
 71
     0
 10
0.0
 20
0.0
 11
420.0
 21
297.0
 12
0.0
 22
0.0
 32
0.0
 14
-52.58402804451197
 24
-49.97073246008785
 34
0.0
 15
90.4696414795995
 25
46.26930621787319
 35
0.0
146
0.0
 13
0.0
 23
0.0
 33
0.0
 16
1.0
 26
0.0
 36
0.0
 17
0.0
 27
1.0
 37
0.0
 76
     0
330
1F
331
29
  0
MLINESTYLE
  5
18
102
{ACAD_REACTORS
330
17
102
}
330
17
100
AcDbMlineStyle
  2
Standard
 70
     0
  3

 62
   256
 51
90.0
 52
90.0
 71
     2
 49
0.5
 62
   256
  6
BYLAYER
 49
-0.5
 62
   256
  6
BYLAYER
  0
ACDBPLACEHOLDER
  5
F
102
{ACAD_REACTORS
330
E
102
}
330
E
  0
SCALE
  5
48
102
{ACAD_REACTORS
330
47
102
}
330
47
100
AcDbScale
 70
     0
300
1:1
140
1.0
141
1.0
290
     1
  0
SCALE
  5
49
102
{ACAD_REACTORS
330
47
102
}
330
47
100
AcDbScale
 70
     0
300
1:2
140
1.0
141
2.0
290
     0
  0
SCALE
  5
4A
102
{ACAD_REACTORS
330
47
102
}
330
47
100
AcDbScale
 70
     0
300
1:4
140
1.0
141
4.0
290
     0
  0
SCALE
  5
4B
102
{ACAD_REACTORS
330
47
102
}
330
47
100
AcDbScale
 70
     0
300
1:5
140
1.0
141
5.0
290
     0
  0
SCALE
  5
4C
102
{ACAD_REACTORS
330
47
102
}
330
47
100
AcDbScale
 70
     0
300
1:8
140
1.0
141
8.0
290
     0
  0
SCALE
  5
4D
102
{ACAD_REACTORS
330
47
102
}
330
47
100
AcDbScale
 70
     0
300
1:10
140
1.0
141
10.0
290
     0
  0
SCALE
  5
4E
102
{ACAD_REACTORS
330
47
102
}
330
47
100
AcDbScale
 70
     0
300
1:16
140
1.0
141
16.0
290
     0
  0
SCALE
  5
4F
102
{ACAD_REACTORS
330
47
102
}
330
47
100
AcDbScale
 70
     0
300
1:20
140
1.0
141
20.0
290
     0
  0
SCALE
  5
50
102
{ACAD_REACTORS
330
47
102
}
330
47
100
AcDbScale
 70
     0
300
1:30
140
1.0
141
30.0
290
     0
  0
SCALE
  5
51
102
{ACAD_REACTORS
330
47
102
}
330
47
100
AcDbScale
 70
     0
300
1:40
140
1.0
141
40.0
290
     0
  0
SCALE
  5
52
102
{ACAD_REACTORS
330
47
102
}
330
47
100
AcDbScale
 70
     0
300
1:50
140
1.0
141
50.0
290
     0
  0
SCALE
  5
53
102
{ACAD_REACTORS
330
47
102
}
330
47
100
AcDbScale
 70
     0
300
1:100
140
1.0
141
100.0
290
     0
  0
SCALE
  5
54
102
{ACAD_REACTORS
330
47
102
}
330
47
100
AcDbScale
 70
     0
300
2:1
140
2.0
141
1.0
290
     0
  0
SCALE
  5
55
102
{ACAD_REACTORS
330
47
102
}
330
47
100
AcDbScale
 70
     0
300
4:1
140
4.0
141
1.0
290
     0
  0
SCALE
  5
56
102
{ACAD_REACTORS
330
47
102
}
330
47
100
AcDbScale
 70
     0
300
8:1
140
8.0
141
1.0
290
     0
  0
SCALE
  5
57
102
{ACAD_REACTORS
330
47
102
}
330
47
100
AcDbScale
 70
     0
300
10:1
140
10.0
141
1.0
290
     0
  0
SCALE
  5
58
102
{ACAD_REACTORS
330
47
102
}
330
47
100
AcDbScale
 70
     0
300
100:1
140
100.0
141
1.0
290
     0
  0
SCALE
  5
59
102
{ACAD_REACTORS
330
47
102
}
330
47
100
AcDbScale
 70
     0
300
1/128" = 1'-0"
140
0.0078125
141
12.0
290
     0
  0
SCALE
  5
5A
102
{ACAD_REACTORS
330
47
102
}
330
47
100
AcDbScale
 70
     0
300
1/64" = 1'-0"
140
0.015625
141
12.0
290
     0
  0
SCALE
  5
5B
102
{ACAD_REACTORS
330
47
102
}
330
47
100
AcDbScale
 70
     0
300
1/32" = 1'-0"
140
0.03125
141
12.0
290
     0
  0
SCALE
  5
5C
102
{ACAD_REACTORS
330
47
102
}
330
47
100
AcDbScale
 70
     0
300
1/16" = 1'-0"
140
0.0625
141
12.0
290
     0
  0
SCALE
  5
5D
102
{ACAD_REACTORS
330
47
102
}
330
47
100
AcDbScale
 70
     0
300
3/32" = 1'-0"
140
0.09375
141
12.0
290
     0
  0
SCALE
  5
5E
102
{ACAD_REACTORS
330
47
102
}
330
47
100
AcDbScale
 70
     0
300
1/8" = 1'-0"
140
0.125
141
12.0
290
     0
  0
SCALE
  5
5F
102
{ACAD_REACTORS
330
47
102
}
330
47
100
AcDbScale
 70
     0
300
3/16" = 1'-0"
140
0.1875
141
12.0
290
     0
  0
SCALE
  5
60
102
{ACAD_REACTORS
330
47
102
}
330
47
100
AcDbScale
 70
     0
300
1/4" = 1'-0"
140
0.25
141
12.0
290
     0
  0
SCALE
  5
61
102
{ACAD_REACTORS
330
47
102
}
330
47
100
AcDbScale
 70
     0
300
3/8" = 1'-0"
140
0.375
141
12.0
290
     0
  0
SCALE
  5
62
102
{ACAD_REACTORS
330
47
102
}
330
47
100
AcDbScale
 70
     0
300
1/2" = 1'-0"
140
0.5
141
12.0
290
     0
  0
SCALE
  5
63
102
{ACAD_REACTORS
330
47
102
}
330
47
100
AcDbScale
 70
     0
300
3/4" = 1'-0"
140
0.75
141
12.0
290
     0
  0
SCALE
  5
64
102
{ACAD_REACTORS
330
47
102
}
330
47
100
AcDbScale
 70
     0
300
1" = 1'-0"
140
1.0
141
12.0
290
     0
  0
SCALE
  5
65
102
{ACAD_REACTORS
330
47
102
}
330
47
100
AcDbScale
 70
     0
300
1-1/2" = 1'-0"
140
1.5
141
12.0
290
     0
  0
SCALE
  5
66
102
{ACAD_REACTORS
330
47
102
}
330
47
100
AcDbScale
 70
     0
300
3" = 1'-0"
140
3.0
141
12.0
290
     0
  0
SCALE
  5
67
102
{ACAD_REACTORS
330
47
102
}
330
47
100
AcDbScale
 70
     0
300
6" = 1'-0"
140
6.0
141
12.0
290
     0
  0
SCALE
  5
68
102
{ACAD_REACTORS
330
47
102
}
330
47
100
AcDbScale
 70
     0
300
1'-0" = 1'-0"
140
12.0
141
12.0
290
     0
  0
ENDSEC
  0
EOF
