  0
SECTION
  2
HEADER
  9
$ACADVER
  1
AC1015
  9
$ACADMAINTVER
 70
     6
  9
$DWGCODEPAGE
  3
ANSI_949
  9
$INSBASE
 10
0.0
 20
0.0
 30
0.0
  9
$EXTMIN
 10
-54.80766190202894
 20
-49.97073246008785
 30
0.0
  9
$EXTMAX
 10
92.81348381534559
 20
44.01757492872385
 30
0.0
  9
$LIMMIN
 10
0.0
 20
0.0
  9
$LIMMAX
 10
420.0
 20
297.0
  9
$ORTHOMODE
 70
     1
  9
$REGENMODE
 70
     1
  9
$FILLMODE
 70
     1
  9
$QTEXTMODE
 70
     0
  9
$MIRRTEXT
 70
     1
  9
$LTSCALE
 40
1.0
  9
$ATTMODE
 70
     1
  9
$TEXTSIZE
 40
3.5
  9
$TRACEWID
 40
1.0
  9
$TEXTSTYLE
  7
Standard
  9
$CLAYER
  8
0
  9
$CELTYPE
  6
ByLayer
  9
$CECOLOR
 62
   256
  9
$CELTSCALE
 40
1.0
  9
$DISPSILH
 70
     0
  9
$DIMSCALE
 40
1.0
  9
$DIMASZ
 40
3.302
  9
$DIMEXO
 40
1.0
  9
$DIMDLI
 40
3.75
  9
$DIMRND
 40
0.0
  9
$DIMDLE
 40
0.0
  9
$DIMEXE
 40
1.0
  9
$DIMTP
 40
0.0
  9
$DIMTM
 40
0.0
  9
$DIMTXT
 40
3.5
  9
$DIMCEN
 40
2.5
  9
$DIMTSZ
 40
0.0
  9
$DIMTOL
 70
     0
  9
$DIMLIM
 70
     0
  9
$DIMTIH
 70
     1
  9
$DIMTOH
 70
     1
  9
$DIMSE1
 70
     0
  9
$DIMSE2
 70
     0
  9
$DIMTAD
 70
     1
  9
$DIMZIN
 70
     0
  9
$DIMBLK
  1

  9
$DIMASO
 70
     1
  9
$DIMSHO
 70
     1
  9
$DIMPOST
  1

  9
$DIMAPOST
  1

  9
$DIMALT
 70
     0
  9
$DIMALTD
 70
     3
  9
$DIMALTF
 40
0.0393700787401575
  9
$DIMLFAC
 40
1.0
  9
$DIMTOFL
 70
     1
  9
$DIMTVP
 40
0.0
  9
$DIMTIX
 70
     0
  9
$DIMSOXD
 70
     0
  9
$DIMSAH
 70
     0
  9
$DIMBLK1
  1

  9
$DIMBLK2
  1

  9
$DIMSTYLE
  2
ISO-25
  9
$DIMCLRD
 70
     0
  9
$DIMCLRE
 70
     0
  9
$DIMCLRT
 70
     0
  9
$DIMTFAC
 40
1.0
  9
$DIMGAP
 40
1.524
  9
$DIMJUST
 70
     0
  9
$DIMSD1
 70
     0
  9
$DIMSD2
 70
     0
  9
$DIMTOLJ
 70
     0
  9
$DIMTZIN
 70
     0
  9
$DIMALTZ
 70
     0
  9
$DIMALTTZ
 70
     0
  9
$DIMUPT
 70
     0
  9
$DIMDEC
 70
     2
  9
$DIMTDEC
 70
     2
  9
$DIMALTU
 70
     2
  9
$DIMALTTD
 70
     3
  9
$DIMTXSTY
  7
Standard
  9
$DIMAUNIT
 70
     0
  9
$DIMADEC
 70
     2
  9
$DIMALTRND
 40
0.0
  9
$DIMAZIN
 70
     0
  9
$DIMDSEP
 70
    44
  9
$DIMATFIT
 70
     3
  9
$DIMFRAC
 70
     0
  9
$DIMLDRBLK
  1

  9
$DIMLUNIT
 70
     2
  9
$DIMLWD
 70
    -2
  9
$DIMLWE
 70
    -2
  9
$DIMTMOVE
 70
     0
  9
$LUNITS
 70
     2
  9
$LUPREC
 70
     2
  9
$SKETCHINC
 40
1.0
  9
$FILLETRAD
 40
10.0
  9
$AUNITS
 70
     0
  9
$AUPREC
 70
     2
  9
$MENU
  1
.
  9
$ELEVATION
 40
0.0
  9
$PELEVATION
 40
0.0
  9
$THICKNESS
 40
0.0
  9
$LIMCHECK
 70
     0
  9
$CHAMFERA
 40
0.0
  9
$CHAMFERB
 40
0.0
  9
$CHAMFERC
 40
0.0
  9
$CHAMFERD
 40
0.0
  9
$SKPOLY
 70
     0
  9
$TDCREATE
 40
2458270.684152975
  9
$TDUCREATE
 40
2458270.309152975
  9
$TDUPDATE
 40
2458275.43763456
  9
$TDUUPDATE
 40
2458275.06263456
  9
$TDINDWG
 40
0.0016785301
  9
$TDUSRTIMER
 40
2458275.062086342
  9
$USRTIMER
 70
     1
  9
$ANGBASE
 50
0.0
  9
$ANGDIR
 70
     0
  9
$PDMODE
 70
     0
  9
$PDSIZE
 40
-1.0
  9
$PLINEWID
 40
0.0
  9
$SPLFRAME
 70
     0
  9
$SPLINETYPE
 70
     6
  9
$SPLINESEGS
 70
     8
  9
$HANDSEED
  5
406
  9
$SURFTAB1
 70
     6
  9
$SURFTAB2
 70
     6
  9
$SURFTYPE
 70
     6
  9
$SURFU
 70
     6
  9
$SURFV
 70
     6
  9
$UCSBASE
  2

  9
$UCSNAME
  2

  9
$UCSORG
 10
0.0
 20
0.0
 30
0.0
  9
$UCSXDIR
 10
1.0
 20
0.0
 30
0.0
  9
$UCSYDIR
 10
0.0
 20
1.0
 30
0.0
  9
$UCSORTHOREF
  2

  9
$UCSORTHOVIEW
 70
     0
  9
$UCSORGTOP
 10
0.0
 20
0.0
 30
0.0
  9
$UCSORGBOTTOM
 10
0.0
 20
0.0
 30
0.0
  9
$UCSORGLEFT
 10
0.0
 20
0.0
 30
0.0
  9
$UCSORGRIGHT
 10
0.0
 20
0.0
 30
0.0
  9
$UCSORGFRONT
 10
0.0
 20
0.0
 30
0.0
  9
$UCSORGBACK
 10
0.0
 20
0.0
 30
0.0
  9
$PUCSBASE
  2

  9
$PUCSNAME
  2

  9
$PUCSORG
 10
0.0
 20
0.0
 30
0.0
  9
$PUCSXDIR
 10
1.0
 20
0.0
 30
0.0
  9
$PUCSYDIR
 10
0.0
 20
1.0
 30
0.0
  9
$PUCSORTHOREF
  2

  9
$PUCSORTHOVIEW
 70
     0
  9
$PUCSORGTOP
 10
0.0
 20
0.0
 30
0.0
  9
$PUCSORGBOTTOM
 10
0.0
 20
0.0
 30
0.0
  9
$PUCSORGLEFT
 10
0.0
 20
0.0
 30
0.0
  9
$PUCSORGRIGHT
 10
0.0
 20
0.0
 30
0.0
  9
$PUCSORGFRONT
 10
0.0
 20
0.0
 30
0.0
  9
$PUCSORGBACK
 10
0.0
 20
0.0
 30
0.0
  9
$USERI1
 70
     0
  9
$USERI2
 70
     0
  9
$USERI3
 70
     0
  9
$USERI4
 70
     0
  9
$USERI5
 70
     0
  9
$USERR1
 40
0.0
  9
$USERR2
 40
0.0
  9
$USERR3
 40
0.0
  9
$USERR4
 40
0.0
  9
$USERR5
 40
0.0
  9
$WORLDVIEW
 70
     1
  9
$SHADEDGE
 70
     3
  9
$SHADEDIF
 70
    70
  9
$TILEMODE
 70
     1
  9
$MAXACTVP
 70
    64
  9
$PINSBASE
 10
0.0
 20
0.0
 30
0.0
  9
$PLIMCHECK
 70
     0
  9
$PEXTMIN
 10
1.000000000000000E+20
 20
1.000000000000000E+20
 30
1.000000000000000E+20
  9
$PEXTMAX
 10
-1.000000000000000E+20
 20
-1.000000000000000E+20
 30
-1.000000000000000E+20
  9
$PLIMMIN
 10
0.0
 20
0.0
  9
$PLIMMAX
 10
0.0
 20
0.0
  9
$UNITMODE
 70
     0
  9
$VISRETAIN
 70
     1
  9
$PLINEGEN
 70
     0
  9
$PSLTSCALE
 70
     1
  9
$TREEDEPTH
 70
  3020
  9
$CMLSTYLE
  2
Standard
  9
$CMLJUST
 70
     0
  9
$CMLSCALE
 40
20.0
  9
$PROXYGRAPHICS
 70
     1
  9
$MEASUREMENT
 70
     1
  9
$CELWEIGHT
370
    -1
  9
$ENDCAPS
280
     0
  9
$JOINSTYLE
280
     0
  9
$LWDISPLAY
290
     1
  9
$INSUNITS
 70
     4
  9
$HYPERLINKBASE
  1

  9
$STYLESHEET
  1

  9
$XEDIT
290
     1
  9
$CEPSNTYPE
380
     0
  9
$PSTYLEMODE
290
     1
  9
$FINGERPRINTGUID
  2
{739F58B2-AEA4-44B5-A0AF-D733BDA67BC9}
  9
$VERSIONGUID
  2
{FAEB1C32-E019-11D5-929B-00C0DF256EC4}
  9
$EXTNAMES
290
     1
  9
$PSVPSCALE
 40
0.0
  9
$OLESTARTUP
290
     0
  0
ENDSEC
  0
SECTION
  2
CLASSES
  0
CLASS
  1
ACDBDICTIONARYWDFLT
  2
AcDbDictionaryWithDefault
  3
ObjectDBX Classes
 90
        0
280
     0
281
     0
  0
CLASS
  1
VISUALSTYLE
  2
AcDbVisualStyle
  3
ObjectDBX Classes
 90
     4095
280
     0
281
     0
  0
CLASS
  1
MATERIAL
  2
AcDbMaterial
  3
ObjectDBX Classes
 90
     1153
280
     0
281
     0
  0
CLASS
  1
SCALE
  2
AcDbScale
  3
ObjectDBX Classes
 90
     1153
280
     0
281
     0
  0
CLASS
  1
SUN
  2
AcDbSun
  3
SCENEOE
 90
     1153
280
     0
281
     0
  0
CLASS
  1
ACDBPLACEHOLDER
  2
AcDbPlaceHolder
  3
ObjectDBX Classes
 90
        0
280
     0
281
     0
  0
CLASS
  1
LAYOUT
  2
AcDbLayout
  3
ObjectDBX Classes
 90
        0
280
     0
281
     0
  0
CLASS
  1
TABLESTYLE
  2
AcDbTableStyle
  3
ObjectDBX Classes
 90
     4095
280
     0
281
     0
  0
CLASS
  1
MLEADERSTYLE
  2
AcDbMLeaderStyle
  3
ACDB_MLEADERSTYLE_CLASS
 90
     4095
280
     0
281
     0
  0
CLASS
  1
RASTERVARIABLES
  2
AcDbRasterVariables
  3
ISM
 90
        0
280
     0
281
     0
  0
ENDSEC
  0
SECTION
  2
TABLES
  0
TABLE
  2
VPORT
  5
8
330
0
100
AcDbSymbolTable
 70
     1
  0
VPORT
  5
29
330
8
100
AcDbSymbolTableRecord
100
AcDbViewportTableRecord
  2
*Active
 70
     0
 10
0.0
 20
0.0
 11
1.0
 21
1.0
 12
-25.89591369807329
 22
-3.330050494450022
 13
0.0
 23
0.0
 14
10.0
 24
10.0
 15
10.0
 25
10.0
 16
0.0
 26
0.0
 36
1.0
 17
0.0
 27
0.0
 37
0.0
 40
173.8453408990271
 41
1.515444015444016
 42
50.0
 43
0.0
 44
0.0
 50
0.0
 51
0.0
 71
    16
 72
  2000
 73
     1
 74
     3
 75
     0
 76
     0
 77
     0
 78
     0
281
     0
 65
     1
110
0.0
120
0.0
130
0.0
111
1.0
121
0.0
131
0.0
112
0.0
122
1.0
132
0.0
 79
     0
146
0.0
  0
ENDTAB
  0
TABLE
  2
LTYPE
  5
5
330
0
100
AcDbSymbolTable
 70
     6
  0
LTYPE
  5
14
330
5
100
AcDbSymbolTableRecord
100
AcDbLinetypeTableRecord
  2
ByBlock
 70
     0
  3

 72
    65
 73
     0
 40
0.0
  0
LTYPE
  5
15
330
5
100
AcDbSymbolTableRecord
100
AcDbLinetypeTableRecord
  2
ByLayer
 70
     0
  3

 72
    65
 73
     0
 40
0.0
  0
LTYPE
  5
16
330
5
100
AcDbSymbolTableRecord
100
AcDbLinetypeTableRecord
  2
Continuous
 70
     0
  3
Solid line
 72
    65
 73
     0
 40
0.0
  0
LTYPE
  5
6A
330
5
100
AcDbSymbolTableRecord
100
AcDbLinetypeTableRecord
  2
HIDDEN
 70
     0
  3
Hidden __ __ __ __ __ __ __ __ __ __ __ __ __ __
 72
    65
 73
     2
 40
1.905
 49
1.27
 74
     0
 49
-0.635
 74
     0
  0
LTYPE
  5
6B
330
5
100
AcDbSymbolTableRecord
100
AcDbLinetypeTableRecord
  2
PHANTOM
 70
     0
  3
Phantom ______  __  __  ______  __  __  ______
 72
    65
 73
     6
 40
12.7
 49
6.35
 74
     0
 49
-1.27
 74
     0
 49
1.27
 74
     0
 49
-1.27
 74
     0
 49
1.27
 74
     0
 49
-1.27
 74
     0
  0
LTYPE
  5
6C
330
5
100
AcDbSymbolTableRecord
100
AcDbLinetypeTableRecord
  2
CENTER
 70
     0
  3
Center ____ _ ____ _ ____ _ ____ _ ____ _ ____
 72
    65
 73
     4
 40
10.16
 49
6.35
 74
     0
 49
-1.27
 74
     0
 49
1.27
 74
     0
 49
-1.27
 74
     0
  0
LTYPE
  5
6D
330
5
100
AcDbSymbolTableRecord
100
AcDbLinetypeTableRecord
  2
CENTERX2
 70
     0
  3
Center (2x) ________  __  ________  __  _____
 72
    65
 73
     4
 40
20.32
 49
12.7
 74
     0
 49
-2.54
 74
     0
 49
2.54
 74
     0
 49
-2.54
 74
     0
  0
LTYPE
  5
6E
330
5
100
AcDbSymbolTableRecord
100
AcDbLinetypeTableRecord
  2
DOT2
 70
     0
  3
Dot (.5x) ........................................
 72
    65
 73
     2
 40
0.635
 49
0.0
 74
     0
 49
-0.635
 74
     0
  0
ENDTAB
  0
TABLE
  2
LAYER
  5
2
330
0
100
AcDbSymbolTable
 70
    18
  0
LAYER
  5
10
330
2
100
AcDbSymbolTableRecord
100
AcDbLayerTableRecord
  2
0
 70
     0
 62
     7
  6
Continuous
370
    -3
390
F
  0
LAYER
  5
6F
330
2
100
AcDbSymbolTableRecord
100
AcDbLayerTableRecord
  2
FORMAT
 70
     0
 62
     2
  6
Continuous
370
    -3
390
F
  0
LAYER
  5
70
330
2
100
AcDbSymbolTableRecord
100
AcDbLayerTableRecord
  2
외형선
 70
     0
 62
     4
  6
Continuous
370
    30
390
F
  0
LAYER
  5
71
330
2
100
AcDbSymbolTableRecord
100
AcDbLayerTableRecord
  2
숨은선
 70
     0
 62
     2
  6
HIDDEN
370
    15
390
F
  0
LAYER
  5
72
330
2
100
AcDbSymbolTableRecord
100
AcDbLayerTableRecord
  2
중심선
 70
     0
 62
     1
  6
CENTERX2
370
    -3
390
F
  0
LAYER
  5
73
330
2
100
AcDbSymbolTableRecord
100
AcDbLayerTableRecord
  2
파단선
 70
     0
 62
     4
  6
Continuous
370
    -3
390
F
  0
LAYER
  5
74
330
2
100
AcDbSymbolTableRecord
100
AcDbLayerTableRecord
  2
해칭선
 70
     0
 62
   100
  6
Continuous
370
    -3
390
F
  0
LAYER
  5
75
330
2
100
AcDbSymbolTableRecord
100
AcDbLayerTableRecord
  2
가는실선
 70
     0
 62
     4
  6
Continuous
370
    -3
390
F
  0
LAYER
  5
76
330
2
100
AcDbSymbolTableRecord
100
AcDbLayerTableRecord
  2
치수_보조선
 70
     0
 62
     4
  6
Continuous
370
    -3
390
F
  0
LAYER
  5
77
330
2
100
AcDbSymbolTableRecord
100
AcDbLayerTableRecord
  2
치수문자_일반주서
 70
     0
 62
     7
  6
Continuous
370
    15
390
F
  0
LAYER
  5
78
330
2
100
AcDbSymbolTableRecord
100
AcDbLayerTableRecord
  2
개별주서
 70
     0
 62
   100
  6
Continuous
370
    30
390
F
  0
LAYER
  5
79
330
2
100
AcDbSymbolTableRecord
100
AcDbLayerTableRecord
  2
중간선
 70
     0
 62
     2
  6
Continuous
370
    15
390
F
  0
LAYER
  5
7A
330
2
100
AcDbSymbolTableRecord
100
AcDbLayerTableRecord
  2
윤곽선
 70
     0
 62
     3
  6
Continuous
370
    40
390
F
  0
LAYER
  5
7B
330
2
100
AcDbSymbolTableRecord
100
AcDbLayerTableRecord
  2
중심마크
 70
     0
 62
   100
  6
Continuous
370
    30
390
F
  0
LAYER
  5
7C
330
2
100
AcDbSymbolTableRecord
100
AcDbLayerTableRecord
  2
가상선
 70
     0
 62
     4
  6
PHANTOM
370
    -3
390
F
  0
LAYER
  5
7D
330
2
100
AcDbSymbolTableRecord
100
AcDbLayerTableRecord
  2
특수지정선
 70
     0
 62
     5
  6
CENTERX2
370
    60
390
F
  0
LAYER
  5
7E
330
2
100
AcDbSymbolTableRecord
100
AcDbLayerTableRecord
  2
참조1
 70
     0
 62
    -4
  6
Continuous
370
    -3
390
F
  0
LAYER
  5
14F
330
2
100
AcDbSymbolTableRecord
100
AcDbLayerTableRecord
  2
Defpoints
 70
     0
 62
     7
  6
Continuous
290
     0
370
    -3
390
F
  0
ENDTAB
  0
TABLE
  2
STYLE
  5
3
330
0
100
AcDbSymbolTable
 70
     2
  0
STYLE
  5
11
330
3
100
AcDbSymbolTableRecord
100
AcDbTextStyleTableRecord
  2
Standard
 70
     0
 40
0.0
 41
1.0
 50
0.0
 71
     0
 42
3.5
  3
txt
  4

  0
STYLE
  5
94
330
3
100
AcDbSymbolTableRecord
100
AcDbTextStyleTableRecord
  2
SLDTEXTSTYLE0
 70
     0
 40
0.0
 41
0.75
 50
0.0
 71
     0
 42
3.5
  3
TXT
  4

  0
ENDTAB
  0
TABLE
  2
VIEW
  5
6
330
0
100
AcDbSymbolTable
 70
     0
  0
ENDTAB
  0
TABLE
  2
UCS
  5
7
330
0
100
AcDbSymbolTable
 70
     0
  0
ENDTAB
  0
TABLE
  2
APPID
  5
9
330
0
100
AcDbSymbolTable
 70
     4
  0
APPID
  5
12
330
9
100
AcDbSymbolTableRecord
100
AcDbRegAppTableRecord
  2
ACAD
 70
     0
  0
APPID
  5
2B4
330
9
100
AcDbSymbolTableRecord
100
AcDbRegAppTableRecord
  2
ACAD_DSTYLE_DIMFLIPARROW_SYMBOL
 70
     0
  0
APPID
  5
2B5
330
9
100
AcDbSymbolTableRecord
100
AcDbRegAppTableRecord
  2
ACAD_DSTYLE_DIMFLIPARROW_WHICH_SYMBOL
 70
     0
  0
APPID
  5
2F5
330
9
100
AcDbSymbolTableRecord
100
AcDbRegAppTableRecord
  2
PE_DIMMEASUREMENT
 70
     0
  0
ENDTAB
  0
TABLE
  2
DIMSTYLE
  5
A
330
0
100
AcDbSymbolTable
 70
     4
100
AcDbDimStyleTable
  0
DIMSTYLE
105
27
330
A
100
AcDbSymbolTableRecord
100
AcDbDimStyleTableRecord
  2
ISO-25
 70
     0
 41
2.5
 42
0.625
 43
3.75
 44
1.25
 73
     0
 74
     0
 77
     1
 78
     8
140
2.5
141
2.5
143
0.03937007874016
147
0.625
171
     3
172
     1
178
     0
271
     2
272
     2
274
     3
278
    44
283
     0
284
     8
340
11
  0
DIMSTYLE
105
CB
102
{ACAD_REACTORS
102
}
330
A
100
AcDbSymbolTableRecord
100
AcDbDimStyleTableRecord
  2
SLDDIMSTYLE0
 70
     0
 41
3.302
 44
0.0
 45
0.000000001
 73
     0
 74
     0
 77
     1
 78
    12
 79
     3
140
3.5
143
0.0393700787401575
147
0.875
148
0.000000001
170
     1
173
     1
178
     0
271
     2
272
     2
276
     2
284
    12
340
94
  0
DIMSTYLE
105
E0
102
{ACAD_REACTORS
102
}
330
A
100
AcDbSymbolTableRecord
100
AcDbDimStyleTableRecord
  2
SLDDIMSTYLE1
 70
     0
 41
3.302
 44
0.0
 45
0.000000001
 73
     0
 74
     0
 77
     1
 78
     4
 79
     1
140
3.5
143
0.0393700787401575
147
0.875
148
0.000000001
170
     1
173
     1
178
     0
271
     2
272
     2
276
     2
284
    12
340
94
  0
DIMSTYLE
105
F4
102
{ACAD_REACTORS
330
26B
330
269
330
26A
330
26C
330
377
330
387
330
394
330
3B2
102
}
330
A
100
AcDbSymbolTableRecord
100
AcDbDimStyleTableRecord
  2
SLDDIMSTYLE2
 70
     0
 41
3.302
 44
0.0
 45
0.000000001
 73
     0
 74
     0
 77
     1
 78
    12
 79
     3
140
3.5
143
0.0393700787401575
147
0.875
148
0.000000001
170
     1
172
     1
173
     1
178
     0
271
     2
272
     2
276
     2
284
    12
289
     0
340
94
  0
ENDTAB
  0
TABLE
  2
BLOCK_RECORD
  5
1
330
0
100
AcDbSymbolTable
 70
    20
  0
BLOCK_RECORD
  5
1F
330
1
100
AcDbSymbolTableRecord
100
AcDbBlockTableRecord
  2
*Model_Space
340
22
  0
BLOCK_RECORD
  5
1B
330
1
100
AcDbSymbolTableRecord
100
AcDbBlockTableRecord
  2
*Paper_Space
340
1E
  0
BLOCK_RECORD
  5
23
330
1
100
AcDbSymbolTableRecord
100
AcDbBlockTableRecord
  2
*Paper_Space0
340
26
  0
BLOCK_RECORD
  5
7F
330
1
100
AcDbSymbolTableRecord
100
AcDbBlockTableRecord
  2
블럭10
340
0
102
{BLKREFS
331
260
331
35A
102
}
  0
BLOCK_RECORD
  5
CC
330
1
100
AcDbSymbolTableRecord
100
AcDbBlockTableRecord
  2
_D
340
0
  0
BLOCK_RECORD
  5
E1
330
1
100
AcDbSymbolTableRecord
100
AcDbBlockTableRecord
  2
_D_1
340
0
  0
BLOCK_RECORD
  5
F5
330
1
100
AcDbSymbolTableRecord
100
AcDbBlockTableRecord
  2
_D_2
340
0
  0
BLOCK_RECORD
  5
109
330
1
100
AcDbSymbolTableRecord
100
AcDbBlockTableRecord
  2
_D_3
340
0
  0
BLOCK_RECORD
  5
123
330
1
100
AcDbSymbolTableRecord
100
AcDbBlockTableRecord
  2
SW_DOWELSYMBOL_0
340
0
102
{BLKREFS
331
26D
331
3AB
102
}
  0
BLOCK_RECORD
  5
207
330
1
100
AcDbSymbolTableRecord
100
AcDbBlockTableRecord
  2
*D7
340
0
  0
BLOCK_RECORD
  5
216
330
1
100
AcDbSymbolTableRecord
100
AcDbBlockTableRecord
  2
*D8
340
0
  0
BLOCK_RECORD
  5
222
330
1
100
AcDbSymbolTableRecord
100
AcDbBlockTableRecord
  2
*D9
340
0
  0
BLOCK_RECORD
  5
22F
330
1
100
AcDbSymbolTableRecord
100
AcDbBlockTableRecord
  2
*D10
340
0
  0
BLOCK_RECORD
  5
275
330
1
100
AcDbSymbolTableRecord
100
AcDbBlockTableRecord
  2
*D11
340
0
  0
BLOCK_RECORD
  5
284
330
1
100
AcDbSymbolTableRecord
100
AcDbBlockTableRecord
  2
*D12
340
0
  0
BLOCK_RECORD
  5
290
330
1
100
AcDbSymbolTableRecord
100
AcDbBlockTableRecord
  2
*D13
340
0
  0
BLOCK_RECORD
  5
29D
330
1
100
AcDbSymbolTableRecord
100
AcDbBlockTableRecord
  2
*D14
340
0
  0
BLOCK_RECORD
  5
2D8
330
1
100
AcDbSymbolTableRecord
100
AcDbBlockTableRecord
  2
EI099024
340
0
  0
BLOCK_RECORD
  5
3B3
330
1
100
AcDbSymbolTableRecord
100
AcDbBlockTableRecord
  2
*D16
340
0
  0
BLOCK_RECORD
  5
3D8
330
1
100
AcDbSymbolTableRecord
100
AcDbBlockTableRecord
  2
*D17
340
0
  0
BLOCK_RECORD
  5
3E7
330
1
100
AcDbSymbolTableRecord
100
AcDbBlockTableRecord
  2
*D18
340
0
  0
BLOCK_RECORD
  5
3F3
330
1
100
AcDbSymbolTableRecord
100
AcDbBlockTableRecord
  2
*D19
340
0
  0
ENDTAB
  0
ENDSEC
  0
SECTION
  2
BLOCKS
  0
BLOCK
  5
20
330
1F
100
AcDbEntity
  8
0
100
AcDbBlockBegin
  2
*Model_Space
 70
     0
 10
0.0
 20
0.0
 30
0.0
  3
*Model_Space
  1
*Model_Space
  0
ENDBLK
  5
21
330
1F
100
AcDbEntity
  8
0
100
AcDbBlockEnd
  0
BLOCK
  5
1C
330
1B
100
AcDbEntity
 67
     1
  8
0
100
AcDbBlockBegin
  2
*Paper_Space
 70
     0
 10
0.0
 20
0.0
 30
0.0
  3
*Paper_Space
  1
*Paper_Space
  0
ENDBLK
  5
1D
330
1B
100
AcDbEntity
 67
     1
  8
0
100
AcDbBlockEnd
  0
BLOCK
  5
24
330
23
100
AcDbEntity
  8
0
100
AcDbBlockBegin
  2
*Paper_Space0
 70
     0
 10
0.0
 20
0.0
 30
0.0
  3
*Paper_Space0
  1
*Paper_Space0
  0
ENDBLK
  5
25
330
23
100
AcDbEntity
  8
0
100
AcDbBlockEnd
  0
BLOCK
  5
80
330
7F
100
AcDbEntity
  8
0
100
AcDbBlockBegin
  2
블럭10
 70
     2
 10
0.0
 20
0.0
 30
0.0
  3
블럭10
  1
블럭10
  0
ELLIPSE
  5
82
330
7F
100
AcDbEntity
  8
중심선
100
AcDbEllipse
 10
20.54032771741204
 20
12.0471743016438
 30
0.0
 11
6.600054785286829
 21
-1.261213355974178E-13
 31
0.0
210
0.0
220
0.0
230
1.0
 40
0.636358354079598
 41
0.9219305317359503
 42
6.513795318482858
  0
ELLIPSE
  5
83
330
7F
100
AcDbEntity
  8
중심선
100
AcDbEllipse
 10
20.54032771746488
 20
12.04717430159265
 30
0.0
 11
3.960054785062283
 21
1.540847449632565E-10
 31
0.0
210
0.0
220
0.0
230
1.0
 40
0.3939339440162632
 41
1.131841032648279
 42
5.62031148352944
  0
LINE
  5
84
330
7F
100
AcDbEntity
  8
중심선
100
AcDbLine
 10
2.268634060543552
 20
16.24717430164393
 30
0.0
 11
5.714909304380834
 21
16.24717430164393
 31
0.0
  0
LINE
  5
85
330
7F
100
AcDbEntity
  8
중심선
100
AcDbLine
 10
5.245725140726316
 20
7.84717430164391
 30
0.0
 11
8.692000384563599
 21
7.84717430164391
 31
0.0
  0
LINE
  5
86
330
7F
100
AcDbEntity
  8
중심선
100
AcDbLine
 10
15.74043728645272
 20
16.24717430164393
 30
0.0
 11
8.692000384563599
 21
7.84717430164391
 31
0.0
  0
LINE
  5
87
330
7F
100
AcDbEntity
  8
중심선
100
AcDbLine
 10
0.1404042013395286
 20
13.71084872107135
 30
0.0
 11
3.58671253028996
 21
13.71088815037384
 31
0.0
  0
LINE
  5
88
330
7F
100
AcDbEntity
  8
중심선
100
AcDbLine
 10
2.750260043222114
 20
10.84717430164391
 30
0.0
 11
6.196535287059397
 21
10.84717430164391
 31
0.0
  0
LINE
  5
89
330
7F
100
AcDbEntity
  8
중심선
100
AcDbLine
 10
12.29416204261559
 20
16.24717430164393
 30
0.0
 11
5.245725140726316
 21
7.84717430164391
 31
0.0
  0
LINE
  5
8A
330
7F
100
AcDbEntity
  8
중심선
100
AcDbLine
 10
10.72767329541681
 20
16.24717430164393
 30
0.0
 11
6.196535287059397
 21
10.84717430164391
 31
0.0
  0
LINE
  5
8B
330
7F
100
AcDbEntity
  8
중심선
100
AcDbLine
 10
7.28139805157953
 20
16.24717430164393
 30
0.0
 11
2.750260043222114
 21
10.84717430164391
 31
0.0
  0
LINE
  5
8C
330
7F
100
AcDbEntity
  8
중심선
100
AcDbLine
 10
5.714909304380834
 20
16.24717430164393
 30
0.0
 11
3.58671253028996
 21
13.71088815037384
 31
0.0
  0
LINE
  5
8D
330
7F
100
AcDbEntity
  8
중심선
100
AcDbLine
 10
2.268634060543552
 20
16.24717430164393
 30
0.0
 11
0.1404042013395286
 21
13.71084872107135
 31
0.0
  0
LINE
  5
8E
330
7F
100
AcDbEntity
  8
중심선
100
AcDbLine
 10
7.28139805157953
 20
16.24717430164393
 30
0.0
 11
10.72767329541681
 21
16.24717430164393
 31
0.0
  0
LINE
  5
8F
330
7F
100
AcDbEntity
  8
중심선
100
AcDbLine
 10
12.29416204261559
 20
16.24717430164393
 30
0.0
 11
15.74043728645272
 21
16.24717430164393
 31
0.0
  0
LINE
  5
90
330
7F
100
AcDbEntity
  8
중심선
100
AcDbLine
 10
19.22036997980202
 20
11.08717430171403
 30
0.0
 11
23.66174974927406
 21
11.08717430171406
 31
0.0
  0
LINE
  5
91
330
7F
100
AcDbEntity
  8
중심선
100
AcDbLine
 10
19.22039502424796
 20
13.00717430171391
 30
0.0
 11
19.22036997980202
 21
11.08717430171403
 31
0.0
  0
LINE
  5
92
330
7F
100
AcDbEntity
  8
중심선
100
AcDbLine
 10
19.22039502424796
 20
13.00717430171391
 30
0.0
 11
26.96566020931264
 21
13.00717430171391
 31
0.0
  0
LINE
  5
93
330
7F
100
AcDbEntity
  8
중심선
100
AcDbLine
 10
22.22332737316547
 20
13.45928029700563
 30
0.0
 11
24.52862924686651
 21
15.39360700705356
 31
0.0
  0
ATTDEF
  5
95
330
7F
100
AcDbEntity
  8
FORMAT
 62
     2
100
AcDbText
 10
5.200277315438102
 20
2.075366912832191
 30
0.0
 40
4.233333333333333
  1
EI099016
 41
0.75
  7
SLDTEXTSTYLE0
 11
5.200277315438102
 21
-0.0412997538344756
 31
0.0
100
AcDbAttributeDefinition
  3

  2
AUTOATTR0
 70
     0
 74
     1
  0
ENDBLK
  5
81
330
7F
100
AcDbEntity
  8
0
100
AcDbBlockEnd
  0
BLOCK
  5
CD
330
CC
100
AcDbEntity
  8
0
100
AcDbBlockBegin
  2
_D
 70
     0
 10
0.0
 20
0.0
 30
0.0
  3
_D
  1
_D
  0
SOLID
  5
CF
330
CC
100
AcDbEntity
  8
치수문자_일반주서
100
AcDbTrace
 10
29.43000000000049
 20
19.00000000000002
 30
0.0
 11
26.1280000000005
 21
19.50800000000011
 31
0.0
 12
26.12800000000047
 22
18.49200000000011
 32
0.0
 13
26.12800000000047
 23
18.49200000000011
 33
0.0
  0
SOLID
  5
D0
330
CC
100
AcDbEntity
  8
치수문자_일반주서
100
AcDbTrace
 10
10.38000000000045
 20
19.00000000000053
 30
0.0
 11
13.68200000000044
 21
18.49200000000044
 31
0.0
 12
13.68200000000047
 22
19.50800000000044
 32
0.0
 13
13.68200000000047
 23
19.50800000000044
 33
0.0
  0
LINE
  5
D1
330
CC
100
AcDbEntity
  8
치수문자_일반주서
100
AcDbLine
 10
30.07387326736853
 20
29.79288171604254
 30
0.0
 11
29.36293578180403
 21
29.79288171604256
 31
0.0
  0
LINE
  5
D2
330
CC
100
AcDbEntity
  8
치수문자_일반주서
100
AcDbLine
 10
29.36293578180403
 20
29.79288171604256
 30
0.0
 11
29.36293578180385
 21
24.23663172498326
 31
0.0
  0
LINE
  5
D3
330
CC
100
AcDbEntity
  8
치수문자_일반주서
100
AcDbLine
 10
29.36293578180385
 20
24.23663172498326
 30
0.0
 11
30.07387326736835
 21
24.23663172498323
 31
0.0
  0
LINE
  5
D4
330
CC
100
AcDbEntity
  8
치수문자_일반주서
100
AcDbLine
 10
40.90260612950579
 20
29.79288171604218
 30
0.0
 11
41.61354361507029
 21
29.79288171604215
 31
0.0
  0
LINE
  5
D5
330
CC
100
AcDbEntity
  8
치수문자_일반주서
100
AcDbLine
 10
41.61354361507029
 20
29.79288171604215
 30
0.0
 11
41.6135436150701
 21
24.23663172498285
 31
0.0
  0
LINE
  5
D6
330
CC
100
AcDbEntity
  8
치수문자_일반주서
100
AcDbLine
 10
41.6135436150701
 20
24.23663172498285
 30
0.0
 11
40.9026061295056
 21
24.23663172498287
 31
0.0
  0
LINE
  5
D7
330
CC
100
AcDbEntity
  8
치수문자_일반주서
100
AcDbLine
 10
29.43000000000004
 20
2.048836532705017
 30
0.0
 11
29.43000000000051
 21
20.00000000000002
 31
0.0
  0
LINE
  5
D8
330
CC
100
AcDbEntity
  8
치수문자_일반주서
100
AcDbLine
 10
10.38000000000003
 20
2.939725834440631
 30
0.0
 11
10.38000000000048
 21
20.00000000000053
 31
0.0
  0
LINE
  5
D9
330
CC
100
AcDbEntity
  8
치수문자_일반주서
100
AcDbLine
 10
29.43000000000049
 20
19.00000000000002
 30
0.0
 11
43.43980164206507
 21
18.99999999999965
 31
0.0
  0
LINE
  5
DA
330
CC
100
AcDbEntity
  8
치수문자_일반주서
100
AcDbLine
 10
29.43000000000049
 20
19.00000000000002
 30
0.0
 11
10.38000000000045
 21
19.00000000000053
 31
0.0
  0
MTEXT
  5
DB
330
CC
100
AcDbEntity
  8
치수문자_일반주서
100
AcDbMText
 10
28.84917705631713
 20
23.56520926586155
 30
0.0
 40
3.5
 41
0.0
 71
     1
 72
     1
  1

  7
SLDTEXTSTYLE0
 73
     1
 44
1.0
  0
MTEXT
  5
DC
330
CC
100
AcDbEntity
  8
치수문자_일반주서
100
AcDbMText
 10
30.96254516797987
 20
28.7483686395621
 30
0.0
 40
3.5
 41
0.0
 71
     1
 72
     1
  1
0.75
  7
SLDTEXTSTYLE0
 73
     1
 44
1.0
  0
MTEXT
  5
DD
330
CC
100
AcDbEntity
  8
치수문자_일반주서
100
AcDbMText
 10
29.66948945480297
 20
23.51173708920167
 30
0.0
 40
3.5
 41
0.0
 71
     1
 72
     1
  1
19.05
  7
SLDTEXTSTYLE0
 73
     1
 44
1.0
  0
MTEXT
  5
DE
330
CC
100
AcDbEntity
  8
치수문자_일반주서
100
AcDbMText
 10
43.4592468602107
 20
23.56520926586106
 30
0.0
 40
3.5
 41
0.0
 71
     1
 72
     1
  1

  7
SLDTEXTSTYLE0
 73
     1
 44
1.0
  0
ENDBLK
  5
CE
330
CC
100
AcDbEntity
  8
0
100
AcDbBlockEnd
  0
BLOCK
  5
E2
330
E1
100
AcDbEntity
  8
0
100
AcDbBlockBegin
  2
_D_1
 70
     0
 10
0.0
 20
0.0
 30
0.0
  3
_D_1
  1
_D_1
  0
SOLID
  5
E4
330
E1
100
AcDbEntity
  8
치수문자_일반주서
100
AcDbTrace
 10
29.43000000000092
 20
35.58857492872393
 30
0.0
 11
26.12800000000094
 21
36.09657492872402
 31
0.0
 12
26.12800000000091
 22
35.08057492872401
 32
0.0
 13
26.12800000000091
 23
35.08057492872401
 33
0.0
  0
SOLID
  5
E5
330
E1
100
AcDbEntity
  8
치수문자_일반주서
100
AcDbTrace
 10
-34.06999999999913
 20
35.58857492872561
 30
0.0
 11
-30.76799999999915
 21
35.08057492872552
 31
0.0
 12
-30.76799999999912
 22
36.09657492872552
 32
0.0
 13
-30.76799999999912
 23
36.09657492872552
 33
0.0
  0
LINE
  5
E6
330
E1
100
AcDbEntity
  8
치수문자_일반주서
100
AcDbLine
 10
-6.53240276046871
 20
46.3814566447674
 30
0.0
 11
-7.243340246033211
 21
46.38145664476742
 31
0.0
  0
LINE
  5
E7
330
E1
100
AcDbEntity
  8
치수문자_일반주서
100
AcDbLine
 10
-7.243340246033211
 20
46.38145664476742
 30
0.0
 11
-7.243340246033395
 21
40.82520665370811
 31
0.0
  0
LINE
  5
E8
330
E1
100
AcDbEntity
  8
치수문자_일반주서
100
AcDbLine
 10
-7.243340246033395
 20
40.82520665370811
 30
0.0
 11
-6.532402760468895
 21
40.8252066537081
 31
0.0
  0
LINE
  5
E9
330
E1
100
AcDbEntity
  8
치수문자_일반주서
100
AcDbLine
 10
4.296330101668548
 20
46.38145664476703
 30
0.0
 11
5.007267587233048
 21
46.38145664476701
 31
0.0
  0
LINE
  5
EA
330
E1
100
AcDbEntity
  8
치수문자_일반주서
100
AcDbLine
 10
5.007267587233048
 20
46.38145664476701
 30
0.0
 11
5.007267587232863
 21
40.82520665370771
 31
0.0
  0
LINE
  5
EB
330
E1
100
AcDbEntity
  8
치수문자_일반주서
100
AcDbLine
 10
5.007267587232863
 20
40.82520665370771
 30
0.0
 11
4.296330101668363
 21
40.82520665370773
 31
0.0
  0
LINE
  5
EC
330
E1
100
AcDbEntity
  8
치수문자_일반주서
100
AcDbLine
 10
29.43000000000004
 20
2.048836532705017
 30
0.0
 11
29.43000000000095
 21
36.58857492872393
 31
0.0
  0
LINE
  5
ED
330
E1
100
AcDbEntity
  8
치수문자_일반주서
100
AcDbLine
 10
-34.06999999999999
 20
3.176074928723876
 30
0.0
 11
-34.06999999999911
 21
36.58857492872561
 31
0.0
  0
LINE
  5
EE
330
E1
100
AcDbEntity
  8
치수문자_일반주서
100
AcDbLine
 10
29.43000000000092
 20
35.58857492872393
 30
0.0
 11
-34.06999999999913
 21
35.58857492872561
 31
0.0
  0
MTEXT
  5
EF
330
E1
100
AcDbEntity
  8
치수문자_일반주서
100
AcDbMText
 10
-7.757098971520115
 20
40.15378419458641
 30
0.0
 40
3.5
 41
0.0
 71
     1
 72
     1
  1

  7
SLDTEXTSTYLE0
 73
     1
 44
1.0
  0
MTEXT
  5
F0
330
E1
100
AcDbEntity
  8
치수문자_일반주서
100
AcDbMText
 10
-5.643730859857374
 20
45.33694356828696
 30
0.0
 40
3.5
 41
0.0
 71
     1
 72
     1
  1
2.50
  7
SLDTEXTSTYLE0
 73
     1
 44
1.0
  0
MTEXT
  5
F1
330
E1
100
AcDbEntity
  8
치수문자_일반주서
100
AcDbMText
 10
-6.936786573034276
 20
40.10031201792653
 30
0.0
 40
3.5
 41
0.0
 71
     1
 72
     1
  1
63.50
  7
SLDTEXTSTYLE0
 73
     1
 44
1.0
  0
MTEXT
  5
F2
330
E1
100
AcDbEntity
  8
치수문자_일반주서
100
AcDbMText
 10
6.852970832373451
 20
40.15378419458593
 30
0.0
 40
3.5
 41
0.0
 71
     1
 72
     1
  1

  7
SLDTEXTSTYLE0
 73
     1
 44
1.0
  0
ENDBLK
  5
E3
330
E1
100
AcDbEntity
  8
0
100
AcDbBlockEnd
  0
BLOCK
  5
F6
330
F5
100
AcDbEntity
  8
0
100
AcDbBlockBegin
  2
_D_2
 70
     0
 10
0.0
 20
0.0
 30
0.0
  3
_D_2
  1
_D_2
  0
SOLID
  5
F8
330
F5
100
AcDbEntity
  8
치수문자_일반주서
100
AcDbTrace
 10
-42.70932186858634
 20
3.176074928723878
 30
0.0
 11
-42.20132186858634
 21
6.478074928723878
 31
0.0
 12
-43.21732186858635
 22
6.478074928723878
 32
0.0
 13
-43.21732186858635
 23
6.478074928723878
 33
0.0
  0
SOLID
  5
F9
330
F5
100
AcDbEntity
  8
치수문자_일반주서
100
AcDbTrace
 10
-42.70932186858634
 20
-3.173925071276116
 30
0.0
 11
-43.21732186858635
 21
-6.475925071276116
 31
0.0
 12
-42.20132186858634
 22
-6.475925071276116
 32
0.0
 13
-42.20132186858634
 23
-6.475925071276116
 33
0.0
  0
LINE
  5
FA
330
F5
100
AcDbEntity
  8
치수문자_일반주서
100
AcDbLine
 10
-53.50220358462906
 20
-5.413291502344841
 30
0.0
 11
-53.50220358462905
 21
-6.124228987909341
 31
0.0
  0
LINE
  5
FB
330
F5
100
AcDbEntity
  8
치수문자_일반주서
100
AcDbLine
 10
-53.50220358462905
 20
-6.124228987909341
 30
0.0
 11
-47.94595359356975
 21
-6.124228987909302
 31
0.0
  0
LINE
  5
FC
330
F5
100
AcDbEntity
  8
치수문자_일반주서
100
AcDbLine
 10
-47.94595359356975
 20
-6.124228987909302
 30
0.0
 11
-47.94595359356975
 21
-5.413291502344802
 31
0.0
  0
LINE
  5
FD
330
F5
100
AcDbEntity
  8
치수문자_일반주서
100
AcDbLine
 10
-53.50220358462913
 20
5.415441359792417
 30
0.0
 11
-53.50220358462914
 21
6.126378845356917
 31
0.0
  0
LINE
  5
FE
330
F5
100
AcDbEntity
  8
치수문자_일반주서
100
AcDbLine
 10
-53.50220358462914
 20
6.126378845356917
 30
0.0
 11
-47.94595359356983
 21
6.126378845356956
 31
0.0
  0
LINE
  5
FF
330
F5
100
AcDbEntity
  8
치수문자_일반주서
100
AcDbLine
 10
-47.94595359356983
 20
6.126378845356956
 30
0.0
 11
-47.94595359356983
 21
5.415441359792456
 31
0.0
  0
LINE
  5
100
330
F5
100
AcDbEntity
  8
치수문자_일반주서
100
AcDbLine
 10
-34.07000000000001
 20
3.176074928723879
 30
0.0
 11
-43.70932186858634
 21
3.176074928723878
 31
0.0
  0
LINE
  5
101
330
F5
100
AcDbEntity
  8
치수문자_일반주서
100
AcDbLine
 10
-34.07000000000001
 20
-3.173925071276116
 30
0.0
 11
-43.70932186858634
 21
-3.173925071276116
 31
0.0
  0
LINE
  5
102
330
F5
100
AcDbEntity
  8
치수문자_일반주서
100
AcDbLine
 10
-42.70932186858634
 20
3.176074928723878
 30
0.0
 11
-42.70932186858634
 21
9.526074928723878
 31
0.0
  0
LINE
  5
103
330
F5
100
AcDbEntity
  8
치수문자_일반주서
100
AcDbLine
 10
-42.70932186858634
 20
3.176074928723878
 30
0.0
 11
-42.70932186858634
 21
-3.173925071276116
 31
0.0
  0
LINE
  5
104
330
F5
100
AcDbEntity
  8
치수문자_일반주서
100
AcDbLine
 10
-42.70932186858634
 20
-3.173925071276116
 30
0.0
 11
-42.70932186858634
 21
-9.523925071276116
 31
0.0
  0
MTEXT
  5
105
330
F5
100
AcDbEntity
  8
치수문자_일반주서
100
AcDbMText
 10
-52.45769050814865
 20
-4.524619601733464
 30
0.0
 40
3.5
 41
0.0
 71
     1
 72
     1
  1
0.25
  7
SLDTEXTSTYLE0
 11
-7.044195017643634E-15
 21
1.0
 31
0.0
 73
     1
 44
1.0
  0
MTEXT
  5
106
330
F5
100
AcDbEntity
  8
치수문자_일반주서
100
AcDbMText
 10
-47.22105895778817
 20
-7.163838766581756
 30
0.0
 40
3.5
 41
0.0
 71
     1
 72
     1
  1
%%c
  7
SLDTEXTSTYLE0
 11
-7.044195017643634E-15
 21
1.0
 31
0.0
 73
     1
 44
1.0
  0
MTEXT
  5
107
330
F5
100
AcDbEntity
  8
치수문자_일반주서
100
AcDbMText
 10
-47.2210589577882
 20
-1.885401368207674
 30
0.0
 40
3.5
 41
0.0
 71
     1
 72
     1
  1
6.35
  7
SLDTEXTSTYLE0
 11
-7.044195017643634E-15
 21
1.0
 31
0.0
 73
     1
 44
1.0
  0
ENDBLK
  5
F7
330
F5
100
AcDbEntity
  8
0
100
AcDbBlockEnd
  0
BLOCK
  5
10A
330
109
100
AcDbEntity
  8
0
100
AcDbBlockBegin
  2
_D_3
 70
     0
 10
0.0
 20
0.0
 30
0.0
  3
_D_3
  1
_D_3
  0
SOLID
  5
10C
330
109
100
AcDbEntity
  8
치수문자_일반주서
100
AcDbTrace
 10
38.78581864885526
 20
3.176074928723894
 30
0.0
 11
39.29381864885526
 21
6.478074928723894
 31
0.0
 12
38.27781864885526
 22
6.478074928723894
 32
0.0
 13
38.27781864885526
 23
6.478074928723894
 33
0.0
  0
SOLID
  5
10D
330
109
100
AcDbEntity
  8
치수문자_일반주서
100
AcDbTrace
 10
38.78581864885526
 20
-3.173925071276106
 30
0.0
 11
38.27781864885526
 21
-6.475925071276105
 31
0.0
 12
39.29381864885526
 22
-6.475925071276105
 32
0.0
 13
39.29381864885526
 23
-6.475925071276105
 33
0.0
  0
LINE
  5
10E
330
109
100
AcDbEntity
  8
치수문자_일반주서
100
AcDbLine
 10
27.99293693281254
 20
21.72122463208589
 30
0.0
 11
27.99293693281254
 21
21.01028714652139
 31
0.0
  0
LINE
  5
10F
330
109
100
AcDbEntity
  8
치수문자_일반주서
100
AcDbLine
 10
27.99293693281254
 20
21.01028714652139
 30
0.0
 11
33.54918692387185
 21
21.01028714652142
 31
0.0
  0
LINE
  5
110
330
109
100
AcDbEntity
  8
치수문자_일반주서
100
AcDbLine
 10
33.54918692387185
 20
21.01028714652142
 30
0.0
 11
33.54918692387184
 21
21.72122463208592
 31
0.0
  0
LINE
  5
111
330
109
100
AcDbEntity
  8
치수문자_일반주서
100
AcDbLine
 10
27.99293693281246
 20
32.54995749422314
 30
0.0
 11
27.99293693281246
 21
33.26089497978764
 31
0.0
  0
LINE
  5
112
330
109
100
AcDbEntity
  8
치수문자_일반주서
100
AcDbLine
 10
27.99293693281246
 20
33.26089497978764
 30
0.0
 11
33.54918692387176
 21
33.26089497978769
 31
0.0
  0
LINE
  5
113
330
109
100
AcDbEntity
  8
치수문자_일반주서
100
AcDbLine
 10
33.54918692387176
 20
33.26089497978769
 30
0.0
 11
33.54918692387177
 21
32.54995749422319
 31
0.0
  0
LINE
  5
114
330
109
100
AcDbEntity
  8
치수문자_일반주서
100
AcDbLine
 10
20.76674129358962
 20
3.176074928723895
 30
0.0
 11
39.78581864885526
 21
3.176074928723894
 31
0.0
  0
LINE
  5
115
330
109
100
AcDbEntity
  8
치수문자_일반주서
100
AcDbLine
 10
20.76674129358964
 20
-3.173925071276105
 30
0.0
 11
39.78581864885526
 21
-3.173925071276106
 31
0.0
  0
LINE
  5
116
330
109
100
AcDbEntity
  8
치수문자_일반주서
100
AcDbLine
 10
38.78581864885526
 20
3.176074928723894
 30
0.0
 11
38.78581864885526
 21
34.30050475846016
 31
0.0
  0
LINE
  5
117
330
109
100
AcDbEntity
  8
치수문자_일반주서
100
AcDbLine
 10
38.78581864885526
 20
3.176074928723894
 30
0.0
 11
38.78581864885526
 21
-3.173925071276106
 31
0.0
  0
LINE
  5
118
330
109
100
AcDbEntity
  8
치수문자_일반주서
100
AcDbLine
 10
38.78581864885526
 20
-3.173925071276106
 30
0.0
 11
38.78581864885526
 21
-9.523925071276105
 31
0.0
  0
MTEXT
  5
119
330
109
100
AcDbEntity
  8
치수문자_일반주서
100
AcDbMText
 10
29.03745000929294
 20
22.60989653269727
 30
0.0
 40
3.5
 41
0.0
 71
     1
 72
     1
  1
0.25
  7
SLDTEXTSTYLE0
 11
-7.044195017643634E-15
 21
1.0
 31
0.0
 73
     1
 44
1.0
  0
MTEXT
  5
11A
330
109
100
AcDbEntity
  8
치수문자_일반주서
100
AcDbMText
 10
34.27408155965342
 20
19.97067736784897
 30
0.0
 40
3.5
 41
0.0
 71
     1
 72
     1
  1
%%c
  7
SLDTEXTSTYLE0
 11
-7.044195017643634E-15
 21
1.0
 31
0.0
 73
     1
 44
1.0
  0
MTEXT
  5
11B
330
109
100
AcDbEntity
  8
치수문자_일반주서
100
AcDbMText
 10
34.27408155965338
 20
25.24911476622305
 30
0.0
 40
3.5
 41
0.0
 71
     1
 72
     1
  1
6.35
  7
SLDTEXTSTYLE0
 11
-7.044195017643634E-15
 21
1.0
 31
0.0
 73
     1
 44
1.0
  0
ENDBLK
  5
10B
330
109
100
AcDbEntity
  8
0
100
AcDbBlockEnd
  0
BLOCK
  5
124
330
123
100
AcDbEntity
  8
0
100
AcDbBlockBegin
  2
SW_DOWELSYMBOL_0
 70
     0
 10
0.0
 20
0.0
 30
0.0
  3
SW_DOWELSYMBOL_0
  1
SW_DOWELSYMBOL_0
  0
CIRCLE
  5
126
330
123
100
AcDbEntity
  8
해칭선
 62
     0
100
AcDbCircle
 10
0.0
 20
0.0
 30
0.0
 40
3.000000000000001
  0
HATCH
  5
127
330
123
100
AcDbEntity
  8
0
  6
Continuous
 62
     0
370
     0
100
AcDbHatch
 10
0.0
 20
0.0
 30
0.0
210
0.0
220
0.0
230
1.0
  2
SOLID
 70
     1
 71
     0
 91
        1
 92
        0
 93
        3
 72
     2
 10
0.0
 20
0.0
 40
3.000000000000001
 50
0.0
 51
90.0
 73
     1
 72
     1
 10
0.0
 20
3.000000000000001
 11
0.0
 21
0.0
 72
     1
 10
0.0
 20
0.0
 11
3.000000000000001
 21
0.0
 97
        0
 75
     0
 76
     1
 98
        1
 10
0.0
 20
0.0
  0
HATCH
  5
128
330
123
100
AcDbEntity
  8
0
  6
Continuous
 62
     0
370
     0
100
AcDbHatch
 10
0.0
 20
0.0
 30
0.0
210
0.0
220
0.0
230
1.0
  2
SOLID
 70
     1
 71
     0
 91
        1
 92
        0
 93
        3
 72
     2
 10
0.0
 20
0.0
 40
3.000000000000001
 50
180.0
 51
270.0000000000007
 73
     1
 72
     1
 10
0.0
 20
-3.000000000000001
 11
0.0
 21
0.0
 72
     1
 10
0.0
 20
0.0
 11
-3.000000000000001
 21
0.0
 97
        0
 75
     0
 76
     1
 98
        1
 10
0.0
 20
0.0
  0
ENDBLK
  5
125
330
123
100
AcDbEntity
  8
0
100
AcDbBlockEnd
  0
BLOCK
  5
208
330
207
100
AcDbEntity
  8
0
100
AcDbBlockBegin
  2
*D7
 70
     1
 10
0.0
 20
0.0
 30
0.0
  3
*D7
  1
*D8
  0
LINE
  5
20A
330
207
100
AcDbEntity
  8
치수문자_일반주서
 62
     0
370
    -2
100
AcDbLine
 10
90.20766190202897
 20
51.08206899279287
 30
0.0
 11
90.20766190202897
 21
68.35096096144439
 31
0.0
  0
LINE
  5
20B
330
207
100
AcDbEntity
  8
치수문자_일반주서
 62
     0
370
    -2
100
AcDbLine
 10
64.80766190202897
 20
56.27002333824286
 30
0.0
 11
64.80766190202897
 21
68.35096096144439
 31
0.0
  0
LINE
  5
20C
330
207
100
AcDbEntity
  8
치수문자_일반주서
 62
     0
370
    -2
100
AcDbLine
 10
64.80766190202897
 20
68.35096096144439
 30
0.0
 11
27.38066190202897
 21
68.35096096144439
 31
0.0
  0
LINE
  5
20D
330
207
100
AcDbEntity
  8
치수문자_일반주서
 62
     0
370
    -2
100
AcDbLine
 10
90.20766190202897
 20
68.35096096144439
 30
0.0
 11
64.80766190202897
 21
68.35096096144439
 31
0.0
  0
LINE
  5
20E
330
207
100
AcDbEntity
  8
치수문자_일반주서
 62
     0
370
    -2
100
AcDbLine
 10
93.50966190202897
 20
68.35096096144439
 30
0.0
 11
96.81166190202896
 21
68.35096096144439
 31
0.0
  0
LINE
  5
20F
330
207
100
AcDbEntity
  8
치수문자_일반주서
 62
     0
370
    -2
100
AcDbLine
 10
61.50566190202897
 20
68.35096096144439
 30
0.0
 11
58.20366190202897
 21
68.35096096144439
 31
0.0
  0
SOLID
  5
210
330
207
100
AcDbEntity
  8
치수문자_일반주서
 62
     0
100
AcDbTrace
 10
93.50966190202897
 20
68.90129429477771
 30
0.0
 11
93.50966190202897
 21
67.80062762811106
 31
0.0
 12
90.20766190202897
 22
68.35096096144439
 32
0.0
 13
90.20766190202897
 23
68.35096096144439
 33
0.0
  0
SOLID
  5
211
330
207
100
AcDbEntity
  8
치수문자_일반주서
 62
     0
100
AcDbTrace
 10
61.50566190202897
 20
67.80062762811106
 30
0.0
 11
61.50566190202897
 21
68.90129429477771
 31
0.0
 12
64.80766190202897
 22
68.35096096144439
 32
0.0
 13
64.80766190202897
 23
68.35096096144439
 33
0.0
  0
MTEXT
  5
212
330
207
100
AcDbEntity
  8
치수문자_일반주서
 62
     0
100
AcDbMText
 10
44.44316190202897
 20
72.72596096144439
 30
0.0
 40
3.5
 41
0.0
 71
     2
 72
     1
  1
\A1;25 13/32 [1.00]
  7
SLDTEXTSTYLE0
 73
     1
 44
1.0
  0
POINT
  5
213
330
207
100
AcDbEntity
  8
Defpoints
 62
     0
100
AcDbPoint
 10
90.20766190202897
 20
51.01956899279287
 30
0.0
  0
POINT
  5
214
330
207
100
AcDbEntity
  8
Defpoints
 62
     0
100
AcDbPoint
 10
64.80766190202897
 20
56.20752333824286
 30
0.0
  0
POINT
  5
215
330
207
100
AcDbEntity
  8
Defpoints
 62
     0
100
AcDbPoint
 10
64.80766190202897
 20
68.35096096144439
 30
0.0
  0
ENDBLK
  5
209
330
207
100
AcDbEntity
  8
0
100
AcDbBlockEnd
  0
BLOCK
  5
217
330
216
100
AcDbEntity
  8
0
100
AcDbBlockBegin
  2
*D8
 70
     1
 10
0.0
 20
0.0
 30
0.0
  3
*D8
  1
*D9
  0
LINE
  5
219
330
216
100
AcDbEntity
  8
치수문자_일반주서
 62
     0
370
    -2
100
AcDbLine
 10
90.20766190202897
 20
51.08206899279287
 30
0.0
 11
90.20766190202897
 21
85.55930738881176
 31
0.0
  0
LINE
  5
21A
330
216
100
AcDbEntity
  8
치수문자_일반주서
 62
     0
370
    -2
100
AcDbLine
 10
14.00766190202896
 20
55.38430738881174
 30
0.0
 11
14.00766190202896
 21
85.55930738881176
 31
0.0
  0
LINE
  5
21B
330
216
100
AcDbEntity
  8
치수문자_일반주서
 62
     0
370
    -2
100
AcDbLine
 10
86.90566190202898
 20
85.55930738881176
 30
0.0
 11
17.30966190202896
 21
85.55930738881176
 31
0.0
  0
SOLID
  5
21C
330
216
100
AcDbEntity
  8
치수문자_일반주서
 62
     0
100
AcDbTrace
 10
86.90566190202898
 20
85.00897405547843
 30
0.0
 11
86.90566190202898
 21
86.10964072214509
 31
0.0
 12
90.20766190202897
 22
85.55930738881176
 32
0.0
 13
90.20766190202897
 23
85.55930738881176
 33
0.0
  0
SOLID
  5
21D
330
216
100
AcDbEntity
  8
치수문자_일반주서
 62
     0
100
AcDbTrace
 10
17.30966190202896
 20
86.10964072214509
 30
0.0
 11
17.30966190202896
 21
85.00897405547843
 31
0.0
 12
14.00766190202896
 22
85.55930738881176
 32
0.0
 13
14.00766190202896
 23
85.55930738881176
 33
0.0
  0
MTEXT
  5
21E
330
216
100
AcDbEntity
  8
치수문자_일반주서
 62
     0
100
AcDbMText
 10
53.55001788765266
 20
89.93430738881176
 30
0.0
 40
3.5
 41
0.0
 71
     2
 72
     1
  1
\A1;76 13/64 [3.00]
  7
SLDTEXTSTYLE0
 73
     1
 44
1.0
  0
POINT
  5
21F
330
216
100
AcDbEntity
  8
Defpoints
 62
     0
100
AcDbPoint
 10
90.20766190202897
 20
51.01956899279287
 30
0.0
  0
POINT
  5
220
330
216
100
AcDbEntity
  8
Defpoints
 62
     0
100
AcDbPoint
 10
14.00766190202896
 20
55.32180738881174
 30
0.0
  0
POINT
  5
221
330
216
100
AcDbEntity
  8
Defpoints
 62
     0
100
AcDbPoint
 10
14.00766190202896
 20
85.55930738881176
 30
0.0
  0
ENDBLK
  5
218
330
216
100
AcDbEntity
  8
0
100
AcDbBlockEnd
  0
BLOCK
  5
223
330
222
100
AcDbEntity
  8
0
100
AcDbBlockBegin
  2
*D9
 70
     1
 10
0.0
 20
0.0
 30
0.0
  3
*D9
  1
*D10
  0
LINE
  5
225
330
222
100
AcDbEntity
  8
치수문자_일반주서
 62
     0
370
    -2
100
AcDbLine
 10
14.94516190202896
 20
56.32180738881174
 30
0.0
 11
4.375000000000139
 21
56.32180738881171
 31
0.0
  0
LINE
  5
226
330
222
100
AcDbEntity
  8
치수문자_일반주서
 62
     0
370
    -2
100
AcDbLine
 10
14.94516190202896
 20
43.62180738881175
 30
0.0
 11
4.375000000000183
 21
43.62180738881172
 31
0.0
  0
LINE
  5
227
330
222
100
AcDbEntity
  8
치수문자_일반주서
 62
     0
370
    -2
100
AcDbLine
 10
4.375000000000139
 20
56.32180738881171
 30
0.0
 11
4.374999999999986
 21
100.1133073888117
 31
0.0
  0
LINE
  5
228
330
222
100
AcDbEntity
  8
치수문자_일반주서
 62
     0
370
    -2
100
AcDbLine
 10
4.37500000000015
 20
53.01980738881171
 30
0.0
 11
4.375000000000171
 21
46.92380738881172
 31
0.0
  0
SOLID
  5
229
330
222
100
AcDbEntity
  8
치수문자_일반주서
 62
     0
100
AcDbTrace
 10
4.925333333333484
 20
53.01980738881171
 30
0.0
 11
3.824666666666817
 21
53.01980738881171
 31
0.0
 12
4.375000000000139
 22
56.32180738881171
 32
0.0
 13
4.375000000000139
 23
56.32180738881171
 33
0.0
  0
SOLID
  5
22A
330
222
100
AcDbEntity
  8
치수문자_일반주서
 62
     0
100
AcDbTrace
 10
3.824666666666838
 20
46.92380738881172
 30
0.0
 11
4.925333333333505
 21
46.92380738881172
 31
0.0
 12
4.375000000000183
 22
43.62180738881172
 32
0.0
 13
4.375000000000183
 23
43.62180738881172
 33
0.0
  0
MTEXT
  5
22B
330
222
100
AcDbEntity
  8
치수문자_일반주서
 62
     0
100
AcDbMText
 10
0.0000000000000497
 20
81.73830738881169
 30
0.0
 40
3.5
 41
0.0
 71
     2
 72
     1
  1
\A1;%%c12 45/64 [1/2]
  7
SLDTEXTSTYLE0
 11
-3.496765431890258E-15
 21
1.0
 31
0.0
 73
     1
 44
1.0
  0
POINT
  5
22C
330
222
100
AcDbEntity
  8
Defpoints
 62
     0
100
AcDbPoint
 10
15.00766190202896
 20
56.32180738881174
 30
0.0
  0
POINT
  5
22D
330
222
100
AcDbEntity
  8
Defpoints
 62
     0
100
AcDbPoint
 10
15.00766190202896
 20
43.62180738881175
 30
0.0
  0
POINT
  5
22E
330
222
100
AcDbEntity
  8
Defpoints
 62
     0
100
AcDbPoint
 10
4.375000000000178
 20
43.62180738881171
 30
0.0
  0
ENDBLK
  5
224
330
222
100
AcDbEntity
  8
0
100
AcDbBlockEnd
  0
BLOCK
  5
230
330
22F
100
AcDbEntity
  8
0
100
AcDbBlockBegin
  2
*D10
 70
     1
 10
0.0
 20
0.0
 30
0.0
  3
*D10
  1
*D11
  0
LINE
  5
232
330
22F
100
AcDbEntity
  8
치수문자_일반주서
 62
     0
370
    -2
100
AcDbLine
 10
70.94395171699705
 20
56.32180738881175
 30
0.0
 11
109.5733018685834
 21
56.32180738881189
 31
0.0
  0
LINE
  5
233
330
22F
100
AcDbEntity
  8
치수문자_일반주서
 62
     0
370
    -2
100
AcDbLine
 10
70.94395171699705
 20
43.62180738881175
 30
0.0
 11
109.5733018685834
 21
43.62180738881189
 31
0.0
  0
LINE
  5
234
330
22F
100
AcDbEntity
  8
치수문자_일반주서
 62
     0
370
    -2
100
AcDbLine
 10
109.5733018685834
 20
56.32180738881189
 30
0.0
 11
109.5733018685832
 21
96.81130738881188
 31
0.0
  0
LINE
  5
235
330
22F
100
AcDbEntity
  8
치수문자_일반주서
 62
     0
370
    -2
100
AcDbLine
 10
109.5733018685834
 20
53.01980738881189
 30
0.0
 11
109.5733018685834
 21
46.92380738881189
 31
0.0
  0
SOLID
  5
236
330
22F
100
AcDbEntity
  8
치수문자_일반주서
 62
     0
100
AcDbTrace
 10
110.1236352019167
 20
53.01980738881189
 30
0.0
 11
109.0229685352501
 21
53.01980738881189
 31
0.0
 12
109.5733018685834
 22
56.32180738881189
 32
0.0
 13
109.5733018685834
 23
56.32180738881189
 33
0.0
  0
SOLID
  5
237
330
22F
100
AcDbEntity
  8
치수문자_일반주서
 62
     0
100
AcDbTrace
 10
109.0229685352501
 20
46.92380738881189
 30
0.0
 11
110.1236352019167
 21
46.92380738881189
 31
0.0
 12
109.5733018685834
 22
43.62180738881189
 32
0.0
 13
109.5733018685834
 23
43.62180738881189
 33
0.0
  0
MTEXT
  5
238
330
22F
100
AcDbEntity
  8
치수문자_일반주서
 62
     0
100
AcDbMText
 10
105.1983018685833
 20
78.43630738881187
 30
0.0
 40
3.5
 41
0.0
 71
     2
 72
     1
  1
\A1;%%c12 45/64 [1/2]
  7
SLDTEXTSTYLE0
 11
-3.356894814614646E-15
 21
1.0
 31
0.0
 73
     1
 44
1.0
  0
POINT
  5
239
330
22F
100
AcDbEntity
  8
Defpoints
 62
     0
100
AcDbPoint
 10
70.88145171699705
 20
56.32180738881175
 30
0.0
  0
POINT
  5
23A
330
22F
100
AcDbEntity
  8
Defpoints
 62
     0
100
AcDbPoint
 10
70.88145171699705
 20
43.62180738881175
 30
0.0
  0
POINT
  5
23B
330
22F
100
AcDbEntity
  8
Defpoints
 62
     0
100
AcDbPoint
 10
109.5733018685834
 20
43.62180738881189
 30
0.0
  0
ENDBLK
  5
231
330
22F
100
AcDbEntity
  8
0
100
AcDbBlockEnd
  0
BLOCK
  5
276
330
275
100
AcDbEntity
  8
0
100
AcDbBlockBegin
  2
*D11
 70
     1
 10
0.0
 20
0.0
 30
0.0
  3
*D11
  1
*D12
  0
LINE
  5
278
330
275
100
AcDbEntity
  8
치수문자_일반주서
 62
     0
370
    -2
100
AcDbLine
 10
35.40000000000001
 20
1.111336532705018
 30
0.0
 11
35.40000000000001
 21
18.38022850135653
 31
0.0
  0
LINE
  5
279
330
275
100
AcDbEntity
  8
치수문자_일반주서
 62
     0
370
    -2
100
AcDbLine
 10
10.0
 20
6.299290878155013
 30
0.0
 11
10.0
 21
18.38022850135653
 31
0.0
  0
LINE
  5
27A
330
275
100
AcDbEntity
  8
치수문자_일반주서
 62
     0
370
    -2
100
AcDbLine
 10
10.0
 20
18.38022850135653
 30
0.0
 11
-19.11449999999999
 21
18.38022850135653
 31
0.0
  0
LINE
  5
27B
330
275
100
AcDbEntity
  8
치수문자_일반주서
 62
     0
370
    -2
100
AcDbLine
 10
32.09800000000001
 20
18.38022850135653
 30
0.0
 11
13.302
 21
18.38022850135653
 31
0.0
  0
SOLID
  5
27C
330
275
100
AcDbEntity
  8
치수문자_일반주서
 62
     0
100
AcDbTrace
 10
32.09800000000001
 20
17.8298951680232
 30
0.0
 11
32.09800000000001
 21
18.93056183468987
 31
0.0
 12
35.40000000000001
 22
18.38022850135653
 32
0.0
 13
35.40000000000001
 23
18.38022850135653
 33
0.0
  0
SOLID
  5
27D
330
275
100
AcDbEntity
  8
치수문자_일반주서
 62
     0
100
AcDbTrace
 10
13.302
 20
18.93056183468987
 30
0.0
 11
13.302
 21
17.8298951680232
 31
0.0
 12
10.0
 22
18.38022850135653
 32
0.0
 13
10.0
 23
18.38022850135653
 33
0.0
  0
MTEXT
  5
27E
330
275
100
AcDbEntity
  8
치수문자_일반주서
 62
     0
100
AcDbMText
 10
-10.36449999999999
 20
22.75522850135653
 30
0.0
 40
3.5
 41
0.0
 71
     2
 72
     1
  1
\A1;25.4 [1]
  7
SLDTEXTSTYLE0
 73
     1
 44
1.0
  0
POINT
  5
27F
330
275
100
AcDbEntity
  8
Defpoints
 62
     0
100
AcDbPoint
 10
35.40000000000001
 20
1.048836532705018
 30
0.0
  0
POINT
  5
280
330
275
100
AcDbEntity
  8
Defpoints
 62
     0
100
AcDbPoint
 10
10.0
 20
6.236790878155013
 30
0.0
  0
POINT
  5
281
330
275
100
AcDbEntity
  8
Defpoints
 62
     0
100
AcDbPoint
 10
10.0
 20
18.38022850135653
 30
0.0
  0
ENDBLK
  5
277
330
275
100
AcDbEntity
  8
0
100
AcDbBlockEnd
  0
BLOCK
  5
285
330
284
100
AcDbEntity
  8
0
100
AcDbBlockBegin
  2
*D12
 70
     1
 10
0.0
 20
0.0
 30
0.0
  3
*D12
  1
*D13
  0
LINE
  5
287
330
284
100
AcDbEntity
  8
치수문자_일반주서
 62
     0
370
    -2
100
AcDbLine
 10
35.40000000000001
 20
1.111336532705018
 30
0.0
 11
35.40000000000001
 21
35.58857492872391
 31
0.0
  0
LINE
  5
288
330
284
100
AcDbEntity
  8
치수문자_일반주서
 62
     0
370
    -2
100
AcDbLine
 10
-40.80000000000001
 20
5.413574928723889
 30
0.0
 11
-40.80000000000001
 21
35.58857492872391
 31
0.0
  0
LINE
  5
289
330
284
100
AcDbEntity
  8
치수문자_일반주서
 62
     0
370
    -2
100
AcDbLine
 10
32.09800000000001
 20
35.58857492872391
 30
0.0
 11
-37.49800000000001
 21
35.58857492872391
 31
0.0
  0
SOLID
  5
28A
330
284
100
AcDbEntity
  8
치수문자_일반주서
 62
     0
100
AcDbTrace
 10
32.09800000000001
 20
35.03824159539057
 30
0.0
 11
32.09800000000001
 21
36.13890826205724
 31
0.0
 12
35.40000000000001
 22
35.58857492872391
 32
0.0
 13
35.40000000000001
 23
35.58857492872391
 33
0.0
  0
SOLID
  5
28B
330
284
100
AcDbEntity
  8
치수문자_일반주서
 62
     0
100
AcDbTrace
 10
-37.49800000000001
 20
36.13890826205724
 30
0.0
 11
-37.49800000000001
 21
35.03824159539057
 31
0.0
 12
-40.80000000000001
 22
35.58857492872391
 32
0.0
 13
-40.80000000000001
 23
35.58857492872391
 33
0.0
  0
MTEXT
  5
28C
330
284
100
AcDbEntity
  8
치수문자_일반주서
 62
     0
100
AcDbMText
 10
-1.257644014376297
 20
39.96357492872391
 30
0.0
 40
3.5
 41
0.0
 71
     2
 72
     1
  1
\A1;76.2 [3]
  7
SLDTEXTSTYLE0
 73
     1
 44
1.0
  0
POINT
  5
28D
330
284
100
AcDbEntity
  8
Defpoints
 62
     0
100
AcDbPoint
 10
35.40000000000001
 20
1.048836532705018
 30
0.0
  0
POINT
  5
28E
330
284
100
AcDbEntity
  8
Defpoints
 62
     0
100
AcDbPoint
 10
-40.80000000000001
 20
5.351074928723889
 30
0.0
  0
POINT
  5
28F
330
284
100
AcDbEntity
  8
Defpoints
 62
     0
100
AcDbPoint
 10
-40.80000000000001
 20
35.58857492872391
 30
0.0
  0
ENDBLK
  5
286
330
284
100
AcDbEntity
  8
0
100
AcDbBlockEnd
  0
BLOCK
  5
291
330
290
100
AcDbEntity
  8
0
100
AcDbBlockBegin
  2
*D13
 70
     1
 10
0.0
 20
0.0
 30
0.0
  3
*D13
  1
*D14
  0
LINE
  5
293
330
290
100
AcDbEntity
  8
치수문자_일반주서
 62
     0
370
    -2
100
AcDbLine
 10
-39.86250000000001
 20
6.351074928723889
 30
0.0
 11
-50.43266190202883
 21
6.35107492872385
 31
0.0
  0
LINE
  5
294
330
290
100
AcDbEntity
  8
치수문자_일반주서
 62
     0
370
    -2
100
AcDbLine
 10
-39.86250000000001
 20
-6.348925071276099
 30
0.0
 11
-50.43266190202878
 21
-6.348925071276142
 31
0.0
  0
LINE
  5
295
330
290
100
AcDbEntity
  8
치수문자_일반주서
 62
     0
370
    -2
100
AcDbLine
 10
-50.43266190202883
 20
6.35107492872385
 30
0.0
 11
-50.43266190202895
 21
44.01757492872385
 31
0.0
  0
LINE
  5
296
330
290
100
AcDbEntity
  8
치수문자_일반주서
 62
     0
370
    -2
100
AcDbLine
 10
-50.43266190202883
 20
6.35107492872385
 30
0.0
 11
-50.43266190202878
 21
-6.348925071276142
 31
0.0
  0
LINE
  5
297
330
290
100
AcDbEntity
  8
치수문자_일반주서
 62
     0
370
    -2
100
AcDbLine
 10
-50.43266190202884
 20
9.65307492872385
 30
0.0
 11
-50.43266190202885
 21
12.95507492872385
 31
0.0
  0
LINE
  5
298
330
290
100
AcDbEntity
  8
치수문자_일반주서
 62
     0
370
    -2
100
AcDbLine
 10
-50.43266190202877
 20
-9.650925071276141
 30
0.0
 11
-50.43266190202876
 21
-12.95292507127614
 31
0.0
  0
SOLID
  5
299
330
290
100
AcDbEntity
  8
치수문자_일반주서
 62
     0
100
AcDbTrace
 10
-50.98299523536217
 20
9.653074928723848
 30
0.0
 11
-49.88232856869551
 21
9.653074928723852
 31
0.0
 12
-50.43266190202883
 22
6.35107492872385
 32
0.0
 13
-50.43266190202883
 23
6.35107492872385
 33
0.0
  0
SOLID
  5
29A
330
290
100
AcDbEntity
  8
치수문자_일반주서
 62
     0
100
AcDbTrace
 10
-49.88232856869543
 20
-9.65092507127614
 30
0.0
 11
-50.9829952353621
 21
-9.650925071276143
 31
0.0
 12
-50.43266190202878
 22
-6.348925071276142
 32
0.0
 13
-50.43266190202878
 23
-6.348925071276142
 33
0.0
  0
MTEXT
  5
29B
330
290
100
AcDbEntity
  8
치수문자_일반주서
 62
     0
100
AcDbMText
 10
-54.80766190202891
 20
31.76757492872384
 30
0.0
 40
3.5
 41
0.0
 71
     2
 72
     1
  1
\A1;%%c12.7 [1/2]
  7
SLDTEXTSTYLE0
 11
-3.356894814614650E-15
 21
1.0
 31
0.0
 73
     1
 44
1.0
  0
POINT
  5
29C
330
290
100
AcDbEntity
  8
Defpoints
 62
     0
100
AcDbPoint
 10
-39.80000000000001
 20
6.351074928723889
 30
0.0
  0
POINT
  5
2AA
330
290
100
AcDbEntity
  8
Defpoints
 62
     0
100
AcDbPoint
 10
-39.80000000000001
 20
-6.348925071276099
 30
0.0
  0
POINT
  5
2AB
330
290
100
AcDbEntity
  8
Defpoints
 62
     0
100
AcDbPoint
 10
-50.43266190202878
 20
-6.348925071276139
 30
0.0
  0
ENDBLK
  5
292
330
290
100
AcDbEntity
  8
0
100
AcDbBlockEnd
  0
BLOCK
  5
29E
330
29D
100
AcDbEntity
  8
0
100
AcDbBlockBegin
  2
*D14
 70
     1
 10
0.0
 20
0.0
 30
0.0
  3
*D14
  1
*D15
  0
LINE
  5
2A0
330
29D
100
AcDbEntity
  8
치수문자_일반주서
 62
     0
370
    -2
100
AcDbLine
 10
35.51346489076124
 20
6.351074928723968
 30
0.0
 11
54.76563996655442
 21
6.351074928724042
 31
0.0
  0
LINE
  5
2A1
330
29D
100
AcDbEntity
  8
치수문자_일반주서
 62
     0
370
    -2
100
AcDbLine
 10
35.51346489076124
 20
-6.348925071276106
 30
0.0
 11
54.76563996655447
 21
-6.348925071276035
 31
0.0
  0
LINE
  5
2A2
330
29D
100
AcDbEntity
  8
치수문자_일반주서
 62
     0
370
    -2
100
AcDbLine
 10
54.76563996655442
 20
6.351074928724042
 30
0.0
 11
54.7656399665543
 21
41.83007492872404
 31
0.0
  0
LINE
  5
2A3
330
29D
100
AcDbEntity
  8
치수문자_일반주서
 62
     0
370
    -2
100
AcDbLine
 10
54.76563996655442
 20
6.351074928724042
 30
0.0
 11
54.76563996655447
 21
-6.348925071276035
 31
0.0
  0
LINE
  5
2A4
330
29D
100
AcDbEntity
  8
치수문자_일반주서
 62
     0
370
    -2
100
AcDbLine
 10
54.76563996655441
 20
9.653074928724042
 30
0.0
 11
54.7656399665544
 21
12.95507492872404
 31
0.0
  0
LINE
  5
2A5
330
29D
100
AcDbEntity
  8
치수문자_일반주서
 62
     0
370
    -2
100
AcDbLine
 10
54.76563996655448
 20
-9.650925071276035
 30
0.0
 11
54.7656399665545
 21
-12.95292507127603
 31
0.0
  0
SOLID
  5
2A6
330
29D
100
AcDbEntity
  8
치수문자_일반주서
 62
     0
100
AcDbTrace
 10
54.21530663322108
 20
9.65307492872404
 30
0.0
 11
55.31597329988774
 21
9.653074928724044
 31
0.0
 12
54.76563996655442
 22
6.351074928724042
 32
0.0
 13
54.76563996655442
 23
6.351074928724042
 33
0.0
  0
SOLID
  5
2A7
330
29D
100
AcDbEntity
  8
치수문자_일반주서
 62
     0
100
AcDbTrace
 10
55.31597329988782
 20
-9.650925071276033
 30
0.0
 11
54.21530663322115
 21
-9.650925071276037
 31
0.0
 12
54.76563996655447
 22
-6.348925071276035
 32
0.0
 13
54.76563996655447
 23
-6.348925071276035
 33
0.0
  0
MTEXT
  5
2A8
330
29D
100
AcDbEntity
  8
치수문자_일반주서
 62
     0
100
AcDbMText
 10
50.39063996655435
 20
29.58007492872402
 30
0.0
 40
3.5
 41
0.0
 71
     2
 72
     1
  1
\A1;%%c12.7 [1/2]
  7
SLDTEXTSTYLE0
 11
-3.356894814614626E-15
 21
1.0
 31
0.0
 73
     1
 44
1.0
  0
POINT
  5
2A9
330
29D
100
AcDbEntity
  8
Defpoints
 62
     0
100
AcDbPoint
 10
35.45096489076124
 20
6.351074928723968
 30
0.0
  0
POINT
  5
2AC
330
29D
100
AcDbEntity
  8
Defpoints
 62
     0
100
AcDbPoint
 10
35.45096489076124
 20
-6.348925071276106
 30
0.0
  0
POINT
  5
2AD
330
29D
100
AcDbEntity
  8
Defpoints
 62
     0
100
AcDbPoint
 10
54.76563996655452
 20
-6.348925071276034
 30
0.0
  0
ENDBLK
  5
29F
330
29D
100
AcDbEntity
  8
0
100
AcDbBlockEnd
  0
BLOCK
  5
3D6
330
2D8
100
AcDbEntity
  8
0
100
AcDbBlockBegin
  2
EI099024
 70
     0
 10
0.0
 20
0.0
 30
0.0
  3
EI099024
  1
EI099024
  0
LINE
  5
334
330
2D8
100
AcDbEntity
  8
외형선
  6
Continuous
370
    15
100
AcDbLine
 10
9.050409734194254
 20
4.763574928723896
 30
0.0
 11
-29.70500000000001
 21
4.763574928723891
 31
0.0
  0
LINE
  5
335
330
2D8
100
AcDbEntity
  8
외형선
  6
Continuous
370
    15
100
AcDbLine
 10
-29.70500000000001
 20
-4.761425071276111
 30
0.0
 11
9.050409734194254
 21
-4.761425071276106
 31
0.0
  0
LINE
  5
336
330
2D8
100
AcDbEntity
  8
외형선
  6
Continuous
370
    15
100
AcDbLine
 10
-29.70500000000001
 20
4.763574928723891
 30
0.0
 11
-30.70500000000001
 21
3.76357492872389
 31
0.0
  0
LINE
  5
337
330
2D8
100
AcDbEntity
  8
외형선
  6
Continuous
370
    15
100
AcDbLine
 10
-30.70500000000001
 20
-3.761425071276111
 30
0.0
 11
-29.70500000000001
 21
-4.761425071276111
 31
0.0
  0
LINE
  5
338
330
2D8
100
AcDbEntity
  8
외형선
  6
Continuous
 62
     1
370
    15
100
AcDbLine
 10
18.29917877776687
 20
4.763574928723894
 30
0.0
 11
12.54454541016931
 21
4.763574928723894
 31
0.0
  0
LINE
  5
339
330
2D8
100
AcDbEntity
  8
외형선
  6
Continuous
 62
     1
370
    15
100
AcDbLine
 10
12.54454541016931
 20
-4.761425071276104
 30
0.0
 11
18.29917877776687
 21
-4.761425071276104
 31
0.0
  0
ARC
  5
33A
330
2D8
100
AcDbEntity
  8
외형선
  6
Continuous
 62
     1
370
    15
100
AcDbCircle
 10
28.0325
 20
0.0010749287238953
 30
0.0
 40
4.762499999999998
100
AcDbArc
 50
323.0909687154099
 51
0.0
  0
ARC
  5
33B
330
2D8
100
AcDbEntity
  8
외형선
  6
Continuous
 62
     1
370
    15
100
AcDbCircle
 10
28.0325
 20
0.0010749287238953
 30
0.0
 40
4.762499999999996
100
AcDbArc
 50
0.0
 51
36.87393075574018
  0
SPLINE
  5
33C
330
2D8
100
AcDbEntity
  8
외형선
  6
Continuous
370
    15
100
AcDbSpline
210
0.0
220
0.0
230
1.0
 70
     8
 71
     3
 72
    10
 73
     6
 74
     0
 42
0.000000001
 43
0.00000001
 40
0.0
 40
0.0
 40
0.0
 40
0.0
 40
0.4999999999999999
 40
0.4999999999999999
 40
1.0
 40
1.0
 40
1.0
 40
1.0
 10
10.56999999999999
 20
-4.530945138002087
 30
0.0
 10
10.31556676472041
 20
-4.472181314957359
 30
0.0
 10
10.06073189185066
 20
-4.402389677125992
 30
0.0
 10
9.555762945792253
 20
-4.242424666020894
 30
0.0
 10
9.304270841439832
 20
-4.152166459073504
 30
0.0
 10
9.050066975244544
 20
-4.051776337042408
 30
0.0
  0
LINE
  5
33D
330
2D8
100
AcDbEntity
  8
외형선
  6
Continuous
370
    15
100
AcDbLine
 10
9.050409734194254
 20
-4.761425071276106
 30
0.0
 11
9.050409734194254
 21
-4.0516659548689
 31
0.0
  0
SPLINE
  5
33E
330
2D8
100
AcDbEntity
  8
외형선
  6
Continuous
370
    15
100
AcDbSpline
210
0.0
220
0.0
230
1.0
 70
     8
 71
     3
 72
    10
 73
     6
 74
     0
 42
0.000000001
 43
0.00000001
 40
0.0
 40
0.0
 40
0.0
 40
0.0
 40
0.4999999999999999
 40
0.4999999999999999
 40
1.0
 40
1.0
 40
1.0
 40
1.0
 10
10.56999999999999
 20
4.533094995449878
 30
0.0
 10
10.31556676472041
 20
4.474331172405151
 30
0.0
 10
10.06073189185066
 20
4.404539534573781
 30
0.0
 10
9.555762945792251
 20
4.244574523468686
 30
0.0
 10
9.30427084143983
 20
4.154316316521295
 30
0.0
 10
9.050066975244542
 20
4.0539261944902
 30
0.0
  0
SPLINE
  5
33F
330
2D8
100
AcDbEntity
  8
외형선
  6
Continuous
370
    15
100
AcDbSpline
210
0.0
220
0.0
230
1.0
 70
     8
 71
     3
 72
    10
 73
     6
 74
     0
 42
0.000000001
 43
0.00000001
 40
0.0
 40
0.0
 40
0.0
 40
0.0
 40
0.5
 40
0.5
 40
1.0
 40
1.0
 40
1.0
 40
1.0
 10
10.56999999999999
 20
-1.621644885581759
 30
0.0
 10
10.31562394284785
 20
-1.441915149122042
 30
0.0
 10
10.06084642522093
 20
-1.258157492535593
 30
0.0
 10
9.555988854254494
 20
-0.8866104565197329
 30
0.0
 10
9.304555670165886
 20
-0.6985028174079719
 30
0.0
 10
9.050409734194254
 20
-0.5084885753554278
 30
0.0
  0
LINE
  5
340
330
2D8
100
AcDbEntity
  8
외형선
  6
Continuous
370
    15
100
AcDbLine
 10
10.56999999999999
 20
-1.621644885581758
 30
0.0
 11
10.56999999999999
 21
-4.530945138002089
 31
0.0
  0
LINE
  5
341
330
2D8
100
AcDbEntity
  8
외형선
  6
Continuous
370
    15
100
AcDbLine
 10
-29.70500000000001
 20
4.763574928723891
 30
0.0
 11
-29.70500000000001
 21
-4.761425071276111
 31
0.0
  0
LINE
  5
342
330
2D8
100
AcDbEntity
  8
외형선
  6
Continuous
370
    15
100
AcDbLine
 10
9.050409734194254
 20
-0.5086720998880568
 30
0.0
 11
9.050409734194254
 21
4.763574928723896
 31
0.0
  0
LINE
  5
343
330
2D8
100
AcDbEntity
  8
외형선
  6
Continuous
370
    15
100
AcDbLine
 10
-30.70500000000001
 20
3.763574928723892
 30
0.0
 11
-30.70500000000001
 21
-3.761425071276111
 31
0.0
  0
SPLINE
  5
344
330
2D8
100
AcDbEntity
  8
외형선
  6
Continuous
370
    15
100
AcDbSpline
210
0.0
220
0.0
230
1.0
 70
    24
 71
     3
 72
    14
 73
    10
 74
     0
 42
0.000000001
 43
0.00000001
 40
0.0
 40
0.0
 40
0.0
 40
0.0
 40
0.25
 40
0.25
 40
0.5
 40
0.5
 40
0.75
 40
0.75
 40
1.0
 40
1.0
 40
1.0
 40
1.0
 10
10.56999999999999
 20
1.501360048219084
 30
0.0
 10
10.56999999999999
 20
1.199961538268656
 30
0.0
 10
10.56999999999999
 20
0.8813819194109381
 30
0.0
 10
10.56999999999999
 20
0.2421024979508308
 30
0.0
 10
10.56999999999999
 20
-0.0783594768834525
 30
0.0
 10
10.56999999999999
 20
-0.668821080722283
 30
0.0
 10
10.56999999999999
 20
-0.9379446725845929
 30
0.0
 10
10.56999999999999
 20
-1.368898982296308
 30
0.0
 10
10.56999999999999
 20
-1.529796719277656
 30
0.0
 10
10.56999999999999
 20
-1.621644885580399
 30
0.0
  0
SPLINE
  5
345
330
2D8
100
AcDbEntity
  8
외형선
  6
Continuous
370
    15
100
AcDbSpline
210
0.0
220
0.0
230
1.0
 70
     8
 71
     3
 72
    10
 73
     6
 74
     0
 42
0.000000001
 43
0.00000001
 40
0.0
 40
0.0
 40
0.0
 40
0.0
 40
0.5
 40
0.5
 40
1.0
 40
1.0
 40
1.0
 40
1.0
 10
10.56999999999998
 20
1.501360048219087
 30
0.0
 10
10.31562394284784
 20
1.563747274233802
 30
0.0
 10
10.06084642522092
 20
1.622527317591882
 30
0.0
 10
9.555988854254485
 20
1.731660428510099
 30
0.0
 10
9.304555670165884
 20
1.782134146403187
 30
0.0
 10
9.050409734194254
 20
1.828368269050972
 30
0.0
  0
SPLINE
  5
346
330
2D8
100
AcDbEntity
  8
외형선
  6
Continuous
370
    15
100
AcDbSpline
210
0.0
220
0.0
230
1.0
 70
    24
 71
     3
 72
    14
 73
    10
 74
     0
 42
0.000000001
 43
0.00000001
 40
0.0
 40
0.0
 40
0.0
 40
0.0
 40
0.25
 40
0.25
 40
0.5
 40
0.5
 40
0.75
 40
0.75
 40
1.0
 40
1.0
 40
1.0
 40
1.0
 10
10.56999999999999
 20
4.5330949954411
 30
0.0
 10
10.56999999999999
 20
4.123882525209424
 30
0.0
 10
10.56999999999999
 20
3.724626001337793
 30
0.0
 10
10.56999999999999
 20
3.007061899599974
 30
0.0
 10
10.56999999999999
 20
2.689396792431849
 30
0.0
 10
10.56999999999999
 20
2.166761066286328
 30
0.0
 10
10.56999999999999
 20
1.961496425042815
 30
0.0
 10
10.56999999999999
 20
1.658174414785093
 30
0.0
 10
10.56999999999999
 20
1.559476329996992
 30
0.0
 10
10.56999999999999
 20
1.501360048219085
 30
0.0
  0
SPLINE
  5
347
330
2D8
100
AcDbEntity
  8
외형선
  6
Continuous
 62
     1
370
    15
100
AcDbSpline
210
0.0
220
0.0
230
1.0
 70
     8
 71
     3
 72
    17
 73
    13
 74
     0
 42
0.000000001
 43
0.00000001
 40
0.0910963239365412
 40
0.0910963239365412
 40
0.0910963239365412
 40
0.0910963239365412
 40
0.1048051640048891
 40
0.2045081671201217
 40
0.3042362563530712
 40
0.4040009974387424
 40
0.503808946105573
 40
0.6035920261862875
 40
0.7033337484036327
 40
0.8022376493029348
 40
0.9011216205680445
 40
1.0
 40
1.0
 40
1.0
 40
1.0
 10
24.09520318475952
 20
-2.11905633592962
 30
0.0
 10
24.02720578777348
 20
-2.113597153690102
 30
0.0
 10
23.46466987585915
 20
-2.065842700390603
 30
0.0
 10
22.40746472205995
 20
-1.949209407388831
 30
0.0
 10
20.92338045690698
 20
-1.665149854430925
 30
0.0
 10
19.43874062128492
 20
-1.293137492040511
 30
0.0
 10
17.95375246683678
 20
-0.8491918496821532
 30
0.0
 10
16.46892752289635
 20
-0.3588530682053073
 30
0.0
 10
14.98863215678881
 20
0.1503395815758275
 30
0.0
 10
13.51284235734021
 20
0.6483279455588551
 30
0.0
 10
12.0413558244695
 20
1.1158069593243
 30
0.0
 10
11.06044269621381
 20
1.37284477454672
 30
0.0
 10
10.56999999999999
 20
1.501360048219084
 30
0.0
  0
SPLINE
  5
348
330
2D8
100
AcDbEntity
  8
외형선
  6
Continuous
370
    15
100
AcDbSpline
210
0.0
220
0.0
230
1.0
 70
    24
 71
     3
 72
    14
 73
    10
 74
     0
 42
0.000000001
 43
0.00000001
 40
0.0
 40
0.0
 40
0.0
 40
0.0
 40
0.25
 40
0.25
 40
0.5
 40
0.5
 40
0.75
 40
0.75
 40
1.0
 40
1.0
 40
1.0
 40
1.0
 10
10.56999999999999
 20
4.5330949954411
 30
0.0
 10
10.56999999999999
 20
4.123882525209424
 30
0.0
 10
10.56999999999999
 20
3.724626001337793
 30
0.0
 10
10.56999999999999
 20
3.007061899599974
 30
0.0
 10
10.56999999999999
 20
2.689396792431849
 30
0.0
 10
10.56999999999999
 20
2.166761066286328
 30
0.0
 10
10.56999999999999
 20
1.961496425042815
 30
0.0
 10
10.56999999999999
 20
1.658174414785093
 30
0.0
 10
10.56999999999999
 20
1.559476329996992
 30
0.0
 10
10.56999999999999
 20
1.501360048219085
 30
0.0
  0
SPLINE
  5
349
330
2D8
100
AcDbEntity
  8
외형선
  6
Continuous
 62
     1
370
    15
100
AcDbSpline
210
0.0
220
0.0
230
1.0
 70
     8
 71
     3
 72
    32
 73
    28
 74
     0
 42
0.000000001
 43
0.00000001
 40
0.5313110422297594
 40
0.5313110422297594
 40
0.5313110422297594
 40
0.5313110422297594
 40
0.5625000000000003
 40
0.5625000000000003
 40
0.5937500000000003
 40
0.5937500000000003
 40
0.6250000000000002
 40
0.6250000000000002
 40
0.6562500000000002
 40
0.6562500000000002
 40
0.6875000000000002
 40
0.6875000000000002
 40
0.7500000000000001
 40
0.7500000000000001
 40
0.7812500000000001
 40
0.7812500000000001
 40
0.8125
 40
0.8125
 40
0.84375
 40
0.84375
 40
0.8749999999999999
 40
0.8749999999999999
 40
0.9375
 40
0.9375
 40
0.9687499999999999
 40
0.9687499999999999
 40
1.0
 40
1.0
 40
1.0
 40
1.0
 10
18.75487173728695
 20
2.643090636893163
 30
0.0
 10
18.57253175895616
 20
2.757086248406456
 30
0.0
 10
18.39014764964587
 20
2.867823195173909
 30
0.0
 10
18.02696582943741
 20
3.081716449205378
 30
0.0
 10
17.84709095428189
 20
3.184716191848126
 30
0.0
 10
17.48406158467188
 20
3.383194406926084
 30
0.0
 10
17.30144889500941
 20
3.478551803277345
 30
0.0
 10
16.93606225809505
 20
3.660382952610878
 30
0.0
 10
16.7532908549835
 20
3.746855420319012
 30
0.0
 10
16.38963251660119
 20
3.909990959783876
 30
0.0
 10
16.20971737083665
 20
3.986534543414917
 30
0.0
 10
15.66538506541156
 20
4.201721824864599
 30
0.0
 10
15.29797052405487
 20
4.325486207718471
 30
0.0
 10
14.7523069227887
 20
4.477389237270261
 30
0.0
 10
14.57233495162573
 20
4.52236500195251
 30
0.0
 10
14.20959194994508
 20
4.601244167356582
 30
0.0
 10
14.02705867516305
 20
4.635100537688973
 30
0.0
 10
13.66170038749448
 20
4.691186603169667
 30
0.0
 10
13.4788779173702
 20
4.713415862410832
 30
0.0
 10
13.11498885654856
 20
4.746045272905518
 30
0.0
 10
12.93494350731604
 20
4.75644481120578
 30
0.0
 10
12.39105285347814
 20
4.770025317963379
 30
0.0
 10
12.02367559724939
 20
4.755333316499563
 30
0.0
 10
11.47767812614821
 20
4.698030778190462
 30
0.0
 10
11.29754284891016
 20
4.673149806838301
 30
0.0
 10
10.93510233708833
 20
4.611793088922568
 30
0.0
 10
10.75265671206773
 20
4.575281334408645
 30
0.0
 10
10.56999999999998
 20
4.533094995449875
 30
0.0
  0
SPLINE
  5
34A
330
2D8
100
AcDbEntity
  8
외형선
  6
Continuous
 62
     1
370
    15
100
AcDbSpline
210
0.0
220
0.0
230
1.0
 70
     8
 71
     3
 72
     8
 73
     4
 74
     0
 42
0.000000001
 43
0.00000001
 40
0.0
 40
0.0
 40
0.0
 40
0.0
 40
1.0
 40
1.0
 40
1.0
 40
1.0
 10
30.05487069743642
 20
1.562057795566594
 30
0.0
 10
30.80357894268219
 20
1.34106339315946
 30
0.0
 10
31.55621080267487
 20
1.102012498343692
 30
0.0
 10
32.31288211100888
 20
0.8443720444055675
 30
0.0
  0
SPLINE
  5
34B
330
2D8
100
AcDbEntity
  8
외형선
  6
Continuous
 62
     1
370
    15
100
AcDbSpline
210
0.0
220
0.0
230
1.0
 70
     8
 71
     3
 72
    28
 73
    24
 74
     0
 42
0.000000001
 43
0.00000001
 40
0.0
 40
0.0
 40
0.0
 40
0.0
 40
0.1249999999999994
 40
0.1249999999999994
 40
0.1874999999999991
 40
0.1874999999999991
 40
0.2499999999999988
 40
0.2499999999999988
 40
0.3749999999999992
 40
0.3749999999999992
 40
0.4999999999999994
 40
0.4999999999999994
 40
0.6249999999999997
 40
0.6249999999999997
 40
0.6874999999999998
 40
0.6874999999999998
 40
0.7499999999999999
 40
0.7499999999999999
 40
0.8124999999999999
 40
0.8124999999999999
 40
0.8749999999999999
 40
0.8749999999999999
 40
1.0
 40
1.0
 40
1.0
 40
1.0
 10
28.0325
 20
0.1472534696350976
 30
0.0
 10
28.28460051918868
 20
-0.0430170157156398
 30
0.0
 10
28.53178278911234
 20
-0.2320084699590338
 30
0.0
 10
28.90091021096664
 20
-0.5062684808124246
 30
0.0
 10
29.02367752980341
 20
-0.5961378011086536
 30
0.0
 10
29.26975343456792
 20
-0.7711978041367694
 30
0.0
 10
29.39333678371581
 20
-0.8566295433184562
 30
0.0
 10
29.75864689342342
 20
-1.097027920618633
 30
0.0
 10
29.99823324669273
 20
-1.237276554955856
 30
0.0
 10
30.48041324074146
 20
-1.458453928640194
 30
0.0
 10
30.71731247786775
 20
-1.536632760915741
 30
0.0
 10
31.18220488450718
 20
-1.59329238012825
 30
0.0
 10
31.4090805688513
 20
-1.570233248769736
 30
0.0
 10
31.72127927195198
 20
-1.42219720662766
 30
0.0
 10
31.81853596479205
 20
-1.355335915769092
 30
0.0
 10
31.9990309116865
 20
-1.180518437799202
 30
0.0
 10
32.07894000448329
 20
-1.075307347553978
 30
0.0
 10
32.21444341613974
 20
-0.8333016157169983
 30
0.0
 10
32.27015577638291
 20
-0.695116628689511
 30
0.0
 10
32.35094597157681
 20
-0.4049865081384857
 30
0.0
 10
32.37712853701971
 20
-0.2494707625307679
 30
0.0
 10
32.41329515976565
 20
0.2166931029926218
 30
0.0
 10
32.38303849174839
 20
0.5368005472777825
 30
0.0
 10
32.31288211100913
 20
0.8443720444063482
 30
0.0
  0
SPLINE
  5
34C
330
2D8
100
AcDbEntity
  8
외형선
  6
Continuous
 62
     1
370
    15
100
AcDbSpline
210
0.0
220
0.0
230
1.0
 70
     8
 71
     3
 72
    20
 73
    16
 74
     0
 42
0.000000001
 43
0.00000001
 40
0.0
 40
0.0
 40
0.0
 40
0.0
 40
0.0763436161922708
 40
0.1526874378332287
 40
0.2306026381212303
 40
0.3085179417144475
 40
0.3848609739688905
 40
0.4612040661969827
 40
0.5391156156903573
 40
0.6170271819617358
 40
0.7071435049586582
 40
0.7972598114022922
 40
0.8899794194669457
 40
0.9826989414446254
 40
1.0
 40
1.0
 40
1.0
 40
1.0
 10
28.0325
 20
0.1472534696350951
 30
0.0
 10
27.78489548074185
 20
0.3337103775059139
 30
0.0
 10
27.2896857758958
 20
0.706624695022668
 30
0.0
 10
26.54112951144741
 20
1.258691585120209
 30
0.0
 10
25.78821517038106
 20
1.797784266926469
 30
0.0
 10
25.03470234917867
 20
2.310640984882325
 30
0.0
 10
24.28684662534046
 20
2.787874138877801
 30
0.0
 10
23.53860843230741
 20
3.226312805374395
 30
0.0
 10
22.78551542003105
 20
3.621896979737477
 30
0.0
 10
21.98768728759368
 20
3.986812215866061
 30
0.0
 10
21.14997049080181
 20
4.300395394431684
 30
0.0
 10
20.26438736242078
 20
4.551823037469824
 30
0.0
 10
19.37008493491224
 20
4.705650359369765
 30
0.0
 10
18.71233526902572
 20
4.77290198590514
 30
0.0
 10
18.35532041008467
 20
4.758656764925762
 30
0.0
 10
18.29917877776687
 20
4.756416662200396
 30
0.0
  0
SPLINE
  5
34D
330
2D8
100
AcDbEntity
  8
외형선
  6
Continuous
 62
     1
370
    15
100
AcDbSpline
210
0.0
220
0.0
230
1.0
 70
     8
 71
     3
 72
    11
 73
     7
 74
     0
 42
0.000000001
 43
0.00000001
 40
0.0
 40
0.0
 40
0.0
 40
0.0
 40
0.3332507467037181
 40
0.6664977601499342
 40
0.974824029027851
 40
1.0
 40
1.0
 40
1.0
 40
1.0
 10
30.06479535083131
 20
1.587240887931442
 30
0.0
 10
29.53033001534736
 20
1.702130120035459
 30
0.0
 10
28.46140533175305
 20
1.931907297191351
 30
0.0
 10
26.89794243006899
 20
2.10794580771398
 30
0.0
 10
25.82871042777077
 20
2.180365855756639
 30
0.0
 10
25.29387336546835
 20
2.158251413034552
 30
0.0
 10
25.25349869703611
 20
2.15658200125403
 30
0.0
  0
SPLINE
  5
34E
330
2D8
100
AcDbEntity
  8
외형선
  6
Continuous
 62
     1
370
    15
100
AcDbSpline
210
0.0
220
0.0
230
1.0
 70
     8
 71
     3
 72
     8
 73
     4
 74
     0
 42
0.000000001
 43
0.00000001
 40
0.0
 40
0.0
 40
0.0
 40
0.0
 40
1.0
 40
1.0
 40
1.0
 40
1.0
 10
30.06479535590245
 20
1.587240886757218
 30
0.0
 10
30.06155728122036
 20
1.578799573840567
 30
0.0
 10
30.05824919341608
 20
1.570405121971611
 30
0.0
 10
30.05487069743645
 20
1.562057795566596
 30
0.0
  0
SPLINE
  5
34F
330
2D8
100
AcDbEntity
  8
외형선
  6
Continuous
370
    15
100
AcDbSpline
210
0.0
220
0.0
230
1.0
 70
     8
 71
     3
 72
     9
 73
     5
 74
     0
 42
0.000000001
 43
0.00000001
 40
0.0
 40
0.0
 40
0.0
 40
0.0
 40
0.558424407006889
 40
1.0
 40
1.0
 40
1.0
 40
1.0
 10
10.56999999999999
 20
-4.530945138002085
 30
0.0
 10
10.93730242127582
 20
-4.60608872326651
 30
0.0
 10
11.59505021429323
 20
-4.740652299502707
 30
0.0
 10
12.25370120733943
 20
-4.746654315700257
 30
0.0
 10
12.54454541016931
 20
-4.749304659561846
 30
0.0
  0
SPLINE
  5
350
330
2D8
100
AcDbEntity
  8
외형선
  6
Continuous
 62
     1
370
    15
100
AcDbSpline
210
0.0
220
0.0
230
1.0
 70
     8
 71
     3
 72
    25
 73
    21
 74
     0
 42
0.000000001
 43
0.00000001
 40
0.046885298589975
 40
0.046885298589975
 40
0.046885298589975
 40
0.046885298589975
 40
0.0658457944345033
 40
0.1164508922200499
 40
0.168095664073879
 40
0.2197404470492453
 40
0.2794753255331833
 40
0.33921019304454
 40
0.4006706958328038
 40
0.4621311415571002
 40
0.5219929758073653
 40
0.581854746135842
 40
0.6434550672717027
 40
0.7050552257296201
 40
0.7646626521629153
 40
0.8246876517255195
 40
0.8681065011500275
 40
0.9116862374949974
 40
0.9557591029030226
 40
1.0
 40
1.0
 40
1.0
 40
1.0
 10
24.56512559300845
 20
-2.607410233965769
 30
0.0
 10
24.47234782458894
 20
-2.665604057612993
 30
0.0
 10
24.13194643681758
 20
-2.875487195062817
 30
0.0
 10
23.53860742535421
 20
-3.224531194722946
 30
0.0
 10
22.78551569674883
 20
-3.619667471555822
 30
0.0
 10
21.98768717713444
 20
-3.984611097407744
 30
0.0
 10
21.1499706259579
 20
-4.298600433241513
 30
0.0
 10
20.26438693853627
 20
-4.548307650231044
 30
0.0
 10
19.37008654330774
 20
-4.708767929968027
 30
0.0
 10
18.47547353204924
 20
-4.775543921035659
 30
0.0
 10
17.58840914636072
 20
-4.746325497375413
 30
0.0
 10
16.70102660372259
 20
-4.62547283656415
 30
0.0
 10
15.80471068330795
 20
-4.410214500610781
 30
0.0
 10
14.90978773766295
 20
-4.10686172650334
 30
0.0
 10
14.02403492809134
 20
-3.723426654884396
 30
0.0
 10
13.22428688312713
 20
-3.315668718011742
 30
0.0
 10
12.50640820339437
 20
-2.900451234277602
 30
0.0
 10
11.86350453746338
 20
-2.503210372864096
 30
0.0
 10
11.21893883479485
 20
-2.076088097885696
 30
0.0
 10
10.78658715203673
 20
-1.773317979928855
 30
0.0
 10
10.56999999999999
 20
-1.621644885581758
 30
0.0
  0
ARC
  5
351
330
2D8
100
AcDbEntity
  8
외형선
  6
Continuous
 62
     1
370
    15
100
AcDbCircle
 10
31.15104816928112
 20
-0.4357377451667929
 30
0.0
 40
1.728739188399927
100
AcDbArc
 50
20.79721763986086
 51
47.77296113028869
  0
ARC
  5
352
330
2D8
100
AcDbEntity
  8
외형선
  6
Continuous
 62
     1
370
    15
100
AcDbCircle
 10
28.27170232132851
 20
0.0091567922757356
 30
0.0
 40
4.49861775790223
100
AcDbArc
 50
2.151850384571631
 51
27.07559065500038
  0
SPLINE
  5
353
330
2D8
100
AcDbEntity
  8
외형선
  6
Continuous
370
    15
100
AcDbSpline
210
0.0
220
0.0
230
1.0
 70
    24
 71
     3
 72
    14
 73
    10
 74
     0
 42
0.000000001
 43
0.00000001
 40
0.0
 40
0.0
 40
0.0
 40
0.0
 40
0.25
 40
0.25
 40
0.5
 40
0.5
 40
0.75
 40
0.75
 40
1.0
 40
1.0
 40
1.0
 40
1.0
 10
10.56999999999999
 20
1.501360048219084
 30
0.0
 10
10.56999999999999
 20
1.199961538268656
 30
0.0
 10
10.56999999999999
 20
0.8813819194109381
 30
0.0
 10
10.56999999999999
 20
0.2421024979508308
 30
0.0
 10
10.56999999999999
 20
-0.0783594768834525
 30
0.0
 10
10.56999999999999
 20
-0.668821080722283
 30
0.0
 10
10.56999999999999
 20
-0.9379446725845929
 30
0.0
 10
10.56999999999999
 20
-1.368898982296308
 30
0.0
 10
10.56999999999999
 20
-1.529796719277656
 30
0.0
 10
10.56999999999999
 20
-1.621644885580399
 30
0.0
  0
SPLINE
  5
354
330
2D8
100
AcDbEntity
  8
외형선
  6
Continuous
 62
     1
370
    15
100
AcDbSpline
210
0.0
220
0.0
230
1.0
 70
     8
 71
     3
 72
    12
 73
     8
 74
     0
 42
0.000000001
 43
0.00000001
 40
0.0
 40
0.0
 40
0.0
 40
0.0
 40
0.2499999999999999
 40
0.2499999999999999
 40
0.4999999999999999
 40
0.4999999999999999
 40
1.0
 40
1.0
 40
1.0
 40
1.0
 10
32.27730214839612
 20
2.056772907935427
 30
0.0
 10
32.12395350098522
 20
1.933599186012416
 30
0.0
 10
31.95065052949229
 20
1.833850534394539
 30
0.0
 10
31.59290155714833
 20
1.68316734714892
 30
0.0
 10
31.40709116053404
 20
1.630404513579505
 30
0.0
 10
30.83297079552155
 20
1.526444984500727
 30
0.0
 10
30.44870749015666
 20
1.530335731241194
 30
0.0
 10
30.06479535590244
 20
1.58724088675722
 30
0.0
  0
LINE
  5
355
330
2D8
100
AcDbEntity
  8
중심선
 62
     1
100
AcDbLine
 10
-33.70500000000001
 20
0.0010749287238892
 30
0.0
 11
35.795
 21
0.0010749287238892
 31
0.0
  0
LINE
  5
356
330
2D8
100
AcDbEntity
  8
참조1
100
AcDbLine
 10
-2.700513367556236
 20
-2.498925071276081
 30
0.0
 11
-2.700513367556232
 21
-39.9989250712761
 31
0.0
  0
LINE
  5
357
330
2D8
100
AcDbEntity
  8
참조1
100
AcDbLine
 10
32.79499999999999
 20
0.0010749287238931
 30
0.0
 11
32.79499999999999
 21
1.048836532705012
 31
0.0
  0
LINE
  5
358
330
2D8
100
AcDbEntity
  8
참조1
100
AcDbLine
 10
-2.700513367556232
 20
-39.9989250712761
 30
0.0
 11
-17.85885681430868
 21
-39.9989250712761
 31
0.0
  0
CIRCLE
  5
359
330
2D8
100
AcDbEntity
  8
해칭선
100
AcDbCircle
 10
0.5699999999999924
 20
0.0
 30
0.0
 40
3.000000000000001
  0
INSERT
  5
35A
330
2D8
100
AcDbEntity
  8
0
  6
Continuous
 62
     7
100
AcDbBlockReference
 66
     1
  2
블럭10
 10
-16.64078629968144
 20
-52.04609937292004
 30
0.0
  0
ATTRIB
  5
371
330
35A
100
AcDbEntity
  8
FORMAT
 62
     2
100
AcDbText
 10
-25.03029162458128
 20
-49.97073246008785
 30
0.0
 40
4.233333333333333
  1
EI099024 [ 2 FLUTE ]
 41
0.75
  7
SLDTEXTSTYLE0
 11
-25.03029162458128
 21
-52.08739912675452
 31
0.0
100
AcDbAttribute
  2
AUTOATTR0
 70
     0
 74
     1
  0
SEQEND
  5
372
330
35A
100
AcDbEntity
  8
0
  6
Continuous
 62
     7
  0
HATCH
  5
373
330
2D8
100
AcDbEntity
  8
중심선
100
AcDbHatch
 10
0.0
 20
0.0
 30
0.0
210
0.0
220
0.0
230
1.0
  2
SOLID
 70
     1
 71
     0
 91
        1
 92
        0
 93
        4
 72
     1
 10
-10.92587699530059
 20
-35.7989250712761
 11
-14.37215223913788
 21
-35.7989250712761
 72
     1
 10
-14.37215223913788
 20
-35.7989250712761
 11
-16.5003820983419
 21
-38.3352506518487
 72
     1
 10
-16.5003820983419
 20
-38.3352506518487
 11
-13.05407376939147
 21
-38.33521122254621
 72
     1
 10
-13.05407376939147
 20
-38.33521122254621
 11
-10.92587699530059
 21
-35.7989250712761
 97
        0
 75
     0
 76
     1
 98
        1
 10
0.0
 20
0.0
  0
HATCH
  5
374
330
2D8
100
AcDbEntity
  8
중심선
100
AcDbHatch
 10
0.0
 20
0.0
 30
0.0
210
0.0
220
0.0
230
1.0
  2
SOLID
 70
     1
 71
     0
 91
        1
 92
        0
 93
        4
 72
     1
 10
-5.913113004264642
 20
-35.7989250712761
 11
-9.359388248101924
 21
-35.7989250712761
 72
     1
 10
-9.359388248101924
 20
-35.7989250712761
 11
-13.89052625645931
 21
-41.19892507127612
 72
     1
 10
-13.89052625645931
 20
-41.19892507127612
 11
-10.44425101262203
 21
-41.19892507127612
 72
     1
 10
-10.44425101262203
 20
-41.19892507127612
 11
-5.913113004264642
 21
-35.7989250712761
 97
        0
 75
     0
 76
     1
 98
        1
 10
0.0
 20
0.0
  0
HATCH
  5
375
330
2D8
100
AcDbEntity
  8
중심선
100
AcDbHatch
 10
0.0
 20
0.0
 30
0.0
210
0.0
220
0.0
230
1.0
  2
SOLID
 70
     1
 71
     0
 91
        1
 92
        0
 93
        4
 72
     1
 10
-0.9003490132287462
 20
-35.79892507127613
 11
-4.346624257065862
 21
-35.7989250712761
 72
     1
 10
-4.346624257065862
 20
-35.7989250712761
 11
-11.39506115895511
 21
-44.19892507127612
 72
     1
 10
-11.39506115895511
 20
-44.19892507127612
 11
-7.948785915117829
 21
-44.19892507127612
 72
     1
 10
-7.948785915117829
 20
-44.19892507127612
 11
-0.9003490132287464
 21
-35.79892507127613
 97
        0
 75
     0
 76
     1
 98
        1
 10
0.0
 20
0.0
  0
HATCH
  5
376
330
2D8
100
AcDbEntity
  8
중심선
100
AcDbHatch
 10
0.0
 20
0.0
 30
0.0
210
0.0
220
0.0
230
1.0
  2
SOLID
 70
     1
 71
     0
 91
        1
 92
        0
 93
        6
 72
     3
 10
3.899541417783453
 20
-39.99892507132738
 11
3.960054785062284
 21
1.540882976769353E-10
 40
0.3939339440162627
 50
17.09539180608438
 51
320.0019657685079
 73
     0
 72
     1
 10
5.582541073484048
 20
-38.58681907591441
 11
7.887842947185087
 21
-36.65249236586649
 72
     3
 10
3.899541417730607
 20
-39.99892507127625
 11
6.600054785286829
 21
-1.278976924368180E-13
 40
0.636358354079598
 50
39.99873849337411
 51
368.4976242363725
 73
     1
 72
     1
 10
10.32487390963121
 20
-39.03892507120613
 11
2.579608724566529
 21
-39.0389250712061
 72
     1
 10
2.579608724566529
 20
-39.0389250712061
 11
2.579583680120595
 21
-40.95892507120602
 72
     1
 10
2.579583680120595
 20
-40.95892507120602
 11
7.020963449592632
 21
-40.95892507120599
 97
        0
 75
     0
 76
     1
 98
        1
 10
0.0
 20
0.0
  0
DIMENSION
  5
377
330
2D8
100
AcDbEntity
  8
치수문자_일반주서
100
AcDbDimension
  2
*D17
 10
10.57
 20
19.00000000000002
 30
0.0
 11
-9.159000000000002
 21
19.00000000000002
 31
0.0
 70
   160
  1
<>
 71
     2
 42
22.22499999999999
  3
SLDDIMSTYLE2
100
AcDbAlignedDimension
 13
32.79499999999999
 23
4.826074928723894
 33
0.0
 14
10.57
 24
1.501360048219075
 34
0.0
100
AcDbRotatedDimension
1001
ACAD
1000
DSTYLE
1002
{
1070
   171
1070
     6
1070
   273
1070
     7
1002
}
  0
DIMENSION
  5
387
330
2D8
100
AcDbEntity
  8
치수문자_일반주서
100
AcDbDimension
  2
*D18
 10
-30.70500000000001
 20
35.58857492872392
 30
0.0
 11
2.246963321353069
 21
35.58857492872392
 31
0.0
 70
   160
  1
<>
 71
     2
 42
63.5
  3
SLDDIMSTYLE2
100
AcDbAlignedDimension
 13
32.79499999999999
 23
4.763574928723894
 33
0.0
 14
-30.70500000000001
 24
3.763574928723895
 34
0.0
100
AcDbRotatedDimension
1001
ACAD
1000
DSTYLE
1002
{
1070
   171
1070
     6
1070
   273
1070
     7
1002
}
  0
DIMENSION
  5
394
330
2D8
100
AcDbEntity
  8
치수문자_일반주서
100
AcDbDimension
  2
*D19
 10
-39.34432186858622
 20
-4.761425071276143
 30
0.0
 11
-39.34432186858633
 21
24.49257492872386
 31
0.0
 70
   160
  1
%%c<>
 71
     2
 42
9.525000000000006
 52
-270.0
  3
SLDDIMSTYLE2
100
AcDbAlignedDimension
 13
-29.70500000000001
 23
4.763574928723898
 33
0.0
 14
-29.70500000000001
 24
-4.761425071276108
 34
0.0
 50
90.0000000000002
100
AcDbRotatedDimension
1001
ACAD
1000
DSTYLE
1002
{
1070
   171
1070
     6
1070
   273
1070
     7
1002
}
  0
LINE
  5
3A4
330
2D8
100
AcDbEntity
  8
참조1
100
AcDbLine
 10
80.11348381534559
 20
7.441074928723896
 30
0.0
 11
80.11348381534559
 21
-7.438925071276109
 31
0.0
  0
LINE
  5
3A5
330
2D8
100
AcDbEntity
  8
참조1
100
AcDbLine
 10
92.81348381534559
 20
5.441074928723896
 30
0.0
 11
80.11348381534559
 21
5.441074928723896
 31
0.0
  0
SOLID
  5
3A6
330
2D8
100
AcDbEntity
  8
참조1
100
AcDbTrace
 10
80.11348381534559
 20
5.441074928723896
 30
0.0
 11
86.46348381534558
 21
4.425074928723896
 31
0.0
 12
86.46348381534558
 22
6.457074928723896
 32
0.0
 13
86.46348381534558
 23
6.457074928723896
 33
0.0
  0
LINE
  5
3A7
330
2D8
100
AcDbEntity
  8
참조1
100
AcDbLine
 10
92.81348381534559
 20
-5.438925071276109
 30
0.0
 11
80.11348381534559
 21
-5.438925071276109
 31
0.0
  0
SOLID
  5
3A8
330
2D8
100
AcDbEntity
  8
참조1
100
AcDbTrace
 10
80.11348381534559
 20
-5.438925071276109
 30
0.0
 11
86.46348381534558
 21
-6.454925071276109
 31
0.0
 12
86.46348381534558
 22
-4.422925071276109
 32
0.0
 13
86.46348381534558
 23
-4.422925071276109
 33
0.0
  0
MTEXT
  5
3A9
330
2D8
100
AcDbEntity
  8
참조1
100
AcDbMText
 10
89.71359862590815
 20
11.06679249473997
 30
0.0
 40
3.5
 41
0.0
 71
     1
 72
     1
  1
A
  7
SLDTEXTSTYLE0
 73
     1
 44
1.0
  0
MTEXT
  5
3AA
330
2D8
100
AcDbEntity
  8
참조1
100
AcDbMText
 10
89.71359862590815
 20
0.1867924947399667
 30
0.0
 40
3.5
 41
0.0
 71
     1
 72
     1
  1
A
  7
SLDTEXTSTYLE0
 73
     1
 44
1.0
  0
INSERT
  5
3AB
330
2D8
100
AcDbEntity
  8
해칭선
100
AcDbBlockReference
  2
SW_DOWELSYMBOL_0
 10
0.5699999999999924
 20
0.0
 30
0.0
  0
DIMENSION
  5
3B2
330
2D8
100
AcDbEntity
  8
치수문자_일반주서
100
AcDbDimension
  2
*D16
 10
48.83338085188235
 20
4.763574928723894
 30
0.0
 11
46.20838085188235
 21
24.49257492872389
 31
0.0
 70
    32
  1
{%%c<>[]}
 71
     5
 42
9.524999999999999
  3
SLDDIMSTYLE2
100
AcDbAlignedDimension
 13
32.79499999999999
 23
-4.761425071276104
 33
0.0
 14
32.79499999999999
 24
4.763574928723894
 34
0.0
 50
90.0
100
AcDbRotatedDimension
1001
ACAD
1000
DSTYLE
1002
{
1070
   171
1070
     6
1070
   273
1070
     7
1002
}
  0
ARC
  5
3C1
330
2D8
100
AcDbEntity
  8
외형선
  6
Continuous
 62
     1
370
    15
100
AcDbCircle
 10
28.03249999999998
 20
0.0010749287238892
 30
0.0
 40
4.762499999999999
100
AcDbArc
 50
270.0000000000001
 51
89.99999999999996
  0
SPLINE
  5
3C2
330
2D8
100
AcDbEntity
  8
외형선
  6
Continuous
 62
     1
370
    15
100
AcDbSpline
210
0.0
220
0.0
230
1.0
 70
     8
 71
     3
 72
     9
 73
     5
 74
     0
 42
0.000000001
 43
0.0000000001
 40
0.0
 40
0.0
 40
0.0
 40
0.0
 40
1.414635048674004
 40
4.650485309064082
 40
4.650485309064082
 40
4.650485309064082
 40
4.650485309064082
 10
28.03249999999999
 20
4.763574928723888
 30
0.0
 10
27.56141165002817
 20
4.702265747635157
 30
0.0
 10
26.01275112951537
 20
4.500717336805703
 30
0.0
 10
24.66715415652028
 20
3.715091643036634
 30
0.0
 10
23.75604838198003
 20
3.09604052674405
 30
0.0
  0
SPLINE
  5
3C3
330
2D8
100
AcDbEntity
  8
외형선
  6
Continuous
 62
     1
370
    15
100
AcDbSpline
210
0.0
220
0.0
230
1.0
 70
  1064
 71
     3
 72
    11
 73
     7
 74
     5
 42
0.000000001
 43
0.0000000001
 44
0.0
 40
0.0
 40
0.0
 40
0.0
 40
0.0
 40
0.9995116765146748
 40
3.223524959531966
 40
6.738551441618453
 40
11.9943583575299
 40
11.9943583575299
 40
11.9943583575299
 40
11.9943583575299
 10
28.03249999999999
 20
-4.76142507127611
 30
0.0
 10
27.70299338188127
 20
-4.695899867154035
 30
0.0
 10
26.64030163670776
 20
-4.484574541068324
 30
0.0
 10
24.83977455504866
 20
-3.001977657500373
 30
0.0
 10
22.46590218430863
 20
-0.2448839730269396
 30
0.0
 10
20.14540140455681
 20
1.560961446430997
 30
0.0
 10
18.75487173728695
 20
2.643090636893162
 30
0.0
 11
28.03249999999999
 21
-4.76142507127611
 31
0.0
 11
27.06334052435182
 21
-4.516979776270183
 31
0.0
 11
25.22893548715743
 21
-3.259524710451449
 31
0.0
 11
22.77319971155849
 21
-0.744614578813982
 31
0.0
 11
18.75487173728695
 21
2.643090636893162
 31
0.0
  0
ENDBLK
  5
3D7
330
2D8
100
AcDbEntity
  8
0
100
AcDbBlockEnd
  0
BLOCK
  5
3B4
330
3B3
100
AcDbEntity
  8
0
100
AcDbBlockBegin
  2
*D16
 70
     1
 10
0.0
 20
0.0
 30
0.0
  3
*D16
  1
*D7
  0
LINE
  5
3B5
330
3B3
100
AcDbEntity
  8
치수문자_일반주서
 62
     0
370
    -2
100
AcDbLine
 10
32.85749999999999
 20
-4.761425071276104
 30
0.0
 11
48.83338085188235
 21
-4.761425071276107
 31
0.0
  0
LINE
  5
3B6
330
3B3
100
AcDbEntity
  8
치수문자_일반주서
 62
     0
370
    -2
100
AcDbLine
 10
32.85749999999999
 20
4.763574928723894
 30
0.0
 11
48.83338085188235
 21
4.763574928723894
 31
0.0
  0
LINE
  5
3B7
330
3B3
100
AcDbEntity
  8
치수문자_일반주서
 62
     0
370
    -2
100
AcDbLine
 10
48.83338085188235
 20
8.065574928723894
 30
0.0
 11
48.83338085188235
 21
37.6175749287239
 31
0.0
  0
LINE
  5
3B8
330
3B3
100
AcDbEntity
  8
치수문자_일반주서
 62
     0
370
    -2
100
AcDbLine
 10
48.83338085188235
 20
-4.761425071276107
 30
0.0
 11
48.83338085188235
 21
4.763574928723894
 31
0.0
  0
LINE
  5
3B9
330
3B3
100
AcDbEntity
  8
치수문자_일반주서
 62
     0
370
    -2
100
AcDbLine
 10
48.83338085188235
 20
-8.063425071276107
 30
0.0
 11
48.83338085188235
 21
-11.36542507127611
 31
0.0
  0
SOLID
  5
3BA
330
3B3
100
AcDbEntity
  8
치수문자_일반주서
 62
     0
100
AcDbTrace
 10
49.38371418521569
 20
-8.063425071276107
 30
0.0
 11
48.28304751854902
 21
-8.063425071276107
 31
0.0
 12
48.83338085188235
 22
-4.761425071276107
 32
0.0
 13
48.83338085188235
 23
-4.761425071276107
 33
0.0
  0
SOLID
  5
3BB
330
3B3
100
AcDbEntity
  8
치수문자_일반주서
 62
     0
100
AcDbTrace
 10
48.28304751854902
 20
8.065574928723894
 30
0.0
 11
49.38371418521569
 21
8.065574928723894
 31
0.0
 12
48.83338085188235
 22
4.763574928723894
 32
0.0
 13
48.83338085188235
 23
4.763574928723894
 33
0.0
  0
MTEXT
  5
3BC
330
3B3
100
AcDbEntity
  8
치수문자_일반주서
 62
     0
100
AcDbMText
 10
46.20838085188235
 20
24.49257492872389
 30
0.0
 40
3.5
 41
0.0
 71
     5
 72
     1
  1
\A1;{%%c9.53 [3/8]}
  7
SLDTEXTSTYLE0
 11
0.0
 21
1.0
 31
0.0
 73
     1
 44
1.0
  0
POINT
  5
3BD
330
3B3
100
AcDbEntity
  8
Defpoints
 62
     0
100
AcDbPoint
 10
32.79499999999999
 20
-4.761425071276104
 30
0.0
  0
POINT
  5
3BE
330
3B3
100
AcDbEntity
  8
Defpoints
 62
     0
100
AcDbPoint
 10
32.79499999999999
 20
4.763574928723894
 30
0.0
  0
POINT
  5
3BF
330
3B3
100
AcDbEntity
  8
Defpoints
 62
     0
100
AcDbPoint
 10
48.83338085188235
 20
4.763574928723894
 30
0.0
  0
ENDBLK
  5
3C0
330
3B3
100
AcDbEntity
  8
0
100
AcDbBlockEnd
  0
BLOCK
  5
3D9
330
3D8
100
AcDbEntity
  8
0
100
AcDbBlockBegin
  2
*D17
 70
     1
 10
0.0
 20
0.0
 30
0.0
  3
*D17
  1
*D17
  0
LINE
  5
3DB
330
3D8
100
AcDbEntity
  8
치수문자_일반주서
 62
     0
370
    -2
100
AcDbLine
 10
32.79499999999999
 20
4.888574928723894
 30
0.0
 11
32.79499999999999
 21
19.00000000000002
 31
0.0
  0
LINE
  5
3DC
330
3D8
100
AcDbEntity
  8
치수문자_일반주서
 62
     0
370
    -2
100
AcDbLine
 10
10.57
 20
1.563860048219075
 30
0.0
 11
10.57
 21
19.00000000000002
 31
0.0
  0
LINE
  5
3DD
330
3D8
100
AcDbEntity
  8
치수문자_일반주서
 62
     0
370
    -2
100
AcDbLine
 10
10.57
 20
19.00000000000002
 30
0.0
 11
-22.284
 21
19.00000000000002
 31
0.0
  0
LINE
  5
3DE
330
3D8
100
AcDbEntity
  8
치수문자_일반주서
 62
     0
370
    -2
100
AcDbLine
 10
32.79499999999999
 20
19.00000000000002
 30
0.0
 11
10.57
 21
19.00000000000002
 31
0.0
  0
LINE
  5
3DF
330
3D8
100
AcDbEntity
  8
치수문자_일반주서
 62
     0
370
    -2
100
AcDbLine
 10
36.09699999999999
 20
19.00000000000002
 30
0.0
 11
39.39899999999999
 21
19.00000000000002
 31
0.0
  0
LINE
  5
3E0
330
3D8
100
AcDbEntity
  8
치수문자_일반주서
 62
     0
370
    -2
100
AcDbLine
 10
7.268000000000001
 20
19.00000000000002
 30
0.0
 11
3.966000000000001
 21
19.00000000000002
 31
0.0
  0
SOLID
  5
3E1
330
3D8
100
AcDbEntity
  8
치수문자_일반주서
 62
     0
100
AcDbTrace
 10
36.09699999999999
 20
19.55033333333336
 30
0.0
 11
36.09699999999999
 21
18.44966666666669
 31
0.0
 12
32.79499999999999
 22
19.00000000000002
 32
0.0
 13
32.79499999999999
 23
19.00000000000002
 33
0.0
  0
SOLID
  5
3E2
330
3D8
100
AcDbEntity
  8
치수문자_일반주서
 62
     0
100
AcDbTrace
 10
7.268000000000001
 20
18.44966666666669
 30
0.0
 11
7.268000000000001
 21
19.55033333333336
 31
0.0
 12
10.57
 22
19.00000000000002
 32
0.0
 13
10.57
 23
19.00000000000002
 33
0.0
  0
MTEXT
  5
3E3
330
3D8
100
AcDbEntity
  8
치수문자_일반주서
 62
     0
100
AcDbMText
 10
-9.159000000000002
 20
23.37500000000002
 30
0.0
 40
3.5
 41
0.0
 71
     2
 72
     1
  1
\A1;22.23 [7/8]
  7
SLDTEXTSTYLE0
 73
     1
 44
1.0
  0
POINT
  5
3E4
330
3D8
100
AcDbEntity
  8
Defpoints
 62
     0
100
AcDbPoint
 10
32.79499999999999
 20
4.826074928723894
 30
0.0
  0
POINT
  5
3E5
330
3D8
100
AcDbEntity
  8
Defpoints
 62
     0
100
AcDbPoint
 10
10.57
 20
1.501360048219075
 30
0.0
  0
POINT
  5
3E6
330
3D8
100
AcDbEntity
  8
Defpoints
 62
     0
100
AcDbPoint
 10
10.57
 20
19.00000000000002
 30
0.0
  0
ENDBLK
  5
3DA
330
3D8
100
AcDbEntity
  8
0
100
AcDbBlockEnd
  0
BLOCK
  5
3E8
330
3E7
100
AcDbEntity
  8
0
100
AcDbBlockBegin
  2
*D18
 70
     1
 10
0.0
 20
0.0
 30
0.0
  3
*D18
  1
*D18
  0
LINE
  5
3EA
330
3E7
100
AcDbEntity
  8
치수문자_일반주서
 62
     0
370
    -2
100
AcDbLine
 10
32.79499999999999
 20
4.826074928723894
 30
0.0
 11
32.79499999999999
 21
35.58857492872392
 31
0.0
  0
LINE
  5
3EB
330
3E7
100
AcDbEntity
  8
치수문자_일반주서
 62
     0
370
    -2
100
AcDbLine
 10
-30.70500000000001
 20
3.826074928723895
 30
0.0
 11
-30.70500000000001
 21
35.58857492872392
 31
0.0
  0
LINE
  5
3EC
330
3E7
100
AcDbEntity
  8
치수문자_일반주서
 62
     0
370
    -2
100
AcDbLine
 10
29.49299999999999
 20
35.58857492872392
 30
0.0
 11
-27.40300000000001
 21
35.58857492872392
 31
0.0
  0
SOLID
  5
3ED
330
3E7
100
AcDbEntity
  8
치수문자_일반주서
 62
     0
100
AcDbTrace
 10
29.49299999999999
 20
35.03824159539059
 30
0.0
 11
29.49299999999999
 21
36.13890826205726
 31
0.0
 12
32.79499999999999
 22
35.58857492872392
 32
0.0
 13
32.79499999999999
 23
35.58857492872392
 33
0.0
  0
SOLID
  5
3EE
330
3E7
100
AcDbEntity
  8
치수문자_일반주서
 62
     0
100
AcDbTrace
 10
-27.40300000000001
 20
36.13890826205726
 30
0.0
 11
-27.40300000000001
 21
35.03824159539059
 31
0.0
 12
-30.70500000000001
 22
35.58857492872392
 32
0.0
 13
-30.70500000000001
 23
35.58857492872392
 33
0.0
  0
MTEXT
  5
3EF
330
3E7
100
AcDbEntity
  8
치수문자_일반주서
 62
     0
100
AcDbMText
 10
2.246963321353069
 20
39.96357492872392
 30
0.0
 40
3.5
 41
0.0
 71
     2
 72
     1
  1
\A1;63.5 [2 1/2]
  7
SLDTEXTSTYLE0
 73
     1
 44
1.0
  0
POINT
  5
3F0
330
3E7
100
AcDbEntity
  8
Defpoints
 62
     0
100
AcDbPoint
 10
32.79499999999999
 20
4.763574928723894
 30
0.0
  0
POINT
  5
3F1
330
3E7
100
AcDbEntity
  8
Defpoints
 62
     0
100
AcDbPoint
 10
-30.70500000000001
 20
3.763574928723895
 30
0.0
  0
POINT
  5
3F2
330
3E7
100
AcDbEntity
  8
Defpoints
 62
     0
100
AcDbPoint
 10
-30.70500000000001
 20
35.58857492872392
 30
0.0
  0
ENDBLK
  5
3E9
330
3E7
100
AcDbEntity
  8
0
100
AcDbBlockEnd
  0
BLOCK
  5
3F4
330
3F3
100
AcDbEntity
  8
0
100
AcDbBlockBegin
  2
*D19
 70
     1
 10
0.0
 20
0.0
 30
0.0
  3
*D19
  1
*D19
  0
LINE
  5
3F6
330
3F3
100
AcDbEntity
  8
치수문자_일반주서
 62
     0
370
    -2
100
AcDbLine
 10
-29.76750000000001
 20
4.763574928723898
 30
0.0
 11
-39.34432186858626
 21
4.763574928723862
 31
0.0
  0
LINE
  5
3F7
330
3F3
100
AcDbEntity
  8
치수문자_일반주서
 62
     0
370
    -2
100
AcDbLine
 10
-29.76750000000001
 20
-4.761425071276108
 30
0.0
 11
-39.34432186858622
 21
-4.761425071276143
 31
0.0
  0
LINE
  5
3F8
330
3F3
100
AcDbEntity
  8
치수문자_일반주서
 62
     0
370
    -2
100
AcDbLine
 10
-39.34432186858626
 20
4.763574928723862
 30
0.0
 11
-39.34432186858638
 21
37.61757492872386
 31
0.0
  0
LINE
  5
3F9
330
3F3
100
AcDbEntity
  8
치수문자_일반주서
 62
     0
370
    -2
100
AcDbLine
 10
-39.34432186858626
 20
4.763574928723862
 30
0.0
 11
-39.34432186858622
 21
-4.761425071276143
 31
0.0
  0
LINE
  5
3FA
330
3F3
100
AcDbEntity
  8
치수문자_일반주서
 62
     0
370
    -2
100
AcDbLine
 10
-39.34432186858627
 20
8.065574928723862
 30
0.0
 11
-39.34432186858628
 21
11.36757492872386
 31
0.0
  0
LINE
  5
3FB
330
3F3
100
AcDbEntity
  8
치수문자_일반주서
 62
     0
370
    -2
100
AcDbLine
 10
-39.34432186858621
 20
-8.063425071276143
 30
0.0
 11
-39.34432186858619
 21
-11.36542507127614
 31
0.0
  0
SOLID
  5
3FC
330
3F3
100
AcDbEntity
  8
치수문자_일반주서
 62
     0
100
AcDbTrace
 10
-39.8946552019196
 20
8.06557492872386
 30
0.0
 11
-38.79398853525294
 21
8.065574928723864
 31
0.0
 12
-39.34432186858626
 22
4.763574928723862
 32
0.0
 13
-39.34432186858626
 23
4.763574928723862
 33
0.0
  0
SOLID
  5
3FD
330
3F3
100
AcDbEntity
  8
치수문자_일반주서
 62
     0
100
AcDbTrace
 10
-38.79398853525287
 20
-8.063425071276141
 30
0.0
 11
-39.89465520191954
 21
-8.063425071276145
 31
0.0
 12
-39.34432186858622
 22
-4.761425071276143
 32
0.0
 13
-39.34432186858622
 23
-4.761425071276143
 33
0.0
  0
MTEXT
  5
3FE
330
3F3
100
AcDbEntity
  8
치수문자_일반주서
 62
     0
100
AcDbMText
 10
-43.71932186858633
 20
24.49257492872384
 30
0.0
 40
3.5
 41
0.0
 71
     2
 72
     1
  1
\A1;%%c9.53 [3/8]
  7
SLDTEXTSTYLE0
 11
-3.729883127349605E-15
 21
1.0
 31
0.0
 73
     1
 44
1.0
  0
POINT
  5
3FF
330
3F3
100
AcDbEntity
  8
Defpoints
 62
     0
100
AcDbPoint
 10
-29.70500000000001
 20
4.763574928723898
 30
0.0
  0
POINT
  5
400
330
3F3
100
AcDbEntity
  8
Defpoints
 62
     0
100
AcDbPoint
 10
-29.70500000000001
 20
-4.761425071276108
 30
0.0
  0
POINT
  5
401
330
3F3
100
AcDbEntity
  8
Defpoints
 62
     0
100
AcDbPoint
 10
-39.34432186858623
 20
-4.761425071276144
 30
0.0
  0
ENDBLK
  5
3F5
330
3F3
100
AcDbEntity
  8
0
100
AcDbBlockEnd
  0
ENDSEC
  0
SECTION
  2
ENTITIES
  0
LINE
  5
BD
330
1F
100
AcDbEntity
  8
참조1
100
AcDbLine
 10
-2.700513367556236
 20
-2.498925071276081
 30
0.0
 11
-2.700513367556232
 21
-39.9989250712761
 31
0.0
  0
LINE
  5
BE
330
1F
100
AcDbEntity
  8
참조1
100
AcDbLine
 10
29.43
 20
0.0010749287238931
 30
0.0
 11
29.43
 21
1.048836532705012
 31
0.0
  0
LINE
  5
BF
330
1F
100
AcDbEntity
  8
참조1
100
AcDbLine
 10
-2.700513367556232
 20
-39.9989250712761
 30
0.0
 11
-17.85885681430868
 21
-39.9989250712761
 31
0.0
  0
LINE
  5
11C
330
1F
100
AcDbEntity
  8
참조1
100
AcDbLine
 10
80.11348381534559
 20
7.441074928723896
 30
0.0
 11
80.11348381534559
 21
-7.438925071276109
 31
0.0
  0
LINE
  5
11D
330
1F
100
AcDbEntity
  8
참조1
100
AcDbLine
 10
92.81348381534559
 20
5.441074928723896
 30
0.0
 11
80.11348381534559
 21
5.441074928723896
 31
0.0
  0
SOLID
  5
11E
330
1F
100
AcDbEntity
  8
참조1
100
AcDbTrace
 10
80.11348381534559
 20
5.441074928723896
 30
0.0
 11
86.46348381534558
 21
4.425074928723896
 31
0.0
 12
86.46348381534558
 22
6.457074928723896
 32
0.0
 13
86.46348381534558
 23
6.457074928723896
 33
0.0
  0
LINE
  5
11F
330
1F
100
AcDbEntity
  8
참조1
100
AcDbLine
 10
92.81348381534559
 20
-5.438925071276109
 30
0.0
 11
80.11348381534559
 21
-5.438925071276109
 31
0.0
  0
SOLID
  5
120
330
1F
100
AcDbEntity
  8
참조1
100
AcDbTrace
 10
80.11348381534559
 20
-5.438925071276109
 30
0.0
 11
86.46348381534558
 21
-6.454925071276109
 31
0.0
 12
86.46348381534558
 22
-4.422925071276109
 32
0.0
 13
86.46348381534558
 23
-4.422925071276109
 33
0.0
  0
MTEXT
  5
121
330
1F
100
AcDbEntity
  8
참조1
100
AcDbMText
 10
89.71359862590815
 20
11.06679249473997
 30
0.0
 40
3.5
 41
0.0
 71
     1
 72
     1
  1
A
  7
SLDTEXTSTYLE0
 73
     1
 44
1.0
  0
MTEXT
  5
122
330
1F
100
AcDbEntity
  8
참조1
100
AcDbMText
 10
89.71359862590815
 20
0.1867924947399667
 30
0.0
 40
3.5
 41
0.0
 71
     1
 72
     1
  1
A
  7
SLDTEXTSTYLE0
 73
     1
 44
1.0
  0
LINE
  5
23D
330
1F
100
AcDbEntity
  8
외형선
  6
Continuous
370
    15
100
AcDbLine
 10
7.969985058466733
 20
6.351074928723897
 30
0.0
 11
-39.80000000000001
 21
6.351074928723889
 31
0.0
  0
LINE
  5
23E
330
1F
100
AcDbEntity
  8
외형선
  6
Continuous
370
    15
100
AcDbLine
 10
10.0
 20
6.351074928723897
 30
0.0
 11
8.399230248277462
 21
6.351074928723897
 31
0.0
  0
LINE
  5
23F
330
1F
100
AcDbEntity
  8
외형선
  6
Continuous
370
    15
100
AcDbLine
 10
8.398430545818343
 20
-6.348925071276106
 30
0.0
 11
10.0
 21
-6.348925071276106
 31
0.0
  0
LINE
  5
240
330
1F
100
AcDbEntity
  8
외형선
  6
Continuous
370
    15
100
AcDbLine
 10
-39.80000000000001
 20
-6.348925071276106
 30
0.0
 11
7.969985058466733
 21
-6.348925071276106
 31
0.0
  0
LINE
  5
241
330
1F
100
AcDbEntity
  8
외형선
  6
Continuous
370
    15
100
AcDbLine
 10
-39.80000000000001
 20
6.351074928723889
 30
0.0
 11
-40.80000000000001
 21
5.351074928723889
 31
0.0
  0
LINE
  5
242
330
1F
100
AcDbEntity
  8
외형선
  6
Continuous
370
    15
100
AcDbLine
 10
-40.80000000000001
 20
-5.348925071276113
 30
0.0
 11
-39.80000000000001
 21
-6.348925071276106
 31
0.0
  0
ARC
  5
243
330
1F
100
AcDbEntity
  8
외형선
  6
Continuous
370
    15
100
AcDbCircle
 10
29.04999999999998
 20
0.0010749287238951
 30
0.0
 40
6.350000000000001
100
AcDbArc
 50
323.1211578335985
 51
0.0
  0
ARC
  5
244
330
1F
100
AcDbEntity
  8
외형선
  6
Continuous
 62
     1
370
    15
100
AcDbCircle
 10
29.04999999999998
 20
0.0010749287238951
 30
0.0
 40
6.350000000000001
100
AcDbArc
 50
0.0
 51
36.8882207033744
  0
LINE
  5
245
330
1F
100
AcDbEntity
  8
외형선
  6
Continuous
 62
     1
370
    15
100
AcDbLine
 10
16.07260915693556
 20
6.351074928723897
 30
0.0
 11
10.0
 21
6.351074928723897
 31
0.0
  0
LINE
  5
246
330
1F
100
AcDbEntity
  8
외형선
  6
Continuous
 62
     1
370
    15
100
AcDbLine
 10
10.0
 20
-6.348925071276106
 30
0.0
 11
16.07260915693556
 21
-6.348925071276106
 31
0.0
  0
LINE
  5
247
330
1F
100
AcDbEntity
  8
외형선
  6
Continuous
370
    15
100
AcDbLine
 10
7.969997557631814
 20
-6.34071487900318
 30
0.0
 11
8.398430545818343
 21
-6.337741322297603
 31
0.0
  0
LINE
  5
248
330
1F
100
AcDbEntity
  8
외형선
  6
Continuous
370
    15
100
AcDbLine
 10
7.969985058466733
 20
-6.348925071276106
 30
0.0
 11
7.969985058466733
 21
-6.340700843067722
 31
0.0
  0
LINE
  5
249
330
1F
100
AcDbEntity
  8
외형선
  6
Continuous
370
    15
100
AcDbLine
 10
10.0
 20
6.351074928723897
 30
0.0
 11
10.0
 21
6.236790878155027
 31
0.0
  0
SPLINE
  5
24A
330
1F
100
AcDbEntity
  8
외형선
  6
Continuous
370
    15
100
AcDbSpline
210
0.0
220
0.0
230
1.0
 70
     8
 71
     3
 72
    10
 73
     6
 74
     0
 42
0.000000001
 43
0.00000001
 40
0.0
 40
0.0
 40
0.0
 40
0.0
 40
0.4999999999999999
 40
0.4999999999999999
 40
1.0
 40
1.0
 40
1.0
 40
1.0
 10
7.969997557631814
 20
6.34286473645097
 30
0.0
 10
8.30932602906384
 20
6.355836166958845
 30
0.0
 10
8.647971603117753
 20
6.353405336648137
 30
0.0
 10
9.321000449182065
 20
6.318035606111287
 30
0.0
 10
9.660729458729094
 20
6.284980867828885
 30
0.0
 10
10.0
 20
6.236790878155027
 30
0.0
  0
SPLINE
  5
24B
330
1F
100
AcDbEntity
  8
외형선
  6
Continuous
370
    15
100
AcDbSpline
210
0.0
220
0.0
230
1.0
 70
     8
 71
     3
 72
    10
 73
     6
 74
     0
 42
0.000000001
 43
0.00000001
 40
0.0
 40
0.0
 40
0.0
 40
0.0
 40
0.5
 40
0.5
 40
1.0
 40
1.0
 40
1.0
 40
1.0
 10
10.0
 20
-4.769888625990596
 30
0.0
 10
9.66072737589056
 20
-4.601506879454355
 30
0.0
 10
9.320996278005055
 20
-4.421455656719807
 30
0.0
 10
8.647963378785875
 20
-4.042092443730645
 30
0.0
 10
8.309315612096924
 20
-3.841792744196731
 30
0.0
 10
7.969985058466733
 20
-3.632529661039307
 30
0.0
  0
LINE
  5
24C
330
1F
100
AcDbEntity
  8
외형선
  6
Continuous
 62
     1
370
    15
100
AcDbLine
 10
10.0
 20
-4.769888625990596
 30
0.0
 11
10.0
 21
-6.348925071276106
 31
0.0
  0
LINE
  5
24D
330
1F
100
AcDbEntity
  8
외형선
  6
Continuous
370
    15
100
AcDbLine
 10
-39.80000000000001
 20
6.351074928723889
 30
0.0
 11
-39.80000000000001
 21
-6.348925071276099
 31
0.0
  0
LINE
  5
24E
330
1F
100
AcDbEntity
  8
외형선
  6
Continuous
370
    15
100
AcDbLine
 10
7.969985058466733
 20
-3.632735011428601
 30
0.0
 11
7.969985058466733
 21
6.351074928723897
 31
0.0
  0
LINE
  5
24F
330
1F
100
AcDbEntity
  8
외형선
  6
Continuous
370
    15
100
AcDbLine
 10
-40.80000000000001
 20
5.351074928723889
 30
0.0
 11
-40.80000000000001
 21
-5.348925071276113
 31
0.0
  0
SPLINE
  5
250
330
1F
100
AcDbEntity
  8
외형선
  6
Continuous
370
    15
100
AcDbSpline
210
0.0
220
0.0
230
1.0
 70
    24
 71
     3
 72
    14
 73
    10
 74
     0
 42
0.000000001
 43
0.00000001
 40
0.0
 40
0.0
 40
0.0
 40
0.0
 40
0.25
 40
0.25
 40
0.5
 40
0.5
 40
0.75
 40
0.75
 40
1.0
 40
1.0
 40
1.0
 40
1.0
 10
10.0
 20
0.7564270858998725
 30
0.0
 10
10.0
 20
0.3737193709212576
 30
0.0
 10
10.0
 20
-0.0547469921243504
 30
0.0
 10
10.0
 20
-0.9821588174597338
 30
0.0
 10
10.0
 20
-1.481243366021971
 30
0.0
 10
10.0
 20
-2.493607875633082
 30
0.0
 10
10.0
 20
-3.006072874289558
 30
0.0
 10
10.0
 20
-3.960885309537396
 30
0.0
 10
10.0
 20
-4.401750903939629
 30
0.0
 10
10.0
 20
-4.76988862598111
 30
0.0
  0
SPLINE
  5
251
330
1F
100
AcDbEntity
  8
외형선
  6
Continuous
370
    15
100
AcDbSpline
210
0.0
220
0.0
230
1.0
 70
     8
 71
     3
 72
    10
 73
     6
 74
     0
 42
0.000000001
 43
0.00000001
 40
0.0
 40
0.0
 40
0.0
 40
0.0
 40
0.5
 40
0.5
 40
1.0
 40
1.0
 40
1.0
 40
1.0
 10
10.0
 20
0.7564270858998725
 30
0.0
 10
9.66072737589056
 20
0.8681102291996723
 30
0.0
 10
9.320996278005055
 20
0.9780060249139737
 30
0.0
 10
8.647963378785875
 20
1.191877874263454
 30
0.0
 10
8.309315612096924
 20
1.296423012228452
 30
0.0
 10
7.969985058466733
 20
1.397647614240697
 30
0.0
  0
SPLINE
  5
252
330
1F
100
AcDbEntity
  8
외형선
  6
Continuous
370
    15
100
AcDbSpline
210
0.0
220
0.0
230
1.0
 70
    24
 71
     3
 72
    14
 73
    10
 74
     0
 42
0.000000001
 43
0.00000001
 40
0.0
 40
0.0
 40
0.0
 40
0.0
 40
0.25
 40
0.25
 40
0.5
 40
0.5
 40
0.75
 40
0.75
 40
1.0
 40
1.0
 40
1.0
 40
1.0
 10
10.0
 20
6.236790878155013
 30
0.0
 10
10.0
 20
5.708868986778803
 30
0.0
 10
10.0
 20
5.147996320706568
 30
0.0
 10
10.0
 20
4.048883764191764
 30
0.0
 10
10.0
 20
3.51197945208439
 30
0.0
 10
10.0
 20
2.533763400228366
 30
0.0
 10
10.0
 20
2.092677530247883
 30
0.0
 10
10.0
 20
1.334410990678478
 30
0.0
 10
10.0
 20
1.016648912387168
 30
0.0
 10
10.0
 20
0.7564270858998725
 30
0.0
  0
SPLINE
  5
253
330
1F
100
AcDbEntity
  8
외형선
  6
Continuous
 62
     1
370
    15
100
AcDbSpline
210
0.0
220
0.0
230
1.0
 70
    24
 71
     3
 72
    14
 73
    10
 74
     0
 42
0.000000001
 43
0.00000001
 40
0.0
 40
0.0
 40
0.0
 40
0.0
 40
0.25
 40
0.25
 40
0.5
 40
0.5
 40
0.75
 40
0.75
 40
1.0
 40
1.0
 40
1.0
 40
1.0
 10
10.0
 20
6.236790878155013
 30
0.0
 10
10.0
 20
5.708868986778803
 30
0.0
 10
10.0
 20
5.147996320706568
 30
0.0
 10
10.0
 20
4.048883764191764
 30
0.0
 10
10.0
 20
3.51197945208439
 30
0.0
 10
10.0
 20
2.533763400228366
 30
0.0
 10
10.0
 20
2.092677530247883
 30
0.0
 10
10.0
 20
1.334410990678478
 30
0.0
 10
10.0
 20
1.016648912387168
 30
0.0
 10
10.0
 20
0.7564270858998725
 30
0.0
  0
SPLINE
  5
254
330
1F
100
AcDbEntity
  8
외형선
  6
Continuous
 62
     1
370
    15
100
AcDbSpline
210
0.0
220
0.0
230
1.0
 70
     8
 71
     3
 72
     8
 73
     4
 74
     0
 42
0.000000001
 43
0.00000001
 40
0.0
 40
0.0
 40
0.0
 40
0.0
 40
1.0
 40
1.0
 40
1.0
 40
1.0
 10
31.49703468561702
 20
2.155415161120324
 30
0.0
 10
32.57737721018137
 20
1.841105536817047
 30
0.0
 10
33.66410132794971
 20
1.497689150367727
 30
0.0
 10
34.75712999113668
 20
1.125517420531317
 30
0.0
  0
SPLINE
  5
255
330
1F
100
AcDbEntity
  8
외형선
  6
Continuous
 62
     1
370
    15
100
AcDbSpline
210
0.0
220
0.0
230
1.0
 70
     8
 71
     3
 72
    30
 73
    26
 74
     0
 42
0.000000001
 43
0.00000001
 40
0.0
 40
0.0
 40
0.0
 40
0.0
 40
0.1249999999999997
 40
0.1249999999999997
 40
0.1874999999999999
 40
0.1874999999999999
 40
0.2500000000000002
 40
0.2500000000000002
 40
0.3749999999999999
 40
0.3749999999999999
 40
0.4374999999999997
 40
0.4374999999999997
 40
0.4999999999999994
 40
0.4999999999999994
 40
0.624999999999999
 40
0.624999999999999
 40
0.6874999999999991
 40
0.6874999999999991
 40
0.7499999999999993
 40
0.7499999999999993
 40
0.8124999999999994
 40
0.8124999999999994
 40
0.8749999999999997
 40
0.8749999999999997
 40
1.0
 40
1.0
 40
1.0
 40
1.0
 10
29.04999999999998
 20
0.1971395271221112
 30
0.0
 10
29.38654245598522
 20
-0.0559387968628755
 30
0.0
 10
29.71507910793704
 20
-0.3092837057769771
 30
0.0
 10
30.20662995940211
 20
-0.6757393293797662
 30
0.0
 10
30.37027259887645
 20
-0.7956107533419754
 30
0.0
 10
30.6985925391507
 20
-1.02869974826762
 30
0.0
 10
30.86370115810283
 20
-1.142152316864738
 30
0.0
 10
31.35178173703008
 20
-1.461217197577007
 30
0.0
 10
31.67053051348259
 20
-1.649503975492607
 30
0.0
 10
32.15229601836643
 20
-1.87147504423362
 30
0.0
 10
32.31283645348944
 20
-1.934791881485054
 30
0.0
 10
32.62813624530642
 20
-2.032966962673747
 30
0.0
 10
32.78395089752055
 20
-2.068409156107073
 30
0.0
 10
33.24908969255648
 20
-2.124393977982223
 30
0.0
 10
33.55158177896971
 20
-2.093741956499805
 30
0.0
 10
33.96807159406217
 20
-1.896784409131783
 30
0.0
 10
34.09778655895065
 20
-1.807721384700102
 30
0.0
 10
34.33847771400076
 20
-1.57479798662267
 30
0.0
 10
34.44512783979465
 20
-1.434450672104859
 30
0.0
 10
34.62585969271748
 20
-1.111752460472928
 30
0.0
 10
34.70016607631155
 20
-0.9274740717513339
 30
0.0
 10
34.80791712108297
 20
-0.540565048593983
 30
0.0
 10
34.84283510130751
 20
-0.3331755674098247
 30
0.0
 10
34.89106539976751
 20
0.2884833351842602
 30
0.0
 10
34.85070536926074
 20
0.7153602152731295
 30
0.0
 10
34.75712999113236
 20
1.125517420517809
 30
0.0
  0
SPLINE
  5
256
330
1F
100
AcDbEntity
  8
외형선
  6
Continuous
 62
     1
370
    15
100
AcDbSpline
210
0.0
220
0.0
230
1.0
 70
     8
 71
     3
 72
    17
 73
    13
 74
     0
 42
0.000000001
 43
0.00000001
 40
0.0
 40
0.0
 40
0.0
 40
0.0
 40
0.1027654567516022
 40
0.2056245171071783
 40
0.3083052285516109
 40
0.4110048241729177
 40
0.5138815362998531
 40
0.6166133645459495
 40
0.7192799781833126
 40
0.8220957348658874
 40
0.9298054142677453
 40
1.0
 40
1.0
 40
1.0
 40
1.0
 10
29.04999999999998
 20
0.1971395271221112
 30
0.0
 10
28.60550770680268
 20
0.5315310411406884
 30
0.0
 10
27.71611825595366
 20
1.200618648672155
 30
0.0
 10
26.38168259478491
 20
2.171364113735734
 30
0.0
 10
25.04889670800679
 20
3.089759114772825
 30
0.0
 10
23.71591400850116
 20
3.930622922159451
 30
0.0
 10
22.38135814897768
 20
4.672247831269161
 30
0.0
 10
21.0480875574863
 20
5.297740579769012
 30
0.0
 10
19.71544865719193
 20
5.792610068407271
 30
0.0
 10
18.36027547263896
 20
6.14124341852753
 30
0.0
 10
17.14552916598123
 20
6.333562300473481
 30
0.0
 10
16.37617031933439
 20
6.331952075044093
 30
0.0
 10
16.07260915693556
 20
6.331316738354069
 30
0.0
  0
SPLINE
  5
257
330
1F
100
AcDbEntity
  8
외형선
  6
Continuous
 62
     1
370
    15
100
AcDbSpline
210
0.0
220
0.0
230
1.0
 70
     8
 71
     3
 72
    11
 73
     7
 74
     0
 42
0.000000001
 43
0.00000001
 40
0.0
 40
0.0
 40
0.0
 40
0.0
 40
0.2406729637408579
 40
0.4810370145499354
 40
0.7592223460797841
 40
0.9999999999999999
 40
0.9999999999999999
 40
0.9999999999999999
 40
0.9999999999999999
 10
31.50542325158065
 20
2.174279499799738
 30
0.0
 10
31.01113088616637
 20
2.278698362122697
 30
0.0
 10
30.02318059844836
 20
2.487402061174755
 30
0.0
 10
28.46416184852893
 20
2.715293009212431
 30
0.0
 10
26.90474792245681
 20
2.864079660427215
 30
0.0
 10
25.83900031017444
 20
2.870913808108945
 30
0.0
 10
25.34453689572902
 20
2.874084573831134
 30
0.0
  0
SPLINE
  5
258
330
1F
100
AcDbEntity
  8
외형선
  6
Continuous
370
    15
100
AcDbSpline
210
0.0
220
0.0
230
1.0
 70
     8
 71
     3
 72
     8
 73
     4
 74
     0
 42
0.000000001
 43
0.00000001
 40
0.0
 40
0.0
 40
0.0
 40
0.0
 40
1.0
 40
1.0
 40
1.0
 40
1.0
 10
31.50542325158071
 20
2.174279499799731
 30
0.0
 10
31.50265684082277
 20
2.167968993033803
 30
0.0
 10
31.49986066626914
 20
2.161680869536333
 30
0.0
 10
31.49703468561702
 20
2.155415161120317
 30
0.0
  0
ARC
  5
259
330
1F
100
AcDbEntity
  8
외형선
  6
Continuous
 62
     1
370
    15
100
AcDbCircle
 10
33.31825966544417
 20
-0.4950412738241425
 30
0.0
 40
2.167154423664716
100
AcDbArc
 50
17.99172951616571
 51
48.39859650666995
  0
ARC
  5
25A
330
1F
100
AcDbEntity
  8
외형선
  6
Continuous
 62
     1
370
    15
100
AcDbCircle
 10
29.31624335671708
 20
0.0125976348467276
 30
0.0
 40
6.065356466791499
100
AcDbArc
 50
1.528146834832975
 51
28.47073876850004
  0
SPLINE
  5
25B
330
1F
100
AcDbEntity
  8
외형선
  6
Continuous
 62
     1
370
    15
100
AcDbSpline
210
0.0
220
0.0
230
1.0
 70
    24
 71
     3
 72
    14
 73
    10
 74
     0
 42
0.000000001
 43
0.00000001
 40
0.0
 40
0.0
 40
0.0
 40
0.0
 40
0.25
 40
0.25
 40
0.4999999999999999
 40
0.4999999999999999
 40
0.75
 40
0.75
 40
1.0
 40
1.0
 40
1.0
 40
1.0
 10
10.0
 20
0.7564270858998725
 30
0.0
 10
10.0
 20
0.3737193709211013
 30
0.0
 10
10.0
 20
-0.0547469921246986
 30
0.0
 10
10.0
 20
-0.9821588174605154
 30
0.0
 10
10.0
 20
-1.481243366022987
 30
0.0
 10
10.0
 20
-2.493607875634517
 30
0.0
 10
10.0
 20
-3.006072874291185
 30
0.0
 10
10.0
 20
-3.960885309539236
 30
0.0
 10
10.0
 20
-4.401750903941497
 30
0.0
 10
10.0
 20
-4.769888625982894
 30
0.0
  0
SPLINE
  5
25C
330
1F
100
AcDbEntity
  8
외형선
  6
Continuous
 62
     1
370
    15
100
AcDbSpline
210
0.0
220
0.0
230
1.0
 70
     8
 71
     3
 72
    10
 73
     6
 74
     0
 42
0.000000001
 43
0.00000001
 40
0.0
 40
0.0
 40
0.0
 40
0.0
 40
0.2224157232026416
 40
0.6116576176967669
 40
1.0
 40
1.0
 40
1.0
 40
1.0
 10
23.94451416880369
 20
3.776854904762459
 30
0.0
 10
24.66718786628857
 20
4.596013209113728
 30
0.0
 10
25.5426059928719
 20
5.108625924644649
 30
0.0
 10
26.58075954884504
 20
5.85131864966236
 30
0.0
 10
27.49624142565554
 20
6.158049371796643
 30
0.0
 10
28.03425208246719
 20
6.26930882417065
 30
0.0
  0
SPLINE
  5
25D
330
1F
100
AcDbEntity
  8
외형선
  6
Continuous
 62
     1
370
    15
100
AcDbSpline
210
0.0
220
0.0
230
1.0
 70
     8
 71
     3
 72
    14
 73
    10
 74
     0
 42
0.000000001
 43
0.00000001
 40
0.0
 40
0.0
 40
0.0
 40
0.0
 40
0.1249999999999991
 40
0.1249999999999991
 40
0.2499999999999982
 40
0.2499999999999982
 40
0.4999999999999989
 40
0.4999999999999989
 40
1.0
 40
1.0
 40
1.0
 40
1.0
 10
34.64805976918552
 20
2.904012999850764
 30
0.0
 10
34.54340561640785
 20
2.809104907280108
 30
0.0
 10
34.43014342270581
 20
2.722264244518144
 30
0.0
 10
34.19363860871621
 20
2.568137529690809
 30
0.0
 10
34.07099925405416
 20
2.50097053491578
 30
0.0
 10
33.69170793301851
 20
2.325126085538493
 30
0.0
 10
33.42240462287685
 20
2.242229316700794
 30
0.0
 10
32.61289792528555
 20
2.08290251489089
 30
0.0
 10
32.05371513775398
 20
2.086735705332003
 30
0.0
 10
31.50542325158338
 20
2.174279499799304
 30
0.0
  0
LINE
  5
25E
330
1F
100
AcDbEntity
  8
중심선
 62
     1
100
AcDbLine
 10
-43.80000000000001
 20
0.001074928723888
 30
0.0
 11
38.40000000000001
 21
0.001074928723888
 31
0.0
  0
CIRCLE
  5
25F
330
1F
100
AcDbEntity
  8
해칭선
100
AcDbCircle
 10
0.0
 20
0.0
 30
0.0
 40
3.000000000000001
  0
INSERT
  5
260
330
1F
100
AcDbEntity
  8
0
  6
Continuous
 62
     7
100
AcDbBlockReference
 66
     1
  2
블럭10
 10
-17.21078629968144
 20
-52.04609937292004
 30
0.0
  0
ATTRIB
  5
261
330
260
100
AcDbEntity
  8
FORMAT
 62
     2
100
AcDbText
 10
-25.60029162458127
 20
-49.97073246008785
 30
0.0
 40
4.233333333333333
  1
EI099032 [ 2 FLUTE ]
 41
0.75
  7
SLDTEXTSTYLE0
 11
-25.60029162458127
 21
-52.08739912675452
 31
0.0
100
AcDbAttribute
  2
AUTOATTR0
 70
     0
 74
     1
  0
SEQEND
  5
262
330
260
100
AcDbEntity
  8
0
  6
Continuous
 62
     7
  0
HATCH
  5
263
330
1F
100
AcDbEntity
  8
중심선
100
AcDbHatch
 10
0.0
 20
0.0
 30
0.0
210
0.0
220
0.0
230
1.0
  2
SOLID
 70
     1
 71
     0
 91
        1
 92
        0
 93
        4
 72
     1
 10
-11.49587699530059
 20
-35.7989250712761
 11
-14.94215223913788
 21
-35.7989250712761
 72
     1
 10
-14.94215223913787
 20
-35.7989250712761
 11
-17.0703820983419
 21
-38.3352506518487
 72
     1
 10
-17.0703820983419
 20
-38.3352506518487
 11
-13.62407376939147
 21
-38.33521122254621
 72
     1
 10
-13.62407376939146
 20
-38.33521122254621
 11
-11.49587699530058
 21
-35.7989250712761
 97
        0
 75
     0
 76
     1
 98
        1
 10
-0.5699999999999932
 20
0.0
  0
HATCH
  5
264
330
1F
100
AcDbEntity
  8
중심선
100
AcDbHatch
 10
0.0
 20
0.0
 30
0.0
210
0.0
220
0.0
230
1.0
  2
SOLID
 70
     1
 71
     0
 91
        1
 92
        0
 93
        4
 72
     1
 10
-6.483113004264638
 20
-35.7989250712761
 11
-9.929388248101922
 21
-35.7989250712761
 72
     1
 10
-9.929388248101915
 20
-35.7989250712761
 11
-14.4605262564593
 21
-41.19892507127612
 72
     1
 10
-14.4605262564593
 20
-41.19892507127612
 11
-11.01425101262202
 21
-41.19892507127612
 72
     1
 10
-11.01425101262203
 20
-41.19892507127612
 11
-6.483113004264638
 21
-35.7989250712761
 97
        0
 75
     0
 76
     1
 98
        1
 10
-0.5699999999999932
 20
0.0
  0
HATCH
  5
265
330
1F
100
AcDbEntity
  8
중심선
100
AcDbHatch
 10
0.0
 20
0.0
 30
0.0
210
0.0
220
0.0
230
1.0
  2
SOLID
 70
     1
 71
     0
 91
        1
 92
        0
 93
        4
 72
     1
 10
-1.470349013228741
 20
-35.79892507127613
 11
-4.916624257065855
 21
-35.7989250712761
 72
     1
 10
-4.916624257065848
 20
-35.7989250712761
 11
-11.96506115895509
 21
-44.19892507127612
 72
     1
 10
-11.96506115895511
 20
-44.19892507127612
 11
-8.518785915117824
 21
-44.19892507127612
 72
     1
 10
-8.518785915117832
 20
-44.19892507127612
 11
-1.470349013228748
 21
-35.79892507127613
 97
        0
 75
     0
 76
     1
 98
        1
 10
-0.5699999999999932
 20
0.0
  0
HATCH
  5
266
330
1F
100
AcDbEntity
  8
중심선
100
AcDbHatch
 10
0.0
 20
0.0
 30
0.0
210
0.0
220
0.0
230
1.0
  2
SOLID
 70
     1
 71
     0
 91
        1
 92
        0
 93
        6
 72
     3
 10
3.32954141778346
 20
-39.99892507132738
 11
3.960054785062269
 21
1.540882976769353E-10
 40
0.3939339440162642
 50
17.09539180608454
 51
320.0019657685082
 73
     0
 72
     1
 10
5.012541073484073
 20
-38.58681907591441
 11
7.317842947185113
 21
-36.65249236586649
 72
     3
 10
3.32954141773061
 20
-39.99892507127625
 11
6.600054785286829
 21
-1.278976924368180E-13
 40
0.636358354079598
 50
39.99873849337408
 51
368.4976242363724
 73
     1
 72
     1
 10
9.754873909631215
 20
-39.03892507120613
 11
2.009608724566526
 21
-39.0389250712061
 72
     1
 10
2.009608724566533
 20
-39.0389250712061
 11
2.009583680120599
 21
-40.95892507120602
 72
     1
 10
2.009583680120599
 20
-40.95892507120602
 11
6.450963449592635
 21
-40.95892507120599
 97
        0
 75
     0
 76
     1
 98
        1
 10
-0.5699999999999932
 20
0.0
  0
POINT
  5
267
330
1F
100
AcDbEntity
  8
치수문자_일반주서
100
AcDbPoint
 10
-38.39263000274801
 20
-7.164101193405074
 30
0.0
  0
POINT
  5
268
330
1F
100
AcDbEntity
  8
치수문자_일반주서
100
AcDbPoint
 10
-38.39263000274801
 20
-7.164101193405074
 30
0.0
  0
DIMENSION
  5
269
330
1F
100
AcDbEntity
  8
치수문자_일반주서
100
AcDbDimension
  2
*D11
 10
10.0
 20
18.38022850135653
 30
0.0
 11
-10.36449999999999
 21
18.38022850135653
 31
0.0
 70
   160
  1
<>
 71
     2
 42
25.40000000000001
  3
SLDDIMSTYLE2
100
AcDbAlignedDimension
 13
35.40000000000001
 23
1.048836532705018
 33
0.0
 14
10.0
 24
6.236790878155013
 34
0.0
 50
0.000000000000008
100
AcDbRotatedDimension
1001
ACAD
1000
DSTYLE
1002
{
1070
   171
1070
     6
1070
   273
1070
     7
1002
}
1001
ACAD_DSTYLE_DIMFLIPARROW_SYMBOL
1070
   385
1070
     0
1001
ACAD_DSTYLE_DIMFLIPARROW_WHICH_SYMBOL
1070
   386
1070
     3
  0
DIMENSION
  5
26A
330
1F
100
AcDbEntity
  8
치수문자_일반주서
100
AcDbDimension
  2
*D12
 10
-40.80000000000001
 20
35.58857492872391
 30
0.0
 11
-1.257644014376297
 21
35.58857492872391
 31
0.0
 70
   160
  1
<>
 71
     2
 42
76.20000000000002
  3
SLDDIMSTYLE2
100
AcDbAlignedDimension
 13
35.40000000000001
 23
1.048836532705018
 33
0.0
 14
-40.80000000000001
 24
5.351074928723889
 34
0.0
100
AcDbRotatedDimension
1001
ACAD
1000
DSTYLE
1002
{
1070
   171
1070
     6
1070
   273
1070
     7
1002
}
  0
DIMENSION
  5
26B
330
1F
100
AcDbEntity
  8
치수문자_일반주서
100
AcDbDimension
  2
*D13
 10
-50.43266190202878
 20
-6.348925071276142
 30
0.0
 11
-50.43266190202891
 21
31.76757492872385
 31
0.0
 70
   160
  1
%%c<>
 71
     2
 42
12.69999999999999
 52
-270.0
  3
SLDDIMSTYLE2
100
AcDbAlignedDimension
 13
-39.80000000000001
 23
6.351074928723889
 33
0.0
 14
-39.80000000000001
 24
-6.348925071276099
 34
0.0
 50
90.0000000000002
100
AcDbRotatedDimension
1001
ACAD
1000
DSTYLE
1002
{
1070
   171
1070
     6
1070
   273
1070
     7
1002
}
  0
DIMENSION
  5
26C
330
1F
100
AcDbEntity
  8
치수문자_일반주서
100
AcDbDimension
  2
*D14
 10
54.76563996655447
 20
-6.348925071276035
 30
0.0
 11
54.76563996655435
 21
29.58007492872404
 31
0.0
 70
   160
  1
%%c<>
 71
     2
 42
12.70000000000007
 52
-270.0
  3
SLDDIMSTYLE2
100
AcDbAlignedDimension
 13
35.45096489076124
 23
6.351074928723968
 33
0.0
 14
35.45096489076124
 24
-6.348925071276106
 34
0.0
 50
90.0000000000002
100
AcDbRotatedDimension
1001
ACAD
1000
DSTYLE
1002
{
1070
   171
1070
     6
1070
   273
1070
     7
1002
}
  0
INSERT
  5
26D
330
1F
100
AcDbEntity
  8
해칭선
100
AcDbBlockReference
  2
SW_DOWELSYMBOL_0
 10
0.0
 20
0.0
 30
0.0
  0
ARC
  5
270
330
1F
100
AcDbEntity
  8
외형선
  6
Continuous
 62
     1
370
    15
100
AcDbCircle
 10
29.05000000000001
 20
0.001074928723888
 30
0.0
 40
6.35
100
AcDbArc
 50
270.0
 51
99.20459201432932
  0
SPLINE
  5
271
330
1F
100
AcDbEntity
  8
외형선
  6
Continuous
 62
     1
370
    15
100
AcDbSpline
210
0.0
220
0.0
230
1.0
 70
     8
 71
     3
 72
    26
 73
    22
 74
     0
 42
0.000000001
 43
0.00000001
 40
0.0
 40
0.0
 40
0.0
 40
0.0
 40
0.0625
 40
0.0625
 40
0.125
 40
0.125
 40
0.1875
 40
0.1875
 40
0.25
 40
0.25
 40
0.3125
 40
0.3125
 40
0.3750000000000001
 40
0.3750000000000001
 40
0.4375000000000001
 40
0.4375000000000001
 40
0.5000000000000001
 40
0.5000000000000001
 40
0.5625000000000001
 40
0.5625000000000001
 40
0.6107894460047282
 40
0.6107894460047282
 40
0.6107894460047282
 40
0.6107894460047282
 10
10.0
 20
6.23679087815502
 30
0.0
 10
10.39805021138304
 20
6.180251823793355
 30
0.0
 10
10.79232573148352
 20
6.10314204997907
 30
0.0
 10
11.58580284503057
 20
5.908646037209557
 30
0.0
 10
11.98540832265169
 20
5.791091702350798
 30
0.0
 10
12.77843694951835
 20
5.518897700732118
 30
0.0
 10
13.17306025472951
 20
5.364241070707429
 30
0.0
 10
13.96924014226195
 20
5.019358697129995
 30
0.0
 10
14.36569083846624
 20
4.829830489482745
 30
0.0
 10
15.1567804860189
 20
4.420348588217799
 30
0.0
 10
15.55623790168747
 20
4.199508753421313
 30
0.0
 10
16.35107629456965
 20
3.732079824351132
 30
0.0
 10
16.74461997573414
 20
3.485958675854128
 30
0.0
 10
17.54013564591943
 20
2.970451105203004
 30
0.0
 10
17.9393528947943
 20
2.701582196587481
 30
0.0
 10
18.72882818183891
 20
2.14976682301144
 30
0.0
 10
19.12705595778274
 20
1.864979835347455
 30
0.0
 10
19.92296460621432
 20
1.284993349500709
 30
0.0
 10
20.31682455285701
 20
0.9907626391454798
 30
0.0
 10
21.02065646440221
 20
0.4637153652935666
 30
0.0
 10
21.32893554037943
 20
0.2322392155046984
 30
0.0
 10
21.63596943587012
 20
0.001074928723888
 30
0.0
  0
SPLINE
  5
272
330
1F
100
AcDbEntity
  8
외형선
  6
Continuous
 62
     1
370
    15
100
AcDbSpline
210
0.0
220
0.0
230
1.0
 70
     8
 71
     3
 72
    16
 73
    12
 74
     0
 42
0.000000001
 43
0.00000001
 40
0.0813914023669143
 40
0.0813914023669143
 40
0.0813914023669143
 40
0.0813914023669143
 40
0.1405533584528109
 40
0.2504902882017662
 40
0.3604456239665307
 40
0.4704262655740535
 40
0.5804359217304327
 40
0.6904291549432907
 40
0.7936537211201031
 40
0.8968346016795418
 40
1.0
 40
1.0
 40
1.0
 40
1.0
 10
24.32263595367104
 20
-2.858413782913324
 30
0.0
 10
24.01516231268502
 20
-2.843245581174166
 30
0.0
 10
23.13632845151625
 20
-2.776369424572273
 30
0.0
 10
21.68603095961552
 20
-2.612640656041904
 30
0.0
 10
19.97159672380758
 20
-2.302261696968124
 30
0.0
 10
18.25675790367919
 20
-1.89923970672465
 30
0.0
 10
16.54167377287874
 20
-1.41728633154311
 30
0.0
 10
14.86172093643825
 20
-0.8878164342927732
 30
0.0
 10
13.21734847774405
 20
-0.3363112448122862
 30
0.0
 10
11.60851342460964
 20
0.2177102281731109
 30
0.0
 10
10.53614432145073
 20
0.5768637824664111
 30
0.0
 10
10.0
 20
0.7564270858998725
 30
0.0
  0
SPLINE
  5
273
330
1F
100
AcDbEntity
  8
외형선
  6
Continuous
 62
     1
370
    15
100
AcDbSpline
210
0.0
220
0.0
230
1.0
 70
  1064
 71
     3
 72
     9
 73
     5
 74
     3
 42
0.000000001
 43
0.0000000001
 44
0.0
 40
0.0
 40
0.0
 40
0.0
 40
0.0
 40
5.279606432261093
 40
9.801900099662888
 40
9.801900099662888
 40
9.801900099662888
 40
9.801900099662888
 10
29.05000000000001
 20
-6.348925071276113
 30
0.0
 10
27.56575500903127
 20
-5.385053259376256
 30
0.0
 10
24.81016682048708
 20
-3.595568506991546
 30
0.0
 10
22.63809583578953
 20
-1.134421986337125
 30
0.0
 10
21.63596943587012
 20
0.001074928723888
 30
0.0
 11
29.05000000000001
 21
-6.348925071276113
 31
0.0
 11
24.76655694287686
 21
-3.262444931058752
 31
0.0
 11
21.63596943587012
 21
0.001074928723888
 31
0.0
  0
SPLINE
  5
274
330
1F
100
AcDbEntity
  8
외형선
  6
Continuous
 62
     1
370
    15
100
AcDbSpline
210
0.0
220
0.0
230
1.0
 70
     8
 71
     3
 72
    18
 73
    14
 74
     0
 42
0.000000001
 43
0.00000001
 40
0.0376769406613797
 40
0.0376769406613797
 40
0.0376769406613797
 40
0.0376769406613797
 40
0.1061227612159766
 40
0.193127781081954
 40
0.2800102695735315
 40
0.3668376046857767
 40
0.4537910732381684
 40
0.5448834361487739
 40
0.6358605982342045
 40
0.7268486329978132
 40
0.8179663464601807
 40
0.9090299659535622
 40
1.0
 40
1.0
 40
1.0
 40
1.0
 10
24.76655694287686
 20
-3.262444931058759
 30
0.0
 10
24.41657352268282
 20
-3.491148330143346
 30
0.0
 10
23.6217113767332
 20
-3.977614910726849
 30
0.0
 10
22.38135182856215
 20
-4.670970846624833
 30
0.0
 10
21.04808872662804
 20
-5.295626605406369
 30
0.0
 10
19.71545029185646
 20
-5.789445088683266
 30
0.0
 10
18.36026760114751
 20
-6.143205262672673
 30
0.0
 10
16.9838127374251
 20
-6.340799071721882
 30
0.0
 10
15.58757605232589
 20
-6.367390634263202
 30
0.0
 10
14.19118310429027
 20
-6.219876564601783
 30
0.0
 10
12.79327362775553
 20
-5.899552127875488
 30
0.0
 10
11.39598174482958
 20
-5.426727902189072
 30
0.0
 10
10.46516773446595
 20
-4.988759996729627
 30
0.0
 10
10.0
 20
-4.769888625990596
 30
0.0
  0
ENDSEC
  0
SECTION
  2
OBJECTS
  0
DICTIONARY
  5
C
330
0
100
AcDbDictionary
281
     1
  3
ACAD_GROUP
350
D
  3
ACAD_IMAGE_VARS
350
14D
  3
ACAD_LAYOUT
350
1A
  3
ACAD_MLINESTYLE
350
17
  3
ACAD_PLOTSETTINGS
350
19
  3
ACAD_PLOTSTYLENAME
350
E
  3
ACAD_SCALELIST
350
47
  3
APPDATA
350
14B
  3
DWGPROPS
350
405
  0
DICTIONARY
  5
D
102
{ACAD_REACTORS
330
C
102
}
330
C
100
AcDbDictionary
281
     1
  0
RASTERVARIABLES
  5
14D
102
{ACAD_REACTORS
330
C
102
}
330
C
100
AcDbRasterVariables
 90
        0
 70
     1
 71
     1
 72
     1
  0
DICTIONARY
  5
1A
102
{ACAD_REACTORS
330
C
102
}
330
C
100
AcDbDictionary
281
     1
  3
Layout1
350
1E
  3
Layout2
350
26
  3
Model
350
22
  0
DICTIONARY
  5
17
102
{ACAD_REACTORS
330
C
102
}
330
C
100
AcDbDictionary
281
     1
  3
Standard
350
18
  0
DICTIONARY
  5
19
102
{ACAD_REACTORS
330
C
102
}
330
C
100
AcDbDictionary
281
     1
  0
ACDBDICTIONARYWDFLT
  5
E
102
{ACAD_REACTORS
330
C
102
}
330
C
100
AcDbDictionary
281
     1
  3
Normal
350
F
100
AcDbDictionaryWithDefault
340
F
  0
DICTIONARY
  5
47
102
{ACAD_REACTORS
330
C
102
}
330
C
100
AcDbDictionary
281
     1
  3
A0
350
48
  3
A1
350
49
  3
A2
350
4A
  3
A3
350
4B
  3
A4
350
4C
  3
A5
350
4D
  3
A6
350
4E
  3
A7
350
4F
  3
A8
350
50
  3
A9
350
51
  3
B0
350
52
  3
B1
350
53
  3
B2
350
54
  3
B3
350
55
  3
B4
350
56
  3
B5
350
57
  3
B6
350
58
  3
B7
350
59
  3
B8
350
5A
  3
B9
350
5B
  3
C0
350
5C
  3
C1
350
5D
  3
C2
350
5E
  3
C3
350
5F
  3
C4
350
60
  3
C5
350
61
  3
C6
350
62
  3
C7
350
63
  3
C8
350
64
  3
C9
350
65
  3
D0
350
66
  3
D1
350
67
  3
D2
350
68
  0
DICTIONARY
  5
14B
102
{ACAD_REACTORS
330
C
102
}
330
C
100
AcDbDictionary
281
     1
  0
XRECORD
  5
405
102
{ACAD_REACTORS
330
C
102
}
330
C
100
AcDbXrecord
280
     1
  1
DWGPROPS COOKIE
  2

  3

  4

  6

  7

  8
12016016
  9

300
=
301
=
302
=
303
=
304
=
305
=
306
=
307
=
308
=
309
=
 40
0.0
 41
2458270.309152975
 42
2458275.06263456
  1

 90
        0
  0
LAYOUT
  5
1E
102
{ACAD_REACTORS
330
1A
102
}
330
1A
100
AcDbPlotSettings
  1

  2
none_device
  4

  6

 40
0.0
 41
0.0
 42
0.0
 43
0.0
 44
0.0
 45
0.0
 46
0.0
 47
0.0
 48
0.0
 49
0.0
140
0.0
141
0.0
142
1.0
143
1.0
 70
   688
 72
     1
 73
     0
 74
     5
  7

 75
    16
147
1.0
148
0.0
149
0.0
100
AcDbLayout
  1
Layout1
 70
     1
 71
     1
 10
0.0
 20
0.0
 11
420.0
 21
297.0
 12
0.0
 22
0.0
 32
0.0
 14
1.000000000000000E+20
 24
1.000000000000000E+20
 34
1.000000000000000E+20
 15
-1.000000000000000E+20
 25
-1.000000000000000E+20
 35
-1.000000000000000E+20
146
0.0
 13
0.0
 23
0.0
 33
0.0
 16
1.0
 26
0.0
 36
0.0
 17
0.0
 27
1.0
 37
0.0
 76
     0
330
1B
  0
LAYOUT
  5
26
102
{ACAD_REACTORS
330
1A
102
}
330
1A
100
AcDbPlotSettings
  1

  2
none_device
  4

  6

 40
0.0
 41
0.0
 42
0.0
 43
0.0
 44
0.0
 45
0.0
 46
0.0
 47
0.0
 48
0.0
 49
0.0
140
0.0
141
0.0
142
1.0
143
1.0
 70
   688
 72
     1
 73
     0
 74
     5
  7

 75
    16
147
1.0
148
0.0
149
0.0
100
AcDbLayout
  1
Layout2
 70
     1
 71
     2
 10
0.0
 20
0.0
 11
0.0
 21
0.0
 12
0.0
 22
0.0
 32
0.0
 14
0.0
 24
0.0
 34
0.0
 15
0.0
 25
0.0
 35
0.0
146
0.0
 13
0.0
 23
0.0
 33
0.0
 16
1.0
 26
0.0
 36
0.0
 17
0.0
 27
1.0
 37
0.0
 76
     0
330
23
  0
LAYOUT
  5
22
102
{ACAD_REACTORS
330
1A
102
}
330
1A
100
AcDbPlotSettings
  1

  2
none_device
  4
ANSI_A_(11.00_x_8.50_Inches)
  6

 40
6.35
 41
19.05
 42
6.35000508
 43
19.05000254
 44
279.4
 45
215.9
 46
96.19152124762826
 47
92.99593893423243
 48
0.0
 49
0.0
140
0.0
141
0.0
142
0.0744281094769465
143
1.0
 70
  1696
 72
     0
 73
     0
 74
     0
  7

 75
     0
147
0.0235690232323232
148
0.0
149
0.0
100
AcDbLayout
  1
Model
 70
     1
 71
     0
 10
0.0
 20
0.0
 11
420.0
 21
297.0
 12
0.0
 22
0.0
 32
0.0
 14
-54.80766190202894
 24
-49.97073246008785
 34
0.0
 15
92.81348381534559
 25
44.01757492872385
 35
0.0
146
0.0
 13
0.0
 23
0.0
 33
0.0
 16
1.0
 26
0.0
 36
0.0
 17
0.0
 27
1.0
 37
0.0
 76
     0
330
1F
331
29
  0
MLINESTYLE
  5
18
102
{ACAD_REACTORS
330
17
102
}
330
17
100
AcDbMlineStyle
  2
Standard
 70
     0
  3

 62
   256
 51
90.0
 52
90.0
 71
     2
 49
0.5
 62
   256
  6
BYLAYER
 49
-0.5
 62
   256
  6
BYLAYER
  0
ACDBPLACEHOLDER
  5
F
102
{ACAD_REACTORS
330
E
102
}
330
E
  0
SCALE
  5
48
102
{ACAD_REACTORS
330
47
102
}
330
47
100
AcDbScale
 70
     0
300
1:1
140
1.0
141
1.0
290
     1
  0
SCALE
  5
49
102
{ACAD_REACTORS
330
47
102
}
330
47
100
AcDbScale
 70
     0
300
1:2
140
1.0
141
2.0
290
     0
  0
SCALE
  5
4A
102
{ACAD_REACTORS
330
47
102
}
330
47
100
AcDbScale
 70
     0
300
1:4
140
1.0
141
4.0
290
     0
  0
SCALE
  5
4B
102
{ACAD_REACTORS
330
47
102
}
330
47
100
AcDbScale
 70
     0
300
1:5
140
1.0
141
5.0
290
     0
  0
SCALE
  5
4C
102
{ACAD_REACTORS
330
47
102
}
330
47
100
AcDbScale
 70
     0
300
1:8
140
1.0
141
8.0
290
     0
  0
SCALE
  5
4D
102
{ACAD_REACTORS
330
47
102
}
330
47
100
AcDbScale
 70
     0
300
1:10
140
1.0
141
10.0
290
     0
  0
SCALE
  5
4E
102
{ACAD_REACTORS
330
47
102
}
330
47
100
AcDbScale
 70
     0
300
1:16
140
1.0
141
16.0
290
     0
  0
SCALE
  5
4F
102
{ACAD_REACTORS
330
47
102
}
330
47
100
AcDbScale
 70
     0
300
1:20
140
1.0
141
20.0
290
     0
  0
SCALE
  5
50
102
{ACAD_REACTORS
330
47
102
}
330
47
100
AcDbScale
 70
     0
300
1:30
140
1.0
141
30.0
290
     0
  0
SCALE
  5
51
102
{ACAD_REACTORS
330
47
102
}
330
47
100
AcDbScale
 70
     0
300
1:40
140
1.0
141
40.0
290
     0
  0
SCALE
  5
52
102
{ACAD_REACTORS
330
47
102
}
330
47
100
AcDbScale
 70
     0
300
1:50
140
1.0
141
50.0
290
     0
  0
SCALE
  5
53
102
{ACAD_REACTORS
330
47
102
}
330
47
100
AcDbScale
 70
     0
300
1:100
140
1.0
141
100.0
290
     0
  0
SCALE
  5
54
102
{ACAD_REACTORS
330
47
102
}
330
47
100
AcDbScale
 70
     0
300
2:1
140
2.0
141
1.0
290
     0
  0
SCALE
  5
55
102
{ACAD_REACTORS
330
47
102
}
330
47
100
AcDbScale
 70
     0
300
4:1
140
4.0
141
1.0
290
     0
  0
SCALE
  5
56
102
{ACAD_REACTORS
330
47
102
}
330
47
100
AcDbScale
 70
     0
300
8:1
140
8.0
141
1.0
290
     0
  0
SCALE
  5
57
102
{ACAD_REACTORS
330
47
102
}
330
47
100
AcDbScale
 70
     0
300
10:1
140
10.0
141
1.0
290
     0
  0
SCALE
  5
58
102
{ACAD_REACTORS
330
47
102
}
330
47
100
AcDbScale
 70
     0
300
100:1
140
100.0
141
1.0
290
     0
  0
SCALE
  5
59
102
{ACAD_REACTORS
330
47
102
}
330
47
100
AcDbScale
 70
     0
300
1/128" = 1'-0"
140
0.0078125
141
12.0
290
     0
  0
SCALE
  5
5A
102
{ACAD_REACTORS
330
47
102
}
330
47
100
AcDbScale
 70
     0
300
1/64" = 1'-0"
140
0.015625
141
12.0
290
     0
  0
SCALE
  5
5B
102
{ACAD_REACTORS
330
47
102
}
330
47
100
AcDbScale
 70
     0
300
1/32" = 1'-0"
140
0.03125
141
12.0
290
     0
  0
SCALE
  5
5C
102
{ACAD_REACTORS
330
47
102
}
330
47
100
AcDbScale
 70
     0
300
1/16" = 1'-0"
140
0.0625
141
12.0
290
     0
  0
SCALE
  5
5D
102
{ACAD_REACTORS
330
47
102
}
330
47
100
AcDbScale
 70
     0
300
3/32" = 1'-0"
140
0.09375
141
12.0
290
     0
  0
SCALE
  5
5E
102
{ACAD_REACTORS
330
47
102
}
330
47
100
AcDbScale
 70
     0
300
1/8" = 1'-0"
140
0.125
141
12.0
290
     0
  0
SCALE
  5
5F
102
{ACAD_REACTORS
330
47
102
}
330
47
100
AcDbScale
 70
     0
300
3/16" = 1'-0"
140
0.1875
141
12.0
290
     0
  0
SCALE
  5
60
102
{ACAD_REACTORS
330
47
102
}
330
47
100
AcDbScale
 70
     0
300
1/4" = 1'-0"
140
0.25
141
12.0
290
     0
  0
SCALE
  5
61
102
{ACAD_REACTORS
330
47
102
}
330
47
100
AcDbScale
 70
     0
300
3/8" = 1'-0"
140
0.375
141
12.0
290
     0
  0
SCALE
  5
62
102
{ACAD_REACTORS
330
47
102
}
330
47
100
AcDbScale
 70
     0
300
1/2" = 1'-0"
140
0.5
141
12.0
290
     0
  0
SCALE
  5
63
102
{ACAD_REACTORS
330
47
102
}
330
47
100
AcDbScale
 70
     0
300
3/4" = 1'-0"
140
0.75
141
12.0
290
     0
  0
SCALE
  5
64
102
{ACAD_REACTORS
330
47
102
}
330
47
100
AcDbScale
 70
     0
300
1" = 1'-0"
140
1.0
141
12.0
290
     0
  0
SCALE
  5
65
102
{ACAD_REACTORS
330
47
102
}
330
47
100
AcDbScale
 70
     0
300
1-1/2" = 1'-0"
140
1.5
141
12.0
290
     0
  0
SCALE
  5
66
102
{ACAD_REACTORS
330
47
102
}
330
47
100
AcDbScale
 70
     0
300
3" = 1'-0"
140
3.0
141
12.0
290
     0
  0
SCALE
  5
67
102
{ACAD_REACTORS
330
47
102
}
330
47
100
AcDbScale
 70
     0
300
6" = 1'-0"
140
6.0
141
12.0
290
     0
  0
SCALE
  5
68
102
{ACAD_REACTORS
330
47
102
}
330
47
100
AcDbScale
 70
     0
300
1'-0" = 1'-0"
140
12.0
141
12.0
290
     0
  0
ENDSEC
  0
EOF
