  0
SECTION
  2
HEADER
  9
$ACADVER
  1
AC1015
  9
$ACADMAINTVER
 70
     6
  9
$DWGCODEPAGE
  3
ANSI_949
  9
$INSBASE
 10
0.0
 20
0.0
 30
0.0
  9
$EXTMIN
 10
-43.71932186858635
 20
-49.97073246008785
 30
0.0
  9
$EXTMAX
 10
92.81348381534559
 20
39.96357492872392
 30
0.0
  9
$LIMMIN
 10
0.0
 20
0.0
  9
$LIMMAX
 10
420.0
 20
297.0
  9
$ORTHOMODE
 70
     0
  9
$REGENMODE
 70
     1
  9
$FILLMODE
 70
     1
  9
$QTEXTMODE
 70
     0
  9
$MIRRTEXT
 70
     1
  9
$LTSCALE
 40
1.0
  9
$ATTMODE
 70
     1
  9
$TEXTSIZE
 40
3.5
  9
$TRACEWID
 40
1.0
  9
$TEXTSTYLE
  7
Standard
  9
$CLAYER
  8
0
  9
$CELTYPE
  6
ByLayer
  9
$CECOLOR
 62
   256
  9
$CELTSCALE
 40
1.0
  9
$DISPSILH
 70
     0
  9
$DIMSCALE
 40
1.0
  9
$DIMASZ
 40
3.302
  9
$DIMEXO
 40
1.0
  9
$DIMDLI
 40
3.75
  9
$DIMRND
 40
0.0
  9
$DIMDLE
 40
0.0
  9
$DIMEXE
 40
1.0
  9
$DIMTP
 40
0.0
  9
$DIMTM
 40
0.0
  9
$DIMTXT
 40
3.5
  9
$DIMCEN
 40
2.5
  9
$DIMTSZ
 40
0.0
  9
$DIMTOL
 70
     0
  9
$DIMLIM
 70
     0
  9
$DIMTIH
 70
     1
  9
$DIMTOH
 70
     1
  9
$DIMSE1
 70
     0
  9
$DIMSE2
 70
     0
  9
$DIMTAD
 70
     1
  9
$DIMZIN
 70
     0
  9
$DIMBLK
  1

  9
$DIMASO
 70
     1
  9
$DIMSHO
 70
     1
  9
$DIMPOST
  1

  9
$DIMAPOST
  1

  9
$DIMALT
 70
     0
  9
$DIMALTD
 70
     3
  9
$DIMALTF
 40
0.0393700787401575
  9
$DIMLFAC
 40
1.0
  9
$DIMTOFL
 70
     1
  9
$DIMTVP
 40
0.0
  9
$DIMTIX
 70
     0
  9
$DIMSOXD
 70
     0
  9
$DIMSAH
 70
     0
  9
$DIMBLK1
  1

  9
$DIMBLK2
  1

  9
$DIMSTYLE
  2
ISO-25
  9
$DIMCLRD
 70
     0
  9
$DIMCLRE
 70
     0
  9
$DIMCLRT
 70
     0
  9
$DIMTFAC
 40
1.0
  9
$DIMGAP
 40
1.524
  9
$DIMJUST
 70
     0
  9
$DIMSD1
 70
     0
  9
$DIMSD2
 70
     0
  9
$DIMTOLJ
 70
     0
  9
$DIMTZIN
 70
     0
  9
$DIMALTZ
 70
     0
  9
$DIMALTTZ
 70
     0
  9
$DIMUPT
 70
     0
  9
$DIMDEC
 70
     2
  9
$DIMTDEC
 70
     2
  9
$DIMALTU
 70
     2
  9
$DIMALTTD
 70
     3
  9
$DIMTXSTY
  7
Standard
  9
$DIMAUNIT
 70
     0
  9
$DIMADEC
 70
     2
  9
$DIMALTRND
 40
0.0
  9
$DIMAZIN
 70
     0
  9
$DIMDSEP
 70
    44
  9
$DIMATFIT
 70
     3
  9
$DIMFRAC
 70
     0
  9
$DIMLDRBLK
  1

  9
$DIMLUNIT
 70
     2
  9
$DIMLWD
 70
    -2
  9
$DIMLWE
 70
    -2
  9
$DIMTMOVE
 70
     0
  9
$LUNITS
 70
     2
  9
$LUPREC
 70
     2
  9
$SKETCHINC
 40
1.0
  9
$FILLETRAD
 40
10.0
  9
$AUNITS
 70
     0
  9
$AUPREC
 70
     2
  9
$MENU
  1
.
  9
$ELEVATION
 40
0.0
  9
$PELEVATION
 40
0.0
  9
$THICKNESS
 40
0.0
  9
$LIMCHECK
 70
     0
  9
$CHAMFERA
 40
0.0
  9
$CHAMFERB
 40
0.0
  9
$CHAMFERC
 40
0.0
  9
$CHAMFERD
 40
0.0
  9
$SKPOLY
 70
     0
  9
$TDCREATE
 40
2458270.684319085
  9
$TDUCREATE
 40
2458270.309319085
  9
$TDUPDATE
 40
2458274.632146748
  9
$TDUUPDATE
 40
2458274.257146748
  9
$TDINDWG
 40
0.0022280671
  9
$TDUSRTIMER
 40
2458274.254918773
  9
$USRTIMER
 70
     1
  9
$ANGBASE
 50
0.0
  9
$ANGDIR
 70
     0
  9
$PDMODE
 70
     0
  9
$PDSIZE
 40
-1.0
  9
$PLINEWID
 40
0.0
  9
$SPLFRAME
 70
     0
  9
$SPLINETYPE
 70
     6
  9
$SPLINESEGS
 70
     8
  9
$HANDSEED
  5
175
  9
$SURFTAB1
 70
     6
  9
$SURFTAB2
 70
     6
  9
$SURFTYPE
 70
     6
  9
$SURFU
 70
     6
  9
$SURFV
 70
     6
  9
$UCSBASE
  2

  9
$UCSNAME
  2

  9
$UCSORG
 10
0.0
 20
0.0
 30
0.0
  9
$UCSXDIR
 10
1.0
 20
0.0
 30
0.0
  9
$UCSYDIR
 10
0.0
 20
1.0
 30
0.0
  9
$UCSORTHOREF
  2

  9
$UCSORTHOVIEW
 70
     0
  9
$UCSORGTOP
 10
0.0
 20
0.0
 30
0.0
  9
$UCSORGBOTTOM
 10
0.0
 20
0.0
 30
0.0
  9
$UCSORGLEFT
 10
0.0
 20
0.0
 30
0.0
  9
$UCSORGRIGHT
 10
0.0
 20
0.0
 30
0.0
  9
$UCSORGFRONT
 10
0.0
 20
0.0
 30
0.0
  9
$UCSORGBACK
 10
0.0
 20
0.0
 30
0.0
  9
$PUCSBASE
  2

  9
$PUCSNAME
  2

  9
$PUCSORG
 10
0.0
 20
0.0
 30
0.0
  9
$PUCSXDIR
 10
1.0
 20
0.0
 30
0.0
  9
$PUCSYDIR
 10
0.0
 20
1.0
 30
0.0
  9
$PUCSORTHOREF
  2

  9
$PUCSORTHOVIEW
 70
     0
  9
$PUCSORGTOP
 10
0.0
 20
0.0
 30
0.0
  9
$PUCSORGBOTTOM
 10
0.0
 20
0.0
 30
0.0
  9
$PUCSORGLEFT
 10
0.0
 20
0.0
 30
0.0
  9
$PUCSORGRIGHT
 10
0.0
 20
0.0
 30
0.0
  9
$PUCSORGFRONT
 10
0.0
 20
0.0
 30
0.0
  9
$PUCSORGBACK
 10
0.0
 20
0.0
 30
0.0
  9
$USERI1
 70
     0
  9
$USERI2
 70
     0
  9
$USERI3
 70
     0
  9
$USERI4
 70
     0
  9
$USERI5
 70
     0
  9
$USERR1
 40
0.0
  9
$USERR2
 40
0.0
  9
$USERR3
 40
0.0
  9
$USERR4
 40
0.0
  9
$USERR5
 40
0.0
  9
$WORLDVIEW
 70
     1
  9
$SHADEDGE
 70
     3
  9
$SHADEDIF
 70
    70
  9
$TILEMODE
 70
     1
  9
$MAXACTVP
 70
    64
  9
$PINSBASE
 10
0.0
 20
0.0
 30
0.0
  9
$PLIMCHECK
 70
     0
  9
$PEXTMIN
 10
1.000000000000000E+20
 20
1.000000000000000E+20
 30
1.000000000000000E+20
  9
$PEXTMAX
 10
-1.000000000000000E+20
 20
-1.000000000000000E+20
 30
-1.000000000000000E+20
  9
$PLIMMIN
 10
0.0
 20
0.0
  9
$PLIMMAX
 10
0.0
 20
0.0
  9
$UNITMODE
 70
     0
  9
$VISRETAIN
 70
     1
  9
$PLINEGEN
 70
     0
  9
$PSLTSCALE
 70
     1
  9
$TREEDEPTH
 70
  3020
  9
$CMLSTYLE
  2
Standard
  9
$CMLJUST
 70
     0
  9
$CMLSCALE
 40
20.0
  9
$PROXYGRAPHICS
 70
     1
  9
$MEASUREMENT
 70
     1
  9
$CELWEIGHT
370
    -1
  9
$ENDCAPS
280
     0
  9
$JOINSTYLE
280
     0
  9
$LWDISPLAY
290
     1
  9
$INSUNITS
 70
     4
  9
$HYPERLINKBASE
  1

  9
$STYLESHEET
  1

  9
$XEDIT
290
     1
  9
$CEPSNTYPE
380
     0
  9
$PSTYLEMODE
290
     1
  9
$FINGERPRINTGUID
  2
{CAD54EA5-3AFF-4722-A5CD-E80C1BB2CB29}
  9
$VERSIONGUID
  2
{FAEB1C32-E019-11D5-929B-00C0DF256EC4}
  9
$EXTNAMES
290
     1
  9
$PSVPSCALE
 40
0.0
  9
$OLESTARTUP
290
     0
  0
ENDSEC
  0
SECTION
  2
CLASSES
  0
CLASS
  1
ACDBDICTIONARYWDFLT
  2
AcDbDictionaryWithDefault
  3
ObjectDBX Classes
 90
        0
280
     0
281
     0
  0
CLASS
  1
VISUALSTYLE
  2
AcDbVisualStyle
  3
ObjectDBX Classes
 90
     4095
280
     0
281
     0
  0
CLASS
  1
MATERIAL
  2
AcDbMaterial
  3
ObjectDBX Classes
 90
     1153
280
     0
281
     0
  0
CLASS
  1
SCALE
  2
AcDbScale
  3
ObjectDBX Classes
 90
     1153
280
     0
281
     0
  0
CLASS
  1
SUN
  2
AcDbSun
  3
SCENEOE
 90
     1153
280
     0
281
     0
  0
CLASS
  1
ACDBPLACEHOLDER
  2
AcDbPlaceHolder
  3
ObjectDBX Classes
 90
        0
280
     0
281
     0
  0
CLASS
  1
LAYOUT
  2
AcDbLayout
  3
ObjectDBX Classes
 90
        0
280
     0
281
     0
  0
CLASS
  1
TABLESTYLE
  2
AcDbTableStyle
  3
ObjectDBX Classes
 90
     4095
280
     0
281
     0
  0
CLASS
  1
MLEADERSTYLE
  2
AcDbMLeaderStyle
  3
ACDB_MLEADERSTYLE_CLASS
 90
     4095
280
     0
281
     0
  0
CLASS
  1
RASTERVARIABLES
  2
AcDbRasterVariables
  3
ISM
 90
        0
280
     0
281
     0
  0
CLASS
  1
DICTIONARYVAR
  2
AcDbDictionaryVar
  3
ObjectDBX Classes
 90
        0
280
     0
281
     0
  0
CLASS
  1
DIMASSOC
  2
AcDbDimAssoc
  3
"AcDbDimAssoc|Product Desc:     AcDim ARX App For Dimension|Company:          Autodesk, Inc.|WEB Address:      www.autodesk.com"
 90
        0
280
     0
281
     0
  0
ENDSEC
  0
SECTION
  2
TABLES
  0
TABLE
  2
VPORT
  5
8
330
0
100
AcDbSymbolTable
 70
     1
  0
VPORT
  5
29
330
8
100
AcDbSymbolTableRecord
100
AcDbViewportTableRecord
  2
*Active
 70
     0
 10
0.0
 20
0.0
 11
1.0
 21
1.0
 12
51.58890153273312
 22
-3.737510053407654
 13
0.0
 23
0.0
 14
10.0
 24
10.0
 15
10.0
 25
10.0
 16
0.0
 26
0.0
 36
1.0
 17
0.0
 27
0.0
 37
0.0
 40
127.4428314893483
 41
2.213513513513513
 42
50.0
 43
0.0
 44
0.0
 50
0.0
 51
0.0
 71
    16
 72
  2000
 73
     1
 74
     3
 75
     0
 76
     0
 77
     0
 78
     0
281
     0
 65
     1
110
0.0
120
0.0
130
0.0
111
1.0
121
0.0
131
0.0
112
0.0
122
1.0
132
0.0
 79
     0
146
0.0
  0
ENDTAB
  0
TABLE
  2
LTYPE
  5
5
330
0
100
AcDbSymbolTable
 70
     6
  0
LTYPE
  5
14
330
5
100
AcDbSymbolTableRecord
100
AcDbLinetypeTableRecord
  2
ByBlock
 70
     0
  3

 72
    65
 73
     0
 40
0.0
  0
LTYPE
  5
15
330
5
100
AcDbSymbolTableRecord
100
AcDbLinetypeTableRecord
  2
ByLayer
 70
     0
  3

 72
    65
 73
     0
 40
0.0
  0
LTYPE
  5
16
330
5
100
AcDbSymbolTableRecord
100
AcDbLinetypeTableRecord
  2
Continuous
 70
     0
  3
Solid line
 72
    65
 73
     0
 40
0.0
  0
LTYPE
  5
6A
330
5
100
AcDbSymbolTableRecord
100
AcDbLinetypeTableRecord
  2
HIDDEN
 70
     0
  3
Hidden __ __ __ __ __ __ __ __ __ __ __ __ __ __
 72
    65
 73
     2
 40
1.905
 49
1.27
 74
     0
 49
-0.635
 74
     0
  0
LTYPE
  5
6B
330
5
100
AcDbSymbolTableRecord
100
AcDbLinetypeTableRecord
  2
PHANTOM
 70
     0
  3
Phantom ______  __  __  ______  __  __  ______
 72
    65
 73
     6
 40
12.7
 49
6.35
 74
     0
 49
-1.27
 74
     0
 49
1.27
 74
     0
 49
-1.27
 74
     0
 49
1.27
 74
     0
 49
-1.27
 74
     0
  0
LTYPE
  5
6C
330
5
100
AcDbSymbolTableRecord
100
AcDbLinetypeTableRecord
  2
CENTER
 70
     0
  3
Center ____ _ ____ _ ____ _ ____ _ ____ _ ____
 72
    65
 73
     4
 40
10.16
 49
6.35
 74
     0
 49
-1.27
 74
     0
 49
1.27
 74
     0
 49
-1.27
 74
     0
  0
LTYPE
  5
6D
330
5
100
AcDbSymbolTableRecord
100
AcDbLinetypeTableRecord
  2
CENTERX2
 70
     0
  3
Center (2x) ________  __  ________  __  _____
 72
    65
 73
     4
 40
20.32
 49
12.7
 74
     0
 49
-2.54
 74
     0
 49
2.54
 74
     0
 49
-2.54
 74
     0
  0
LTYPE
  5
6E
330
5
100
AcDbSymbolTableRecord
100
AcDbLinetypeTableRecord
  2
DOT2
 70
     0
  3
Dot (.5x) ........................................
 72
    65
 73
     2
 40
0.635
 49
0.0
 74
     0
 49
-0.635
 74
     0
  0
ENDTAB
  0
TABLE
  2
LAYER
  5
2
330
0
100
AcDbSymbolTable
 70
    18
  0
LAYER
  5
10
330
2
100
AcDbSymbolTableRecord
100
AcDbLayerTableRecord
  2
0
 70
     0
 62
     7
  6
Continuous
370
    -3
390
F
  0
LAYER
  5
6F
330
2
100
AcDbSymbolTableRecord
100
AcDbLayerTableRecord
  2
FORMAT
 70
     0
 62
     2
  6
Continuous
370
    -3
390
F
  0
LAYER
  5
70
330
2
100
AcDbSymbolTableRecord
100
AcDbLayerTableRecord
  2
외형선
 70
     0
 62
     4
  6
Continuous
370
    30
390
F
  0
LAYER
  5
71
330
2
100
AcDbSymbolTableRecord
100
AcDbLayerTableRecord
  2
숨은선
 70
     0
 62
     2
  6
HIDDEN
370
    15
390
F
  0
LAYER
  5
72
330
2
100
AcDbSymbolTableRecord
100
AcDbLayerTableRecord
  2
중심선
 70
     0
 62
     1
  6
CENTERX2
370
    -3
390
F
  0
LAYER
  5
73
330
2
100
AcDbSymbolTableRecord
100
AcDbLayerTableRecord
  2
파단선
 70
     0
 62
     4
  6
Continuous
370
    -3
390
F
  0
LAYER
  5
74
330
2
100
AcDbSymbolTableRecord
100
AcDbLayerTableRecord
  2
해칭선
 70
     0
 62
   100
  6
Continuous
370
    -3
390
F
  0
LAYER
  5
75
330
2
100
AcDbSymbolTableRecord
100
AcDbLayerTableRecord
  2
가는실선
 70
     0
 62
     4
  6
Continuous
370
    -3
390
F
  0
LAYER
  5
76
330
2
100
AcDbSymbolTableRecord
100
AcDbLayerTableRecord
  2
치수_보조선
 70
     0
 62
     4
  6
Continuous
370
    -3
390
F
  0
LAYER
  5
77
330
2
100
AcDbSymbolTableRecord
100
AcDbLayerTableRecord
  2
치수문자_일반주서
 70
     0
 62
     7
  6
Continuous
370
    15
390
F
  0
LAYER
  5
78
330
2
100
AcDbSymbolTableRecord
100
AcDbLayerTableRecord
  2
개별주서
 70
     0
 62
   100
  6
Continuous
370
    30
390
F
  0
LAYER
  5
79
330
2
100
AcDbSymbolTableRecord
100
AcDbLayerTableRecord
  2
중간선
 70
     0
 62
     2
  6
Continuous
370
    15
390
F
  0
LAYER
  5
7A
330
2
100
AcDbSymbolTableRecord
100
AcDbLayerTableRecord
  2
윤곽선
 70
     0
 62
     3
  6
Continuous
370
    40
390
F
  0
LAYER
  5
7B
330
2
100
AcDbSymbolTableRecord
100
AcDbLayerTableRecord
  2
중심마크
 70
     0
 62
   100
  6
Continuous
370
    30
390
F
  0
LAYER
  5
7C
330
2
100
AcDbSymbolTableRecord
100
AcDbLayerTableRecord
  2
가상선
 70
     0
 62
     4
  6
PHANTOM
370
    -3
390
F
  0
LAYER
  5
7D
330
2
100
AcDbSymbolTableRecord
100
AcDbLayerTableRecord
  2
특수지정선
 70
     0
 62
     5
  6
CENTERX2
370
    60
390
F
  0
LAYER
  5
7E
330
2
100
AcDbSymbolTableRecord
100
AcDbLayerTableRecord
  2
참조1
 70
     0
 62
    -4
  6
Continuous
370
    -3
390
F
  0
LAYER
  5
152
330
2
100
AcDbSymbolTableRecord
100
AcDbLayerTableRecord
  2
Defpoints
 70
     0
 62
     7
  6
Continuous
290
     0
370
    -3
390
F
  0
ENDTAB
  0
TABLE
  2
STYLE
  5
3
330
0
100
AcDbSymbolTable
 70
     2
  0
STYLE
  5
11
330
3
100
AcDbSymbolTableRecord
100
AcDbTextStyleTableRecord
  2
Standard
 70
     0
 40
0.0
 41
1.0
 50
0.0
 71
     0
 42
3.5
  3
txt
  4

  0
STYLE
  5
94
330
3
100
AcDbSymbolTableRecord
100
AcDbTextStyleTableRecord
  2
SLDTEXTSTYLE0
 70
     0
 40
0.0
 41
0.75
 50
0.0
 71
     0
 42
3.5
  3
TXT
  4

  0
ENDTAB
  0
TABLE
  2
VIEW
  5
6
330
0
100
AcDbSymbolTable
 70
     0
  0
ENDTAB
  0
TABLE
  2
UCS
  5
7
330
0
100
AcDbSymbolTable
 70
     0
  0
ENDTAB
  0
TABLE
  2
APPID
  5
9
330
0
100
AcDbSymbolTable
 70
     2
  0
APPID
  5
12
330
9
100
AcDbSymbolTableRecord
100
AcDbRegAppTableRecord
  2
ACAD
 70
     0
  0
APPID
  5
168
330
9
100
AcDbSymbolTableRecord
100
AcDbRegAppTableRecord
  2
PE_DIMMEASUREMENT
 70
     0
  0
ENDTAB
  0
TABLE
  2
DIMSTYLE
  5
A
330
0
100
AcDbSymbolTable
 70
     4
100
AcDbDimStyleTable
  0
DIMSTYLE
105
27
330
A
100
AcDbSymbolTableRecord
100
AcDbDimStyleTableRecord
  2
ISO-25
 70
     0
 41
2.5
 42
0.625
 43
3.75
 44
1.25
 73
     0
 74
     0
 77
     1
 78
     8
140
2.5
141
2.5
143
0.03937007874016
147
0.625
171
     3
172
     1
178
     0
271
     2
272
     2
274
     3
278
    44
283
     0
284
     8
340
11
  0
DIMSTYLE
105
C9
330
A
100
AcDbSymbolTableRecord
100
AcDbDimStyleTableRecord
  2
SLDDIMSTYLE0
 70
     0
 41
3.302
 44
0.0
 45
0.000000001
 73
     0
 74
     0
 77
     1
 78
    12
 79
     3
140
3.5
143
0.0393700787401575
147
0.875
148
0.000000001
170
     1
173
     1
178
     0
271
     2
272
     2
276
     2
284
    12
340
94
  0
DIMSTYLE
105
DE
330
A
100
AcDbSymbolTableRecord
100
AcDbDimStyleTableRecord
  2
SLDDIMSTYLE1
 70
     0
 41
3.302
 44
0.0
 45
0.000000001
 73
     0
 74
     0
 77
     1
 78
     4
 79
     1
140
3.5
143
0.0393700787401575
147
0.875
148
0.000000001
170
     1
173
     1
178
     0
271
     2
272
     2
276
     2
284
    12
340
94
  0
DIMSTYLE
105
F2
102
{ACAD_REACTORS
330
F1
330
C8
330
DD
330
156
102
}
330
A
100
AcDbSymbolTableRecord
100
AcDbDimStyleTableRecord
  2
SLDDIMSTYLE2
 70
     0
 41
3.302
 44
0.0
 45
0.000000001
 73
     0
 74
     0
 77
     1
 78
    12
 79
     3
140
3.5
143
0.0393700787401575
147
0.875
148
0.000000001
170
     1
172
     1
173
     1
178
     0
271
     2
272
     2
276
     2
284
    12
289
     0
340
94
  0
ENDTAB
  0
TABLE
  2
BLOCK_RECORD
  5
1
330
0
100
AcDbSymbolTable
 70
     8
  0
BLOCK_RECORD
  5
1F
330
1
100
AcDbSymbolTableRecord
100
AcDbBlockTableRecord
  2
*Model_Space
340
22
  0
BLOCK_RECORD
  5
1B
330
1
100
AcDbSymbolTableRecord
100
AcDbBlockTableRecord
  2
*Paper_Space
340
1E
  0
BLOCK_RECORD
  5
23
330
1
100
AcDbSymbolTableRecord
100
AcDbBlockTableRecord
  2
*Paper_Space0
340
26
  0
BLOCK_RECORD
  5
7F
330
1
100
AcDbSymbolTableRecord
100
AcDbBlockTableRecord
  2
블럭10
340
0
102
{BLKREFS
331
BF
102
}
  0
BLOCK_RECORD
  5
CA
330
1
100
AcDbSymbolTableRecord
100
AcDbBlockTableRecord
  2
_D
340
0
  0
BLOCK_RECORD
  5
DF
330
1
100
AcDbSymbolTableRecord
100
AcDbBlockTableRecord
  2
_D_1
340
0
  0
BLOCK_RECORD
  5
F3
330
1
100
AcDbSymbolTableRecord
100
AcDbBlockTableRecord
  2
_D_2
340
0
  0
BLOCK_RECORD
  5
107
330
1
100
AcDbSymbolTableRecord
100
AcDbBlockTableRecord
  2
_D_3
340
0
  0
BLOCK_RECORD
  5
120
330
1
100
AcDbSymbolTableRecord
100
AcDbBlockTableRecord
  2
SW_DOWELSYMBOL_0
340
0
102
{BLKREFS
331
126
102
}
  0
BLOCK_RECORD
  5
159
330
1
100
AcDbSymbolTableRecord
100
AcDbBlockTableRecord
  2
*D7
340
0
  0
ENDTAB
  0
ENDSEC
  0
SECTION
  2
BLOCKS
  0
BLOCK
  5
20
330
1F
100
AcDbEntity
  8
0
100
AcDbBlockBegin
  2
*Model_Space
 70
     0
 10
0.0
 20
0.0
 30
0.0
  3
*Model_Space
  1
*Model_Space
  0
ENDBLK
  5
21
330
1F
100
AcDbEntity
  8
0
100
AcDbBlockEnd
  0
BLOCK
  5
1C
330
1B
100
AcDbEntity
 67
     1
  8
0
100
AcDbBlockBegin
  2
*Paper_Space
 70
     0
 10
0.0
 20
0.0
 30
0.0
  3
*Paper_Space
  1
*Paper_Space
  0
ENDBLK
  5
1D
330
1B
100
AcDbEntity
 67
     1
  8
0
100
AcDbBlockEnd
  0
BLOCK
  5
24
330
23
100
AcDbEntity
  8
0
100
AcDbBlockBegin
  2
*Paper_Space0
 70
     0
 10
0.0
 20
0.0
 30
0.0
  3
*Paper_Space0
  1
*Paper_Space0
  0
ENDBLK
  5
25
330
23
100
AcDbEntity
  8
0
100
AcDbBlockEnd
  0
BLOCK
  5
80
330
7F
100
AcDbEntity
  8
0
100
AcDbBlockBegin
  2
블럭10
 70
     2
 10
0.0
 20
0.0
 30
0.0
  3
블럭10
  1
블럭10
  0
ELLIPSE
  5
82
330
7F
100
AcDbEntity
  8
중심선
100
AcDbEllipse
 10
20.54032771741204
 20
12.0471743016438
 30
0.0
 11
6.600054785286829
 21
-1.261213355974178E-13
 31
0.0
210
0.0
220
0.0
230
1.0
 40
0.636358354079598
 41
0.9219305317359503
 42
6.513795318482858
  0
ELLIPSE
  5
83
330
7F
100
AcDbEntity
  8
중심선
100
AcDbEllipse
 10
20.54032771746488
 20
12.04717430159265
 30
0.0
 11
3.960054785062283
 21
1.540847449632565E-10
 31
0.0
210
0.0
220
0.0
230
1.0
 40
0.3939339440162632
 41
1.131841032648279
 42
5.62031148352944
  0
LINE
  5
84
330
7F
100
AcDbEntity
  8
중심선
100
AcDbLine
 10
2.268634060543552
 20
16.24717430164393
 30
0.0
 11
5.714909304380834
 21
16.24717430164393
 31
0.0
  0
LINE
  5
85
330
7F
100
AcDbEntity
  8
중심선
100
AcDbLine
 10
5.245725140726316
 20
7.84717430164391
 30
0.0
 11
8.692000384563599
 21
7.84717430164391
 31
0.0
  0
LINE
  5
86
330
7F
100
AcDbEntity
  8
중심선
100
AcDbLine
 10
15.74043728645272
 20
16.24717430164393
 30
0.0
 11
8.692000384563599
 21
7.84717430164391
 31
0.0
  0
LINE
  5
87
330
7F
100
AcDbEntity
  8
중심선
100
AcDbLine
 10
0.1404042013395286
 20
13.71084872107135
 30
0.0
 11
3.58671253028996
 21
13.71088815037384
 31
0.0
  0
LINE
  5
88
330
7F
100
AcDbEntity
  8
중심선
100
AcDbLine
 10
2.750260043222114
 20
10.84717430164391
 30
0.0
 11
6.196535287059397
 21
10.84717430164391
 31
0.0
  0
LINE
  5
89
330
7F
100
AcDbEntity
  8
중심선
100
AcDbLine
 10
12.29416204261559
 20
16.24717430164393
 30
0.0
 11
5.245725140726316
 21
7.84717430164391
 31
0.0
  0
LINE
  5
8A
330
7F
100
AcDbEntity
  8
중심선
100
AcDbLine
 10
10.72767329541681
 20
16.24717430164393
 30
0.0
 11
6.196535287059397
 21
10.84717430164391
 31
0.0
  0
LINE
  5
8B
330
7F
100
AcDbEntity
  8
중심선
100
AcDbLine
 10
7.28139805157953
 20
16.24717430164393
 30
0.0
 11
2.750260043222114
 21
10.84717430164391
 31
0.0
  0
LINE
  5
8C
330
7F
100
AcDbEntity
  8
중심선
100
AcDbLine
 10
5.714909304380834
 20
16.24717430164393
 30
0.0
 11
3.58671253028996
 21
13.71088815037384
 31
0.0
  0
LINE
  5
8D
330
7F
100
AcDbEntity
  8
중심선
100
AcDbLine
 10
2.268634060543552
 20
16.24717430164393
 30
0.0
 11
0.1404042013395286
 21
13.71084872107135
 31
0.0
  0
LINE
  5
8E
330
7F
100
AcDbEntity
  8
중심선
100
AcDbLine
 10
7.28139805157953
 20
16.24717430164393
 30
0.0
 11
10.72767329541681
 21
16.24717430164393
 31
0.0
  0
LINE
  5
8F
330
7F
100
AcDbEntity
  8
중심선
100
AcDbLine
 10
12.29416204261559
 20
16.24717430164393
 30
0.0
 11
15.74043728645272
 21
16.24717430164393
 31
0.0
  0
LINE
  5
90
330
7F
100
AcDbEntity
  8
중심선
100
AcDbLine
 10
19.22036997980202
 20
11.08717430171403
 30
0.0
 11
23.66174974927406
 21
11.08717430171406
 31
0.0
  0
LINE
  5
91
330
7F
100
AcDbEntity
  8
중심선
100
AcDbLine
 10
19.22039502424796
 20
13.00717430171391
 30
0.0
 11
19.22036997980202
 21
11.08717430171403
 31
0.0
  0
LINE
  5
92
330
7F
100
AcDbEntity
  8
중심선
100
AcDbLine
 10
19.22039502424796
 20
13.00717430171391
 30
0.0
 11
26.96566020931264
 21
13.00717430171391
 31
0.0
  0
LINE
  5
93
330
7F
100
AcDbEntity
  8
중심선
100
AcDbLine
 10
22.22332737316547
 20
13.45928029700563
 30
0.0
 11
24.52862924686651
 21
15.39360700705356
 31
0.0
  0
ATTDEF
  5
95
330
7F
100
AcDbEntity
  8
FORMAT
 62
     2
100
AcDbText
 10
5.200277315438102
 20
2.075366912832191
 30
0.0
 40
4.233333333333333
  1
EI099024
 41
0.75
  7
SLDTEXTSTYLE0
 11
5.200277315438102
 21
-0.0412997538344756
 31
0.0
100
AcDbAttributeDefinition
  3

  2
AUTOATTR0
 70
     0
 74
     1
  0
ENDBLK
  5
81
330
7F
100
AcDbEntity
  8
0
100
AcDbBlockEnd
  0
BLOCK
  5
CB
330
CA
100
AcDbEntity
  8
0
100
AcDbBlockBegin
  2
_D
 70
     0
 10
0.0
 20
0.0
 30
0.0
  3
_D
  1
_D
  0
LINE
  5
CD
330
CA
100
AcDbEntity
  8
치수문자_일반주서
 62
     0
370
    -2
100
AcDbLine
 10
32.79499999999999
 20
4.888574928723894
 30
0.0
 11
32.79499999999999
 21
19.00000000000002
 31
0.0
  0
LINE
  5
CE
330
CA
100
AcDbEntity
  8
치수문자_일반주서
 62
     0
370
    -2
100
AcDbLine
 10
10.57
 20
1.563860048219075
 30
0.0
 11
10.57
 21
19.00000000000002
 31
0.0
  0
LINE
  5
CF
330
CA
100
AcDbEntity
  8
치수문자_일반주서
 62
     0
370
    -2
100
AcDbLine
 10
10.57
 20
19.00000000000002
 30
0.0
 11
-22.284
 21
19.00000000000002
 31
0.0
  0
LINE
  5
D0
330
CA
100
AcDbEntity
  8
치수문자_일반주서
 62
     0
370
    -2
100
AcDbLine
 10
32.79499999999999
 20
19.00000000000002
 30
0.0
 11
10.57
 21
19.00000000000002
 31
0.0
  0
LINE
  5
D1
330
CA
100
AcDbEntity
  8
치수문자_일반주서
 62
     0
370
    -2
100
AcDbLine
 10
36.09699999999999
 20
19.00000000000002
 30
0.0
 11
39.39899999999999
 21
19.00000000000002
 31
0.0
  0
LINE
  5
D2
330
CA
100
AcDbEntity
  8
치수문자_일반주서
 62
     0
370
    -2
100
AcDbLine
 10
7.267999999999997
 20
19.00000000000002
 30
0.0
 11
3.965999999999998
 21
19.00000000000002
 31
0.0
  0
SOLID
  5
D3
330
CA
100
AcDbEntity
  8
치수문자_일반주서
 62
     0
100
AcDbTrace
 10
36.09699999999999
 20
19.55033333333335
 30
0.0
 11
36.09699999999999
 21
18.44966666666668
 31
0.0
 12
32.79499999999999
 22
19.00000000000002
 32
0.0
 13
32.79499999999999
 23
19.00000000000002
 33
0.0
  0
SOLID
  5
D4
330
CA
100
AcDbEntity
  8
치수문자_일반주서
 62
     0
100
AcDbTrace
 10
7.267999999999997
 20
18.44966666666668
 30
0.0
 11
7.267999999999997
 21
19.55033333333335
 31
0.0
 12
10.57
 22
19.00000000000002
 32
0.0
 13
10.57
 23
19.00000000000002
 33
0.0
  0
MTEXT
  5
D5
330
CA
100
AcDbEntity
  8
치수문자_일반주서
 62
     0
100
AcDbMText
 10
-9.159000000000002
 20
23.37500000000002
 30
0.0
 40
3.5
 41
0.0
 71
     2
 72
     1
  1
\A1;22.23 [7/8]
  7
SLDTEXTSTYLE0
 73
     1
 44
1.0
  0
POINT
  5
D6
330
CA
100
AcDbEntity
  8
Defpoints
 62
     0
100
AcDbPoint
 10
32.79499999999999
 20
4.826074928723894
 30
0.0
  0
POINT
  5
16F
330
CA
100
AcDbEntity
  8
Defpoints
 62
     0
100
AcDbPoint
 10
10.57
 20
1.501360048219075
 30
0.0
  0
POINT
  5
170
330
CA
100
AcDbEntity
  8
Defpoints
 62
     0
100
AcDbPoint
 10
10.57
 20
19.00000000000002
 30
0.0
  0
ENDBLK
  5
CC
330
CA
100
AcDbEntity
  8
0
100
AcDbBlockEnd
  0
BLOCK
  5
E0
330
DF
100
AcDbEntity
  8
0
100
AcDbBlockBegin
  2
_D_1
 70
     0
 10
0.0
 20
0.0
 30
0.0
  3
_D_1
  1
_D_1
  0
LINE
  5
E2
330
DF
100
AcDbEntity
  8
치수문자_일반주서
 62
     0
370
    -2
100
AcDbLine
 10
32.79499999999999
 20
4.826074928723894
 30
0.0
 11
32.79499999999999
 21
35.58857492872392
 31
0.0
  0
LINE
  5
E3
330
DF
100
AcDbEntity
  8
치수문자_일반주서
 62
     0
370
    -2
100
AcDbLine
 10
-30.70500000000001
 20
3.826074928723895
 30
0.0
 11
-30.70500000000001
 21
35.58857492872392
 31
0.0
  0
LINE
  5
E4
330
DF
100
AcDbEntity
  8
치수문자_일반주서
 62
     0
370
    -2
100
AcDbLine
 10
29.49299999999999
 20
35.58857492872392
 30
0.0
 11
-27.40300000000001
 21
35.58857492872392
 31
0.0
  0
SOLID
  5
E5
330
DF
100
AcDbEntity
  8
치수문자_일반주서
 62
     0
100
AcDbTrace
 10
29.49299999999999
 20
35.03824159539058
 30
0.0
 11
29.49299999999999
 21
36.13890826205725
 31
0.0
 12
32.79499999999999
 22
35.58857492872392
 32
0.0
 13
32.79499999999999
 23
35.58857492872392
 33
0.0
  0
SOLID
  5
E6
330
DF
100
AcDbEntity
  8
치수문자_일반주서
 62
     0
100
AcDbTrace
 10
-27.40300000000001
 20
36.13890826205725
 30
0.0
 11
-27.40300000000001
 21
35.03824159539058
 31
0.0
 12
-30.70500000000001
 22
35.58857492872392
 32
0.0
 13
-30.70500000000001
 23
35.58857492872392
 33
0.0
  0
MTEXT
  5
E7
330
DF
100
AcDbEntity
  8
치수문자_일반주서
 62
     0
100
AcDbMText
 10
2.246963321353069
 20
39.96357492872392
 30
0.0
 40
3.5
 41
0.0
 71
     2
 72
     1
  1
\A1;63.5 [2 1/2]
  7
SLDTEXTSTYLE0
 73
     1
 44
1.0
  0
POINT
  5
E8
330
DF
100
AcDbEntity
  8
Defpoints
 62
     0
100
AcDbPoint
 10
32.79499999999999
 20
4.763574928723894
 30
0.0
  0
POINT
  5
E9
330
DF
100
AcDbEntity
  8
Defpoints
 62
     0
100
AcDbPoint
 10
-30.70500000000001
 20
3.763574928723895
 30
0.0
  0
POINT
  5
EA
330
DF
100
AcDbEntity
  8
Defpoints
 62
     0
100
AcDbPoint
 10
-30.70500000000001
 20
35.58857492872392
 30
0.0
  0
ENDBLK
  5
E1
330
DF
100
AcDbEntity
  8
0
100
AcDbBlockEnd
  0
BLOCK
  5
F4
330
F3
100
AcDbEntity
  8
0
100
AcDbBlockBegin
  2
_D_2
 70
     0
 10
0.0
 20
0.0
 30
0.0
  3
_D_2
  1
_D_2
  0
LINE
  5
F6
330
F3
100
AcDbEntity
  8
치수문자_일반주서
 62
     0
370
    -2
100
AcDbLine
 10
-29.76750000000001
 20
4.763574928723898
 30
0.0
 11
-39.34432186858626
 21
4.763574928723862
 31
0.0
  0
LINE
  5
F7
330
F3
100
AcDbEntity
  8
치수문자_일반주서
 62
     0
370
    -2
100
AcDbLine
 10
-29.76750000000001
 20
-4.761425071276108
 30
0.0
 11
-39.34432186858623
 21
-4.761425071276143
 31
0.0
  0
LINE
  5
F8
330
F3
100
AcDbEntity
  8
치수문자_일반주서
 62
     0
370
    -2
100
AcDbLine
 10
-39.34432186858626
 20
4.763574928723862
 30
0.0
 11
-39.34432186858638
 21
37.61757492872386
 31
0.0
  0
LINE
  5
F9
330
F3
100
AcDbEntity
  8
치수문자_일반주서
 62
     0
370
    -2
100
AcDbLine
 10
-39.34432186858626
 20
4.763574928723862
 30
0.0
 11
-39.34432186858623
 21
-4.761425071276143
 31
0.0
  0
LINE
  5
FA
330
F3
100
AcDbEntity
  8
치수문자_일반주서
 62
     0
370
    -2
100
AcDbLine
 10
-39.34432186858628
 20
8.065574928723862
 30
0.0
 11
-39.34432186858629
 21
11.36757492872386
 31
0.0
  0
LINE
  5
FB
330
F3
100
AcDbEntity
  8
치수문자_일반주서
 62
     0
370
    -2
100
AcDbLine
 10
-39.34432186858621
 20
-8.063425071276143
 30
0.0
 11
-39.3443218685862
 21
-11.36542507127614
 31
0.0
  0
SOLID
  5
FC
330
F3
100
AcDbEntity
  8
치수문자_일반주서
 62
     0
100
AcDbTrace
 10
-39.89465520191961
 20
8.06557492872386
 30
0.0
 11
-38.79398853525294
 21
8.065574928723864
 31
0.0
 12
-39.34432186858626
 22
4.763574928723862
 32
0.0
 13
-39.34432186858626
 23
4.763574928723862
 33
0.0
  0
SOLID
  5
FD
330
F3
100
AcDbEntity
  8
치수문자_일반주서
 62
     0
100
AcDbTrace
 10
-38.79398853525288
 20
-8.063425071276141
 30
0.0
 11
-39.89465520191955
 21
-8.063425071276145
 31
0.0
 12
-39.34432186858623
 22
-4.761425071276143
 32
0.0
 13
-39.34432186858623
 23
-4.761425071276143
 33
0.0
  0
MTEXT
  5
FE
330
F3
100
AcDbEntity
  8
치수문자_일반주서
 62
     0
100
AcDbMText
 10
-43.71932186858633
 20
24.49257492872384
 30
0.0
 40
3.5
 41
0.0
 71
     2
 72
     1
  1
\A1;%%c9.53 [3/8]
  7
SLDTEXTSTYLE0
 11
-3.729883127349605E-15
 21
1.0
 31
0.0
 73
     1
 44
1.0
  0
POINT
  5
169
330
F3
100
AcDbEntity
  8
Defpoints
 62
     0
100
AcDbPoint
 10
-29.70500000000001
 20
4.763574928723898
 30
0.0
  0
POINT
  5
172
330
F3
100
AcDbEntity
  8
Defpoints
 62
     0
100
AcDbPoint
 10
-29.70500000000001
 20
-4.761425071276108
 30
0.0
  0
POINT
  5
173
330
F3
100
AcDbEntity
  8
Defpoints
 62
     0
100
AcDbPoint
 10
-39.34432186858623
 20
-4.761425071276141
 30
0.0
  0
ENDBLK
  5
F5
330
F3
100
AcDbEntity
  8
0
100
AcDbBlockEnd
  0
BLOCK
  5
108
330
107
100
AcDbEntity
  8
0
100
AcDbBlockBegin
  2
_D_3
 70
     0
 10
0.0
 20
0.0
 30
0.0
  3
_D_3
  1
_D_3
  0
SOLID
  5
10A
330
107
100
AcDbEntity
  8
치수문자_일반주서
100
AcDbTrace
 10
37.31794874425535
 20
4.763574928723894
 30
0.0
 11
36.80994874425535
 21
1.461574928723894
 31
0.0
 12
37.82594874425536
 22
1.461574928723894
 32
0.0
 13
37.82594874425536
 23
1.461574928723894
 33
0.0
  0
SOLID
  5
10B
330
107
100
AcDbEntity
  8
치수문자_일반주서
100
AcDbTrace
 10
37.31794874425535
 20
-4.761425071276105
 30
0.0
 11
37.82594874425536
 21
-1.459425071276105
 31
0.0
 12
36.80994874425535
 22
-1.459425071276105
 32
0.0
 13
36.80994874425535
 23
-1.459425071276105
 33
0.0
  0
LINE
  5
10C
330
107
100
AcDbEntity
  8
치수문자_일반주서
100
AcDbLine
 10
26.52506702821264
 20
35.28848269930121
 30
0.0
 11
26.52506702821265
 21
34.57754521373671
 31
0.0
  0
LINE
  5
10D
330
107
100
AcDbEntity
  8
치수문자_일반주서
100
AcDbLine
 10
26.52506702821265
 20
34.57754521373671
 30
0.0
 11
32.08131701927195
 21
34.57754521373676
 31
0.0
  0
LINE
  5
10E
330
107
100
AcDbEntity
  8
치수문자_일반주서
100
AcDbLine
 10
32.08131701927195
 20
34.57754521373676
 30
0.0
 11
32.08131701927194
 21
35.28848269930126
 31
0.0
  0
LINE
  5
10F
330
107
100
AcDbEntity
  8
치수문자_일반주서
100
AcDbLine
 10
26.52506702821256
 20
46.11721556143847
 30
0.0
 11
26.52506702821256
 21
46.82815304700297
 31
0.0
  0
LINE
  5
110
330
107
100
AcDbEntity
  8
치수문자_일반주서
100
AcDbLine
 10
26.52506702821256
 20
46.82815304700297
 30
0.0
 11
32.08131701927186
 21
46.82815304700301
 31
0.0
  0
LINE
  5
111
330
107
100
AcDbEntity
  8
치수문자_일반주서
100
AcDbLine
 10
32.08131701927186
 20
46.82815304700301
 30
0.0
 11
32.08131701927186
 21
46.11721556143851
 31
0.0
  0
LINE
  5
112
330
107
100
AcDbEntity
  8
치수문자_일반주서
100
AcDbLine
 10
19.29887138898972
 20
4.763574928723894
 30
0.0
 11
38.31794874425535
 21
4.763574928723894
 31
0.0
  0
LINE
  5
113
330
107
100
AcDbEntity
  8
치수문자_일반주서
100
AcDbLine
 10
19.29887138899034
 20
-4.761425071276104
 30
0.0
 11
38.31794874425535
 21
-4.761425071276105
 31
0.0
  0
LINE
  5
114
330
107
100
AcDbEntity
  8
치수문자_일반주서
100
AcDbLine
 10
37.31794874425535
 20
4.763574928723894
 30
0.0
 11
37.31794874425535
 21
47.86776282567551
 31
0.0
  0
LINE
  5
115
330
107
100
AcDbEntity
  8
치수문자_일반주서
100
AcDbLine
 10
37.31794874425535
 20
4.763574928723894
 30
0.0
 11
37.31794874425535
 21
-4.761425071276105
 31
0.0
  0
MTEXT
  5
116
330
107
100
AcDbEntity
  8
치수문자_일반주서
100
AcDbMText
 10
27.56958010469305
 20
36.17715459991259
 30
0.0
 40
3.5
 41
0.0
 71
     1
 72
     1
  1
0.38
  7
SLDTEXTSTYLE0
 11
-7.044195017643634E-15
 21
1.0
 31
0.0
 73
     1
 44
1.0
  0
MTEXT
  5
117
330
107
100
AcDbEntity
  8
치수문자_일반주서
100
AcDbMText
 10
32.80621165505352
 20
33.5379354350643
 30
0.0
 40
3.5
 41
0.0
 71
     1
 72
     1
  1
%%c
  7
SLDTEXTSTYLE0
 11
-7.044195017643634E-15
 21
1.0
 31
0.0
 73
     1
 44
1.0
  0
MTEXT
  5
118
330
107
100
AcDbEntity
  8
치수문자_일반주서
100
AcDbMText
 10
32.8062116550535
 20
38.81637283343838
 30
0.0
 40
3.5
 41
0.0
 71
     1
 72
     1
  1
9.53
  7
SLDTEXTSTYLE0
 11
-7.044195017643634E-15
 21
1.0
 31
0.0
 73
     1
 44
1.0
  0
ENDBLK
  5
109
330
107
100
AcDbEntity
  8
0
100
AcDbBlockEnd
  0
BLOCK
  5
121
330
120
100
AcDbEntity
  8
0
100
AcDbBlockBegin
  2
SW_DOWELSYMBOL_0
 70
     0
 10
0.0
 20
0.0
 30
0.0
  3
SW_DOWELSYMBOL_0
  1
SW_DOWELSYMBOL_0
  0
CIRCLE
  5
123
330
120
100
AcDbEntity
  8
해칭선
 62
     0
100
AcDbCircle
 10
0.0
 20
0.0
 30
0.0
 40
3.000000000000001
  0
HATCH
  5
124
330
120
100
AcDbEntity
  8
0
  6
Continuous
 62
     0
370
     0
100
AcDbHatch
 10
0.0
 20
0.0
 30
0.0
210
0.0
220
0.0
230
1.0
  2
SOLID
 70
     1
 71
     0
 91
        1
 92
        0
 93
        3
 72
     2
 10
0.0
 20
0.0
 40
3.000000000000001
 50
0.0
 51
90.0
 73
     1
 72
     1
 10
0.0
 20
3.000000000000001
 11
0.0
 21
0.0
 72
     1
 10
0.0
 20
0.0
 11
3.000000000000001
 21
0.0
 97
        0
 75
     0
 76
     1
 98
        1
 10
0.0
 20
0.0
  0
HATCH
  5
125
330
120
100
AcDbEntity
  8
0
  6
Continuous
 62
     0
370
     0
100
AcDbHatch
 10
0.0
 20
0.0
 30
0.0
210
0.0
220
0.0
230
1.0
  2
SOLID
 70
     1
 71
     0
 91
        1
 92
        0
 93
        3
 72
     2
 10
0.0
 20
0.0
 40
3.000000000000001
 50
180.0
 51
270.0000000000008
 73
     1
 72
     1
 10
0.0
 20
-3.000000000000001
 11
0.0
 21
0.0
 72
     1
 10
0.0
 20
0.0
 11
-3.000000000000001
 21
0.0
 97
        0
 75
     0
 76
     1
 98
        1
 10
0.0
 20
0.0
  0
ENDBLK
  5
122
330
120
100
AcDbEntity
  8
0
100
AcDbBlockEnd
  0
BLOCK
  5
15A
330
159
100
AcDbEntity
  8
0
100
AcDbBlockBegin
  2
*D7
 70
     1
 10
0.0
 20
0.0
 30
0.0
  3
*D7
  1
*D7
  0
LINE
  5
15C
330
159
100
AcDbEntity
  8
치수문자_일반주서
 62
     0
370
    -2
100
AcDbLine
 10
32.85749999999999
 20
-4.761425071276104
 30
0.0
 11
48.83338085188235
 21
-4.761425071276107
 31
0.0
  0
LINE
  5
15D
330
159
100
AcDbEntity
  8
치수문자_일반주서
 62
     0
370
    -2
100
AcDbLine
 10
32.85749999999999
 20
4.763574928723894
 30
0.0
 11
48.83338085188235
 21
4.763574928723894
 31
0.0
  0
LINE
  5
15E
330
159
100
AcDbEntity
  8
치수문자_일반주서
 62
     0
370
    -2
100
AcDbLine
 10
48.83338085188235
 20
8.065574928723894
 30
0.0
 11
48.83338085188235
 21
37.6175749287239
 31
0.0
  0
LINE
  5
15F
330
159
100
AcDbEntity
  8
치수문자_일반주서
 62
     0
370
    -2
100
AcDbLine
 10
48.83338085188235
 20
-4.761425071276107
 30
0.0
 11
48.83338085188235
 21
4.763574928723894
 31
0.0
  0
LINE
  5
160
330
159
100
AcDbEntity
  8
치수문자_일반주서
 62
     0
370
    -2
100
AcDbLine
 10
48.83338085188235
 20
-8.063425071276107
 30
0.0
 11
48.83338085188235
 21
-11.36542507127611
 31
0.0
  0
SOLID
  5
161
330
159
100
AcDbEntity
  8
치수문자_일반주서
 62
     0
100
AcDbTrace
 10
49.38371418521569
 20
-8.063425071276107
 30
0.0
 11
48.28304751854902
 21
-8.063425071276107
 31
0.0
 12
48.83338085188235
 22
-4.761425071276107
 32
0.0
 13
48.83338085188235
 23
-4.761425071276107
 33
0.0
  0
SOLID
  5
162
330
159
100
AcDbEntity
  8
치수문자_일반주서
 62
     0
100
AcDbTrace
 10
48.28304751854902
 20
8.065574928723894
 30
0.0
 11
49.38371418521569
 21
8.065574928723894
 31
0.0
 12
48.83338085188235
 22
4.763574928723894
 32
0.0
 13
48.83338085188235
 23
4.763574928723894
 33
0.0
  0
MTEXT
  5
163
330
159
100
AcDbEntity
  8
치수문자_일반주서
 62
     0
100
AcDbMText
 10
46.20838085188235
 20
24.49257492872389
 30
0.0
 40
3.5
 41
0.0
 71
     5
 72
     1
  1
\A1;{%%c9.53 [3/8]}
  7
SLDTEXTSTYLE0
 11
0.0
 21
1.0
 31
0.0
 73
     1
 44
1.0
  0
POINT
  5
164
330
159
100
AcDbEntity
  8
Defpoints
 62
     0
100
AcDbPoint
 10
32.79499999999999
 20
-4.761425071276104
 30
0.0
  0
POINT
  5
165
330
159
100
AcDbEntity
  8
Defpoints
 62
     0
100
AcDbPoint
 10
32.79499999999999
 20
4.763574928723894
 30
0.0
  0
POINT
  5
171
330
159
100
AcDbEntity
  8
Defpoints
 62
     0
100
AcDbPoint
 10
48.83338085188235
 20
4.763574928723894
 30
0.0
  0
ENDBLK
  5
15B
330
159
100
AcDbEntity
  8
0
100
AcDbBlockEnd
  0
ENDSEC
  0
SECTION
  2
ENTITIES
  0
LINE
  5
96
330
1F
100
AcDbEntity
  8
외형선
  6
Continuous
370
    15
100
AcDbLine
 10
9.050409734194254
 20
4.763574928723896
 30
0.0
 11
-29.70500000000001
 21
4.763574928723891
 31
0.0
  0
LINE
  5
97
330
1F
100
AcDbEntity
  8
외형선
  6
Continuous
370
    15
100
AcDbLine
 10
-29.70500000000001
 20
-4.761425071276111
 30
0.0
 11
9.050409734194254
 21
-4.761425071276106
 31
0.0
  0
LINE
  5
98
330
1F
100
AcDbEntity
  8
외형선
  6
Continuous
370
    15
100
AcDbLine
 10
-29.70500000000001
 20
4.763574928723891
 30
0.0
 11
-30.70500000000001
 21
3.76357492872389
 31
0.0
  0
LINE
  5
99
330
1F
100
AcDbEntity
  8
외형선
  6
Continuous
370
    15
100
AcDbLine
 10
-30.70500000000001
 20
-3.761425071276111
 30
0.0
 11
-29.70500000000001
 21
-4.761425071276111
 31
0.0
  0
LINE
  5
9A
330
1F
100
AcDbEntity
  8
외형선
  6
Continuous
 62
     1
370
    15
100
AcDbLine
 10
18.29917877776687
 20
4.763574928723894
 30
0.0
 11
12.54454541016931
 21
4.763574928723894
 31
0.0
  0
LINE
  5
9B
330
1F
100
AcDbEntity
  8
외형선
  6
Continuous
 62
     1
370
    15
100
AcDbLine
 10
12.54454541016931
 20
-4.761425071276104
 30
0.0
 11
18.29917877776687
 21
-4.761425071276104
 31
0.0
  0
ARC
  5
9C
330
1F
100
AcDbEntity
  8
외형선
  6
Continuous
 62
     1
370
    15
100
AcDbCircle
 10
28.0325
 20
0.0010749287238953
 30
0.0
 40
4.762499999999998
100
AcDbArc
 50
323.0909687154099
 51
0.0
  0
ARC
  5
9D
330
1F
100
AcDbEntity
  8
외형선
  6
Continuous
 62
     1
370
    15
100
AcDbCircle
 10
28.0325
 20
0.0010749287238953
 30
0.0
 40
4.762499999999996
100
AcDbArc
 50
0.0
 51
36.87393075574018
  0
SPLINE
  5
9E
330
1F
100
AcDbEntity
  8
외형선
  6
Continuous
370
    15
100
AcDbSpline
210
0.0
220
0.0
230
1.0
 70
     8
 71
     3
 72
    10
 73
     6
 74
     0
 42
0.000000001
 43
0.00000001
 40
0.0
 40
0.0
 40
0.0
 40
0.0
 40
0.4999999999999999
 40
0.4999999999999999
 40
1.0
 40
1.0
 40
1.0
 40
1.0
 10
10.56999999999999
 20
-4.530945138002087
 30
0.0
 10
10.31556676472041
 20
-4.472181314957359
 30
0.0
 10
10.06073189185066
 20
-4.402389677125992
 30
0.0
 10
9.555762945792253
 20
-4.242424666020894
 30
0.0
 10
9.304270841439832
 20
-4.152166459073504
 30
0.0
 10
9.050066975244544
 20
-4.051776337042408
 30
0.0
  0
LINE
  5
9F
330
1F
100
AcDbEntity
  8
외형선
  6
Continuous
370
    15
100
AcDbLine
 10
9.050409734194254
 20
-4.761425071276106
 30
0.0
 11
9.050409734194254
 21
-4.0516659548689
 31
0.0
  0
SPLINE
  5
A0
330
1F
100
AcDbEntity
  8
외형선
  6
Continuous
370
    15
100
AcDbSpline
210
0.0
220
0.0
230
1.0
 70
     8
 71
     3
 72
    10
 73
     6
 74
     0
 42
0.000000001
 43
0.00000001
 40
0.0
 40
0.0
 40
0.0
 40
0.0
 40
0.4999999999999999
 40
0.4999999999999999
 40
1.0
 40
1.0
 40
1.0
 40
1.0
 10
10.56999999999999
 20
4.533094995449878
 30
0.0
 10
10.31556676472041
 20
4.474331172405151
 30
0.0
 10
10.06073189185066
 20
4.404539534573781
 30
0.0
 10
9.555762945792251
 20
4.244574523468686
 30
0.0
 10
9.30427084143983
 20
4.154316316521295
 30
0.0
 10
9.050066975244542
 20
4.0539261944902
 30
0.0
  0
SPLINE
  5
A1
330
1F
100
AcDbEntity
  8
외형선
  6
Continuous
370
    15
100
AcDbSpline
210
0.0
220
0.0
230
1.0
 70
     8
 71
     3
 72
    10
 73
     6
 74
     0
 42
0.000000001
 43
0.00000001
 40
0.0
 40
0.0
 40
0.0
 40
0.0
 40
0.5
 40
0.5
 40
1.0
 40
1.0
 40
1.0
 40
1.0
 10
10.56999999999999
 20
-1.621644885581759
 30
0.0
 10
10.31562394284785
 20
-1.441915149122042
 30
0.0
 10
10.06084642522093
 20
-1.258157492535593
 30
0.0
 10
9.555988854254494
 20
-0.8866104565197329
 30
0.0
 10
9.304555670165886
 20
-0.6985028174079719
 30
0.0
 10
9.050409734194254
 20
-0.5084885753554278
 30
0.0
  0
LINE
  5
A2
330
1F
100
AcDbEntity
  8
외형선
  6
Continuous
370
    15
100
AcDbLine
 10
10.56999999999999
 20
-1.621644885581758
 30
0.0
 11
10.56999999999999
 21
-4.530945138002089
 31
0.0
  0
LINE
  5
A3
330
1F
100
AcDbEntity
  8
외형선
  6
Continuous
370
    15
100
AcDbLine
 10
-29.70500000000001
 20
4.763574928723891
 30
0.0
 11
-29.70500000000001
 21
-4.761425071276111
 31
0.0
  0
LINE
  5
A4
330
1F
100
AcDbEntity
  8
외형선
  6
Continuous
370
    15
100
AcDbLine
 10
9.050409734194254
 20
-0.5086720998880568
 30
0.0
 11
9.050409734194254
 21
4.763574928723896
 31
0.0
  0
LINE
  5
A5
330
1F
100
AcDbEntity
  8
외형선
  6
Continuous
370
    15
100
AcDbLine
 10
-30.70500000000001
 20
3.763574928723892
 30
0.0
 11
-30.70500000000001
 21
-3.761425071276111
 31
0.0
  0
SPLINE
  5
A6
330
1F
100
AcDbEntity
  8
외형선
  6
Continuous
370
    15
100
AcDbSpline
210
0.0
220
0.0
230
1.0
 70
    24
 71
     3
 72
    14
 73
    10
 74
     0
 42
0.000000001
 43
0.00000001
 40
0.0
 40
0.0
 40
0.0
 40
0.0
 40
0.25
 40
0.25
 40
0.5
 40
0.5
 40
0.75
 40
0.75
 40
1.0
 40
1.0
 40
1.0
 40
1.0
 10
10.56999999999999
 20
1.501360048219084
 30
0.0
 10
10.56999999999999
 20
1.199961538268656
 30
0.0
 10
10.56999999999999
 20
0.8813819194109381
 30
0.0
 10
10.56999999999999
 20
0.2421024979508308
 30
0.0
 10
10.56999999999999
 20
-0.0783594768834525
 30
0.0
 10
10.56999999999999
 20
-0.668821080722283
 30
0.0
 10
10.56999999999999
 20
-0.9379446725845929
 30
0.0
 10
10.56999999999999
 20
-1.368898982296308
 30
0.0
 10
10.56999999999999
 20
-1.529796719277656
 30
0.0
 10
10.56999999999999
 20
-1.621644885580399
 30
0.0
  0
SPLINE
  5
A7
330
1F
100
AcDbEntity
  8
외형선
  6
Continuous
370
    15
100
AcDbSpline
210
0.0
220
0.0
230
1.0
 70
     8
 71
     3
 72
    10
 73
     6
 74
     0
 42
0.000000001
 43
0.00000001
 40
0.0
 40
0.0
 40
0.0
 40
0.0
 40
0.5
 40
0.5
 40
1.0
 40
1.0
 40
1.0
 40
1.0
 10
10.56999999999998
 20
1.501360048219087
 30
0.0
 10
10.31562394284784
 20
1.563747274233802
 30
0.0
 10
10.06084642522092
 20
1.622527317591882
 30
0.0
 10
9.555988854254485
 20
1.731660428510099
 30
0.0
 10
9.304555670165884
 20
1.782134146403187
 30
0.0
 10
9.050409734194254
 20
1.828368269050972
 30
0.0
  0
SPLINE
  5
A8
330
1F
100
AcDbEntity
  8
외형선
  6
Continuous
370
    15
100
AcDbSpline
210
0.0
220
0.0
230
1.0
 70
    24
 71
     3
 72
    14
 73
    10
 74
     0
 42
0.000000001
 43
0.00000001
 40
0.0
 40
0.0
 40
0.0
 40
0.0
 40
0.25
 40
0.25
 40
0.5
 40
0.5
 40
0.75
 40
0.75
 40
1.0
 40
1.0
 40
1.0
 40
1.0
 10
10.56999999999999
 20
4.5330949954411
 30
0.0
 10
10.56999999999999
 20
4.123882525209424
 30
0.0
 10
10.56999999999999
 20
3.724626001337793
 30
0.0
 10
10.56999999999999
 20
3.007061899599974
 30
0.0
 10
10.56999999999999
 20
2.689396792431849
 30
0.0
 10
10.56999999999999
 20
2.166761066286328
 30
0.0
 10
10.56999999999999
 20
1.961496425042815
 30
0.0
 10
10.56999999999999
 20
1.658174414785093
 30
0.0
 10
10.56999999999999
 20
1.559476329996992
 30
0.0
 10
10.56999999999999
 20
1.501360048219085
 30
0.0
  0
SPLINE
  5
A9
330
1F
100
AcDbEntity
  8
외형선
  6
Continuous
 62
     1
370
    15
100
AcDbSpline
210
0.0
220
0.0
230
1.0
 70
     8
 71
     3
 72
    17
 73
    13
 74
     0
 42
0.000000001
 43
0.00000001
 40
0.0910963239365412
 40
0.0910963239365412
 40
0.0910963239365412
 40
0.0910963239365412
 40
0.1048051640048891
 40
0.2045081671201217
 40
0.3042362563530712
 40
0.4040009974387424
 40
0.503808946105573
 40
0.6035920261862875
 40
0.7033337484036327
 40
0.8022376493029348
 40
0.9011216205680445
 40
1.0
 40
1.0
 40
1.0
 40
1.0
 10
24.09520318475952
 20
-2.11905633592962
 30
0.0
 10
24.02720578777348
 20
-2.113597153690102
 30
0.0
 10
23.46466987585915
 20
-2.065842700390603
 30
0.0
 10
22.40746472205995
 20
-1.949209407388831
 30
0.0
 10
20.92338045690698
 20
-1.665149854430925
 30
0.0
 10
19.43874062128492
 20
-1.293137492040511
 30
0.0
 10
17.95375246683678
 20
-0.8491918496821532
 30
0.0
 10
16.46892752289635
 20
-0.3588530682053073
 30
0.0
 10
14.98863215678881
 20
0.1503395815758275
 30
0.0
 10
13.51284235734021
 20
0.6483279455588551
 30
0.0
 10
12.0413558244695
 20
1.1158069593243
 30
0.0
 10
11.06044269621381
 20
1.37284477454672
 30
0.0
 10
10.56999999999999
 20
1.501360048219084
 30
0.0
  0
SPLINE
  5
AA
330
1F
100
AcDbEntity
  8
외형선
  6
Continuous
370
    15
100
AcDbSpline
210
0.0
220
0.0
230
1.0
 70
    24
 71
     3
 72
    14
 73
    10
 74
     0
 42
0.000000001
 43
0.00000001
 40
0.0
 40
0.0
 40
0.0
 40
0.0
 40
0.25
 40
0.25
 40
0.5
 40
0.5
 40
0.75
 40
0.75
 40
1.0
 40
1.0
 40
1.0
 40
1.0
 10
10.56999999999999
 20
4.5330949954411
 30
0.0
 10
10.56999999999999
 20
4.123882525209424
 30
0.0
 10
10.56999999999999
 20
3.724626001337793
 30
0.0
 10
10.56999999999999
 20
3.007061899599974
 30
0.0
 10
10.56999999999999
 20
2.689396792431849
 30
0.0
 10
10.56999999999999
 20
2.166761066286328
 30
0.0
 10
10.56999999999999
 20
1.961496425042815
 30
0.0
 10
10.56999999999999
 20
1.658174414785093
 30
0.0
 10
10.56999999999999
 20
1.559476329996992
 30
0.0
 10
10.56999999999999
 20
1.501360048219085
 30
0.0
  0
SPLINE
  5
AB
330
1F
100
AcDbEntity
  8
외형선
  6
Continuous
 62
     1
370
    15
100
AcDbSpline
210
0.0
220
0.0
230
1.0
 70
     8
 71
     3
 72
    32
 73
    28
 74
     0
 42
0.000000001
 43
0.00000001
 40
0.5313110422297594
 40
0.5313110422297594
 40
0.5313110422297594
 40
0.5313110422297594
 40
0.5625000000000003
 40
0.5625000000000003
 40
0.5937500000000003
 40
0.5937500000000003
 40
0.6250000000000002
 40
0.6250000000000002
 40
0.6562500000000002
 40
0.6562500000000002
 40
0.6875000000000002
 40
0.6875000000000002
 40
0.7500000000000001
 40
0.7500000000000001
 40
0.7812500000000001
 40
0.7812500000000001
 40
0.8125
 40
0.8125
 40
0.84375
 40
0.84375
 40
0.8749999999999999
 40
0.8749999999999999
 40
0.9375
 40
0.9375
 40
0.9687499999999999
 40
0.9687499999999999
 40
1.0
 40
1.0
 40
1.0
 40
1.0
 10
18.75487173728695
 20
2.643090636893163
 30
0.0
 10
18.57253175895616
 20
2.757086248406456
 30
0.0
 10
18.39014764964587
 20
2.867823195173909
 30
0.0
 10
18.02696582943741
 20
3.081716449205378
 30
0.0
 10
17.84709095428189
 20
3.184716191848126
 30
0.0
 10
17.48406158467188
 20
3.383194406926084
 30
0.0
 10
17.30144889500941
 20
3.478551803277345
 30
0.0
 10
16.93606225809505
 20
3.660382952610878
 30
0.0
 10
16.7532908549835
 20
3.746855420319012
 30
0.0
 10
16.38963251660119
 20
3.909990959783876
 30
0.0
 10
16.20971737083665
 20
3.986534543414917
 30
0.0
 10
15.66538506541156
 20
4.201721824864599
 30
0.0
 10
15.29797052405487
 20
4.325486207718471
 30
0.0
 10
14.7523069227887
 20
4.477389237270261
 30
0.0
 10
14.57233495162573
 20
4.52236500195251
 30
0.0
 10
14.20959194994508
 20
4.601244167356582
 30
0.0
 10
14.02705867516305
 20
4.635100537688973
 30
0.0
 10
13.66170038749448
 20
4.691186603169667
 30
0.0
 10
13.4788779173702
 20
4.713415862410832
 30
0.0
 10
13.11498885654856
 20
4.746045272905518
 30
0.0
 10
12.93494350731604
 20
4.75644481120578
 30
0.0
 10
12.39105285347814
 20
4.770025317963379
 30
0.0
 10
12.02367559724939
 20
4.755333316499563
 30
0.0
 10
11.47767812614821
 20
4.698030778190462
 30
0.0
 10
11.29754284891016
 20
4.673149806838301
 30
0.0
 10
10.93510233708833
 20
4.611793088922568
 30
0.0
 10
10.75265671206773
 20
4.575281334408645
 30
0.0
 10
10.56999999999998
 20
4.533094995449875
 30
0.0
  0
SPLINE
  5
AD
330
1F
100
AcDbEntity
  8
외형선
  6
Continuous
 62
     1
370
    15
100
AcDbSpline
210
0.0
220
0.0
230
1.0
 70
     8
 71
     3
 72
     8
 73
     4
 74
     0
 42
0.000000001
 43
0.00000001
 40
0.0
 40
0.0
 40
0.0
 40
0.0
 40
1.0
 40
1.0
 40
1.0
 40
1.0
 10
30.05487069743642
 20
1.562057795566594
 30
0.0
 10
30.80357894268219
 20
1.34106339315946
 30
0.0
 10
31.55621080267487
 20
1.102012498343692
 30
0.0
 10
32.31288211100888
 20
0.8443720444055675
 30
0.0
  0
SPLINE
  5
AE
330
1F
100
AcDbEntity
  8
외형선
  6
Continuous
 62
     1
370
    15
100
AcDbSpline
210
0.0
220
0.0
230
1.0
 70
     8
 71
     3
 72
    28
 73
    24
 74
     0
 42
0.000000001
 43
0.00000001
 40
0.0
 40
0.0
 40
0.0
 40
0.0
 40
0.1249999999999994
 40
0.1249999999999994
 40
0.1874999999999991
 40
0.1874999999999991
 40
0.2499999999999988
 40
0.2499999999999988
 40
0.3749999999999992
 40
0.3749999999999992
 40
0.4999999999999994
 40
0.4999999999999994
 40
0.6249999999999997
 40
0.6249999999999997
 40
0.6874999999999998
 40
0.6874999999999998
 40
0.7499999999999999
 40
0.7499999999999999
 40
0.8124999999999999
 40
0.8124999999999999
 40
0.8749999999999999
 40
0.8749999999999999
 40
1.0
 40
1.0
 40
1.0
 40
1.0
 10
28.0325
 20
0.1472534696350976
 30
0.0
 10
28.28460051918868
 20
-0.0430170157156398
 30
0.0
 10
28.53178278911234
 20
-0.2320084699590338
 30
0.0
 10
28.90091021096664
 20
-0.5062684808124246
 30
0.0
 10
29.02367752980341
 20
-0.5961378011086536
 30
0.0
 10
29.26975343456792
 20
-0.7711978041367694
 30
0.0
 10
29.39333678371581
 20
-0.8566295433184562
 30
0.0
 10
29.75864689342342
 20
-1.097027920618633
 30
0.0
 10
29.99823324669273
 20
-1.237276554955856
 30
0.0
 10
30.48041324074146
 20
-1.458453928640194
 30
0.0
 10
30.71731247786775
 20
-1.536632760915741
 30
0.0
 10
31.18220488450718
 20
-1.59329238012825
 30
0.0
 10
31.4090805688513
 20
-1.570233248769736
 30
0.0
 10
31.72127927195198
 20
-1.42219720662766
 30
0.0
 10
31.81853596479205
 20
-1.355335915769092
 30
0.0
 10
31.9990309116865
 20
-1.180518437799202
 30
0.0
 10
32.07894000448329
 20
-1.075307347553978
 30
0.0
 10
32.21444341613974
 20
-0.8333016157169983
 30
0.0
 10
32.27015577638291
 20
-0.695116628689511
 30
0.0
 10
32.35094597157681
 20
-0.4049865081384857
 30
0.0
 10
32.37712853701971
 20
-0.2494707625307679
 30
0.0
 10
32.41329515976565
 20
0.2166931029926218
 30
0.0
 10
32.38303849174839
 20
0.5368005472777825
 30
0.0
 10
32.31288211100913
 20
0.8443720444063482
 30
0.0
  0
SPLINE
  5
AF
330
1F
100
AcDbEntity
  8
외형선
  6
Continuous
 62
     1
370
    15
100
AcDbSpline
210
0.0
220
0.0
230
1.0
 70
     8
 71
     3
 72
    20
 73
    16
 74
     0
 42
0.000000001
 43
0.00000001
 40
0.0
 40
0.0
 40
0.0
 40
0.0
 40
0.0763436161922708
 40
0.1526874378332287
 40
0.2306026381212303
 40
0.3085179417144475
 40
0.3848609739688905
 40
0.4612040661969827
 40
0.5391156156903573
 40
0.6170271819617358
 40
0.7071435049586582
 40
0.7972598114022922
 40
0.8899794194669457
 40
0.9826989414446254
 40
1.0
 40
1.0
 40
1.0
 40
1.0
 10
28.0325
 20
0.1472534696350951
 30
0.0
 10
27.78489548074185
 20
0.3337103775059139
 30
0.0
 10
27.2896857758958
 20
0.706624695022668
 30
0.0
 10
26.54112951144741
 20
1.258691585120209
 30
0.0
 10
25.78821517038106
 20
1.797784266926469
 30
0.0
 10
25.03470234917867
 20
2.310640984882325
 30
0.0
 10
24.28684662534046
 20
2.787874138877801
 30
0.0
 10
23.53860843230741
 20
3.226312805374395
 30
0.0
 10
22.78551542003105
 20
3.621896979737477
 30
0.0
 10
21.98768728759368
 20
3.986812215866061
 30
0.0
 10
21.14997049080181
 20
4.300395394431684
 30
0.0
 10
20.26438736242078
 20
4.551823037469824
 30
0.0
 10
19.37008493491224
 20
4.705650359369765
 30
0.0
 10
18.71233526902572
 20
4.77290198590514
 30
0.0
 10
18.35532041008467
 20
4.758656764925762
 30
0.0
 10
18.29917877776687
 20
4.756416662200396
 30
0.0
  0
SPLINE
  5
B0
330
1F
100
AcDbEntity
  8
외형선
  6
Continuous
 62
     1
370
    15
100
AcDbSpline
210
0.0
220
0.0
230
1.0
 70
     8
 71
     3
 72
    11
 73
     7
 74
     0
 42
0.000000001
 43
0.00000001
 40
0.0
 40
0.0
 40
0.0
 40
0.0
 40
0.3332507467037181
 40
0.6664977601499342
 40
0.974824029027851
 40
1.0
 40
1.0
 40
1.0
 40
1.0
 10
30.06479535083131
 20
1.587240887931442
 30
0.0
 10
29.53033001534736
 20
1.702130120035459
 30
0.0
 10
28.46140533175305
 20
1.931907297191351
 30
0.0
 10
26.89794243006899
 20
2.10794580771398
 30
0.0
 10
25.82871042777077
 20
2.180365855756639
 30
0.0
 10
25.29387336546835
 20
2.158251413034552
 30
0.0
 10
25.25349869703611
 20
2.15658200125403
 30
0.0
  0
SPLINE
  5
B1
330
1F
100
AcDbEntity
  8
외형선
  6
Continuous
 62
     1
370
    15
100
AcDbSpline
210
0.0
220
0.0
230
1.0
 70
     8
 71
     3
 72
     8
 73
     4
 74
     0
 42
0.000000001
 43
0.00000001
 40
0.0
 40
0.0
 40
0.0
 40
0.0
 40
1.0
 40
1.0
 40
1.0
 40
1.0
 10
30.06479535590245
 20
1.587240886757218
 30
0.0
 10
30.06155728122036
 20
1.578799573840567
 30
0.0
 10
30.05824919341608
 20
1.570405121971611
 30
0.0
 10
30.05487069743645
 20
1.562057795566596
 30
0.0
  0
SPLINE
  5
B2
330
1F
100
AcDbEntity
  8
외형선
  6
Continuous
370
    15
100
AcDbSpline
210
0.0
220
0.0
230
1.0
 70
     8
 71
     3
 72
     9
 73
     5
 74
     0
 42
0.000000001
 43
0.00000001
 40
0.0
 40
0.0
 40
0.0
 40
0.0
 40
0.558424407006889
 40
1.0
 40
1.0
 40
1.0
 40
1.0
 10
10.56999999999999
 20
-4.530945138002085
 30
0.0
 10
10.93730242127582
 20
-4.60608872326651
 30
0.0
 10
11.59505021429323
 20
-4.740652299502707
 30
0.0
 10
12.25370120733943
 20
-4.746654315700257
 30
0.0
 10
12.54454541016931
 20
-4.749304659561846
 30
0.0
  0
SPLINE
  5
B4
330
1F
100
AcDbEntity
  8
외형선
  6
Continuous
 62
     1
370
    15
100
AcDbSpline
210
0.0
220
0.0
230
1.0
 70
     8
 71
     3
 72
    25
 73
    21
 74
     0
 42
0.000000001
 43
0.00000001
 40
0.046885298589975
 40
0.046885298589975
 40
0.046885298589975
 40
0.046885298589975
 40
0.0658457944345033
 40
0.1164508922200499
 40
0.168095664073879
 40
0.2197404470492453
 40
0.2794753255331833
 40
0.33921019304454
 40
0.4006706958328038
 40
0.4621311415571002
 40
0.5219929758073653
 40
0.581854746135842
 40
0.6434550672717027
 40
0.7050552257296201
 40
0.7646626521629153
 40
0.8246876517255195
 40
0.8681065011500275
 40
0.9116862374949974
 40
0.9557591029030226
 40
1.0
 40
1.0
 40
1.0
 40
1.0
 10
24.56512559300845
 20
-2.607410233965769
 30
0.0
 10
24.47234782458894
 20
-2.665604057612993
 30
0.0
 10
24.13194643681758
 20
-2.875487195062817
 30
0.0
 10
23.53860742535421
 20
-3.224531194722946
 30
0.0
 10
22.78551569674883
 20
-3.619667471555822
 30
0.0
 10
21.98768717713444
 20
-3.984611097407744
 30
0.0
 10
21.1499706259579
 20
-4.298600433241513
 30
0.0
 10
20.26438693853627
 20
-4.548307650231044
 30
0.0
 10
19.37008654330774
 20
-4.708767929968027
 30
0.0
 10
18.47547353204924
 20
-4.775543921035659
 30
0.0
 10
17.58840914636072
 20
-4.746325497375413
 30
0.0
 10
16.70102660372259
 20
-4.62547283656415
 30
0.0
 10
15.80471068330795
 20
-4.410214500610781
 30
0.0
 10
14.90978773766295
 20
-4.10686172650334
 30
0.0
 10
14.02403492809134
 20
-3.723426654884396
 30
0.0
 10
13.22428688312713
 20
-3.315668718011742
 30
0.0
 10
12.50640820339437
 20
-2.900451234277602
 30
0.0
 10
11.86350453746338
 20
-2.503210372864096
 30
0.0
 10
11.21893883479485
 20
-2.076088097885696
 30
0.0
 10
10.78658715203673
 20
-1.773317979928855
 30
0.0
 10
10.56999999999999
 20
-1.621644885581758
 30
0.0
  0
ARC
  5
B5
330
1F
100
AcDbEntity
  8
외형선
  6
Continuous
 62
     1
370
    15
100
AcDbCircle
 10
31.15104816928112
 20
-0.4357377451667929
 30
0.0
 40
1.728739188399927
100
AcDbArc
 50
20.79721763986089
 51
47.77296113028877
  0
ARC
  5
B6
330
1F
100
AcDbEntity
  8
외형선
  6
Continuous
 62
     1
370
    15
100
AcDbCircle
 10
28.27170232132851
 20
0.0091567922757356
 30
0.0
 40
4.49861775790223
100
AcDbArc
 50
2.151850384571629
 51
27.07559065500036
  0
SPLINE
  5
B8
330
1F
100
AcDbEntity
  8
외형선
  6
Continuous
370
    15
100
AcDbSpline
210
0.0
220
0.0
230
1.0
 70
    24
 71
     3
 72
    14
 73
    10
 74
     0
 42
0.000000001
 43
0.00000001
 40
0.0
 40
0.0
 40
0.0
 40
0.0
 40
0.25
 40
0.25
 40
0.5
 40
0.5
 40
0.75
 40
0.75
 40
1.0
 40
1.0
 40
1.0
 40
1.0
 10
10.56999999999999
 20
1.501360048219084
 30
0.0
 10
10.56999999999999
 20
1.199961538268656
 30
0.0
 10
10.56999999999999
 20
0.8813819194109381
 30
0.0
 10
10.56999999999999
 20
0.2421024979508308
 30
0.0
 10
10.56999999999999
 20
-0.0783594768834525
 30
0.0
 10
10.56999999999999
 20
-0.668821080722283
 30
0.0
 10
10.56999999999999
 20
-0.9379446725845929
 30
0.0
 10
10.56999999999999
 20
-1.368898982296308
 30
0.0
 10
10.56999999999999
 20
-1.529796719277656
 30
0.0
 10
10.56999999999999
 20
-1.621644885580399
 30
0.0
  0
SPLINE
  5
B9
330
1F
100
AcDbEntity
  8
외형선
  6
Continuous
 62
     1
370
    15
100
AcDbSpline
210
0.0
220
0.0
230
1.0
 70
     8
 71
     3
 72
    12
 73
     8
 74
     0
 42
0.000000001
 43
0.00000001
 40
0.0
 40
0.0
 40
0.0
 40
0.0
 40
0.2499999999999999
 40
0.2499999999999999
 40
0.4999999999999999
 40
0.4999999999999999
 40
1.0
 40
1.0
 40
1.0
 40
1.0
 10
32.27730214839612
 20
2.056772907935427
 30
0.0
 10
32.12395350098522
 20
1.933599186012416
 30
0.0
 10
31.95065052949229
 20
1.833850534394539
 30
0.0
 10
31.59290155714833
 20
1.68316734714892
 30
0.0
 10
31.40709116053404
 20
1.630404513579505
 30
0.0
 10
30.83297079552155
 20
1.526444984500727
 30
0.0
 10
30.44870749015666
 20
1.530335731241194
 30
0.0
 10
30.06479535590244
 20
1.58724088675722
 30
0.0
  0
LINE
  5
BA
330
1F
100
AcDbEntity
  8
중심선
 62
     1
100
AcDbLine
 10
-33.70500000000001
 20
0.0010749287238892
 30
0.0
 11
35.795
 21
0.0010749287238892
 31
0.0
  0
LINE
  5
BB
330
1F
100
AcDbEntity
  8
참조1
100
AcDbLine
 10
-2.700513367556236
 20
-2.498925071276081
 30
0.0
 11
-2.700513367556232
 21
-39.9989250712761
 31
0.0
  0
LINE
  5
BC
330
1F
100
AcDbEntity
  8
참조1
100
AcDbLine
 10
32.79499999999999
 20
0.0010749287238931
 30
0.0
 11
32.79499999999999
 21
1.048836532705012
 31
0.0
  0
LINE
  5
BD
330
1F
100
AcDbEntity
  8
참조1
100
AcDbLine
 10
-2.700513367556232
 20
-39.9989250712761
 30
0.0
 11
-17.85885681430868
 21
-39.9989250712761
 31
0.0
  0
CIRCLE
  5
BE
330
1F
100
AcDbEntity
  8
해칭선
100
AcDbCircle
 10
0.5699999999999924
 20
0.0
 30
0.0
 40
3.000000000000001
  0
INSERT
  5
BF
330
1F
100
AcDbEntity
  8
0
  6
Continuous
 62
     7
100
AcDbBlockReference
 66
     1
  2
블럭10
 10
-16.64078629968144
 20
-52.04609937292004
 30
0.0
  0
ATTRIB
  5
C0
330
BF
100
AcDbEntity
  8
FORMAT
 62
     2
100
AcDbText
 10
-25.03029162458128
 20
-49.97073246008785
 30
0.0
 40
4.233333333333333
  1
EI099024 [ 2 FLUTE ]
 41
0.75
  7
SLDTEXTSTYLE0
 11
-25.03029162458128
 21
-52.08739912675452
 31
0.0
100
AcDbAttribute
  2
AUTOATTR0
 70
     0
 74
     1
  0
SEQEND
  5
C1
330
BF
100
AcDbEntity
  8
0
  6
Continuous
 62
     7
  0
HATCH
  5
C2
330
1F
100
AcDbEntity
  8
중심선
100
AcDbHatch
 10
0.0
 20
0.0
 30
0.0
210
0.0
220
0.0
230
1.0
  2
SOLID
 70
     1
 71
     0
 91
        1
 92
        0
 93
        4
 72
     1
 10
-10.92587699530059
 20
-35.7989250712761
 11
-14.37215223913788
 21
-35.7989250712761
 72
     1
 10
-14.37215223913788
 20
-35.7989250712761
 11
-16.5003820983419
 21
-38.3352506518487
 72
     1
 10
-16.5003820983419
 20
-38.3352506518487
 11
-13.05407376939147
 21
-38.33521122254621
 72
     1
 10
-13.05407376939147
 20
-38.33521122254621
 11
-10.92587699530059
 21
-35.7989250712761
 97
        0
 75
     0
 76
     1
 98
        1
 10
0.0
 20
0.0
  0
HATCH
  5
C3
330
1F
100
AcDbEntity
  8
중심선
100
AcDbHatch
 10
0.0
 20
0.0
 30
0.0
210
0.0
220
0.0
230
1.0
  2
SOLID
 70
     1
 71
     0
 91
        1
 92
        0
 93
        4
 72
     1
 10
-5.913113004264642
 20
-35.7989250712761
 11
-9.359388248101924
 21
-35.7989250712761
 72
     1
 10
-9.359388248101924
 20
-35.7989250712761
 11
-13.89052625645931
 21
-41.19892507127612
 72
     1
 10
-13.89052625645931
 20
-41.19892507127612
 11
-10.44425101262203
 21
-41.19892507127612
 72
     1
 10
-10.44425101262203
 20
-41.19892507127612
 11
-5.913113004264642
 21
-35.7989250712761
 97
        0
 75
     0
 76
     1
 98
        1
 10
0.0
 20
0.0
  0
HATCH
  5
C4
330
1F
100
AcDbEntity
  8
중심선
100
AcDbHatch
 10
0.0
 20
0.0
 30
0.0
210
0.0
220
0.0
230
1.0
  2
SOLID
 70
     1
 71
     0
 91
        1
 92
        0
 93
        4
 72
     1
 10
-0.9003490132287462
 20
-35.79892507127613
 11
-4.346624257065862
 21
-35.7989250712761
 72
     1
 10
-4.346624257065862
 20
-35.7989250712761
 11
-11.39506115895511
 21
-44.19892507127612
 72
     1
 10
-11.39506115895511
 20
-44.19892507127612
 11
-7.948785915117829
 21
-44.19892507127612
 72
     1
 10
-7.948785915117829
 20
-44.19892507127612
 11
-0.9003490132287464
 21
-35.79892507127613
 97
        0
 75
     0
 76
     1
 98
        1
 10
0.0
 20
0.0
  0
HATCH
  5
C5
330
1F
100
AcDbEntity
  8
중심선
100
AcDbHatch
 10
0.0
 20
0.0
 30
0.0
210
0.0
220
0.0
230
1.0
  2
SOLID
 70
     1
 71
     0
 91
        1
 92
        0
 93
        6
 72
     3
 10
3.899541417783453
 20
-39.99892507132738
 11
3.960054785062284
 21
1.540850780301639E-10
 40
0.3939339440162633
 50
17.09539180608434
 51
320.0019657685079
 73
     0
 72
     1
 10
5.582541073484048
 20
-38.58681907591441
 11
7.887842947185087
 21
-36.65249236586649
 72
     3
 10
3.899541417730607
 20
-39.99892507127625
 11
6.600054785286829
 21
-1.249000902703301E-13
 40
0.6363583540795982
 50
39.99873849337408
 51
368.4976242363725
 73
     1
 72
     1
 10
10.32487390963121
 20
-39.03892507120613
 11
2.579608724566529
 21
-39.0389250712061
 72
     1
 10
2.579608724566529
 20
-39.0389250712061
 11
2.579583680120595
 21
-40.95892507120602
 72
     1
 10
2.579583680120595
 20
-40.95892507120602
 11
7.020963449592632
 21
-40.95892507120599
 97
        0
 75
     0
 76
     1
 98
        1
 10
0.0
 20
0.0
  0
DIMENSION
  5
C8
330
1F
100
AcDbEntity
  8
치수문자_일반주서
100
AcDbDimension
  2
_D
 10
10.57
 20
19.00000000000002
 30
0.0
 11
-9.159000000000002
 21
19.00000000000002
 31
0.0
 70
   160
  1
<>
 71
     2
 42
22.22499999999999
  3
SLDDIMSTYLE2
100
AcDbAlignedDimension
 13
32.79499999999999
 23
4.826074928723894
 33
0.0
 14
10.57
 24
1.501360048219075
 34
0.0
100
AcDbRotatedDimension
1001
ACAD
1000
DSTYLE
1002
{
1070
   171
1070
     6
1070
   273
1070
     7
1002
}
  0
DIMENSION
  5
DD
330
1F
100
AcDbEntity
  8
치수문자_일반주서
100
AcDbDimension
  2
_D_1
 10
-30.70500000000001
 20
35.58857492872392
 30
0.0
 11
2.246963321353069
 21
35.58857492872392
 31
0.0
 70
   160
  1
<>
 71
     2
 42
63.5
  3
SLDDIMSTYLE2
100
AcDbAlignedDimension
 13
32.79499999999999
 23
4.763574928723894
 33
0.0
 14
-30.70500000000001
 24
3.763574928723895
 34
0.0
100
AcDbRotatedDimension
1001
ACAD
1000
DSTYLE
1002
{
1070
   171
1070
     6
1070
   273
1070
     7
1002
}
  0
DIMENSION
  5
F1
330
1F
100
AcDbEntity
  8
치수문자_일반주서
100
AcDbDimension
  2
_D_2
 10
-39.34432186858623
 20
-4.761425071276143
 30
0.0
 11
-39.34432186858633
 21
24.49257492872386
 31
0.0
 70
   160
  1
%%c<>
 71
     2
 42
9.525000000000006
  3
SLDDIMSTYLE2
100
AcDbAlignedDimension
 13
-29.70500000000001
 23
4.763574928723898
 33
0.0
 14
-29.70500000000001
 24
-4.761425071276108
 34
0.0
 50
90.0000000000002
100
AcDbRotatedDimension
1001
ACAD
1000
DSTYLE
1002
{
1070
   171
1070
     6
1070
   273
1070
     7
1002
}
  0
LINE
  5
119
330
1F
100
AcDbEntity
  8
참조1
100
AcDbLine
 10
80.11348381534559
 20
7.441074928723896
 30
0.0
 11
80.11348381534559
 21
-7.438925071276109
 31
0.0
  0
LINE
  5
11A
330
1F
100
AcDbEntity
  8
참조1
100
AcDbLine
 10
92.81348381534559
 20
5.441074928723896
 30
0.0
 11
80.11348381534559
 21
5.441074928723896
 31
0.0
  0
SOLID
  5
11B
330
1F
100
AcDbEntity
  8
참조1
100
AcDbTrace
 10
80.11348381534559
 20
5.441074928723896
 30
0.0
 11
86.46348381534558
 21
4.425074928723896
 31
0.0
 12
86.46348381534558
 22
6.457074928723896
 32
0.0
 13
86.46348381534558
 23
6.457074928723896
 33
0.0
  0
LINE
  5
11C
330
1F
100
AcDbEntity
  8
참조1
100
AcDbLine
 10
92.81348381534559
 20
-5.438925071276109
 30
0.0
 11
80.11348381534559
 21
-5.438925071276109
 31
0.0
  0
SOLID
  5
11D
330
1F
100
AcDbEntity
  8
참조1
100
AcDbTrace
 10
80.11348381534559
 20
-5.438925071276109
 30
0.0
 11
86.46348381534558
 21
-6.454925071276109
 31
0.0
 12
86.46348381534558
 22
-4.422925071276109
 32
0.0
 13
86.46348381534558
 23
-4.422925071276109
 33
0.0
  0
MTEXT
  5
11E
330
1F
100
AcDbEntity
  8
참조1
100
AcDbMText
 10
89.71359862590815
 20
11.06679249473997
 30
0.0
 40
3.5
 41
0.0
 71
     1
 72
     1
  1
A
  7
SLDTEXTSTYLE0
 73
     1
 44
1.0
  0
MTEXT
  5
11F
330
1F
100
AcDbEntity
  8
참조1
100
AcDbMText
 10
89.71359862590815
 20
0.1867924947399667
 30
0.0
 40
3.5
 41
0.0
 71
     1
 72
     1
  1
A
  7
SLDTEXTSTYLE0
 73
     1
 44
1.0
  0
INSERT
  5
126
330
1F
100
AcDbEntity
  8
해칭선
100
AcDbBlockReference
  2
SW_DOWELSYMBOL_0
 10
0.5699999999999924
 20
0.0
 30
0.0
  0
DIMENSION
  5
156
102
{ACAD_XDICTIONARY
360
157
102
}
330
1F
100
AcDbEntity
  8
치수문자_일반주서
100
AcDbDimension
  2
*D7
 10
48.83338085188235
 20
4.763574928723894
 30
0.0
 11
46.20838085188235
 21
24.49257492872389
 31
0.0
 70
    32
  1
{%%c<>[]}
 71
     5
 42
9.524999999999999
  3
SLDDIMSTYLE2
100
AcDbAlignedDimension
 13
32.79499999999999
 23
-4.761425071276104
 33
0.0
 14
32.79499999999999
 24
4.763574928723894
 34
0.0
 50
90.0
100
AcDbRotatedDimension
1001
ACAD
1000
DSTYLE
1002
{
1070
   171
1070
     6
1070
   273
1070
     7
1002
}
  0
ARC
  5
16C
330
1F
100
AcDbEntity
  8
외형선
  6
Continuous
 62
     1
370
    15
100
AcDbCircle
 10
28.03249999999998
 20
0.0010749287238892
 30
0.0
 40
4.762499999999999
100
AcDbArc
 50
270.0000000000001
 51
89.99999999999996
  0
SPLINE
  5
16D
330
1F
100
AcDbEntity
  8
외형선
  6
Continuous
 62
     1
370
    15
100
AcDbSpline
210
0.0
220
0.0
230
1.0
 70
     8
 71
     3
 72
     9
 73
     5
 74
     0
 42
0.000000001
 43
0.0000000001
 40
0.0
 40
0.0
 40
0.0
 40
0.0
 40
1.414635048674004
 40
4.650485309064082
 40
4.650485309064082
 40
4.650485309064082
 40
4.650485309064082
 10
28.03249999999999
 20
4.763574928723888
 30
0.0
 10
27.56141165002817
 20
4.702265747635157
 30
0.0
 10
26.01275112951537
 20
4.500717336805703
 30
0.0
 10
24.66715415652028
 20
3.715091643036634
 30
0.0
 10
23.75604838198003
 20
3.09604052674405
 30
0.0
  0
SPLINE
  5
16E
330
1F
100
AcDbEntity
  8
외형선
  6
Continuous
 62
     1
370
    15
100
AcDbSpline
210
0.0
220
0.0
230
1.0
 70
     8
 71
     3
 72
    11
 73
     7
 74
     5
 42
0.000000001
 43
0.0000000001
 44
0.0
 40
0.0
 40
0.0
 40
0.0
 40
0.0
 40
0.9995116765146748
 40
3.223524959531963
 40
6.73855144161845
 40
11.99435835752989
 40
11.99435835752989
 40
11.99435835752989
 40
11.99435835752989
 10
28.03249999999999
 20
-4.76142507127611
 30
0.0
 10
27.70299338188126
 20
-4.695899867154035
 30
0.0
 10
26.64030163670776
 20
-4.484574541068323
 30
0.0
 10
24.83977455504865
 20
-3.001977657500373
 30
0.0
 10
22.46590218430863
 20
-0.2448839730269403
 30
0.0
 10
20.14540140455681
 20
1.560961446430997
 30
0.0
 10
18.75487173728695
 20
2.643090636893162
 30
0.0
 11
28.03249999999999
 21
-4.76142507127611
 31
0.0
 11
27.06334052435182
 21
-4.516979776270183
 31
0.0
 11
25.22893548715743
 21
-3.259524710451449
 31
0.0
 11
22.77319971155849
 21
-0.744614578813982
 31
0.0
 11
18.75487173728695
 21
2.643090636893162
 31
0.0
  0
ENDSEC
  0
SECTION
  2
OBJECTS
  0
DICTIONARY
  5
C
330
0
100
AcDbDictionary
281
     1
  3
ACAD_DETAILVIEWSTYLE
350
150
  3
ACAD_GROUP
350
D
  3
ACAD_IMAGE_VARS
350
14A
  3
ACAD_LAYOUT
350
1A
  3
ACAD_MLINESTYLE
350
17
  3
ACAD_PLOTSETTINGS
350
19
  3
ACAD_PLOTSTYLENAME
350
E
  3
ACAD_SCALELIST
350
47
  3
ACAD_SECTIONVIEWSTYLE
350
151
  3
AcDbVariableDictionary
350
14B
  3
APPDATA
350
148
  3
DWGPROPS
350
174
  0
DICTIONARY
  5
157
330
156
100
AcDbDictionary
280
     1
281
     1
  0
DICTIONARY
  5
150
102
{ACAD_REACTORS
330
C
102
}
330
C
100
AcDbDictionary
281
     1
  0
DICTIONARY
  5
D
102
{ACAD_REACTORS
330
C
102
}
330
C
100
AcDbDictionary
281
     1
  0
RASTERVARIABLES
  5
14A
102
{ACAD_REACTORS
330
C
102
}
330
C
100
AcDbRasterVariables
 90
        0
 70
     1
 71
     1
 72
     1
  0
DICTIONARY
  5
1A
102
{ACAD_REACTORS
330
C
102
}
330
C
100
AcDbDictionary
281
     1
  3
Layout1
350
1E
  3
Layout2
350
26
  3
Model
350
22
  0
DICTIONARY
  5
17
102
{ACAD_REACTORS
330
C
102
}
330
C
100
AcDbDictionary
281
     1
  3
Standard
350
18
  0
DICTIONARY
  5
19
102
{ACAD_REACTORS
330
C
102
}
330
C
100
AcDbDictionary
281
     1
  0
ACDBDICTIONARYWDFLT
  5
E
102
{ACAD_REACTORS
330
C
102
}
330
C
100
AcDbDictionary
281
     1
  3
Normal
350
F
100
AcDbDictionaryWithDefault
340
F
  0
DICTIONARY
  5
47
102
{ACAD_REACTORS
330
C
102
}
330
C
100
AcDbDictionary
281
     1
  3
A0
350
48
  3
A1
350
49
  3
A2
350
4A
  3
A3
350
4B
  3
A4
350
4C
  3
A5
350
4D
  3
A6
350
4E
  3
A7
350
4F
  3
A8
350
50
  3
A9
350
51
  3
B0
350
52
  3
B1
350
53
  3
B2
350
54
  3
B3
350
55
  3
B4
350
56
  3
B5
350
57
  3
B6
350
58
  3
B7
350
59
  3
B8
350
5A
  3
B9
350
5B
  3
C0
350
5C
  3
C1
350
5D
  3
C2
350
5E
  3
C3
350
5F
  3
C4
350
60
  3
C5
350
61
  3
C6
350
62
  3
C7
350
63
  3
C8
350
64
  3
C9
350
65
  3
D0
350
66
  3
D1
350
67
  3
D2
350
68
  0
DICTIONARY
  5
151
102
{ACAD_REACTORS
330
C
102
}
330
C
100
AcDbDictionary
281
     1
  0
DICTIONARY
  5
14B
102
{ACAD_REACTORS
330
C
102
}
330
C
100
AcDbDictionary
281
     1
  0
DICTIONARY
  5
148
102
{ACAD_REACTORS
330
C
102
}
330
C
100
AcDbDictionary
281
     1
  0
XRECORD
  5
174
102
{ACAD_REACTORS
330
C
102
}
330
C
100
AcDbXrecord
280
     1
  1
DWGPROPS COOKIE
  2

  3

  4

  6

  7

  8
12015048
  9

300
=
301
=
302
=
303
=
304
=
305
=
306
=
307
=
308
=
309
=
 40
0.0
 41
2458270.309319085
 42
2458274.257146748
  1

 90
        0
  0
LAYOUT
  5
1E
102
{ACAD_REACTORS
330
1A
102
}
330
1A
100
AcDbPlotSettings
  1

  2
none_device
  4

  6

 40
0.0
 41
0.0
 42
0.0
 43
0.0
 44
0.0
 45
0.0
 46
0.0
 47
0.0
 48
0.0
 49
0.0
140
0.0
141
0.0
142
1.0
143
1.0
 70
   688
 72
     1
 73
     0
 74
     5
  7

 75
    16
147
1.0
148
0.0
149
0.0
100
AcDbLayout
  1
Layout1
 70
     1
 71
     1
 10
0.0
 20
0.0
 11
420.0
 21
297.0
 12
0.0
 22
0.0
 32
0.0
 14
1.000000000000000E+20
 24
1.000000000000000E+20
 34
1.000000000000000E+20
 15
-1.000000000000000E+20
 25
-1.000000000000000E+20
 35
-1.000000000000000E+20
146
0.0
 13
0.0
 23
0.0
 33
0.0
 16
1.0
 26
0.0
 36
0.0
 17
0.0
 27
1.0
 37
0.0
 76
     0
330
1B
  0
LAYOUT
  5
26
102
{ACAD_REACTORS
330
1A
102
}
330
1A
100
AcDbPlotSettings
  1

  2
none_device
  4

  6

 40
0.0
 41
0.0
 42
0.0
 43
0.0
 44
0.0
 45
0.0
 46
0.0
 47
0.0
 48
0.0
 49
0.0
140
0.0
141
0.0
142
1.0
143
1.0
 70
   688
 72
     1
 73
     0
 74
     5
  7

 75
    16
147
1.0
148
0.0
149
0.0
100
AcDbLayout
  1
Layout2
 70
     1
 71
     2
 10
0.0
 20
0.0
 11
0.0
 21
0.0
 12
0.0
 22
0.0
 32
0.0
 14
0.0
 24
0.0
 34
0.0
 15
0.0
 25
0.0
 35
0.0
146
0.0
 13
0.0
 23
0.0
 33
0.0
 16
1.0
 26
0.0
 36
0.0
 17
0.0
 27
1.0
 37
0.0
 76
     0
330
23
  0
LAYOUT
  5
22
102
{ACAD_REACTORS
330
1A
102
}
330
1A
100
AcDbPlotSettings
  1

  2
none_device
  4
ANSI_A_(11.00_x_8.50_Inches)
  6

 40
6.35
 41
19.05
 42
6.35000508
 43
19.05000254
 44
279.4
 45
215.9
 46
92.06123073840797
 47
91.65437305274564
 48
0.0
 49
0.0
140
0.0
141
0.0
142
0.076180116360895
143
1.0
 70
  1696
 72
     0
 73
     0
 74
     0
  7

 75
     0
147
0.0235690232323232
148
0.0
149
0.0
100
AcDbLayout
  1
Model
 70
     1
 71
     0
 10
0.0
 20
0.0
 11
420.0
 21
297.0
 12
0.0
 22
0.0
 32
0.0
 14
-43.71932186858635
 24
-49.97073246008785
 34
0.0
 15
92.81348381534559
 25
39.96357492872392
 35
0.0
146
0.0
 13
0.0
 23
0.0
 33
0.0
 16
1.0
 26
0.0
 36
0.0
 17
0.0
 27
1.0
 37
0.0
 76
     0
330
1F
331
29
  0
MLINESTYLE
  5
18
102
{ACAD_REACTORS
330
17
102
}
330
17
100
AcDbMlineStyle
  2
Standard
 70
     0
  3

 62
   256
 51
90.0
 52
90.0
 71
     2
 49
0.5
 62
   256
  6
BYLAYER
 49
-0.5
 62
   256
  6
BYLAYER
  0
ACDBPLACEHOLDER
  5
F
102
{ACAD_REACTORS
330
E
102
}
330
E
  0
SCALE
  5
48
102
{ACAD_REACTORS
330
47
102
}
330
47
100
AcDbScale
 70
     0
300
1:1
140
1.0
141
1.0
290
     1
  0
SCALE
  5
49
102
{ACAD_REACTORS
330
47
102
}
330
47
100
AcDbScale
 70
     0
300
1:2
140
1.0
141
2.0
290
     0
  0
SCALE
  5
4A
102
{ACAD_REACTORS
330
47
102
}
330
47
100
AcDbScale
 70
     0
300
1:4
140
1.0
141
4.0
290
     0
  0
SCALE
  5
4B
102
{ACAD_REACTORS
330
47
102
}
330
47
100
AcDbScale
 70
     0
300
1:5
140
1.0
141
5.0
290
     0
  0
SCALE
  5
4C
102
{ACAD_REACTORS
330
47
102
}
330
47
100
AcDbScale
 70
     0
300
1:8
140
1.0
141
8.0
290
     0
  0
SCALE
  5
4D
102
{ACAD_REACTORS
330
47
102
}
330
47
100
AcDbScale
 70
     0
300
1:10
140
1.0
141
10.0
290
     0
  0
SCALE
  5
4E
102
{ACAD_REACTORS
330
47
102
}
330
47
100
AcDbScale
 70
     0
300
1:16
140
1.0
141
16.0
290
     0
  0
SCALE
  5
4F
102
{ACAD_REACTORS
330
47
102
}
330
47
100
AcDbScale
 70
     0
300
1:20
140
1.0
141
20.0
290
     0
  0
SCALE
  5
50
102
{ACAD_REACTORS
330
47
102
}
330
47
100
AcDbScale
 70
     0
300
1:30
140
1.0
141
30.0
290
     0
  0
SCALE
  5
51
102
{ACAD_REACTORS
330
47
102
}
330
47
100
AcDbScale
 70
     0
300
1:40
140
1.0
141
40.0
290
     0
  0
SCALE
  5
52
102
{ACAD_REACTORS
330
47
102
}
330
47
100
AcDbScale
 70
     0
300
1:50
140
1.0
141
50.0
290
     0
  0
SCALE
  5
53
102
{ACAD_REACTORS
330
47
102
}
330
47
100
AcDbScale
 70
     0
300
1:100
140
1.0
141
100.0
290
     0
  0
SCALE
  5
54
102
{ACAD_REACTORS
330
47
102
}
330
47
100
AcDbScale
 70
     0
300
2:1
140
2.0
141
1.0
290
     0
  0
SCALE
  5
55
102
{ACAD_REACTORS
330
47
102
}
330
47
100
AcDbScale
 70
     0
300
4:1
140
4.0
141
1.0
290
     0
  0
SCALE
  5
56
102
{ACAD_REACTORS
330
47
102
}
330
47
100
AcDbScale
 70
     0
300
8:1
140
8.0
141
1.0
290
     0
  0
SCALE
  5
57
102
{ACAD_REACTORS
330
47
102
}
330
47
100
AcDbScale
 70
     0
300
10:1
140
10.0
141
1.0
290
     0
  0
SCALE
  5
58
102
{ACAD_REACTORS
330
47
102
}
330
47
100
AcDbScale
 70
     0
300
100:1
140
100.0
141
1.0
290
     0
  0
SCALE
  5
59
102
{ACAD_REACTORS
330
47
102
}
330
47
100
AcDbScale
 70
     0
300
1/128" = 1'-0"
140
0.0078125
141
12.0
290
     0
  0
SCALE
  5
5A
102
{ACAD_REACTORS
330
47
102
}
330
47
100
AcDbScale
 70
     0
300
1/64" = 1'-0"
140
0.015625
141
12.0
290
     0
  0
SCALE
  5
5B
102
{ACAD_REACTORS
330
47
102
}
330
47
100
AcDbScale
 70
     0
300
1/32" = 1'-0"
140
0.03125
141
12.0
290
     0
  0
SCALE
  5
5C
102
{ACAD_REACTORS
330
47
102
}
330
47
100
AcDbScale
 70
     0
300
1/16" = 1'-0"
140
0.0625
141
12.0
290
     0
  0
SCALE
  5
5D
102
{ACAD_REACTORS
330
47
102
}
330
47
100
AcDbScale
 70
     0
300
3/32" = 1'-0"
140
0.09375
141
12.0
290
     0
  0
SCALE
  5
5E
102
{ACAD_REACTORS
330
47
102
}
330
47
100
AcDbScale
 70
     0
300
1/8" = 1'-0"
140
0.125
141
12.0
290
     0
  0
SCALE
  5
5F
102
{ACAD_REACTORS
330
47
102
}
330
47
100
AcDbScale
 70
     0
300
3/16" = 1'-0"
140
0.1875
141
12.0
290
     0
  0
SCALE
  5
60
102
{ACAD_REACTORS
330
47
102
}
330
47
100
AcDbScale
 70
     0
300
1/4" = 1'-0"
140
0.25
141
12.0
290
     0
  0
SCALE
  5
61
102
{ACAD_REACTORS
330
47
102
}
330
47
100
AcDbScale
 70
     0
300
3/8" = 1'-0"
140
0.375
141
12.0
290
     0
  0
SCALE
  5
62
102
{ACAD_REACTORS
330
47
102
}
330
47
100
AcDbScale
 70
     0
300
1/2" = 1'-0"
140
0.5
141
12.0
290
     0
  0
SCALE
  5
63
102
{ACAD_REACTORS
330
47
102
}
330
47
100
AcDbScale
 70
     0
300
3/4" = 1'-0"
140
0.75
141
12.0
290
     0
  0
SCALE
  5
64
102
{ACAD_REACTORS
330
47
102
}
330
47
100
AcDbScale
 70
     0
300
1" = 1'-0"
140
1.0
141
12.0
290
     0
  0
SCALE
  5
65
102
{ACAD_REACTORS
330
47
102
}
330
47
100
AcDbScale
 70
     0
300
1-1/2" = 1'-0"
140
1.5
141
12.0
290
     0
  0
SCALE
  5
66
102
{ACAD_REACTORS
330
47
102
}
330
47
100
AcDbScale
 70
     0
300
3" = 1'-0"
140
3.0
141
12.0
290
     0
  0
SCALE
  5
67
102
{ACAD_REACTORS
330
47
102
}
330
47
100
AcDbScale
 70
     0
300
6" = 1'-0"
140
6.0
141
12.0
290
     0
  0
SCALE
  5
68
102
{ACAD_REACTORS
330
47
102
}
330
47
100
AcDbScale
 70
     0
300
1'-0" = 1'-0"
140
12.0
141
12.0
290
     0
  0
ENDSEC
  0
EOF
