  0
SECTION
  2
HEADER
  9
$ACADVER
  1
AC1015
  9
$ACADMAINTVER
 70
     6
  9
$DWGCODEPAGE
  3
ANSI_949
  9
$INSBASE
 10
0.0
 20
0.0
 30
0.0
  9
$EXTMIN
 10
-37.82263000274801
 20
-49.97073246008785
 30
0.0
  9
$EXTMAX
 10
92.81348381534559
 20
39.96250000000003
 30
0.0
  9
$LIMMIN
 10
0.0
 20
0.0
  9
$LIMMAX
 10
420.0
 20
297.0
  9
$ORTHOMODE
 70
     0
  9
$REGENMODE
 70
     1
  9
$FILLMODE
 70
     1
  9
$QTEXTMODE
 70
     0
  9
$MIRRTEXT
 70
     1
  9
$LTSCALE
 40
1.0
  9
$ATTMODE
 70
     1
  9
$TEXTSIZE
 40
3.5
  9
$TRACEWID
 40
1.0
  9
$TEXTSTYLE
  7
Standard
  9
$CLAYER
  8
0
  9
$CELTYPE
  6
ByLayer
  9
$CECOLOR
 62
   256
  9
$CELTSCALE
 40
1.0
  9
$DISPSILH
 70
     0
  9
$DIMSCALE
 40
1.0
  9
$DIMASZ
 40
3.302
  9
$DIMEXO
 40
1.0
  9
$DIMDLI
 40
3.75
  9
$DIMRND
 40
0.0
  9
$DIMDLE
 40
0.0
  9
$DIMEXE
 40
1.0
  9
$DIMTP
 40
0.0
  9
$DIMTM
 40
0.0
  9
$DIMTXT
 40
3.5
  9
$DIMCEN
 40
2.5
  9
$DIMTSZ
 40
0.0
  9
$DIMTOL
 70
     0
  9
$DIMLIM
 70
     0
  9
$DIMTIH
 70
     1
  9
$DIMTOH
 70
     1
  9
$DIMSE1
 70
     0
  9
$DIMSE2
 70
     0
  9
$DIMTAD
 70
     1
  9
$DIMZIN
 70
     0
  9
$DIMBLK
  1

  9
$DIMASO
 70
     1
  9
$DIMSHO
 70
     1
  9
$DIMPOST
  1

  9
$DIMAPOST
  1

  9
$DIMALT
 70
     0
  9
$DIMALTD
 70
     3
  9
$DIMALTF
 40
0.0393700787401575
  9
$DIMLFAC
 40
1.0
  9
$DIMTOFL
 70
     1
  9
$DIMTVP
 40
0.0
  9
$DIMTIX
 70
     0
  9
$DIMSOXD
 70
     0
  9
$DIMSAH
 70
     0
  9
$DIMBLK1
  1

  9
$DIMBLK2
  1

  9
$DIMSTYLE
  2
ISO-25
  9
$DIMCLRD
 70
     0
  9
$DIMCLRE
 70
     0
  9
$DIMCLRT
 70
     0
  9
$DIMTFAC
 40
1.0
  9
$DIMGAP
 40
1.524
  9
$DIMJUST
 70
     0
  9
$DIMSD1
 70
     0
  9
$DIMSD2
 70
     0
  9
$DIMTOLJ
 70
     0
  9
$DIMTZIN
 70
     0
  9
$DIMALTZ
 70
     0
  9
$DIMALTTZ
 70
     0
  9
$DIMUPT
 70
     0
  9
$DIMDEC
 70
     2
  9
$DIMTDEC
 70
     2
  9
$DIMALTU
 70
     2
  9
$DIMALTTD
 70
     3
  9
$DIMTXSTY
  7
Standard
  9
$DIMAUNIT
 70
     0
  9
$DIMADEC
 70
     2
  9
$DIMALTRND
 40
0.0
  9
$DIMAZIN
 70
     0
  9
$DIMDSEP
 70
    44
  9
$DIMATFIT
 70
     3
  9
$DIMFRAC
 70
     0
  9
$DIMLDRBLK
  1

  9
$DIMLUNIT
 70
     2
  9
$DIMLWD
 70
    -2
  9
$DIMLWE
 70
    -2
  9
$DIMTMOVE
 70
     0
  9
$LUNITS
 70
     2
  9
$LUPREC
 70
     2
  9
$SKETCHINC
 40
1.0
  9
$FILLETRAD
 40
10.0
  9
$AUNITS
 70
     0
  9
$AUPREC
 70
     2
  9
$MENU
  1
.
  9
$ELEVATION
 40
0.0
  9
$PELEVATION
 40
0.0
  9
$THICKNESS
 40
0.0
  9
$LIMCHECK
 70
     0
  9
$CHAMFERA
 40
0.0
  9
$CHAMFERB
 40
0.0
  9
$CHAMFERC
 40
0.0
  9
$CHAMFERD
 40
0.0
  9
$SKPOLY
 70
     0
  9
$TDCREATE
 40
2458270.683942442
  9
$TDUCREATE
 40
2458270.308942442
  9
$TDUPDATE
 40
2458274.639470857
  9
$TDUUPDATE
 40
2458274.264470857
  9
$TDINDWG
 40
0.0020672338
  9
$TDUSRTIMER
 40
2458274.262403715
  9
$USRTIMER
 70
     1
  9
$ANGBASE
 50
0.0
  9
$ANGDIR
 70
     0
  9
$PDMODE
 70
     0
  9
$PDSIZE
 40
-1.0
  9
$PLINEWID
 40
0.0
  9
$SPLFRAME
 70
     0
  9
$SPLINETYPE
 70
     6
  9
$SPLINESEGS
 70
     8
  9
$HANDSEED
  5
161
  9
$SURFTAB1
 70
     6
  9
$SURFTAB2
 70
     6
  9
$SURFTYPE
 70
     6
  9
$SURFU
 70
     6
  9
$SURFV
 70
     6
  9
$UCSBASE
  2

  9
$UCSNAME
  2

  9
$UCSORG
 10
0.0
 20
0.0
 30
0.0
  9
$UCSXDIR
 10
1.0
 20
0.0
 30
0.0
  9
$UCSYDIR
 10
0.0
 20
1.0
 30
0.0
  9
$UCSORTHOREF
  2

  9
$UCSORTHOVIEW
 70
     0
  9
$UCSORGTOP
 10
0.0
 20
0.0
 30
0.0
  9
$UCSORGBOTTOM
 10
0.0
 20
0.0
 30
0.0
  9
$UCSORGLEFT
 10
0.0
 20
0.0
 30
0.0
  9
$UCSORGRIGHT
 10
0.0
 20
0.0
 30
0.0
  9
$UCSORGFRONT
 10
0.0
 20
0.0
 30
0.0
  9
$UCSORGBACK
 10
0.0
 20
0.0
 30
0.0
  9
$PUCSBASE
  2

  9
$PUCSNAME
  2

  9
$PUCSORG
 10
0.0
 20
0.0
 30
0.0
  9
$PUCSXDIR
 10
1.0
 20
0.0
 30
0.0
  9
$PUCSYDIR
 10
0.0
 20
1.0
 30
0.0
  9
$PUCSORTHOREF
  2

  9
$PUCSORTHOVIEW
 70
     0
  9
$PUCSORGTOP
 10
0.0
 20
0.0
 30
0.0
  9
$PUCSORGBOTTOM
 10
0.0
 20
0.0
 30
0.0
  9
$PUCSORGLEFT
 10
0.0
 20
0.0
 30
0.0
  9
$PUCSORGRIGHT
 10
0.0
 20
0.0
 30
0.0
  9
$PUCSORGFRONT
 10
0.0
 20
0.0
 30
0.0
  9
$PUCSORGBACK
 10
0.0
 20
0.0
 30
0.0
  9
$USERI1
 70
     0
  9
$USERI2
 70
     0
  9
$USERI3
 70
     0
  9
$USERI4
 70
     0
  9
$USERI5
 70
     0
  9
$USERR1
 40
0.0
  9
$USERR2
 40
0.0
  9
$USERR3
 40
0.0
  9
$USERR4
 40
0.0
  9
$USERR5
 40
0.0
  9
$WORLDVIEW
 70
     1
  9
$SHADEDGE
 70
     3
  9
$SHADEDIF
 70
    70
  9
$TILEMODE
 70
     1
  9
$MAXACTVP
 70
    64
  9
$PINSBASE
 10
0.0
 20
0.0
 30
0.0
  9
$PLIMCHECK
 70
     0
  9
$PEXTMIN
 10
1.000000000000000E+20
 20
1.000000000000000E+20
 30
1.000000000000000E+20
  9
$PEXTMAX
 10
-1.000000000000000E+20
 20
-1.000000000000000E+20
 30
-1.000000000000000E+20
  9
$PLIMMIN
 10
0.0
 20
0.0
  9
$PLIMMAX
 10
0.0
 20
0.0
  9
$UNITMODE
 70
     0
  9
$VISRETAIN
 70
     1
  9
$PLINEGEN
 70
     0
  9
$PSLTSCALE
 70
     1
  9
$TREEDEPTH
 70
  3020
  9
$CMLSTYLE
  2
Standard
  9
$CMLJUST
 70
     0
  9
$CMLSCALE
 40
20.0
  9
$PROXYGRAPHICS
 70
     1
  9
$MEASUREMENT
 70
     1
  9
$CELWEIGHT
370
    -1
  9
$ENDCAPS
280
     0
  9
$JOINSTYLE
280
     0
  9
$LWDISPLAY
290
     1
  9
$INSUNITS
 70
     4
  9
$HYPERLINKBASE
  1

  9
$STYLESHEET
  1

  9
$XEDIT
290
     1
  9
$CEPSNTYPE
380
     0
  9
$PSTYLEMODE
290
     1
  9
$FINGERPRINTGUID
  2
{214D71E0-1FDE-4F1A-8548-E9D65CC8806A}
  9
$VERSIONGUID
  2
{FAEB1C32-E019-11D5-929B-00C0DF256EC4}
  9
$EXTNAMES
290
     1
  9
$PSVPSCALE
 40
0.0
  9
$OLESTARTUP
290
     0
  0
ENDSEC
  0
SECTION
  2
CLASSES
  0
CLASS
  1
ACDBDICTIONARYWDFLT
  2
AcDbDictionaryWithDefault
  3
ObjectDBX Classes
 90
        0
280
     0
281
     0
  0
CLASS
  1
VISUALSTYLE
  2
AcDbVisualStyle
  3
ObjectDBX Classes
 90
     4095
280
     0
281
     0
  0
CLASS
  1
MATERIAL
  2
AcDbMaterial
  3
ObjectDBX Classes
 90
     1153
280
     0
281
     0
  0
CLASS
  1
SCALE
  2
AcDbScale
  3
ObjectDBX Classes
 90
     1153
280
     0
281
     0
  0
CLASS
  1
SUN
  2
AcDbSun
  3
SCENEOE
 90
     1153
280
     0
281
     0
  0
CLASS
  1
ACDBPLACEHOLDER
  2
AcDbPlaceHolder
  3
ObjectDBX Classes
 90
        0
280
     0
281
     0
  0
CLASS
  1
LAYOUT
  2
AcDbLayout
  3
ObjectDBX Classes
 90
        0
280
     0
281
     0
  0
CLASS
  1
TABLESTYLE
  2
AcDbTableStyle
  3
ObjectDBX Classes
 90
     4095
280
     0
281
     0
  0
CLASS
  1
MLEADERSTYLE
  2
AcDbMLeaderStyle
  3
ACDB_MLEADERSTYLE_CLASS
 90
     4095
280
     0
281
     0
  0
CLASS
  1
RASTERVARIABLES
  2
AcDbRasterVariables
  3
ISM
 90
        0
280
     0
281
     0
  0
ENDSEC
  0
SECTION
  2
TABLES
  0
TABLE
  2
VPORT
  5
8
330
0
100
AcDbSymbolTable
 70
     1
  0
VPORT
  5
29
330
8
100
AcDbSymbolTableRecord
100
AcDbViewportTableRecord
  2
*Active
 70
     0
 10
0.0
 20
0.0
 11
1.0
 21
1.0
 12
-0.2424089831696605
 22
3.932478233621715
 13
0.0
 23
0.0
 14
10.0
 24
10.0
 15
10.0
 25
10.0
 16
0.0
 26
0.0
 36
1.0
 17
0.0
 27
0.0
 37
0.0
 40
100.4382328869515
 41
2.213513513513513
 42
50.0
 43
0.0
 44
0.0
 50
0.0
 51
0.0
 71
    16
 72
  2000
 73
     1
 74
     3
 75
     0
 76
     0
 77
     0
 78
     0
281
     0
 65
     1
110
0.0
120
0.0
130
0.0
111
1.0
121
0.0
131
0.0
112
0.0
122
1.0
132
0.0
 79
     0
146
0.0
  0
ENDTAB
  0
TABLE
  2
LTYPE
  5
5
330
0
100
AcDbSymbolTable
 70
     6
  0
LTYPE
  5
14
330
5
100
AcDbSymbolTableRecord
100
AcDbLinetypeTableRecord
  2
ByBlock
 70
     0
  3

 72
    65
 73
     0
 40
0.0
  0
LTYPE
  5
15
330
5
100
AcDbSymbolTableRecord
100
AcDbLinetypeTableRecord
  2
ByLayer
 70
     0
  3

 72
    65
 73
     0
 40
0.0
  0
LTYPE
  5
16
330
5
100
AcDbSymbolTableRecord
100
AcDbLinetypeTableRecord
  2
Continuous
 70
     0
  3
Solid line
 72
    65
 73
     0
 40
0.0
  0
LTYPE
  5
6A
330
5
100
AcDbSymbolTableRecord
100
AcDbLinetypeTableRecord
  2
HIDDEN
 70
     0
  3
Hidden __ __ __ __ __ __ __ __ __ __ __ __ __ __
 72
    65
 73
     2
 40
1.905
 49
1.27
 74
     0
 49
-0.635
 74
     0
  0
LTYPE
  5
6B
330
5
100
AcDbSymbolTableRecord
100
AcDbLinetypeTableRecord
  2
PHANTOM
 70
     0
  3
Phantom ______  __  __  ______  __  __  ______
 72
    65
 73
     6
 40
12.7
 49
6.35
 74
     0
 49
-1.27
 74
     0
 49
1.27
 74
     0
 49
-1.27
 74
     0
 49
1.27
 74
     0
 49
-1.27
 74
     0
  0
LTYPE
  5
6C
330
5
100
AcDbSymbolTableRecord
100
AcDbLinetypeTableRecord
  2
CENTER
 70
     0
  3
Center ____ _ ____ _ ____ _ ____ _ ____ _ ____
 72
    65
 73
     4
 40
10.16
 49
6.35
 74
     0
 49
-1.27
 74
     0
 49
1.27
 74
     0
 49
-1.27
 74
     0
  0
LTYPE
  5
6D
330
5
100
AcDbSymbolTableRecord
100
AcDbLinetypeTableRecord
  2
CENTERX2
 70
     0
  3
Center (2x) ________  __  ________  __  _____
 72
    65
 73
     4
 40
20.32
 49
12.7
 74
     0
 49
-2.54
 74
     0
 49
2.54
 74
     0
 49
-2.54
 74
     0
  0
LTYPE
  5
6E
330
5
100
AcDbSymbolTableRecord
100
AcDbLinetypeTableRecord
  2
DOT2
 70
     0
  3
Dot (.5x) ........................................
 72
    65
 73
     2
 40
0.635
 49
0.0
 74
     0
 49
-0.635
 74
     0
  0
ENDTAB
  0
TABLE
  2
LAYER
  5
2
330
0
100
AcDbSymbolTable
 70
    18
  0
LAYER
  5
10
330
2
100
AcDbSymbolTableRecord
100
AcDbLayerTableRecord
  2
0
 70
     0
 62
     7
  6
Continuous
370
    -3
390
F
  0
LAYER
  5
6F
330
2
100
AcDbSymbolTableRecord
100
AcDbLayerTableRecord
  2
FORMAT
 70
     0
 62
     2
  6
Continuous
370
    -3
390
F
  0
LAYER
  5
70
330
2
100
AcDbSymbolTableRecord
100
AcDbLayerTableRecord
  2
외형선
 70
     0
 62
     4
  6
Continuous
370
    30
390
F
  0
LAYER
  5
71
330
2
100
AcDbSymbolTableRecord
100
AcDbLayerTableRecord
  2
숨은선
 70
     0
 62
     2
  6
HIDDEN
370
    15
390
F
  0
LAYER
  5
72
330
2
100
AcDbSymbolTableRecord
100
AcDbLayerTableRecord
  2
중심선
 70
     0
 62
     1
  6
CENTERX2
370
    -3
390
F
  0
LAYER
  5
73
330
2
100
AcDbSymbolTableRecord
100
AcDbLayerTableRecord
  2
파단선
 70
     0
 62
     4
  6
Continuous
370
    -3
390
F
  0
LAYER
  5
74
330
2
100
AcDbSymbolTableRecord
100
AcDbLayerTableRecord
  2
해칭선
 70
     0
 62
   100
  6
Continuous
370
    -3
390
F
  0
LAYER
  5
75
330
2
100
AcDbSymbolTableRecord
100
AcDbLayerTableRecord
  2
가는실선
 70
     0
 62
     4
  6
Continuous
370
    -3
390
F
  0
LAYER
  5
76
330
2
100
AcDbSymbolTableRecord
100
AcDbLayerTableRecord
  2
치수_보조선
 70
     0
 62
     4
  6
Continuous
370
    -3
390
F
  0
LAYER
  5
77
330
2
100
AcDbSymbolTableRecord
100
AcDbLayerTableRecord
  2
치수문자_일반주서
 70
     0
 62
     7
  6
Continuous
370
    15
390
F
  0
LAYER
  5
78
330
2
100
AcDbSymbolTableRecord
100
AcDbLayerTableRecord
  2
개별주서
 70
     0
 62
   100
  6
Continuous
370
    30
390
F
  0
LAYER
  5
79
330
2
100
AcDbSymbolTableRecord
100
AcDbLayerTableRecord
  2
중간선
 70
     0
 62
     2
  6
Continuous
370
    15
390
F
  0
LAYER
  5
7A
330
2
100
AcDbSymbolTableRecord
100
AcDbLayerTableRecord
  2
윤곽선
 70
     0
 62
     3
  6
Continuous
370
    40
390
F
  0
LAYER
  5
7B
330
2
100
AcDbSymbolTableRecord
100
AcDbLayerTableRecord
  2
중심마크
 70
     0
 62
   100
  6
Continuous
370
    30
390
F
  0
LAYER
  5
7C
330
2
100
AcDbSymbolTableRecord
100
AcDbLayerTableRecord
  2
가상선
 70
     0
 62
     4
  6
PHANTOM
370
    -3
390
F
  0
LAYER
  5
7D
330
2
100
AcDbSymbolTableRecord
100
AcDbLayerTableRecord
  2
특수지정선
 70
     0
 62
     5
  6
CENTERX2
370
    60
390
F
  0
LAYER
  5
7E
330
2
100
AcDbSymbolTableRecord
100
AcDbLayerTableRecord
  2
참조1
 70
     0
 62
    -4
  6
Continuous
370
    -3
390
F
  0
LAYER
  5
155
330
2
100
AcDbSymbolTableRecord
100
AcDbLayerTableRecord
  2
Defpoints
 70
     0
 62
     7
  6
Continuous
290
     0
370
    -3
390
F
  0
ENDTAB
  0
TABLE
  2
STYLE
  5
3
330
0
100
AcDbSymbolTable
 70
     2
  0
STYLE
  5
11
330
3
100
AcDbSymbolTableRecord
100
AcDbTextStyleTableRecord
  2
Standard
 70
     0
 40
0.0
 41
1.0
 50
0.0
 71
     0
 42
3.5
  3
txt
  4

  0
STYLE
  5
94
330
3
100
AcDbSymbolTableRecord
100
AcDbTextStyleTableRecord
  2
SLDTEXTSTYLE0
 70
     0
 40
0.0
 41
0.75
 50
0.0
 71
     0
 42
3.5
  3
TXT
  4

  0
ENDTAB
  0
TABLE
  2
VIEW
  5
6
330
0
100
AcDbSymbolTable
 70
     0
  0
ENDTAB
  0
TABLE
  2
UCS
  5
7
330
0
100
AcDbSymbolTable
 70
     0
  0
ENDTAB
  0
TABLE
  2
APPID
  5
9
330
0
100
AcDbSymbolTable
 70
     1
  0
APPID
  5
12
330
9
100
AcDbSymbolTableRecord
100
AcDbRegAppTableRecord
  2
ACAD
 70
     0
  0
ENDTAB
  0
TABLE
  2
DIMSTYLE
  5
A
330
0
100
AcDbSymbolTable
 70
     3
100
AcDbDimStyleTable
  0
DIMSTYLE
105
27
330
A
100
AcDbSymbolTableRecord
100
AcDbDimStyleTableRecord
  2
ISO-25
 70
     0
 41
2.5
 42
0.625
 43
3.75
 44
1.25
 73
     0
 74
     0
 77
     1
 78
     8
140
2.5
141
2.5
143
0.03937007874016
147
0.625
171
     3
172
     1
178
     0
271
     2
272
     2
274
     3
278
    44
283
     0
284
     8
340
11
  0
DIMSTYLE
105
D0
102
{ACAD_REACTORS
330
CF
330
E4
102
}
330
A
100
AcDbSymbolTableRecord
100
AcDbDimStyleTableRecord
  2
SLDDIMSTYLE0
 70
     0
 41
3.302
 44
0.0
 45
0.000000001
 73
     0
 74
     0
 77
     1
 78
     4
 79
     1
140
3.5
143
0.0393700787401575
147
0.875
148
0.000000001
170
     1
173
     1
178
     0
271
     2
272
     2
276
     2
284
    12
340
94
  0
DIMSTYLE
105
F8
102
{ACAD_REACTORS
330
F7
330
10C
102
}
330
A
100
AcDbSymbolTableRecord
100
AcDbDimStyleTableRecord
  2
SLDDIMSTYLE1
 70
     0
 41
3.302
 44
0.0
 45
0.000000001
 73
     0
 74
     0
 77
     1
 78
    12
 79
     3
140
3.5
143
0.0393700787401575
147
0.875
148
0.000000001
170
     1
172
     1
173
     1
178
     0
271
     2
272
     2
276
     2
284
    12
289
     0
340
94
  0
ENDTAB
  0
TABLE
  2
BLOCK_RECORD
  5
1
330
0
100
AcDbSymbolTable
 70
     7
  0
BLOCK_RECORD
  5
1F
330
1
100
AcDbSymbolTableRecord
100
AcDbBlockTableRecord
  2
*Model_Space
340
22
  0
BLOCK_RECORD
  5
1B
330
1
100
AcDbSymbolTableRecord
100
AcDbBlockTableRecord
  2
*Paper_Space
340
1E
  0
BLOCK_RECORD
  5
23
330
1
100
AcDbSymbolTableRecord
100
AcDbBlockTableRecord
  2
*Paper_Space0
340
26
  0
BLOCK_RECORD
  5
7F
330
1
100
AcDbSymbolTableRecord
100
AcDbBlockTableRecord
  2
블럭10
340
0
102
{BLKREFS
331
C6
102
}
  0
BLOCK_RECORD
  5
D1
330
1
100
AcDbSymbolTableRecord
100
AcDbBlockTableRecord
  2
_D
340
0
  0
BLOCK_RECORD
  5
E5
330
1
100
AcDbSymbolTableRecord
100
AcDbBlockTableRecord
  2
_D_1
340
0
  0
BLOCK_RECORD
  5
F9
330
1
100
AcDbSymbolTableRecord
100
AcDbBlockTableRecord
  2
_D_2
340
0
  0
BLOCK_RECORD
  5
10D
330
1
100
AcDbSymbolTableRecord
100
AcDbBlockTableRecord
  2
_D_3
340
0
  0
BLOCK_RECORD
  5
127
330
1
100
AcDbSymbolTableRecord
100
AcDbBlockTableRecord
  2
SW_DOWELSYMBOL_0
340
0
102
{BLKREFS
331
12D
102
}
  0
ENDTAB
  0
ENDSEC
  0
SECTION
  2
BLOCKS
  0
BLOCK
  5
20
330
1F
100
AcDbEntity
  8
0
100
AcDbBlockBegin
  2
*Model_Space
 70
     0
 10
0.0
 20
0.0
 30
0.0
  3
*Model_Space
  1
*Model_Space
  0
ENDBLK
  5
21
330
1F
100
AcDbEntity
  8
0
100
AcDbBlockEnd
  0
BLOCK
  5
1C
330
1B
100
AcDbEntity
 67
     1
  8
0
100
AcDbBlockBegin
  2
*Paper_Space
 70
     0
 10
0.0
 20
0.0
 30
0.0
  3
*Paper_Space
  1
*Paper_Space
  0
ENDBLK
  5
1D
330
1B
100
AcDbEntity
 67
     1
  8
0
100
AcDbBlockEnd
  0
BLOCK
  5
24
330
23
100
AcDbEntity
  8
0
100
AcDbBlockBegin
  2
*Paper_Space0
 70
     0
 10
0.0
 20
0.0
 30
0.0
  3
*Paper_Space0
  1
*Paper_Space0
  0
ENDBLK
  5
25
330
23
100
AcDbEntity
  8
0
100
AcDbBlockEnd
  0
BLOCK
  5
80
330
7F
100
AcDbEntity
  8
0
100
AcDbBlockBegin
  2
블럭10
 70
     2
 10
0.0
 20
0.0
 30
0.0
  3
블럭10
  1
블럭10
  0
ELLIPSE
  5
82
330
7F
100
AcDbEntity
  8
중심선
100
AcDbEllipse
 10
20.54032771741204
 20
12.0471743016438
 30
0.0
 11
6.600054785286829
 21
-1.261213355974178E-13
 31
0.0
210
0.0
220
0.0
230
1.0
 40
0.636358354079598
 41
0.9219305317359503
 42
6.513795318482858
  0
ELLIPSE
  5
83
330
7F
100
AcDbEntity
  8
중심선
100
AcDbEllipse
 10
20.54032771746488
 20
12.04717430159265
 30
0.0
 11
3.960054785062283
 21
1.540847449632565E-10
 31
0.0
210
0.0
220
0.0
230
1.0
 40
0.3939339440162632
 41
1.131841032648279
 42
5.62031148352944
  0
LINE
  5
84
330
7F
100
AcDbEntity
  8
중심선
100
AcDbLine
 10
2.268634060543552
 20
16.24717430164393
 30
0.0
 11
5.714909304380834
 21
16.24717430164393
 31
0.0
  0
LINE
  5
85
330
7F
100
AcDbEntity
  8
중심선
100
AcDbLine
 10
5.245725140726316
 20
7.84717430164391
 30
0.0
 11
8.692000384563599
 21
7.84717430164391
 31
0.0
  0
LINE
  5
86
330
7F
100
AcDbEntity
  8
중심선
100
AcDbLine
 10
15.74043728645272
 20
16.24717430164393
 30
0.0
 11
8.692000384563599
 21
7.84717430164391
 31
0.0
  0
LINE
  5
87
330
7F
100
AcDbEntity
  8
중심선
100
AcDbLine
 10
0.1404042013395286
 20
13.71084872107135
 30
0.0
 11
3.58671253028996
 21
13.71088815037384
 31
0.0
  0
LINE
  5
88
330
7F
100
AcDbEntity
  8
중심선
100
AcDbLine
 10
2.750260043222114
 20
10.84717430164391
 30
0.0
 11
6.196535287059397
 21
10.84717430164391
 31
0.0
  0
LINE
  5
89
330
7F
100
AcDbEntity
  8
중심선
100
AcDbLine
 10
12.29416204261559
 20
16.24717430164393
 30
0.0
 11
5.245725140726316
 21
7.84717430164391
 31
0.0
  0
LINE
  5
8A
330
7F
100
AcDbEntity
  8
중심선
100
AcDbLine
 10
10.72767329541681
 20
16.24717430164393
 30
0.0
 11
6.196535287059397
 21
10.84717430164391
 31
0.0
  0
LINE
  5
8B
330
7F
100
AcDbEntity
  8
중심선
100
AcDbLine
 10
7.28139805157953
 20
16.24717430164393
 30
0.0
 11
2.750260043222114
 21
10.84717430164391
 31
0.0
  0
LINE
  5
8C
330
7F
100
AcDbEntity
  8
중심선
100
AcDbLine
 10
5.714909304380834
 20
16.24717430164393
 30
0.0
 11
3.58671253028996
 21
13.71088815037384
 31
0.0
  0
LINE
  5
8D
330
7F
100
AcDbEntity
  8
중심선
100
AcDbLine
 10
2.268634060543552
 20
16.24717430164393
 30
0.0
 11
0.1404042013395286
 21
13.71084872107135
 31
0.0
  0
LINE
  5
8E
330
7F
100
AcDbEntity
  8
중심선
100
AcDbLine
 10
7.28139805157953
 20
16.24717430164393
 30
0.0
 11
10.72767329541681
 21
16.24717430164393
 31
0.0
  0
LINE
  5
8F
330
7F
100
AcDbEntity
  8
중심선
100
AcDbLine
 10
12.29416204261559
 20
16.24717430164393
 30
0.0
 11
15.74043728645272
 21
16.24717430164393
 31
0.0
  0
LINE
  5
90
330
7F
100
AcDbEntity
  8
중심선
100
AcDbLine
 10
19.22036997980202
 20
11.08717430171403
 30
0.0
 11
23.66174974927406
 21
11.08717430171406
 31
0.0
  0
LINE
  5
91
330
7F
100
AcDbEntity
  8
중심선
100
AcDbLine
 10
19.22039502424796
 20
13.00717430171391
 30
0.0
 11
19.22036997980202
 21
11.08717430171403
 31
0.0
  0
LINE
  5
92
330
7F
100
AcDbEntity
  8
중심선
100
AcDbLine
 10
19.22039502424796
 20
13.00717430171391
 30
0.0
 11
26.96566020931264
 21
13.00717430171391
 31
0.0
  0
LINE
  5
93
330
7F
100
AcDbEntity
  8
중심선
100
AcDbLine
 10
22.22332737316547
 20
13.45928029700563
 30
0.0
 11
24.52862924686651
 21
15.39360700705356
 31
0.0
  0
ATTDEF
  5
95
330
7F
100
AcDbEntity
  8
FORMAT
 62
     2
100
AcDbText
 10
5.200277315438102
 20
2.075366912832191
 30
0.0
 40
4.233333333333333
  1
EI099008
 41
0.75
  7
SLDTEXTSTYLE0
 11
5.200277315438102
 21
-0.0412997538344756
 31
0.0
100
AcDbAttributeDefinition
  3

  2
AUTOATTR0
 70
     0
 74
     1
  0
ENDBLK
  5
81
330
7F
100
AcDbEntity
  8
0
100
AcDbBlockEnd
  0
BLOCK
  5
D2
330
D1
100
AcDbEntity
  8
0
100
AcDbBlockBegin
  2
_D
 70
     0
 10
0.0
 20
0.0
 30
0.0
  3
_D
  1
_D
  0
LINE
  5
D4
330
D1
100
AcDbEntity
  8
치수문자_일반주서
 62
     0
370
    -2
100
AcDbLine
 10
20.63602668754412
 20
1.650000000000006
 30
0.0
 11
20.63602668754412
 21
18.99892507127613
 31
0.0
  0
LINE
  5
D5
330
D1
100
AcDbEntity
  8
치수문자_일반주서
 62
     0
370
    -2
100
AcDbLine
 10
7.936026687544103
 20
1.570855474358934
 30
0.0
 11
7.936026687544103
 21
18.99892507127613
 31
0.0
  0
LINE
  5
D6
330
D1
100
AcDbEntity
  8
치수문자_일반주서
 62
     0
370
    -2
100
AcDbLine
 10
7.936026687544103
 20
18.99892507127613
 30
0.0
 11
-19.4284733124559
 21
18.99892507127613
 31
0.0
  0
LINE
  5
D7
330
D1
100
AcDbEntity
  8
치수문자_일반주서
 62
     0
370
    -2
100
AcDbLine
 10
17.33402668754412
 20
18.99892507127613
 30
0.0
 11
11.2380266875441
 21
18.99892507127613
 31
0.0
  0
SOLID
  5
D8
330
D1
100
AcDbEntity
  8
치수문자_일반주서
 62
     0
100
AcDbTrace
 10
17.33402668754412
 20
18.4485917379428
 30
0.0
 11
17.33402668754412
 21
19.54925840460946
 31
0.0
 12
20.63602668754412
 22
18.99892507127613
 32
0.0
 13
20.63602668754412
 23
18.99892507127613
 33
0.0
  0
SOLID
  5
D9
330
D1
100
AcDbEntity
  8
치수문자_일반주서
 62
     0
100
AcDbTrace
 10
11.2380266875441
 20
19.54925840460946
 30
0.0
 11
11.2380266875441
 21
18.4485917379428
 31
0.0
 12
7.936026687544103
 22
18.99892507127613
 32
0.0
 13
7.936026687544103
 23
18.99892507127613
 33
0.0
  0
MTEXT
  5
DA
330
D1
100
AcDbEntity
  8
치수문자_일반주서
 62
     0
100
AcDbMText
 10
-7.397223312455896
 20
23.37392507127613
 30
0.0
 40
3.5
 41
0.0
 71
     2
 72
     1
  1
\A1;12.70 [1/2]
  7
SLDTEXTSTYLE0
 73
     1
 44
1.0
  0
POINT
  5
DB
330
D1
100
AcDbEntity
  8
Defpoints
 62
     0
100
AcDbPoint
 10
20.63602668754412
 20
1.587500000000006
 30
0.0
  0
POINT
  5
DC
330
D1
100
AcDbEntity
  8
Defpoints
 62
     0
100
AcDbPoint
 10
7.936026687544103
 20
1.508355474358934
 30
0.0
  0
POINT
  5
DD
330
D1
100
AcDbEntity
  8
Defpoints
 62
     0
100
AcDbPoint
 10
7.936026687544103
 20
18.99892507127613
 30
0.0
  0
ENDBLK
  5
D3
330
D1
100
AcDbEntity
  8
0
100
AcDbBlockEnd
  0
BLOCK
  5
E6
330
E5
100
AcDbEntity
  8
0
100
AcDbBlockBegin
  2
_D_1
 70
     0
 10
0.0
 20
0.0
 30
0.0
  3
_D_1
  1
_D_1
  0
LINE
  5
E8
330
E5
100
AcDbEntity
  8
치수문자_일반주서
 62
     0
370
    -2
100
AcDbLine
 10
20.63602668754412
 20
1.650000000000006
 30
0.0
 11
20.63602668754412
 21
35.58750000000003
 31
0.0
  0
LINE
  5
E9
330
E5
100
AcDbEntity
  8
치수문자_일반주서
 62
     0
370
    -2
100
AcDbLine
 10
-17.46397331245587
 20
0.6499999999999947
 30
0.0
 11
-17.46397331245588
 21
35.58750000000003
 31
0.0
  0
LINE
  5
EA
330
E5
100
AcDbEntity
  8
치수문자_일반주서
 62
     0
370
    -2
100
AcDbLine
 10
17.33402668754412
 20
35.58750000000003
 30
0.0
 11
-14.16197331245588
 21
35.58750000000003
 31
0.0
  0
SOLID
  5
EB
330
E5
100
AcDbEntity
  8
치수문자_일반주서
 62
     0
100
AcDbTrace
 10
17.33402668754412
 20
35.03716666666669
 30
0.0
 11
17.33402668754412
 21
36.13783333333336
 31
0.0
 12
20.63602668754412
 22
35.58750000000003
 32
0.0
 13
20.63602668754412
 23
35.58750000000003
 33
0.0
  0
SOLID
  5
EC
330
E5
100
AcDbEntity
  8
치수문자_일반주서
 62
     0
100
AcDbTrace
 10
-14.16197331245588
 20
36.13783333333336
 30
0.0
 11
-14.16197331245588
 21
35.03716666666669
 31
0.0
 12
-17.46397331245588
 22
35.58750000000003
 32
0.0
 13
-17.46397331245588
 23
35.58750000000003
 33
0.0
  0
MTEXT
  5
ED
330
E5
100
AcDbEntity
  8
치수문자_일반주서
 62
     0
100
AcDbMText
 10
2.307204680355972
 20
39.96250000000003
 30
0.0
 40
3.5
 41
0.0
 71
     2
 72
     1
  1
\A1;38.10 [1 1/2]
  7
SLDTEXTSTYLE0
 73
     1
 44
1.0
  0
POINT
  5
EE
330
E5
100
AcDbEntity
  8
Defpoints
 62
     0
100
AcDbPoint
 10
20.63602668754412
 20
1.587500000000006
 30
0.0
  0
POINT
  5
EF
330
E5
100
AcDbEntity
  8
Defpoints
 62
     0
100
AcDbPoint
 10
-17.46397331245587
 20
0.5874999999999947
 30
0.0
  0
POINT
  5
F0
330
E5
100
AcDbEntity
  8
Defpoints
 62
     0
100
AcDbPoint
 10
-17.46397331245587
 20
35.58750000000003
 30
0.0
  0
ENDBLK
  5
E7
330
E5
100
AcDbEntity
  8
0
100
AcDbBlockEnd
  0
BLOCK
  5
FA
330
F9
100
AcDbEntity
  8
0
100
AcDbBlockBegin
  2
_D_2
 70
     0
 10
0.0
 20
0.0
 30
0.0
  3
_D_2
  1
_D_2
  0
LINE
  5
FC
330
F9
100
AcDbEntity
  8
치수문자_일반주서
 62
     0
370
    -2
100
AcDbLine
 10
-16.52647331245588
 20
1.587499999999998
 30
0.0
 11
-29.36970773958938
 21
1.587499999999949
 31
0.0
  0
LINE
  5
FD
330
F9
100
AcDbEntity
  8
치수문자_일반주서
 62
     0
370
    -2
100
AcDbLine
 10
-16.52647331245588
 20
-1.587499999999986
 30
0.0
 11
-29.36970773958937
 21
-1.587500000000034
 31
0.0
  0
LINE
  5
FE
330
F9
100
AcDbEntity
  8
치수문자_일반주서
 62
     0
370
    -2
100
AcDbLine
 10
-29.36970773958938
 20
1.587499999999949
 30
0.0
 11
-29.36970773958949
 21
32.69149999999996
 31
0.0
  0
LINE
  5
FF
330
F9
100
AcDbEntity
  8
치수문자_일반주서
 62
     0
370
    -2
100
AcDbLine
 10
-29.36970773958938
 20
1.587499999999949
 30
0.0
 11
-29.36970773958937
 21
-1.587500000000034
 31
0.0
  0
LINE
  5
100
330
F9
100
AcDbEntity
  8
치수문자_일반주서
 62
     0
370
    -2
100
AcDbLine
 10
-29.36970773958939
 20
4.889499999999948
 30
0.0
 11
-29.3697077395894
 21
8.191499999999948
 31
0.0
  0
LINE
  5
101
330
F9
100
AcDbEntity
  8
치수문자_일반주서
 62
     0
370
    -2
100
AcDbLine
 10
-29.36970773958936
 20
-4.889500000000034
 30
0.0
 11
-29.36970773958935
 21
-8.191500000000033
 31
0.0
  0
SOLID
  5
102
330
F9
100
AcDbEntity
  8
치수문자_일반주서
 62
     0
100
AcDbTrace
 10
-29.92004107292273
 20
4.889499999999947
 30
0.0
 11
-28.81937440625606
 21
4.88949999999995
 31
0.0
 12
-29.36970773958938
 22
1.587499999999949
 32
0.0
 13
-29.36970773958938
 23
1.587499999999949
 33
0.0
  0
SOLID
  5
103
330
F9
100
AcDbEntity
  8
치수문자_일반주서
 62
     0
100
AcDbTrace
 10
-28.81937440625602
 20
-4.889500000000032
 30
0.0
 11
-29.92004107292269
 21
-4.889500000000035
 31
0.0
 12
-29.36970773958937
 22
-1.587500000000034
 32
0.0
 13
-29.36970773958937
 23
-1.587500000000034
 33
0.0
  0
MTEXT
  5
104
330
F9
100
AcDbEntity
  8
치수문자_일반주서
 62
     0
100
AcDbMText
 10
-33.74470773958944
 20
20.44149999999994
 30
0.0
 40
3.5
 41
0.0
 71
     2
 72
     1
  1
\A1;%%c3.18 [1/8]
  7
SLDTEXTSTYLE0
 11
-3.356894814614664E-15
 21
1.0
 31
0.0
 73
     1
 44
1.0
  0
POINT
  5
15B
330
F9
100
AcDbEntity
  8
Defpoints
 62
     0
100
AcDbPoint
 10
-16.46397331245588
 20
1.587499999999998
 30
0.0
  0
POINT
  5
15C
330
F9
100
AcDbEntity
  8
Defpoints
 62
     0
100
AcDbPoint
 10
-16.46397331245588
 20
-1.587499999999985
 30
0.0
  0
POINT
  5
15D
330
F9
100
AcDbEntity
  8
Defpoints
 62
     0
100
AcDbPoint
 10
-29.36970773958937
 20
-1.587500000000034
 30
0.0
  0
ENDBLK
  5
FB
330
F9
100
AcDbEntity
  8
0
100
AcDbBlockEnd
  0
BLOCK
  5
10E
330
10D
100
AcDbEntity
  8
0
100
AcDbBlockBegin
  2
_D_3
 70
     0
 10
0.0
 20
0.0
 30
0.0
  3
_D_3
  1
_D_3
  0
LINE
  5
110
330
10D
100
AcDbEntity
  8
치수문자_일반주서
 62
     0
370
    -2
100
AcDbLine
 10
20.69852668754412
 20
1.587500000000006
 30
0.0
 11
34.82310184995676
 21
1.587500000000059
 31
0.0
  0
LINE
  5
111
330
10D
100
AcDbEntity
  8
치수문자_일반주서
 62
     0
370
    -2
100
AcDbLine
 10
20.69852668754412
 20
-1.587499999999993
 30
0.0
 11
34.82310184995677
 21
-1.587499999999942
 31
0.0
  0
LINE
  5
112
330
10D
100
AcDbEntity
  8
치수문자_일반주서
 62
     0
370
    -2
100
AcDbLine
 10
34.82310184995676
 20
1.587500000000059
 30
0.0
 11
34.82310184995661
 21
32.69150000000008
 31
0.0
  0
LINE
  5
113
330
10D
100
AcDbEntity
  8
치수문자_일반주서
 62
     0
370
    -2
100
AcDbLine
 10
34.82310184995676
 20
1.587500000000059
 30
0.0
 11
34.82310184995677
 21
-1.587499999999942
 31
0.0
  0
LINE
  5
114
330
10D
100
AcDbEntity
  8
치수문자_일반주서
 62
     0
370
    -2
100
AcDbLine
 10
34.82310184995674
 20
4.889500000000059
 30
0.0
 11
34.82310184995673
 21
8.191500000000058
 31
0.0
  0
LINE
  5
115
330
10D
100
AcDbEntity
  8
치수문자_일반주서
 62
     0
370
    -2
100
AcDbLine
 10
34.82310184995679
 20
-4.889499999999941
 30
0.0
 11
34.8231018499568
 21
-8.191499999999941
 31
0.0
  0
SOLID
  5
116
330
10D
100
AcDbEntity
  8
치수문자_일반주서
 62
     0
100
AcDbTrace
 10
34.27276851662341
 20
4.889500000000056
 30
0.0
 11
35.37343518329008
 21
4.889500000000061
 31
0.0
 12
34.82310184995676
 22
1.587500000000059
 32
0.0
 13
34.82310184995676
 23
1.587500000000059
 33
0.0
  0
SOLID
  5
117
330
10D
100
AcDbEntity
  8
치수문자_일반주서
 62
     0
100
AcDbTrace
 10
35.37343518329012
 20
-4.889499999999939
 30
0.0
 11
34.27276851662345
 21
-4.889499999999944
 31
0.0
 12
34.82310184995677
 22
-1.587499999999942
 32
0.0
 13
34.82310184995677
 23
-1.587499999999942
 33
0.0
  0
MTEXT
  5
118
330
10D
100
AcDbEntity
  8
치수문자_일반주서
 62
     0
100
AcDbMText
 10
30.44810184995667
 20
20.44150000000005
 30
0.0
 40
3.5
 41
0.0
 71
     2
 72
     1
  1
\A1;%%c3.18 [1/8]
  7
SLDTEXTSTYLE0
 11
-4.475859752819529E-15
 21
1.0
 31
0.0
 73
     1
 44
1.0
  0
POINT
  5
119
330
10D
100
AcDbEntity
  8
Defpoints
 62
     0
100
AcDbPoint
 10
20.63602668754412
 20
1.587500000000006
 30
0.0
  0
POINT
  5
11A
330
10D
100
AcDbEntity
  8
Defpoints
 62
     0
100
AcDbPoint
 10
20.63602668754412
 20
-1.587499999999994
 30
0.0
  0
POINT
  5
11B
330
10D
100
AcDbEntity
  8
Defpoints
 62
     0
100
AcDbPoint
 10
34.82310184995677
 20
-1.587499999999941
 30
0.0
  0
ENDBLK
  5
10F
330
10D
100
AcDbEntity
  8
0
100
AcDbBlockEnd
  0
BLOCK
  5
128
330
127
100
AcDbEntity
  8
0
100
AcDbBlockBegin
  2
SW_DOWELSYMBOL_0
 70
     0
 10
0.0
 20
0.0
 30
0.0
  3
SW_DOWELSYMBOL_0
  1
SW_DOWELSYMBOL_0
  0
CIRCLE
  5
12A
330
127
100
AcDbEntity
  8
해칭선
 62
     0
100
AcDbCircle
 10
0.0
 20
0.0
 30
0.0
 40
3.000000000000001
  0
HATCH
  5
12B
330
127
100
AcDbEntity
  8
0
  6
Continuous
 62
     0
370
     0
100
AcDbHatch
 10
0.0
 20
0.0
 30
0.0
210
0.0
220
0.0
230
1.0
  2
SOLID
 70
     1
 71
     0
 91
        1
 92
        0
 93
        3
 72
     2
 10
-0.0000000000000069
 20
0.0
 40
3.000000000000001
 50
0.0
 51
90.0
 73
     1
 72
     1
 10
-0.0000000000000069
 20
3.000000000000001
 11
-0.0000000000000069
 21
0.0
 72
     1
 10
-0.0000000000000069
 20
0.0
 11
2.999999999999994
 21
0.0
 97
        0
 75
     0
 76
     1
 98
        1
 10
0.0
 20
0.0
  0
HATCH
  5
12C
330
127
100
AcDbEntity
  8
0
  6
Continuous
 62
     0
370
     0
100
AcDbHatch
 10
0.0
 20
0.0
 30
0.0
210
0.0
220
0.0
230
1.0
  2
SOLID
 70
     1
 71
     0
 91
        1
 92
        0
 93
        3
 72
     2
 10
-0.0000000000000069
 20
0.0
 40
3.000000000000001
 50
180.0
 51
270.0000000000008
 73
     1
 72
     1
 10
-0.0000000000000069
 20
-3.000000000000001
 11
-0.0000000000000069
 21
0.0
 72
     1
 10
-0.0000000000000069
 20
0.0
 11
-3.000000000000008
 21
0.0
 97
        0
 75
     0
 76
     1
 98
        1
 10
0.0
 20
0.0
  0
ENDBLK
  5
129
330
127
100
AcDbEntity
  8
0
100
AcDbBlockEnd
  0
ENDSEC
  0
SECTION
  2
ENTITIES
  0
LINE
  5
96
330
1F
100
AcDbEntity
  8
외형선
  6
Continuous
370
    15
100
AcDbLine
 10
7.046073193169287
 20
1.587500000000006
 30
0.0
 11
-16.46397331245588
 21
1.587500000000003
 31
0.0
  0
LINE
  5
97
330
1F
100
AcDbEntity
  8
외형선
  6
Continuous
370
    15
100
AcDbLine
 10
7.936026687544114
 20
1.587500000000006
 30
0.0
 11
7.26706087239851
 21
1.587500000000006
 31
0.0
  0
LINE
  5
98
330
1F
100
AcDbEntity
  8
외형선
  6
Continuous
370
    15
100
AcDbLine
 10
7.267060872398531
 20
-1.587499999999994
 30
0.0
 11
7.936026687544114
 21
-1.587499999999994
 31
0.0
  0
LINE
  5
99
330
1F
100
AcDbEntity
  8
외형선
  6
Continuous
370
    15
100
AcDbLine
 10
-16.46397331245588
 20
-1.587499999999997
 30
0.0
 11
7.046073193169287
 21
-1.587499999999994
 31
0.0
  0
LINE
  5
9A
330
1F
100
AcDbEntity
  8
외형선
  6
Continuous
370
    15
100
AcDbLine
 10
-16.46397331245588
 20
1.587500000000003
 30
0.0
 11
-17.46397331245589
 21
0.5875000000000024
 31
0.0
  0
LINE
  5
9B
330
1F
100
AcDbEntity
  8
외형선
  6
Continuous
370
    15
100
AcDbLine
 10
-17.46397331245589
 20
-0.5874999999999972
 30
0.0
 11
-16.46397331245588
 21
-1.587499999999997
 31
0.0
  0
LINE
  5
9C
330
1F
100
AcDbEntity
  8
외형선
  6
Continuous
 62
     1
370
    15
100
AcDbLine
 10
7.936026687544114
 20
-1.587499999999994
 30
0.0
 11
9.186233331669957
 21
-1.587499999999994
 31
0.0
  0
LINE
  5
9D
330
1F
100
AcDbEntity
  8
외형선
  6
Continuous
 62
     1
370
    15
100
AcDbLine
 10
15.80442749718067
 20
1.587500000000006
 30
0.0
 11
13.88614532270225
 21
1.587500000000006
 31
0.0
  0
LINE
  5
9E
330
1F
100
AcDbEntity
  8
외형선
  6
Continuous
 62
     1
370
    15
100
AcDbLine
 10
13.88614532270226
 20
-1.587499999999994
 30
0.0
 11
15.80424665678731
 21
-1.587499999999994
 31
0.0
  0
LINE
  5
9F
330
1F
100
AcDbEntity
  8
외형선
  6
Continuous
 62
     1
370
    15
100
AcDbLine
 10
9.185713441365102
 20
1.587500000000006
 30
0.0
 11
7.936026687544114
 21
1.587500000000006
 31
0.0
  0
ARC
  5
A0
330
1F
100
AcDbEntity
  8
외형선
  6
Continuous
 62
     1
370
    15
100
AcDbCircle
 10
19.04852668754412
 20
0.0000000000000061
 30
0.0
 40
1.587499999999999
100
AcDbArc
 50
323.1121024600792
 51
0.0
  0
ARC
  5
A1
330
1F
100
AcDbEntity
  8
외형선
  6
Continuous
 62
     1
370
    15
100
AcDbCircle
 10
19.04852668754412
 20
0.0000000000000061
 30
0.0
 40
1.587499999999999
100
AcDbArc
 50
0.0
 51
36.84629052120798
  0
SPLINE
  5
A2
330
1F
100
AcDbEntity
  8
외형선
  6
Continuous
370
    15
100
AcDbSpline
210
0.0
220
0.0
230
1.0
 70
     8
 71
     3
 72
    10
 73
     6
 74
     0
 42
0.000000001
 43
0.00000001
 40
0.0
 40
0.0
 40
0.0
 40
0.0
 40
0.5
 40
0.5
 40
1.0
 40
1.0
 40
1.0
 40
1.0
 10
7.936026687544114
 20
1.508355474358924
 30
0.0
 10
7.787425275795719
 20
1.543205647517346
 30
0.0
 10
7.636942067199829
 20
1.566859560081774
 30
0.0
 10
7.342163496845066
 20
1.590395687629571
 30
0.0
 10
7.195344266187284
 20
1.590485263779593
 30
0.0
 10
7.046034265488188
 20
1.578743782418142
 30
0.0
  0
LINE
  5
A3
330
1F
100
AcDbEntity
  8
외형선
  6
Continuous
370
    15
100
AcDbLine
 10
7.04607319316929
 20
-0.8365804568605416
 30
0.0
 11
7.046073193169287
 21
1.587500000000006
 31
0.0
  0
SPLINE
  5
A4
330
1F
100
AcDbEntity
  8
외형선
  6
Continuous
370
    15
100
AcDbSpline
210
0.0
220
0.0
230
1.0
 70
     8
 71
     3
 72
    10
 73
     6
 74
     0
 42
0.000000001
 43
0.00000001
 40
0.0
 40
0.0
 40
0.0
 40
0.0
 40
0.5
 40
0.5
 40
1.0
 40
1.0
 40
1.0
 40
1.0
 10
7.936026687544118
 20
-1.315902793916284
 30
0.0
 10
7.787431732952959
 20
-1.253385296690112
 30
0.0
 10
7.63695514326812
 20
-1.180718717826322
 30
0.0
 10
7.342188847732771
 20
-1.020041185374862
 30
0.0
 10
7.195376677925854
 20
-0.9316732228686986
 30
0.0
 10
7.04607319316929
 20
-0.8365355032273653
 30
0.0
  0
LINE
  5
A5
330
1F
100
AcDbEntity
  8
외형선
  6
Continuous
370
    15
100
AcDbLine
 10
7.936026687544114
 20
-1.315902793916383
 30
0.0
 11
7.936026687544114
 21
-1.587499999999994
 31
0.0
  0
LINE
  5
A6
330
1F
100
AcDbEntity
  8
외형선
  6
Continuous
370
    15
100
AcDbLine
 10
7.046034265488188
 20
-1.578743782418129
 30
0.0
 11
7.267060872398524
 21
-1.578685895020041
 31
0.0
  0
LINE
  5
A7
330
1F
100
AcDbEntity
  8
외형선
  6
Continuous
370
    15
100
AcDbLine
 10
7.046073193169287
 20
-1.587499999999994
 30
0.0
 11
7.046073193169287
 21
-1.578735548852291
 31
0.0
  0
LINE
  5
A8
330
1F
100
AcDbEntity
  8
외형선
  6
Continuous
370
    15
100
AcDbLine
 10
7.936026687544114
 20
1.587500000000006
 30
0.0
 11
7.936026687544114
 21
1.50835547435571
 31
0.0
  0
LINE
  5
A9
330
1F
100
AcDbEntity
  8
외형선
  6
Continuous
370
    15
100
AcDbLine
 10
-16.46397331245588
 20
1.587500000000003
 30
0.0
 11
-16.46397331245588
 21
-1.587499999999998
 31
0.0
  0
LINE
  5
AA
330
1F
100
AcDbEntity
  8
외형선
  6
Continuous
370
    15
100
AcDbLine
 10
-17.46397331245589
 20
0.5875000000000029
 30
0.0
 11
-17.46397331245589
 21
-0.5874999999999972
 31
0.0
  0
SPLINE
  5
AB
330
1F
100
AcDbEntity
  8
외형선
  6
Continuous
370
    15
100
AcDbSpline
210
0.0
220
0.0
230
1.0
 70
    24
 71
     3
 72
    14
 73
    10
 74
     0
 42
0.000000001
 43
0.00000001
 40
0.0
 40
0.0
 40
0.0
 40
0.0
 40
0.2499999999999999
 40
0.2499999999999999
 40
0.5
 40
0.5
 40
0.75
 40
0.75
 40
1.0
 40
1.0
 40
1.0
 40
1.0
 10
7.936026687544114
 20
0.0992451337499787
 30
0.0
 10
7.936026687544114
 20
0.0087122372365634
 30
0.0
 10
7.936026687544114
 20
-0.0942996589039862
 30
0.0
 10
7.936026687544114
 20
-0.3216798623697821
 30
0.0
 10
7.936026687544114
 20
-0.446111549177086
 30
0.0
 10
7.936026687544114
 20
-0.7037413688422731
 30
0.0
 10
7.936026687544114
 20
-0.8367672653558416
 30
0.0
 10
7.936026687544114
 20
-1.090800905013652
 30
0.0
 10
7.936026687544114
 20
-1.211437571485416
 30
0.0
 10
7.936026687544114
 20
-1.315902793904194
 30
0.0
  0
SPLINE
  5
AC
330
1F
100
AcDbEntity
  8
외형선
  6
Continuous
370
    15
100
AcDbSpline
210
0.0
220
0.0
230
1.0
 70
     8
 71
     3
 72
    10
 73
     6
 74
     0
 42
0.000000001
 43
0.00000001
 40
0.0
 40
0.0
 40
0.0
 40
0.0
 40
0.5
 40
0.5
 40
1.0
 40
1.0
 40
1.0
 40
1.0
 10
7.936026687542046
 20
0.0992451337506772
 30
0.0
 10
7.787431732951214
 20
0.1494554875751976
 30
0.0
 10
7.636955143266738
 20
0.1991263335852378
 30
0.0
 10
7.342188847732105
 20
0.2941232468777834
 30
0.0
 10
7.195376677925495
 20
0.3397403399121137
 30
0.0
 10
7.046073193169288
 20
0.3827479230395718
 30
0.0
  0
SPLINE
  5
AD
330
1F
100
AcDbEntity
  8
외형선
  6
Continuous
370
    15
100
AcDbSpline
210
0.0
220
0.0
230
1.0
 70
    24
 71
     3
 72
    14
 73
    10
 74
     0
 42
0.000000001
 43
0.00000001
 40
0.0
 40
0.0
 40
0.0
 40
0.0
 40
0.25
 40
0.25
 40
0.5
 40
0.5
 40
0.75
 40
0.75
 40
1.0
 40
1.0
 40
1.0
 40
1.0
 10
7.936026687544114
 20
1.50835547433778
 30
0.0
 10
7.936026687544114
 20
1.382896333909204
 30
0.0
 10
7.936026687544116
 20
1.24649203142149
 30
0.0
 10
7.936026687544116
 20
0.973498910814346
 30
0.0
 10
7.936026687544116
 20
0.8372619518731239
 30
0.0
 10
7.936026687544116
 20
0.5841188715733192
 30
0.0
 10
7.936026687544114
 20
0.4673075861363137
 30
0.0
 10
7.936026687544116
 20
0.2621512505050875
 30
0.0
 10
7.936026687544114
 20
0.173684704428005
 30
0.0
 10
7.936026687544116
 20
0.0992451337499781
 30
0.0
  0
SPLINE
  5
AE
330
1F
100
AcDbEntity
  8
외형선
  6
Continuous
 62
     1
370
    15
100
AcDbSpline
210
0.0
220
0.0
230
1.0
 70
     8
 71
     3
 72
    19
 73
    15
 74
     0
 42
0.000000001
 43
0.00000001
 40
0.0738894392106099
 40
0.0738894392106099
 40
0.0738894392106099
 40
0.0738894392106099
 40
0.1411902870315719
 40
0.2258627701073783
 40
0.3106450446050668
 40
0.3957184634251222
 40
0.4806062942965078
 40
0.5652945427489249
 40
0.6500125608820727
 40
0.7349887705360184
 40
0.8199980379769647
 40
0.904729932008378
 40
0.98941146061623
 40
1.0
 40
1.0
 40
1.0
 40
1.0
 10
17.68701357644841
 20
-0.7036215486905737
 30
0.0
 10
17.53728496375825
 20
-0.6931948011663716
 30
0.0
 10
17.19922800541427
 20
-0.6526550933421331
 30
0.0
 10
16.67260703960626
 20
-0.5561208784405175
 30
0.0
 10
16.10642597942946
 20
-0.410371676493716
 30
0.0
 10
15.53951151729847
 20
-0.2361866733173896
 30
0.0
 10
14.97298156571358
 20
-0.0445224937511507
 30
0.0
 10
14.4073489926983
 20
0.1503304020729919
 30
0.0
 10
13.84151705382029
 20
0.3345320302233222
 30
0.0
 10
13.27478538856047
 20
0.4940726338932125
 30
0.0
 10
12.70799426190681
 20
0.619524187313252
 30
0.0
 10
12.14206008508801
 20
0.6956035398988482
 30
0.0
 10
11.74170412431133
 20
0.727464914744317
 30
0.0
 10
11.52975137093043
 20
0.7181963366399493
 30
0.0
 10
11.50619444351363
 20
0.7171662050744058
 30
0.0
  0
SPLINE
  5
AF
330
1F
100
AcDbEntity
  8
외형선
  6
Continuous
 62
     1
370
    15
100
AcDbSpline
210
0.0
220
0.0
230
1.0
 70
     8
 71
     3
 72
    17
 73
    13
 74
     0
 42
0.000000001
 43
0.00000001
 40
0.0
 40
0.0
 40
0.0
 40
0.0
 40
0.0434100290209018
 40
0.1085500233668296
 40
0.1733458469681332
 40
0.2382373797693493
 40
0.3033665231657092
 40
0.3681530571377833
 40
0.4330668896523356
 40
0.4981816014167315
 40
0.5629607013244419
 40
0.6018118008421772
 40
0.6018118008421772
 40
0.6018118008421772
 40
0.6018118008421772
 10
11.57429385393015
 20
0.7198331281907845
 30
0.0
 10
11.68236595482751
 20
0.7925392996731245
 30
0.0
 10
11.95260832375248
 20
0.9743465177590799
 30
0.0
 10
12.3854104797218
 20
1.210627906522944
 30
0.0
 10
12.87007451392004
 20
1.419536510547557
 30
0.0
 10
13.35521304891664
 20
1.551191487039715
 30
0.0
 10
13.84146480334076
 20
1.601239809365685
 30
0.0
 10
14.32610860162857
 20
1.566683181666589
 30
0.0
 10
14.81134650584763
 20
1.449136640318395
 30
0.0
 10
15.2975318484596
 20
1.255868816647455
 30
0.0
 10
15.7172565906134
 20
1.029845616216244
 30
0.0
 10
15.97535109453649
 20
0.8689365558649863
 30
0.0
 10
16.07215779436608
 20
0.8061173860017946
 30
0.0
  0
SPLINE
  5
B1
330
1F
100
AcDbEntity
  8
외형선
  6
Continuous
 62
     1
370
    15
100
AcDbSpline
210
0.0
220
0.0
230
1.0
 70
     8
 71
     3
 72
    11
 73
     7
 74
     0
 42
0.000000001
 43
0.00000001
 40
0.0
 40
0.0
 40
0.0
 40
0.0
 40
0.3105541128347803
 40
0.6211593155387455
 40
0.8859626717899599
 40
1.0
 40
1.0
 40
1.0
 40
1.0
 10
20.26703858478001
 20
0.3872650206092107
 30
0.0
 10
20.04558487877006
 20
0.4475738483724044
 30
0.0
 10
19.6026410349645
 20
0.5682014254229119
 30
0.0
 10
18.97082170682633
 20
0.673701959105327
 30
0.0
 10
18.47924698028952
 20
0.7216391431669241
 30
0.0
 10
18.2090480875116
 20
0.7154869953466882
 30
0.0
 10
18.12771374016841
 20
0.7136350968338064
 30
0.0
  0
SPLINE
  5
B2
330
1F
100
AcDbEntity
  8
외형선
  6
Continuous
 62
     1
370
    15
100
AcDbSpline
210
0.0
220
0.0
230
1.0
 70
     8
 71
     3
 72
    14
 73
    10
 74
     0
 42
0.000000001
 43
0.00000001
 40
0.0
 40
0.0
 40
0.0
 40
0.0
 40
0.1549577686112835
 40
0.3110311963576937
 40
0.466590073735111
 40
0.6219099191763452
 40
0.7774123229596105
 40
0.8892253512487672
 40
1.0
 40
1.0
 40
1.0
 40
1.0
 10
11.57429385393015
 20
-0.7198331281907718
 30
0.0
 10
11.38637085188081
 20
-0.7160285660751146
 30
0.0
 10
11.00917184679473
 20
-0.7083920499000624
 30
0.0
 10
10.44308932451553
 20
-0.6324711273511041
 30
0.0
 10
9.876828953802246
 20
-0.5145515634472668
 30
0.0
 10
9.311285075337235
 20
-0.3587383263500331
 30
0.0
 10
8.798820054057447
 20
-0.1943013962725387
 30
0.0
 10
8.340045353414464
 20
-0.0393184863553522
 30
0.0
 10
8.070280087937936
 20
0.0532011294960068
 30
0.0
 10
7.936026687544063
 20
0.099245133749996
 30
0.0
  0
SPLINE
  5
B3
330
1F
100
AcDbEntity
  8
외형선
  6
Continuous
370
    15
100
AcDbSpline
210
0.0
220
0.0
230
1.0
 70
    24
 71
     3
 72
    14
 73
    10
 74
     0
 42
0.000000001
 43
0.00000001
 40
0.0
 40
0.0
 40
0.0
 40
0.0
 40
0.25
 40
0.25
 40
0.5
 40
0.5
 40
0.75
 40
0.75
 40
1.0
 40
1.0
 40
1.0
 40
1.0
 10
7.936026687544114
 20
1.508355474338183
 30
0.0
 10
7.936026687544114
 20
1.382896333909596
 30
0.0
 10
7.936026687544114
 20
1.246492031421855
 30
0.0
 10
7.936026687544114
 20
0.9734989108146378
 30
0.0
 10
7.936026687544114
 20
0.83726195187337
 30
0.0
 10
7.936026687544116
 20
0.5841188715734781
 30
0.0
 10
7.936026687544114
 20
0.4673075861364306
 30
0.0
 10
7.936026687544116
 20
0.262151250505135
 30
0.0
 10
7.936026687544114
 20
0.1736847044280249
 30
0.0
 10
7.936026687544116
 20
0.0992451337499781
 30
0.0
  0
SPLINE
  5
B4
330
1F
100
AcDbEntity
  8
외형선
  6
Continuous
 62
     1
370
    15
100
AcDbSpline
210
0.0
220
0.0
230
1.0
 70
     8
 71
     3
 72
    20
 73
    16
 74
     0
 42
0.000000001
 43
0.00000001
 40
0.0
 40
0.0
 40
0.0
 40
0.0
 40
0.084121122784272
 40
0.1683978051239984
 40
0.2529457803234385
 40
0.3370907055325977
 40
0.4213099693778885
 40
0.5031443957315136
 40
0.5845513620936558
 40
0.666038846915408
 40
0.7478641442247389
 40
0.8292571130730861
 40
0.910770306582438
 40
0.9925819735225401
 40
1.0
 40
1.0
 40
1.0
 40
1.0
 10
7.936026687544116
 20
1.508355474355841
 30
0.0
 10
8.10274571797009
 20
1.460844055812067
 30
0.0
 10
8.436492081153252
 20
1.365733359041921
 30
0.0
 10
8.93797406409102
 20
1.122927958212528
 30
0.0
 10
9.440598681374535
 20
0.8240001709755231
 30
0.0
 10
9.941631617853522
 20
0.475424922816192
 30
0.0
 10
10.43752609529707
 20
0.1046210400341543
 30
0.0
 10
10.9293096994391
 20
-0.2658879987231761
 30
0.0
 10
11.41405428875471
 20
-0.6203044243071874
 30
0.0
 10
11.89908987561561
 20
-0.9415517357288695
 30
0.0
 10
12.38538954403739
 20
-1.211205119814867
 30
0.0
 10
12.87009392643997
 20
-1.420746322577687
 30
0.0
 10
13.35515610826934
 20
-1.545755466724779
 30
0.0
 10
13.69462192455288
 20
-1.598820591452405
 30
0.0
 10
13.87144527970002
 20
-1.585163717117978
 30
0.0
 10
13.88614532270226
 20
-1.584028365739619
 30
0.0
  0
SPLINE
  5
B7
330
1F
100
AcDbEntity
  8
외형선
  6
Continuous
 62
     1
370
    15
100
AcDbSpline
210
0.0
220
0.0
230
1.0
 70
     8
 71
     3
 72
     8
 73
     4
 74
     0
 42
0.000000001
 43
0.00000001
 40
0.0
 40
0.0
 40
0.0
 40
0.0
 40
1.0
 40
1.0
 40
1.0
 40
1.0
 10
20.49396454169206
 20
0.3947168731829258
 30
0.0
 10
20.41884332968316
 20
0.3844347310332343
 30
0.0
 10
20.34315614342363
 20
0.3826276253252381
 30
0.0
 10
20.26703858478231
 20
0.387265020608552
 30
0.0
  0
SPLINE
  5
B8
330
1F
100
AcDbEntity
  8
외형선
  6
Continuous
 62
     1
370
    15
100
AcDbSpline
210
0.0
220
0.0
230
1.0
 70
     8
 71
     3
 72
    37
 73
    33
 74
     0
 42
0.000000001
 43
0.00000001
 40
0.0297996273191565
 40
0.0297996273191565
 40
0.0297996273191565
 40
0.0297996273191565
 40
0.035955256205111
 40
0.0915174111513073
 40
0.1196673056752515
 40
0.1522515118777382
 40
0.1850637645003141
 40
0.2185884614593324
 40
0.2523609060452675
 40
0.2849636117526411
 40
0.3177948191894472
 40
0.3513333096953988
 40
0.3851203823020098
 40
0.4177189642150537
 40
0.4505455416683
 40
0.4840839122222487
 40
0.5178712281184897
 40
0.5504864069226457
 40
0.5833296583874245
 40
0.6158091239746158
 40
0.64851445766472
 40
0.6809631063652141
 40
0.7138676859072248
 40
0.7470064716840557
 40
0.780620987919964
 40
0.8132402851237689
 40
0.8460886375859274
 40
0.8796525180666404
 40
0.9134649925850283
 40
0.946060664748053
 40
0.9788845952857583
 40
1.0
 40
1.0
 40
1.0
 40
1.0
 10
17.86305945831823
 20
-0.8877576836248368
 30
0.0
 10
17.84469546479655
 20
-0.8991255283019829
 30
0.0
 10
17.66059565504475
 20
-1.012067973568171
 30
0.0
 10
17.39295887749927
 20
-1.164160652549669
 30
0.0
 10
17.04555201619089
 20
-1.322850738754964
 30
0.0
 10
16.76781057051328
 20
-1.429526304657689
 30
0.0
 10
16.47172273916441
 20
-1.513102637246942
 30
0.0
 10
16.17413898637544
 20
-1.568598437955427
 30
0.0
 10
15.87607024337902
 20
-1.591780488589878
 30
0.0
 10
15.57970269745138
 20
-1.583727077941546
 30
0.0
 10
15.28579719661851
 20
-1.544433613988133
 30
0.0
 10
14.98597458632756
 20
-1.474690110519388
 30
0.0
 10
14.68906644289581
 20
-1.374359851988704
 30
0.0
 10
14.39292148968031
 20
-1.24828055199717
 30
0.0
 10
14.09737501546695
 20
-1.098687257122556
 30
0.0
 10
13.79989102199704
 20
-0.9236350991396203
 30
0.0
 10
13.50069762066457
 20
-0.7328574989711564
 30
0.0
 10
13.20589560099083
 20
-0.526327682275247
 30
0.0
 10
12.91345727540553
 20
-0.3141798295718351
 30
0.0
 10
12.62077648022265
 20
-0.0958713695489061
 30
0.0
 10
12.33075367621764
 20
0.1253739711557539
 30
0.0
 10
12.03723483518583
 20
0.3422281333329519
 30
0.0
 10
11.74460851491933
 20
0.5563085511076084
 30
0.0
 10
11.44710238784265
 20
0.7600964664806323
 30
0.0
 10
11.15037607036505
 20
0.9483131627184294
 30
0.0
 10
10.85604043348972
 20
1.118702625432255
 30
0.0
 10
10.55959401521197
 20
1.265232466786964
 30
0.0
 10
10.26188122128358
 20
1.390111448421917
 30
0.0
 10
9.96330522005989
 20
1.485686569939216
 30
0.0
 10
9.667142798499258
 20
1.550301400233826
 30
0.0
 10
9.40997059935688
 20
1.584691949196345
 30
0.0
 10
9.248804468703218
 20
1.584030393262573
 30
0.0
 10
9.185713441365102
 20
1.583771416743536
 30
0.0
  0
SPLINE
  5
B9
330
1F
100
AcDbEntity
  8
외형선
  6
Continuous
 62
     1
370
    15
100
AcDbSpline
210
0.0
220
0.0
230
1.0
 70
     8
 71
     3
 72
     8
 73
     4
 74
     0
 42
0.000000001
 43
0.00000001
 40
0.0
 40
0.0
 40
0.0
 40
0.0
 40
1.0
 40
1.0
 40
1.0
 40
1.0
 10
20.26905575059116
 20
0.3500374011467864
 30
0.0
 10
20.33773390831228
 20
0.3274940555685264
 30
0.0
 10
20.40650242944442
 20
0.3045003211305092
 30
0.0
 10
20.47536078893391
 20
0.2810588148021119
 30
0.0
  0
SPLINE
  5
BA
330
1F
100
AcDbEntity
  8
외형선
  6
Continuous
 62
     1
370
    15
100
AcDbSpline
210
0.0
220
0.0
230
1.0
 70
     8
 71
     3
 72
    22
 73
    18
 74
     0
 42
0.000000001
 43
0.00000001
 40
0.0
 40
0.0
 40
0.0
 40
0.0
 40
0.1250000000000001
 40
0.1250000000000001
 40
0.2500000000000001
 40
0.2500000000000001
 40
0.3750000000000002
 40
0.3750000000000002
 40
0.5000000000000002
 40
0.5000000000000002
 40
0.6250000000000002
 40
0.6250000000000002
 40
0.7500000000000002
 40
0.7500000000000002
 40
0.8750000000000001
 40
0.8750000000000001
 40
1.0
 40
1.0
 40
1.0
 40
1.0
 10
19.04852668754412
 20
0.0494338240661281
 30
0.0
 10
19.13255929148504
 20
-0.0139846271310808
 30
0.0
 10
19.21443871684798
 20
-0.0776785668739591
 30
0.0
 10
19.37827802046905
 20
-0.1998863238024839
 30
0.0
 10
19.46098228892289
 20
-0.2593145426929032
 30
0.0
 10
19.62387523223477
 20
-0.3653756814821303
 30
0.0
 10
19.70379371440762
 20
-0.4120437706028904
 30
0.0
 10
19.86423432655508
 20
-0.4861853112059832
 30
0.0
 10
19.94300634449137
 20
-0.5130075211513349
 30
0.0
 10
20.09803076050459
 20
-0.5319301786405913
 30
0.0
 10
20.17374462412406
 20
-0.523888464114953
 30
0.0
 10
20.3126012555072
 20
-0.4579719970190727
 30
0.0
 10
20.37458013333347
 20
-0.3991604567737174
 30
0.0
 10
20.46498099715917
 20
-0.2379386702471044
 30
0.0
 10
20.49266828791406
 20
-0.1354527582904136
 30
0.0
 10
20.50880400089979
 20
0.0717881010493498
 30
0.0
 10
20.49873602877445
 20
0.178500192947807
 30
0.0
 10
20.47536078892915
 20
0.2810588147872332
 30
0.0
  0
SPLINE
  5
BB
330
1F
100
AcDbEntity
  8
외형선
  6
Continuous
 62
     1
370
    15
100
AcDbSpline
210
0.0
220
0.0
230
1.0
 70
     8
 71
     3
 72
    16
 73
    12
 74
     0
 42
0.000000001
 43
0.00000001
 40
0.0
 40
0.0
 40
0.0
 40
0.0
 40
0.1517234097967115
 40
0.3065240457755116
 40
0.4582483333983676
 40
0.6130304936899491
 40
0.7032124640155879
 40
0.7933952727355275
 40
0.8861982020153077
 40
0.9790012646905739
 40
1.0
 40
1.0
 40
1.0
 40
1.0
 10
19.04852668754412
 20
0.049433824066112
 30
0.0
 10
18.88421752708622
 20
0.1724633362041126
 30
0.0
 10
18.55226671811737
 20
0.421017622328156
 30
0.0
 10
18.05699673983287
 20
0.770201895865899
 30
0.0
 10
17.55876264657095
 20
1.078823739014651
 30
0.0
 10
17.12855127207843
 20
1.291526167778019
 30
0.0
 10
16.7669477185462
 20
1.429116014063507
 30
0.0
 10
16.47122721490242
 20
1.51387437709044
 30
0.0
 10
16.17344878775907
 20
1.566708549088448
 30
0.0
 10
15.95012472481262
 20
1.590131999058308
 30
0.0
 10
15.82712367978171
 20
1.585585747993302
 30
0.0
 10
15.80442749718067
 20
1.584746872646384
 30
0.0
  0
SPLINE
  5
BC
330
1F
100
AcDbEntity
  8
외형선
  6
Continuous
 62
     1
370
    15
100
AcDbSpline
210
0.0
220
0.0
230
1.0
 70
     8
 71
     3
 72
    19
 73
    15
 74
     0
 42
0.000000001
 43
0.00000001
 40
0.0
 40
0.0
 40
0.0
 40
0.0
 40
0.0164460318013379
 40
0.1003511730374676
 40
0.1823554292469002
 40
0.2643606804744539
 40
0.3487555824433746
 40
0.4331506885067338
 40
0.5150948261454478
 40
0.5970388126012166
 40
0.6813527930935025
 40
0.7656659641647872
 40
0.8819967218285424
 40
1.0
 40
1.0
 40
1.0
 40
1.0
 10
11.50616115204865
 20
-0.7171649013071946
 30
0.0
 10
11.48657963472574
 20
-0.7306383841181707
 30
0.0
 10
11.36709620814941
 20
-0.8128515174328969
 30
0.0
 10
11.14976962531708
 20
-0.9480940342795378
 30
0.0
 10
10.85526036200217
 20
-1.118634879323164
 30
0.0
 10
10.55910913135585
 20
-1.26572152166783
 30
0.0
 10
10.2610478092923
 20
-1.389843152209926
 30
0.0
 10
9.962610513451349
 20
-1.485785073191935
 30
0.0
 10
9.667167063492302
 20
-1.551091472839048
 30
0.0
 10
9.372174726064419
 20
-1.586634270829777
 30
0.0
 10
9.073513872746684
 20
-1.590670891006782
 30
0.0
 10
8.735021884400377
 20
-1.558235642509487
 30
0.0
 10
8.354645311860137
 20
-1.477936769738245
 30
0.0
 10
8.076228613395154
 20
-1.370170507161677
 30
0.0
 10
7.936026687544118
 20
-1.315902793916369
 30
0.0
  0
SPLINE
  5
BD
330
1F
100
AcDbEntity
  8
외형선
  6
Continuous
370
    15
100
AcDbSpline
210
0.0
220
0.0
230
1.0
 70
    24
 71
     3
 72
    14
 73
    10
 74
     0
 42
0.000000001
 43
0.00000001
 40
0.0
 40
0.0
 40
0.0
 40
0.0
 40
0.2500000000000001
 40
0.2500000000000001
 40
0.5
 40
0.5
 40
0.75
 40
0.75
 40
1.0
 40
1.0
 40
1.0
 40
1.0
 10
7.936026687544116
 20
0.0992451337499782
 30
0.0
 10
7.936026687544116
 20
0.0087122372365628
 30
0.0
 10
7.936026687544116
 20
-0.0942996589039865
 30
0.0
 10
7.936026687544116
 20
-0.3216798623697825
 30
0.0
 10
7.936026687544116
 20
-0.4461115491770862
 30
0.0
 10
7.936026687544116
 20
-0.703741368842273
 30
0.0
 10
7.936026687544116
 20
-0.8367672653558418
 30
0.0
 10
7.936026687544116
 20
-1.090800905013652
 30
0.0
 10
7.936026687544116
 20
-1.211437571485416
 30
0.0
 10
7.936026687544116
 20
-1.315902793904194
 30
0.0
  0
SPLINE
  5
BE
330
1F
100
AcDbEntity
  8
외형선
  6
Continuous
 62
     1
370
    15
100
AcDbSpline
210
0.0
220
0.0
230
1.0
 70
     8
 71
     3
 72
     8
 73
     4
 74
     0
 42
0.000000001
 43
0.00000001
 40
0.0
 40
0.0
 40
0.0
 40
0.0
 40
1.0
 40
1.0
 40
1.0
 40
1.0
 10
20.26703858478233
 20
0.3872650206085468
 30
0.0
 10
20.26800681872955
 20
0.3748412966473931
 30
0.0
 10
20.26869239642918
 20
0.3624314429559284
 30
0.0
 10
20.26905575059115
 20
0.3500374011469543
 30
0.0
  0
ARC
  5
BF
330
1F
100
AcDbEntity
  8
외형선
  6
Continuous
 62
     1
370
    15
100
AcDbCircle
 10
19.79434303420169
 20
-0.4010831449204098
 30
0.0
 40
0.9638998057239109
100
AcDbArc
 50
39.59515991364771
 51
45.04725212017782
  0
ARC
  5
C0
330
1F
100
AcDbEntity
  8
외형선
  6
Continuous
 62
     1
370
    15
100
AcDbCircle
 10
19.24540017152733
 20
0.0021011993279839
 30
0.0
 40
1.30883920089661
100
AcDbArc
 50
9.284579240116155
 51
17.45594713492293
  0
LINE
  5
C1
330
1F
100
AcDbEntity
  8
중심선
 62
     1
100
AcDbLine
 10
-20.46397331245588
 20
0.0
 30
0.0
 11
23.63602668754412
 21
0.0
 31
0.0
  0
LINE
  5
C2
330
1F
100
AcDbEntity
  8
참조1
100
AcDbLine
 10
-2.700513367556236
 20
-2.498925071276081
 30
0.0
 11
-2.700513367556232
 21
-39.9989250712761
 31
0.0
  0
LINE
  5
C3
330
1F
100
AcDbEntity
  8
참조1
100
AcDbLine
 10
22.69999999999999
 20
0.0010749287238931
 30
0.0
 11
22.7
 21
1.048836532705012
 31
0.0
  0
LINE
  5
C4
330
1F
100
AcDbEntity
  8
참조1
100
AcDbLine
 10
-2.700513367556232
 20
-39.9989250712761
 30
0.0
 11
-17.85885681430868
 21
-39.9989250712761
 31
0.0
  0
CIRCLE
  5
C5
330
1F
100
AcDbEntity
  8
해칭선
100
AcDbCircle
 10
-0.0000000000000069
 20
0.0
 30
0.0
 40
3.000000000000001
  0
INSERT
  5
C6
330
1F
100
AcDbEntity
  8
0
  6
Continuous
 62
     7
100
AcDbBlockReference
 66
     1
  2
블럭10
 10
-16.64078629968144
 20
-52.04609937292004
 30
0.0
  0
ATTRIB
  5
C7
330
C6
100
AcDbEntity
  8
FORMAT
 62
     2
100
AcDbText
 10
-25.03029162458128
 20
-49.97073246008785
 30
0.0
 40
4.233333333333333
  1
EI099008 [ 2 FLUTE ]
 41
0.75
  7
SLDTEXTSTYLE0
 11
-25.03029162458128
 21
-52.08739912675452
 31
0.0
100
AcDbAttribute
  2
AUTOATTR0
 70
     0
 74
     1
  0
SEQEND
  5
C8
330
C6
100
AcDbEntity
  8
0
  6
Continuous
 62
     7
  0
HATCH
  5
C9
330
1F
100
AcDbEntity
  8
중심선
100
AcDbHatch
 10
0.0
 20
0.0
 30
0.0
210
0.0
220
0.0
230
1.0
  2
SOLID
 70
     1
 71
     0
 91
        1
 92
        0
 93
        4
 72
     1
 10
-10.92587699530059
 20
-35.7989250712761
 11
-14.37215223913788
 21
-35.7989250712761
 72
     1
 10
-14.37215223913788
 20
-35.7989250712761
 11
-16.5003820983419
 21
-38.3352506518487
 72
     1
 10
-16.5003820983419
 20
-38.3352506518487
 11
-13.05407376939147
 21
-38.33521122254621
 72
     1
 10
-13.05407376939147
 20
-38.33521122254621
 11
-10.92587699530059
 21
-35.7989250712761
 97
        0
 75
     0
 76
     1
 98
        1
 10
0.0
 20
0.0
  0
HATCH
  5
CA
330
1F
100
AcDbEntity
  8
중심선
100
AcDbHatch
 10
0.0
 20
0.0
 30
0.0
210
0.0
220
0.0
230
1.0
  2
SOLID
 70
     1
 71
     0
 91
        1
 92
        0
 93
        4
 72
     1
 10
-5.913113004264642
 20
-35.7989250712761
 11
-9.359388248101924
 21
-35.7989250712761
 72
     1
 10
-9.359388248101924
 20
-35.7989250712761
 11
-13.89052625645931
 21
-41.19892507127612
 72
     1
 10
-13.89052625645931
 20
-41.19892507127612
 11
-10.44425101262203
 21
-41.19892507127612
 72
     1
 10
-10.44425101262203
 20
-41.19892507127612
 11
-5.913113004264642
 21
-35.7989250712761
 97
        0
 75
     0
 76
     1
 98
        1
 10
0.0
 20
0.0
  0
HATCH
  5
CB
330
1F
100
AcDbEntity
  8
중심선
100
AcDbHatch
 10
0.0
 20
0.0
 30
0.0
210
0.0
220
0.0
230
1.0
  2
SOLID
 70
     1
 71
     0
 91
        1
 92
        0
 93
        4
 72
     1
 10
-0.9003490132287462
 20
-35.79892507127613
 11
-4.346624257065862
 21
-35.7989250712761
 72
     1
 10
-4.346624257065862
 20
-35.7989250712761
 11
-11.39506115895511
 21
-44.19892507127612
 72
     1
 10
-11.39506115895511
 20
-44.19892507127612
 11
-7.948785915117829
 21
-44.19892507127612
 72
     1
 10
-7.948785915117829
 20
-44.19892507127612
 11
-0.9003490132287464
 21
-35.79892507127613
 97
        0
 75
     0
 76
     1
 98
        1
 10
0.0
 20
0.0
  0
HATCH
  5
CC
330
1F
100
AcDbEntity
  8
중심선
100
AcDbHatch
 10
0.0
 20
0.0
 30
0.0
210
0.0
220
0.0
230
1.0
  2
SOLID
 70
     1
 71
     0
 91
        1
 92
        0
 93
        6
 72
     3
 10
3.899541417783453
 20
-39.99892507132738
 11
3.960054785062284
 21
1.540850780301639E-10
 40
0.3939339440162633
 50
17.09539180608434
 51
320.0019657685079
 73
     0
 72
     1
 10
5.582541073484048
 20
-38.58681907591441
 11
7.887842947185087
 21
-36.65249236586649
 72
     3
 10
3.899541417730607
 20
-39.99892507127625
 11
6.600054785286829
 21
-1.249000902703301E-13
 40
0.6363583540795982
 50
39.99873849337408
 51
368.4976242363725
 73
     1
 72
     1
 10
10.32487390963121
 20
-39.03892507120613
 11
2.579608724566529
 21
-39.0389250712061
 72
     1
 10
2.579608724566529
 20
-39.0389250712061
 11
2.579583680120595
 21
-40.95892507120602
 72
     1
 10
2.579583680120595
 20
-40.95892507120602
 11
7.020963449592632
 21
-40.95892507120599
 97
        0
 75
     0
 76
     1
 98
        1
 10
0.0
 20
0.0
  0
POINT
  5
CD
330
1F
100
AcDbEntity
  8
치수문자_일반주서
100
AcDbPoint
 10
-37.82263000274802
 20
-7.164101193405076
 30
0.0
  0
POINT
  5
CE
330
1F
100
AcDbEntity
  8
치수문자_일반주서
100
AcDbPoint
 10
-37.82263000274802
 20
-7.164101193405076
 30
0.0
  0
DIMENSION
  5
CF
330
1F
100
AcDbEntity
  8
치수문자_일반주서
100
AcDbDimension
  2
_D
 10
7.936026687544103
 20
18.99892507127613
 30
0.0
 11
-7.397223312455896
 21
18.99892507127613
 31
0.0
 70
   160
  1
<>
 71
     2
 42
12.70000000000002
  3
SLDDIMSTYLE0
100
AcDbAlignedDimension
 13
20.63602668754412
 23
1.587500000000006
 33
0.0
 14
7.936026687544103
 24
1.508355474358934
 34
0.0
100
AcDbRotatedDimension
1001
ACAD
1000
DSTYLE
1002
{
1070
   171
1070
     6
1070
   273
1070
     7
1002
}
  0
DIMENSION
  5
E4
330
1F
100
AcDbEntity
  8
치수문자_일반주서
100
AcDbDimension
  2
_D_1
 10
-17.46397331245588
 20
35.58750000000003
 30
0.0
 11
2.307204680355972
 21
35.58750000000003
 31
0.0
 70
   160
  1
<>
 71
     2
 42
38.09999999999999
  3
SLDDIMSTYLE0
100
AcDbAlignedDimension
 13
20.63602668754412
 23
1.587500000000006
 33
0.0
 14
-17.46397331245587
 24
0.5874999999999947
 34
0.0
100
AcDbRotatedDimension
1001
ACAD
1000
DSTYLE
1002
{
1070
   171
1070
     6
1070
   273
1070
     7
1002
}
  0
DIMENSION
  5
F7
330
1F
100
AcDbEntity
  8
치수문자_일반주서
100
AcDbDimension
  2
_D_2
 10
-29.36970773958937
 20
-1.587500000000034
 30
0.0
 11
-29.36970773958944
 21
20.44149999999996
 31
0.0
 70
   160
  1
%%c<>
 71
     2
 42
3.174999999999983
 52
-270.0
  3
SLDDIMSTYLE1
100
AcDbAlignedDimension
 13
-16.46397331245588
 23
1.587499999999998
 33
0.0
 14
-16.46397331245588
 24
-1.587499999999985
 34
0.0
 50
90.0000000000002
100
AcDbRotatedDimension
1001
ACAD
1000
DSTYLE
1002
{
1070
   171
1070
     6
1070
   273
1070
     7
1002
}
  0
DIMENSION
  5
10C
330
1F
100
AcDbEntity
  8
치수문자_일반주서
100
AcDbDimension
  2
_D_3
 10
34.82310184995677
 20
-1.587499999999942
 30
0.0
 11
34.82310184995667
 21
20.44150000000007
 31
0.0
 70
   160
  1
%%c<>
 71
     2
 42
3.175
 52
-270.0
  3
SLDDIMSTYLE1
100
AcDbAlignedDimension
 13
20.63602668754412
 23
1.587500000000006
 33
0.0
 14
20.63602668754412
 24
-1.587499999999994
 34
0.0
 50
90.0000000000002
100
AcDbRotatedDimension
1001
ACAD
1000
DSTYLE
1002
{
1070
   171
1070
     6
1070
   273
1070
     7
1002
}
  0
LINE
  5
120
330
1F
100
AcDbEntity
  8
참조1
100
AcDbLine
 10
80.11348381534559
 20
7.441074928723896
 30
0.0
 11
80.11348381534559
 21
-7.438925071276109
 31
0.0
  0
LINE
  5
121
330
1F
100
AcDbEntity
  8
참조1
100
AcDbLine
 10
92.81348381534559
 20
5.441074928723896
 30
0.0
 11
80.11348381534559
 21
5.441074928723896
 31
0.0
  0
SOLID
  5
122
330
1F
100
AcDbEntity
  8
참조1
100
AcDbTrace
 10
80.11348381534559
 20
5.441074928723896
 30
0.0
 11
86.46348381534558
 21
4.425074928723896
 31
0.0
 12
86.46348381534558
 22
6.457074928723896
 32
0.0
 13
86.46348381534558
 23
6.457074928723896
 33
0.0
  0
LINE
  5
123
330
1F
100
AcDbEntity
  8
참조1
100
AcDbLine
 10
92.81348381534559
 20
-5.438925071276109
 30
0.0
 11
80.11348381534559
 21
-5.438925071276109
 31
0.0
  0
SOLID
  5
124
330
1F
100
AcDbEntity
  8
참조1
100
AcDbTrace
 10
80.11348381534559
 20
-5.438925071276109
 30
0.0
 11
86.46348381534558
 21
-6.454925071276109
 31
0.0
 12
86.46348381534558
 22
-4.422925071276109
 32
0.0
 13
86.46348381534558
 23
-4.422925071276109
 33
0.0
  0
MTEXT
  5
125
330
1F
100
AcDbEntity
  8
참조1
100
AcDbMText
 10
89.71359862590815
 20
11.06679249473997
 30
0.0
 40
3.5
 41
0.0
 71
     1
 72
     1
  1
A
  7
SLDTEXTSTYLE0
 73
     1
 44
1.0
  0
MTEXT
  5
126
330
1F
100
AcDbEntity
  8
참조1
100
AcDbMText
 10
89.71359862590815
 20
0.1867924947399659
 30
0.0
 40
3.5
 41
0.0
 71
     1
 72
     1
  1
A
  7
SLDTEXTSTYLE0
 73
     1
 44
1.0
  0
INSERT
  5
12D
330
1F
100
AcDbEntity
  8
해칭선
100
AcDbBlockReference
  2
SW_DOWELSYMBOL_0
 10
-0.0000000000000069
 20
0.0
 30
0.0
  0
LINE
  5
152
330
1F
100
AcDbEntity
  8
0
100
AcDbLine
 10
20.63602668754412
 20
1.587500000000006
 30
0.0
 11
31.40900733573212
 21
1.587500000000006
 31
0.0
  0
ARC
  5
157
330
1F
100
AcDbEntity
  8
0
 62
     1
100
AcDbCircle
 10
19.04852668754412
 20
0.0
 30
0.0
 40
1.5875
100
AcDbArc
 50
270.0000000000002
 51
89.99999999999974
  0
SPLINE
  5
158
330
1F
100
AcDbEntity
  8
0
 62
     1
100
AcDbSpline
210
0.0
220
0.0
230
1.0
 70
     8
 71
     3
 72
    10
 73
     6
 74
     0
 42
0.000000001
 43
0.0000000001
 40
0.0
 40
0.0
 40
0.0
 40
0.0
 40
0.6585721887943349
 40
1.33118433892085
 40
1.557153349518187
 40
1.557153349518187
 40
1.557153349518187
 40
1.557153349518187
 10
19.04852668754413
 20
1.587500000000006
 30
0.0
 10
18.83034906364713
 20
1.553147860691021
 30
0.0
 10
18.38934253319167
 20
1.48371123607396
 30
0.0
 10
17.92262477735915
 20
1.242154868222679
 30
0.0
 10
17.6676331846352
 20
1.08366900948467
 30
0.0
 10
17.60418710674575
 20
1.042911862786061
 30
0.0
  0
SPLINE
  5
159
330
1F
100
AcDbEntity
  8
0
 62
     1
100
AcDbSpline
210
0.0
220
0.0
230
1.0
 70
     8
 71
     3
 72
    11
 73
     7
 74
     5
 42
0.000000001
 43
0.0000000001
 44
0.0
 40
0.0
 40
0.0
 40
0.0
 40
0.0
 40
0.5159136811609023
 40
1.548887513568484
 40
2.541901310946868
 40
3.859406578071563
 40
3.859406578071563
 40
3.859406578071563
 40
3.859406578071563
 10
19.04852668754413
 20
-1.587499999999994
 30
0.0
 10
18.88311408297388
 20
-1.536445235210492
 30
0.0
 10
18.386508687224
 20
-1.383167486280293
 30
0.0
 10
17.73699289597153
 20
-0.7973616703005886
 30
0.0
 10
17.04047975461788
 20
0.06925954210601
 30
0.0
 10
16.42380077310318
 20
0.5385298502756302
 30
0.0
 10
16.07215779436608
 20
0.8061173860017952
 30
0.0
 11
19.04852668754413
 21
-1.587499999999994
 31
0.0
 11
18.56347541418568
 21
-1.41173826177934
 31
0.0
 11
17.75164359414153
 21
-0.7730176386563649
 31
0.0
 11
17.0830762129287
 21
-0.0387873896458418
 31
0.0
 11
16.07215779436608
 21
0.8061173860017952
 31
0.0
  0
SPLINE
  5
15A
330
1F
100
AcDbEntity
  8
0
 62
     1
100
AcDbSpline
210
0.0
220
0.0
230
1.0
 70
     8
 71
     3
 72
     9
 73
     5
 74
     0
 42
0.000000001
 43
0.0000000001
 40
0.2612871091273262
 40
0.2612871091273262
 40
0.2612871091273262
 40
0.2612871091273262
 40
0.7234745805603005
 40
1.913036388087819
 40
1.913036388087819
 40
1.913036388087819
 40
1.913036388087819
 10
19.80007589781502
 20
0.5103830776018361
 30
0.0
 10
19.79151915526607
 20
0.6719391094012844
 30
0.0
 10
19.70789435449747
 20
1.212660438922819
 30
0.0
 10
19.09937044451905
 20
1.390797099315942
 30
0.0
 10
18.66112184862246
 20
1.519088099907461
 30
0.0
  0
ENDSEC
  0
SECTION
  2
OBJECTS
  0
DICTIONARY
  5
C
330
0
100
AcDbDictionary
281
     1
  3
ACAD_GROUP
350
D
  3
ACAD_IMAGE_VARS
350
151
  3
ACAD_LAYOUT
350
1A
  3
ACAD_MLINESTYLE
350
17
  3
ACAD_PLOTSETTINGS
350
19
  3
ACAD_PLOTSTYLENAME
350
E
  3
ACAD_SCALELIST
350
47
  3
APPDATA
350
14F
  3
DWGPROPS
350
160
  0
DICTIONARY
  5
D
102
{ACAD_REACTORS
330
C
102
}
330
C
100
AcDbDictionary
281
     1
  0
RASTERVARIABLES
  5
151
102
{ACAD_REACTORS
330
C
102
}
330
C
100
AcDbRasterVariables
 90
        0
 70
     1
 71
     1
 72
     1
  0
DICTIONARY
  5
1A
102
{ACAD_REACTORS
330
C
102
}
330
C
100
AcDbDictionary
281
     1
  3
Layout1
350
1E
  3
Layout2
350
26
  3
Model
350
22
  0
DICTIONARY
  5
17
102
{ACAD_REACTORS
330
C
102
}
330
C
100
AcDbDictionary
281
     1
  3
Standard
350
18
  0
DICTIONARY
  5
19
102
{ACAD_REACTORS
330
C
102
}
330
C
100
AcDbDictionary
281
     1
  0
ACDBDICTIONARYWDFLT
  5
E
102
{ACAD_REACTORS
330
C
102
}
330
C
100
AcDbDictionary
281
     1
  3
Normal
350
F
100
AcDbDictionaryWithDefault
340
F
  0
DICTIONARY
  5
47
102
{ACAD_REACTORS
330
C
102
}
330
C
100
AcDbDictionary
281
     1
  3
A0
350
48
  3
A1
350
49
  3
A2
350
4A
  3
A3
350
4B
  3
A4
350
4C
  3
A5
350
4D
  3
A6
350
4E
  3
A7
350
4F
  3
A8
350
50
  3
A9
350
51
  3
B0
350
52
  3
B1
350
53
  3
B2
350
54
  3
B3
350
55
  3
B4
350
56
  3
B5
350
57
  3
B6
350
58
  3
B7
350
59
  3
B8
350
5A
  3
B9
350
5B
  3
C0
350
5C
  3
C1
350
5D
  3
C2
350
5E
  3
C3
350
5F
  3
C4
350
60
  3
C5
350
61
  3
C6
350
62
  3
C7
350
63
  3
C8
350
64
  3
C9
350
65
  3
D0
350
66
  3
D1
350
67
  3
D2
350
68
  0
DICTIONARY
  5
14F
102
{ACAD_REACTORS
330
C
102
}
330
C
100
AcDbDictionary
281
     1
  0
XRECORD
  5
160
102
{ACAD_REACTORS
330
C
102
}
330
C
100
AcDbXrecord
280
     1
  1
DWGPROPS COOKIE
  2

  3

  4

  6

  7

  8
12015048
  9

300
=
301
=
302
=
303
=
304
=
305
=
306
=
307
=
308
=
309
=
 40
0.0
 41
2458270.308942442
 42
2458274.264470857
  1

 90
        0
  0
LAYOUT
  5
1E
102
{ACAD_REACTORS
330
1A
102
}
330
1A
100
AcDbPlotSettings
  1

  2
none_device
  4

  6

 40
0.0
 41
0.0
 42
0.0
 43
0.0
 44
0.0
 45
0.0
 46
0.0
 47
0.0
 48
0.0
 49
0.0
140
0.0
141
0.0
142
1.0
143
1.0
 70
   688
 72
     1
 73
     0
 74
     5
  7

 75
    16
147
1.0
148
0.0
149
0.0
100
AcDbLayout
  1
Layout1
 70
     1
 71
     1
 10
0.0
 20
0.0
 11
420.0
 21
297.0
 12
0.0
 22
0.0
 32
0.0
 14
1.000000000000000E+20
 24
1.000000000000000E+20
 34
1.000000000000000E+20
 15
-1.000000000000000E+20
 25
-1.000000000000000E+20
 35
-1.000000000000000E+20
146
0.0
 13
0.0
 23
0.0
 33
0.0
 16
1.0
 26
0.0
 36
0.0
 17
0.0
 27
1.0
 37
0.0
 76
     0
330
1B
  0
LAYOUT
  5
26
102
{ACAD_REACTORS
330
1A
102
}
330
1A
100
AcDbPlotSettings
  1

  2
none_device
  4

  6

 40
0.0
 41
0.0
 42
0.0
 43
0.0
 44
0.0
 45
0.0
 46
0.0
 47
0.0
 48
0.0
 49
0.0
140
0.0
141
0.0
142
1.0
143
1.0
 70
   688
 72
     1
 73
     0
 74
     5
  7

 75
    16
147
1.0
148
0.0
149
0.0
100
AcDbLayout
  1
Layout2
 70
     1
 71
     2
 10
0.0
 20
0.0
 11
0.0
 21
0.0
 12
0.0
 22
0.0
 32
0.0
 14
0.0
 24
0.0
 34
0.0
 15
0.0
 25
0.0
 35
0.0
146
0.0
 13
0.0
 23
0.0
 33
0.0
 16
1.0
 26
0.0
 36
0.0
 17
0.0
 27
1.0
 37
0.0
 76
     0
330
23
  0
LAYOUT
  5
22
102
{ACAD_REACTORS
330
1A
102
}
330
1A
100
AcDbPlotSettings
  1

  2
none_device
  4
ANSI_A_(11.00_x_8.50_Inches)
  6

 40
6.35
 41
19.05
 42
6.35000508
 43
19.05000254
 44
279.4
 45
215.9
 46
75.13179245863303
 47
93.48755334270129
 48
0.0
 49
0.0
140
0.0
141
0.0
142
0.0833613285156657
143
1.0
 70
  1696
 72
     0
 73
     0
 74
     0
  7

 75
     0
147
0.0235690232323232
148
0.0
149
0.0
100
AcDbLayout
  1
Model
 70
     1
 71
     0
 10
0.0
 20
0.0
 11
420.0
 21
297.0
 12
0.0
 22
0.0
 32
0.0
 14
-37.82263000274801
 24
-49.97073246008785
 34
0.0
 15
92.81348381534559
 25
39.96250000000003
 35
0.0
146
0.0
 13
0.0
 23
0.0
 33
0.0
 16
1.0
 26
0.0
 36
0.0
 17
0.0
 27
1.0
 37
0.0
 76
     0
330
1F
331
29
  0
MLINESTYLE
  5
18
102
{ACAD_REACTORS
330
17
102
}
330
17
100
AcDbMlineStyle
  2
Standard
 70
     0
  3

 62
   256
 51
90.0
 52
90.0
 71
     2
 49
0.5
 62
   256
  6
BYLAYER
 49
-0.5
 62
   256
  6
BYLAYER
  0
ACDBPLACEHOLDER
  5
F
102
{ACAD_REACTORS
330
E
102
}
330
E
  0
SCALE
  5
48
102
{ACAD_REACTORS
330
47
102
}
330
47
100
AcDbScale
 70
     0
300
1:1
140
1.0
141
1.0
290
     1
  0
SCALE
  5
49
102
{ACAD_REACTORS
330
47
102
}
330
47
100
AcDbScale
 70
     0
300
1:2
140
1.0
141
2.0
290
     0
  0
SCALE
  5
4A
102
{ACAD_REACTORS
330
47
102
}
330
47
100
AcDbScale
 70
     0
300
1:4
140
1.0
141
4.0
290
     0
  0
SCALE
  5
4B
102
{ACAD_REACTORS
330
47
102
}
330
47
100
AcDbScale
 70
     0
300
1:5
140
1.0
141
5.0
290
     0
  0
SCALE
  5
4C
102
{ACAD_REACTORS
330
47
102
}
330
47
100
AcDbScale
 70
     0
300
1:8
140
1.0
141
8.0
290
     0
  0
SCALE
  5
4D
102
{ACAD_REACTORS
330
47
102
}
330
47
100
AcDbScale
 70
     0
300
1:10
140
1.0
141
10.0
290
     0
  0
SCALE
  5
4E
102
{ACAD_REACTORS
330
47
102
}
330
47
100
AcDbScale
 70
     0
300
1:16
140
1.0
141
16.0
290
     0
  0
SCALE
  5
4F
102
{ACAD_REACTORS
330
47
102
}
330
47
100
AcDbScale
 70
     0
300
1:20
140
1.0
141
20.0
290
     0
  0
SCALE
  5
50
102
{ACAD_REACTORS
330
47
102
}
330
47
100
AcDbScale
 70
     0
300
1:30
140
1.0
141
30.0
290
     0
  0
SCALE
  5
51
102
{ACAD_REACTORS
330
47
102
}
330
47
100
AcDbScale
 70
     0
300
1:40
140
1.0
141
40.0
290
     0
  0
SCALE
  5
52
102
{ACAD_REACTORS
330
47
102
}
330
47
100
AcDbScale
 70
     0
300
1:50
140
1.0
141
50.0
290
     0
  0
SCALE
  5
53
102
{ACAD_REACTORS
330
47
102
}
330
47
100
AcDbScale
 70
     0
300
1:100
140
1.0
141
100.0
290
     0
  0
SCALE
  5
54
102
{ACAD_REACTORS
330
47
102
}
330
47
100
AcDbScale
 70
     0
300
2:1
140
2.0
141
1.0
290
     0
  0
SCALE
  5
55
102
{ACAD_REACTORS
330
47
102
}
330
47
100
AcDbScale
 70
     0
300
4:1
140
4.0
141
1.0
290
     0
  0
SCALE
  5
56
102
{ACAD_REACTORS
330
47
102
}
330
47
100
AcDbScale
 70
     0
300
8:1
140
8.0
141
1.0
290
     0
  0
SCALE
  5
57
102
{ACAD_REACTORS
330
47
102
}
330
47
100
AcDbScale
 70
     0
300
10:1
140
10.0
141
1.0
290
     0
  0
SCALE
  5
58
102
{ACAD_REACTORS
330
47
102
}
330
47
100
AcDbScale
 70
     0
300
100:1
140
100.0
141
1.0
290
     0
  0
SCALE
  5
59
102
{ACAD_REACTORS
330
47
102
}
330
47
100
AcDbScale
 70
     0
300
1/128" = 1'-0"
140
0.0078125
141
12.0
290
     0
  0
SCALE
  5
5A
102
{ACAD_REACTORS
330
47
102
}
330
47
100
AcDbScale
 70
     0
300
1/64" = 1'-0"
140
0.015625
141
12.0
290
     0
  0
SCALE
  5
5B
102
{ACAD_REACTORS
330
47
102
}
330
47
100
AcDbScale
 70
     0
300
1/32" = 1'-0"
140
0.03125
141
12.0
290
     0
  0
SCALE
  5
5C
102
{ACAD_REACTORS
330
47
102
}
330
47
100
AcDbScale
 70
     0
300
1/16" = 1'-0"
140
0.0625
141
12.0
290
     0
  0
SCALE
  5
5D
102
{ACAD_REACTORS
330
47
102
}
330
47
100
AcDbScale
 70
     0
300
3/32" = 1'-0"
140
0.09375
141
12.0
290
     0
  0
SCALE
  5
5E
102
{ACAD_REACTORS
330
47
102
}
330
47
100
AcDbScale
 70
     0
300
1/8" = 1'-0"
140
0.125
141
12.0
290
     0
  0
SCALE
  5
5F
102
{ACAD_REACTORS
330
47
102
}
330
47
100
AcDbScale
 70
     0
300
3/16" = 1'-0"
140
0.1875
141
12.0
290
     0
  0
SCALE
  5
60
102
{ACAD_REACTORS
330
47
102
}
330
47
100
AcDbScale
 70
     0
300
1/4" = 1'-0"
140
0.25
141
12.0
290
     0
  0
SCALE
  5
61
102
{ACAD_REACTORS
330
47
102
}
330
47
100
AcDbScale
 70
     0
300
3/8" = 1'-0"
140
0.375
141
12.0
290
     0
  0
SCALE
  5
62
102
{ACAD_REACTORS
330
47
102
}
330
47
100
AcDbScale
 70
     0
300
1/2" = 1'-0"
140
0.5
141
12.0
290
     0
  0
SCALE
  5
63
102
{ACAD_REACTORS
330
47
102
}
330
47
100
AcDbScale
 70
     0
300
3/4" = 1'-0"
140
0.75
141
12.0
290
     0
  0
SCALE
  5
64
102
{ACAD_REACTORS
330
47
102
}
330
47
100
AcDbScale
 70
     0
300
1" = 1'-0"
140
1.0
141
12.0
290
     0
  0
SCALE
  5
65
102
{ACAD_REACTORS
330
47
102
}
330
47
100
AcDbScale
 70
     0
300
1-1/2" = 1'-0"
140
1.5
141
12.0
290
     0
  0
SCALE
  5
66
102
{ACAD_REACTORS
330
47
102
}
330
47
100
AcDbScale
 70
     0
300
3" = 1'-0"
140
3.0
141
12.0
290
     0
  0
SCALE
  5
67
102
{ACAD_REACTORS
330
47
102
}
330
47
100
AcDbScale
 70
     0
300
6" = 1'-0"
140
6.0
141
12.0
290
     0
  0
SCALE
  5
68
102
{ACAD_REACTORS
330
47
102
}
330
47
100
AcDbScale
 70
     0
300
1'-0" = 1'-0"
140
12.0
141
12.0
290
     0
  0
ENDSEC
  0
EOF
