  0
SECTION
  2
HEADER
  9
$ACADVER
  1
AC1015
  9
$ACADMAINTVER
 70
     6
  9
$DWGCODEPAGE
  3
ANSI_949
  9
$INSBASE
 10
0.0
 20
0.0
 30
0.0
  9
$EXTMIN
 10
-74.43000000000006
 20
-49.97180738881175
 30
0.0
  9
$EXTMAX
 10
92.7509838153456
 20
62.73577545879665
 30
0.0
  9
$LIMMIN
 10
0.0
 20
0.0
  9
$LIMMAX
 10
420.0
 20
297.0
  9
$ORTHOMODE
 70
     1
  9
$REGENMODE
 70
     1
  9
$FILLMODE
 70
     1
  9
$QTEXTMODE
 70
     0
  9
$MIRRTEXT
 70
     1
  9
$LTSCALE
 40
1.0
  9
$ATTMODE
 70
     1
  9
$TEXTSIZE
 40
3.5
  9
$TRACEWID
 40
1.0
  9
$TEXTSTYLE
  7
Standard
  9
$CLAYER
  8
0
  9
$CELTYPE
  6
ByLayer
  9
$CECOLOR
 62
   256
  9
$CELTSCALE
 40
1.0
  9
$DISPSILH
 70
     0
  9
$DIMSCALE
 40
1.0
  9
$DIMASZ
 40
3.302
  9
$DIMEXO
 40
1.0
  9
$DIMDLI
 40
3.75
  9
$DIMRND
 40
0.0
  9
$DIMDLE
 40
0.0
  9
$DIMEXE
 40
1.0
  9
$DIMTP
 40
0.0
  9
$DIMTM
 40
0.0
  9
$DIMTXT
 40
3.5
  9
$DIMCEN
 40
2.5
  9
$DIMTSZ
 40
0.0
  9
$DIMTOL
 70
     0
  9
$DIMLIM
 70
     0
  9
$DIMTIH
 70
     1
  9
$DIMTOH
 70
     1
  9
$DIMSE1
 70
     0
  9
$DIMSE2
 70
     0
  9
$DIMTAD
 70
     1
  9
$DIMZIN
 70
     0
  9
$DIMBLK
  1

  9
$DIMASO
 70
     1
  9
$DIMSHO
 70
     1
  9
$DIMPOST
  1

  9
$DIMAPOST
  1

  9
$DIMALT
 70
     0
  9
$DIMALTD
 70
     3
  9
$DIMALTF
 40
0.0393700787401575
  9
$DIMLFAC
 40
1.0
  9
$DIMTOFL
 70
     1
  9
$DIMTVP
 40
0.0
  9
$DIMTIX
 70
     0
  9
$DIMSOXD
 70
     0
  9
$DIMSAH
 70
     0
  9
$DIMBLK1
  1

  9
$DIMBLK2
  1

  9
$DIMSTYLE
  2
ISO-25
  9
$DIMCLRD
 70
     0
  9
$DIMCLRE
 70
     0
  9
$DIMCLRT
 70
     0
  9
$DIMTFAC
 40
1.0
  9
$DIMGAP
 40
1.524
  9
$DIMJUST
 70
     0
  9
$DIMSD1
 70
     0
  9
$DIMSD2
 70
     0
  9
$DIMTOLJ
 70
     0
  9
$DIMTZIN
 70
     0
  9
$DIMALTZ
 70
     0
  9
$DIMALTTZ
 70
     0
  9
$DIMUPT
 70
     0
  9
$DIMDEC
 70
     2
  9
$DIMTDEC
 70
     2
  9
$DIMALTU
 70
     2
  9
$DIMALTTD
 70
     3
  9
$DIMTXSTY
  7
Standard
  9
$DIMAUNIT
 70
     0
  9
$DIMADEC
 70
     2
  9
$DIMALTRND
 40
0.0
  9
$DIMAZIN
 70
     0
  9
$DIMDSEP
 70
    44
  9
$DIMATFIT
 70
     3
  9
$DIMFRAC
 70
     0
  9
$DIMLDRBLK
  1

  9
$DIMLUNIT
 70
     2
  9
$DIMLWD
 70
    -2
  9
$DIMLWE
 70
    -2
  9
$DIMTMOVE
 70
     0
  9
$LUNITS
 70
     2
  9
$LUPREC
 70
     2
  9
$SKETCHINC
 40
1.0
  9
$FILLETRAD
 40
10.0
  9
$AUNITS
 70
     0
  9
$AUPREC
 70
     2
  9
$MENU
  1
.
  9
$ELEVATION
 40
0.0
  9
$PELEVATION
 40
0.0
  9
$THICKNESS
 40
0.0
  9
$LIMCHECK
 70
     0
  9
$CHAMFERA
 40
0.0
  9
$CHAMFERB
 40
0.0
  9
$CHAMFERC
 40
0.0
  9
$CHAMFERD
 40
0.0
  9
$SKPOLY
 70
     0
  9
$TDCREATE
 40
2458292.645165116
  9
$TDUCREATE
 40
2458292.270165116
  9
$TDUPDATE
 40
2459709.385453924
  9
$TDUUPDATE
 40
2459709.010453924
  9
$TDINDWG
 40
0.0052824074
  9
$TDUSRTIMER
 40
0.0010269444
  9
$USRTIMER
 70
     1
  9
$ANGBASE
 50
0.0
  9
$ANGDIR
 70
     0
  9
$PDMODE
 70
     0
  9
$PDSIZE
 40
-1.0
  9
$PLINEWID
 40
0.0
  9
$SPLFRAME
 70
     0
  9
$SPLINETYPE
 70
     6
  9
$SPLINESEGS
 70
     8
  9
$HANDSEED
  5
30F
  9
$SURFTAB1
 70
     6
  9
$SURFTAB2
 70
     6
  9
$SURFTYPE
 70
     6
  9
$SURFU
 70
     6
  9
$SURFV
 70
     6
  9
$UCSBASE
  2

  9
$UCSNAME
  2

  9
$UCSORG
 10
0.0
 20
0.0
 30
0.0
  9
$UCSXDIR
 10
1.0
 20
0.0
 30
0.0
  9
$UCSYDIR
 10
0.0
 20
1.0
 30
0.0
  9
$UCSORTHOREF
  2

  9
$UCSORTHOVIEW
 70
     0
  9
$UCSORGTOP
 10
0.0
 20
0.0
 30
0.0
  9
$UCSORGBOTTOM
 10
0.0
 20
0.0
 30
0.0
  9
$UCSORGLEFT
 10
0.0
 20
0.0
 30
0.0
  9
$UCSORGRIGHT
 10
0.0
 20
0.0
 30
0.0
  9
$UCSORGFRONT
 10
0.0
 20
0.0
 30
0.0
  9
$UCSORGBACK
 10
0.0
 20
0.0
 30
0.0
  9
$PUCSBASE
  2

  9
$PUCSNAME
  2

  9
$PUCSORG
 10
0.0
 20
0.0
 30
0.0
  9
$PUCSXDIR
 10
1.0
 20
0.0
 30
0.0
  9
$PUCSYDIR
 10
0.0
 20
1.0
 30
0.0
  9
$PUCSORTHOREF
  2

  9
$PUCSORTHOVIEW
 70
     0
  9
$PUCSORGTOP
 10
0.0
 20
0.0
 30
0.0
  9
$PUCSORGBOTTOM
 10
0.0
 20
0.0
 30
0.0
  9
$PUCSORGLEFT
 10
0.0
 20
0.0
 30
0.0
  9
$PUCSORGRIGHT
 10
0.0
 20
0.0
 30
0.0
  9
$PUCSORGFRONT
 10
0.0
 20
0.0
 30
0.0
  9
$PUCSORGBACK
 10
0.0
 20
0.0
 30
0.0
  9
$USERI1
 70
     0
  9
$USERI2
 70
     0
  9
$USERI3
 70
     0
  9
$USERI4
 70
     0
  9
$USERI5
 70
     0
  9
$USERR1
 40
0.0
  9
$USERR2
 40
0.0
  9
$USERR3
 40
0.0
  9
$USERR4
 40
0.0
  9
$USERR5
 40
0.0
  9
$WORLDVIEW
 70
     1
  9
$SHADEDGE
 70
     3
  9
$SHADEDIF
 70
    70
  9
$TILEMODE
 70
     1
  9
$MAXACTVP
 70
    64
  9
$PINSBASE
 10
0.0
 20
0.0
 30
0.0
  9
$PLIMCHECK
 70
     0
  9
$PEXTMIN
 10
1.000000000000000E+20
 20
1.000000000000000E+20
 30
1.000000000000000E+20
  9
$PEXTMAX
 10
-1.000000000000000E+20
 20
-1.000000000000000E+20
 30
-1.000000000000000E+20
  9
$PLIMMIN
 10
0.0
 20
0.0
  9
$PLIMMAX
 10
0.0
 20
0.0
  9
$UNITMODE
 70
     0
  9
$VISRETAIN
 70
     1
  9
$PLINEGEN
 70
     0
  9
$PSLTSCALE
 70
     1
  9
$TREEDEPTH
 70
  3020
  9
$CMLSTYLE
  2
Standard
  9
$CMLJUST
 70
     0
  9
$CMLSCALE
 40
20.0
  9
$PROXYGRAPHICS
 70
     1
  9
$MEASUREMENT
 70
     1
  9
$CELWEIGHT
370
    -1
  9
$ENDCAPS
280
     0
  9
$JOINSTYLE
280
     0
  9
$LWDISPLAY
290
     1
  9
$INSUNITS
 70
     4
  9
$HYPERLINKBASE
  1

  9
$STYLESHEET
  1

  9
$XEDIT
290
     1
  9
$CEPSNTYPE
380
     0
  9
$PSTYLEMODE
290
     1
  9
$FINGERPRINTGUID
  2
{31D72282-7C60-44E9-A780-5CA71C14D498}
  9
$VERSIONGUID
  2
{FAEB1C32-E019-11D5-929B-00C0DF256EC4}
  9
$EXTNAMES
290
     1
  9
$PSVPSCALE
 40
0.0
  9
$OLESTARTUP
290
     0
  0
ENDSEC
  0
SECTION
  2
CLASSES
  0
CLASS
  1
ACDBDICTIONARYWDFLT
  2
AcDbDictionaryWithDefault
  3
ObjectDBX Classes
 90
        0
280
     0
281
     0
  0
CLASS
  1
VISUALSTYLE
  2
AcDbVisualStyle
  3
ObjectDBX Classes
 90
     4095
280
     0
281
     0
  0
CLASS
  1
MATERIAL
  2
AcDbMaterial
  3
ObjectDBX Classes
 90
     1153
280
     0
281
     0
  0
CLASS
  1
SCALE
  2
AcDbScale
  3
ObjectDBX Classes
 90
     1153
280
     0
281
     0
  0
CLASS
  1
SUN
  2
AcDbSun
  3
SCENEOE
 90
     1153
280
     0
281
     0
  0
CLASS
  1
ACDBPLACEHOLDER
  2
AcDbPlaceHolder
  3
ObjectDBX Classes
 90
        0
280
     0
281
     0
  0
CLASS
  1
LAYOUT
  2
AcDbLayout
  3
ObjectDBX Classes
 90
        0
280
     0
281
     0
  0
CLASS
  1
TABLESTYLE
  2
AcDbTableStyle
  3
ObjectDBX Classes
 90
     4095
280
     0
281
     0
  0
CLASS
  1
MLEADERSTYLE
  2
AcDbMLeaderStyle
  3
ACDB_MLEADERSTYLE_CLASS
 90
     4095
280
     0
281
     0
  0
CLASS
  1
RASTERVARIABLES
  2
AcDbRasterVariables
  3
ISM
 90
        0
280
     0
281
     0
  0
CLASS
  1
SORTENTSTABLE
  2
AcDbSortentsTable
  3
ObjectDBX Classes
 90
        0
280
     0
281
     0
  0
ENDSEC
  0
SECTION
  2
TABLES
  0
TABLE
  2
VPORT
  5
8
330
0
100
AcDbSymbolTable
 70
     1
  0
VPORT
  5
29
330
8
100
AcDbSymbolTableRecord
100
AcDbViewportTableRecord
  2
*Active
 70
     0
 10
0.0
 20
0.0
 11
1.0
 21
1.0
 12
6.081895612885948
 22
3.475403277244844
 13
0.0
 23
0.0
 14
10.0
 24
10.0
 15
10.0
 25
10.0
 16
0.0
 26
0.0
 36
1.0
 17
0.0
 27
0.0
 37
0.0
 40
204.7608086622198
 41
1.163027656477438
 42
50.0
 43
0.0
 44
0.0
 50
0.0
 51
0.0
 71
    16
 72
  2000
 73
     1
 74
     3
 75
     0
 76
     0
 77
     0
 78
     0
281
     0
 65
     1
110
0.0
120
0.0
130
0.0
111
1.0
121
0.0
131
0.0
112
0.0
122
1.0
132
0.0
 79
     0
146
0.0
  0
ENDTAB
  0
TABLE
  2
LTYPE
  5
5
330
0
100
AcDbSymbolTable
 70
     6
  0
LTYPE
  5
14
330
5
100
AcDbSymbolTableRecord
100
AcDbLinetypeTableRecord
  2
ByBlock
 70
     0
  3

 72
    65
 73
     0
 40
0.0
  0
LTYPE
  5
15
330
5
100
AcDbSymbolTableRecord
100
AcDbLinetypeTableRecord
  2
ByLayer
 70
     0
  3

 72
    65
 73
     0
 40
0.0
  0
LTYPE
  5
16
330
5
100
AcDbSymbolTableRecord
100
AcDbLinetypeTableRecord
  2
Continuous
 70
     0
  3
Solid line
 72
    65
 73
     0
 40
0.0
  0
LTYPE
  5
6A
330
5
100
AcDbSymbolTableRecord
100
AcDbLinetypeTableRecord
  2
HIDDEN
 70
     0
  3
Hidden __ __ __ __ __ __ __ __ __ __ __ __ __ __
 72
    65
 73
     2
 40
1.905
 49
1.27
 74
     0
 49
-0.635
 74
     0
  0
LTYPE
  5
6B
330
5
100
AcDbSymbolTableRecord
100
AcDbLinetypeTableRecord
  2
PHANTOM
 70
     0
  3
Phantom ______  __  __  ______  __  __  ______
 72
    65
 73
     6
 40
12.7
 49
6.35
 74
     0
 49
-1.27
 74
     0
 49
1.27
 74
     0
 49
-1.27
 74
     0
 49
1.27
 74
     0
 49
-1.27
 74
     0
  0
LTYPE
  5
6C
330
5
100
AcDbSymbolTableRecord
100
AcDbLinetypeTableRecord
  2
CENTER
 70
     0
  3
Center ____ _ ____ _ ____ _ ____ _ ____ _ ____
 72
    65
 73
     4
 40
10.16
 49
6.35
 74
     0
 49
-1.27
 74
     0
 49
1.27
 74
     0
 49
-1.27
 74
     0
  0
LTYPE
  5
6D
330
5
100
AcDbSymbolTableRecord
100
AcDbLinetypeTableRecord
  2
CENTERX2
 70
     0
  3
Center (2x) ________  __  ________  __  _____
 72
    65
 73
     4
 40
20.32
 49
12.7
 74
     0
 49
-2.54
 74
     0
 49
2.54
 74
     0
 49
-2.54
 74
     0
  0
LTYPE
  5
6E
330
5
100
AcDbSymbolTableRecord
100
AcDbLinetypeTableRecord
  2
DOT2
 70
     0
  3
Dot (.5x) ........................................
 72
    65
 73
     2
 40
0.635
 49
0.0
 74
     0
 49
-0.635
 74
     0
  0
ENDTAB
  0
TABLE
  2
LAYER
  5
2
102
{ACAD_XDICTIONARY
360
2CF
102
}
330
0
100
AcDbSymbolTable
 70
    18
  0
LAYER
  5
10
330
2
100
AcDbSymbolTableRecord
100
AcDbLayerTableRecord
  2
0
 70
     0
 62
     7
  6
Continuous
370
    -3
390
F
  0
LAYER
  5
6F
330
2
100
AcDbSymbolTableRecord
100
AcDbLayerTableRecord
  2
FORMAT
 70
     0
 62
     2
  6
Continuous
370
    -3
390
F
  0
LAYER
  5
70
330
2
100
AcDbSymbolTableRecord
100
AcDbLayerTableRecord
  2
외형선
 70
     0
 62
     4
  6
Continuous
370
    30
390
F
  0
LAYER
  5
71
330
2
100
AcDbSymbolTableRecord
100
AcDbLayerTableRecord
  2
숨은선
 70
     0
 62
     2
  6
HIDDEN
370
    15
390
F
  0
LAYER
  5
72
330
2
100
AcDbSymbolTableRecord
100
AcDbLayerTableRecord
  2
중심선
 70
     0
 62
     1
  6
CENTERX2
370
    -3
390
F
  0
LAYER
  5
73
330
2
100
AcDbSymbolTableRecord
100
AcDbLayerTableRecord
  2
파단선
 70
     0
 62
     4
  6
Continuous
370
    -3
390
F
  0
LAYER
  5
74
330
2
100
AcDbSymbolTableRecord
100
AcDbLayerTableRecord
  2
해칭선
 70
     0
 62
   100
  6
Continuous
370
    -3
390
F
  0
LAYER
  5
75
330
2
100
AcDbSymbolTableRecord
100
AcDbLayerTableRecord
  2
가는실선
 70
     0
 62
     4
  6
Continuous
370
    -3
390
F
  0
LAYER
  5
76
330
2
100
AcDbSymbolTableRecord
100
AcDbLayerTableRecord
  2
치수_보조선
 70
     0
 62
     4
  6
Continuous
370
    -3
390
F
  0
LAYER
  5
77
330
2
100
AcDbSymbolTableRecord
100
AcDbLayerTableRecord
  2
치수문자_일반주서
 70
     0
 62
     7
  6
Continuous
370
    15
390
F
  0
LAYER
  5
78
330
2
100
AcDbSymbolTableRecord
100
AcDbLayerTableRecord
  2
개별주서
 70
     0
 62
   100
  6
Continuous
370
    30
390
F
  0
LAYER
  5
79
330
2
100
AcDbSymbolTableRecord
100
AcDbLayerTableRecord
  2
중간선
 70
     0
 62
     2
  6
Continuous
370
    15
390
F
  0
LAYER
  5
7A
330
2
100
AcDbSymbolTableRecord
100
AcDbLayerTableRecord
  2
윤곽선
 70
     0
 62
     3
  6
Continuous
370
    40
390
F
  0
LAYER
  5
7B
330
2
100
AcDbSymbolTableRecord
100
AcDbLayerTableRecord
  2
중심마크
 70
     0
 62
   100
  6
Continuous
370
    30
390
F
  0
LAYER
  5
7C
330
2
100
AcDbSymbolTableRecord
100
AcDbLayerTableRecord
  2
가상선
 70
     0
 62
     4
  6
PHANTOM
370
    -3
390
F
  0
LAYER
  5
7D
330
2
100
AcDbSymbolTableRecord
100
AcDbLayerTableRecord
  2
특수지정선
 70
     0
 62
     5
  6
CENTERX2
370
    60
390
F
  0
LAYER
  5
7E
330
2
100
AcDbSymbolTableRecord
100
AcDbLayerTableRecord
  2
참조1
 70
     0
 62
    -4
  6
Continuous
370
    -3
390
F
  0
LAYER
  5
128
330
2
100
AcDbSymbolTableRecord
100
AcDbLayerTableRecord
  2
Defpoints
 70
     0
 62
     7
  6
Continuous
290
     0
370
    -3
390
F
  0
ENDTAB
  0
TABLE
  2
STYLE
  5
3
330
0
100
AcDbSymbolTable
 70
     2
  0
STYLE
  5
11
330
3
100
AcDbSymbolTableRecord
100
AcDbTextStyleTableRecord
  2
Standard
 70
     0
 40
0.0
 41
1.0
 50
0.0
 71
     0
 42
3.5
  3
txt
  4

  0
STYLE
  5
94
330
3
100
AcDbSymbolTableRecord
100
AcDbTextStyleTableRecord
  2
SLDTEXTSTYLE0
 70
     0
 40
0.0
 41
0.75
 50
0.0
 71
     0
 42
3.5
  3
TXT
  4

  0
ENDTAB
  0
TABLE
  2
VIEW
  5
6
330
0
100
AcDbSymbolTable
 70
     0
  0
ENDTAB
  0
TABLE
  2
UCS
  5
7
330
0
100
AcDbSymbolTable
 70
     0
  0
ENDTAB
  0
TABLE
  2
APPID
  5
9
330
0
100
AcDbSymbolTable
 70
     2
  0
APPID
  5
12
330
9
100
AcDbSymbolTableRecord
100
AcDbRegAppTableRecord
  2
ACAD
 70
     0
  0
APPID
  5
134
330
9
100
AcDbSymbolTableRecord
100
AcDbRegAppTableRecord
  2
PE_URL
 70
     0
  0
ENDTAB
  0
TABLE
  2
DIMSTYLE
  5
A
330
0
100
AcDbSymbolTable
 70
     4
100
AcDbDimStyleTable
  0
DIMSTYLE
105
27
330
A
100
AcDbSymbolTableRecord
100
AcDbDimStyleTableRecord
  2
ISO-25
 70
     0
 41
2.5
 42
0.625
 43
3.75
 44
1.25
 73
     0
 74
     0
 77
     1
 78
     8
140
2.5
141
2.5
143
0.03937007874016
147
0.625
171
     3
172
     1
178
     0
271
     2
272
     2
274
     3
278
    44
283
     0
284
     8
340
11
  0
DIMSTYLE
105
A8
102
{ACAD_REACTORS
330
233
330
234
330
235
330
236
102
}
330
A
100
AcDbSymbolTableRecord
100
AcDbDimStyleTableRecord
  2
SLDDIMSTYLE0
 70
     0
 41
3.302
 44
0.0
 45
0.000000001
 73
     0
 74
     0
 77
     1
 78
    12
 79
     3
140
3.5
143
0.0393700787401575
147
0.875
148
0.000000001
170
     1
172
     1
173
     1
178
     0
271
     2
272
     2
276
     2
284
    12
289
     0
340
94
  0
DIMSTYLE
105
BD
330
A
100
AcDbSymbolTableRecord
100
AcDbDimStyleTableRecord
  2
SLDDIMSTYLE1
 70
     0
 41
3.302
 44
0.0
 45
0.000000001
 73
     0
 74
     0
 77
     1
 78
    12
 79
     3
140
3.5
143
0.0393700787401575
147
0.875
148
0.000000001
170
     1
173
     1
178
     0
271
     2
272
     2
276
     2
284
    12
340
94
  0
DIMSTYLE
105
D0
330
A
100
AcDbSymbolTableRecord
100
AcDbDimStyleTableRecord
  2
SLDDIMSTYLE2
 70
     0
 41
3.302
 44
0.0
 45
0.000000001
 73
     0
 74
     0
 77
     1
 78
     4
 79
     1
140
3.5
143
0.0393700787401575
147
0.875
148
0.000000001
170
     1
173
     1
178
     0
271
     2
272
     2
276
     2
284
    12
340
94
  0
ENDTAB
  0
TABLE
  2
BLOCK_RECORD
  5
1
330
0
100
AcDbSymbolTable
 70
    15
  0
BLOCK_RECORD
  5
1F
102
{ACAD_XDICTIONARY
360
309
102
}
330
1
100
AcDbSymbolTableRecord
100
AcDbBlockTableRecord
  2
*Model_Space
340
22
  0
BLOCK_RECORD
  5
1B
330
1
100
AcDbSymbolTableRecord
100
AcDbBlockTableRecord
  2
*Paper_Space
340
1E
  0
BLOCK_RECORD
  5
23
330
1
100
AcDbSymbolTableRecord
100
AcDbBlockTableRecord
  2
*Paper_Space0
340
26
  0
BLOCK_RECORD
  5
7F
330
1
100
AcDbSymbolTableRecord
100
AcDbBlockTableRecord
  2
블럭10
340
0
102
{BLKREFS
331
A0
102
}
  0
BLOCK_RECORD
  5
A9
330
1
100
AcDbSymbolTableRecord
100
AcDbBlockTableRecord
  2
_D
340
0
  0
BLOCK_RECORD
  5
BE
330
1
100
AcDbSymbolTableRecord
100
AcDbBlockTableRecord
  2
_D_1
340
0
  0
BLOCK_RECORD
  5
D1
330
1
100
AcDbSymbolTableRecord
100
AcDbBlockTableRecord
  2
_D_2
340
0
  0
BLOCK_RECORD
  5
E4
330
1
100
AcDbSymbolTableRecord
100
AcDbBlockTableRecord
  2
_D_3
340
0
  0
BLOCK_RECORD
  5
FD
330
1
100
AcDbSymbolTableRecord
100
AcDbBlockTableRecord
  2
SW_DOWELSYMBOL_0
340
0
102
{BLKREFS
331
237
102
}
  0
BLOCK_RECORD
  5
1C9
330
1
100
AcDbSymbolTableRecord
100
AcDbBlockTableRecord
  2
*D7
340
0
  0
BLOCK_RECORD
  5
1D5
330
1
100
AcDbSymbolTableRecord
100
AcDbBlockTableRecord
  2
*D8
340
0
  0
BLOCK_RECORD
  5
1E1
330
1
100
AcDbSymbolTableRecord
100
AcDbBlockTableRecord
  2
*D9
340
0
  0
BLOCK_RECORD
  5
1ED
330
1
100
AcDbSymbolTableRecord
100
AcDbBlockTableRecord
  2
*D10
340
0
  0
BLOCK_RECORD
  5
238
330
1
100
AcDbSymbolTableRecord
100
AcDbBlockTableRecord
  2
*D11
340
0
  0
BLOCK_RECORD
  5
244
330
1
100
AcDbSymbolTableRecord
100
AcDbBlockTableRecord
  2
*D12
340
0
  0
BLOCK_RECORD
  5
250
330
1
100
AcDbSymbolTableRecord
100
AcDbBlockTableRecord
  2
*D13
340
0
  0
BLOCK_RECORD
  5
25C
330
1
100
AcDbSymbolTableRecord
100
AcDbBlockTableRecord
  2
*D14
340
0
  0
ENDTAB
  0
ENDSEC
  0
SECTION
  2
BLOCKS
  0
BLOCK
  5
20
330
1F
100
AcDbEntity
  8
0
100
AcDbBlockBegin
  2
*Model_Space
 70
     0
 10
0.0
 20
0.0
 30
0.0
  3
*Model_Space
  1
*Model_Space
  0
ENDBLK
  5
21
330
1F
100
AcDbEntity
  8
0
100
AcDbBlockEnd
  0
BLOCK
  5
1C
330
1B
100
AcDbEntity
 67
     1
  8
0
100
AcDbBlockBegin
  2
*Paper_Space
 70
     0
 10
0.0
 20
0.0
 30
0.0
  3
*Paper_Space
  1
*Paper_Space
  0
ENDBLK
  5
1D
330
1B
100
AcDbEntity
 67
     1
  8
0
100
AcDbBlockEnd
  0
BLOCK
  5
24
330
23
100
AcDbEntity
  8
0
100
AcDbBlockBegin
  2
*Paper_Space0
 70
     0
 10
0.0
 20
0.0
 30
0.0
  3
*Paper_Space0
  1
*Paper_Space0
  0
ENDBLK
  5
25
330
23
100
AcDbEntity
  8
0
100
AcDbBlockEnd
  0
BLOCK
  5
80
330
7F
100
AcDbEntity
  8
0
100
AcDbBlockBegin
  2
블럭10
 70
     2
 10
0.0
 20
0.0
 30
0.0
  3
블럭10
  1
블럭10
  0
ELLIPSE
  5
82
330
7F
100
AcDbEntity
  8
중심선
100
AcDbEllipse
 10
20.54032771741204
 20
12.0471743016438
 30
0.0
 11
6.600054785286829
 21
-1.261213355974178E-13
 31
0.0
210
0.0
220
0.0
230
1.0
 40
0.636358354079598
 41
0.9219305317359503
 42
6.513795318482858
  0
ELLIPSE
  5
83
330
7F
100
AcDbEntity
  8
중심선
100
AcDbEllipse
 10
20.54032771746488
 20
12.04717430159265
 30
0.0
 11
3.960054785062283
 21
1.540847449632565E-10
 31
0.0
210
0.0
220
0.0
230
1.0
 40
0.3939339440162632
 41
1.131841032648279
 42
5.62031148352944
  0
LINE
  5
84
330
7F
100
AcDbEntity
  8
중심선
100
AcDbLine
 10
2.268634060543552
 20
16.24717430164393
 30
0.0
 11
5.714909304380834
 21
16.24717430164393
 31
0.0
  0
LINE
  5
85
330
7F
100
AcDbEntity
  8
중심선
100
AcDbLine
 10
5.245725140726316
 20
7.84717430164391
 30
0.0
 11
8.692000384563599
 21
7.84717430164391
 31
0.0
  0
LINE
  5
86
330
7F
100
AcDbEntity
  8
중심선
100
AcDbLine
 10
15.74043728645272
 20
16.24717430164393
 30
0.0
 11
8.692000384563599
 21
7.84717430164391
 31
0.0
  0
LINE
  5
87
330
7F
100
AcDbEntity
  8
중심선
100
AcDbLine
 10
0.1404042013395286
 20
13.71084872107135
 30
0.0
 11
3.58671253028996
 21
13.71088815037384
 31
0.0
  0
LINE
  5
88
330
7F
100
AcDbEntity
  8
중심선
100
AcDbLine
 10
2.750260043222114
 20
10.84717430164391
 30
0.0
 11
6.196535287059397
 21
10.84717430164391
 31
0.0
  0
LINE
  5
89
330
7F
100
AcDbEntity
  8
중심선
100
AcDbLine
 10
12.29416204261559
 20
16.24717430164393
 30
0.0
 11
5.245725140726316
 21
7.84717430164391
 31
0.0
  0
LINE
  5
8A
330
7F
100
AcDbEntity
  8
중심선
100
AcDbLine
 10
10.72767329541681
 20
16.24717430164393
 30
0.0
 11
6.196535287059397
 21
10.84717430164391
 31
0.0
  0
LINE
  5
8B
330
7F
100
AcDbEntity
  8
중심선
100
AcDbLine
 10
7.28139805157953
 20
16.24717430164393
 30
0.0
 11
2.750260043222114
 21
10.84717430164391
 31
0.0
  0
LINE
  5
8C
330
7F
100
AcDbEntity
  8
중심선
100
AcDbLine
 10
5.714909304380834
 20
16.24717430164393
 30
0.0
 11
3.58671253028996
 21
13.71088815037384
 31
0.0
  0
LINE
  5
8D
330
7F
100
AcDbEntity
  8
중심선
100
AcDbLine
 10
2.268634060543552
 20
16.24717430164393
 30
0.0
 11
0.1404042013395286
 21
13.71084872107135
 31
0.0
  0
LINE
  5
8E
330
7F
100
AcDbEntity
  8
중심선
100
AcDbLine
 10
7.28139805157953
 20
16.24717430164393
 30
0.0
 11
10.72767329541681
 21
16.24717430164393
 31
0.0
  0
LINE
  5
8F
330
7F
100
AcDbEntity
  8
중심선
100
AcDbLine
 10
12.29416204261559
 20
16.24717430164393
 30
0.0
 11
15.74043728645272
 21
16.24717430164393
 31
0.0
  0
LINE
  5
90
330
7F
100
AcDbEntity
  8
중심선
100
AcDbLine
 10
19.22036997980202
 20
11.08717430171403
 30
0.0
 11
23.66174974927406
 21
11.08717430171406
 31
0.0
  0
LINE
  5
91
330
7F
100
AcDbEntity
  8
중심선
100
AcDbLine
 10
19.22039502424796
 20
13.00717430171391
 30
0.0
 11
19.22036997980202
 21
11.08717430171403
 31
0.0
  0
LINE
  5
92
330
7F
100
AcDbEntity
  8
중심선
100
AcDbLine
 10
19.22039502424796
 20
13.00717430171391
 30
0.0
 11
26.96566020931264
 21
13.00717430171391
 31
0.0
  0
LINE
  5
93
330
7F
100
AcDbEntity
  8
중심선
100
AcDbLine
 10
22.22332737316547
 20
13.45928029700563
 30
0.0
 11
24.52862924686651
 21
15.39360700705356
 31
0.0
  0
ATTDEF
  5
95
330
7F
100
AcDbEntity
  8
FORMAT
 62
     2
100
AcDbText
 10
4.522160859763931
 20
2.075366912832191
 30
0.0
 40
4.233333333333333
  1
EE882132
 41
0.75
  7
SLDTEXTSTYLE0
 11
4.522160859763931
 21
-0.0412997538344756
 31
0.0
100
AcDbAttributeDefinition
  3

  2
AUTOATTR0
 70
     0
 74
     1
  0
ENDBLK
  5
81
330
7F
100
AcDbEntity
  8
0
100
AcDbBlockEnd
  0
BLOCK
  5
AA
330
A9
100
AcDbEntity
  8
0
100
AcDbBlockBegin
  2
_D
 70
     0
 10
0.0
 20
0.0
 30
0.0
  3
_D
  1
_D
  0
SOLID
  5
AC
330
A9
100
AcDbEntity
  8
치수문자_일반주서
100
AcDbTrace
 10
98.59856698000354
 20
9.526074928723906
 30
0.0
 11
99.10656698000354
 21
12.82807492872391
 31
0.0
 12
98.09056698000354
 22
12.82807492872391
 32
0.0
 13
98.09056698000354
 23
12.82807492872391
 33
0.0
  0
SOLID
  5
AD
330
A9
100
AcDbEntity
  8
치수문자_일반주서
100
AcDbTrace
 10
98.59856698000354
 20
-9.523925071276105
 30
0.0
 11
98.09056698000354
 21
-12.8259250712761
 31
0.0
 12
99.10656698000354
 22
-12.8259250712761
 32
0.0
 13
99.10656698000354
 23
-12.8259250712761
 33
0.0
  0
LINE
  5
AE
330
A9
100
AcDbEntity
  8
치수문자_일반주서
100
AcDbLine
 10
87.80568526396083
 20
-5.413291502344814
 30
0.0
 11
87.80568526396083
 21
-6.124228987909314
 31
0.0
  0
LINE
  5
AF
330
A9
100
AcDbEntity
  8
치수문자_일반주서
100
AcDbLine
 10
87.80568526396083
 20
-6.124228987909314
 30
0.0
 11
93.36193525502013
 21
-6.124228987909275
 31
0.0
  0
LINE
  5
B0
330
A9
100
AcDbEntity
  8
치수문자_일반주서
100
AcDbLine
 10
93.36193525502013
 20
-6.124228987909275
 30
0.0
 11
93.36193525502013
 21
-5.413291502344775
 31
0.0
  0
LINE
  5
B1
330
A9
100
AcDbEntity
  8
치수문자_일반주서
100
AcDbLine
 10
87.80568526396074
 20
5.415441359792444
 30
0.0
 11
87.80568526396074
 21
6.126378845356944
 31
0.0
  0
LINE
  5
B2
330
A9
100
AcDbEntity
  8
치수문자_일반주서
100
AcDbLine
 10
87.80568526396074
 20
6.126378845356944
 30
0.0
 11
93.36193525502004
 21
6.126378845356983
 31
0.0
  0
LINE
  5
B3
330
A9
100
AcDbEntity
  8
치수문자_일반주서
100
AcDbLine
 10
93.36193525502004
 20
6.126378845356983
 30
0.0
 11
93.36193525502004
 21
5.415441359792483
 31
0.0
  0
LINE
  5
B4
330
A9
100
AcDbEntity
  8
치수문자_일반주서
100
AcDbLine
 10
61.79999999999998
 20
9.526074928723908
 30
0.0
 11
99.59856698000354
 21
9.526074928723906
 31
0.0
  0
LINE
  5
B5
330
A9
100
AcDbEntity
  8
치수문자_일반주서
100
AcDbLine
 10
61.79999999999998
 20
-9.523925071276103
 30
0.0
 11
99.59856698000354
 21
-9.523925071276105
 31
0.0
  0
LINE
  5
B6
330
A9
100
AcDbEntity
  8
치수문자_일반주서
100
AcDbLine
 10
98.59856698000354
 20
9.526074928723906
 30
0.0
 11
98.59856698000354
 21
15.87607492872391
 31
0.0
  0
LINE
  5
B7
330
A9
100
AcDbEntity
  8
치수문자_일반주서
100
AcDbLine
 10
98.59856698000354
 20
9.526074928723906
 30
0.0
 11
98.59856698000354
 21
-9.523925071276105
 31
0.0
  0
LINE
  5
B8
330
A9
100
AcDbEntity
  8
치수문자_일반주서
100
AcDbLine
 10
98.59856698000354
 20
-9.523925071276105
 30
0.0
 11
98.59856698000354
 21
-15.87392507127611
 31
0.0
  0
MTEXT
  5
B9
330
A9
100
AcDbEntity
  8
치수문자_일반주서
100
AcDbMText
 10
88.85019834044121
 20
-4.524619601733436
 30
0.0
 40
3.5
 41
0.0
 71
     1
 72
     1
  1
0.75
  7
SLDTEXTSTYLE0
 11
-7.044195017643634E-15
 21
1.0
 31
0.0
 73
     1
 44
1.0
  0
MTEXT
  5
BA
330
A9
100
AcDbEntity
  8
치수문자_일반주서
100
AcDbMText
 10
94.08682989080171
 20
-8.456894014097168
 30
0.0
 40
3.5
 41
0.0
 71
     1
 72
     1
  1
%%c
  7
SLDTEXTSTYLE0
 11
-7.044195017643634E-15
 21
1.0
 31
0.0
 73
     1
 44
1.0
  0
MTEXT
  5
BB
330
A9
100
AcDbEntity
  8
치수문자_일반주서
100
AcDbMText
 10
94.08682989080167
 20
-3.178456615723087
 30
0.0
 40
3.5
 41
0.0
 71
     1
 72
     1
  1
19.05
  7
SLDTEXTSTYLE0
 11
-7.044195017643634E-15
 21
1.0
 31
0.0
 73
     1
 44
1.0
  0
ENDBLK
  5
AB
330
A9
100
AcDbEntity
  8
0
100
AcDbBlockEnd
  0
BLOCK
  5
BF
330
BE
100
AcDbEntity
  8
0
100
AcDbBlockBegin
  2
_D_1
 70
     0
 10
0.0
 20
0.0
 30
0.0
  3
_D_1
  1
_D_1
  0
SOLID
  5
C1
330
BE
100
AcDbEntity
  8
치수문자_일반주서
100
AcDbTrace
 10
-58.88000000000002
 20
15.8760749287239
 30
0.0
 11
-59.38800000000002
 21
12.5740749287239
 31
0.0
 12
-58.37200000000001
 22
12.5740749287239
 32
0.0
 13
-58.37200000000001
 23
12.5740749287239
 33
0.0
  0
SOLID
  5
C2
330
BE
100
AcDbEntity
  8
치수문자_일반주서
100
AcDbTrace
 10
-58.88000000000002
 20
-15.8739250712761
 30
0.0
 11
-58.37200000000001
 21
-12.5719250712761
 31
0.0
 12
-59.38800000000002
 22
-12.5719250712761
 32
0.0
 13
-59.38800000000002
 23
-12.5719250712761
 33
0.0
  0
LINE
  5
C3
330
BE
100
AcDbEntity
  8
치수문자_일반주서
100
AcDbLine
 10
-69.67288171604272
 20
-5.4132915023448
 30
0.0
 11
-69.67288171604272
 21
-6.124228987909301
 31
0.0
  0
LINE
  5
C4
330
BE
100
AcDbEntity
  8
치수문자_일반주서
100
AcDbLine
 10
-69.67288171604272
 20
-6.124228987909301
 30
0.0
 11
-64.11663172498342
 21
-6.124228987909262
 31
0.0
  0
LINE
  5
C5
330
BE
100
AcDbEntity
  8
치수문자_일반주서
100
AcDbLine
 10
-64.11663172498342
 20
-6.124228987909262
 30
0.0
 11
-64.11663172498342
 21
-5.413291502344761
 31
0.0
  0
LINE
  5
C6
330
BE
100
AcDbEntity
  8
치수문자_일반주서
100
AcDbLine
 10
-69.67288171604281
 20
5.415441359792458
 30
0.0
 11
-69.67288171604281
 21
6.126378845356958
 31
0.0
  0
LINE
  5
C7
330
BE
100
AcDbEntity
  8
치수문자_일반주서
100
AcDbLine
 10
-69.67288171604281
 20
6.126378845356958
 30
0.0
 11
-64.1166317249835
 21
6.126378845356997
 31
0.0
  0
LINE
  5
C8
330
BE
100
AcDbEntity
  8
치수문자_일반주서
100
AcDbLine
 10
-64.1166317249835
 20
6.126378845356997
 30
0.0
 11
-64.1166317249835
 21
5.415441359792497
 31
0.0
  0
LINE
  5
C9
330
BE
100
AcDbEntity
  8
치수문자_일반주서
100
AcDbLine
 10
-44.975
 20
15.8760749287239
 30
0.0
 11
-59.88000000000002
 21
15.8760749287239
 31
0.0
  0
LINE
  5
CA
330
BE
100
AcDbEntity
  8
치수문자_일반주서
100
AcDbLine
 10
-44.975
 20
-15.8739250712761
 30
0.0
 11
-59.88000000000002
 21
-15.8739250712761
 31
0.0
  0
LINE
  5
CB
330
BE
100
AcDbEntity
  8
치수문자_일반주서
100
AcDbLine
 10
-58.88000000000002
 20
15.8760749287239
 30
0.0
 11
-58.88000000000002
 21
-15.8739250712761
 31
0.0
  0
MTEXT
  5
CC
330
BE
100
AcDbEntity
  8
치수문자_일반주서
100
AcDbMText
 10
-68.62836863956234
 20
-4.524619601733423
 30
0.0
 40
3.5
 41
0.0
 71
     1
 72
     1
  1
1.25
  7
SLDTEXTSTYLE0
 11
-7.044195017643634E-15
 21
1.0
 31
0.0
 73
     1
 44
1.0
  0
MTEXT
  5
CD
330
BE
100
AcDbEntity
  8
치수문자_일반주서
100
AcDbMText
 10
-63.39173708920185
 20
-8.456894014097154
 30
0.0
 40
3.5
 41
0.0
 71
     1
 72
     1
  1
%%c
  7
SLDTEXTSTYLE0
 11
-7.044195017643634E-15
 21
1.0
 31
0.0
 73
     1
 44
1.0
  0
MTEXT
  5
CE
330
BE
100
AcDbEntity
  8
치수문자_일반주서
100
AcDbMText
 10
-63.39173708920187
 20
-3.178456615723073
 30
0.0
 40
3.5
 41
0.0
 71
     1
 72
     1
  1
31.75
  7
SLDTEXTSTYLE0
 11
-7.044195017643634E-15
 21
1.0
 31
0.0
 73
     1
 44
1.0
  0
ENDBLK
  5
C0
330
BE
100
AcDbEntity
  8
0
100
AcDbBlockEnd
  0
BLOCK
  5
D2
330
D1
100
AcDbEntity
  8
0
100
AcDbBlockBegin
  2
_D_2
 70
     0
 10
0.0
 20
0.0
 30
0.0
  3
_D_2
  1
_D_2
  0
SOLID
  5
D4
330
D1
100
AcDbEntity
  8
치수문자_일반주서
100
AcDbTrace
 10
67.15
 20
46.36185038752053
 30
0.0
 11
63.84800000000001
 21
46.86985038752053
 31
0.0
 12
63.84800000000001
 22
45.85385038752052
 32
0.0
 13
63.84800000000001
 23
45.85385038752052
 33
0.0
  0
SOLID
  5
D5
330
D1
100
AcDbEntity
  8
치수문자_일반주서
100
AcDbTrace
 10
16.34999999999999
 20
46.36185038752053
 30
0.0
 11
19.65199999999999
 21
45.85385038752052
 31
0.0
 12
19.65199999999999
 22
46.86985038752053
 32
0.0
 13
19.65199999999999
 23
46.86985038752053
 33
0.0
  0
LINE
  5
D6
330
D1
100
AcDbEntity
  8
치수문자_일반주서
100
AcDbLine
 10
36.33563391817733
 20
57.15473210356327
 30
0.0
 11
35.62469643261283
 21
57.15473210356328
 31
0.0
  0
LINE
  5
D7
330
D1
100
AcDbEntity
  8
치수문자_일반주서
100
AcDbLine
 10
35.62469643261283
 20
57.15473210356328
 30
0.0
 11
35.62469643261279
 21
51.59848211250397
 31
0.0
  0
LINE
  5
D8
330
D1
100
AcDbEntity
  8
치수문자_일반주서
100
AcDbLine
 10
35.62469643261279
 20
51.59848211250397
 30
0.0
 11
36.33563391817729
 21
51.59848211250397
 31
0.0
  0
LINE
  5
D9
330
D1
100
AcDbEntity
  8
치수문자_일반주서
100
AcDbLine
 10
47.16436678031459
 20
57.15473210356319
 30
0.0
 11
47.87530426587909
 21
57.15473210356318
 31
0.0
  0
LINE
  5
DA
330
D1
100
AcDbEntity
  8
치수문자_일반주서
100
AcDbLine
 10
47.87530426587909
 20
57.15473210356318
 30
0.0
 11
47.87530426587905
 21
51.59848211250388
 31
0.0
  0
LINE
  5
DB
330
D1
100
AcDbEntity
  8
치수문자_일반주서
100
AcDbLine
 10
47.87530426587905
 20
51.59848211250388
 30
0.0
 11
47.16436678031455
 21
51.59848211250389
 31
0.0
  0
LINE
  5
DC
330
D1
100
AcDbEntity
  8
치수문자_일반주서
100
AcDbLine
 10
67.15
 20
16.76022792433027
 30
0.0
 11
67.15
 21
47.36185038752053
 31
0.0
  0
LINE
  5
DD
330
D1
100
AcDbEntity
  8
치수문자_일반주서
100
AcDbLine
 10
16.34999999999999
 20
16.84514480566851
 30
0.0
 11
16.34999999999999
 21
47.36185038752053
 31
0.0
  0
LINE
  5
DE
330
D1
100
AcDbEntity
  8
치수문자_일반주서
100
AcDbLine
 10
67.15
 20
46.36185038752053
 30
0.0
 11
16.34999999999999
 21
46.36185038752053
 31
0.0
  0
MTEXT
  5
DF
330
D1
100
AcDbEntity
  8
치수문자_일반주서
100
AcDbMText
 10
35.11093770712609
 20
50.92705965338225
 30
0.0
 40
3.5
 41
0.0
 71
     1
 72
     1
  1

  7
SLDTEXTSTYLE0
 73
     1
 44
1.0
  0
MTEXT
  5
E0
330
D1
100
AcDbEntity
  8
치수문자_일반주서
100
AcDbMText
 10
37.22430581878869
 20
56.11021902708286
 30
0.0
 40
3.5
 41
0.0
 71
     1
 72
     1
  1
2.00
  7
SLDTEXTSTYLE0
 73
     1
 44
1.0
  0
MTEXT
  5
E1
330
D1
100
AcDbEntity
  8
치수문자_일반주서
100
AcDbMText
 10
35.93125010561193
 20
50.8735874767224
 30
0.0
 40
3.5
 41
0.0
 71
     1
 72
     1
  1
50.80
  7
SLDTEXTSTYLE0
 73
     1
 44
1.0
  0
MTEXT
  5
E2
330
D1
100
AcDbEntity
  8
치수문자_일반주서
100
AcDbMText
 10
49.72100751101966
 20
50.92705965338215
 30
0.0
 40
3.5
 41
0.0
 71
     1
 72
     1
  1

  7
SLDTEXTSTYLE0
 73
     1
 44
1.0
  0
ENDBLK
  5
D3
330
D1
100
AcDbEntity
  8
0
100
AcDbBlockEnd
  0
BLOCK
  5
E5
330
E4
100
AcDbEntity
  8
0
100
AcDbBlockBegin
  2
_D_3
 70
     0
 10
0.0
 20
0.0
 30
0.0
  3
_D_3
  1
_D_3
  0
SOLID
  5
E7
330
E4
100
AcDbEntity
  8
치수문자_일반주서
100
AcDbTrace
 10
67.15
 20
58.36185038752056
 30
0.0
 11
63.84800000000001
 21
58.86985038752056
 31
0.0
 12
63.84800000000001
 22
57.85385038752056
 32
0.0
 13
63.84800000000001
 23
57.85385038752056
 33
0.0
  0
SOLID
  5
E8
330
E4
100
AcDbEntity
  8
치수문자_일반주서
100
AcDbTrace
 10
-47.15000000000001
 20
58.36185038752055
 30
0.0
 11
-43.84800000000001
 21
57.85385038752054
 31
0.0
 12
-43.84800000000001
 22
58.86985038752055
 32
0.0
 13
-43.84800000000001
 23
58.86985038752055
 33
0.0
  0
LINE
  5
E9
330
E4
100
AcDbEntity
  8
치수문자_일반주서
100
AcDbLine
 10
4.585633918177327
 20
69.1547321035633
 30
0.0
 11
3.874696432612826
 21
69.1547321035633
 31
0.0
  0
LINE
  5
EA
330
E4
100
AcDbEntity
  8
치수문자_일반주서
100
AcDbLine
 10
3.874696432612826
 20
69.1547321035633
 30
0.0
 11
3.874696432612787
 21
63.598482112504
 31
0.0
  0
LINE
  5
EB
330
E4
100
AcDbEntity
  8
치수문자_일반주서
100
AcDbLine
 10
3.874696432612787
 20
63.598482112504
 30
0.0
 11
4.585633918177287
 21
63.598482112504
 31
0.0
  0
LINE
  5
EC
330
E4
100
AcDbEntity
  8
치수문자_일반주서
100
AcDbLine
 10
15.41436678031458
 20
69.15473210356322
 30
0.0
 11
16.12530426587908
 21
69.15473210356322
 31
0.0
  0
LINE
  5
ED
330
E4
100
AcDbEntity
  8
치수문자_일반주서
100
AcDbLine
 10
16.12530426587908
 20
69.15473210356322
 30
0.0
 11
16.12530426587904
 21
63.59848211250392
 31
0.0
  0
LINE
  5
EE
330
E4
100
AcDbEntity
  8
치수문자_일반주서
100
AcDbLine
 10
16.12530426587904
 20
63.59848211250392
 30
0.0
 11
15.41436678031454
 21
63.59848211250392
 31
0.0
  0
LINE
  5
EF
330
E4
100
AcDbEntity
  8
치수문자_일반주서
100
AcDbLine
 10
67.15
 20
16.76022792433027
 30
0.0
 11
67.15
 21
59.36185038752056
 31
0.0
  0
LINE
  5
F0
330
E4
100
AcDbEntity
  8
치수문자_일반주서
100
AcDbLine
 10
-47.15000000000001
 20
13.70107492872391
 30
0.0
 11
-47.15000000000001
 21
59.36185038752055
 31
0.0
  0
LINE
  5
F1
330
E4
100
AcDbEntity
  8
치수문자_일반주서
100
AcDbLine
 10
67.15
 20
58.36185038752056
 30
0.0
 11
-47.15000000000001
 21
58.36185038752055
 31
0.0
  0
MTEXT
  5
F2
330
E4
100
AcDbEntity
  8
치수문자_일반주서
100
AcDbMText
 10
2.907638795673793
 20
62.92705965338229
 30
0.0
 40
3.5
 41
0.0
 71
     1
 72
     1
  1

  7
SLDTEXTSTYLE0
 73
     1
 44
1.0
  0
MTEXT
  5
F3
330
E4
100
AcDbEntity
  8
치수문자_일반주서
100
AcDbMText
 10
5.474305818788689
 20
68.11021902708289
 30
0.0
 40
3.5
 41
0.0
 71
     1
 72
     1
  1
4.50
  7
SLDTEXTSTYLE0
 73
     1
 44
1.0
  0
MTEXT
  5
F4
330
E4
100
AcDbEntity
  8
치수문자_일반주서
100
AcDbMText
 10
2.888194392435197
 20
62.87358747672245
 30
0.0
 40
3.5
 41
0.0
 71
     1
 72
     1
  1
114.30
  7
SLDTEXTSTYLE0
 73
     1
 44
1.0
  0
MTEXT
  5
F5
330
E4
100
AcDbEntity
  8
치수문자_일반주서
100
AcDbMText
 10
18.42430642247195
 20
62.92705965338217
 30
0.0
 40
3.5
 41
0.0
 71
     1
 72
     1
  1

  7
SLDTEXTSTYLE0
 73
     1
 44
1.0
  0
ENDBLK
  5
E6
330
E4
100
AcDbEntity
  8
0
100
AcDbBlockEnd
  0
BLOCK
  5
FE
330
FD
100
AcDbEntity
  8
0
100
AcDbBlockBegin
  2
SW_DOWELSYMBOL_0
 70
     0
 10
0.0
 20
0.0
 30
0.0
  3
SW_DOWELSYMBOL_0
  1
SW_DOWELSYMBOL_0
  0
CIRCLE
  5
100
330
FD
100
AcDbEntity
  8
해칭선
 62
     0
100
AcDbCircle
 10
0.0
 20
0.0
 30
0.0
 40
3.000000000000001
  0
HATCH
  5
101
330
FD
100
AcDbEntity
  8
0
  6
Continuous
 62
     0
370
     0
100
AcDbHatch
 10
0.0
 20
0.0
 30
0.0
210
0.0
220
0.0
230
1.0
  2
SOLID
 70
     1
 71
     0
 91
        1
 92
        0
 93
        3
 72
     2
 10
0.0
 20
0.0
 40
3.000000000000001
 50
0.0
 51
90.0
 73
     1
 72
     1
 10
0.0
 20
3.000000000000001
 11
0.0
 21
0.0
 72
     1
 10
0.0
 20
0.0
 11
3.000000000000001
 21
0.0
 97
        0
 75
     0
 76
     1
 98
        1
 10
0.0
 20
0.0
  0
HATCH
  5
102
330
FD
100
AcDbEntity
  8
0
  6
Continuous
 62
     0
370
     0
100
AcDbHatch
 10
0.0
 20
0.0
 30
0.0
210
0.0
220
0.0
230
1.0
  2
SOLID
 70
     1
 71
     0
 91
        1
 92
        0
 93
        3
 72
     2
 10
0.0
 20
0.0
 40
3.000000000000001
 50
180.0
 51
270.0000000000007
 73
     1
 72
     1
 10
0.0
 20
-3.000000000000001
 11
0.0
 21
0.0
 72
     1
 10
0.0
 20
0.0
 11
-3.000000000000001
 21
0.0
 97
        0
 75
     0
 76
     1
 98
        1
 10
0.0
 20
0.0
  0
ENDBLK
  5
FF
330
FD
100
AcDbEntity
  8
0
100
AcDbBlockEnd
  0
BLOCK
  5
1CA
330
1C9
100
AcDbEntity
  8
0
100
AcDbBlockBegin
  2
*D7
 70
     1
 10
0.0
 20
0.0
 30
0.0
  3
*D7
  1
*D8
  0
LINE
  5
1CC
330
1C9
100
AcDbEntity
  8
치수문자_일반주서
 62
     0
370
    -2
100
AcDbLine
 10
130.4675000000001
 20
31.79269791134901
 30
0.0
 11
157.7985115393773
 21
31.79269791134911
 31
0.0
  0
LINE
  5
1CD
330
1C9
100
AcDbEntity
  8
치수문자_일반주서
 62
     0
370
    -2
100
AcDbLine
 10
130.4675000000001
 20
0.0426979113490005
 30
0.0
 11
157.7985115393774
 21
0.0426979113491033
 31
0.0
  0
LINE
  5
1CE
330
1C9
100
AcDbEntity
  8
치수문자_일반주서
 62
     0
370
    -2
100
AcDbLine
 10
157.7985115393773
 20
28.49069791134911
 30
0.0
 11
157.7985115393774
 21
3.344697911349103
 31
0.0
  0
SOLID
  5
1CF
330
1C9
100
AcDbEntity
  8
치수문자_일반주서
 62
     0
100
AcDbTrace
 10
158.3488448727106
 20
28.49069791134912
 30
0.0
 11
157.2481782060439
 21
28.49069791134911
 31
0.0
 12
157.7985115393773
 22
31.79269791134911
 32
0.0
 13
157.7985115393773
 23
31.79269791134911
 33
0.0
  0
SOLID
  5
1D0
330
1C9
100
AcDbEntity
  8
치수문자_일반주서
 62
     0
100
AcDbTrace
 10
157.2481782060441
 20
3.344697911349101
 30
0.0
 11
158.3488448727107
 21
3.344697911349105
 31
0.0
 12
157.7985115393774
 22
0.0426979113491033
 32
0.0
 13
157.7985115393774
 23
0.0426979113491033
 33
0.0
  0
MTEXT
  5
1D1
330
1C9
100
AcDbEntity
  8
치수문자_일반주서
 62
     0
100
AcDbMText
 10
153.4235115393773
 20
15.91769791134898
 30
0.0
 40
3.5
 41
0.0
 71
     2
 72
     1
  1
\A1;%%c31.75 [1 1/4]
  7
SLDTEXTSTYLE0
 11
-3.580687802255622E-15
 21
1.0
 31
0.0
 73
     1
 44
1.0
  0
POINT
  5
1D2
330
1C9
100
AcDbEntity
  8
Defpoints
 62
     0
100
AcDbPoint
 10
130.4050000000001
 20
31.79269791134901
 30
0.0
  0
POINT
  5
1D3
330
1C9
100
AcDbEntity
  8
Defpoints
 62
     0
100
AcDbPoint
 10
130.4050000000001
 20
0.0426979113490003
 30
0.0
  0
POINT
  5
1D4
330
1C9
100
AcDbEntity
  8
Defpoints
 62
     0
100
AcDbPoint
 10
157.7985115393774
 20
0.0426979113491026
 30
0.0
  0
ENDBLK
  5
1CB
330
1C9
100
AcDbEntity
  8
0
100
AcDbBlockEnd
  0
BLOCK
  5
1D6
330
1D5
100
AcDbEntity
  8
0
100
AcDbBlockBegin
  2
*D8
 70
     1
 10
0.0
 20
0.0
 30
0.0
  3
*D8
  1
*D9
  0
LINE
  5
1D8
330
1D5
100
AcDbEntity
  8
치수문자_일반주서
 62
     0
370
    -2
100
AcDbLine
 10
19.21750000000006
 20
31.792697911349
 30
0.0
 11
4.374999999999988
 21
31.79269791134895
 31
0.0
  0
LINE
  5
1D9
330
1D5
100
AcDbEntity
  8
치수문자_일반주서
 62
     0
370
    -2
100
AcDbLine
 10
19.21750000000006
 20
0.042697911349
 30
0.0
 11
4.375000000000099
 21
0.0426979113489434
 31
0.0
  0
LINE
  5
1DA
330
1D5
100
AcDbEntity
  8
치수문자_일반주서
 62
     0
370
    -2
100
AcDbLine
 10
4.374999999999999
 20
28.49069791134895
 30
0.0
 11
4.375000000000087
 21
3.344697911348943
 31
0.0
  0
SOLID
  5
1DB
330
1D5
100
AcDbEntity
  8
치수문자_일반주서
 62
     0
100
AcDbTrace
 10
4.925333333333333
 20
28.49069791134895
 30
0.0
 11
3.824666666666666
 21
28.49069791134894
 31
0.0
 12
4.374999999999988
 22
31.79269791134895
 32
0.0
 13
4.374999999999988
 23
31.79269791134895
 33
0.0
  0
SOLID
  5
1DC
330
1D5
100
AcDbEntity
  8
치수문자_일반주서
 62
     0
100
AcDbTrace
 10
3.824666666666754
 20
3.344697911348941
 30
0.0
 11
4.925333333333421
 21
3.344697911348945
 31
0.0
 12
4.375000000000099
 22
0.0426979113489434
 32
0.0
 13
4.375000000000099
 23
0.0426979113489434
 33
0.0
  0
MTEXT
  5
1DD
330
1D5
100
AcDbEntity
  8
치수문자_일반주서
 62
     0
100
AcDbMText
 10
0.0000000000000435
 20
15.91769791134898
 30
0.0
 40
3.5
 41
0.0
 71
     2
 72
     1
  1
\A1;%%c31.75 [1 1/4]
  7
SLDTEXTSTYLE0
 11
-3.496765431890257E-15
 21
1.0
 31
0.0
 73
     1
 44
1.0
  0
POINT
  5
1DE
330
1D5
100
AcDbEntity
  8
Defpoints
 62
     0
100
AcDbPoint
 10
19.28000000000006
 20
31.792697911349
 30
0.0
  0
POINT
  5
1DF
330
1D5
100
AcDbEntity
  8
Defpoints
 62
     0
100
AcDbPoint
 10
19.28000000000006
 20
0.0426979113490003
 30
0.0
  0
POINT
  5
1E0
330
1D5
100
AcDbEntity
  8
Defpoints
 62
     0
100
AcDbPoint
 10
4.375000000000099
 20
0.0426979113489446
 30
0.0
  0
ENDBLK
  5
1D7
330
1D5
100
AcDbEntity
  8
0
100
AcDbBlockEnd
  0
BLOCK
  5
1E2
330
1E1
100
AcDbEntity
  8
0
100
AcDbBlockBegin
  2
*D9
 70
     1
 10
0.0
 20
0.0
 30
0.0
  3
*D9
  1
*D10
  0
LINE
  5
1E4
330
1E1
100
AcDbEntity
  8
치수문자_일반주서
 62
     0
370
    -2
100
AcDbLine
 10
130.4050000000001
 20
31.73935090695537
 30
0.0
 11
130.4050000000001
 21
53.00891213855051
 31
0.0
  0
LINE
  5
1E5
330
1E1
100
AcDbEntity
  8
치수문자_일반주서
 62
     0
370
    -2
100
AcDbLine
 10
79.60500000000005
 20
31.82426778829361
 30
0.0
 11
79.60500000000005
 21
53.00891213855051
 31
0.0
  0
LINE
  5
1E6
330
1E1
100
AcDbEntity
  8
치수문자_일반주서
 62
     0
370
    -2
100
AcDbLine
 10
127.1030000000001
 20
53.00891213855051
 30
0.0
 11
82.90700000000004
 21
53.00891213855051
 31
0.0
  0
SOLID
  5
1E7
330
1E1
100
AcDbEntity
  8
치수문자_일반주서
 62
     0
100
AcDbTrace
 10
127.1030000000001
 20
52.45857880521717
 30
0.0
 11
127.1030000000001
 21
53.55924547188384
 31
0.0
 12
130.4050000000001
 22
53.00891213855051
 32
0.0
 13
130.4050000000001
 23
53.00891213855051
 33
0.0
  0
SOLID
  5
1E8
330
1E1
100
AcDbEntity
  8
치수문자_일반주서
 62
     0
100
AcDbTrace
 10
82.90700000000004
 20
53.55924547188384
 30
0.0
 11
82.90700000000004
 21
52.45857880521717
 31
0.0
 12
79.60500000000005
 22
53.00891213855051
 32
0.0
 13
79.60500000000005
 23
53.00891213855051
 33
0.0
  0
MTEXT
  5
1E9
330
1E1
100
AcDbEntity
  8
치수문자_일반주서
 62
     0
100
AcDbMText
 10
105.0050000000001
 20
57.38391213855051
 30
0.0
 40
3.5
 41
0.0
 71
     2
 72
     1
  1
\A1;50.8 [2]
  7
SLDTEXTSTYLE0
 73
     1
 44
1.0
  0
POINT
  5
1EA
330
1E1
100
AcDbEntity
  8
Defpoints
 62
     0
100
AcDbPoint
 10
130.4050000000001
 20
31.67685090695537
 30
0.0
  0
POINT
  5
1EB
330
1E1
100
AcDbEntity
  8
Defpoints
 62
     0
100
AcDbPoint
 10
79.60500000000005
 20
31.76176778829361
 30
0.0
  0
POINT
  5
1EC
330
1E1
100
AcDbEntity
  8
Defpoints
 62
     0
100
AcDbPoint
 10
79.60500000000005
 20
53.00891213855051
 30
0.0
  0
ENDBLK
  5
1E3
330
1E1
100
AcDbEntity
  8
0
100
AcDbBlockEnd
  0
BLOCK
  5
1EE
330
1ED
100
AcDbEntity
  8
0
100
AcDbBlockBegin
  2
*D10
 70
     1
 10
0.0
 20
0.0
 30
0.0
  3
*D10
  1
*D11
  0
LINE
  5
1F0
330
1ED
100
AcDbEntity
  8
치수문자_일반주서
 62
     0
370
    -2
100
AcDbLine
 10
130.4050000000001
 20
31.73935090695537
 30
0.0
 11
130.4050000000001
 21
74.27847337014565
 31
0.0
  0
LINE
  5
1F1
330
1ED
100
AcDbEntity
  8
치수문자_일반주서
 62
     0
370
    -2
100
AcDbLine
 10
16.10500000000005
 20
28.68019791134902
 30
0.0
 11
16.10500000000005
 21
74.27847337014565
 31
0.0
  0
LINE
  5
1F2
330
1ED
100
AcDbEntity
  8
치수문자_일반주서
 62
     0
370
    -2
100
AcDbLine
 10
127.1030000000001
 20
74.27847337014565
 30
0.0
 11
19.40700000000005
 21
74.27847337014565
 31
0.0
  0
SOLID
  5
1F3
330
1ED
100
AcDbEntity
  8
치수문자_일반주서
 62
     0
100
AcDbTrace
 10
127.1030000000001
 20
73.72814003681232
 30
0.0
 11
127.1030000000001
 21
74.82880670347897
 31
0.0
 12
130.4050000000001
 22
74.27847337014565
 32
0.0
 13
130.4050000000001
 23
74.27847337014565
 33
0.0
  0
SOLID
  5
1F4
330
1ED
100
AcDbEntity
  8
치수문자_일반주서
 62
     0
100
AcDbTrace
 10
19.40700000000005
 20
74.82880670347897
 30
0.0
 11
19.40700000000005
 21
73.72814003681232
 31
0.0
 12
16.10500000000005
 22
74.27847337014565
 32
0.0
 13
16.10500000000005
 23
74.27847337014565
 33
0.0
  0
MTEXT
  5
1F5
330
1ED
100
AcDbEntity
  8
치수문자_일반주서
 62
     0
100
AcDbMText
 10
73.25500000000005
 20
78.65347337014565
 30
0.0
 40
3.5
 41
0.0
 71
     2
 72
     1
  1
\A1;114.3 [4 1/2]
  7
SLDTEXTSTYLE0
 73
     1
 44
1.0
  0
POINT
  5
1F6
330
1ED
100
AcDbEntity
  8
Defpoints
 62
     0
100
AcDbPoint
 10
130.4050000000001
 20
31.67685090695537
 30
0.0
  0
POINT
  5
1F7
330
1ED
100
AcDbEntity
  8
Defpoints
 62
     0
100
AcDbPoint
 10
16.10500000000005
 20
28.61769791134902
 30
0.0
  0
POINT
  5
1F8
330
1ED
100
AcDbEntity
  8
Defpoints
 62
     0
100
AcDbPoint
 10
16.10500000000005
 20
74.27847337014565
 30
0.0
  0
ENDBLK
  5
1EF
330
1ED
100
AcDbEntity
  8
0
100
AcDbBlockEnd
  0
BLOCK
  5
239
330
238
100
AcDbEntity
  8
0
100
AcDbBlockBegin
  2
*D11
 70
     1
 10
0.0
 20
0.0
 30
0.0
  3
*D11
  1
*D12
  0
LINE
  5
23B
330
238
100
AcDbEntity
  8
치수문자_일반주서
 62
     0
370
    -2
100
AcDbLine
 10
56.03750000000001
 20
19.05000000000015
 30
0.0
 11
83.36851153937721
 21
19.05000000000025
 31
0.0
  0
LINE
  5
23C
330
238
100
AcDbEntity
  8
치수문자_일반주서
 62
     0
370
    -2
100
AcDbLine
 10
56.03750000000001
 20
-19.04999999999985
 30
0.0
 11
83.36851153937734
 21
-19.04999999999976
 31
0.0
  0
LINE
  5
23D
330
238
100
AcDbEntity
  8
치수문자_일반주서
 62
     0
370
    -2
100
AcDbLine
 10
83.36851153937722
 20
15.74800000000025
 30
0.0
 11
83.36851153937732
 21
-15.74799999999976
 31
0.0
  0
SOLID
  5
23E
330
238
100
AcDbEntity
  8
치수문자_일반주서
 62
     0
100
AcDbTrace
 10
83.91884487271055
 20
15.74800000000025
 30
0.0
 11
82.8181782060439
 21
15.74800000000024
 31
0.0
 12
83.36851153937721
 22
19.05000000000025
 32
0.0
 13
83.36851153937721
 23
19.05000000000025
 33
0.0
  0
SOLID
  5
23F
330
238
100
AcDbEntity
  8
치수문자_일반주서
 62
     0
100
AcDbTrace
 10
82.818178206044
 20
-15.74799999999976
 30
0.0
 11
83.91884487271065
 21
-15.74799999999975
 31
0.0
 12
83.36851153937734
 22
-19.04999999999976
 32
0.0
 13
83.36851153937734
 23
-19.04999999999976
 33
0.0
  0
MTEXT
  5
240
330
238
100
AcDbEntity
  8
치수문자_일반주서
 62
     0
100
AcDbMText
 10
78.99351153937728
 20
-0.0000000000000216
 30
0.0
 40
3.5
 41
0.0
 71
     2
 72
     1
  1
\A1;%%c38.1 [1 1/2]
  7
SLDTEXTSTYLE0
 11
-3.356894814614647E-15
 21
1.0
 31
0.0
 73
     1
 44
1.0
  0
POINT
  5
241
330
238
100
AcDbEntity
  8
Defpoints
 62
     0
100
AcDbPoint
 10
55.97500000000001
 20
19.05000000000015
 30
0.0
  0
POINT
  5
242
330
238
100
AcDbEntity
  8
Defpoints
 62
     0
100
AcDbPoint
 10
55.97500000000001
 20
-19.04999999999985
 30
0.0
  0
POINT
  5
243
330
238
100
AcDbEntity
  8
Defpoints
 62
     0
100
AcDbPoint
 10
83.36851153937734
 20
-19.04999999999975
 30
0.0
  0
ENDBLK
  5
23A
330
238
100
AcDbEntity
  8
0
100
AcDbBlockEnd
  0
BLOCK
  5
245
330
244
100
AcDbEntity
  8
0
100
AcDbBlockBegin
  2
*D12
 70
     1
 10
0.0
 20
0.0
 30
0.0
  3
*D12
  1
*D13
  0
LINE
  5
247
330
244
100
AcDbEntity
  8
치수문자_일반주서
 62
     0
370
    -2
100
AcDbLine
 10
-55.21249999999999
 20
15.875
 30
0.0
 11
-70.05500000000006
 21
15.87499999999994
 31
0.0
  0
LINE
  5
248
330
244
100
AcDbEntity
  8
치수문자_일반주서
 62
     0
370
    -2
100
AcDbLine
 10
-55.21249999999999
 20
-15.875
 30
0.0
 11
-70.05499999999995
 21
-15.87500000000006
 31
0.0
  0
LINE
  5
249
330
244
100
AcDbEntity
  8
치수문자_일반주서
 62
     0
370
    -2
100
AcDbLine
 10
-70.05500000000005
 20
12.57299999999994
 30
0.0
 11
-70.05499999999996
 21
-12.57300000000006
 31
0.0
  0
SOLID
  5
24A
330
244
100
AcDbEntity
  8
치수문자_일반주서
 62
     0
100
AcDbTrace
 10
-69.50466666666672
 20
12.57299999999995
 30
0.0
 11
-70.60533333333338
 21
12.57299999999994
 31
0.0
 12
-70.05500000000006
 22
15.87499999999994
 32
0.0
 13
-70.05500000000006
 23
15.87499999999994
 33
0.0
  0
SOLID
  5
24B
330
244
100
AcDbEntity
  8
치수문자_일반주서
 62
     0
100
AcDbTrace
 10
-70.60533333333329
 20
-12.57300000000006
 30
0.0
 11
-69.50466666666664
 21
-12.57300000000006
 31
0.0
 12
-70.05499999999995
 22
-15.87500000000006
 32
0.0
 13
-70.05499999999995
 23
-15.87500000000006
 33
0.0
  0
MTEXT
  5
24C
330
244
100
AcDbEntity
  8
치수문자_일반주서
 62
     0
100
AcDbMText
 10
-74.43
 20
-0.0000000000000226
 30
0.0
 40
3.5
 41
0.0
 71
     2
 72
     1
  1
\A1;%%c31.75 [1 1/4]
  7
SLDTEXTSTYLE0
 11
-3.580687802255623E-15
 21
1.0
 31
0.0
 73
     1
 44
1.0
  0
POINT
  5
24D
330
244
100
AcDbEntity
  8
Defpoints
 62
     0
100
AcDbPoint
 10
-55.14999999999999
 20
15.875
 30
0.0
  0
POINT
  5
24E
330
244
100
AcDbEntity
  8
Defpoints
 62
     0
100
AcDbPoint
 10
-55.14999999999999
 20
-15.875
 30
0.0
  0
POINT
  5
24F
330
244
100
AcDbEntity
  8
Defpoints
 62
     0
100
AcDbPoint
 10
-70.05499999999995
 20
-15.87500000000006
 30
0.0
  0
ENDBLK
  5
246
330
244
100
AcDbEntity
  8
0
100
AcDbBlockEnd
  0
BLOCK
  5
251
330
250
100
AcDbEntity
  8
0
100
AcDbBlockBegin
  2
*D13
 70
     1
 10
0.0
 20
0.0
 30
0.0
  3
*D13
  1
*D14
  0
LINE
  5
253
330
250
100
AcDbEntity
  8
치수문자_일반주서
 62
     0
370
    -2
100
AcDbLine
 10
55.97500000000001
 20
19.34727378659116
 30
0.0
 11
55.97500000000001
 21
37.0912142272015
 31
0.0
  0
LINE
  5
254
330
250
100
AcDbEntity
  8
치수문자_일반주서
 62
     0
370
    -2
100
AcDbLine
 10
5.174999999999994
 20
19.34727378659116
 30
0.0
 11
5.174999999999994
 21
37.0912142272015
 31
0.0
  0
LINE
  5
255
330
250
100
AcDbEntity
  8
치수문자_일반주서
 62
     0
370
    -2
100
AcDbLine
 10
52.67300000000001
 20
37.0912142272015
 30
0.0
 11
8.476999999999993
 21
37.0912142272015
 31
0.0
  0
SOLID
  5
256
330
250
100
AcDbEntity
  8
치수문자_일반주서
 62
     0
100
AcDbTrace
 10
52.67300000000001
 20
36.54088089386817
 30
0.0
 11
52.67300000000001
 21
37.64154756053484
 31
0.0
 12
55.97500000000001
 22
37.0912142272015
 32
0.0
 13
55.97500000000001
 23
37.0912142272015
 33
0.0
  0
SOLID
  5
257
330
250
100
AcDbEntity
  8
치수문자_일반주서
 62
     0
100
AcDbTrace
 10
8.476999999999993
 20
37.64154756053484
 30
0.0
 11
8.476999999999993
 21
36.54088089386817
 31
0.0
 12
5.174999999999994
 22
37.0912142272015
 32
0.0
 13
5.174999999999994
 23
37.0912142272015
 33
0.0
  0
MTEXT
  5
258
330
250
100
AcDbEntity
  8
치수문자_일반주서
 62
     0
100
AcDbMText
 10
30.575
 20
41.4662142272015
 30
0.0
 40
3.5
 41
0.0
 71
     2
 72
     1
  1
\A1;50.8 [2]
  7
SLDTEXTSTYLE0
 73
     1
 44
1.0
  0
POINT
  5
259
330
250
100
AcDbEntity
  8
Defpoints
 62
     0
100
AcDbPoint
 10
55.97500000000001
 20
19.28477378659116
 30
0.0
  0
POINT
  5
25A
330
250
100
AcDbEntity
  8
Defpoints
 62
     0
100
AcDbPoint
 10
5.174999999999994
 20
19.28477378659116
 30
0.0
  0
POINT
  5
25B
330
250
100
AcDbEntity
  8
Defpoints
 62
     0
100
AcDbPoint
 10
5.174999999999994
 20
37.0912142272015
 30
0.0
  0
ENDBLK
  5
252
330
250
100
AcDbEntity
  8
0
100
AcDbBlockEnd
  0
BLOCK
  5
25D
330
25C
100
AcDbEntity
  8
0
100
AcDbBlockBegin
  2
*D14
 70
     1
 10
0.0
 20
0.0
 30
0.0
  3
*D14
  1
*D15
  0
LINE
  5
25F
330
25C
100
AcDbEntity
  8
치수문자_일반주서
 62
     0
370
    -2
100
AcDbLine
 10
55.97500000000001
 20
19.49776809969914
 30
0.0
 11
55.97500000000002
 21
58.36077545879665
 31
0.0
  0
LINE
  5
260
330
25C
100
AcDbEntity
  8
치수문자_일반주서
 62
     0
370
    -2
100
AcDbLine
 10
-58.325
 20
12.76250000000002
 30
0.0
 11
-58.32499999999999
 21
58.36077545879665
 31
0.0
  0
LINE
  5
261
330
25C
100
AcDbEntity
  8
치수문자_일반주서
 62
     0
370
    -2
100
AcDbLine
 10
52.67300000000002
 20
58.36077545879665
 30
0.0
 11
-55.02299999999999
 21
58.36077545879665
 31
0.0
  0
SOLID
  5
262
330
25C
100
AcDbEntity
  8
치수문자_일반주서
 62
     0
100
AcDbTrace
 10
52.67300000000002
 20
57.81044212546331
 30
0.0
 11
52.67300000000002
 21
58.91110879212998
 31
0.0
 12
55.97500000000002
 22
58.36077545879665
 32
0.0
 13
55.97500000000002
 23
58.36077545879665
 33
0.0
  0
SOLID
  5
263
330
25C
100
AcDbEntity
  8
치수문자_일반주서
 62
     0
100
AcDbTrace
 10
-55.02299999999999
 20
58.91110879212998
 30
0.0
 11
-55.02299999999999
 21
57.81044212546331
 31
0.0
 12
-58.32499999999999
 22
58.36077545879665
 32
0.0
 13
-58.32499999999999
 23
58.36077545879665
 33
0.0
  0
MTEXT
  5
264
330
25C
100
AcDbEntity
  8
치수문자_일반주서
 62
     0
100
AcDbMText
 10
-1.175
 20
62.73577545879665
 30
0.0
 40
3.5
 41
0.0
 71
     2
 72
     1
  1
\A1;114.3 [4 1/2]
  7
SLDTEXTSTYLE0
 73
     1
 44
1.0
  0
POINT
  5
265
330
25C
100
AcDbEntity
  8
Defpoints
 62
     0
100
AcDbPoint
 10
55.97500000000001
 20
19.43526809969914
 30
0.0
  0
POINT
  5
266
330
25C
100
AcDbEntity
  8
Defpoints
 62
     0
100
AcDbPoint
 10
-58.325
 20
12.70000000000002
 30
0.0
  0
POINT
  5
267
330
25C
100
AcDbEntity
  8
Defpoints
 62
     0
100
AcDbPoint
 10
-58.325
 20
58.36077545879665
 30
0.0
  0
ENDBLK
  5
25E
330
25C
100
AcDbEntity
  8
0
100
AcDbBlockEnd
  0
ENDSEC
  0
SECTION
  2
ENTITIES
  0
LINE
  5
9D
330
1F
100
AcDbEntity
  8
참조1
100
AcDbLine
 10
5.175000000000018
 20
-0.0000000000000131
 30
0.0
 11
5.175000000000021
 21
-40.00000000000001
 31
0.0
  0
LINE
  5
9E
330
1F
100
AcDbEntity
  8
참조1
100
AcDbLine
 10
5.175000000000021
 20
-40.00000000000001
 30
0.0
 11
-17.92135681430867
 21
-40.00000000000001
 31
0.0
  0
INSERT
  5
A0
330
1F
100
AcDbEntity
  8
0
  6
Continuous
 62
     7
100
AcDbBlockReference
 66
     1
  2
블럭10
 10
-8.765272932125189
 20
-52.04717430164394
 30
0.0
  0
ATTRIB
  5
A1
330
A0
100
AcDbEntity
  8
FORMAT
 62
     2
100
AcDbText
 10
-17.8328947126992
 20
-49.97180738881175
 30
0.0
 40
4.233333333333333
  1
EE882132 [ 6 FLUTE ]
 41
0.75
  7
SLDTEXTSTYLE0
 11
-17.8328947126992
 21
-52.08847405547842
 31
0.0
100
AcDbAttribute
  2
AUTOATTR0
 70
     0
 74
     1
  0
SEQEND
  5
A2
330
A0
100
AcDbEntity
  8
0
  6
Continuous
 62
     7
  0
HATCH
  5
A3
330
1F
100
AcDbEntity
  8
중심선
100
AcDbHatch
 10
0.0
 20
0.0
 30
0.0
210
0.0
220
0.0
230
1.0
  2
SOLID
 70
     1
 71
     0
 91
        1
 92
        0
 93
        4
 72
     1
 10
-3.050363627744352
 20
-35.8
 11
-6.496638871581634
 21
-35.8
 72
     1
 10
-6.496638871581634
 20
-35.8
 11
-8.624868730785685
 21
-38.33632558057261
 72
     1
 10
-8.624868730785685
 20
-38.33632558057261
 11
-5.178560401835226
 21
-38.33628615127012
 72
     1
 10
-5.178560401835226
 20
-38.33628615127012
 11
-3.050363627744352
 21
-35.8
 97
        0
 75
     0
 76
     1
 98
        1
 10
-4.824999999999991
 20
-0.0010749287239022
  0
HATCH
  5
A4
330
1F
100
AcDbEntity
  8
중심선
100
AcDbHatch
 10
0.0
 20
0.0
 30
0.0
210
0.0
220
0.0
230
1.0
  2
SOLID
 70
     1
 71
     0
 91
        1
 92
        0
 93
        4
 72
     1
 10
1.962400363291599
 20
-35.79999999999998
 11
-1.483874880545684
 21
-35.80000000000003
 72
     1
 10
-1.483874880545684
 20
-35.80000000000003
 11
-6.015012888903074
 21
-41.20000000000002
 72
     1
 10
-6.015012888903072
 20
-41.20000000000002
 11
-2.568737645065789
 21
-41.20000000000002
 72
     1
 10
-2.568737645065789
 20
-41.20000000000002
 11
1.962400363291599
 21
-35.79999999999998
 97
        0
 75
     0
 76
     1
 98
        1
 10
-4.824999999999991
 20
-0.0010749287239022
  0
HATCH
  5
A5
330
1F
100
AcDbEntity
  8
중심선
100
AcDbHatch
 10
0.0
 20
0.0
 30
0.0
210
0.0
220
0.0
230
1.0
  2
SOLID
 70
     1
 71
     0
 91
        1
 92
        0
 93
        4
 72
     1
 10
6.975164354327494
 20
-35.79999999999998
 11
3.528889110490407
 21
-35.8
 72
     1
 10
3.528889110490407
 20
-35.8
 11
-3.51954779139887
 21
-44.20000000000002
 72
     1
 10
-3.51954779139887
 20
-44.20000000000002
 11
-0.0732725475615874
 21
-44.20000000000002
 72
     1
 10
-0.0732725475615874
 20
-44.20000000000002
 11
6.975164354327494
 21
-35.79999999999998
 97
        0
 75
     0
 76
     1
 98
        1
 10
-4.824999999999991
 20
-0.0010749287239022
  0
HATCH
  5
A6
330
1F
100
AcDbEntity
  8
중심선
100
AcDbHatch
 10
0.0
 20
0.0
 30
0.0
210
0.0
220
0.0
230
1.0
  2
SOLID
 70
     1
 71
     0
 91
        1
 92
        0
 93
        6
 72
     3
 10
11.77505478533969
 20
-40.00000000005128
 11
3.960054785062283
 21
1.540882976769353E-10
 40
0.3939339440162628
 50
17.09539180608436
 51
320.0019657685078
 73
     0
 72
     1
 10
13.45805444104032
 20
-38.58789400463828
 11
15.76335631474135
 21
-36.65356729459036
 72
     3
 10
11.77505478528685
 20
-40.00000000000016
 11
6.600054785286829
 21
-1.278976924368180E-13
 40
0.636358354079598
 50
39.99873849337413
 51
368.4976242363724
 73
     1
 72
     1
 10
18.20038727718746
 20
-39.03999999993003
 11
10.45512209212277
 21
-39.03999999993003
 72
     1
 10
10.45512209212277
 20
-39.03999999993003
 11
10.45509704767684
 21
-40.95999999992992
 72
     1
 10
10.45509704767684
 20
-40.95999999992992
 11
14.89647681714887
 21
-40.95999999992989
 97
        0
 75
     0
 76
     1
 98
        1
 10
-4.824999999999991
 20
-0.0010749287239022
  0
LINE
  5
F6
330
1F
100
AcDbEntity
  8
참조1
100
AcDbLine
 10
80.0509838153456
 20
7.439999999999993
 30
0.0
 11
80.0509838153456
 21
-7.440000000000011
 31
0.0
  0
LINE
  5
F7
330
1F
100
AcDbEntity
  8
참조1
100
AcDbLine
 10
92.7509838153456
 20
5.439999999999993
 30
0.0
 11
80.0509838153456
 21
5.439999999999993
 31
0.0
  0
SOLID
  5
F8
330
1F
100
AcDbEntity
  8
참조1
100
AcDbTrace
 10
80.0509838153456
 20
5.439999999999993
 30
0.0
 11
86.4009838153456
 21
4.423999999999993
 31
0.0
 12
86.4009838153456
 22
6.455999999999993
 32
0.0
 13
86.4009838153456
 23
6.455999999999993
 33
0.0
  0
LINE
  5
F9
330
1F
100
AcDbEntity
  8
참조1
100
AcDbLine
 10
92.7509838153456
 20
-5.440000000000011
 30
0.0
 11
80.0509838153456
 21
-5.440000000000011
 31
0.0
  0
SOLID
  5
FA
330
1F
100
AcDbEntity
  8
참조1
100
AcDbTrace
 10
80.0509838153456
 20
-5.440000000000011
 30
0.0
 11
86.4009838153456
 21
-6.456000000000011
 31
0.0
 12
86.4009838153456
 22
-4.424000000000011
 32
0.0
 13
86.4009838153456
 23
-4.424000000000011
 33
0.0
  0
MTEXT
  5
FB
330
1F
100
AcDbEntity
  8
참조1
100
AcDbMText
 10
89.44847390781587
 20
10.98821664464993
 30
0.0
 40
3.5
 41
0.0
 71
     1
 72
     1
  1
A
  7
SLDTEXTSTYLE0
 73
     1
 44
1.0
  0
MTEXT
  5
FC
330
1F
100
AcDbEntity
  8
참조1
100
AcDbMText
 10
89.44847390781587
 20
0.1082166446499237
 30
0.0
 40
3.5
 41
0.0
 71
     1
 72
     1
  1
A
  7
SLDTEXTSTYLE0
 73
     1
 44
1.0
  0
LINE
  5
1FC
330
1F
100
AcDbEntity
  8
외형선
  6
Continuous
 62
     1
370
    15
100
AcDbLine
 10
17.91681159597161
 20
19.28477378659116
 30
0.0
 11
13.2535132884054
 21
19.28477378659116
 31
0.0
  0
LINE
  5
1FD
330
1F
100
AcDbEntity
  8
외형선
  6
Continuous
 62
     1
370
    15
100
AcDbLine
 10
33.44798680303741
 20
-19.28477378659122
 30
0.0
 11
38.1116633312315
 21
-19.28477378659122
 31
0.0
  0
LINE
  5
1FE
330
1F
100
AcDbEntity
  8
외형선
  6
Continuous
 62
     1
370
    15
100
AcDbLine
 10
13.25351328840526
 20
-19.28477378659122
 30
0.0
 11
17.91681159597148
 21
-19.28477378659122
 31
0.0
  0
LINE
  5
1FF
330
1F
100
AcDbEntity
  8
외형선
  6
Continuous
 62
     1
370
    15
100
AcDbLine
 10
38.1116633312315
 20
19.28477378659116
 30
0.0
 11
33.44798680303752
 21
19.28477378659116
 31
0.0
  0
LINE
  5
203
330
1F
100
AcDbEntity
  8
외형선
  6
Continuous
370
    15
100
AcDbLine
 10
-55.15000000000001
 20
-15.875
 30
0.0
 11
2.79375
 21
-15.875
 31
0.0
  0
LINE
  5
204
330
1F
100
AcDbEntity
  8
외형선
  6
Continuous
370
    15
100
AcDbLine
 10
2.793749999999994
 20
15.875
 30
0.0
 11
-20.41232499999998
 21
15.875
 31
0.0
  0
LINE
  5
207
330
1F
100
AcDbEntity
  8
외형선
  6
Continuous
370
    15
100
AcDbLine
 10
-58.325
 20
-12.70000000000001
 30
0.0
 11
-55.15000000000001
 21
-15.875
 31
0.0
  0
LINE
  5
208
330
1F
100
AcDbEntity
  8
외형선
  6
Continuous
 62
     1
370
    15
100
AcDbLine
 10
55.97500000000001
 20
-19.04999999999985
 30
0.0
 11
55.97500000000001
 21
-11.55136537302763
 31
0.0
  0
SPLINE
  5
209
330
1F
100
AcDbEntity
  8
외형선
  6
Continuous
 62
     1
370
    15
100
AcDbSpline
210
0.0
220
0.0
230
1.0
 70
     8
 71
     3
 72
    27
 73
    23
 74
     0
 42
0.000000001
 43
0.00000001
 40
0.127971646814853
 40
0.127971646814853
 40
0.127971646814853
 40
0.127971646814853
 40
0.1483180673507522
 40
0.1898849875283521
 40
0.2348752143479067
 40
0.2798664411053253
 40
0.3248959491020271
 40
0.3699123759070065
 40
0.4148995400486704
 40
0.4598960720450667
 40
0.5049315673362199
 40
0.5499383923179244
 40
0.5949243055053554
 40
0.6399279500322279
 40
0.6849644024984018
 40
0.7299634280825607
 40
0.7749499026315395
 40
0.8199624636176479
 40
0.8649948425791101
 40
0.909987874878045
 40
0.9549767228386311
 40
1.0
 40
1.0
 40
1.0
 40
1.0
 10
5.174999999999991
 20
17.86244747465291
 30
0.0
 10
5.570059621352988
 20
17.71337109970141
 30
0.0
 10
6.772376770288775
 20
17.22500164541888
 30
0.0
 10
8.849306261691051
 20
16.20961394450503
 30
0.0
 10
11.40285206554393
 20
14.6768063451685
 30
0.0
 10
14.02378488902134
 20
12.8330866872133
 30
0.0
 10
16.64704070948823
 20
10.75343824263044
 30
0.0
 10
19.26947793950345
 20
8.474880943594398
 30
0.0
 10
21.8901352313442
 20
6.039441770297513
 30
0.0
 10
24.51134306182248
 20
3.49232013926172
 30
0.0
 10
27.13499145439486
 20
0.8823930405186865
 30
0.0
 10
29.75682532997959
 20
-1.745197214765473
 30
0.0
 10
32.37740805620141
 20
-4.340594196081903
 30
0.0
 10
34.99904570595655
 20
-6.855938013167531
 30
0.0
 10
37.62275558584209
 20
-9.243356854475065
 30
0.0
 10
40.24411222877075
 20
-11.4616612308855
 30
0.0
 10
42.8647286860016
 20
-13.46833571002597
 30
0.0
 10
45.48692036427287
 20
-15.22570944919017
 30
0.0
 10
48.11036876610042
 20
-16.70339499596184
 30
0.0
 10
50.73137236009836
 20
-17.86683445142862
 30
0.0
 10
53.35213169477363
 20
-18.72566499246564
 30
0.0
 10
55.10048765236974
 20
-19.00454886128812
 30
0.0
 10
55.97500000000001
 20
-19.04999999999985
 30
0.0
  0
SPLINE
  5
20A
330
1F
100
AcDbEntity
  8
외형선
  6
Continuous
 62
     1
370
    15
100
AcDbSpline
210
0.0
220
0.0
230
1.0
 70
     8
 71
     3
 72
    24
 73
    20
 74
     0
 42
0.000000001
 43
0.00000001
 40
0.0
 40
0.0
 40
0.0
 40
0.0
 40
0.0519490220856624
 40
0.1038583188686677
 40
0.1557724436495216
 40
0.2077319676276249
 40
0.25966862511301
 40
0.3115751833922943
 40
0.3634962233807054
 40
0.4154604474739391
 40
0.467386816917961
 40
0.5192927274837672
 40
0.5712227666188617
 40
0.6231858862987921
 40
0.6751040491211251
 40
0.7270114030702922
 40
0.7789525210375114
 40
0.8309087324221928
 40
0.8434745392171166
 40
0.8434745392171166
 40
0.8434745392171166
 40
0.8434745392171166
 10
55.97500000000005
 20
-11.58598723841825
 30
0.0
 10
55.10048765236981
 20
-10.86664058775288
 30
0.0
 10
53.35213169477356
 20
-9.428497369219969
 30
0.0
 10
50.73137236009845
 20
-7.038920132570801
 30
0.0
 10
48.11036876610031
 20
-4.534608291198333
 30
0.0
 10
45.48692036427351
 20
-1.943980354407356
 30
0.0
 10
42.86472868599918
 20
0.682394877923994
 30
0.0
 10
40.2441122287796
 20
3.296754933750287
 30
0.0
 10
37.62275558580921
 20
5.850343356959063
 30
0.0
 10
34.99904570607934
 20
8.294421561087692
 30
0.0
 10
32.3774080557438
 20
10.58686016623245
 30
0.0
 10
29.7568253316868
 20
12.68377812582704
 30
0.0
 10
27.13499144801841
 20
14.54653078260692
 30
0.0
 10
24.51134308562774
 20
16.13998879612542
 30
0.0
 10
21.89013514259708
 20
17.43658976983867
 30
0.0
 10
19.26947827073553
 20
18.41105768963505
 30
0.0
 10
16.6470394722552
 20
19.04595396415597
 30
0.0
 10
14.68623367299103
 20
19.25666748653726
 30
0.0
 10
13.6003826131807
 20
19.28310972002231
 30
0.0
 10
13.38892456597131
 20
19.28477378659116
 30
0.0
  0
SPLINE
  5
20B
330
1F
100
AcDbEntity
  8
외형선
  6
Continuous
 62
     1
370
    15
100
AcDbSpline
210
0.0
220
0.0
230
1.0
 70
     8
 71
     3
 72
    24
 73
    20
 74
     0
 42
0.000000001
 43
0.00000001
 40
0.2114234114420399
 40
0.2114234114420399
 40
0.2114234114420399
 40
0.2114234114420399
 40
0.2343869494289
 40
0.2813004463599176
 40
0.33207757535593
 40
0.3828558329075756
 40
0.4336772956520513
 40
0.4844839946265603
 40
0.5352576670054068
 40
0.5860419121864323
 40
0.6368701323456665
 40
0.6876659944550719
 40
0.7384382549747449
 40
0.7892305275408943
 40
0.8400598279925149
 40
0.8908468875009274
 40
0.9416197815877047
 40
0.9924221174994473
 40
1.0
 40
1.0
 40
1.0
 40
1.0
 10
5.17499999999998
 20
2.634571551078747
 30
0.0
 10
5.570059912908982
 20
2.243203945383027
 30
0.0
 10
6.772374275886816
 20
1.047455496930835
 30
0.0
 10
8.849306910870272
 20
-1.031017185589068
 30
0.0
 10
11.40285188581734
 20
-3.574584825615766
 30
0.0
 10
14.02378493722625
 20
-6.118800284150012
 30
0.0
 10
16.64704069656856
 20
-8.548910237574699
 30
0.0
 10
19.26947794297149
 20
-10.82187841639322
 30
0.0
 10
21.89013523038086
 20
-12.89552083384012
 30
0.0
 10
24.51134306220832
 20
-14.73120036789792
 30
0.0
 10
27.13499145381561
 20
-16.29398617352822
 30
0.0
 10
29.75682533190873
 20
-17.55694795650841
 30
0.0
 10
32.377408049066
 20
-18.49565019955368
 30
0.0
 10
34.99904573258999
 20
-19.0935116837528
 30
0.0
 10
37.62275548640476
 20
-19.33664273534873
 30
0.0
 10
40.24411259947838
 20
-19.23130021524128
 30
0.0
 10
42.86472730255699
 20
-18.74011358741073
 30
0.0
 10
44.74281932458321
 20
-18.22296082895057
 30
0.0
 10
45.7475529650585
 20
-17.77884455761037
 30
0.0
 10
45.87796963150716
 20
-17.72119727549449
 30
0.0
  0
SPLINE
  5
20D
330
1F
100
AcDbEntity
  8
외형선
  6
Continuous
 62
     1
370
    15
100
AcDbSpline
210
0.0
220
0.0
230
1.0
 70
     8
 71
     3
 72
    25
 73
    21
 74
     0
 42
0.000000001
 43
0.00000001
 40
0.0505744217540412
 40
0.0505744217540412
 40
0.0505744217540412
 40
0.0505744217540412
 40
0.0931745956216352
 40
0.1373531456401817
 40
0.1815122534388046
 40
0.2256457694078566
 40
0.2697915984402707
 40
0.3139741447285187
 40
0.3581245051269509
 40
0.4022574703780575
 40
0.446410950928835
 40
0.490592558190421
 40
0.5347359409143287
 40
0.5788701334011588
 40
0.6230330337214358
 40
0.667208767209672
 40
0.7113469452837053
 40
0.7554841423790303
 40
0.796262939869488
 40
0.8162236233931972
 40
0.8162236233931972
 40
0.8162236233931972
 40
0.8162236233931972
 10
50.64003983793234
 20
-19.04999999999984
 30
0.0
 10
49.7971086741773
 20
-18.9080317222781
 30
0.0
 10
48.07986031398215
 20
-18.54830461528817
 30
0.0
 10
45.4869248084992
 20
-17.63826265873213
 30
0.0
 10
42.86472749617762
 20
-16.40142077964146
 30
0.0
 10
40.24411254759589
 20
-14.85907622513145
 30
0.0
 10
37.62275550032152
 20
-13.04297098723399
 30
0.0
 10
34.99904572886266
 20
-10.98726131926286
 30
0.0
 10
32.37740805006395
 20
-8.72761879891164
 30
0.0
 10
29.75682533164119
 20
-6.306913892066722
 30
0.0
 10
27.13499145388745
 20
-3.769805694588924
 30
0.0
 10
24.51134306218906
 20
-1.16450489196993
 30
0.0
 10
21.89013523038605
 20
1.463938479652249
 30
0.0
 10
19.26947794297002
 20
4.065170708927573
 30
0.0
 10
16.64704069656899
 20
6.590879032026792
 30
0.0
 10
14.0237849372261
 20
8.994380656270273
 30
0.0
 10
11.40285188581739
 20
11.23304767936449
 30
0.0
 10
8.849306910870169
 20
13.212366128578
 30
0.0
 10
6.772374275886853
 20
14.6330997061294
 30
0.0
 10
5.570059912909053
 20
15.36940602293107
 30
0.0
 10
5.175000000000074
 20
15.60161623254229
 30
0.0
  0
SPLINE
  5
20E
330
1F
100
AcDbEntity
  8
외형선
  6
Continuous
 62
     1
370
    15
100
AcDbSpline
210
0.0
220
0.0
230
1.0
 70
     8
 71
     3
 72
    16
 73
    12
 74
     0
 42
0.000000001
 43
0.00000001
 40
0.347316734032464
 40
0.347316734032464
 40
0.347316734032464
 40
0.347316734032464
 40
0.3850401865526183
 40
0.4621075388696638
 40
0.545521889663805
 40
0.6289380943976498
 40
0.7124252746510272
 40
0.7958882016567045
 40
0.8792968740778747
 40
0.9627229150160778
 40
1.0
 40
1.0
 40
1.0
 40
1.0
 10
5.174999999999993
 20
-15.2271684852763
 30
0.0
 10
5.570059913435393
 20
-15.46960337590897
 30
0.0
 10
6.772374276271226
 20
-16.17809348676902
 30
0.0
 10
8.849306896391568
 20
-17.24044205795004
 30
0.0
 10
11.40285194482878
 20
-18.25138705151769
 30
0.0
 10
14.02378471748739
 20
-18.95209740495148
 30
0.0
 10
16.64704151716511
 20
-19.30151014085683
 30
0.0
 10
19.26947488242346
 20
-19.29990013050293
 30
0.0
 10
21.89014664531659
 20
-18.92324470151529
 30
0.0
 10
24.02733361499051
 20
-18.3883969264627
 30
0.0
 10
25.29198296614624
 20
-17.86354985745104
 30
0.0
 10
25.68254817295212
 20
-17.7014598647881
 30
0.0
  0
SPLINE
  5
210
330
1F
100
AcDbEntity
  8
외형선
  6
Continuous
 62
     1
370
    15
100
AcDbSpline
210
0.0
220
0.0
230
1.0
 70
     8
 71
     3
 72
    19
 73
    15
 74
     0
 42
0.000000001
 43
0.00000001
 40
0.0
 40
0.0
 40
0.0
 40
0.0
 40
0.0273284138237376
 40
0.0942056846594872
 40
0.16111404353214
 40
0.2280650244594349
 40
0.2949580815027502
 40
0.3618372120407744
 40
0.4287598452426602
 40
0.4957019252966759
 40
0.5625870954287613
 40
0.6294707790262712
 40
0.6912652827177526
 40
0.7215128772404436
 40
0.7215128772404436
 40
0.7215128772404436
 40
0.7215128772404436
 10
33.44798680303741
 20
-19.24173078508334
 30
0.0
 10
33.09102600153842
 20
-19.25229960565744
 30
0.0
 10
31.86052148273594
 20
-19.28873212547541
 30
0.0
 10
29.7568671000719
 20
-18.97707406589703
 30
0.0
 10
27.13498025160617
 20
-18.31998761312398
 30
0.0
 10
24.51134606176361
 20
-17.30352050454828
 30
0.0
 10
21.89013442715052
 20
-15.97289526171727
 30
0.0
 10
19.26947815833185
 20
-14.34588363779327
 30
0.0
 10
16.64704063882599
 20
-12.45484396708985
 30
0.0
 10
14.02378495268854
 20
-10.33440202242198
 30
0.0
 10
11.40285188166492
 20
-8.022232203578872
 30
0.0
 10
8.849306911889027
 20
-5.624727670065557
 30
0.0
 10
6.772374275859778
 20
-3.600318975742016
 30
0.0
 10
5.570059912871939
 20
-2.408766603886519
 30
0.0
 10
5.174999999999975
 20
-2.015856604358491
 30
0.0
  0
LINE
  5
211
330
1F
100
AcDbEntity
  8
외형선
  6
Continuous
 62
     1
370
    15
100
AcDbLine
 10
55.97500000000001
 20
-7.558056893143694
 30
0.0
 11
55.97500000000001
 21
7.558056893143993
 31
0.0
  0
SPLINE
  5
212
330
1F
100
AcDbEntity
  8
외형선
  6
Continuous
 62
     1
370
    15
100
AcDbSpline
210
0.0
220
0.0
230
1.0
 70
     8
 71
     3
 72
    22
 73
    18
 74
     0
 42
0.000000001
 43
0.00000001
 40
0.0
 40
0.0
 40
0.0
 40
0.0
 40
0.0355481218004862
 40
0.1044083140852564
 40
0.1732828453996249
 40
0.2422170163916703
 40
0.3111073027988756
 40
0.3799655802941573
 40
0.4488509984964987
 40
0.5177866346010319
 40
0.5866649827581839
 40
0.6555241195088747
 40
0.7244231858063827
 40
0.7933525867475515
 40
0.8622217612041423
 40
0.9310845308484099
 40
1.0
 40
1.0
 40
1.0
 40
1.0
 10
17.91681159597161
 20
19.24026924849768
 30
0.0
 10
18.36785318894995
 20
19.24831903769358
 30
0.0
 10
19.6926065069875
 20
19.27196205668073
 30
0.0
 10
21.89010546187621
 20
18.92364190932111
 30
0.0
 10
24.51135104709735
 20
18.22655536333081
 30
0.0
 10
27.13498931545022
 20
17.17557291939549
 30
0.0
 10
29.75682590264905
 20
15.81194191396235
 30
0.0
 10
32.37740790272127
 20
14.15509691857488
 30
0.0
 10
34.99904574712284
 20
12.23721851388794
 30
0.0
 10
37.62275557481831
 20
10.09466619816939
 30
0.0
 10
40.24411223172255
 20
7.764478565063865
 30
0.0
 10
42.86472868521027
 20
5.291039949850992
 30
0.0
 10
45.48692036448511
 20
2.720405090556004
 30
0.0
 10
48.11036876604365
 20
0.0998422778296662
 30
0.0
 10
50.73137236011348
 20
-2.521391692201708
 30
0.0
 10
53.35213169476984
 20
-5.105968807328553
 30
0.0
 10
55.10048765236853
 20
-6.740485799601069
 30
0.0
 10
55.97500000000001
 20
-7.558056893143694
 30
0.0
  0
SPLINE
  5
213
330
1F
100
AcDbEntity
  8
외형선
  6
Continuous
 62
     1
370
    15
100
AcDbSpline
210
0.0
220
0.0
230
1.0
 70
     8
 71
     3
 72
    19
 73
    15
 74
     0
 42
0.000000001
 43
0.00000001
 40
0.0
 40
0.0
 40
0.0
 40
0.0
 40
0.0865835215572034
 40
0.1731008328863622
 40
0.2596261910475695
 40
0.3462272161263801
 40
0.4327901295837255
 40
0.5193028766441756
 40
0.6058397603933259
 40
0.6924486191618455
 40
0.778994385523531
 40
0.8655060530388493
 40
0.9520579356807518
 40
1.0
 40
1.0
 40
1.0
 40
1.0
 10
55.97500000000005
 20
7.558056893143993
 30
0.0
 10
55.10048765234824
 20
8.34870520520599
 30
0.0
 10
53.35213169470883
 20
9.929397222308891
 30
0.0
 10
50.73137236035728
 20
12.08092761550559
 30
0.0
 10
48.11036876512915
 20
14.01947286942984
 30
0.0
 10
45.48692036790212
 20
15.69559850606744
 30
0.0
 10
42.86472867246707
 20
17.08347581127407
 30
0.0
 10
40.24411227925638
 20
18.1558754808276
 30
0.0
 10
37.62275539729847
 20
18.89347702479466
 30
0.0
 10
34.99904641004022
 20
19.28098733798716
 30
0.0
 10
32.37740543116771
 20
19.31709569359551
 30
0.0
 10
29.75683512458341
 20
18.98092209544129
 30
0.0
 10
27.52535290263507
 20
18.44635228602633
 30
0.0
 10
26.16681584718067
 20
17.89720893932266
 30
0.0
 10
25.68254817295226
 20
17.70145986478803
 30
0.0
  0
LINE
  5
215
330
1F
100
AcDbEntity
  8
외형선
  6
Continuous
 62
     1
370
    15
100
AcDbLine
 10
55.97500000000001
 20
-11.58598723841825
 30
0.0
 11
55.97500000000001
 21
-7.558056893143694
 31
0.0
  0
SPLINE
  5
219
330
1F
100
AcDbEntity
  8
외형선
  6
Continuous
 62
     1
370
    15
100
AcDbSpline
210
0.0
220
0.0
230
1.0
 70
     8
 71
     3
 72
    14
 73
    10
 74
     0
 42
0.000000001
 43
0.00000001
 40
0.0
 40
0.0
 40
0.0
 40
0.0
 40
0.1193950496452491
 40
0.2660985568981509
 40
0.412887133538174
 40
0.5597403377472654
 40
0.7064652302037843
 40
0.8531764772898344
 40
1.0
 40
1.0
 40
1.0
 40
1.0
 10
38.1116633312315
 20
19.25777464261332
 30
0.0
 10
38.82257889153452
 20
19.2459129038153
 30
0.0
 10
40.40701313093695
 20
19.21947636741082
 30
0.0
 10
42.86470047822196
 20
18.75287619853311
 30
0.0
 10
45.48692792811638
 20
17.94785735357321
 30
0.0
 10
48.11036674166284
 20
16.80277081545401
 30
0.0
 10
50.73137289967939
 20
15.34556708612123
 30
0.0
 10
53.35213155976318
 20
13.61966507686649
 30
0.0
 10
55.10048760735484
 20
12.26405268961955
 30
0.0
 10
55.97500000000001
 20
11.58598723841827
 30
0.0
  0
LINE
  5
21A
330
1F
100
AcDbEntity
  8
외형선
  6
Continuous
 62
     1
370
    15
100
AcDbLine
 10
55.97500000000001
 20
-0.0000000000000009
 30
0.0
 11
55.97500000000001
 21
19.05000000000015
 31
0.0
  0
SPLINE
  5
21D
330
1F
100
AcDbEntity
  8
외형선
  6
Continuous
 62
     1
370
    15
100
AcDbSpline
210
0.0
220
0.0
230
1.0
 70
     8
 71
     3
 72
     8
 73
     4
 74
     0
 42
0.000000001
 43
0.00000001
 40
0.9972906272157966
 40
0.9972906272157966
 40
0.9972906272157966
 40
0.9972906272157966
 40
1.0
 40
1.0
 40
1.0
 40
1.0
 10
45.90533621098665
 20
17.73139540950998
 30
0.0
 10
45.89621401809774
 20
17.72799610164554
 30
0.0
 10
45.88709182480245
 20
17.72459668856999
 30
0.0
 10
45.87796963150716
 20
17.72119727549443
 30
0.0
  0
LINE
  5
21E
330
1F
100
AcDbEntity
  8
외형선
  6
Continuous
 62
     1
370
    15
100
AcDbLine
 10
55.97500000000001
 20
11.56118792161123
 30
0.0
 11
55.97500000000001
 21
11.58598723841827
 31
0.0
  0
LINE
  5
229
330
1F
100
AcDbEntity
  8
외형선
  6
Continuous
370
    15
100
AcDbLine
 10
-55.15000000000001
 20
0.0
 30
0.0
 11
-55.15000000000001
 21
13.48739999999999
 31
0.0
  0
LINE
  5
22A
330
1F
100
AcDbEntity
  8
외형선
  6
Continuous
370
    15
100
AcDbLine
 10
-55.15000000000001
 20
-15.875
 30
0.0
 11
-55.15000000000001
 21
0.0
 31
0.0
  0
LINE
  5
22C
330
1F
100
AcDbEntity
  8
외형선
  6
Continuous
370
    15
100
AcDbLine
 10
-58.325
 20
0.0
 30
0.0
 11
-58.325
 21
13.48739999999999
 31
0.0
  0
LINE
  5
22D
330
1F
100
AcDbEntity
  8
외형선
  6
Continuous
370
    15
100
AcDbLine
 10
-58.325
 20
-12.70000000000002
 30
0.0
 11
-58.325
 21
0.0
 31
0.0
  0
LINE
  5
231
330
1F
100
AcDbEntity
  8
중심선
 62
     1
100
AcDbLine
 10
-61.32499999999999
 20
-0.0000000000000071
 30
0.0
 11
58.97500000000004
 21
0.0
 31
0.0
  0
CIRCLE
  5
232
330
1F
100
AcDbEntity
  8
해칭선
100
AcDbCircle
 10
0.0
 20
0.0
 30
0.0
 40
3.000000000000001
  0
DIMENSION
  5
233
330
1F
100
AcDbEntity
  8
치수문자_일반주서
100
AcDbDimension
  2
*D11
 10
83.36851153937734
 20
-19.04999999999976
 30
0.0
 11
83.36851153937728
 21
-0.0000000000000071
 31
0.0
 70
   160
  1
%%c<>
 71
     2
 42
38.1
 52
-270.0
  3
SLDDIMSTYLE0
100
AcDbAlignedDimension
 13
55.97500000000001
 23
19.05000000000015
 33
0.0
 14
55.97500000000001
 24
-19.04999999999985
 34
0.0
 50
90.0000000000002
100
AcDbRotatedDimension
1001
PE_URL
1000

1001
ACAD
1000
DSTYLE
1002
{
1070
   171
1070
     6
1070
   273
1070
     7
1002
}
  0
DIMENSION
  5
234
330
1F
100
AcDbEntity
  8
치수문자_일반주서
100
AcDbDimension
  2
*D12
 10
-70.05499999999995
 20
-15.87500000000006
 30
0.0
 11
-70.055
 21
-0.0000000000000071
 31
0.0
 70
   160
  1
%%c<>
 71
     2
 42
31.75
 52
-270.0
  3
SLDDIMSTYLE0
100
AcDbAlignedDimension
 13
-55.14999999999999
 23
15.875
 33
0.0
 14
-55.14999999999999
 24
-15.875
 34
0.0
 50
90.0000000000002
100
AcDbRotatedDimension
1001
ACAD
1000
DSTYLE
1002
{
1070
   171
1070
     6
1070
   273
1070
     7
1002
}
  0
DIMENSION
  5
235
330
1F
100
AcDbEntity
  8
치수문자_일반주서
100
AcDbDimension
  2
*D13
 10
5.174999999999994
 20
37.0912142272015
 30
0.0
 11
30.575
 21
37.0912142272015
 31
0.0
 70
   160
  1
<>
 71
     2
 42
50.80000000000001
  3
SLDDIMSTYLE0
100
AcDbAlignedDimension
 13
55.97500000000001
 23
19.28477378659116
 33
0.0
 14
5.174999999999994
 24
19.28477378659116
 34
0.0
100
AcDbRotatedDimension
1001
PE_URL
1000

1001
ACAD
1000
DSTYLE
1002
{
1070
   171
1070
     6
1070
   273
1070
     7
1002
}
  0
DIMENSION
  5
236
330
1F
100
AcDbEntity
  8
치수문자_일반주서
100
AcDbDimension
  2
*D14
 10
-58.32499999999999
 20
58.36077545879665
 30
0.0
 11
-1.175
 21
58.36077545879665
 31
0.0
 70
   160
  1
<>
 71
     2
 42
114.3
  3
SLDDIMSTYLE0
100
AcDbAlignedDimension
 13
55.97500000000001
 23
19.43526809969914
 33
0.0
 14
-58.325
 24
12.70000000000002
 34
0.0
100
AcDbRotatedDimension
1001
PE_URL
1000

1001
ACAD
1000
DSTYLE
1002
{
1070
   171
1070
     6
1070
   273
1070
     7
1002
}
  0
INSERT
  5
237
330
1F
100
AcDbEntity
  8
해칭선
100
AcDbBlockReference
  2
SW_DOWELSYMBOL_0
 10
0.0
 20
0.0
 30
0.0
  0
LINE
  5
26E
330
1F
100
AcDbEntity
  8
외형선
  6
Continuous
370
    15
100
AcDbLine
 10
5.174999999999994
 20
19.05
 30
0.0
 11
5.174999999999994
 21
-19.05
 31
0.0
  0
SPLINE
  5
272
330
1F
100
AcDbEntity
  8
외형선
  6
Continuous
 62
     1
370
    15
100
AcDbSpline
210
0.0
220
0.0
230
1.0
 70
     8
 71
     3
 72
     8
 73
     4
 74
     0
 42
0.000000001
 43
0.00000001
 40
0.9992040113691449
 40
0.9992040113691449
 40
0.9992040113691449
 40
0.9992040113691449
 40
0.9999999999999999
 40
0.9999999999999999
 40
0.9999999999999999
 40
0.9999999999999999
 10
5.526782964101018
 20
17.72670723857244
 30
0.0
 10
5.513388949925242
 20
17.72106707568243
 30
0.0
 10
5.4999949415207
 20
17.71542576617201
 30
0.0
 10
5.486600933116155
 20
17.70978445666159
 30
0.0
  0
SPLINE
  5
273
330
1F
100
AcDbEntity
  8
외형선
  6
Continuous
 62
     1
370
    15
100
AcDbSpline
210
0.0
220
0.0
230
1.0
 70
  1080
 71
     3
 72
     8
 73
     4
 74
     2
 42
0.000000001
 43
0.0000000001
 44
0.0
 40
0.0
 40
0.0
 40
0.0
 40
0.0
 40
8.217279081687407
 40
8.217279081687407
 40
8.217279081687407
 40
8.217279081687407
 10
13.38892456597131
 20
19.28477378659116
 30
0.0
 10
10.65094971064754
 20
19.20651585772745
 30
0.0
 10
7.912974855323768
 20
19.12825792886373
 30
0.0
 10
5.174999999999994
 20
19.05
 30
0.0
 11
13.38892456597131
 21
19.28477378659116
 31
0.0
 11
5.174999999999994
 21
19.05
 31
0.0
  0
LINE
  5
274
330
1F
100
AcDbEntity
  8
외형선
  6
Continuous
 62
     1
370
    15
100
AcDbLine
 10
13.25351328840526
 20
-19.28477378659122
 30
0.0
 11
5.174999999999994
 21
-19.05
 31
0.0
  0
SPLINE
  5
27A
330
1F
100
AcDbEntity
  8
외형선
  6
Continuous
 62
     1
370
    15
100
AcDbSpline
210
0.0
220
0.0
230
1.0
 70
  1080
 71
     3
 72
     8
 73
     4
 74
     2
 42
0.000000001
 43
0.0000000001
 44
0.0
 40
0.0
 40
0.0
 40
0.0
 40
0.0
 40
17.86487939149436
 40
17.86487939149436
 40
17.86487939149436
 40
17.86487939149436
 10
38.1116633312315
 20
19.28477378659116
 30
0.0
 10
44.06610888748766
 20
19.20651585772749
 30
0.0
 10
50.02055444374383
 20
19.12825792886382
 30
0.0
 10
55.97500000000001
 20
19.05000000000015
 30
0.0
 11
38.1116633312315
 21
19.28477378659116
 31
0.0
 11
55.97500000000001
 21
19.05000000000015
 31
0.0
  0
SPLINE
  5
27B
330
1F
100
AcDbEntity
  8
외형선
  6
Continuous
 62
     1
370
    15
100
AcDbSpline
210
0.0
220
0.0
230
1.0
 70
    24
 71
     3
 72
     8
 73
     4
 74
     0
 42
0.000000001
 43
0.0000000001
 40
0.0
 40
0.0
 40
0.0
 40
0.0
 40
5.334960162067679
 40
5.334960162067679
 40
5.334960162067679
 40
5.334960162067679
 10
55.97500000000001
 20
-19.04999999999985
 30
0.0
 10
54.19667994597745
 20
-19.04999999999985
 30
0.0
 10
52.41835989195489
 20
-19.04999999999985
 30
0.0
 10
50.64003983793233
 20
-19.04999999999985
 30
0.0
  0
LINE
  5
2DE
330
1F
100
AcDbEntity
  8
외형선
  6
Continuous
370
    15
100
AcDbLine
 10
-35.906325
 20
13.48739999999999
 30
0.0
 11
-22.79992499999999
 21
13.48739999999999
 31
0.0
  0
LINE
  5
2DF
330
1F
100
AcDbEntity
  8
외형선
  6
Continuous
370
    15
100
AcDbLine
 10
-22.79992499999999
 20
13.48739999999999
 30
0.0
 11
-20.41232499999997
 21
15.87500000000001
 31
0.0
  0
LINE
  5
2E0
330
1F
100
AcDbEntity
  8
외형선
  6
Continuous
370
    15
100
AcDbLine
 10
-35.906325
 20
13.48739999999999
 30
0.0
 11
-38.29392500000002
 21
15.87500000000001
 31
0.0
  0
LINE
  5
2E1
330
1F
100
AcDbEntity
  8
외형선
  6
Continuous
370
    15
100
AcDbLine
 10
-58.325
 20
13.48739999999999
 30
0.0
 11
-45.62500000000001
 21
13.48739999999999
 31
0.0
  0
LINE
  5
2E2
330
1F
100
AcDbEntity
  8
외형선
  6
Continuous
370
    15
100
AcDbLine
 10
-45.62500000000001
 20
13.48739999999999
 30
0.0
 11
-43.23740000000005
 21
15.87499999999999
 31
0.0
  0
LINE
  5
2E3
330
1F
100
AcDbEntity
  8
외형선
  6
Continuous
370
    15
100
AcDbLine
 10
-43.23740000000005
 20
15.875
 30
0.0
 11
-38.29392500000002
 21
15.875
 31
0.0
  0
LINE
  5
2E4
330
1F
100
AcDbEntity
  8
외형선
  6
Continuous
370
    15
100
AcDbLine
 10
-38.293925
 20
15.875
 30
0.0
 11
-43.23740000000004
 21
15.875
 31
0.0
  0
ARC
  5
307
330
1F
100
AcDbEntity
  8
외형선
  6
Continuous
370
    15
100
AcDbCircle
 10
2.793749999999994
 20
18.25625
 30
0.0
 40
2.38125
100
AcDbArc
 50
270.0
 51
0.0
1001
PE_URL
1000

  0
ARC
  5
30B
330
1F
100
AcDbEntity
  8
외형선
  6
Continuous
370
    15
100
AcDbCircle
 10
2.79375
 20
-18.25625
 30
0.0
 40
2.38125
100
AcDbArc
 50
0.0
 51
90.00000000000004
1001
PE_URL
1000

  0
LINE
  5
30C
330
1F
100
AcDbEntity
  8
외형선
  6
Continuous
370
    15
100
AcDbLine
 10
2.793749999999994
 20
15.875
 30
0.0
 11
2.793749999999991
 21
-15.87499999999999
 31
0.0
1001
PE_URL
1000

  0
ENDSEC
  0
SECTION
  2
OBJECTS
  0
DICTIONARY
  5
C
330
0
100
AcDbDictionary
281
     1
  3
ACAD_GROUP
350
D
  3
ACAD_IMAGE_VARS
350
127
  3
ACAD_LAYOUT
350
1A
  3
ACAD_MLINESTYLE
350
17
  3
ACAD_PLOTSETTINGS
350
19
  3
ACAD_PLOTSTYLENAME
350
E
  3
ACAD_SCALELIST
350
47
  3
APPDATA
350
125
  3
DWGPROPS
350
30E
  0
DICTIONARY
  5
2CF
330
2
100
AcDbDictionary
280
     1
281
     1
  3
ACAD_LAYERSTATES
360
2D0
  0
DICTIONARY
  5
309
330
1F
100
AcDbDictionary
280
     1
281
     1
  3
ACAD_SORTENTS
360
30A
  3
DIM_BOUNDING_BOXES_V1
360
30D
  0
DICTIONARY
  5
D
102
{ACAD_REACTORS
330
C
102
}
330
C
100
AcDbDictionary
281
     1
  0
RASTERVARIABLES
  5
127
102
{ACAD_REACTORS
330
C
102
}
330
C
100
AcDbRasterVariables
 90
        0
 70
     1
 71
     1
 72
     1
  0
DICTIONARY
  5
1A
102
{ACAD_REACTORS
330
C
102
}
330
C
100
AcDbDictionary
281
     1
  3
Layout1
350
1E
  3
Layout2
350
26
  3
Model
350
22
  0
DICTIONARY
  5
17
102
{ACAD_REACTORS
330
C
102
}
330
C
100
AcDbDictionary
281
     1
  3
Standard
350
18
  0
DICTIONARY
  5
19
102
{ACAD_REACTORS
330
C
102
}
330
C
100
AcDbDictionary
281
     1
  0
ACDBDICTIONARYWDFLT
  5
E
102
{ACAD_REACTORS
330
C
102
}
330
C
100
AcDbDictionary
281
     1
  3
Normal
350
F
100
AcDbDictionaryWithDefault
340
F
  0
DICTIONARY
  5
47
102
{ACAD_REACTORS
330
C
102
}
330
C
100
AcDbDictionary
281
     1
  3
A0
350
48
  3
A1
350
49
  3
A2
350
4A
  3
A3
350
4B
  3
A4
350
4C
  3
A5
350
4D
  3
A6
350
4E
  3
A7
350
4F
  3
A8
350
50
  3
A9
350
51
  3
B0
350
52
  3
B1
350
53
  3
B2
350
54
  3
B3
350
55
  3
B4
350
56
  3
B5
350
57
  3
B6
350
58
  3
B7
350
59
  3
B8
350
5A
  3
B9
350
5B
  3
C0
350
5C
  3
C1
350
5D
  3
C2
350
5E
  3
C3
350
5F
  3
C4
350
60
  3
C5
350
61
  3
C6
350
62
  3
C7
350
63
  3
C8
350
64
  3
C9
350
65
  3
D0
350
66
  3
D1
350
67
  3
D2
350
68
  0
DICTIONARY
  5
125
102
{ACAD_REACTORS
330
C
102
}
330
C
100
AcDbDictionary
281
     1
  0
XRECORD
  5
30E
102
{ACAD_REACTORS
330
C
102
}
330
C
100
AcDbXrecord
280
     1
  1
DWGPROPS COOKIE
  2

  3

  4

  6

  7

  8
12014074
  9

300
=
301
=
302
=
303
=
304
=
305
=
306
=
307
=
308
=
309
=
 40
0.0
 41
2458292.270165116
 42
2459709.010453924
  1

 90
        0
  0
DICTIONARY
  5
2D0
102
{ACAD_REACTORS
330
2CF
102
}
330
2CF
100
AcDbDictionary
281
     1
  0
SORTENTSTABLE
  5
30A
102
{ACAD_REACTORS
330
309
102
}
330
309
100
AcDbSortentsTable
330
1F
  0
DICTIONARY
  5
30D
102
{ACAD_REACTORS
330
309
102
}
330
309
100
AcDbDictionary
281
     1
  0
LAYOUT
  5
1E
102
{ACAD_REACTORS
330
1A
102
}
330
1A
100
AcDbPlotSettings
  1

  2
none_device
  4

  6

 40
0.0
 41
0.0
 42
0.0
 43
0.0
 44
0.0
 45
0.0
 46
0.0
 47
0.0
 48
0.0
 49
0.0
140
0.0
141
0.0
142
1.0
143
1.0
 70
   688
 72
     1
 73
     0
 74
     5
  7

 75
    16
147
1.0
148
0.0
149
0.0
100
AcDbLayout
  1
Layout1
 70
     1
 71
     1
 10
0.0
 20
0.0
 11
420.0
 21
297.0
 12
0.0
 22
0.0
 32
0.0
 14
1.000000000000000E+20
 24
1.000000000000000E+20
 34
1.000000000000000E+20
 15
-1.000000000000000E+20
 25
-1.000000000000000E+20
 35
-1.000000000000000E+20
146
0.0
 13
0.0
 23
0.0
 33
0.0
 16
1.0
 26
0.0
 36
0.0
 17
0.0
 27
1.0
 37
0.0
 76
     0
330
1B
  0
LAYOUT
  5
26
102
{ACAD_REACTORS
330
1A
102
}
330
1A
100
AcDbPlotSettings
  1

  2
none_device
  4

  6

 40
0.0
 41
0.0
 42
0.0
 43
0.0
 44
0.0
 45
0.0
 46
0.0
 47
0.0
 48
0.0
 49
0.0
140
0.0
141
0.0
142
1.0
143
1.0
 70
   688
 72
     1
 73
     0
 74
     5
  7

 75
    16
147
1.0
148
0.0
149
0.0
100
AcDbLayout
  1
Layout2
 70
     1
 71
     2
 10
0.0
 20
0.0
 11
0.0
 21
0.0
 12
0.0
 22
0.0
 32
0.0
 14
0.0
 24
0.0
 34
0.0
 15
0.0
 25
0.0
 35
0.0
146
0.0
 13
0.0
 23
0.0
 33
0.0
 16
1.0
 26
0.0
 36
0.0
 17
0.0
 27
1.0
 37
0.0
 76
     0
330
23
  0
LAYOUT
  5
22
102
{ACAD_REACTORS
330
1A
102
}
330
1A
100
AcDbPlotSettings
  1

  2
none_device
  4
ANSI_A_(11.00_x_8.50_Inches)
  6

 40
6.35
 41
19.05
 42
6.35000508
 43
19.05000254
 44
279.4
 45
215.9
 46
108.8992582423458
 47
73.83359486276615
 48
0.0
 49
0.0
140
0.0
141
0.0
142
0.0643345353507
143
1.0
 70
  1696
 72
     0
 73
     0
 74
     0
  7

 75
     0
147
0.0235690232323232
148
0.0
149
0.0
100
AcDbLayout
  1
Model
 70
     1
 71
     0
 10
0.0
 20
0.0
 11
420.0
 21
297.0
 12
0.0
 22
0.0
 32
0.0
 14
-74.43000000000006
 24
-49.97180738881175
 34
0.0
 15
92.7509838153456
 25
62.73577545879665
 35
0.0
146
0.0
 13
0.0
 23
0.0
 33
0.0
 16
1.0
 26
0.0
 36
0.0
 17
0.0
 27
1.0
 37
0.0
 76
     0
330
1F
331
29
  0
MLINESTYLE
  5
18
102
{ACAD_REACTORS
330
17
102
}
330
17
100
AcDbMlineStyle
  2
Standard
 70
     0
  3

 62
   256
 51
90.0
 52
90.0
 71
     2
 49
0.5
 62
   256
  6
BYLAYER
 49
-0.5
 62
   256
  6
BYLAYER
  0
ACDBPLACEHOLDER
  5
F
102
{ACAD_REACTORS
330
E
102
}
330
E
  0
SCALE
  5
48
102
{ACAD_REACTORS
330
47
102
}
330
47
100
AcDbScale
 70
     0
300
1:1
140
1.0
141
1.0
290
     1
  0
SCALE
  5
49
102
{ACAD_REACTORS
330
47
102
}
330
47
100
AcDbScale
 70
     0
300
1:2
140
1.0
141
2.0
290
     0
  0
SCALE
  5
4A
102
{ACAD_REACTORS
330
47
102
}
330
47
100
AcDbScale
 70
     0
300
1:4
140
1.0
141
4.0
290
     0
  0
SCALE
  5
4B
102
{ACAD_REACTORS
330
47
102
}
330
47
100
AcDbScale
 70
     0
300
1:5
140
1.0
141
5.0
290
     0
  0
SCALE
  5
4C
102
{ACAD_REACTORS
330
47
102
}
330
47
100
AcDbScale
 70
     0
300
1:8
140
1.0
141
8.0
290
     0
  0
SCALE
  5
4D
102
{ACAD_REACTORS
330
47
102
}
330
47
100
AcDbScale
 70
     0
300
1:10
140
1.0
141
10.0
290
     0
  0
SCALE
  5
4E
102
{ACAD_REACTORS
330
47
102
}
330
47
100
AcDbScale
 70
     0
300
1:16
140
1.0
141
16.0
290
     0
  0
SCALE
  5
4F
102
{ACAD_REACTORS
330
47
102
}
330
47
100
AcDbScale
 70
     0
300
1:20
140
1.0
141
20.0
290
     0
  0
SCALE
  5
50
102
{ACAD_REACTORS
330
47
102
}
330
47
100
AcDbScale
 70
     0
300
1:30
140
1.0
141
30.0
290
     0
  0
SCALE
  5
51
102
{ACAD_REACTORS
330
47
102
}
330
47
100
AcDbScale
 70
     0
300
1:40
140
1.0
141
40.0
290
     0
  0
SCALE
  5
52
102
{ACAD_REACTORS
330
47
102
}
330
47
100
AcDbScale
 70
     0
300
1:50
140
1.0
141
50.0
290
     0
  0
SCALE
  5
53
102
{ACAD_REACTORS
330
47
102
}
330
47
100
AcDbScale
 70
     0
300
1:100
140
1.0
141
100.0
290
     0
  0
SCALE
  5
54
102
{ACAD_REACTORS
330
47
102
}
330
47
100
AcDbScale
 70
     0
300
2:1
140
2.0
141
1.0
290
     0
  0
SCALE
  5
55
102
{ACAD_REACTORS
330
47
102
}
330
47
100
AcDbScale
 70
     0
300
4:1
140
4.0
141
1.0
290
     0
  0
SCALE
  5
56
102
{ACAD_REACTORS
330
47
102
}
330
47
100
AcDbScale
 70
     0
300
8:1
140
8.0
141
1.0
290
     0
  0
SCALE
  5
57
102
{ACAD_REACTORS
330
47
102
}
330
47
100
AcDbScale
 70
     0
300
10:1
140
10.0
141
1.0
290
     0
  0
SCALE
  5
58
102
{ACAD_REACTORS
330
47
102
}
330
47
100
AcDbScale
 70
     0
300
100:1
140
100.0
141
1.0
290
     0
  0
SCALE
  5
59
102
{ACAD_REACTORS
330
47
102
}
330
47
100
AcDbScale
 70
     0
300
1/128" = 1'-0"
140
0.0078125
141
12.0
290
     0
  0
SCALE
  5
5A
102
{ACAD_REACTORS
330
47
102
}
330
47
100
AcDbScale
 70
     0
300
1/64" = 1'-0"
140
0.015625
141
12.0
290
     0
  0
SCALE
  5
5B
102
{ACAD_REACTORS
330
47
102
}
330
47
100
AcDbScale
 70
     0
300
1/32" = 1'-0"
140
0.03125
141
12.0
290
     0
  0
SCALE
  5
5C
102
{ACAD_REACTORS
330
47
102
}
330
47
100
AcDbScale
 70
     0
300
1/16" = 1'-0"
140
0.0625
141
12.0
290
     0
  0
SCALE
  5
5D
102
{ACAD_REACTORS
330
47
102
}
330
47
100
AcDbScale
 70
     0
300
3/32" = 1'-0"
140
0.09375
141
12.0
290
     0
  0
SCALE
  5
5E
102
{ACAD_REACTORS
330
47
102
}
330
47
100
AcDbScale
 70
     0
300
1/8" = 1'-0"
140
0.125
141
12.0
290
     0
  0
SCALE
  5
5F
102
{ACAD_REACTORS
330
47
102
}
330
47
100
AcDbScale
 70
     0
300
3/16" = 1'-0"
140
0.1875
141
12.0
290
     0
  0
SCALE
  5
60
102
{ACAD_REACTORS
330
47
102
}
330
47
100
AcDbScale
 70
     0
300
1/4" = 1'-0"
140
0.25
141
12.0
290
     0
  0
SCALE
  5
61
102
{ACAD_REACTORS
330
47
102
}
330
47
100
AcDbScale
 70
     0
300
3/8" = 1'-0"
140
0.375
141
12.0
290
     0
  0
SCALE
  5
62
102
{ACAD_REACTORS
330
47
102
}
330
47
100
AcDbScale
 70
     0
300
1/2" = 1'-0"
140
0.5
141
12.0
290
     0
  0
SCALE
  5
63
102
{ACAD_REACTORS
330
47
102
}
330
47
100
AcDbScale
 70
     0
300
3/4" = 1'-0"
140
0.75
141
12.0
290
     0
  0
SCALE
  5
64
102
{ACAD_REACTORS
330
47
102
}
330
47
100
AcDbScale
 70
     0
300
1" = 1'-0"
140
1.0
141
12.0
290
     0
  0
SCALE
  5
65
102
{ACAD_REACTORS
330
47
102
}
330
47
100
AcDbScale
 70
     0
300
1-1/2" = 1'-0"
140
1.5
141
12.0
290
     0
  0
SCALE
  5
66
102
{ACAD_REACTORS
330
47
102
}
330
47
100
AcDbScale
 70
     0
300
3" = 1'-0"
140
3.0
141
12.0
290
     0
  0
SCALE
  5
67
102
{ACAD_REACTORS
330
47
102
}
330
47
100
AcDbScale
 70
     0
300
6" = 1'-0"
140
6.0
141
12.0
290
     0
  0
SCALE
  5
68
102
{ACAD_REACTORS
330
47
102
}
330
47
100
AcDbScale
 70
     0
300
1'-0" = 1'-0"
140
12.0
141
12.0
290
     0
  0
ENDSEC
  0
EOF
