  0
SECTION
  2
HEADER
  9
$ACADVER
  1
AC1015
  9
$ACADMAINTVER
 70
     6
  9
$DWGCODEPAGE
  3
ANSI_949
  9
$INSBASE
 10
0.0
 20
0.0
 30
0.0
  9
$EXTMIN
 10
1.000000000000000E+20
 20
1.000000000000000E+20
 30
1.000000000000000E+20
  9
$EXTMAX
 10
-1.000000000000000E+20
 20
-1.000000000000000E+20
 30
-1.000000000000000E+20
  9
$LIMMIN
 10
0.0
 20
0.0
  9
$LIMMAX
 10
420.0
 20
297.0
  9
$ORTHOMODE
 70
     1
  9
$REGENMODE
 70
     1
  9
$FILLMODE
 70
     1
  9
$QTEXTMODE
 70
     0
  9
$MIRRTEXT
 70
     1
  9
$LTSCALE
 40
1.0
  9
$ATTMODE
 70
     1
  9
$TEXTSIZE
 40
3.5
  9
$TRACEWID
 40
1.0
  9
$TEXTSTYLE
  7
Standard
  9
$CLAYER
  8
0
  9
$CELTYPE
  6
ByLayer
  9
$CECOLOR
 62
   256
  9
$CELTSCALE
 40
1.0
  9
$DISPSILH
 70
     0
  9
$DIMSCALE
 40
1.0
  9
$DIMASZ
 40
3.302
  9
$DIMEXO
 40
1.0
  9
$DIMDLI
 40
3.75
  9
$DIMRND
 40
0.0
  9
$DIMDLE
 40
0.0
  9
$DIMEXE
 40
1.0
  9
$DIMTP
 40
0.0
  9
$DIMTM
 40
0.0
  9
$DIMTXT
 40
3.5
  9
$DIMCEN
 40
2.5
  9
$DIMTSZ
 40
0.0
  9
$DIMTOL
 70
     0
  9
$DIMLIM
 70
     0
  9
$DIMTIH
 70
     1
  9
$DIMTOH
 70
     1
  9
$DIMSE1
 70
     0
  9
$DIMSE2
 70
     0
  9
$DIMTAD
 70
     1
  9
$DIMZIN
 70
     0
  9
$DIMBLK
  1

  9
$DIMASO
 70
     1
  9
$DIMSHO
 70
     1
  9
$DIMPOST
  1

  9
$DIMAPOST
  1

  9
$DIMALT
 70
     0
  9
$DIMALTD
 70
     3
  9
$DIMALTF
 40
0.0393700787401575
  9
$DIMLFAC
 40
1.0
  9
$DIMTOFL
 70
     1
  9
$DIMTVP
 40
0.0
  9
$DIMTIX
 70
     0
  9
$DIMSOXD
 70
     0
  9
$DIMSAH
 70
     0
  9
$DIMBLK1
  1

  9
$DIMBLK2
  1

  9
$DIMSTYLE
  2
ISO-25
  9
$DIMCLRD
 70
     0
  9
$DIMCLRE
 70
     0
  9
$DIMCLRT
 70
     0
  9
$DIMTFAC
 40
1.0
  9
$DIMGAP
 40
1.524
  9
$DIMJUST
 70
     0
  9
$DIMSD1
 70
     0
  9
$DIMSD2
 70
     0
  9
$DIMTOLJ
 70
     0
  9
$DIMTZIN
 70
     0
  9
$DIMALTZ
 70
     0
  9
$DIMALTTZ
 70
     0
  9
$DIMUPT
 70
     0
  9
$DIMDEC
 70
     2
  9
$DIMTDEC
 70
     2
  9
$DIMALTU
 70
     2
  9
$DIMALTTD
 70
     3
  9
$DIMTXSTY
  7
Standard
  9
$DIMAUNIT
 70
     0
  9
$DIMADEC
 70
     2
  9
$DIMALTRND
 40
0.0
  9
$DIMAZIN
 70
     0
  9
$DIMDSEP
 70
    44
  9
$DIMATFIT
 70
     3
  9
$DIMFRAC
 70
     0
  9
$DIMLDRBLK
  1

  9
$DIMLUNIT
 70
     2
  9
$DIMLWD
 70
    -2
  9
$DIMLWE
 70
    -2
  9
$DIMTMOVE
 70
     0
  9
$LUNITS
 70
     2
  9
$LUPREC
 70
     2
  9
$SKETCHINC
 40
1.0
  9
$FILLETRAD
 40
10.0
  9
$AUNITS
 70
     0
  9
$AUPREC
 70
     2
  9
$MENU
  1
.
  9
$ELEVATION
 40
0.0
  9
$PELEVATION
 40
0.0
  9
$THICKNESS
 40
0.0
  9
$LIMCHECK
 70
     0
  9
$CHAMFERA
 40
0.0
  9
$CHAMFERB
 40
0.0
  9
$CHAMFERC
 40
0.0
  9
$CHAMFERD
 40
0.0
  9
$SKPOLY
 70
     0
  9
$TDCREATE
 40
2458292.644976435
  9
$TDUCREATE
 40
2458292.269976435
  9
$TDUPDATE
 40
2458302.428456401
  9
$TDUUPDATE
 40
2458302.053456401
  9
$TDINDWG
 40
0.0008759375
  9
$TDUSRTIMER
 40
2458302.053131215
  9
$USRTIMER
 70
     1
  9
$ANGBASE
 50
0.0
  9
$ANGDIR
 70
     0
  9
$PDMODE
 70
     0
  9
$PDSIZE
 40
-1.0
  9
$PLINEWID
 40
0.0
  9
$SPLFRAME
 70
     0
  9
$SPLINETYPE
 70
     6
  9
$SPLINESEGS
 70
     8
  9
$HANDSEED
  5
1BD
  9
$SURFTAB1
 70
     6
  9
$SURFTAB2
 70
     6
  9
$SURFTYPE
 70
     6
  9
$SURFU
 70
     6
  9
$SURFV
 70
     6
  9
$UCSBASE
  2

  9
$UCSNAME
  2

  9
$UCSORG
 10
0.0
 20
0.0
 30
0.0
  9
$UCSXDIR
 10
1.0
 20
0.0
 30
0.0
  9
$UCSYDIR
 10
0.0
 20
1.0
 30
0.0
  9
$UCSORTHOREF
  2

  9
$UCSORTHOVIEW
 70
     0
  9
$UCSORGTOP
 10
0.0
 20
0.0
 30
0.0
  9
$UCSORGBOTTOM
 10
0.0
 20
0.0
 30
0.0
  9
$UCSORGLEFT
 10
0.0
 20
0.0
 30
0.0
  9
$UCSORGRIGHT
 10
0.0
 20
0.0
 30
0.0
  9
$UCSORGFRONT
 10
0.0
 20
0.0
 30
0.0
  9
$UCSORGBACK
 10
0.0
 20
0.0
 30
0.0
  9
$PUCSBASE
  2

  9
$PUCSNAME
  2

  9
$PUCSORG
 10
0.0
 20
0.0
 30
0.0
  9
$PUCSXDIR
 10
1.0
 20
0.0
 30
0.0
  9
$PUCSYDIR
 10
0.0
 20
1.0
 30
0.0
  9
$PUCSORTHOREF
  2

  9
$PUCSORTHOVIEW
 70
     0
  9
$PUCSORGTOP
 10
0.0
 20
0.0
 30
0.0
  9
$PUCSORGBOTTOM
 10
0.0
 20
0.0
 30
0.0
  9
$PUCSORGLEFT
 10
0.0
 20
0.0
 30
0.0
  9
$PUCSORGRIGHT
 10
0.0
 20
0.0
 30
0.0
  9
$PUCSORGFRONT
 10
0.0
 20
0.0
 30
0.0
  9
$PUCSORGBACK
 10
0.0
 20
0.0
 30
0.0
  9
$USERI1
 70
     0
  9
$USERI2
 70
     0
  9
$USERI3
 70
     0
  9
$USERI4
 70
     0
  9
$USERI5
 70
     0
  9
$USERR1
 40
0.0
  9
$USERR2
 40
0.0
  9
$USERR3
 40
0.0
  9
$USERR4
 40
0.0
  9
$USERR5
 40
0.0
  9
$WORLDVIEW
 70
     1
  9
$SHADEDGE
 70
     3
  9
$SHADEDIF
 70
    70
  9
$TILEMODE
 70
     1
  9
$MAXACTVP
 70
    64
  9
$PINSBASE
 10
0.0
 20
0.0
 30
0.0
  9
$PLIMCHECK
 70
     0
  9
$PEXTMIN
 10
1.000000000000000E+20
 20
1.000000000000000E+20
 30
1.000000000000000E+20
  9
$PEXTMAX
 10
-1.000000000000000E+20
 20
-1.000000000000000E+20
 30
-1.000000000000000E+20
  9
$PLIMMIN
 10
0.0
 20
0.0
  9
$PLIMMAX
 10
0.0
 20
0.0
  9
$UNITMODE
 70
     0
  9
$VISRETAIN
 70
     1
  9
$PLINEGEN
 70
     0
  9
$PSLTSCALE
 70
     1
  9
$TREEDEPTH
 70
  3020
  9
$CMLSTYLE
  2
Standard
  9
$CMLJUST
 70
     0
  9
$CMLSCALE
 40
20.0
  9
$PROXYGRAPHICS
 70
     1
  9
$MEASUREMENT
 70
     1
  9
$CELWEIGHT
370
    -1
  9
$ENDCAPS
280
     0
  9
$JOINSTYLE
280
     0
  9
$LWDISPLAY
290
     1
  9
$INSUNITS
 70
     4
  9
$HYPERLINKBASE
  1

  9
$STYLESHEET
  1

  9
$XEDIT
290
     1
  9
$CEPSNTYPE
380
     0
  9
$PSTYLEMODE
290
     1
  9
$FINGERPRINTGUID
  2
{1240AE47-E602-446D-B2AE-63FEDCD9F9D3}
  9
$VERSIONGUID
  2
{FAEB1C32-E019-11D5-929B-00C0DF256EC4}
  9
$EXTNAMES
290
     1
  9
$PSVPSCALE
 40
0.0
  9
$OLESTARTUP
290
     0
  0
ENDSEC
  0
SECTION
  2
CLASSES
  0
CLASS
  1
ACDBDICTIONARYWDFLT
  2
AcDbDictionaryWithDefault
  3
ObjectDBX Classes
 90
        0
280
     0
281
     0
  0
CLASS
  1
VISUALSTYLE
  2
AcDbVisualStyle
  3
ObjectDBX Classes
 90
     4095
280
     0
281
     0
  0
CLASS
  1
MATERIAL
  2
AcDbMaterial
  3
ObjectDBX Classes
 90
     1153
280
     0
281
     0
  0
CLASS
  1
SCALE
  2
AcDbScale
  3
ObjectDBX Classes
 90
     1153
280
     0
281
     0
  0
CLASS
  1
SUN
  2
AcDbSun
  3
SCENEOE
 90
     1153
280
     0
281
     0
  0
CLASS
  1
ACDBPLACEHOLDER
  2
AcDbPlaceHolder
  3
ObjectDBX Classes
 90
        0
280
     0
281
     0
  0
CLASS
  1
LAYOUT
  2
AcDbLayout
  3
ObjectDBX Classes
 90
        0
280
     0
281
     0
  0
CLASS
  1
TABLESTYLE
  2
AcDbTableStyle
  3
ObjectDBX Classes
 90
     4095
280
     0
281
     0
  0
CLASS
  1
MLEADERSTYLE
  2
AcDbMLeaderStyle
  3
ACDB_MLEADERSTYLE_CLASS
 90
     4095
280
     0
281
     0
  0
CLASS
  1
RASTERVARIABLES
  2
AcDbRasterVariables
  3
ISM
 90
        0
280
     0
281
     0
  0
ENDSEC
  0
SECTION
  2
TABLES
  0
TABLE
  2
VPORT
  5
8
330
0
100
AcDbSymbolTable
 70
     1
  0
VPORT
  5
29
330
8
100
AcDbSymbolTableRecord
100
AcDbViewportTableRecord
  2
*Active
 70
     0
 10
0.0
 20
0.0
 11
1.0
 21
1.0
 12
-109.8295090898874
 22
7.249115626600062
 13
0.0
 23
0.0
 14
10.0
 24
10.0
 15
10.0
 25
10.0
 16
0.0
 26
0.0
 36
1.0
 17
0.0
 27
0.0
 37
0.0
 40
250.5599416604747
 41
1.540540540540541
 42
50.0
 43
0.0
 44
0.0
 50
0.0
 51
0.0
 71
    16
 72
  2000
 73
     1
 74
     3
 75
     0
 76
     0
 77
     0
 78
     0
281
     0
 65
     1
110
0.0
120
0.0
130
0.0
111
1.0
121
0.0
131
0.0
112
0.0
122
1.0
132
0.0
 79
     0
146
0.0
  0
ENDTAB
  0
TABLE
  2
LTYPE
  5
5
330
0
100
AcDbSymbolTable
 70
     6
  0
LTYPE
  5
14
330
5
100
AcDbSymbolTableRecord
100
AcDbLinetypeTableRecord
  2
ByBlock
 70
     0
  3

 72
    65
 73
     0
 40
0.0
  0
LTYPE
  5
15
330
5
100
AcDbSymbolTableRecord
100
AcDbLinetypeTableRecord
  2
ByLayer
 70
     0
  3

 72
    65
 73
     0
 40
0.0
  0
LTYPE
  5
16
330
5
100
AcDbSymbolTableRecord
100
AcDbLinetypeTableRecord
  2
Continuous
 70
     0
  3
Solid line
 72
    65
 73
     0
 40
0.0
  0
LTYPE
  5
6A
330
5
100
AcDbSymbolTableRecord
100
AcDbLinetypeTableRecord
  2
HIDDEN
 70
     0
  3
Hidden __ __ __ __ __ __ __ __ __ __ __ __ __ __
 72
    65
 73
     2
 40
1.905
 49
1.27
 74
     0
 49
-0.635
 74
     0
  0
LTYPE
  5
6B
330
5
100
AcDbSymbolTableRecord
100
AcDbLinetypeTableRecord
  2
PHANTOM
 70
     0
  3
Phantom ______  __  __  ______  __  __  ______
 72
    65
 73
     6
 40
12.7
 49
6.35
 74
     0
 49
-1.27
 74
     0
 49
1.27
 74
     0
 49
-1.27
 74
     0
 49
1.27
 74
     0
 49
-1.27
 74
     0
  0
LTYPE
  5
6C
330
5
100
AcDbSymbolTableRecord
100
AcDbLinetypeTableRecord
  2
CENTER
 70
     0
  3
Center ____ _ ____ _ ____ _ ____ _ ____ _ ____
 72
    65
 73
     4
 40
10.16
 49
6.35
 74
     0
 49
-1.27
 74
     0
 49
1.27
 74
     0
 49
-1.27
 74
     0
  0
LTYPE
  5
6D
330
5
100
AcDbSymbolTableRecord
100
AcDbLinetypeTableRecord
  2
CENTERX2
 70
     0
  3
Center (2x) ________  __  ________  __  _____
 72
    65
 73
     4
 40
20.32
 49
12.7
 74
     0
 49
-2.54
 74
     0
 49
2.54
 74
     0
 49
-2.54
 74
     0
  0
LTYPE
  5
6E
330
5
100
AcDbSymbolTableRecord
100
AcDbLinetypeTableRecord
  2
DOT2
 70
     0
  3
Dot (.5x) ........................................
 72
    65
 73
     2
 40
0.635
 49
0.0
 74
     0
 49
-0.635
 74
     0
  0
ENDTAB
  0
TABLE
  2
LAYER
  5
2
102
{ACAD_XDICTIONARY
360
1A6
102
}
330
0
100
AcDbSymbolTable
 70
    18
  0
LAYER
  5
10
330
2
100
AcDbSymbolTableRecord
100
AcDbLayerTableRecord
  2
0
 70
     0
 62
     7
  6
Continuous
370
    -3
390
F
  0
LAYER
  5
6F
330
2
100
AcDbSymbolTableRecord
100
AcDbLayerTableRecord
  2
FORMAT
 70
     0
 62
     2
  6
Continuous
370
    -3
390
F
  0
LAYER
  5
70
330
2
100
AcDbSymbolTableRecord
100
AcDbLayerTableRecord
  2
외형선
 70
     0
 62
     4
  6
Continuous
370
    30
390
F
  0
LAYER
  5
71
330
2
100
AcDbSymbolTableRecord
100
AcDbLayerTableRecord
  2
숨은선
 70
     0
 62
     2
  6
HIDDEN
370
    15
390
F
  0
LAYER
  5
72
330
2
100
AcDbSymbolTableRecord
100
AcDbLayerTableRecord
  2
중심선
 70
     0
 62
     1
  6
CENTERX2
370
    -3
390
F
  0
LAYER
  5
73
330
2
100
AcDbSymbolTableRecord
100
AcDbLayerTableRecord
  2
파단선
 70
     0
 62
     4
  6
Continuous
370
    -3
390
F
  0
LAYER
  5
74
330
2
100
AcDbSymbolTableRecord
100
AcDbLayerTableRecord
  2
해칭선
 70
     0
 62
   100
  6
Continuous
370
    -3
390
F
  0
LAYER
  5
75
330
2
100
AcDbSymbolTableRecord
100
AcDbLayerTableRecord
  2
가는실선
 70
     0
 62
     4
  6
Continuous
370
    -3
390
F
  0
LAYER
  5
76
330
2
100
AcDbSymbolTableRecord
100
AcDbLayerTableRecord
  2
치수_보조선
 70
     0
 62
     4
  6
Continuous
370
    -3
390
F
  0
LAYER
  5
77
330
2
100
AcDbSymbolTableRecord
100
AcDbLayerTableRecord
  2
치수문자_일반주서
 70
     0
 62
     7
  6
Continuous
370
    15
390
F
  0
LAYER
  5
78
330
2
100
AcDbSymbolTableRecord
100
AcDbLayerTableRecord
  2
개별주서
 70
     0
 62
   100
  6
Continuous
370
    30
390
F
  0
LAYER
  5
79
330
2
100
AcDbSymbolTableRecord
100
AcDbLayerTableRecord
  2
중간선
 70
     0
 62
     2
  6
Continuous
370
    15
390
F
  0
LAYER
  5
7A
330
2
100
AcDbSymbolTableRecord
100
AcDbLayerTableRecord
  2
윤곽선
 70
     0
 62
     3
  6
Continuous
370
    40
390
F
  0
LAYER
  5
7B
330
2
100
AcDbSymbolTableRecord
100
AcDbLayerTableRecord
  2
중심마크
 70
     0
 62
   100
  6
Continuous
370
    30
390
F
  0
LAYER
  5
7C
330
2
100
AcDbSymbolTableRecord
100
AcDbLayerTableRecord
  2
가상선
 70
     0
 62
     4
  6
PHANTOM
370
    -3
390
F
  0
LAYER
  5
7D
330
2
100
AcDbSymbolTableRecord
100
AcDbLayerTableRecord
  2
특수지정선
 70
     0
 62
     5
  6
CENTERX2
370
    60
390
F
  0
LAYER
  5
7E
330
2
100
AcDbSymbolTableRecord
100
AcDbLayerTableRecord
  2
참조1
 70
     0
 62
    -4
  6
Continuous
370
    -3
390
F
  0
LAYER
  5
154
330
2
100
AcDbSymbolTableRecord
100
AcDbLayerTableRecord
  2
Defpoints
 70
     0
 62
     7
  6
Continuous
290
     0
370
    -3
390
F
  0
ENDTAB
  0
TABLE
  2
STYLE
  5
3
330
0
100
AcDbSymbolTable
 70
     2
  0
STYLE
  5
11
330
3
100
AcDbSymbolTableRecord
100
AcDbTextStyleTableRecord
  2
Standard
 70
     0
 40
0.0
 41
1.0
 50
0.0
 71
     0
 42
3.5
  3
txt
  4

  0
STYLE
  5
94
330
3
100
AcDbSymbolTableRecord
100
AcDbTextStyleTableRecord
  2
SLDTEXTSTYLE0
 70
     0
 40
0.0
 41
0.75
 50
0.0
 71
     0
 42
3.5
  3
TXT
  4

  0
ENDTAB
  0
TABLE
  2
VIEW
  5
6
330
0
100
AcDbSymbolTable
 70
     0
  0
ENDTAB
  0
TABLE
  2
UCS
  5
7
330
0
100
AcDbSymbolTable
 70
     0
  0
ENDTAB
  0
TABLE
  2
APPID
  5
9
330
0
100
AcDbSymbolTable
 70
     2
  0
APPID
  5
12
330
9
100
AcDbSymbolTableRecord
100
AcDbRegAppTableRecord
  2
ACAD
 70
     0
  0
APPID
  5
155
330
9
100
AcDbSymbolTableRecord
100
AcDbRegAppTableRecord
  2
PE_URL
 70
     0
  0
ENDTAB
  0
TABLE
  2
DIMSTYLE
  5
A
330
0
100
AcDbSymbolTable
 70
     3
100
AcDbDimStyleTable
  0
DIMSTYLE
105
27
330
A
100
AcDbSymbolTableRecord
100
AcDbDimStyleTableRecord
  2
ISO-25
 70
     0
 41
2.5
 42
0.625
 43
3.75
 44
1.25
 73
     0
 74
     0
 77
     1
 78
     8
140
2.5
141
2.5
143
0.03937007874016
147
0.625
171
     3
172
     1
178
     0
271
     2
272
     2
274
     3
278
    44
283
     0
284
     8
340
11
  0
DIMSTYLE
105
D9
102
{ACAD_REACTORS
330
D8
330
EB
330
FD
330
111
102
}
330
A
100
AcDbSymbolTableRecord
100
AcDbDimStyleTableRecord
  2
SLDDIMSTYLE0
 70
     0
 41
3.302
 44
0.0
 45
0.000000001
 73
     0
 74
     0
 77
     1
 78
    12
 79
     3
140
3.5
143
0.0393700787401575
147
0.875
148
0.000000001
170
     1
173
     1
178
     0
271
     2
272
     2
276
     2
284
    12
340
94
  0
DIMSTYLE
105
FE
330
A
100
AcDbSymbolTableRecord
100
AcDbDimStyleTableRecord
  2
SLDDIMSTYLE1
 70
     0
 41
3.302
 44
0.0
 45
0.000000001
 73
     0
 74
     0
 77
     1
 78
     4
 79
     1
140
3.5
143
0.0393700787401575
147
0.875
148
0.000000001
170
     1
173
     1
178
     0
271
     2
272
     2
276
     2
284
    12
340
94
  0
ENDTAB
  0
TABLE
  2
BLOCK_RECORD
  5
1
330
0
100
AcDbSymbolTable
 70
     8
  0
BLOCK_RECORD
  5
1F
330
1
100
AcDbSymbolTableRecord
100
AcDbBlockTableRecord
  2
*Model_Space
340
22
  0
BLOCK_RECORD
  5
1B
330
1
100
AcDbSymbolTableRecord
100
AcDbBlockTableRecord
  2
*Paper_Space
340
1E
  0
BLOCK_RECORD
  5
23
330
1
100
AcDbSymbolTableRecord
100
AcDbBlockTableRecord
  2
*Paper_Space0
340
26
  0
BLOCK_RECORD
  5
7F
330
1
100
AcDbSymbolTableRecord
100
AcDbBlockTableRecord
  2
블럭10
340
0
102
{BLKREFS
331
D1
102
}
  0
BLOCK_RECORD
  5
DA
330
1
100
AcDbSymbolTableRecord
100
AcDbBlockTableRecord
  2
_D
340
0
  0
BLOCK_RECORD
  5
EC
330
1
100
AcDbSymbolTableRecord
100
AcDbBlockTableRecord
  2
_D_1
340
0
  0
BLOCK_RECORD
  5
FF
330
1
100
AcDbSymbolTableRecord
100
AcDbBlockTableRecord
  2
_D_2
340
0
  0
BLOCK_RECORD
  5
112
330
1
100
AcDbSymbolTableRecord
100
AcDbBlockTableRecord
  2
_D_3
340
0
  0
BLOCK_RECORD
  5
12B
330
1
100
AcDbSymbolTableRecord
100
AcDbBlockTableRecord
  2
SW_DOWELSYMBOL_0
340
0
102
{BLKREFS
331
131
102
}
  0
ENDTAB
  0
ENDSEC
  0
SECTION
  2
BLOCKS
  0
BLOCK
  5
20
330
1F
100
AcDbEntity
  8
0
100
AcDbBlockBegin
  2
*Model_Space
 70
     0
 10
0.0
 20
0.0
 30
0.0
  3
*Model_Space
  1
*Model_Space
  0
ENDBLK
  5
21
330
1F
100
AcDbEntity
  8
0
100
AcDbBlockEnd
  0
BLOCK
  5
1C
330
1B
100
AcDbEntity
 67
     1
  8
0
100
AcDbBlockBegin
  2
*Paper_Space
 70
     0
 10
0.0
 20
0.0
 30
0.0
  3
*Paper_Space
  1
*Paper_Space
  0
ENDBLK
  5
1D
330
1B
100
AcDbEntity
 67
     1
  8
0
100
AcDbBlockEnd
  0
BLOCK
  5
24
330
23
100
AcDbEntity
  8
0
100
AcDbBlockBegin
  2
*Paper_Space0
 70
     0
 10
0.0
 20
0.0
 30
0.0
  3
*Paper_Space0
  1
*Paper_Space0
  0
ENDBLK
  5
25
330
23
100
AcDbEntity
  8
0
100
AcDbBlockEnd
  0
BLOCK
  5
80
330
7F
100
AcDbEntity
  8
0
100
AcDbBlockBegin
  2
블럭10
 70
     2
 10
0.0
 20
0.0
 30
0.0
  3
블럭10
  1
블럭10
  0
ELLIPSE
  5
82
330
7F
100
AcDbEntity
  8
중심선
100
AcDbEllipse
 10
20.54032771741204
 20
12.0471743016438
 30
0.0
 11
6.600054785286829
 21
-1.261213355974178E-13
 31
0.0
210
0.0
220
0.0
230
1.0
 40
0.636358354079598
 41
0.9219305317359503
 42
6.513795318482858
  0
ELLIPSE
  5
83
330
7F
100
AcDbEntity
  8
중심선
100
AcDbEllipse
 10
20.54032771746488
 20
12.04717430159265
 30
0.0
 11
3.960054785062283
 21
1.540847449632565E-10
 31
0.0
210
0.0
220
0.0
230
1.0
 40
0.3939339440162632
 41
1.131841032648279
 42
5.62031148352944
  0
LINE
  5
84
330
7F
100
AcDbEntity
  8
중심선
100
AcDbLine
 10
2.268634060543552
 20
16.24717430164393
 30
0.0
 11
5.714909304380834
 21
16.24717430164393
 31
0.0
  0
LINE
  5
85
330
7F
100
AcDbEntity
  8
중심선
100
AcDbLine
 10
5.245725140726316
 20
7.84717430164391
 30
0.0
 11
8.692000384563599
 21
7.84717430164391
 31
0.0
  0
LINE
  5
86
330
7F
100
AcDbEntity
  8
중심선
100
AcDbLine
 10
15.74043728645272
 20
16.24717430164393
 30
0.0
 11
8.692000384563599
 21
7.84717430164391
 31
0.0
  0
LINE
  5
87
330
7F
100
AcDbEntity
  8
중심선
100
AcDbLine
 10
0.1404042013395286
 20
13.71084872107135
 30
0.0
 11
3.58671253028996
 21
13.71088815037384
 31
0.0
  0
LINE
  5
88
330
7F
100
AcDbEntity
  8
중심선
100
AcDbLine
 10
2.750260043222114
 20
10.84717430164391
 30
0.0
 11
6.196535287059397
 21
10.84717430164391
 31
0.0
  0
LINE
  5
89
330
7F
100
AcDbEntity
  8
중심선
100
AcDbLine
 10
12.29416204261559
 20
16.24717430164393
 30
0.0
 11
5.245725140726316
 21
7.84717430164391
 31
0.0
  0
LINE
  5
8A
330
7F
100
AcDbEntity
  8
중심선
100
AcDbLine
 10
10.72767329541681
 20
16.24717430164393
 30
0.0
 11
6.196535287059397
 21
10.84717430164391
 31
0.0
  0
LINE
  5
8B
330
7F
100
AcDbEntity
  8
중심선
100
AcDbLine
 10
7.28139805157953
 20
16.24717430164393
 30
0.0
 11
2.750260043222114
 21
10.84717430164391
 31
0.0
  0
LINE
  5
8C
330
7F
100
AcDbEntity
  8
중심선
100
AcDbLine
 10
5.714909304380834
 20
16.24717430164393
 30
0.0
 11
3.58671253028996
 21
13.71088815037384
 31
0.0
  0
LINE
  5
8D
330
7F
100
AcDbEntity
  8
중심선
100
AcDbLine
 10
2.268634060543552
 20
16.24717430164393
 30
0.0
 11
0.1404042013395286
 21
13.71084872107135
 31
0.0
  0
LINE
  5
8E
330
7F
100
AcDbEntity
  8
중심선
100
AcDbLine
 10
7.28139805157953
 20
16.24717430164393
 30
0.0
 11
10.72767329541681
 21
16.24717430164393
 31
0.0
  0
LINE
  5
8F
330
7F
100
AcDbEntity
  8
중심선
100
AcDbLine
 10
12.29416204261559
 20
16.24717430164393
 30
0.0
 11
15.74043728645272
 21
16.24717430164393
 31
0.0
  0
LINE
  5
90
330
7F
100
AcDbEntity
  8
중심선
100
AcDbLine
 10
19.22036997980202
 20
11.08717430171403
 30
0.0
 11
23.66174974927406
 21
11.08717430171406
 31
0.0
  0
LINE
  5
91
330
7F
100
AcDbEntity
  8
중심선
100
AcDbLine
 10
19.22039502424796
 20
13.00717430171391
 30
0.0
 11
19.22036997980202
 21
11.08717430171403
 31
0.0
  0
LINE
  5
92
330
7F
100
AcDbEntity
  8
중심선
100
AcDbLine
 10
19.22039502424796
 20
13.00717430171391
 30
0.0
 11
26.96566020931264
 21
13.00717430171391
 31
0.0
  0
LINE
  5
93
330
7F
100
AcDbEntity
  8
중심선
100
AcDbLine
 10
22.22332737316547
 20
13.45928029700563
 30
0.0
 11
24.52862924686651
 21
15.39360700705356
 31
0.0
  0
ATTDEF
  5
95
330
7F
100
AcDbEntity
  8
FORMAT
 62
     2
100
AcDbText
 10
4.522160859763931
 20
2.075366912832191
 30
0.0
 40
4.233333333333333
  1
EE882116
 41
0.75
  7
SLDTEXTSTYLE0
 11
4.522160859763931
 21
-0.0412997538344756
 31
0.0
100
AcDbAttributeDefinition
  3

  2
AUTOATTR0
 70
     0
 74
     1
  0
ENDBLK
  5
81
330
7F
100
AcDbEntity
  8
0
100
AcDbBlockEnd
  0
BLOCK
  5
DB
330
DA
100
AcDbEntity
  8
0
100
AcDbBlockBegin
  2
_D
 70
     0
 10
0.0
 20
0.0
 30
0.0
  3
_D
  1
_D
  0
LINE
  5
DD
330
DA
100
AcDbEntity
  8
치수문자_일반주서
 62
     0
370
    -2
100
AcDbLine
 10
60.8625
 20
15.87607492872391
 30
0.0
 11
88.19351153937721
 21
15.87607492872401
 31
0.0
  0
LINE
  5
DE
330
DA
100
AcDbEntity
  8
치수문자_일반주서
 62
     0
370
    -2
100
AcDbLine
 10
60.8625
 20
-15.8739250712761
 30
0.0
 11
88.19351153937733
 21
-15.873925071276
 31
0.0
  0
LINE
  5
DF
330
DA
100
AcDbEntity
  8
치수문자_일반주서
 62
     0
370
    -2
100
AcDbLine
 10
88.19351153937723
 20
12.57407492872401
 30
0.0
 11
88.19351153937731
 21
-12.571925071276
 31
0.0
  0
SOLID
  5
E0
330
DA
100
AcDbEntity
  8
치수문자_일반주서
 62
     0
100
AcDbTrace
 10
88.74384487271055
 20
12.57407492872401
 30
0.0
 11
87.6431782060439
 21
12.57407492872401
 31
0.0
 12
88.19351153937721
 22
15.87607492872401
 32
0.0
 13
88.19351153937721
 23
15.87607492872401
 33
0.0
  0
SOLID
  5
E1
330
DA
100
AcDbEntity
  8
치수문자_일반주서
 62
     0
100
AcDbTrace
 10
87.64317820604398
 20
-12.571925071276
 30
0.0
 11
88.74384487271064
 21
-12.571925071276
 31
0.0
 12
88.19351153937733
 22
-15.873925071276
 32
0.0
 13
88.19351153937733
 23
-15.873925071276
 33
0.0
  0
MTEXT
  5
E2
330
DA
100
AcDbEntity
  8
치수문자_일반주서
 62
     0
100
AcDbMText
 10
83.81851153937727
 20
0.0010749287238814
 30
0.0
 40
3.5
 41
0.0
 71
     2
 72
     1
  1
\A1;%%c31.75 [1 1/4]
  7
SLDTEXTSTYLE0
 11
-3.580687802255622E-15
 21
1.0
 31
0.0
 73
     1
 44
1.0
  0
POINT
  5
E3
330
DA
100
AcDbEntity
  8
Defpoints
 62
     0
100
AcDbPoint
 10
60.8
 20
15.87607492872391
 30
0.0
  0
POINT
  5
E4
330
DA
100
AcDbEntity
  8
Defpoints
 62
     0
100
AcDbPoint
 10
60.8
 20
-15.8739250712761
 30
0.0
  0
POINT
  5
E5
330
DA
100
AcDbEntity
  8
Defpoints
 62
     0
100
AcDbPoint
 10
88.19351153937733
 20
-15.873925071276
 30
0.0
  0
ENDBLK
  5
DC
330
DA
100
AcDbEntity
  8
0
100
AcDbBlockEnd
  0
BLOCK
  5
ED
330
EC
100
AcDbEntity
  8
0
100
AcDbBlockBegin
  2
_D_1
 70
     0
 10
0.0
 20
0.0
 30
0.0
  3
_D_1
  1
_D_1
  0
LINE
  5
EF
330
EC
100
AcDbEntity
  8
치수문자_일반주서
 62
     0
370
    -2
100
AcDbLine
 10
-50.3875
 20
15.8760749287239
 30
0.0
 11
-65.23000000000008
 21
15.87607492872385
 31
0.0
  0
LINE
  5
F0
330
EC
100
AcDbEntity
  8
치수문자_일반주서
 62
     0
370
    -2
100
AcDbLine
 10
-50.3875
 20
-15.8739250712761
 30
0.0
 11
-65.22999999999996
 21
-15.87392507127615
 31
0.0
  0
LINE
  5
F1
330
EC
100
AcDbEntity
  8
치수문자_일반주서
 62
     0
370
    -2
100
AcDbLine
 10
-65.23000000000006
 20
12.57407492872385
 30
0.0
 11
-65.22999999999998
 21
-12.57192507127615
 31
0.0
  0
SOLID
  5
F2
330
EC
100
AcDbEntity
  8
치수문자_일반주서
 62
     0
100
AcDbTrace
 10
-64.67966666666673
 20
12.57407492872385
 30
0.0
 11
-65.78033333333339
 21
12.57407492872384
 31
0.0
 12
-65.23000000000008
 22
15.87607492872385
 32
0.0
 13
-65.23000000000008
 23
15.87607492872385
 33
0.0
  0
SOLID
  5
F3
330
EC
100
AcDbEntity
  8
치수문자_일반주서
 62
     0
100
AcDbTrace
 10
-65.7803333333333
 20
-12.57192507127616
 30
0.0
 11
-64.67966666666665
 21
-12.57192507127615
 31
0.0
 12
-65.22999999999996
 22
-15.87392507127615
 32
0.0
 13
-65.22999999999996
 23
-15.87392507127615
 33
0.0
  0
MTEXT
  5
F4
330
EC
100
AcDbEntity
  8
치수문자_일반주서
 62
     0
100
AcDbMText
 10
-69.60500000000002
 20
0.0010749287238819
 30
0.0
 40
3.5
 41
0.0
 71
     2
 72
     1
  1
\A1;%%c31.75 [1 1/4]
  7
SLDTEXTSTYLE0
 11
-3.580687802255623E-15
 21
1.0
 31
0.0
 73
     1
 44
1.0
  0
POINT
  5
F5
330
EC
100
AcDbEntity
  8
Defpoints
 62
     0
100
AcDbPoint
 10
-50.325
 20
15.8760749287239
 30
0.0
  0
POINT
  5
F6
330
EC
100
AcDbEntity
  8
Defpoints
 62
     0
100
AcDbPoint
 10
-50.325
 20
-15.8739250712761
 30
0.0
  0
POINT
  5
F7
330
EC
100
AcDbEntity
  8
Defpoints
 62
     0
100
AcDbPoint
 10
-65.22999999999996
 20
-15.87392507127615
 30
0.0
  0
ENDBLK
  5
EE
330
EC
100
AcDbEntity
  8
0
100
AcDbBlockEnd
  0
BLOCK
  5
100
330
FF
100
AcDbEntity
  8
0
100
AcDbBlockBegin
  2
_D_2
 70
     0
 10
0.0
 20
0.0
 30
0.0
  3
_D_2
  1
_D_2
  0
LINE
  5
102
330
FF
100
AcDbEntity
  8
치수문자_일반주서
 62
     0
370
    -2
100
AcDbLine
 10
60.8
 20
15.82272792433027
 30
0.0
 11
60.8
 21
37.09228915592541
 31
0.0
  0
LINE
  5
103
330
FF
100
AcDbEntity
  8
치수문자_일반주서
 62
     0
370
    -2
100
AcDbLine
 10
9.999999999999988
 20
15.90764480566851
 30
0.0
 11
9.999999999999986
 21
37.09228915592541
 31
0.0
  0
LINE
  5
104
330
FF
100
AcDbEntity
  8
치수문자_일반주서
 62
     0
370
    -2
100
AcDbLine
 10
57.498
 20
37.09228915592541
 30
0.0
 11
13.30199999999999
 21
37.09228915592541
 31
0.0
  0
SOLID
  5
105
330
FF
100
AcDbEntity
  8
치수문자_일반주서
 62
     0
100
AcDbTrace
 10
57.498
 20
36.54195582259207
 30
0.0
 11
57.498
 21
37.64262248925874
 31
0.0
 12
60.8
 22
37.09228915592541
 32
0.0
 13
60.8
 23
37.09228915592541
 33
0.0
  0
SOLID
  5
106
330
FF
100
AcDbEntity
  8
치수문자_일반주서
 62
     0
100
AcDbTrace
 10
13.30199999999999
 20
37.64262248925874
 30
0.0
 11
13.30199999999999
 21
36.54195582259207
 31
0.0
 12
9.999999999999986
 22
37.09228915592541
 32
0.0
 13
9.999999999999986
 23
37.09228915592541
 33
0.0
  0
MTEXT
  5
107
330
FF
100
AcDbEntity
  8
치수문자_일반주서
 62
     0
100
AcDbMText
 10
35.39999999999999
 20
41.46728915592541
 30
0.0
 40
3.5
 41
0.0
 71
     2
 72
     1
  1
\A1;50.8 [2]
  7
SLDTEXTSTYLE0
 73
     1
 44
1.0
  0
POINT
  5
108
330
FF
100
AcDbEntity
  8
Defpoints
 62
     0
100
AcDbPoint
 10
60.8
 20
15.76022792433027
 30
0.0
  0
POINT
  5
109
330
FF
100
AcDbEntity
  8
Defpoints
 62
     0
100
AcDbPoint
 10
9.999999999999988
 20
15.84514480566851
 30
0.0
  0
POINT
  5
10A
330
FF
100
AcDbEntity
  8
Defpoints
 62
     0
100
AcDbPoint
 10
9.999999999999988
 20
37.09228915592541
 30
0.0
  0
ENDBLK
  5
101
330
FF
100
AcDbEntity
  8
0
100
AcDbBlockEnd
  0
BLOCK
  5
113
330
112
100
AcDbEntity
  8
0
100
AcDbBlockBegin
  2
_D_3
 70
     0
 10
0.0
 20
0.0
 30
0.0
  3
_D_3
  1
_D_3
  0
LINE
  5
115
330
112
100
AcDbEntity
  8
치수문자_일반주서
 62
     0
370
    -2
100
AcDbLine
 10
60.8
 20
15.82272792433027
 30
0.0
 11
60.8
 21
58.36185038752055
 31
0.0
  0
LINE
  5
116
330
112
100
AcDbEntity
  8
치수문자_일반주서
 62
     0
370
    -2
100
AcDbLine
 10
-53.50000000000001
 20
12.76357492872392
 30
0.0
 11
-53.50000000000002
 21
58.36185038752055
 31
0.0
  0
LINE
  5
117
330
112
100
AcDbEntity
  8
치수문자_일반주서
 62
     0
370
    -2
100
AcDbLine
 10
57.498
 20
58.36185038752055
 30
0.0
 11
-50.19800000000002
 21
58.36185038752055
 31
0.0
  0
SOLID
  5
118
330
112
100
AcDbEntity
  8
치수문자_일반주서
 62
     0
100
AcDbTrace
 10
57.498
 20
57.81151705418721
 30
0.0
 11
57.498
 21
58.91218372085388
 31
0.0
 12
60.8
 22
58.36185038752055
 32
0.0
 13
60.8
 23
58.36185038752055
 33
0.0
  0
SOLID
  5
119
330
112
100
AcDbEntity
  8
치수문자_일반주서
 62
     0
100
AcDbTrace
 10
-50.19800000000002
 20
58.91218372085388
 30
0.0
 11
-50.19800000000002
 21
57.81151705418721
 31
0.0
 12
-53.50000000000002
 22
58.36185038752055
 32
0.0
 13
-53.50000000000002
 23
58.36185038752055
 33
0.0
  0
MTEXT
  5
11A
330
112
100
AcDbEntity
  8
치수문자_일반주서
 62
     0
100
AcDbMText
 10
3.649999999999991
 20
62.73685038752055
 30
0.0
 40
3.5
 41
0.0
 71
     2
 72
     1
  1
\A1;114.3 [4 1/2]
  7
SLDTEXTSTYLE0
 73
     1
 44
1.0
  0
POINT
  5
11B
330
112
100
AcDbEntity
  8
Defpoints
 62
     0
100
AcDbPoint
 10
60.8
 20
15.76022792433027
 30
0.0
  0
POINT
  5
11C
330
112
100
AcDbEntity
  8
Defpoints
 62
     0
100
AcDbPoint
 10
-53.50000000000001
 20
12.70107492872392
 30
0.0
  0
POINT
  5
11D
330
112
100
AcDbEntity
  8
Defpoints
 62
     0
100
AcDbPoint
 10
-53.50000000000001
 20
58.36185038752055
 30
0.0
  0
ENDBLK
  5
114
330
112
100
AcDbEntity
  8
0
100
AcDbBlockEnd
  0
BLOCK
  5
12C
330
12B
100
AcDbEntity
  8
0
100
AcDbBlockBegin
  2
SW_DOWELSYMBOL_0
 70
     0
 10
0.0
 20
0.0
 30
0.0
  3
SW_DOWELSYMBOL_0
  1
SW_DOWELSYMBOL_0
  0
CIRCLE
  5
12E
330
12B
100
AcDbEntity
  8
해칭선
 62
     0
100
AcDbCircle
 10
0.0
 20
0.0
 30
0.0
 40
3.000000000000001
  0
HATCH
  5
12F
330
12B
100
AcDbEntity
  8
0
  6
Continuous
 62
     0
370
     0
100
AcDbHatch
 10
0.0
 20
0.0
 30
0.0
210
0.0
220
0.0
230
1.0
  2
SOLID
 70
     1
 71
     0
 91
        1
 92
        0
 93
        3
 72
     2
 10
0.0
 20
0.0
 40
3.000000000000001
 50
0.0
 51
90.0
 73
     1
 72
     1
 10
0.0
 20
3.000000000000001
 11
0.0
 21
0.0
 72
     1
 10
0.0
 20
0.0
 11
3.000000000000001
 21
0.0
 97
        0
 75
     0
 76
     1
 98
        1
 10
0.0
 20
0.0
  0
HATCH
  5
130
330
12B
100
AcDbEntity
  8
0
  6
Continuous
 62
     0
370
     0
100
AcDbHatch
 10
0.0
 20
0.0
 30
0.0
210
0.0
220
0.0
230
1.0
  2
SOLID
 70
     1
 71
     0
 91
        1
 92
        0
 93
        3
 72
     2
 10
0.0
 20
0.0
 40
3.000000000000001
 50
180.0
 51
270.0000000000007
 73
     1
 72
     1
 10
0.0
 20
-3.000000000000001
 11
0.0
 21
0.0
 72
     1
 10
0.0
 20
0.0
 11
-3.000000000000001
 21
0.0
 97
        0
 75
     0
 76
     1
 98
        1
 10
0.0
 20
0.0
  0
ENDBLK
  5
12D
330
12B
100
AcDbEntity
  8
0
100
AcDbBlockEnd
  0
ENDSEC
  0
SECTION
  2
ENTITIES
  0
LINE
  5
96
330
1F
100
AcDbEntity
  8
외형선
  6
Continuous
 62
     1
370
    15
100
AcDbLine
 10
58.88004673753208
 20
-15.8739250712761
 30
0.0
 11
60.8
 21
-15.8739250712761
 31
0.0
  0
LINE
  5
97
330
1F
100
AcDbEntity
  8
외형선
  6
Continuous
 62
     1
370
    15
100
AcDbLine
 10
12.84570894158752
 20
15.87607492872391
 30
0.0
 11
9.999999999999988
 21
15.87607492872391
 31
0.0
  0
LINE
  5
98
330
1F
100
AcDbEntity
  8
외형선
  6
Continuous
 62
     1
370
    15
100
AcDbLine
 10
29.47094488118724
 20
15.87607492872391
 30
0.0
 11
25.63217231108392
 21
15.87607492872391
 31
0.0
  0
LINE
  5
99
330
1F
100
AcDbEntity
  8
외형선
  6
Continuous
 62
     1
370
    15
100
AcDbLine
 10
42.25602647667903
 20
-15.8739250712761
 30
0.0
 11
46.0951103935751
 21
-15.8739250712761
 31
0.0
  0
LINE
  5
9A
330
1F
100
AcDbEntity
  8
외형선
  6
Continuous
 62
     1
370
    15
100
AcDbLine
 10
25.6321723110838
 20
-15.8739250712761
 30
0.0
 11
29.47094488118712
 21
-15.8739250712761
 31
0.0
  0
LINE
  5
9B
330
1F
100
AcDbEntity
  8
외형선
  6
Continuous
 62
     1
370
    15
100
AcDbLine
 10
46.09511039357509
 20
15.87607492872391
 30
0.0
 11
42.25602647667912
 21
15.87607492872391
 31
0.0
  0
LINE
  5
9C
330
1F
100
AcDbEntity
  8
외형선
  6
Continuous
 62
     1
370
    15
100
AcDbLine
 10
9.999999999999988
 20
-15.8739250712761
 30
0.0
 11
12.84570894158741
 21
-15.8739250712761
 31
0.0
  0
LINE
  5
9D
330
1F
100
AcDbEntity
  8
외형선
  6
Continuous
 62
     1
370
    15
100
AcDbLine
 10
60.8
 20
15.87607492872391
 30
0.0
 11
58.88004673753212
 21
15.87607492872391
 31
0.0
  0
LINE
  5
9E
330
1F
100
AcDbEntity
  8
외형선
  6
Continuous
370
    15
100
AcDbLine
 10
9.00761660211787
 20
-15.8739250712761
 30
0.0
 11
9.999999999999988
 21
-15.8739250712761
 31
0.0
  0
LINE
  5
9F
330
1F
100
AcDbEntity
  8
외형선
  6
Continuous
370
    15
100
AcDbLine
 10
-50.32500000000002
 20
-15.8739250712761
 30
0.0
 11
9.00761660211787
 21
-15.8739250712761
 31
0.0
  0
LINE
  5
A0
330
1F
100
AcDbEntity
  8
외형선
  6
Continuous
370
    15
100
AcDbLine
 10
8.999745032901128
 20
15.8760749287239
 30
0.0
 11
-15.58732499999998
 21
15.8760749287239
 31
0.0
  0
LINE
  5
A1
330
1F
100
AcDbEntity
  8
외형선
  6
Continuous
370
    15
100
AcDbLine
 10
9.999999999999988
 20
15.8760749287239
 30
0.0
 11
8.999745032901128
 21
15.8760749287239
 31
0.0
  0
LINE
  5
A3
330
1F
100
AcDbEntity
  8
외형선
  6
Continuous
370
    15
100
AcDbLine
 10
-53.50000000000001
 20
-12.69892507127611
 30
0.0
 11
-50.32500000000002
 21
-15.8739250712761
 31
0.0
  0
LINE
  5
A4
330
1F
100
AcDbEntity
  8
외형선
  6
Continuous
 62
     1
370
    15
100
AcDbLine
 10
60.8
 20
-15.75807806688245
 30
0.0
 11
60.8
 21
-9.507873805967343
 31
0.0
  0
SPLINE
  5
A5
330
1F
100
AcDbEntity
  8
외형선
  6
Continuous
 62
     1
370
    15
100
AcDbSpline
210
0.0
220
0.0
230
1.0
 70
     8
 71
     3
 72
    30
 73
    26
 74
     0
 42
0.000000001
 43
0.00000001
 40
0.0
 40
0.0
 40
0.0
 40
0.0
 40
0.0237028670203847
 40
0.0652645216794494
 40
0.1067804593621748
 40
0.1483180673507522
 40
0.1898849875283521
 40
0.2348752143479067
 40
0.2798664411053253
 40
0.3248959491020271
 40
0.3699123759070065
 40
0.4148995400486704
 40
0.4598960720450667
 40
0.5049315673362199
 40
0.5499383923179244
 40
0.5949243055053554
 40
0.6399279500322279
 40
0.6849644024984018
 40
0.7299634280825607
 40
0.7749499026315395
 40
0.8199624636176479
 40
0.8649948425791101
 40
0.909987874878045
 40
0.9549767228386311
 40
1.0
 40
1.0
 40
1.0
 40
1.0
 10
12.84570894158752
 20
15.84546212054155
 30
0.0
 10
13.22456864530617
 20
15.84954470899794
 30
0.0
 10
14.26773769846547
 20
15.86078588849708
 30
0.0
 10
15.97550229814453
 20
15.60263038727159
 30
0.0
 10
17.96621664900167
 20
15.0988397783888
 30
0.0
 10
19.95806688242133
 20
14.34618380873667
 30
0.0
 10
22.00668065000445
 20
13.3446393498912
 30
0.0
 10
24.10872965948521
 20
12.08285007983056
 30
0.0
 10
26.26625087457116
 20
10.56512164319265
 30
0.0
 10
28.4256843535818
 20
8.853179391595793
 30
0.0
 10
30.58444397851648
 20
6.977497699786281
 30
0.0
 10
32.74173837918497
 20
4.972672685817467
 30
0.0
 10
34.89948597681433
 20
2.87591198018719
 30
0.0
 10
37.05924261658609
 20
0.7274505488504139
 30
0.0
 10
39.2175055672175
 20
-1.43555098615537
 30
0.0
 10
41.37473858634149
 20
-3.572051394941408
 30
0.0
 10
43.53284000616734
 20
-5.6426529761743
 30
0.0
 10
45.69264726157542
 20
-7.60794821505905
 30
0.0
 10
47.85051735987166
 20
-9.434030406388732
 30
0.0
 10
50.00777814596737
 20
-11.08590134399364
 30
0.0
 10
52.1663356355813
 20
-12.53255083119839
 30
0.0
 10
54.32592764531335
 20
-13.74896427294231
 30
0.0
 10
56.48350711786323
 20
-14.70669401143564
 30
0.0
 10
58.64088551899842
 20
-15.41367325785244
 30
0.0
 10
60.08011167399416
 20
-15.64324719356722
 30
0.0
 10
60.79999999999999
 20
-15.75807806688245
 30
0.0
  0
SPLINE
  5
A6
330
1F
100
AcDbEntity
  8
외형선
  6
Continuous
 62
     1
370
    15
100
AcDbSpline
210
0.0
220
0.0
230
1.0
 70
     8
 71
     3
 72
    27
 73
    23
 74
     0
 42
0.000000001
 43
0.00000001
 40
0.0
 40
0.0
 40
0.0
 40
0.0
 40
0.0519490220856624
 40
0.1038583188686677
 40
0.1557724436495216
 40
0.2077319676276249
 40
0.25966862511301
 40
0.3115751833922943
 40
0.3634962233807054
 40
0.4154604474739391
 40
0.467386816917961
 40
0.5192927274837672
 40
0.5712227666188617
 40
0.6231858862987921
 40
0.6751040491211251
 40
0.7270114030702922
 40
0.7789525210375114
 40
0.8309087324221928
 40
0.8828207739225304
 40
0.9347316616686889
 40
0.9826926496394156
 40
0.9999999999999999
 40
0.9999999999999999
 40
0.9999999999999999
 40
0.9999999999999999
 10
60.80000000000003
 20
-9.536374120213091
 30
0.0
 10
60.08011167399422
 20
-8.944216379309083
 30
0.0
 10
58.64088551899835
 20
-7.760353719220004
 30
0.0
 10
56.4835071178633
 20
-5.793281714559951
 30
0.0
 10
54.32592764531324
 20
-3.731761526574626
 30
0.0
 10
52.16633563558182
 20
-1.599186939407208
 30
0.0
 10
50.00777814596539
 20
0.5628144029289969
 30
0.0
 10
47.85051735987895
 20
2.714924992636803
 30
0.0
 10
45.69264726154835
 20
4.817009085872359
 30
0.0
 10
43.53284000626843
 20
6.82894564887833
 30
0.0
 10
41.37473858596479
 20
8.716054269357816
 30
0.0
 10
39.21750556862286
 20
10.44221258352533
 30
0.0
 10
37.05924261133706
 20
11.97560876196231
 30
0.0
 10
34.89948599641055
 20
13.28732474289825
 30
0.0
 10
32.7417383061294
 20
14.35467148419162
 30
0.0
 10
30.58444425118284
 20
15.15684206695074
 30
0.0
 10
28.42568333510605
 20
15.6794812469357
 30
0.0
 10
26.26625467535786
 20
15.91153932193599
 30
0.0
 10
24.10871548847187
 20
15.85465584119922
 30
0.0
 10
22.00673183628938
 20
15.49721599925279
 30
0.0
 10
20.38235416095974
 20
15.06131517955342
 30
0.0
 10
19.47827711354245
 20
14.68053458783628
 30
0.0
 10
19.23854099320205
 20
14.57956215189183
 30
0.0
  0
SPLINE
  5
A7
330
1F
100
AcDbEntity
  8
외형선
  6
Continuous
 62
     1
370
    15
100
AcDbSpline
210
0.0
220
0.0
230
1.0
 70
     8
 71
     3
 72
    28
 73
    24
 74
     0
 42
0.000000001
 43
0.00000001
 40
0.0
 40
0.0
 40
0.0
 40
0.0
 40
0.0468547921852013
 40
0.0937430240844572
 40
0.140650578215609
 40
0.1875065349895344
 40
0.2343869494289
 40
0.2813004463599176
 40
0.33207757535593
 40
0.3828558329075756
 40
0.4336772956520513
 40
0.4844839946265603
 40
0.5352576670054068
 40
0.5860419121864323
 40
0.6368701323456665
 40
0.6876659944550719
 40
0.7384382549747449
 40
0.7892305275408943
 40
0.8400598279925149
 40
0.8908468875009274
 40
0.9416197815877047
 40
0.9924221174994473
 40
1.0
 40
1.0
 40
1.0
 40
1.0
 10
10.00000000000001
 20
10.26357314012999
 30
0.0
 10
10.66332691458241
 20
9.74155046501704
 30
0.0
 10
11.99045415236376
 20
8.69713255334819
 30
0.0
 10
13.98248694964086
 20
6.950785451097523
 30
0.0
 10
15.9754768253857
 20
5.107649487770372
 30
0.0
 10
17.96622347374462
 20
3.179221677491164
 30
0.0
 10
19.95806505672052
 20
1.202488830928243
 30
0.0
 10
22.00668118440118
 20
-0.8476463475716108
 30
0.0
 10
24.10872951153638
 20
-2.941481449412405
 30
0.0
 10
26.26625091425288
 20
-5.035849827864123
 30
0.0
 10
28.42568434294648
 20
-7.036287890427262
 30
0.0
 10
30.58444398137132
 20
-8.907368683909686
 30
0.0
 10
32.74173837839197
 20
-10.61436684428522
 30
0.0
 10
34.89948597713197
 20
-12.12547674506247
 30
0.0
 10
37.05924261610926
 20
-13.41194372356709
 30
0.0
 10
39.21750556880555
 20
-14.45159907688791
 30
0.0
 10
41.37473858046771
 20
-15.22432777328076
 30
0.0
 10
43.53284002809168
 20
-15.71648034746653
 30
0.0
 10
45.69264717971976
 20
-15.9166229826251
 30
0.0
 10
47.85051766503385
 20
-15.82990625339551
 30
0.0
 10
50.00777700713198
 20
-15.42556717205084
 30
0.0
 10
51.55380037145043
 20
-14.9998530759766
 30
0.0
 10
52.38088534112923
 20
-14.63426176100728
 30
0.0
 10
52.48824281406532
 20
-14.58680719328889
 30
0.0
  0
SPLINE
  5
A8
330
1F
100
AcDbEntity
  8
외형선
  6
Continuous
370
    15
100
AcDbSpline
210
0.0
220
0.0
230
1.0
 70
    24
 71
     3
 72
    13
 73
     9
 74
     0
 42
0.000000001
 43
0.00000001
 40
0.0
 40
0.0
 40
0.0
 40
0.0
 40
0.1625496257372332
 40
0.3288386962523779
 40
0.510408669397601
 40
0.6972441840644593
 40
0.8788141572096783
 40
1.0
 40
1.0
 40
1.0
 40
1.0
 10
9.999999999999988
 20
15.84514480566851
 30
0.0
 10
9.999999999999988
 20
15.53749163530884
 30
0.0
 10
10.00000000000003
 20
14.91510775112491
 30
0.0
 10
9.999999999999874
 20
13.9219334605888
 30
0.0
 10
10.00000000000003
 20
12.88919183047347
 30
0.0
 10
9.99999999999996
 20
11.86687755606892
 30
0.0
 10
10.00000000000004
 20
11.00141756499893
 30
0.0
 10
10.0
 20
10.53586301774172
 30
0.0
 10
10.0
 20
10.34951277373437
 30
0.0
  0
SPLINE
  5
A9
330
1F
100
AcDbEntity
  8
외형선
  6
Continuous
 62
     1
370
    15
100
AcDbSpline
210
0.0
220
0.0
230
1.0
 70
     8
 71
     3
 72
    31
 73
    27
 74
     0
 42
0.000000001
 43
0.00000001
 40
0.0
 40
0.0
 40
0.0
 40
0.0
 40
0.0048988018597729
 40
0.0490346462397561
 40
0.0931745956216352
 40
0.1373531456401817
 40
0.1815122534388046
 40
0.2256457694078566
 40
0.2697915984402707
 40
0.3139741447285187
 40
0.3581245051269509
 40
0.4022574703780575
 40
0.446410950928835
 40
0.490592558190421
 40
0.5347359409143287
 40
0.5788701334011588
 40
0.6230330337214358
 40
0.667208767209672
 40
0.7113469452837053
 40
0.7554841423790303
 40
0.796262939869488
 40
0.8370129809398151
 40
0.8777417625805257
 40
0.9185153943884375
 40
0.9592722306591784
 40
1.0
 40
1.0
 40
1.0
 40
1.0
 10
58.8800467375321
 20
-15.85946806641857
 30
0.0
 10
58.80021083812803
 20
-15.86417009062253
 30
0.0
 10
58.00109195221096
 20
-15.91123508734052
 30
0.0
 10
56.48355802611378
 20
-15.72304164599794
 30
0.0
 10
54.32591399045323
 20
-15.2764818044065
 30
0.0
 10
52.16633929401637
 20
-14.51853638774707
 30
0.0
 10
50.00777716651822
 20
-13.50038263350305
 30
0.0
 10
47.85051762232479
 20
-12.2307426535998
 30
0.0
 10
45.69264719117588
 20
-10.73574608425096
 30
0.0
 10
43.5328400250234
 20
-9.043509953291903
 30
0.0
 10
41.3747385812892
 20
-7.18339868584642
 30
0.0
 10
39.21750556858532
 20
-5.190702747515904
 30
0.0
 10
37.0592426161684
 20
-3.102184983155889
 30
0.0
 10
34.89948597711611
 20
-0.9575318646249454
 30
0.0
 10
32.74173837839624
 20
1.206171945762229
 30
0.0
 10
30.58444398137012
 20
3.347475862350461
 30
0.0
 10
28.42568434294684
 20
5.426609383588795
 30
0.0
 10
26.26625091425276
 20
7.405143781093375
 30
0.0
 10
24.10872951153642
 20
9.24798826477257
 30
0.0
 10
22.00668118440111
 20
10.8773400388189
 30
0.0
 10
19.95806505672055
 20
12.27870360308899
 30
0.0
 10
17.96622347374462
 20
13.44964781353496
 30
0.0
 10
15.97547682538571
 20
14.41072171719367
 30
0.0
 10
13.98248694964083
 20
15.13958985261556
 30
0.0
 10
11.99045415236382
 20
15.64876235691421
 30
0.0
 10
10.6633269145824
 20
15.77969955858462
 30
0.0
 10
10.0
 20
15.8451448056683
 30
0.0
  0
SPLINE
  5
AA
330
1F
100
AcDbEntity
  8
외형선
  6
Continuous
 62
     1
370
    15
100
AcDbSpline
210
0.0
220
0.0
230
1.0
 70
     8
 71
     3
 72
    20
 73
    16
 74
     0
 42
0.000000001
 43
0.00000001
 40
0.0
 40
0.0
 40
0.0
 40
0.0
 40
0.0769709148390394
 40
0.1539967629146312
 40
0.2310543526711993
 40
0.3080271806434601
 40
0.3850401865526183
 40
0.4621075388696638
 40
0.545521889663805
 40
0.6289380943976498
 40
0.7124252746510272
 40
0.7958882016567045
 40
0.8792968740778747
 40
0.9627229150160778
 40
1.0
 40
1.0
 40
1.0
 40
1.0
 10
10.0
 20
-5.35684021234044
 30
0.0
 10
10.66332691458731
 20
-5.973581092875543
 30
0.0
 10
11.99045415237853
 20
-7.207503014657791
 30
0.0
 10
13.9824869495818
 20
-8.922163455892914
 30
0.0
 10
15.97547682560706
 20
-10.50190784694952
 30
0.0
 10
17.96622347291909
 20
-11.91640007051612
 30
0.0
 10
19.95806505980431
 20
-13.14319041554529
 30
0.0
 10
22.00668117248248
 20
-14.1910551267635
 30
0.0
 10
24.10872956011391
 20
-15.02325320958702
 30
0.0
 10
26.26625073336642
 20
-15.60006976879892
 30
0.0
 10
28.42568501845196
 20
-15.88770224216266
 30
0.0
 10
30.58444146196402
 20
-15.88637690048891
 30
0.0
 10
32.74174777503342
 20
-15.57631856113021
 30
0.0
 10
34.50105506683913
 20
-15.13603813456573
 30
0.0
 10
35.54209960652445
 20
-14.70399017212847
 30
0.0
 10
35.86360831213107
 20
-14.57055958787587
 30
0.0
  0
SPLINE
  5
AB
330
1F
100
AcDbEntity
  8
외형선
  6
Continuous
370
    15
100
AcDbSpline
210
0.0
220
0.0
230
1.0
 70
    24
 71
     3
 72
    34
 73
    30
 74
     0
 42
0.000000001
 43
0.00000001
 40
0.0
 40
0.0
 40
0.0
 40
0.0
 40
0.1250000000000001
 40
0.1250000000000001
 40
0.1562499999999999
 40
0.1562499999999999
 40
0.1874999999999997
 40
0.1874999999999997
 40
0.2499999999999996
 40
0.2499999999999996
 40
0.3749999999999996
 40
0.3749999999999996
 40
0.4999999999999997
 40
0.4999999999999997
 40
0.5624999999999998
 40
0.5624999999999998
 40
0.6249999999999998
 40
0.6249999999999998
 40
0.6874999999999998
 40
0.6874999999999998
 40
0.7499999999999998
 40
0.7499999999999998
 40
0.8124999999999999
 40
0.8124999999999999
 40
0.8749999999999999
 40
0.8749999999999999
 40
0.9375
 40
0.9375
 40
1.0
 40
1.0
 40
1.0
 40
1.0
 10
10.0
 20
7.065318487618834
 30
0.0
 10
9.999999999999973
 20
6.910518817972221
 30
0.0
 10
9.999999999999973
 20
6.690620625093957
 30
0.0
 10
9.999999999999973
 20
6.38958706111985
 30
0.0
 10
9.99999999999996
 20
6.327958929714578
 30
0.0
 10
9.99999999999996
 20
6.202802524071891
 30
0.0
 10
9.999999999999973
 20
6.138015737800614
 30
0.0
 10
9.999999999999988
 20
5.927206799363133
 30
0.0
 10
9.99999999999996
 20
5.768128711496915
 30
0.0
 10
9.999999999999988
 20
5.224994990404447
 30
0.0
 10
9.999999999999988
 20
4.773706797018701
 30
0.0
 10
9.999999999999973
 20
3.653215933651408
 30
0.0
 10
9.99999999999996
 20
2.98140165606265
 30
0.0
 10
9.999999999999973
 20
1.834340436672065
 30
0.0
 10
10.0
 20
1.429664903174924
 30
0.0
 10
9.999999999999988
 20
0.5931172943535482
 30
0.0
 10
10.0
 20
0.1613146930672734
 30
0.0
 10
9.999999999999988
 20
-0.7034120821253909
 30
0.0
 10
10.00000000000001
 20
-1.136154496127022
 30
0.0
 10
9.999999999999988
 20
-1.971775705314519
 30
0.0
 10
10.0
 20
-2.374416223790026
 30
0.0
 10
9.999999999999988
 20
-3.120526241178041
 30
0.0
 10
10.0
 20
-3.463807068484726
 30
0.0
 10
9.999999999999988
 20
-4.070397224504184
 30
0.0
 10
10.0
 20
-4.333650247864116
 30
0.0
 10
10.0
 20
-4.771821568998424
 30
0.0
 10
9.999999999999945
 20
-4.946817356080439
 30
0.0
 10
9.999999999999945
 20
-5.212153559495368
 30
0.0
 10
9.999999999999988
 20
-5.302640113616577
 30
0.0
 10
9.999999999999988
 20
-5.356840212340388
 30
0.0
  0
SPLINE
  5
AC
330
1F
100
AcDbEntity
  8
외형선
  6
Continuous
 62
     1
370
    15
100
AcDbSpline
210
0.0
220
0.0
230
1.0
 70
     8
 71
     3
 72
    23
 73
    19
 74
     0
 42
0.000000001
 43
0.00000001
 40
0.0
 40
0.0
 40
0.0
 40
0.0
 40
0.0273284138237376
 40
0.0942056846594872
 40
0.16111404353214
 40
0.2280650244594349
 40
0.2949580815027502
 40
0.3618372120407744
 40
0.4287598452426602
 40
0.4957019252966759
 40
0.5625870954287613
 40
0.6294707790262712
 40
0.6912652827177526
 40
0.7530162101191206
 40
0.8147349218598327
 40
0.8765215976895624
 40
0.9382828222566855
 40
1.0
 40
1.0
 40
1.0
 40
1.0
 10
42.25602647667903
 20
-15.83849257637109
 30
0.0
 10
41.96218052408938
 20
-15.84719270573069
 30
0.0
 10
40.94924361063845
 20
-15.87718352950236
 30
0.0
 10
39.21753995186845
 20
-15.62063026366904
 30
0.0
 10
37.0592333945816
 20
-15.07972438874376
 30
0.0
 10
34.89948844633074
 20
-14.24298056549711
 30
0.0
 10
32.74173771718216
 20
-13.1476254442133
 30
0.0
 10
30.58444415865345
 20
-11.80828852402851
 30
0.0
 10
28.42568429541348
 20
-10.25160680690668
 30
0.0
 10
26.26625092698126
 20
-8.506083823639546
 30
0.0
 10
24.10872950811816
 20
-6.602732699051505
 30
0.0
 10
22.00668118523981
 20
-4.629135036423619
 30
0.0
 10
19.95806505650354
 20
-2.632326747891946
 30
0.0
 10
17.96622347380269
 20
-0.6471689873089359
 30
0.0
 10
15.97547682537013
 20
1.3496554048209
 30
0.0
 10
13.98248694964502
 20
3.321143501130587
 30
0.0
 10
11.99045415236276
 20
5.249334761907441
 30
0.0
 10
10.66332691458208
 20
6.460134549934279
 30
0.0
 10
10.00000000000001
 20
7.065318487618766
 30
0.0
  0
LINE
  5
AD
330
1F
100
AcDbEntity
  8
외형선
  6
Continuous
 62
     1
370
    15
100
AcDbLine
 10
60.8
 20
-6.220629017945221
 30
0.0
 11
60.8
 21
6.222778875393326
 31
0.0
  0
SPLINE
  5
AE
330
1F
100
AcDbEntity
  8
외형선
  6
Continuous
 62
     1
370
    15
100
AcDbSpline
210
0.0
220
0.0
230
1.0
 70
     8
 71
     3
 72
    22
 73
    18
 74
     0
 42
0.000000001
 43
0.00000001
 40
0.0
 40
0.0
 40
0.0
 40
0.0
 40
0.0355481218004862
 40
0.1044083140852564
 40
0.1732828453996249
 40
0.2422170163916703
 40
0.3111073027988756
 40
0.3799655802941573
 40
0.4488509984964987
 40
0.5177866346010319
 40
0.5866649827581839
 40
0.6555241195088747
 40
0.7244231858063827
 40
0.7933525867475515
 40
0.8622217612041423
 40
0.9310845308484099
 40
1.0
 40
1.0
 40
1.0
 40
1.0
 10
29.47094488118724
 20
15.83943931401293
 30
0.0
 10
29.84223703984919
 20
15.84606580623415
 30
0.0
 10
30.93275846138999
 20
15.86552846265805
 30
0.0
 10
32.74171387330747
 20
15.57879539539341
 30
0.0
 10
34.89949255019911
 20
15.00496191204239
 30
0.0
 10
37.0592408558319
 20
14.13980546882428
 30
0.0
 10
39.2175060386323
 20
13.01728039018929
 30
0.0
 10
41.37473845999844
 20
11.65338498789713
 30
0.0
 10
43.53284004005496
 20
10.074609939181
 30
0.0
 10
45.69264725250076
 20
8.310885957327429
 30
0.0
 10
47.85051736230155
 20
6.392702778986451
 30
0.0
 10
50.00777814531597
 20
4.356597069319991
 30
0.0
 10
52.16633563575599
 20
2.240480549473513
 30
0.0
 10
54.3259276452666
 20
0.0832639229058545
 30
0.0
 10
56.48350711787567
 20
-2.07450519249757
 30
0.0
 10
58.6408855189953
 20
-4.202098814112525
 30
0.0
 10
60.08011167399315
 20
-5.547614065650913
 30
0.0
 10
60.79999999999999
 20
-6.220629017945222
 30
0.0
  0
SPLINE
  5
AF
330
1F
100
AcDbEntity
  8
외형선
  6
Continuous
 62
     1
370
    15
100
AcDbSpline
210
0.0
220
0.0
230
1.0
 70
     8
 71
     3
 72
    19
 73
    15
 74
     0
 42
0.000000001
 43
0.00000001
 40
0.0
 40
0.0
 40
0.0
 40
0.0
 40
0.0865835215572034
 40
0.1731008328863622
 40
0.2596261910475695
 40
0.3462272161263801
 40
0.4327901295837255
 40
0.5193028766441756
 40
0.6058397603933259
 40
0.6924486191618455
 40
0.778994385523531
 40
0.8655060530388493
 40
0.9520579356807518
 40
1.0
 40
1.0
 40
1.0
 40
1.0
 10
60.80000000000002
 20
6.222778875393323
 30
0.0
 10
60.08011167397643
 20
6.873631309177711
 30
0.0
 10
58.64088551894506
 20
8.174838471325302
 30
0.0
 10
56.48350711807636
 20
9.94595310144589
 30
0.0
 10
54.3259276445138
 20
11.54174085849207
 30
0.0
 10
52.16633563856884
 20
12.9215078589286
 30
0.0
 10
50.00777813482591
 20
14.06399220766774
 30
0.0
 10
47.85051740143085
 20
14.94677906026745
 30
0.0
 10
45.69264710636852
 20
15.55396401561387
 30
0.0
 10
43.53284058576078
 20
15.87295796856385
 30
0.0
 10
41.37473642544449
 20
15.9026819441534
 30
0.0
 10
39.21751363002069
 20
15.625947773986
 30
0.0
 10
37.380583590527
 20
15.18589616548007
 30
0.0
 10
36.26225179187586
 20
14.73384779170126
 30
0.0
 10
35.86360831213118
 20
14.57270944532367
 30
0.0
  0
LINE
  5
B0
330
1F
100
AcDbEntity
  8
외형선
  6
Continuous
 62
     1
370
    15
100
AcDbLine
 10
60.8
 20
-15.8739250712761
 30
0.0
 11
60.8
 21
-15.75807806688245
 31
0.0
  0
LINE
  5
B1
330
1F
100
AcDbEntity
  8
외형선
  6
Continuous
 62
     1
370
    15
100
AcDbLine
 10
60.8
 20
-9.536374120213091
 30
0.0
 11
60.8
 21
-6.220629017945221
 31
0.0
  0
LINE
  5
B2
330
1F
100
AcDbEntity
  8
외형선
  6
Continuous
370
    15
100
AcDbLine
 10
9.999999999999988
 20
7.065318487618842
 30
0.0
 11
10.0
 21
10.26357314013001
 31
0.0
  0
SPLINE
  5
B3
330
1F
100
AcDbEntity
  8
외형선
  6
Continuous
 62
     1
370
    15
100
AcDbSpline
210
0.0
220
0.0
230
1.0
 70
     8
 71
     3
 72
    15
 73
    11
 74
     0
 42
0.000000001
 43
0.00000001
 40
0.0
 40
0.0
 40
0.0
 40
0.0
 40
0.0974644083037124
 40
0.2354688071672457
 40
0.3629724504523887
 40
0.490386180631699
 40
0.6177334386515276
 40
0.7452209303239409
 40
0.8726559071525622
 40
1.0
 40
1.0
 40
1.0
 40
1.0
 10
25.63217231108381
 20
-15.84351393354965
 30
0.0
 10
25.12434277756851
 20
-15.84151898588384
 30
0.0
 10
23.89745373589364
 20
-15.83669929882672
 30
0.0
 10
22.00670174619007
 20
-15.49933097957953
 30
0.0
 10
19.95805973665287
 20
-14.91152573205772
 30
0.0
 10
17.96622489791392
 20
-14.09532150396184
 30
0.0
 10
15.97547644352235
 20
-13.06010409721254
 30
0.0
 10
13.98248705147394
 20
-11.81734136496082
 30
0.0
 10
11.99045412693108
 20
-10.39836017319191
 30
0.0
 10
10.66332690610683
 20
-9.31849258163433
 30
0.0
 10
10.0
 20
-8.77875138932567
 30
0.0
  0
LINE
  5
B4
330
1F
100
AcDbEntity
  8
외형선
  6
Continuous
370
    15
100
AcDbLine
 10
9.999999999999988
 20
-8.778751389325805
 30
0.0
 11
9.999999999999988
 21
-5.356840212340441
 31
0.0
  0
SPLINE
  5
B5
330
1F
100
AcDbEntity
  8
외형선
  6
Continuous
 62
     1
370
    15
100
AcDbSpline
210
0.0
220
0.0
230
1.0
 70
     8
 71
     3
 72
    14
 73
    10
 74
     0
 42
0.000000001
 43
0.00000001
 40
0.0
 40
0.0
 40
0.0
 40
0.0
 40
0.1193950496452491
 40
0.2660985568981509
 40
0.412887133538174
 40
0.5597403377472654
 40
0.7064652302037843
 40
0.8531764772898344
 40
1.0
 40
1.0
 40
1.0
 40
1.0
 10
46.09511039357509
 20
15.85384954950032
 30
0.0
 10
46.68032775960184
 20
15.84408510499594
 30
0.0
 10
47.98461547533343
 20
15.82232285773987
 30
0.0
 10
50.00775492565344
 20
15.43822306155331
 30
0.0
 10
52.16634186204871
 20
14.77554097333383
 30
0.0
 10
54.32592597882002
 20
13.83291914152984
 30
0.0
 10
56.48350756204
 20
12.63336609210582
 30
0.0
 10
58.64088540785938
 20
11.2126237644997
 30
0.0
 10
60.08011163693842
 20
10.0966995184757
 30
0.0
 10
60.79999999999999
 20
9.538523977660972
 30
0.0
  0
LINE
  5
B6
330
1F
100
AcDbEntity
  8
외형선
  6
Continuous
 62
     1
370
    15
100
AcDbLine
 10
60.8
 20
6.222778875393326
 30
0.0
 11
60.8
 21
9.538523977660972
 31
0.0
  0
SPLINE
  5
B7
330
1F
100
AcDbEntity
  8
외형선
  6
Continuous
 62
     1
370
    15
100
AcDbSpline
210
0.0
220
0.0
230
1.0
 70
     8
 71
     3
 72
    12
 73
     8
 74
     0
 42
0.000000001
 43
0.00000001
 40
0.0
 40
0.0
 40
0.0
 40
0.0
 40
0.2154663355149941
 40
0.4310864468192286
 40
0.6467954132929434
 40
0.8622671042828648
 40
1.0
 40
1.0
 40
1.0
 40
1.0
 10
10.0
 20
-15.61933842374661
 30
0.0
 10
10.66332755352591
 20
-15.71392636468633
 30
0.0
 10
11.99045606965036
 20
-15.90316975286662
 30
0.0
 10
13.98247927279051
 20
-15.87343909459292
 30
0.0
 10
15.97550561276033
 20
-15.60261338574478
 30
0.0
 10
17.72650575572217
 20
-15.17495685571541
 30
0.0
 10
18.81433832149703
 20
-14.74505388973949
 30
0.0
 10
19.23854099320197
 20
-14.57741229444403
 30
0.0
  0
SPLINE
  5
B8
330
1F
100
AcDbEntity
  8
외형선
  6
Continuous
370
    15
100
AcDbSpline
210
0.0
220
0.0
230
1.0
 70
    24
 71
     3
 72
    15
 73
    11
 74
     0
 42
0.000000001
 43
0.00000001
 40
0.0
 40
0.0
 40
0.0
 40
0.0
 40
0.0523271191531157
 40
0.1971006312201524
 40
0.3460725849447876
 40
0.490846097011795
 40
0.6398180507364597
 40
0.7845915628034956
 40
0.93356351652813
 40
0.9999999999999999
 40
0.9999999999999999
 40
0.9999999999999999
 40
0.9999999999999999
 10
9.999999999999973
 20
-8.86470102293017
 30
0.0
 10
9.999999999999973
 20
-8.952148857479255
 30
0.0
 10
9.999999999999988
 20
-9.28153873537459
 30
0.0
 10
10.00000000000003
 20
-9.986291895578711
 30
0.0
 10
10.00000000000004
 20
-10.94018562769385
 30
0.0
 10
9.999999999999917
 20
-11.97761928353064
 30
0.0
 10
9.999999999999973
 20
-13.03988639877224
 30
0.0
 10
10.00000000000013
 20
-14.11776517152003
 30
0.0
 10
9.999999999999888
 20
-14.97802297026105
 30
0.0
 10
9.99999999999996
 20
-15.46816754784539
 30
0.0
 10
9.999999999999988
 20
-15.61933842374661
 30
0.0
  0
SPLINE
  5
B9
330
1F
100
AcDbEntity
  8
외형선
  6
Continuous
 62
     1
370
    15
100
AcDbSpline
210
0.0
220
0.0
230
1.0
 70
     8
 71
     3
 72
    11
 73
     7
 74
     0
 42
0.000000001
 43
0.00000001
 40
0.0
 40
0.0
 40
0.0
 40
0.0
 40
0.2597647419930178
 40
0.5193308424605356
 40
0.7789210847417996
 40
1.0
 40
1.0
 40
1.0
 40
1.0
 10
60.80000000000002
 20
15.76022792433027
 30
0.0
 10
60.08011119679168
 20
15.81930264936446
 30
0.0
 10
58.64088408775564
 20
15.93740692512086
 30
0.0
 10
56.48351283794863
 20
15.73575441201148
 30
0.0
 10
54.43320391645245
 20
15.31375272090895
 30
0.0
 10
53.10098392074327
 20
14.81729688771937
 30
0.0
 10
52.48824281406532
 20
14.5889570507367
 30
0.0
  0
LINE
  5
BA
330
1F
100
AcDbEntity
  8
외형선
  6
Continuous
 62
     1
370
    15
100
AcDbLine
 10
60.8
 20
9.518109470409373
 30
0.0
 11
60.8
 21
15.76022792433027
 31
0.0
  0
LINE
  5
BB
330
1F
100
AcDbEntity
  8
외형선
  6
Continuous
 62
     1
370
    15
100
AcDbLine
 10
60.8
 20
15.76022792433027
 30
0.0
 11
60.8
 21
15.87607492872391
 31
0.0
  0
LINE
  5
BC
330
1F
100
AcDbEntity
  8
외형선
  6
Continuous
370
    15
100
AcDbLine
 10
9.999999999999988
 20
-15.8739250712761
 30
0.0
 11
9.999999999999988
 21
-15.61933842374661
 31
0.0
  0
SPLINE
  5
BD
330
1F
100
AcDbEntity
  8
외형선
  6
Continuous
370
    15
100
AcDbSpline
210
0.0
220
0.0
230
1.0
 70
     8
 71
     3
 72
     8
 73
     4
 74
     0
 42
0.000000001
 43
0.00000001
 40
0.0
 40
0.0
 40
0.0
 40
0.0
 40
1.0
 40
1.0
 40
1.0
 40
1.0
 10
9.999999999999973
 20
15.8451448056683
 30
0.0
 10
9.666785819442199
 20
15.86591750676295
 30
0.0
 10
9.333037436277314
 20
15.87623792311074
 30
0.0
 10
8.99974503290112
 20
15.87607298081535
 30
0.0
  0
LINE
  5
BE
330
1F
100
AcDbEntity
  8
외형선
  6
Continuous
370
    15
100
AcDbLine
 10
8.999745032901128
 20
11.00494529141253
 30
0.0
 11
8.999745032901128
 21
15.87607298168614
 31
0.0
  0
SPLINE
  5
BF
330
1F
100
AcDbEntity
  8
외형선
  6
Continuous
370
    15
100
AcDbSpline
210
0.0
220
0.0
230
1.0
 70
     8
 71
     3
 72
     8
 73
     4
 74
     0
 42
0.000000001
 43
0.00000001
 40
0.0
 40
0.0
 40
0.0
 40
0.0
 40
1.0
 40
1.0
 40
1.0
 40
1.0
 10
10.0
 20
10.26357314012999
 30
0.0
 10
9.66678581944221
 20
10.51758393904732
 30
0.0
 10
9.333037436277314
 20
10.76495298117355
 30
0.0
 10
8.999745032901114
 20
11.00494470871263
 30
0.0
  0
SPLINE
  5
C0
330
1F
100
AcDbEntity
  8
외형선
  6
Continuous
370
    15
100
AcDbSpline
210
0.0
220
0.0
230
1.0
 70
     8
 71
     3
 72
     8
 73
     4
 74
     0
 42
0.000000001
 43
0.00000001
 40
0.0
 40
0.0
 40
0.0
 40
0.0
 40
1.0
 40
1.0
 40
1.0
 40
1.0
 10
9.999999999999973
 20
7.065318487618776
 30
0.0
 10
9.666785819442199
 20
7.363470723478526
 30
0.0
 10
9.333037436277314
 20
7.657116877060217
 30
0.0
 10
8.99974503290112
 20
7.945384576587417
 30
0.0
  0
SPLINE
  5
C1
330
1F
100
AcDbEntity
  8
외형선
  6
Continuous
370
    15
100
AcDbSpline
210
0.0
220
0.0
230
1.0
 70
     8
 71
     3
 72
     8
 73
     4
 74
     0
 42
0.000000001
 43
0.00000001
 40
0.0
 40
0.0
 40
0.0
 40
0.0
 40
1.0
 40
1.0
 40
1.0
 40
1.0
 10
10.0
 20
-5.356840212340459
 30
0.0
 10
9.66678581944221
 20
-5.043443506465007
 30
0.0
 10
9.333037436277314
 20
-4.726341194877876
 30
0.0
 10
8.999745032901114
 20
-4.40647332364525
 30
0.0
  0
SPLINE
  5
C2
330
1F
100
AcDbEntity
  8
외형선
  6
Continuous
370
    15
100
AcDbSpline
210
0.0
220
0.0
230
1.0
 70
     8
 71
     3
 72
     8
 73
     4
 74
     0
 42
0.000000001
 43
0.00000001
 40
0.0
 40
0.0
 40
0.0
 40
0.0
 40
1.0
 40
1.0
 40
1.0
 40
1.0
 10
9.999999999999973
 20
-8.778751389325658
 30
0.0
 10
9.666785819442199
 20
-8.501371854560563
 30
0.0
 10
9.333037436277314
 20
-8.218046117326654
 30
0.0
 10
8.99974503290112
 20
-7.929613475504062
 30
0.0
  0
LINE
  5
C3
330
1F
100
AcDbEntity
  8
외형선
  6
Continuous
370
    15
100
AcDbLine
 10
8.999745032901128
 20
-15.41034290969474
 30
0.0
 11
8.999745032901128
 21
-7.929614998415992
 31
0.0
  0
SPLINE
  5
C4
330
1F
100
AcDbEntity
  8
외형선
  6
Continuous
370
    15
100
AcDbSpline
210
0.0
220
0.0
230
1.0
 70
     8
 71
     3
 72
     8
 73
     4
 74
     0
 42
0.000000001
 43
0.00000001
 40
0.0
 40
0.0
 40
0.0
 40
0.0
 40
1.0
 40
1.0
 40
1.0
 40
1.0
 10
10.0
 20
-15.61933842374661
 30
0.0
 10
9.66678581944221
 20
-15.55995251678849
 30
0.0
 10
9.333037436277314
 20
-15.49021924732759
 30
0.0
 10
8.999745032901114
 20
-15.41034310363404
 30
0.0
  0
LINE
  5
C5
330
1F
100
AcDbEntity
  8
외형선
  6
Continuous
370
    15
100
AcDbLine
 10
-50.32500000000002
 20
0.0010749287239018
 30
0.0
 11
-50.32500000000002
 21
13.4884749287239
 31
0.0
  0
LINE
  5
C6
330
1F
100
AcDbEntity
  8
외형선
  6
Continuous
370
    15
100
AcDbLine
 10
-50.32500000000002
 20
-15.8739250712761
 30
0.0
 11
-50.32500000000002
 21
0.0010749287239018
 31
0.0
  0
LINE
  5
C7
330
1F
100
AcDbEntity
  8
외형선
  6
Continuous
370
    15
100
AcDbLine
 10
8.999745032901128
 20
-4.406472547006052
 30
0.0
 11
8.999745032901128
 21
7.945383054546283
 31
0.0
  0
LINE
  5
C8
330
1F
100
AcDbEntity
  8
외형선
  6
Continuous
370
    15
100
AcDbLine
 10
-53.50000000000001
 20
0.0010749287239018
 30
0.0
 11
-53.5
 21
13.4884749287239
 31
0.0
  0
LINE
  5
C9
330
1F
100
AcDbEntity
  8
외형선
  6
Continuous
370
    15
100
AcDbLine
 10
-53.50000000000001
 20
-12.69892507127612
 30
0.0
 11
-53.50000000000001
 21
0.0010749287239018
 31
0.0
  0
SPLINE
  5
CA
330
1F
100
AcDbEntity
  8
외형선
  6
Continuous
370
    15
100
AcDbSpline
210
0.0
220
0.0
230
1.0
 70
    24
 71
     3
 72
    34
 73
    30
 74
     0
 42
0.000000001
 43
0.00000001
 40
0.0
 40
0.0
 40
0.0
 40
0.0
 40
0.0625
 40
0.0625
 40
0.1250000000000001
 40
0.1250000000000001
 40
0.1875000000000001
 40
0.1875000000000001
 40
0.2500000000000002
 40
0.2500000000000002
 40
0.3125000000000003
 40
0.3125000000000003
 40
0.3750000000000004
 40
0.3750000000000004
 40
0.4375000000000005
 40
0.4375000000000005
 40
0.5000000000000006
 40
0.5000000000000006
 40
0.6250000000000007
 40
0.6250000000000007
 40
0.7500000000000008
 40
0.7500000000000008
 40
0.8125000000000009
 40
0.8125000000000009
 40
0.8437500000000008
 40
0.8437500000000008
 40
0.8750000000000007
 40
0.8750000000000007
 40
1.0
 40
1.0
 40
1.0
 40
1.0
 10
9.999999999999973
 20
-5.356840212340363
 30
0.0
 10
9.999999999999973
 20
-5.302640113616542
 30
0.0
 10
9.999999999999988
 20
-5.212153559495324
 30
0.0
 10
10.00000000000003
 20
-4.94681735608038
 30
0.0
 10
9.999999999999988
 20
-4.771821568998358
 30
0.0
 10
10.0
 20
-4.333650247864043
 30
0.0
 10
9.999999999999988
 20
-4.070397224504108
 30
0.0
 10
10.00000000000001
 20
-3.463807068484652
 30
0.0
 10
9.999999999999988
 20
-3.12052624117797
 30
0.0
 10
10.00000000000001
 20
-2.374416223789968
 30
0.0
 10
9.999999999999988
 20
-1.971775705314463
 30
0.0
 10
10.00000000000001
 20
-1.136154496126985
 30
0.0
 10
9.999999999999988
 20
-0.7034120821253639
 30
0.0
 10
9.999999999999988
 20
0.1613146930672789
 30
0.0
 10
9.999999999999988
 20
0.5931172943535373
 30
0.0
 10
9.999999999999988
 20
1.429664903174894
 30
0.0
 10
9.999999999999973
 20
1.834340436672026
 30
0.0
 10
9.999999999999988
 20
2.981401656062589
 30
0.0
 10
9.999999999999988
 20
3.65321593365134
 30
0.0
 10
9.999999999999973
 20
4.773706797018623
 30
0.0
 10
9.999999999999988
 20
5.224994990404367
 30
0.0
 10
9.999999999999988
 20
5.768128711496842
 30
0.0
 10
9.999999999999973
 20
5.927206799363059
 30
0.0
 10
10.0
 20
6.138015737800544
 30
0.0
 10
10.0
 20
6.20280252407183
 30
0.0
 10
10.00000000000001
 20
6.327958929714515
 30
0.0
 10
10.0
 20
6.389587061119787
 30
0.0
 10
9.999999999999973
 20
6.690620625093886
 30
0.0
 10
9.999999999999988
 20
6.910518817972156
 30
0.0
 10
9.999999999999988
 20
7.065318487618777
 30
0.0
  0
SPLINE
  5
CB
330
1F
100
AcDbEntity
  8
외형선
  6
Continuous
370
    15
100
AcDbSpline
210
0.0
220
0.0
230
1.0
 70
    24
 71
     3
 72
    15
 73
    11
 74
     0
 42
0.000000001
 43
0.00000001
 40
0.0
 40
0.0
 40
0.0
 40
0.0
 40
0.039657994486883
 40
0.1865100177076961
 40
0.3333620409285094
 40
0.4802140641493207
 40
0.6270660873701316
 40
0.773918110590944
 40
0.9207701338117559
 40
1.0
 40
1.0
 40
1.0
 40
1.0
 10
10.0
 20
-15.6193384237466
 30
0.0
 10
10.0
 20
-15.52942588009861
 30
0.0
 10
10.00000000000003
 20
-15.10657065696122
 30
0.0
 10
10.00000000000003
 20
-14.31670676258415
 30
0.0
 10
9.999999999999945
 20
-13.24605871649939
 30
0.0
 10
10.0
 20
-12.1755264053847
 30
0.0
 10
9.999999999999973
 20
-11.1337060350328
 30
0.0
 10
10.0
 20
-10.15951785090995
 30
0.0
 10
9.999999999999973
 20
-9.388615533163675
 30
0.0
 10
9.999999999999988
 20
-9.000651948369589
 30
0.0
 10
9.999999999999988
 20
-8.86469102293017
 30
0.0
  0
SPLINE
  5
CC
330
1F
100
AcDbEntity
  8
외형선
  6
Continuous
370
    15
100
AcDbSpline
210
0.0
220
0.0
230
1.0
 70
    24
 71
     3
 72
    18
 73
    14
 74
     0
 42
0.000000001
 43
0.00000001
 40
0.0
 40
0.0
 40
0.0
 40
0.0
 40
0.0801434416923854
 40
0.1734537690410664
 40
0.2674503674671874
 40
0.3581449224249271
 40
0.4494691854285104
 40
0.5427795127771995
 40
0.636776111203328
 40
0.7260248684479567
 40
0.815873463997557
 40
0.9076108001185885
 40
1.0
 40
1.0
 40
1.0
 40
1.0
 10
9.99999999999996
 20
10.34951277373437
 30
0.0
 10
9.99999999999996
 20
10.47432437296547
 30
0.0
 10
9.999999999999988
 20
10.74445305535687
 30
0.0
 10
9.999999999999945
 20
11.19199728868084
 30
0.0
 10
9.999999999999988
 20
11.6763043968936
 30
0.0
 10
10.0
 20
12.17559171937462
 30
0.0
 10
9.999999999999945
 20
12.68749567461229
 30
0.0
 10
9.999999999999988
 20
13.21636501330285
 30
0.0
 10
10.0
 20
13.74828979594083
 30
0.0
 10
9.999999999999988
 20
14.27659514024623
 30
0.0
 10
9.99999999999996
 20
14.79973910079783
 30
0.0
 10
10.0
 20
15.32559476414997
 30
0.0
 10
9.999999999999988
 20
15.67155319258776
 30
0.0
 10
10.00000000000001
 20
15.8451448056683
 30
0.0
  0
LINE
  5
CD
330
1F
100
AcDbEntity
  8
중심선
 62
     1
100
AcDbLine
 10
-56.5
 20
0.0010749287238931
 30
0.0
 11
63.80000000000002
 21
0.0010749287239044
 31
0.0
  0
LINE
  5
CE
330
1F
100
AcDbEntity
  8
참조1
100
AcDbLine
 10
3.650000000000006
 20
0.0010749287238892
 30
0.0
 11
3.650000000000009
 21
-39.99892507127611
 31
0.0
  0
LINE
  5
CF
330
1F
100
AcDbEntity
  8
참조1
100
AcDbLine
 10
3.650000000000009
 20
-39.99892507127611
 30
0.0
 11
-19.44635681430869
 21
-39.9989250712761
 31
0.0
  0
CIRCLE
  5
D0
330
1F
100
AcDbEntity
  8
해칭선
100
AcDbCircle
 10
0.0
 20
0.0
 30
0.0
 40
3.000000000000001
  0
INSERT
  5
D1
330
1F
100
AcDbEntity
  8
0
  6
Continuous
 62
     7
100
AcDbBlockReference
 66
     1
  2
블럭10
 10
-10.2902729321252
 20
-52.04609937292004
 30
0.0
  0
ATTRIB
  5
D2
330
D1
100
AcDbEntity
  8
FORMAT
 62
     2
100
AcDbText
 10
-19.35789471269921
 20
-49.97073246008785
 30
0.0
 40
4.233333333333333
  1
EE882116 [ 6 FLUTE ]
 41
0.75
  7
SLDTEXTSTYLE0
 11
-19.35789471269921
 21
-52.08739912675452
 31
0.0
100
AcDbAttribute
  2
AUTOATTR0
 70
     0
 74
     1
  0
SEQEND
  5
D3
330
D1
100
AcDbEntity
  8
0
  6
Continuous
 62
     7
  0
HATCH
  5
D4
330
1F
100
AcDbEntity
  8
중심선
100
AcDbHatch
 10
0.0
 20
0.0
 30
0.0
210
0.0
220
0.0
230
1.0
  2
SOLID
 70
     1
 71
     0
 91
        1
 92
        0
 93
        4
 72
     1
 10
-4.575363627744364
 20
-35.7989250712761
 11
-8.021638871581647
 21
-35.7989250712761
 72
     1
 10
-8.021638871581647
 20
-35.7989250712761
 11
-10.1498687307857
 21
-38.3352506518487
 72
     1
 10
-10.1498687307857
 20
-38.3352506518487
 11
-6.703560401835237
 21
-38.33521122254621
 72
     1
 10
-6.703560401835237
 20
-38.33521122254621
 11
-4.575363627744364
 21
-35.7989250712761
 97
        0
 75
     0
 76
     1
 98
        1
 10
-6.350000000000003
 20
0.0
  0
HATCH
  5
D5
330
1F
100
AcDbEntity
  8
중심선
100
AcDbHatch
 10
0.0
 20
0.0
 30
0.0
210
0.0
220
0.0
230
1.0
  2
SOLID
 70
     1
 71
     0
 91
        1
 92
        0
 93
        4
 72
     1
 10
0.4374003632915873
 20
-35.79892507127608
 11
-3.008874880545696
 21
-35.79892507127613
 72
     1
 10
-3.008874880545696
 20
-35.79892507127613
 11
-7.540012888903084
 21
-41.19892507127612
 72
     1
 10
-7.540012888903084
 20
-41.19892507127612
 11
-4.093737645065801
 21
-41.19892507127612
 72
     1
 10
-4.093737645065801
 20
-41.19892507127612
 11
0.4374003632915873
 21
-35.79892507127608
 97
        0
 75
     0
 76
     1
 98
        1
 10
-6.350000000000003
 20
0.0
  0
HATCH
  5
D6
330
1F
100
AcDbEntity
  8
중심선
100
AcDbHatch
 10
0.0
 20
0.0
 30
0.0
210
0.0
220
0.0
230
1.0
  2
SOLID
 70
     1
 71
     0
 91
        1
 92
        0
 93
        4
 72
     1
 10
5.450164354327482
 20
-35.79892507127608
 11
2.003889110490395
 21
-35.7989250712761
 72
     1
 10
2.003889110490395
 20
-35.7989250712761
 11
-5.044547791398882
 21
-44.19892507127612
 72
     1
 10
-5.044547791398882
 20
-44.19892507127612
 11
-1.598272547561599
 21
-44.19892507127612
 72
     1
 10
-1.598272547561599
 20
-44.19892507127612
 11
5.450164354327482
 21
-35.79892507127608
 97
        0
 75
     0
 76
     1
 98
        1
 10
-6.350000000000003
 20
0.0
  0
HATCH
  5
D7
330
1F
100
AcDbEntity
  8
중심선
100
AcDbHatch
 10
0.0
 20
0.0
 30
0.0
210
0.0
220
0.0
230
1.0
  2
SOLID
 70
     1
 71
     0
 91
        1
 92
        0
 93
        6
 72
     3
 10
10.25005478533968
 20
-39.99892507132738
 11
3.960054785062283
 21
1.540882976769353E-10
 40
0.3939339440162628
 50
17.09539180608436
 51
320.0019657685078
 73
     0
 72
     1
 10
11.93305444104031
 20
-38.58681907591438
 11
14.23835631474134
 21
-36.65249236586646
 72
     3
 10
10.25005478528684
 20
-39.99892507127625
 11
6.600054785286828
 21
-1.278976924368180E-13
 40
0.6363583540795982
 50
39.99873849337413
 51
368.4976242363724
 73
     1
 72
     1
 10
16.67538727718745
 20
-39.03892507120613
 11
8.93012209212276
 21
-39.03892507120613
 72
     1
 10
8.930122092122758
 20
-39.03892507120613
 11
8.930097047676824
 21
-40.95892507120602
 72
     1
 10
8.930097047676824
 20
-40.95892507120602
 11
13.37147681714886
 21
-40.95892507120599
 97
        0
 75
     0
 76
     1
 98
        1
 10
-6.350000000000003
 20
0.0
  0
DIMENSION
  5
D8
330
1F
100
AcDbEntity
  8
치수문자_일반주서
100
AcDbDimension
  2
_D
 10
88.19351153937733
 20
-15.873925071276
 30
0.0
 11
88.19351153937727
 21
0.0010749287238969
 31
0.0
 70
   160
  1
%%c<>
 71
     2
 42
31.75000000000001
 52
-270.0
  3
SLDDIMSTYLE0
100
AcDbAlignedDimension
 13
60.8
 23
15.87607492872391
 33
0.0
 14
60.8
 24
-15.8739250712761
 34
0.0
 50
90.0000000000002
100
AcDbRotatedDimension
1001
PE_URL
1000

1001
ACAD
1000
DSTYLE
1002
{
1070
   171
1070
     6
1070
   273
1070
     7
1002
}
  0
DIMENSION
  5
EB
330
1F
100
AcDbEntity
  8
치수문자_일반주서
100
AcDbDimension
  2
_D_1
 10
-65.22999999999996
 20
-15.87392507127615
 30
0.0
 11
-65.23000000000002
 21
0.0010749287238974
 31
0.0
 70
   160
  1
%%c<>
 71
     2
 42
31.75
 52
-270.0
  3
SLDDIMSTYLE0
100
AcDbAlignedDimension
 13
-50.325
 23
15.8760749287239
 33
0.0
 14
-50.325
 24
-15.8739250712761
 34
0.0
 50
90.0000000000002
100
AcDbRotatedDimension
1001
ACAD
1000
DSTYLE
1002
{
1070
   171
1070
     6
1070
   273
1070
     7
1002
}
  0
DIMENSION
  5
FD
330
1F
100
AcDbEntity
  8
치수문자_일반주서
100
AcDbDimension
  2
_D_2
 10
9.999999999999986
 20
37.09228915592541
 30
0.0
 11
35.39999999999999
 21
37.09228915592541
 31
0.0
 70
   160
  1
<>
 71
     2
 42
50.80000000000002
  3
SLDDIMSTYLE0
100
AcDbAlignedDimension
 13
60.8
 23
15.76022792433027
 33
0.0
 14
9.999999999999988
 24
15.84514480566851
 34
0.0
100
AcDbRotatedDimension
1001
PE_URL
1000

1001
ACAD
1000
DSTYLE
1002
{
1070
   171
1070
     6
1070
   273
1070
     7
1002
}
  0
DIMENSION
  5
111
330
1F
100
AcDbEntity
  8
치수문자_일반주서
100
AcDbDimension
  2
_D_3
 10
-53.50000000000002
 20
58.36185038752055
 30
0.0
 11
3.649999999999991
 21
58.36185038752055
 31
0.0
 70
   160
  1
<>
 71
     2
 42
114.3
  3
SLDDIMSTYLE0
100
AcDbAlignedDimension
 13
60.8
 23
15.76022792433027
 33
0.0
 14
-53.50000000000001
 24
12.70107492872392
 34
0.0
100
AcDbRotatedDimension
1001
PE_URL
1000

1001
ACAD
1000
DSTYLE
1002
{
1070
   171
1070
     6
1070
   273
1070
     7
1002
}
  0
LINE
  5
124
330
1F
100
AcDbEntity
  8
참조1
100
AcDbLine
 10
78.52598381534558
 20
7.441074928723896
 30
0.0
 11
78.52598381534558
 21
-7.438925071276109
 31
0.0
  0
LINE
  5
125
330
1F
100
AcDbEntity
  8
참조1
100
AcDbLine
 10
91.22598381534559
 20
5.441074928723896
 30
0.0
 11
78.52598381534558
 21
5.441074928723896
 31
0.0
  0
SOLID
  5
126
330
1F
100
AcDbEntity
  8
참조1
100
AcDbTrace
 10
78.52598381534558
 20
5.441074928723896
 30
0.0
 11
84.87598381534558
 21
4.425074928723896
 31
0.0
 12
84.87598381534558
 22
6.457074928723896
 32
0.0
 13
84.87598381534558
 23
6.457074928723896
 33
0.0
  0
LINE
  5
127
330
1F
100
AcDbEntity
  8
참조1
100
AcDbLine
 10
91.22598381534559
 20
-5.438925071276109
 30
0.0
 11
78.52598381534558
 21
-5.438925071276109
 31
0.0
  0
SOLID
  5
128
330
1F
100
AcDbEntity
  8
참조1
100
AcDbTrace
 10
78.52598381534558
 20
-5.438925071276109
 30
0.0
 11
84.87598381534558
 21
-6.454925071276109
 31
0.0
 12
84.87598381534558
 22
-4.422925071276109
 32
0.0
 13
84.87598381534558
 23
-4.422925071276109
 33
0.0
  0
MTEXT
  5
129
330
1F
100
AcDbEntity
  8
참조1
100
AcDbMText
 10
87.92347390781585
 20
10.98929157337383
 30
0.0
 40
3.5
 41
0.0
 71
     1
 72
     1
  1
A
  7
SLDTEXTSTYLE0
 73
     1
 44
1.0
  0
MTEXT
  5
12A
330
1F
100
AcDbEntity
  8
참조1
100
AcDbMText
 10
87.92347390781585
 20
0.1092915733738259
 30
0.0
 40
3.5
 41
0.0
 71
     1
 72
     1
  1
A
  7
SLDTEXTSTYLE0
 73
     1
 44
1.0
  0
INSERT
  5
131
330
1F
100
AcDbEntity
  8
해칭선
100
AcDbBlockReference
  2
SW_DOWELSYMBOL_0
 10
0.0
 20
0.0
 30
0.0
  0
LINE
  5
1B5
330
1F
100
AcDbEntity
  8
외형선
  6
Continuous
370
    15
100
AcDbLine
 10
-31.08132499999999
 20
13.4884749287239
 30
0.0
 11
-17.97492499999998
 21
13.4884749287239
 31
0.0
  0
LINE
  5
1B6
330
1F
100
AcDbEntity
  8
외형선
  6
Continuous
370
    15
100
AcDbLine
 10
-17.97492499999998
 20
13.4884749287239
 30
0.0
 11
-15.58732499999996
 21
15.87607492872392
 31
0.0
  0
LINE
  5
1B7
330
1F
100
AcDbEntity
  8
외형선
  6
Continuous
370
    15
100
AcDbLine
 10
-31.08132499999999
 20
13.4884749287239
 30
0.0
 11
-33.46892500000001
 21
15.87607492872392
 31
0.0
  0
LINE
  5
1B8
330
1F
100
AcDbEntity
  8
외형선
  6
Continuous
370
    15
100
AcDbLine
 10
-53.5
 20
13.4884749287239
 30
0.0
 11
-40.80000000000001
 21
13.4884749287239
 31
0.0
  0
LINE
  5
1B9
330
1F
100
AcDbEntity
  8
외형선
  6
Continuous
370
    15
100
AcDbLine
 10
-40.80000000000001
 20
13.4884749287239
 30
0.0
 11
-38.41240000000005
 21
15.87607492872389
 31
0.0
  0
LINE
  5
1BA
330
1F
100
AcDbEntity
  8
0
100
AcDbLine
 10
-38.41240000000005
 20
15.8760749287239
 30
0.0
 11
-33.46892500000001
 21
15.8760749287239
 31
0.0
  0
LINE
  5
1BB
330
1F
100
AcDbEntity
  8
외형선
  6
Continuous
370
    15
100
AcDbLine
 10
-33.468925
 20
15.8760749287239
 30
0.0
 11
-38.41240000000003
 21
15.8760749287239
 31
0.0
  0
ENDSEC
  0
SECTION
  2
OBJECTS
  0
DICTIONARY
  5
C
330
0
100
AcDbDictionary
281
     1
  3
ACAD_GROUP
350
D
  3
ACAD_IMAGE_VARS
350
179
  3
ACAD_LAYOUT
350
1A
  3
ACAD_MLINESTYLE
350
17
  3
ACAD_PLOTSETTINGS
350
19
  3
ACAD_PLOTSTYLENAME
350
E
  3
ACAD_SCALELIST
350
47
  3
APPDATA
350
153
  3
DWGPROPS
350
1BC
  0
DICTIONARY
  5
1A6
330
2
100
AcDbDictionary
280
     1
281
     1
  3
ACAD_LAYERSTATES
360
1A7
  0
DICTIONARY
  5
D
102
{ACAD_REACTORS
330
C
102
}
330
C
100
AcDbDictionary
281
     1
  0
RASTERVARIABLES
  5
179
102
{ACAD_REACTORS
330
C
102
}
330
C
100
AcDbRasterVariables
 90
        0
 70
     1
 71
     1
 72
     1
  0
DICTIONARY
  5
1A
102
{ACAD_REACTORS
330
C
102
}
330
C
100
AcDbDictionary
281
     1
  3
Layout1
350
1E
  3
Layout2
350
26
  3
Model
350
22
  0
DICTIONARY
  5
17
102
{ACAD_REACTORS
330
C
102
}
330
C
100
AcDbDictionary
281
     1
  3
Standard
350
18
  0
DICTIONARY
  5
19
102
{ACAD_REACTORS
330
C
102
}
330
C
100
AcDbDictionary
281
     1
  0
ACDBDICTIONARYWDFLT
  5
E
102
{ACAD_REACTORS
330
C
102
}
330
C
100
AcDbDictionary
281
     1
  3
Normal
350
F
100
AcDbDictionaryWithDefault
340
F
  0
DICTIONARY
  5
47
102
{ACAD_REACTORS
330
C
102
}
330
C
100
AcDbDictionary
281
     1
  3
A0
350
48
  3
A1
350
49
  3
A2
350
4A
  3
A3
350
4B
  3
A4
350
4C
  3
A5
350
4D
  3
A6
350
4E
  3
A7
350
4F
  3
A8
350
50
  3
A9
350
51
  3
B0
350
52
  3
B1
350
53
  3
B2
350
54
  3
B3
350
55
  3
B4
350
56
  3
B5
350
57
  3
B6
350
58
  3
B7
350
59
  3
B8
350
5A
  3
B9
350
5B
  3
C0
350
5C
  3
C1
350
5D
  3
C2
350
5E
  3
C3
350
5F
  3
C4
350
60
  3
C5
350
61
  3
C6
350
62
  3
C7
350
63
  3
C8
350
64
  3
C9
350
65
  3
D0
350
66
  3
D1
350
67
  3
D2
350
68
  0
DICTIONARY
  5
153
102
{ACAD_REACTORS
330
C
102
}
330
C
100
AcDbDictionary
281
     1
  0
XRECORD
  5
1BC
102
{ACAD_REACTORS
330
C
102
}
330
C
100
AcDbXrecord
280
     1
  1
DWGPROPS COOKIE
  2

  3

  4

  6

  7

  8
12016016
  9

300
=
301
=
302
=
303
=
304
=
305
=
306
=
307
=
308
=
309
=
 40
0.0
 41
2458292.269976435
 42
2458302.053456401
  1

 90
        0
  0
DICTIONARY
  5
1A7
102
{ACAD_REACTORS
330
1A6
102
}
330
1A6
100
AcDbDictionary
281
     1
  0
LAYOUT
  5
1E
102
{ACAD_REACTORS
330
1A
102
}
330
1A
100
AcDbPlotSettings
  1

  2
none_device
  4

  6

 40
0.0
 41
0.0
 42
0.0
 43
0.0
 44
0.0
 45
0.0
 46
0.0
 47
0.0
 48
0.0
 49
0.0
140
0.0
141
0.0
142
1.0
143
1.0
 70
   688
 72
     1
 73
     0
 74
     5
  7

 75
    16
147
1.0
148
0.0
149
0.0
100
AcDbLayout
  1
Layout1
 70
     1
 71
     1
 10
0.0
 20
0.0
 11
420.0
 21
297.0
 12
0.0
 22
0.0
 32
0.0
 14
1.000000000000000E+20
 24
1.000000000000000E+20
 34
1.000000000000000E+20
 15
-1.000000000000000E+20
 25
-1.000000000000000E+20
 35
-1.000000000000000E+20
146
0.0
 13
0.0
 23
0.0
 33
0.0
 16
1.0
 26
0.0
 36
0.0
 17
0.0
 27
1.0
 37
0.0
 76
     0
330
1B
  0
LAYOUT
  5
26
102
{ACAD_REACTORS
330
1A
102
}
330
1A
100
AcDbPlotSettings
  1

  2
none_device
  4

  6

 40
0.0
 41
0.0
 42
0.0
 43
0.0
 44
0.0
 45
0.0
 46
0.0
 47
0.0
 48
0.0
 49
0.0
140
0.0
141
0.0
142
1.0
143
1.0
 70
   688
 72
     1
 73
     0
 74
     5
  7

 75
    16
147
1.0
148
0.0
149
0.0
100
AcDbLayout
  1
Layout2
 70
     1
 71
     2
 10
0.0
 20
0.0
 11
0.0
 21
0.0
 12
0.0
 22
0.0
 32
0.0
 14
0.0
 24
0.0
 34
0.0
 15
0.0
 25
0.0
 35
0.0
146
0.0
 13
0.0
 23
0.0
 33
0.0
 16
1.0
 26
0.0
 36
0.0
 17
0.0
 27
1.0
 37
0.0
 76
     0
330
23
  0
LAYOUT
  5
22
102
{ACAD_REACTORS
330
1A
102
}
330
1A
100
AcDbPlotSettings
  1

  2
none_device
  4
ANSI_A_(11.00_x_8.50_Inches)
  6

 40
6.35
 41
19.05
 42
6.35000508
 43
19.05000254
 44
279.4
 45
215.9
 46
110.2761026543242
 47
73.65139300018858
 48
0.0
 49
0.0
140
0.0
141
0.0
142
0.0651125492863581
143
1.0
 70
  1696
 72
     0
 73
     0
 74
     0
  7

 75
     0
147
0.0235690232323232
148
0.0
149
0.0
100
AcDbLayout
  1
Model
 70
     1
 71
     0
 10
0.0
 20
0.0
 11
420.0
 21
297.0
 12
0.0
 22
0.0
 32
0.0
 14
1.000000000000000E+20
 24
1.000000000000000E+20
 34
1.000000000000000E+20
 15
-1.000000000000000E+20
 25
-1.000000000000000E+20
 35
-1.000000000000000E+20
146
0.0
 13
0.0
 23
0.0
 33
0.0
 16
1.0
 26
0.0
 36
0.0
 17
0.0
 27
1.0
 37
0.0
 76
     0
330
1F
331
29
  0
MLINESTYLE
  5
18
102
{ACAD_REACTORS
330
17
102
}
330
17
100
AcDbMlineStyle
  2
Standard
 70
     0
  3

 62
   256
 51
90.0
 52
90.0
 71
     2
 49
0.5
 62
   256
  6
BYLAYER
 49
-0.5
 62
   256
  6
BYLAYER
  0
ACDBPLACEHOLDER
  5
F
102
{ACAD_REACTORS
330
E
102
}
330
E
  0
SCALE
  5
48
102
{ACAD_REACTORS
330
47
102
}
330
47
100
AcDbScale
 70
     0
300
1:1
140
1.0
141
1.0
290
     1
  0
SCALE
  5
49
102
{ACAD_REACTORS
330
47
102
}
330
47
100
AcDbScale
 70
     0
300
1:2
140
1.0
141
2.0
290
     0
  0
SCALE
  5
4A
102
{ACAD_REACTORS
330
47
102
}
330
47
100
AcDbScale
 70
     0
300
1:4
140
1.0
141
4.0
290
     0
  0
SCALE
  5
4B
102
{ACAD_REACTORS
330
47
102
}
330
47
100
AcDbScale
 70
     0
300
1:5
140
1.0
141
5.0
290
     0
  0
SCALE
  5
4C
102
{ACAD_REACTORS
330
47
102
}
330
47
100
AcDbScale
 70
     0
300
1:8
140
1.0
141
8.0
290
     0
  0
SCALE
  5
4D
102
{ACAD_REACTORS
330
47
102
}
330
47
100
AcDbScale
 70
     0
300
1:10
140
1.0
141
10.0
290
     0
  0
SCALE
  5
4E
102
{ACAD_REACTORS
330
47
102
}
330
47
100
AcDbScale
 70
     0
300
1:16
140
1.0
141
16.0
290
     0
  0
SCALE
  5
4F
102
{ACAD_REACTORS
330
47
102
}
330
47
100
AcDbScale
 70
     0
300
1:20
140
1.0
141
20.0
290
     0
  0
SCALE
  5
50
102
{ACAD_REACTORS
330
47
102
}
330
47
100
AcDbScale
 70
     0
300
1:30
140
1.0
141
30.0
290
     0
  0
SCALE
  5
51
102
{ACAD_REACTORS
330
47
102
}
330
47
100
AcDbScale
 70
     0
300
1:40
140
1.0
141
40.0
290
     0
  0
SCALE
  5
52
102
{ACAD_REACTORS
330
47
102
}
330
47
100
AcDbScale
 70
     0
300
1:50
140
1.0
141
50.0
290
     0
  0
SCALE
  5
53
102
{ACAD_REACTORS
330
47
102
}
330
47
100
AcDbScale
 70
     0
300
1:100
140
1.0
141
100.0
290
     0
  0
SCALE
  5
54
102
{ACAD_REACTORS
330
47
102
}
330
47
100
AcDbScale
 70
     0
300
2:1
140
2.0
141
1.0
290
     0
  0
SCALE
  5
55
102
{ACAD_REACTORS
330
47
102
}
330
47
100
AcDbScale
 70
     0
300
4:1
140
4.0
141
1.0
290
     0
  0
SCALE
  5
56
102
{ACAD_REACTORS
330
47
102
}
330
47
100
AcDbScale
 70
     0
300
8:1
140
8.0
141
1.0
290
     0
  0
SCALE
  5
57
102
{ACAD_REACTORS
330
47
102
}
330
47
100
AcDbScale
 70
     0
300
10:1
140
10.0
141
1.0
290
     0
  0
SCALE
  5
58
102
{ACAD_REACTORS
330
47
102
}
330
47
100
AcDbScale
 70
     0
300
100:1
140
100.0
141
1.0
290
     0
  0
SCALE
  5
59
102
{ACAD_REACTORS
330
47
102
}
330
47
100
AcDbScale
 70
     0
300
1/128" = 1'-0"
140
0.0078125
141
12.0
290
     0
  0
SCALE
  5
5A
102
{ACAD_REACTORS
330
47
102
}
330
47
100
AcDbScale
 70
     0
300
1/64" = 1'-0"
140
0.015625
141
12.0
290
     0
  0
SCALE
  5
5B
102
{ACAD_REACTORS
330
47
102
}
330
47
100
AcDbScale
 70
     0
300
1/32" = 1'-0"
140
0.03125
141
12.0
290
     0
  0
SCALE
  5
5C
102
{ACAD_REACTORS
330
47
102
}
330
47
100
AcDbScale
 70
     0
300
1/16" = 1'-0"
140
0.0625
141
12.0
290
     0
  0
SCALE
  5
5D
102
{ACAD_REACTORS
330
47
102
}
330
47
100
AcDbScale
 70
     0
300
3/32" = 1'-0"
140
0.09375
141
12.0
290
     0
  0
SCALE
  5
5E
102
{ACAD_REACTORS
330
47
102
}
330
47
100
AcDbScale
 70
     0
300
1/8" = 1'-0"
140
0.125
141
12.0
290
     0
  0
SCALE
  5
5F
102
{ACAD_REACTORS
330
47
102
}
330
47
100
AcDbScale
 70
     0
300
3/16" = 1'-0"
140
0.1875
141
12.0
290
     0
  0
SCALE
  5
60
102
{ACAD_REACTORS
330
47
102
}
330
47
100
AcDbScale
 70
     0
300
1/4" = 1'-0"
140
0.25
141
12.0
290
     0
  0
SCALE
  5
61
102
{ACAD_REACTORS
330
47
102
}
330
47
100
AcDbScale
 70
     0
300
3/8" = 1'-0"
140
0.375
141
12.0
290
     0
  0
SCALE
  5
62
102
{ACAD_REACTORS
330
47
102
}
330
47
100
AcDbScale
 70
     0
300
1/2" = 1'-0"
140
0.5
141
12.0
290
     0
  0
SCALE
  5
63
102
{ACAD_REACTORS
330
47
102
}
330
47
100
AcDbScale
 70
     0
300
3/4" = 1'-0"
140
0.75
141
12.0
290
     0
  0
SCALE
  5
64
102
{ACAD_REACTORS
330
47
102
}
330
47
100
AcDbScale
 70
     0
300
1" = 1'-0"
140
1.0
141
12.0
290
     0
  0
SCALE
  5
65
102
{ACAD_REACTORS
330
47
102
}
330
47
100
AcDbScale
 70
     0
300
1-1/2" = 1'-0"
140
1.5
141
12.0
290
     0
  0
SCALE
  5
66
102
{ACAD_REACTORS
330
47
102
}
330
47
100
AcDbScale
 70
     0
300
3" = 1'-0"
140
3.0
141
12.0
290
     0
  0
SCALE
  5
67
102
{ACAD_REACTORS
330
47
102
}
330
47
100
AcDbScale
 70
     0
300
6" = 1'-0"
140
6.0
141
12.0
290
     0
  0
SCALE
  5
68
102
{ACAD_REACTORS
330
47
102
}
330
47
100
AcDbScale
 70
     0
300
1'-0" = 1'-0"
140
12.0
141
12.0
290
     0
  0
ENDSEC
  0
EOF
