  0
SECTION
  2
HEADER
  9
$ACADVER
  1
AC1015
  9
$ACADMAINTVER
 70
     6
  9
$DWGCODEPAGE
  3
ANSI_949
  9
$INSBASE
 10
0.0
 20
0.0
 30
0.0
  9
$EXTMIN
 10
1.000000000000000E+20
 20
1.000000000000000E+20
 30
1.000000000000000E+20
  9
$EXTMAX
 10
-1.000000000000000E+20
 20
-1.000000000000000E+20
 30
-1.000000000000000E+20
  9
$LIMMIN
 10
0.0
 20
0.0
  9
$LIMMAX
 10
420.0
 20
297.0
  9
$ORTHOMODE
 70
     0
  9
$REGENMODE
 70
     1
  9
$FILLMODE
 70
     1
  9
$QTEXTMODE
 70
     0
  9
$MIRRTEXT
 70
     1
  9
$LTSCALE
 40
1.0
  9
$ATTMODE
 70
     1
  9
$TEXTSIZE
 40
3.5
  9
$TRACEWID
 40
1.0
  9
$TEXTSTYLE
  7
Standard
  9
$CLAYER
  8
0
  9
$CELTYPE
  6
ByLayer
  9
$CECOLOR
 62
   256
  9
$CELTSCALE
 40
1.0
  9
$DISPSILH
 70
     0
  9
$DIMSCALE
 40
1.0
  9
$DIMASZ
 40
3.302
  9
$DIMEXO
 40
1.0
  9
$DIMDLI
 40
3.75
  9
$DIMRND
 40
0.0
  9
$DIMDLE
 40
0.0
  9
$DIMEXE
 40
1.0
  9
$DIMTP
 40
0.0
  9
$DIMTM
 40
0.0
  9
$DIMTXT
 40
3.5
  9
$DIMCEN
 40
2.5
  9
$DIMTSZ
 40
0.0
  9
$DIMTOL
 70
     0
  9
$DIMLIM
 70
     0
  9
$DIMTIH
 70
     1
  9
$DIMTOH
 70
     1
  9
$DIMSE1
 70
     0
  9
$DIMSE2
 70
     0
  9
$DIMTAD
 70
     1
  9
$DIMZIN
 70
     0
  9
$DIMBLK
  1

  9
$DIMASO
 70
     1
  9
$DIMSHO
 70
     1
  9
$DIMPOST
  1

  9
$DIMAPOST
  1

  9
$DIMALT
 70
     0
  9
$DIMALTD
 70
     3
  9
$DIMALTF
 40
0.0393700787401575
  9
$DIMLFAC
 40
1.0
  9
$DIMTOFL
 70
     1
  9
$DIMTVP
 40
0.0
  9
$DIMTIX
 70
     0
  9
$DIMSOXD
 70
     0
  9
$DIMSAH
 70
     0
  9
$DIMBLK1
  1

  9
$DIMBLK2
  1

  9
$DIMSTYLE
  2
ISO-25
  9
$DIMCLRD
 70
     0
  9
$DIMCLRE
 70
     0
  9
$DIMCLRT
 70
     0
  9
$DIMTFAC
 40
1.0
  9
$DIMGAP
 40
1.524
  9
$DIMJUST
 70
     0
  9
$DIMSD1
 70
     0
  9
$DIMSD2
 70
     0
  9
$DIMTOLJ
 70
     0
  9
$DIMTZIN
 70
     0
  9
$DIMALTZ
 70
     0
  9
$DIMALTTZ
 70
     0
  9
$DIMUPT
 70
     0
  9
$DIMDEC
 70
     2
  9
$DIMTDEC
 70
     2
  9
$DIMALTU
 70
     2
  9
$DIMALTTD
 70
     3
  9
$DIMTXSTY
  7
Standard
  9
$DIMAUNIT
 70
     0
  9
$DIMADEC
 70
     2
  9
$DIMALTRND
 40
0.0
  9
$DIMAZIN
 70
     0
  9
$DIMDSEP
 70
    44
  9
$DIMATFIT
 70
     3
  9
$DIMFRAC
 70
     0
  9
$DIMLDRBLK
  1

  9
$DIMLUNIT
 70
     2
  9
$DIMLWD
 70
    -2
  9
$DIMLWE
 70
    -2
  9
$DIMTMOVE
 70
     0
  9
$LUNITS
 70
     2
  9
$LUPREC
 70
     2
  9
$SKETCHINC
 40
1.0
  9
$FILLETRAD
 40
10.0
  9
$AUNITS
 70
     0
  9
$AUPREC
 70
     2
  9
$MENU
  1
.
  9
$ELEVATION
 40
0.0
  9
$PELEVATION
 40
0.0
  9
$THICKNESS
 40
0.0
  9
$LIMCHECK
 70
     0
  9
$CHAMFERA
 40
0.0
  9
$CHAMFERB
 40
0.0
  9
$CHAMFERC
 40
0.0
  9
$CHAMFERD
 40
0.0
  9
$SKPOLY
 70
     0
  9
$TDCREATE
 40
2458292.644787373
  9
$TDUCREATE
 40
2458292.269787373
  9
$TDUPDATE
 40
2458302.428979468
  9
$TDUUPDATE
 40
2458302.053979468
  9
$TDINDWG
 40
0.001029213
  9
$TDUSRTIMER
 40
2458302.053543947
  9
$USRTIMER
 70
     1
  9
$ANGBASE
 50
0.0
  9
$ANGDIR
 70
     0
  9
$PDMODE
 70
     0
  9
$PDSIZE
 40
-1.0
  9
$PLINEWID
 40
0.0
  9
$SPLFRAME
 70
     0
  9
$SPLINETYPE
 70
     6
  9
$SPLINESEGS
 70
     8
  9
$HANDSEED
  5
1C6
  9
$SURFTAB1
 70
     6
  9
$SURFTAB2
 70
     6
  9
$SURFTYPE
 70
     6
  9
$SURFU
 70
     6
  9
$SURFV
 70
     6
  9
$UCSBASE
  2

  9
$UCSNAME
  2

  9
$UCSORG
 10
0.0
 20
0.0
 30
0.0
  9
$UCSXDIR
 10
1.0
 20
0.0
 30
0.0
  9
$UCSYDIR
 10
0.0
 20
1.0
 30
0.0
  9
$UCSORTHOREF
  2

  9
$UCSORTHOVIEW
 70
     0
  9
$UCSORGTOP
 10
0.0
 20
0.0
 30
0.0
  9
$UCSORGBOTTOM
 10
0.0
 20
0.0
 30
0.0
  9
$UCSORGLEFT
 10
0.0
 20
0.0
 30
0.0
  9
$UCSORGRIGHT
 10
0.0
 20
0.0
 30
0.0
  9
$UCSORGFRONT
 10
0.0
 20
0.0
 30
0.0
  9
$UCSORGBACK
 10
0.0
 20
0.0
 30
0.0
  9
$PUCSBASE
  2

  9
$PUCSNAME
  2

  9
$PUCSORG
 10
0.0
 20
0.0
 30
0.0
  9
$PUCSXDIR
 10
1.0
 20
0.0
 30
0.0
  9
$PUCSYDIR
 10
0.0
 20
1.0
 30
0.0
  9
$PUCSORTHOREF
  2

  9
$PUCSORTHOVIEW
 70
     0
  9
$PUCSORGTOP
 10
0.0
 20
0.0
 30
0.0
  9
$PUCSORGBOTTOM
 10
0.0
 20
0.0
 30
0.0
  9
$PUCSORGLEFT
 10
0.0
 20
0.0
 30
0.0
  9
$PUCSORGRIGHT
 10
0.0
 20
0.0
 30
0.0
  9
$PUCSORGFRONT
 10
0.0
 20
0.0
 30
0.0
  9
$PUCSORGBACK
 10
0.0
 20
0.0
 30
0.0
  9
$USERI1
 70
     0
  9
$USERI2
 70
     0
  9
$USERI3
 70
     0
  9
$USERI4
 70
     0
  9
$USERI5
 70
     0
  9
$USERR1
 40
0.0
  9
$USERR2
 40
0.0
  9
$USERR3
 40
0.0
  9
$USERR4
 40
0.0
  9
$USERR5
 40
0.0
  9
$WORLDVIEW
 70
     1
  9
$SHADEDGE
 70
     3
  9
$SHADEDIF
 70
    70
  9
$TILEMODE
 70
     1
  9
$MAXACTVP
 70
    64
  9
$PINSBASE
 10
0.0
 20
0.0
 30
0.0
  9
$PLIMCHECK
 70
     0
  9
$PEXTMIN
 10
1.000000000000000E+20
 20
1.000000000000000E+20
 30
1.000000000000000E+20
  9
$PEXTMAX
 10
-1.000000000000000E+20
 20
-1.000000000000000E+20
 30
-1.000000000000000E+20
  9
$PLIMMIN
 10
0.0
 20
0.0
  9
$PLIMMAX
 10
0.0
 20
0.0
  9
$UNITMODE
 70
     0
  9
$VISRETAIN
 70
     1
  9
$PLINEGEN
 70
     0
  9
$PSLTSCALE
 70
     1
  9
$TREEDEPTH
 70
  3020
  9
$CMLSTYLE
  2
Standard
  9
$CMLJUST
 70
     0
  9
$CMLSCALE
 40
20.0
  9
$PROXYGRAPHICS
 70
     1
  9
$MEASUREMENT
 70
     1
  9
$CELWEIGHT
370
    -1
  9
$ENDCAPS
280
     0
  9
$JOINSTYLE
280
     0
  9
$LWDISPLAY
290
     1
  9
$INSUNITS
 70
     4
  9
$HYPERLINKBASE
  1

  9
$STYLESHEET
  1

  9
$XEDIT
290
     1
  9
$CEPSNTYPE
380
     0
  9
$PSTYLEMODE
290
     1
  9
$FINGERPRINTGUID
  2
{9BA560FD-C953-432C-82D8-6FEF8BFBBC45}
  9
$VERSIONGUID
  2
{FAEB1C32-E019-11D5-929B-00C0DF256EC4}
  9
$EXTNAMES
290
     1
  9
$PSVPSCALE
 40
0.0
  9
$OLESTARTUP
290
     0
  0
ENDSEC
  0
SECTION
  2
CLASSES
  0
CLASS
  1
ACDBDICTIONARYWDFLT
  2
AcDbDictionaryWithDefault
  3
ObjectDBX Classes
 90
        0
280
     0
281
     0
  0
CLASS
  1
VISUALSTYLE
  2
AcDbVisualStyle
  3
ObjectDBX Classes
 90
     4095
280
     0
281
     0
  0
CLASS
  1
MATERIAL
  2
AcDbMaterial
  3
ObjectDBX Classes
 90
     1153
280
     0
281
     0
  0
CLASS
  1
SCALE
  2
AcDbScale
  3
ObjectDBX Classes
 90
     1153
280
     0
281
     0
  0
CLASS
  1
SUN
  2
AcDbSun
  3
SCENEOE
 90
     1153
280
     0
281
     0
  0
CLASS
  1
ACDBPLACEHOLDER
  2
AcDbPlaceHolder
  3
ObjectDBX Classes
 90
        0
280
     0
281
     0
  0
CLASS
  1
LAYOUT
  2
AcDbLayout
  3
ObjectDBX Classes
 90
        0
280
     0
281
     0
  0
CLASS
  1
TABLESTYLE
  2
AcDbTableStyle
  3
ObjectDBX Classes
 90
     4095
280
     0
281
     0
  0
CLASS
  1
MLEADERSTYLE
  2
AcDbMLeaderStyle
  3
ACDB_MLEADERSTYLE_CLASS
 90
     4095
280
     0
281
     0
  0
CLASS
  1
RASTERVARIABLES
  2
AcDbRasterVariables
  3
ISM
 90
        0
280
     0
281
     0
  0
ENDSEC
  0
SECTION
  2
TABLES
  0
TABLE
  2
VPORT
  5
8
330
0
100
AcDbSymbolTable
 70
     1
  0
VPORT
  5
29
330
8
100
AcDbSymbolTableRecord
100
AcDbViewportTableRecord
  2
*Active
 70
     0
 10
0.0
 20
0.0
 11
1.0
 21
1.0
 12
-50.03197365910923
 22
-3.250027959901125
 13
0.0
 23
0.0
 14
10.0
 24
10.0
 15
10.0
 25
10.0
 16
0.0
 26
0.0
 36
1.0
 17
0.0
 27
0.0
 37
0.0
 40
124.6991949040527
 41
1.540540540540541
 42
50.0
 43
0.0
 44
0.0
 50
0.0
 51
0.0
 71
    16
 72
  2000
 73
     1
 74
     3
 75
     0
 76
     0
 77
     0
 78
     0
281
     0
 65
     1
110
0.0
120
0.0
130
0.0
111
1.0
121
0.0
131
0.0
112
0.0
122
1.0
132
0.0
 79
     0
146
0.0
  0
ENDTAB
  0
TABLE
  2
LTYPE
  5
5
330
0
100
AcDbSymbolTable
 70
     6
  0
LTYPE
  5
14
330
5
100
AcDbSymbolTableRecord
100
AcDbLinetypeTableRecord
  2
ByBlock
 70
     0
  3

 72
    65
 73
     0
 40
0.0
  0
LTYPE
  5
15
330
5
100
AcDbSymbolTableRecord
100
AcDbLinetypeTableRecord
  2
ByLayer
 70
     0
  3

 72
    65
 73
     0
 40
0.0
  0
LTYPE
  5
16
330
5
100
AcDbSymbolTableRecord
100
AcDbLinetypeTableRecord
  2
Continuous
 70
     0
  3
Solid line
 72
    65
 73
     0
 40
0.0
  0
LTYPE
  5
6A
330
5
100
AcDbSymbolTableRecord
100
AcDbLinetypeTableRecord
  2
HIDDEN
 70
     0
  3
Hidden __ __ __ __ __ __ __ __ __ __ __ __ __ __
 72
    65
 73
     2
 40
1.905
 49
1.27
 74
     0
 49
-0.635
 74
     0
  0
LTYPE
  5
6B
330
5
100
AcDbSymbolTableRecord
100
AcDbLinetypeTableRecord
  2
PHANTOM
 70
     0
  3
Phantom ______  __  __  ______  __  __  ______
 72
    65
 73
     6
 40
12.7
 49
6.35
 74
     0
 49
-1.27
 74
     0
 49
1.27
 74
     0
 49
-1.27
 74
     0
 49
1.27
 74
     0
 49
-1.27
 74
     0
  0
LTYPE
  5
6C
330
5
100
AcDbSymbolTableRecord
100
AcDbLinetypeTableRecord
  2
CENTER
 70
     0
  3
Center ____ _ ____ _ ____ _ ____ _ ____ _ ____
 72
    65
 73
     4
 40
10.16
 49
6.35
 74
     0
 49
-1.27
 74
     0
 49
1.27
 74
     0
 49
-1.27
 74
     0
  0
LTYPE
  5
6D
330
5
100
AcDbSymbolTableRecord
100
AcDbLinetypeTableRecord
  2
CENTERX2
 70
     0
  3
Center (2x) ________  __  ________  __  _____
 72
    65
 73
     4
 40
20.32
 49
12.7
 74
     0
 49
-2.54
 74
     0
 49
2.54
 74
     0
 49
-2.54
 74
     0
  0
LTYPE
  5
6E
330
5
100
AcDbSymbolTableRecord
100
AcDbLinetypeTableRecord
  2
DOT2
 70
     0
  3
Dot (.5x) ........................................
 72
    65
 73
     2
 40
0.635
 49
0.0
 74
     0
 49
-0.635
 74
     0
  0
ENDTAB
  0
TABLE
  2
LAYER
  5
2
102
{ACAD_XDICTIONARY
360
1AD
102
}
330
0
100
AcDbSymbolTable
 70
    18
  0
LAYER
  5
10
330
2
100
AcDbSymbolTableRecord
100
AcDbLayerTableRecord
  2
0
 70
     0
 62
     7
  6
Continuous
370
    -3
390
F
  0
LAYER
  5
6F
330
2
100
AcDbSymbolTableRecord
100
AcDbLayerTableRecord
  2
FORMAT
 70
     0
 62
     2
  6
Continuous
370
    -3
390
F
  0
LAYER
  5
70
330
2
100
AcDbSymbolTableRecord
100
AcDbLayerTableRecord
  2
외형선
 70
     0
 62
     4
  6
Continuous
370
    30
390
F
  0
LAYER
  5
71
330
2
100
AcDbSymbolTableRecord
100
AcDbLayerTableRecord
  2
숨은선
 70
     0
 62
     2
  6
HIDDEN
370
    15
390
F
  0
LAYER
  5
72
330
2
100
AcDbSymbolTableRecord
100
AcDbLayerTableRecord
  2
중심선
 70
     0
 62
     1
  6
CENTERX2
370
    -3
390
F
  0
LAYER
  5
73
330
2
100
AcDbSymbolTableRecord
100
AcDbLayerTableRecord
  2
파단선
 70
     0
 62
     4
  6
Continuous
370
    -3
390
F
  0
LAYER
  5
74
330
2
100
AcDbSymbolTableRecord
100
AcDbLayerTableRecord
  2
해칭선
 70
     0
 62
   100
  6
Continuous
370
    -3
390
F
  0
LAYER
  5
75
330
2
100
AcDbSymbolTableRecord
100
AcDbLayerTableRecord
  2
가는실선
 70
     0
 62
     4
  6
Continuous
370
    -3
390
F
  0
LAYER
  5
76
330
2
100
AcDbSymbolTableRecord
100
AcDbLayerTableRecord
  2
치수_보조선
 70
     0
 62
     4
  6
Continuous
370
    -3
390
F
  0
LAYER
  5
77
330
2
100
AcDbSymbolTableRecord
100
AcDbLayerTableRecord
  2
치수문자_일반주서
 70
     0
 62
     7
  6
Continuous
370
    15
390
F
  0
LAYER
  5
78
330
2
100
AcDbSymbolTableRecord
100
AcDbLayerTableRecord
  2
개별주서
 70
     0
 62
   100
  6
Continuous
370
    30
390
F
  0
LAYER
  5
79
330
2
100
AcDbSymbolTableRecord
100
AcDbLayerTableRecord
  2
중간선
 70
     0
 62
     2
  6
Continuous
370
    15
390
F
  0
LAYER
  5
7A
330
2
100
AcDbSymbolTableRecord
100
AcDbLayerTableRecord
  2
윤곽선
 70
     0
 62
     3
  6
Continuous
370
    40
390
F
  0
LAYER
  5
7B
330
2
100
AcDbSymbolTableRecord
100
AcDbLayerTableRecord
  2
중심마크
 70
     0
 62
   100
  6
Continuous
370
    30
390
F
  0
LAYER
  5
7C
330
2
100
AcDbSymbolTableRecord
100
AcDbLayerTableRecord
  2
가상선
 70
     0
 62
     4
  6
PHANTOM
370
    -3
390
F
  0
LAYER
  5
7D
330
2
100
AcDbSymbolTableRecord
100
AcDbLayerTableRecord
  2
특수지정선
 70
     0
 62
     5
  6
CENTERX2
370
    60
390
F
  0
LAYER
  5
7E
330
2
100
AcDbSymbolTableRecord
100
AcDbLayerTableRecord
  2
참조1
 70
     0
 62
    -4
  6
Continuous
370
    -3
390
F
  0
LAYER
  5
15A
330
2
100
AcDbSymbolTableRecord
100
AcDbLayerTableRecord
  2
Defpoints
 70
     0
 62
     7
  6
Continuous
290
     0
370
    -3
390
F
  0
ENDTAB
  0
TABLE
  2
STYLE
  5
3
330
0
100
AcDbSymbolTable
 70
     2
  0
STYLE
  5
11
330
3
100
AcDbSymbolTableRecord
100
AcDbTextStyleTableRecord
  2
Standard
 70
     0
 40
0.0
 41
1.0
 50
0.0
 71
     0
 42
3.5
  3
txt
  4

  0
STYLE
  5
94
330
3
100
AcDbSymbolTableRecord
100
AcDbTextStyleTableRecord
  2
SLDTEXTSTYLE0
 70
     0
 40
0.0
 41
0.75
 50
0.0
 71
     0
 42
3.5
  3
TXT
  4

  0
ENDTAB
  0
TABLE
  2
VIEW
  5
6
330
0
100
AcDbSymbolTable
 70
     0
  0
ENDTAB
  0
TABLE
  2
UCS
  5
7
330
0
100
AcDbSymbolTable
 70
     0
  0
ENDTAB
  0
TABLE
  2
APPID
  5
9
330
0
100
AcDbSymbolTable
 70
     2
  0
APPID
  5
12
330
9
100
AcDbSymbolTableRecord
100
AcDbRegAppTableRecord
  2
ACAD
 70
     0
  0
APPID
  5
15B
330
9
100
AcDbSymbolTableRecord
100
AcDbRegAppTableRecord
  2
PE_URL
 70
     0
  0
ENDTAB
  0
TABLE
  2
DIMSTYLE
  5
A
330
0
100
AcDbSymbolTable
 70
     3
100
AcDbDimStyleTable
  0
DIMSTYLE
105
27
330
A
100
AcDbSymbolTableRecord
100
AcDbDimStyleTableRecord
  2
ISO-25
 70
     0
 41
2.5
 42
0.625
 43
3.75
 44
1.25
 73
     0
 74
     0
 77
     1
 78
     8
140
2.5
141
2.5
143
0.03937007874016
147
0.625
171
     3
172
     1
178
     0
271
     2
272
     2
274
     3
278
    44
283
     0
284
     8
340
11
  0
DIMSTYLE
105
DB
102
{ACAD_REACTORS
330
DA
330
EF
330
103
330
117
102
}
330
A
100
AcDbSymbolTableRecord
100
AcDbDimStyleTableRecord
  2
SLDDIMSTYLE0
 70
     0
 41
3.302
 44
0.0
 45
0.000000001
 73
     0
 74
     0
 77
     1
 78
     4
 79
     1
140
3.5
143
0.0393700787401575
147
0.875
148
0.000000001
170
     1
172
     1
173
     1
178
     0
271
     2
272
     2
276
     2
284
    12
289
     0
340
94
  0
DIMSTYLE
105
104
330
A
100
AcDbSymbolTableRecord
100
AcDbDimStyleTableRecord
  2
SLDDIMSTYLE1
 70
     0
 41
3.302
 44
0.0
 45
0.000000001
 73
     0
 74
     0
 77
     1
 78
     4
 79
     1
140
3.5
143
0.0393700787401575
147
0.875
148
0.000000001
170
     1
173
     1
178
     0
271
     2
272
     2
276
     2
284
    12
340
94
  0
ENDTAB
  0
TABLE
  2
BLOCK_RECORD
  5
1
330
0
100
AcDbSymbolTable
 70
     8
  0
BLOCK_RECORD
  5
1F
330
1
100
AcDbSymbolTableRecord
100
AcDbBlockTableRecord
  2
*Model_Space
340
22
  0
BLOCK_RECORD
  5
1B
330
1
100
AcDbSymbolTableRecord
100
AcDbBlockTableRecord
  2
*Paper_Space
340
1E
  0
BLOCK_RECORD
  5
23
330
1
100
AcDbSymbolTableRecord
100
AcDbBlockTableRecord
  2
*Paper_Space0
340
26
  0
BLOCK_RECORD
  5
7F
330
1
100
AcDbSymbolTableRecord
100
AcDbBlockTableRecord
  2
블럭10
340
0
102
{BLKREFS
331
D3
102
}
  0
BLOCK_RECORD
  5
DC
330
1
100
AcDbSymbolTableRecord
100
AcDbBlockTableRecord
  2
_D
340
0
  0
BLOCK_RECORD
  5
F0
330
1
100
AcDbSymbolTableRecord
100
AcDbBlockTableRecord
  2
_D_1
340
0
  0
BLOCK_RECORD
  5
105
330
1
100
AcDbSymbolTableRecord
100
AcDbBlockTableRecord
  2
_D_2
340
0
  0
BLOCK_RECORD
  5
118
330
1
100
AcDbSymbolTableRecord
100
AcDbBlockTableRecord
  2
_D_3
340
0
  0
BLOCK_RECORD
  5
131
330
1
100
AcDbSymbolTableRecord
100
AcDbBlockTableRecord
  2
SW_DOWELSYMBOL_0
340
0
102
{BLKREFS
331
137
102
}
  0
ENDTAB
  0
ENDSEC
  0
SECTION
  2
BLOCKS
  0
BLOCK
  5
20
330
1F
100
AcDbEntity
  8
0
100
AcDbBlockBegin
  2
*Model_Space
 70
     0
 10
0.0
 20
0.0
 30
0.0
  3
*Model_Space
  1
*Model_Space
  0
ENDBLK
  5
21
330
1F
100
AcDbEntity
  8
0
100
AcDbBlockEnd
  0
BLOCK
  5
1C
330
1B
100
AcDbEntity
 67
     1
  8
0
100
AcDbBlockBegin
  2
*Paper_Space
 70
     0
 10
0.0
 20
0.0
 30
0.0
  3
*Paper_Space
  1
*Paper_Space
  0
ENDBLK
  5
1D
330
1B
100
AcDbEntity
 67
     1
  8
0
100
AcDbBlockEnd
  0
BLOCK
  5
24
330
23
100
AcDbEntity
  8
0
100
AcDbBlockBegin
  2
*Paper_Space0
 70
     0
 10
0.0
 20
0.0
 30
0.0
  3
*Paper_Space0
  1
*Paper_Space0
  0
ENDBLK
  5
25
330
23
100
AcDbEntity
  8
0
100
AcDbBlockEnd
  0
BLOCK
  5
80
330
7F
100
AcDbEntity
  8
0
100
AcDbBlockBegin
  2
블럭10
 70
     2
 10
0.0
 20
0.0
 30
0.0
  3
블럭10
  1
블럭10
  0
ELLIPSE
  5
82
330
7F
100
AcDbEntity
  8
중심선
100
AcDbEllipse
 10
20.54032771741204
 20
12.0471743016438
 30
0.0
 11
6.600054785286829
 21
-1.261213355974178E-13
 31
0.0
210
0.0
220
0.0
230
1.0
 40
0.636358354079598
 41
0.9219305317359503
 42
6.513795318482858
  0
ELLIPSE
  5
83
330
7F
100
AcDbEntity
  8
중심선
100
AcDbEllipse
 10
20.54032771746488
 20
12.04717430159265
 30
0.0
 11
3.960054785062283
 21
1.540847449632565E-10
 31
0.0
210
0.0
220
0.0
230
1.0
 40
0.3939339440162632
 41
1.131841032648279
 42
5.62031148352944
  0
LINE
  5
84
330
7F
100
AcDbEntity
  8
중심선
100
AcDbLine
 10
2.268634060543552
 20
16.24717430164393
 30
0.0
 11
5.714909304380834
 21
16.24717430164393
 31
0.0
  0
LINE
  5
85
330
7F
100
AcDbEntity
  8
중심선
100
AcDbLine
 10
5.245725140726316
 20
7.84717430164391
 30
0.0
 11
8.692000384563599
 21
7.84717430164391
 31
0.0
  0
LINE
  5
86
330
7F
100
AcDbEntity
  8
중심선
100
AcDbLine
 10
15.74043728645272
 20
16.24717430164393
 30
0.0
 11
8.692000384563599
 21
7.84717430164391
 31
0.0
  0
LINE
  5
87
330
7F
100
AcDbEntity
  8
중심선
100
AcDbLine
 10
0.1404042013395286
 20
13.71084872107135
 30
0.0
 11
3.58671253028996
 21
13.71088815037384
 31
0.0
  0
LINE
  5
88
330
7F
100
AcDbEntity
  8
중심선
100
AcDbLine
 10
2.750260043222114
 20
10.84717430164391
 30
0.0
 11
6.196535287059397
 21
10.84717430164391
 31
0.0
  0
LINE
  5
89
330
7F
100
AcDbEntity
  8
중심선
100
AcDbLine
 10
12.29416204261559
 20
16.24717430164393
 30
0.0
 11
5.245725140726316
 21
7.84717430164391
 31
0.0
  0
LINE
  5
8A
330
7F
100
AcDbEntity
  8
중심선
100
AcDbLine
 10
10.72767329541681
 20
16.24717430164393
 30
0.0
 11
6.196535287059397
 21
10.84717430164391
 31
0.0
  0
LINE
  5
8B
330
7F
100
AcDbEntity
  8
중심선
100
AcDbLine
 10
7.28139805157953
 20
16.24717430164393
 30
0.0
 11
2.750260043222114
 21
10.84717430164391
 31
0.0
  0
LINE
  5
8C
330
7F
100
AcDbEntity
  8
중심선
100
AcDbLine
 10
5.714909304380834
 20
16.24717430164393
 30
0.0
 11
3.58671253028996
 21
13.71088815037384
 31
0.0
  0
LINE
  5
8D
330
7F
100
AcDbEntity
  8
중심선
100
AcDbLine
 10
2.268634060543552
 20
16.24717430164393
 30
0.0
 11
0.1404042013395286
 21
13.71084872107135
 31
0.0
  0
LINE
  5
8E
330
7F
100
AcDbEntity
  8
중심선
100
AcDbLine
 10
7.28139805157953
 20
16.24717430164393
 30
0.0
 11
10.72767329541681
 21
16.24717430164393
 31
0.0
  0
LINE
  5
8F
330
7F
100
AcDbEntity
  8
중심선
100
AcDbLine
 10
12.29416204261559
 20
16.24717430164393
 30
0.0
 11
15.74043728645272
 21
16.24717430164393
 31
0.0
  0
LINE
  5
90
330
7F
100
AcDbEntity
  8
중심선
100
AcDbLine
 10
19.22036997980202
 20
11.08717430171403
 30
0.0
 11
23.66174974927406
 21
11.08717430171406
 31
0.0
  0
LINE
  5
91
330
7F
100
AcDbEntity
  8
중심선
100
AcDbLine
 10
19.22039502424796
 20
13.00717430171391
 30
0.0
 11
19.22036997980202
 21
11.08717430171403
 31
0.0
  0
LINE
  5
92
330
7F
100
AcDbEntity
  8
중심선
100
AcDbLine
 10
19.22039502424796
 20
13.00717430171391
 30
0.0
 11
26.96566020931264
 21
13.00717430171391
 31
0.0
  0
LINE
  5
93
330
7F
100
AcDbEntity
  8
중심선
100
AcDbLine
 10
22.22332737316547
 20
13.45928029700563
 30
0.0
 11
24.52862924686651
 21
15.39360700705356
 31
0.0
  0
ATTDEF
  5
95
330
7F
100
AcDbEntity
  8
FORMAT
 62
     2
100
AcDbText
 10
4.522160859763931
 20
2.075366912832191
 30
0.0
 40
4.233333333333333
  1
EE882064
 41
0.75
  7
SLDTEXTSTYLE0
 11
4.522160859763931
 21
-0.0412997538344756
 31
0.0
100
AcDbAttributeDefinition
  3

  2
AUTOATTR0
 70
     0
 74
     1
  0
ENDBLK
  5
81
330
7F
100
AcDbEntity
  8
0
100
AcDbBlockEnd
  0
BLOCK
  5
DD
330
DC
100
AcDbEntity
  8
0
100
AcDbBlockBegin
  2
_D
 70
     0
 10
0.0
 20
0.0
 30
0.0
  3
_D
  1
_D
  0
LINE
  5
DF
330
DC
100
AcDbEntity
  8
치수문자_일반주서
 62
     0
370
    -2
100
AcDbLine
 10
60.8625
 20
12.70107492872391
 30
0.0
 11
73.5353109799629
 21
12.70107492872395
 31
0.0
  0
LINE
  5
E0
330
DC
100
AcDbEntity
  8
치수문자_일반주서
 62
     0
370
    -2
100
AcDbLine
 10
60.8625
 20
-12.6989250712761
 30
0.0
 11
73.53531097996299
 21
-12.69892507127606
 31
0.0
  0
LINE
  5
E1
330
DC
100
AcDbEntity
  8
치수문자_일반주서
 62
     0
370
    -2
100
AcDbLine
 10
73.53531097996292
 20
9.399074928723953
 30
0.0
 11
73.53531097996297
 21
-9.39692507127606
 31
0.0
  0
SOLID
  5
E2
330
DC
100
AcDbEntity
  8
치수문자_일반주서
 62
     0
100
AcDbTrace
 10
74.08564431329624
 20
9.399074928723955
 30
0.0
 11
72.98497764662959
 21
9.399074928723952
 31
0.0
 12
73.5353109799629
 22
12.70107492872395
 32
0.0
 13
73.5353109799629
 23
12.70107492872395
 33
0.0
  0
SOLID
  5
E3
330
DC
100
AcDbEntity
  8
치수문자_일반주서
 62
     0
100
AcDbTrace
 10
72.98497764662964
 20
-9.396925071276062
 30
0.0
 11
74.0856443132963
 21
-9.396925071276058
 31
0.0
 12
73.53531097996299
 22
-12.69892507127606
 32
0.0
 13
73.53531097996299
 23
-12.69892507127606
 33
0.0
  0
MTEXT
  5
E4
330
DC
100
AcDbEntity
  8
치수문자_일반주서
 62
     0
100
AcDbMText
 10
69.16031097996294
 20
0.0010749287238815
 30
0.0
 40
3.5
 41
0.0
 71
     2
 72
     1
  1
\A1;%%c25.40 [1]
  7
SLDTEXTSTYLE0
 11
-3.356894814614645E-15
 21
1.0
 31
0.0
 73
     1
 44
1.0
  0
POINT
  5
E5
330
DC
100
AcDbEntity
  8
Defpoints
 62
     0
100
AcDbPoint
 10
60.8
 20
12.70107492872391
 30
0.0
  0
POINT
  5
E6
330
DC
100
AcDbEntity
  8
Defpoints
 62
     0
100
AcDbPoint
 10
60.8
 20
-12.6989250712761
 30
0.0
  0
POINT
  5
E7
330
DC
100
AcDbEntity
  8
Defpoints
 62
     0
100
AcDbPoint
 10
73.53531097996299
 20
-12.69892507127606
 30
0.0
  0
ENDBLK
  5
DE
330
DC
100
AcDbEntity
  8
0
100
AcDbBlockEnd
  0
BLOCK
  5
F1
330
F0
100
AcDbEntity
  8
0
100
AcDbBlockBegin
  2
_D_1
 70
     0
 10
0.0
 20
0.0
 30
0.0
  3
_D_1
  1
_D_1
  0
LINE
  5
F3
330
F0
100
AcDbEntity
  8
치수문자_일반주서
 62
     0
370
    -2
100
AcDbLine
 10
-51.02250000000003
 20
12.70107492872389
 30
0.0
 11
-65.8650000000001
 21
12.70107492872384
 31
0.0
  0
LINE
  5
F4
330
F0
100
AcDbEntity
  8
치수문자_일반주서
 62
     0
370
    -2
100
AcDbLine
 10
-51.02250000000003
 20
-12.69892507127609
 30
0.0
 11
-65.86500000000001
 21
-12.69892507127614
 31
0.0
  0
LINE
  5
F5
330
F0
100
AcDbEntity
  8
치수문자_일반주서
 62
     0
370
    -2
100
AcDbLine
 10
-65.86500000000008
 20
9.399074928723836
 30
0.0
 11
-65.86500000000002
 21
-9.396925071276142
 31
0.0
  0
SOLID
  5
F6
330
F0
100
AcDbEntity
  8
치수문자_일반주서
 62
     0
100
AcDbTrace
 10
-65.31466666666675
 20
9.399074928723838
 30
0.0
 11
-66.41533333333341
 21
9.399074928723834
 31
0.0
 12
-65.8650000000001
 22
12.70107492872384
 32
0.0
 13
-65.8650000000001
 23
12.70107492872384
 33
0.0
  0
SOLID
  5
F7
330
F0
100
AcDbEntity
  8
치수문자_일반주서
 62
     0
100
AcDbTrace
 10
-66.41533333333335
 20
-9.396925071276144
 30
0.0
 11
-65.3146666666667
 21
-9.39692507127614
 31
0.0
 12
-65.86500000000001
 22
-12.69892507127614
 32
0.0
 13
-65.86500000000001
 23
-12.69892507127614
 33
0.0
  0
MTEXT
  5
F8
330
F0
100
AcDbEntity
  8
치수문자_일반주서
 62
     0
100
AcDbMText
 10
-70.24000000000005
 20
0.0010749287238725
 30
0.0
 40
3.5
 41
0.0
 71
     2
 72
     1
  1
\A1;%%c25.40 [1]
  7
SLDTEXTSTYLE0
 11
-3.356894814614650E-15
 21
1.0
 31
0.0
 73
     1
 44
1.0
  0
POINT
  5
F9
330
F0
100
AcDbEntity
  8
Defpoints
 62
     0
100
AcDbPoint
 10
-50.96000000000003
 20
12.70107492872389
 30
0.0
  0
POINT
  5
FA
330
F0
100
AcDbEntity
  8
Defpoints
 62
     0
100
AcDbPoint
 10
-50.96000000000003
 20
-12.69892507127609
 30
0.0
  0
POINT
  5
FB
330
F0
100
AcDbEntity
  8
Defpoints
 62
     0
100
AcDbPoint
 10
-65.86500000000001
 20
-12.69892507127614
 30
0.0
  0
ENDBLK
  5
F2
330
F0
100
AcDbEntity
  8
0
100
AcDbBlockEnd
  0
BLOCK
  5
106
330
105
100
AcDbEntity
  8
0
100
AcDbBlockBegin
  2
_D_2
 70
     0
 10
0.0
 20
0.0
 30
0.0
  3
_D_2
  1
_D_2
  0
LINE
  5
108
330
105
100
AcDbEntity
  8
치수문자_일반주서
 62
     0
370
    -2
100
AcDbLine
 10
60.8
 20
12.670897325209
 30
0.0
 11
60.8
 21
43.21001978839926
 31
0.0
  0
LINE
  5
109
330
105
100
AcDbEntity
  8
치수문자_일반주서
 62
     0
370
    -2
100
AcDbLine
 10
10.0
 20
12.73433633864846
 30
0.0
 11
10.0
 21
43.21001978839926
 31
0.0
  0
LINE
  5
10A
330
105
100
AcDbEntity
  8
치수문자_일반주서
 62
     0
370
    -2
100
AcDbLine
 10
57.498
 20
43.21001978839926
 30
0.0
 11
13.302
 21
43.21001978839926
 31
0.0
  0
SOLID
  5
10B
330
105
100
AcDbEntity
  8
치수문자_일반주서
 62
     0
100
AcDbTrace
 10
57.498
 20
42.65968645506592
 30
0.0
 11
57.498
 21
43.76035312173259
 31
0.0
 12
60.8
 22
43.21001978839926
 32
0.0
 13
60.8
 23
43.21001978839926
 33
0.0
  0
SOLID
  5
10C
330
105
100
AcDbEntity
  8
치수문자_일반주서
 62
     0
100
AcDbTrace
 10
13.302
 20
43.76035312173259
 30
0.0
 11
13.302
 21
42.65968645506592
 31
0.0
 12
10.0
 22
43.21001978839926
 32
0.0
 13
10.0
 23
43.21001978839926
 33
0.0
  0
MTEXT
  5
10D
330
105
100
AcDbEntity
  8
치수문자_일반주서
 62
     0
100
AcDbMText
 10
35.39999999999999
 20
47.58501978839926
 30
0.0
 40
3.5
 41
0.0
 71
     2
 72
     1
  1
\A1;50.80 [2]
  7
SLDTEXTSTYLE0
 73
     1
 44
1.0
  0
POINT
  5
10E
330
105
100
AcDbEntity
  8
Defpoints
 62
     0
100
AcDbPoint
 10
60.8
 20
12.608397325209
 30
0.0
  0
POINT
  5
10F
330
105
100
AcDbEntity
  8
Defpoints
 62
     0
100
AcDbPoint
 10
10.0
 20
12.67183633864846
 30
0.0
  0
POINT
  5
110
330
105
100
AcDbEntity
  8
Defpoints
 62
     0
100
AcDbPoint
 10
10.0
 20
43.21001978839926
 30
0.0
  0
ENDBLK
  5
107
330
105
100
AcDbEntity
  8
0
100
AcDbBlockEnd
  0
BLOCK
  5
119
330
118
100
AcDbEntity
  8
0
100
AcDbBlockBegin
  2
_D_3
 70
     0
 10
0.0
 20
0.0
 30
0.0
  3
_D_3
  1
_D_3
  0
LINE
  5
11B
330
118
100
AcDbEntity
  8
치수문자_일반주서
 62
     0
370
    -2
100
AcDbLine
 10
60.8
 20
12.670897325209
 30
0.0
 11
60.8
 21
55.21001978839928
 31
0.0
  0
LINE
  5
11C
330
118
100
AcDbEntity
  8
치수문자_일반주서
 62
     0
370
    -2
100
AcDbLine
 10
-53.50000000000001
 20
10.22357492872391
 30
0.0
 11
-53.50000000000002
 21
55.21001978839928
 31
0.0
  0
LINE
  5
11D
330
118
100
AcDbEntity
  8
치수문자_일반주서
 62
     0
370
    -2
100
AcDbLine
 10
57.498
 20
55.21001978839928
 30
0.0
 11
-50.19800000000002
 21
55.21001978839928
 31
0.0
  0
SOLID
  5
11E
330
118
100
AcDbEntity
  8
치수문자_일반주서
 62
     0
100
AcDbTrace
 10
57.498
 20
54.65968645506594
 30
0.0
 11
57.498
 21
55.76035312173261
 31
0.0
 12
60.8
 22
55.21001978839928
 32
0.0
 13
60.8
 23
55.21001978839928
 33
0.0
  0
SOLID
  5
11F
330
118
100
AcDbEntity
  8
치수문자_일반주서
 62
     0
100
AcDbTrace
 10
-50.19800000000002
 20
55.76035312173261
 30
0.0
 11
-50.19800000000002
 21
54.65968645506594
 31
0.0
 12
-53.50000000000002
 22
55.21001978839928
 32
0.0
 13
-53.50000000000002
 23
55.21001978839928
 33
0.0
  0
MTEXT
  5
120
330
118
100
AcDbEntity
  8
치수문자_일반주서
 62
     0
100
AcDbMText
 10
3.649999999999991
 20
59.58501978839928
 30
0.0
 40
3.5
 41
0.0
 71
     2
 72
     1
  1
\A1;114.30 [4 1/2]
  7
SLDTEXTSTYLE0
 73
     1
 44
1.0
  0
POINT
  5
121
330
118
100
AcDbEntity
  8
Defpoints
 62
     0
100
AcDbPoint
 10
60.8
 20
12.608397325209
 30
0.0
  0
POINT
  5
122
330
118
100
AcDbEntity
  8
Defpoints
 62
     0
100
AcDbPoint
 10
-53.50000000000001
 20
10.16107492872391
 30
0.0
  0
POINT
  5
123
330
118
100
AcDbEntity
  8
Defpoints
 62
     0
100
AcDbPoint
 10
-53.50000000000001
 20
55.21001978839928
 30
0.0
  0
ENDBLK
  5
11A
330
118
100
AcDbEntity
  8
0
100
AcDbBlockEnd
  0
BLOCK
  5
132
330
131
100
AcDbEntity
  8
0
100
AcDbBlockBegin
  2
SW_DOWELSYMBOL_0
 70
     0
 10
0.0
 20
0.0
 30
0.0
  3
SW_DOWELSYMBOL_0
  1
SW_DOWELSYMBOL_0
  0
CIRCLE
  5
134
330
131
100
AcDbEntity
  8
해칭선
 62
     0
100
AcDbCircle
 10
0.0
 20
0.0
 30
0.0
 40
3.000000000000001
  0
HATCH
  5
135
330
131
100
AcDbEntity
  8
0
  6
Continuous
 62
     0
370
     0
100
AcDbHatch
 10
0.0
 20
0.0
 30
0.0
210
0.0
220
0.0
230
1.0
  2
SOLID
 70
     1
 71
     0
 91
        1
 92
        0
 93
        3
 72
     2
 10
0.0
 20
0.0
 40
3.000000000000001
 50
0.0
 51
90.0
 73
     1
 72
     1
 10
0.0
 20
3.000000000000001
 11
0.0
 21
0.0
 72
     1
 10
0.0
 20
0.0
 11
3.000000000000001
 21
0.0
 97
        0
 75
     0
 76
     1
 98
        1
 10
0.0
 20
0.0
  0
HATCH
  5
136
330
131
100
AcDbEntity
  8
0
  6
Continuous
 62
     0
370
     0
100
AcDbHatch
 10
0.0
 20
0.0
 30
0.0
210
0.0
220
0.0
230
1.0
  2
SOLID
 70
     1
 71
     0
 91
        1
 92
        0
 93
        3
 72
     2
 10
0.0
 20
0.0
 40
3.000000000000001
 50
180.0
 51
270.0000000000007
 73
     1
 72
     1
 10
0.0
 20
-3.000000000000001
 11
0.0
 21
0.0
 72
     1
 10
0.0
 20
0.0
 11
-3.000000000000001
 21
0.0
 97
        0
 75
     0
 76
     1
 98
        1
 10
0.0
 20
0.0
  0
ENDBLK
  5
133
330
131
100
AcDbEntity
  8
0
100
AcDbBlockEnd
  0
ENDSEC
  0
SECTION
  2
ENTITIES
  0
LINE
  5
96
330
1F
100
AcDbEntity
  8
외형선
  6
Continuous
 62
     1
370
    15
100
AcDbLine
 10
44.87330312280931
 20
-2.470662482442588
 30
0.0
 11
44.94389557328682
 21
-2.538953571668923
 31
0.0
  0
LINE
  5
97
330
1F
100
AcDbEntity
  8
외형선
  6
Continuous
 62
     1
370
    15
100
AcDbLine
 10
35.73631480651603
 20
12.70107492872391
 30
0.0
 11
32.66667233631982
 21
12.70107492872391
 31
0.0
  0
LINE
  5
98
330
1F
100
AcDbEntity
  8
외형선
  6
Continuous
 62
     1
370
    15
100
AcDbLine
 10
32.66667233631975
 20
-12.6989250712761
 30
0.0
 11
35.73631480651594
 21
-12.6989250712761
 31
0.0
  0
LINE
  5
99
330
1F
100
AcDbEntity
  8
외형선
  6
Continuous
 62
     1
370
    15
100
AcDbLine
 10
59.26386496060206
 20
-12.6989250712761
 30
0.0
 11
60.8
 21
-12.6989250712761
 31
0.0
  0
LINE
  5
9A
330
1F
100
AcDbEntity
  8
외형선
  6
Continuous
 62
     1
370
    15
100
AcDbLine
 10
22.43626345523261
 20
12.70107492872391
 30
0.0
 11
19.367453272094
 21
12.70107492872391
 31
0.0
  0
LINE
  5
9B
330
1F
100
AcDbEntity
  8
외형선
  6
Continuous
 62
     1
370
    15
100
AcDbLine
 10
45.96500858244012
 20
-12.6989250712761
 30
0.0
 11
49.03641595544316
 21
-12.6989250712761
 31
0.0
  0
LINE
  5
9C
330
1F
100
AcDbEntity
  8
외형선
  6
Continuous
 62
     1
370
    15
100
AcDbLine
 10
49.03641595544316
 20
12.70107492872391
 30
0.0
 11
45.96500858244019
 21
12.70107492872391
 31
0.0
  0
LINE
  5
9D
330
1F
100
AcDbEntity
  8
외형선
  6
Continuous
 62
     1
370
    15
100
AcDbLine
 10
19.36745327209401
 20
-12.6989250712761
 30
0.0
 11
22.43626345523251
 21
-12.6989250712761
 31
0.0
  0
LINE
  5
9E
330
1F
100
AcDbEntity
  8
외형선
  6
Continuous
 62
     1
370
    15
100
AcDbLine
 10
60.8
 20
12.70107492872391
 30
0.0
 11
59.26386496060207
 21
12.70107492872391
 31
0.0
  0
LINE
  5
9F
330
1F
100
AcDbEntity
  8
외형선
  6
Continuous
370
    15
100
AcDbLine
 10
-50.96000000000002
 20
-12.6989250712761
 30
0.0
 11
9.136936435333425
 21
-12.6989250712761
 31
0.0
  0
LINE
  5
A0
330
1F
100
AcDbEntity
  8
외형선
  6
Continuous
370
    15
100
AcDbLine
 10
9.136936435333453
 20
12.7010749287239
 30
0.0
 11
-16.06992499999999
 21
12.7010749287239
 31
0.0
  0
LINE
  5
A2
330
1F
100
AcDbEntity
  8
외형선
  6
Continuous
370
    15
100
AcDbLine
 10
-53.50000000000001
 20
-10.15892507127611
 30
0.0
 11
-50.96000000000002
 21
-12.6989250712761
 31
0.0
  0
SPLINE
  5
A3
330
1F
100
AcDbEntity
  8
외형선
  6
Continuous
 62
     1
370
    15
100
AcDbSpline
210
0.0
220
0.0
230
1.0
 70
     8
 71
     3
 72
    31
 73
    27
 74
     0
 42
0.000000001
 43
0.00000001
 40
0.0
 40
0.0
 40
0.0
 40
0.0
 40
0.0450957682638993
 40
0.0901980191992992
 40
0.1353244929585531
 40
0.1804588028633545
 40
0.2255652725685297
 40
0.2706609762620711
 40
0.3125531969233669
 40
0.3544844348382114
 40
0.3963857552193055
 40
0.4382658175467912
 40
0.4801621491503332
 40
0.5220942883752425
 40
0.5639908716205717
 40
0.6058709170168757
 40
0.6477719520780522
 40
0.689703287004126
 40
0.7315957255856709
 40
0.7734763493777803
 40
0.8153826796008092
 40
0.8573115047905491
 40
0.8992003918953779
 40
0.9410821893103526
 40
0.9829944054866706
 40
1.0
 40
1.0
 40
1.0
 40
1.0
 10
10.0
 20
12.67183633864847
 30
0.0
 10
10.66357726977929
 20
12.59677453908284
 30
0.0
 10
11.99082720084846
 20
12.44664014956021
 30
0.0
 10
13.98214396383513
 20
11.83253277883609
 30
0.0
 10
15.97473747864094
 20
10.95032491358176
 30
0.0
 10
17.9677267257911
 20
9.793515119312826
 30
0.0
 10
19.95925585612416
 20
8.397584729894422
 30
0.0
 10
21.90308485956361
 20
6.833354968497659
 30
0.0
 10
23.79976967787935
 20
5.15362640882897
 30
0.0
 10
25.65117476550208
 20
3.407819948490991
 30
0.0
 10
27.50109397698989
 20
1.588845644972984
 30
0.0
 10
29.3500510360997
 20
-0.2637234546840986
 30
0.0
 10
31.19974261132948
 20
-2.110841586992361
 30
0.0
 10
33.05116063433471
 20
-3.912035126882048
 30
0.0
 10
34.90086456281282
 20
-5.631528090486953
 30
0.0
 10
36.74981863265906
 20
-7.231534226114129
 30
0.0
 10
38.59973265878546
 20
-8.678348041039191
 30
0.0
 10
40.45111127498537
 20
-9.94058490495516
 30
0.0
 10
42.30062234537453
 20
-10.99310186941782
 30
0.0
 10
44.14960237768687
 20
-11.81247612215213
 30
0.0
 10
45.99976920976464
 20
-12.38182348340698
 30
0.0
 10
47.85102415113936
 20
-12.68769308459271
 30
0.0
 10
49.70037758646205
 20
-12.72903414912239
 30
0.0
 10
51.54939345282817
 20
-12.48541678165506
 30
0.0
 10
53.03311187385578
 20
-12.12359168442281
 30
0.0
 10
53.90042993727481
 20
-11.75843385796915
 30
0.0
 10
54.15076611114051
 20
-11.6530374446036
 30
0.0
  0
SPLINE
  5
A4
330
1F
100
AcDbEntity
  8
외형선
  6
Continuous
 62
     1
370
    15
100
AcDbSpline
210
0.0
220
0.0
230
1.0
 70
     8
 71
     3
 72
    32
 73
    28
 74
     0
 42
0.000000001
 43
0.00000001
 40
0.0
 40
0.0
 40
0.0
 40
0.0
 40
0.0069957427474154
 40
0.048078014930418
 40
0.0891626052647699
 40
0.1302851366952333
 40
0.1713955108738116
 40
0.2124760482464428
 40
0.2535635396727918
 40
0.2946902051100725
 40
0.3357948059422567
 40
0.3768741921451444
 40
0.4179651671032655
 40
0.4590942942619533
 40
0.5001937012364766
 40
0.5412725201091168
 40
0.5823675604375415
 40
0.6234974765076515
 40
0.6645922700085642
 40
0.7056711054884678
 40
0.7467707923243218
 40
0.7878998243277466
 40
0.8289905855347515
 40
0.8732235424580675
 40
0.917467059423468
 40
0.9617378839647561
 40
1.0
 40
1.0
 40
1.0
 40
1.0
 10
59.26386496060207
 20
-12.67991226617777
 30
0.0
 10
59.15887822240878
 20
-12.68593739535119
 30
0.0
 10
58.43736027233567
 20
-12.72734490000308
 30
0.0
 10
57.10016620611152
 20
-12.54380874834398
 30
0.0
 10
55.25089584273967
 20
-12.11639910927844
 30
0.0
 10
53.39985951127559
 20
-11.40794516074414
 30
0.0
 10
51.54940616053398
 20
-10.46434333210988
 30
0.0
 10
49.70037418194936
 20
-9.297065065503743
 30
0.0
 10
47.85102506442702
 20
-7.933112218593807
 30
0.0
 10
45.99976896509277
 20
-6.401924292679468
 30
0.0
 10
44.1496024431862
 20
-4.734476435954448
 30
0.0
 10
42.30062232782331
 20
-2.966582069872402
 30
0.0
 10
40.45111127969496
 20
-1.135615408062436
 30
0.0
 10
38.59973265751971
 20
0.7181772980736715
 30
0.0
 10
36.74981863301419
 20
2.557868047333684
 30
0.0
 10
34.90086456265666
 20
4.343335155933859
 30
0.0
 10
33.05116063460436
 20
6.036942068117704
 30
0.0
 10
31.19974261040654
 20
7.601669692331817
 30
0.0
 10
29.35005103951764
 20
9.006434776187572
 30
0.0
 10
27.50109396424244
 20
10.22028453166097
 30
0.0
 10
25.65117481311668
 20
11.21761262826723
 30
0.0
 10
23.79976950011104
 20
11.97706181777474
 30
0.0
 10
21.90308554371808
 20
12.49579323470592
 30
0.0
 10
19.95925308415066
 20
12.74065791423812
 30
0.0
 10
17.96773705106916
 20
12.67111669549691
 30
0.0
 10
16.06477644826376
 20
12.33486124054224
 30
0.0
 10
14.82625439855601
 20
11.87940089532853
 30
0.0
 10
14.2520779055449
 20
11.6682503358515
 30
0.0
  0
LINE
  5
A5
330
1F
100
AcDbEntity
  8
외형선
  6
Continuous
 62
     1
370
    15
100
AcDbLine
 10
60.8
 20
-12.60624746776117
 30
0.0
 11
60.8
 21
-7.6182714054636
 31
0.0
  0
SPLINE
  5
A6
330
1F
100
AcDbEntity
  8
외형선
  6
Continuous
 62
     1
370
    15
100
AcDbSpline
210
0.0
220
0.0
230
1.0
 70
     8
 71
     3
 72
    28
 73
    24
 74
     0
 42
0.000000001
 43
0.00000001
 40
0.0
 40
0.0
 40
0.0
 40
0.0
 40
0.0355383131885413
 40
0.0837942395790067
 40
0.1320157358315071
 40
0.1802127675768493
 40
0.228428522570701
 40
0.2766854862201242
 40
0.3249015308120934
 40
0.3730985430724428
 40
0.4213197109688625
 40
0.4695757490032233
 40
0.5177870237720145
 40
0.5659847016703656
 40
0.6142119634231389
 40
0.662465113165672
 40
0.7106723007715863
 40
0.7588713293159333
 40
0.8071053648283851
 40
0.8553536642177987
 40
0.9035574480265645
 40
0.9517585119915744
 40
1.0
 40
1.0
 40
1.0
 40
1.0
 10
22.43626345523261
 20
12.67499247440435
 30
0.0
 10
22.89061291643241
 20
12.6712760222306
 30
0.0
 10
23.96190370624528
 20
12.66251316164747
 30
0.0
 10
25.6511818468747
 20
12.33458678003592
 30
0.0
 10
27.50109208121324
 20
11.74799678393409
 30
0.0
 10
29.35005154417051
 20
10.90337454022674
 30
0.0
 10
31.19974247503004
 20
9.830119891609927
 30
0.0
 10
33.0511606708591
 20
8.548856941380436
 30
0.0
 10
34.90086455294482
 20
7.085870546535912
 30
0.0
 10
36.74981863563728
 20
5.472849522733705
 30
0.0
 10
38.59973265674207
 20
3.743861506335405
 30
0.0
 10
40.4511112801796
 20
1.936656540328946
 30
0.0
 10
42.30062232666327
 20
0.0872295679812046
 30
0.0
 10
44.149602447342
 20
-1.763827930432209
 30
0.0
 10
45.99976894961537
 20
-3.577372664068877
 30
0.0
 10
47.85102512218707
 20
-5.314356379797149
 30
0.0
 10
49.70037396663742
 20
-6.939811811741603
 30
0.0
 10
51.54940696420773
 20
-8.418142662007904
 30
0.0
 10
53.39985650910039
 20
-9.71748263212948
 30
0.0
 10
55.2509070460632
 20
-10.81212145986683
 30
0.0
 10
57.10012443915984
 20
-11.67313555580056
 30
0.0
 10
58.94923718578742
 20
-12.30587727902782
 30
0.0
 10
60.18290669710726
 20
-12.50609609750855
 30
0.0
 10
60.80000000000003
 20
-12.60624746776117
 30
0.0
  0
SPLINE
  5
A7
330
1F
100
AcDbEntity
  8
외형선
  6
Continuous
 62
     1
370
    15
100
AcDbSpline
210
0.0
220
0.0
230
1.0
 70
     8
 71
     3
 72
    25
 73
    21
 74
     0
 42
0.000000001
 43
0.00000001
 40
0.0
 40
0.0
 40
0.0
 40
0.0
 40
0.055663734942187
 40
0.111280826355519
 40
0.1669010560771444
 40
0.2225726503727972
 40
0.2782277862070869
 40
0.3338425290378823
 40
0.389466686251592
 40
0.4451438771567516
 40
0.5007911970471537
 40
0.5564043814268349
 40
0.6120332546383391
 40
0.6677137782166266
 40
0.7233540666737373
 40
0.778966483002954
 40
0.8346008599040009
 40
0.890282451508869
 40
0.9459164942553628
 40
1.0
 40
1.0
 40
1.0
 40
1.0
 10
60.80000000000003
 20
-7.628884310425696
 30
0.0
 10
60.18290669710729
 20
-7.120271732020323
 30
0.0
 10
58.94923718578749
 20
-6.10347276805311
 30
0.0
 10
57.10012443915981
 20
-4.404878817807477
 30
0.0
 10
55.25090704606345
 20
-2.624442456469521
 30
0.0
 10
53.39985650909968
 20
-0.7862536439615073
 30
0.0
 10
51.54940696421042
 20
1.068243804652343
 30
0.0
 10
49.70037396662768
 20
2.900724293082969
 30
0.0
 10
47.85102512222356
 20
4.671860754055324
 30
0.0
 10
45.99976894947914
 20
6.34300933538907
 30
0.0
 10
44.14960244785006
 20
7.88059726656201
 30
0.0
 10
42.30062232476805
 20
9.251350175016373
 30
0.0
 10
40.45111128725787
 20
10.42623232526439
 30
0.0
 10
38.59973263030665
 20
11.37960768983532
 30
0.0
 10
36.74981873419233
 20
12.09264096920428
 30
0.0
 10
34.90086418526812
 20
12.54910579998287
 30
0.0
 10
33.05116204416804
 20
12.74108972224786
 30
0.0
 10
31.19973734684135
 20
12.65816642365867
 30
0.0
 10
29.36701218855057
 20
12.32917114487643
 30
0.0
 10
28.15137952384861
 20
11.89552609553026
 30
0.0
 10
27.55215289958538
 20
11.68176772378408
 30
0.0
  0
SPLINE
  5
A8
330
1F
100
AcDbEntity
  8
외형선
  6
Continuous
 62
     1
370
    15
100
AcDbSpline
210
0.0
220
0.0
230
1.0
 70
     8
 71
     3
 72
    17
 73
    13
 74
     0
 42
0.000000001
 43
0.00000001
 40
0.0
 40
0.0
 40
0.0
 40
0.0
 40
0.1134378721222225
 40
0.2268920513279926
 40
0.3404071627609
 40
0.4539419859253237
 40
0.5674067773966057
 40
0.6808444870928566
 40
0.7862238730805275
 40
0.8917014065083915
 40
0.9971036827336739
 40
1.0
 40
1.0
 40
1.0
 40
1.0
 10
10.0
 20
-7.080197168851803
 30
0.0
 10
10.66357727028508
 20
-7.614473048347092
 30
0.0
 10
11.99082720236592
 20
-8.683101611329512
 30
0.0
 10
13.98214395776288
 20
-10.02656619659847
 30
0.0
 10
15.9747375014271
 20
-11.13626929493238
 30
0.0
 10
17.96772664073009
 20
-11.96897299797874
 30
0.0
 10
19.95925617333172
 20
-12.50950406484847
 30
0.0
 10
21.90308371155138
 20
-12.73482323738247
 30
0.0
 10
23.79977362653145
 20
-12.67524836106083
 30
0.0
 10
25.65115998177485
 20
-12.32027926804217
 30
0.0
 10
26.90178530407488
 20
-11.97599184000289
 30
0.0
 10
27.53521263780984
 20
-11.6873375816665
 30
0.0
 10
27.5521528995853
 20
-11.67961786633628
 30
0.0
  0
SPLINE
  5
A9
330
1F
100
AcDbEntity
  8
외형선
  6
Continuous
370
    15
100
AcDbSpline
210
0.0
220
0.0
230
1.0
 70
    24
 71
     3
 72
    34
 73
    30
 74
     0
 42
0.000000001
 43
0.00000001
 40
0.0
 40
0.0
 40
0.0
 40
0.0
 40
0.1250000000000009
 40
0.1250000000000009
 40
0.1562500000000012
 40
0.1562500000000012
 40
0.1875000000000014
 40
0.1875000000000014
 40
0.2500000000000013
 40
0.2500000000000013
 40
0.3750000000000011
 40
0.3750000000000011
 40
0.5000000000000009
 40
0.5000000000000009
 40
0.5625000000000008
 40
0.5625000000000008
 40
0.6250000000000007
 40
0.6250000000000007
 40
0.6875000000000006
 40
0.6875000000000006
 40
0.7500000000000004
 40
0.7500000000000004
 40
0.8125000000000003
 40
0.8125000000000003
 40
0.8750000000000002
 40
0.8750000000000002
 40
0.9375000000000001
 40
0.9375000000000001
 40
1.0
 40
1.0
 40
1.0
 40
1.0
 10
10.0
 20
2.69772407900199
 30
0.0
 10
10.00000000000001
 20
2.69164757686648
 30
0.0
 10
10.00000000000001
 20
2.618720423248097
 30
0.0
 10
10.0
 20
2.488952732025455
 30
0.0
 10
9.999999999999988
 20
2.460997309171065
 30
0.0
 10
10.0
 20
2.401916468726302
 30
0.0
 10
9.999999999999973
 20
2.370231451112613
 30
0.0
 10
9.999999999999988
 20
2.263575559818656
 30
0.0
 10
9.999999999999988
 20
2.178608320563113
 30
0.0
 10
9.999999999999988
 20
1.872097151276786
 30
0.0
 10
9.99999999999996
 20
1.598312823097351
 30
0.0
 10
9.999999999999988
 20
0.8617617562456376
 30
0.0
 10
9.999999999999988
 20
0.3967495933014892
 30
0.0
 10
10.0
 20
-0.4464821533988617
 30
0.0
 10
9.999999999999988
 20
-0.7512145663888734
 30
0.0
 10
10.0
 20
-1.397968763497847
 30
0.0
 10
9.999999999999988
 20
-1.739970769167447
 30
0.0
 10
10.00000000000001
 20
-2.443283523804517
 30
0.0
 10
9.999999999999973
 20
-2.80447687606874
 30
0.0
 10
9.999999999999988
 20
-3.522127178690014
 30
0.0
 10
9.99999999999996
 20
-3.878397205014109
 30
0.0
 10
9.999999999999973
 20
-4.560827525604216
 30
0.0
 10
10.0
 20
-4.886811164755147
 30
0.0
 10
10.0
 20
-5.487758090201029
 30
0.0
 10
9.999999999999973
 20
-5.762633382773894
 30
0.0
 10
9.999999999999973
 20
-6.249151232514395
 30
0.0
 10
9.999999999999988
 20
-6.460815913617823
 30
0.0
 10
9.999999999999988
 20
-6.818402896904709
 30
0.0
 10
10.00000000000001
 20
-6.964419184588416
 30
0.0
 10
9.999999999999988
 20
-7.080197168851694
 30
0.0
  0
SPLINE
  5
AA
330
1F
100
AcDbEntity
  8
외형선
  6
Continuous
 62
     1
370
    15
100
AcDbSpline
210
0.0
220
0.0
230
1.0
 70
     8
 71
     3
 72
    19
 73
    15
 74
     0
 42
0.000000001
 43
0.00000001
 40
0.0
 40
0.0
 40
0.0
 40
0.0
 40
0.0647087327981274
 40
0.1463171501753121
 40
0.227893877191551
 40
0.3095120120362357
 40
0.3911884222116642
 40
0.4727888320264259
 40
0.5606291958025534
 40
0.6484905303209215
 40
0.736406093802639
 40
0.8243063935270771
 40
0.912159510449502
 40
1.0
 40
1.0
 40
1.0
 40
1.0
 10
32.66667233631973
 20
-12.6767513145481
 30
0.0
 10
32.17755974520598
 20
-12.66935402018035
 30
0.0
 10
31.07159525862124
 20
-12.65262751381723
 30
0.0
 10
29.35003948982314
 20
-12.3069701918644
 30
0.0
 10
27.5010970719397
 20
-11.70551499193139
 30
0.0
 10
25.65117393549606
 20
-10.84779243129702
 30
0.0
 10
23.79976989956943
 20
-9.763127497372043
 30
0.0
 10
21.90308479511049
 20
-8.437223548151632
 30
0.0
 10
19.95925587393324
 20
-6.882866082620102
 30
0.0
 10
17.9677267210155
 20
-5.12149286345253
 30
0.0
 10
15.97473747992026
 20
-3.234499433591922
 30
0.0
 10
13.98214396349421
 20
-1.26911163380795
 30
0.0
 10
11.99082720093366
 20
0.7323550969431877
 30
0.0
 10
10.66357726980769
 20
2.042632475538031
 30
0.0
 10
9.999999999999988
 20
2.697724079001996
 30
0.0
  0
SPLINE
  5
AB
330
1F
100
AcDbEntity
  8
외형선
  6
Continuous
 62
     1
370
    15
100
AcDbSpline
210
0.0
220
0.0
230
1.0
 70
     8
 71
     3
 72
    24
 73
    20
 74
     0
 42
0.000000001
 43
0.00000001
 40
0.0
 40
0.0
 40
0.0
 40
0.0
 40
0.0645349079264151
 40
0.1290790929673913
 40
0.1936579424074303
 40
0.2582480058693358
 40
0.3227982282377487
 40
0.3873330437598814
 40
0.4472834716445758
 40
0.5072897356966591
 40
0.5672531858582089
 40
0.627186214395178
 40
0.6871425252992678
 40
0.7471500791832862
 40
0.8071067502027527
 40
0.8670397545101255
 40
0.9270027963607557
 40
0.9870091992420681
 40
1.0
 40
1.0
 40
1.0
 40
1.0
 10
10.0
 20
5.590564241072784
 30
0.0
 10
10.66357726977911
 20
4.981227173839197
 30
0.0
 10
11.99082720084789
 20
3.762465445076768
 30
0.0
 10
13.98214396383734
 20
1.804884308359262
 30
0.0
 10
15.9747374786327
 20
-0.1869917473369176
 30
0.0
 10
17.96772672582191
 20
-2.176635699466069
 30
0.0
 10
19.95925585600926
 20
-4.112610560867476
 30
0.0
 10
21.90308485997939
 20
-5.903931864175905
 30
0.0
 10
23.79976967644926
 20
-7.517920484917223
 30
0.0
 10
25.65117477085643
 20
-8.93141704350129
 30
0.0
 10
27.50109395702436
 20
-10.15653905602326
 30
0.0
 10
29.35005111058479
 20
-11.16645165899122
 30
0.0
 10
31.19974233312118
 20
-11.93970944422217
 30
0.0
 10
33.05116167322569
 20
-12.46009661292468
 30
0.0
 10
34.90086069003815
 20
-12.71538396617946
 30
0.0
 10
36.74983308313778
 20
-12.70678792407317
 30
0.0
 10
38.59967868146947
 20
-12.40814635555764
 30
0.0
 10
39.96802836283584
 20
-12.0508495353077
 30
0.0
 10
40.71858793645091
 20
-11.72066762229277
 30
0.0
 10
40.85215976374964
 20
-11.66190746119061
 30
0.0
  0
SPLINE
  5
AC
330
1F
100
AcDbEntity
  8
외형선
  6
Continuous
370
    15
100
AcDbSpline
210
0.0
220
0.0
230
1.0
 70
    24
 71
     3
 72
    16
 73
    12
 74
     0
 42
0.000000001
 43
0.00000001
 40
0.0
 40
0.0
 40
0.0
 40
0.0
 40
0.1079026091461829
 40
0.2183750054846424
 40
0.3369164798318574
 40
0.4588956649657119
 40
0.5774371393129265
 40
0.6994163244467797
 40
0.817957798793996
 40
0.9399369839278512
 40
1.0
 40
1.0
 40
1.0
 40
1.0
 10
10.0
 20
12.09712310098946
 30
0.0
 10
10.0
 20
11.86813255138348
 30
0.0
 10
9.999999999999988
 20
11.40469785854495
 30
0.0
 10
9.999999999999973
 20
10.63060452484351
 30
0.0
 10
10.00000000000006
 20
9.801245886880572
 30
0.0
 10
9.99999999999996
 20
8.945804529384823
 30
0.0
 10
10.00000000000001
 20
8.102330127865416
 30
0.0
 10
9.999999999999973
 20
7.307522214015235
 30
0.0
 10
10.00000000000007
 20
6.576972311745157
 30
0.0
 10
9.999999999999973
 20
6.024754541683427
 30
0.0
 10
10.00000000000001
 20
5.760853170797331
 30
0.0
 10
10.0
 20
5.673781534792133
 30
0.0
  0
SPLINE
  5
AD
330
1F
100
AcDbEntity
  8
외형선
  6
Continuous
 62
     1
370
    15
100
AcDbSpline
210
0.0
220
0.0
230
1.0
 70
     8
 71
     3
 72
    26
 73
    22
 74
     0
 42
0.000000001
 43
0.00000001
 40
0.0
 40
0.0
 40
0.0
 40
0.0
 40
0.0504823625578415
 40
0.1018949118745431
 40
0.1533219649972901
 40
0.2047967671755729
 40
0.2562343733152755
 40
0.3076462125947291
 40
0.3590783536964005
 40
0.4105541432299277
 40
0.4619859754167684
 40
0.5133978354808981
 40
0.5648357918786205
 40
0.6163104749661596
 40
0.667737260570552
 40
0.7230966339558259
 40
0.7784692236701306
 40
0.8338759899440634
 40
0.8892731365852652
 40
0.9446405473483158
 40
1.0
 40
1.0
 40
1.0
 40
1.0
 10
45.96500858244011
 20
-12.69645707609334
 30
0.0
 10
45.35973406710578
 20
-12.67246338401692
 30
0.0
 10
44.13803226324834
 20
-12.62403389268971
 30
0.0
 10
42.30063431059916
 20
-12.21347937469035
 30
0.0
 10
40.45110806513566
 20
-11.56167490460783
 30
0.0
 10
38.59973351852081
 20
-10.66012909322926
 30
0.0
 10
36.74981840249588
 20
-9.533701742397682
 30
0.0
 10
34.90086462449727
 20
-8.20490680427416
 30
0.0
 10
33.05116061778753
 20
-6.702223893440989
 30
0.0
 10
31.19974261576069
 20
-5.058607696435354
 30
0.0
 10
29.35005103491333
 20
-3.306739590523533
 30
0.0
 10
27.50109397730794
 20
-1.484935715337688
 30
0.0
 10
25.65117476541675
 20
0.3683974011589704
 30
0.0
 10
23.79976967790218
 20
2.212879657414757
 30
0.0
 10
21.90308485955698
 20
4.057767250084495
 30
0.0
 10
19.95925585612599
 20
5.855504723116557
 30
0.0
 10
17.96772672579065
 20
7.553091487168235
 30
0.0
 10
15.97473747864109
 20
9.06640228031005
 30
0.0
 10
13.98214396383509
 20
10.35167216317979
 30
0.0
 10
11.99082720084846
 20
11.40421670723805
 30
0.0
 10
10.66357726977928
 20
11.86616537006118
 30
0.0
 10
9.999999999999988
 20
12.0971231009894
 30
0.0
  0
LINE
  5
AE
330
1F
100
AcDbEntity
  8
외형선
  6
Continuous
 62
     1
370
    15
100
AcDbLine
 10
60.8
 20
-4.976288228611395
 30
0.0
 11
60.8
 21
4.978438086059439
 31
0.0
  0
SPLINE
  5
AF
330
1F
100
AcDbEntity
  8
외형선
  6
Continuous
 62
     1
370
    15
100
AcDbSpline
210
0.0
220
0.0
230
1.0
 70
     8
 71
     3
 72
    21
 73
    17
 74
     0
 42
0.000000001
 43
0.00000001
 40
0.0
 40
0.0
 40
0.0
 40
0.0
 40
0.0404383461544571
 40
0.1142476874883041
 40
0.1881104025172716
 40
0.2619046010151849
 40
0.3356779875731314
 40
0.4094966564190081
 40
0.4833549505074078
 40
0.5571428930224606
 40
0.6309183469357964
 40
0.704747383982238
 40
0.7785982539167939
 40
0.8523809864372216
 40
0.9261595558507625
 40
1.0
 40
1.0
 40
1.0
 40
1.0
 10
35.73631480651603
 20
12.66773487307713
 30
0.0
 10
36.07406323862738
 20
12.67288159667281
 30
0.0
 10
37.02828073244214
 20
12.68742228205848
 30
0.0
 10
38.59973444603925
 20
12.41518146052879
 30
0.0
 10
40.45111080108384
 20
11.88048928523339
 30
0.0
 10
42.30062245494317
 20
11.08081234577735
 30
0.0
 10
44.14960241295062
 20
10.04992795745728
 30
0.0
 10
45.99976895883872
 20
8.805300532531753
 30
0.0
 10
47.85102511971769
 20
7.375107585504012
 30
0.0
 10
49.70037396729871
 20
5.787741614604911
 30
0.0
 10
51.54940696403038
 20
4.077877916196006
 30
0.0
 10
53.39985650914794
 20
2.282143043290432
 30
0.0
 10
55.25090704605051
 20
0.4380334993158833
 30
0.0
 10
57.10012443916326
 20
-1.414284012978296
 30
0.0
 10
58.94923718578655
 20
-3.244101732774756
 30
0.0
 10
60.18290669710695
 20
-4.398731408400015
 30
0.0
 10
60.80000000000003
 20
-4.976288228611397
 30
0.0
  0
SPLINE
  5
B0
330
1F
100
AcDbEntity
  8
외형선
  6
Continuous
 62
     1
370
    15
100
AcDbSpline
210
0.0
220
0.0
230
1.0
 70
     8
 71
     3
 72
    18
 73
    14
 74
     0
 42
0.000000001
 43
0.00000001
 40
0.0
 40
0.0
 40
0.0
 40
0.0
 40
0.0927761442179497
 40
0.1854745464955791
 40
0.2781781794704145
 40
0.3709674230700596
 40
0.4637292349390348
 40
0.5564237227751997
 40
0.649133901799674
 40
0.7419324734088621
 40
0.8346812582479752
 40
0.9273731485745504
 40
1.0
 40
1.0
 40
1.0
 40
1.0
 10
60.80000000000003
 20
4.978438086059443
 30
0.0
 10
60.18290669692495
 20
5.535637060914167
 30
0.0
 10
58.94923718524064
 20
6.64956810472
 30
0.0
 10
57.10012444134507
 20
8.152223892356702
 30
0.0
 10
55.25090703786483
 20
9.489752362564172
 30
0.0
 10
53.39985653973551
 20
10.62365137328806
 30
0.0
 10
51.54940684994928
 20
11.53340208987832
 30
0.0
 10
49.70037439274594
 20
12.19902001550544
 30
0.0
 10
47.85102353094802
 20
12.60568467834041
 30
0.0
 10
45.99977489313286
 20
12.74730666372611
 30
0.0
 10
44.14958028553733
 20
12.6113240009515
 30
0.0
 10
42.434247816668
 20
12.26403608673044
 30
0.0
 10
41.33505197632191
 20
11.84718560551592
 30
0.0
 10
40.85215976374974
 20
11.66405731863841
 30
0.0
  0
LINE
  5
B1
330
1F
100
AcDbEntity
  8
외형선
  6
Continuous
 62
     1
370
    15
100
AcDbLine
 10
60.8
 20
-7.628884310425698
 30
0.0
 11
60.8
 21
-4.976288228611395
 31
0.0
  0
LINE
  5
B2
330
1F
100
AcDbEntity
  8
외형선
  6
Continuous
370
    15
100
AcDbLine
 10
9.999999999999988
 20
2.697724079002005
 30
0.0
 11
10.0
 21
5.590564241072783
 31
0.0
  0
LINE
  5
B3
330
1F
100
AcDbEntity
  8
외형선
  6
Continuous
 62
     1
370
    15
100
AcDbLine
 10
60.8
 20
-12.6989250712761
 30
0.0
 11
60.8
 21
-12.60624746776117
 31
0.0
  0
LINE
  5
B4
330
1F
100
AcDbEntity
  8
외형선
  6
Continuous
370
    15
100
AcDbLine
 10
9.999999999999988
 20
12.09712310098946
 30
0.0
 11
10.0
 21
12.67183633864847
 31
0.0
  0
SPLINE
  5
B5
330
1F
100
AcDbEntity
  8
외형선
  6
Continuous
 62
     1
370
    15
100
AcDbSpline
210
0.0
220
0.0
230
1.0
 70
     8
 71
     3
 72
    10
 73
     6
 74
     0
 42
0.000000001
 43
0.00000001
 40
0.0
 40
0.0
 40
0.0
 40
0.0
 40
0.4682059735203772
 40
0.9364792532567869
 40
0.9999999999999999
 40
0.9999999999999999
 40
0.9999999999999999
 40
0.9999999999999999
 10
10.0
 20
-12.66968648120066
 30
0.0
 10
10.66358798725605
 20
-12.58955773805832
 30
0.0
 10
11.99085935481938
 20
-12.42928873299173
 30
0.0
 10
13.4080481357148
 20
-12.04631775386776
 30
0.0
 10
14.16201899274006
 20
-11.70667008350757
 30
0.0
 10
14.2520779055449
 20
-11.6661004784037
 30
0.0
  0
SPLINE
  5
B6
330
1F
100
AcDbEntity
  8
외형선
  6
Continuous
 62
     1
370
    15
100
AcDbSpline
210
0.0
220
0.0
230
1.0
 70
     8
 71
     3
 72
    14
 73
    10
 74
     0
 42
0.000000001
 43
0.00000001
 40
0.0
 40
0.0
 40
0.0
 40
0.0
 40
0.056457455318151
 40
0.2136419701959439
 40
0.3709406482314826
 40
0.5282858429842299
 40
0.6854858655175372
 40
0.8426770182181066
 40
1.0
 40
1.0
 40
1.0
 40
1.0
 10
49.03641595544316
 20
12.67009077924827
 30
0.0
 10
49.25777138808495
 20
12.67835317502409
 30
0.0
 10
50.09540763075074
 20
12.70961909911041
 30
0.0
 10
51.5493771203443
 20
12.48589862337605
 30
0.0
 10
53.39986451087527
 20
12.00370272689454
 30
0.0
 10
55.25090490466516
 20
11.2504264736773
 30
0.0
 10
57.10012500992482
 20
10.2601406123583
 30
0.0
 10
58.94923704295991
 20
9.062796888649963
 30
0.0
 10
60.18290664948477
 20
8.108421750732765
 30
0.0
 10
60.80000000000003
 20
7.631034167873558
 30
0.0
  0
LINE
  5
B7
330
1F
100
AcDbEntity
  8
외형선
  6
Continuous
 62
     1
370
    15
100
AcDbLine
 10
60.8
 20
4.978438086059439
 30
0.0
 11
60.8
 21
7.631034167873559
 31
0.0
  0
SPLINE
  5
B8
330
1F
100
AcDbEntity
  8
외형선
  6
Continuous
 62
     1
370
    15
100
AcDbSpline
210
0.0
220
0.0
230
1.0
 70
     8
 71
     3
 72
    11
 73
     7
 74
     0
 42
0.000000001
 43
0.00000001
 40
0.0
 40
0.0
 40
0.0
 40
0.0
 40
0.2783312547540722
 40
0.5564292813223993
 40
0.8345430001414537
 40
1.0
 40
1.0
 40
1.0
 40
1.0
 10
60.80000000000002
 20
12.608397325209
 30
0.0
 10
60.18290746471781
 20
12.6575575097788
 30
0.0
 10
58.94923948797595
 20
12.75583668505153
 30
0.0
 10
57.1001152391915
 20
12.55130067187899
 30
0.0
 10
55.50112272631837
 20
12.19657221110078
 30
0.0
 10
54.51762290186834
 20
11.80226750890193
 30
0.0
 10
54.15076611114051
 20
11.6551873020514
 30
0.0
  0
SPLINE
  5
B9
330
1F
100
AcDbEntity
  8
외형선
  6
Continuous
 62
     1
370
    15
100
AcDbSpline
210
0.0
220
0.0
230
1.0
 70
     8
 71
     3
 72
    12
 73
     8
 74
     0
 42
0.000000001
 43
0.00000001
 40
0.0
 40
0.0
 40
0.0
 40
0.0
 40
0.1494102151718336
 40
0.3621500889887008
 40
0.5748530272543532
 40
0.7874417916132579
 40
1.0
 40
1.0
 40
1.0
 40
1.0
 10
19.36745327209401
 20
-12.66632451026304
 30
0.0
 10
18.90099116548952
 20
-12.66436256506824
 30
0.0
 10
17.77035031056279
 20
-12.65960707612076
 30
0.0
 10
15.97472908114184
 20
-12.29274679660263
 30
0.0
 10
13.98214620167264
 20
-11.62159560428994
 30
0.0
 10
11.99082664160803
 20
-10.67031518217168
 30
0.0
 10
10.66357708337473
 20
-9.822300806863538
 30
0.0
 10
9.999999999999988
 20
-9.398324093263508
 30
0.0
  0
LINE
  5
BA
330
1F
100
AcDbEntity
  8
외형선
  6
Continuous
 62
     1
370
    15
100
AcDbLine
 10
60.8
 20
12.608397325209
 30
0.0
 11
60.8
 21
12.70107492872391
 31
0.0
  0
LINE
  5
BB
330
1F
100
AcDbEntity
  8
외형선
  6
Continuous
370
    15
100
AcDbLine
 10
9.999999999999988
 20
-9.398324093263563
 30
0.0
 11
10.0
 21
-7.080197168851804
 31
0.0
  0
LINE
  5
BC
330
1F
100
AcDbEntity
  8
외형선
  6
Continuous
 62
     1
370
    15
100
AcDbLine
 10
60.8
 20
7.603467547207502
 30
0.0
 11
60.8
 21
12.608397325209
 31
0.0
  0
SPLINE
  5
BD
330
1F
100
AcDbEntity
  8
외형선
  6
Continuous
370
    15
100
AcDbSpline
210
0.0
220
0.0
230
1.0
 70
    24
 71
     3
 72
    12
 73
     8
 74
     0
 42
0.000000001
 43
0.00000001
 40
0.0
 40
0.0
 40
0.0
 40
0.0
 40
0.1159378987235745
 40
0.3743116182073065
 40
0.6326853376910341
 40
0.8910590571747621
 40
1.0
 40
1.0
 40
1.0
 40
1.0
 10
9.999999999999988
 20
-9.481551386982916
 30
0.0
 10
9.999999999999973
 20
-9.590843304105778
 30
0.0
 10
9.99999999999996
 20
-9.943698020342932
 30
0.0
 10
9.99999999999993
 20
-10.61040609827312
 30
0.0
 10
9.999999999999973
 20
-11.45148149839919
 30
0.0
 10
9.999999999999988
 20
-12.14701119732449
 30
0.0
 10
10.0
 20
-12.55012728315013
 30
0.0
 10
10.00000000000001
 20
-12.66968648120067
 30
0.0
  0
LINE
  5
BE
330
1F
100
AcDbEntity
  8
외형선
  6
Continuous
370
    15
100
AcDbLine
 10
9.136936435333453
 20
12.69642388691077
 30
0.0
 11
10.0
 21
12.67183633864846
 31
0.0
  0
SPLINE
  5
BF
330
1F
100
AcDbEntity
  8
외형선
  6
Continuous
370
    15
100
AcDbSpline
210
0.0
220
0.0
230
1.0
 70
     8
 71
     3
 72
     8
 73
     4
 74
     0
 42
0.000000001
 43
0.00000001
 40
0.0
 40
0.0
 40
0.0
 40
0.0
 40
1.0
 40
1.0
 40
1.0
 40
1.0
 10
9.999999999999988
 20
12.09712310098939
 30
0.0
 10
9.666534563500727
 20
12.19860270108646
 30
0.0
 10
9.332574974946638
 20
12.28763599697647
 30
0.0
 10
8.99966832216519
 20
12.3638315747845
 30
0.0
  0
LINE
  5
C0
330
1F
100
AcDbEntity
  8
외형선
  6
Continuous
370
    15
100
AcDbLine
 10
8.999668322165183
 20
6.469459687591569
 30
0.0
 11
8.999668322165183
 21
12.36383658257656
 31
0.0
  0
SPLINE
  5
C1
330
1F
100
AcDbEntity
  8
외형선
  6
Continuous
370
    15
100
AcDbSpline
210
0.0
220
0.0
230
1.0
 70
     8
 71
     3
 72
     8
 73
     4
 74
     0
 42
0.000000001
 43
0.00000001
 40
0.0
 40
0.0
 40
0.0
 40
0.0
 40
1.0
 40
1.0
 40
1.0
 40
1.0
 10
10.0
 20
5.590564241072783
 30
0.0
 10
9.666534563500742
 20
5.889609931246202
 30
0.0
 10
9.332574974946638
 20
6.183028273477565
 30
0.0
 10
8.999668322165183
 20
6.469470128262837
 30
0.0
  0
SPLINE
  5
C2
330
1F
100
AcDbEntity
  8
외형선
  6
Continuous
370
    15
100
AcDbSpline
210
0.0
220
0.0
230
1.0
 70
     8
 71
     3
 72
     8
 73
     4
 74
     0
 42
0.000000001
 43
0.00000001
 40
0.0
 40
0.0
 40
0.0
 40
0.0
 40
1.0
 40
1.0
 40
1.0
 40
1.0
 10
9.999999999999988
 20
2.697724079001995
 30
0.0
 10
9.666534563500727
 20
3.023165043819651
 30
0.0
 10
9.332574974946638
 20
3.345980180154672
 30
0.0
 10
8.99966832216519
 20
3.664679218463372
 30
0.0
  0
SPLINE
  5
C3
330
1F
100
AcDbEntity
  8
외형선
  6
Continuous
370
    15
100
AcDbSpline
210
0.0
220
0.0
230
1.0
 70
     8
 71
     3
 72
     8
 73
     4
 74
     0
 42
0.000000001
 43
0.00000001
 40
0.0
 40
0.0
 40
0.0
 40
0.0
 40
1.0
 40
1.0
 40
1.0
 40
1.0
 10
10.0
 20
-7.08019716885181
 30
0.0
 10
9.666534563500742
 20
-6.803737062710921
 30
0.0
 10
9.332574974946638
 20
-6.519825479792093
 30
0.0
 10
8.999668322165183
 20
-6.229789418315891
 30
0.0
  0
SPLINE
  5
C4
330
1F
100
AcDbEntity
  8
외형선
  6
Continuous
370
    15
100
AcDbSpline
210
0.0
220
0.0
230
1.0
 70
     8
 71
     3
 72
     8
 73
     4
 74
     0
 42
0.000000001
 43
0.00000001
 40
0.0
 40
0.0
 40
0.0
 40
0.0
 40
1.0
 40
1.0
 40
1.0
 40
1.0
 10
9.999999999999988
 20
-9.398324093263504
 30
0.0
 10
9.666534563500727
 20
-9.17436272854292
 30
0.0
 10
9.332574974946638
 20
-8.940580888097903
 30
0.0
 10
8.99966832216519
 20
-8.698077427597243
 30
0.0
  0
LINE
  5
C5
330
1F
100
AcDbEntity
  8
외형선
  6
Continuous
370
    15
100
AcDbLine
 10
8.999668322165183
 20
-12.69818474885612
 30
0.0
 11
8.999668322165183
 21
-8.698061489502514
 31
0.0
  0
SPLINE
  5
C6
330
1F
100
AcDbEntity
  8
외형선
  6
Continuous
370
    15
100
AcDbSpline
210
0.0
220
0.0
230
1.0
 70
     8
 71
     3
 72
     8
 73
     4
 74
     0
 42
0.000000001
 43
0.00000001
 40
0.0
 40
0.0
 40
0.0
 40
0.0
 40
1.0
 40
1.0
 40
1.0
 40
1.0
 10
10.0
 20
-12.66968648120066
 30
0.0
 10
9.666534563500742
 20
-12.69227206523319
 30
0.0
 10
9.332574974946638
 20
-12.70177882454573
 30
0.0
 10
8.999668322165183
 20
-12.6981846178548
 30
0.0
  0
LINE
  5
C7
330
1F
100
AcDbEntity
  8
외형선
  6
Continuous
370
    15
100
AcDbLine
 10
-50.96000000000002
 20
0.0010749287239018
 30
0.0
 11
-50.96000000000002
 21
10.7960749287239
 31
0.0
  0
LINE
  5
C8
330
1F
100
AcDbEntity
  8
외형선
  6
Continuous
370
    15
100
AcDbLine
 10
-50.96000000000002
 20
-12.6989250712761
 30
0.0
 11
-50.96000000000002
 21
0.0010749287239018
 31
0.0
  0
LINE
  5
C9
330
1F
100
AcDbEntity
  8
외형선
  6
Continuous
370
    15
100
AcDbLine
 10
8.999668322165183
 20
-6.229799989988479
 30
0.0
 11
8.999668322165183
 21
3.664700164350161
 31
0.0
  0
LINE
  5
CA
330
1F
100
AcDbEntity
  8
외형선
  6
Continuous
370
    15
100
AcDbLine
 10
-53.50000000000001
 20
0.0010749287239018
 30
0.0
 11
-53.5
 21
10.7960749287239
 31
0.0
  0
LINE
  5
CB
330
1F
100
AcDbEntity
  8
외형선
  6
Continuous
370
    15
100
AcDbLine
 10
-53.50000000000001
 20
-10.15892507127611
 30
0.0
 11
-53.50000000000001
 21
0.0010749287239018
 31
0.0
  0
SPLINE
  5
CC
330
1F
100
AcDbEntity
  8
외형선
  6
Continuous
370
    15
100
AcDbSpline
210
0.0
220
0.0
230
1.0
 70
    24
 71
     3
 72
    34
 73
    30
 74
     0
 42
0.000000001
 43
0.00000001
 40
0.0
 40
0.0
 40
0.0
 40
0.0
 40
0.0625000000000001
 40
0.0625000000000001
 40
0.1250000000000001
 40
0.1250000000000001
 40
0.1875000000000002
 40
0.1875000000000002
 40
0.2500000000000003
 40
0.2500000000000003
 40
0.3125000000000003
 40
0.3125000000000003
 40
0.3750000000000004
 40
0.3750000000000004
 40
0.4375000000000005
 40
0.4375000000000005
 40
0.5000000000000006
 40
0.5000000000000006
 40
0.6250000000000007
 40
0.6250000000000007
 40
0.7500000000000009
 40
0.7500000000000009
 40
0.8125000000000009
 40
0.8125000000000009
 40
0.8437500000000009
 40
0.8437500000000009
 40
0.875000000000001
 40
0.875000000000001
 40
1.0
 40
1.0
 40
1.0
 40
1.0
 10
9.999999999999988
 20
-7.080197168851681
 30
0.0
 10
10.0
 20
-6.964419184588404
 30
0.0
 10
9.999999999999988
 20
-6.818402896904698
 30
0.0
 10
10.0
 20
-6.46081591361782
 30
0.0
 10
9.999999999999988
 20
-6.249151232514397
 30
0.0
 10
10.0
 20
-5.76263338277391
 30
0.0
 10
10.00000000000001
 20
-5.487758090201051
 30
0.0
 10
10.00000000000001
 20
-4.886811164755185
 30
0.0
 10
9.999999999999988
 20
-4.560827525604268
 30
0.0
 10
9.999999999999973
 20
-3.878397205014179
 30
0.0
 10
9.999999999999988
 20
-3.522127178690088
 30
0.0
 10
9.999999999999988
 20
-2.804476876068832
 30
0.0
 10
10.0
 20
-2.443283523804623
 30
0.0
 10
9.999999999999988
 20
-1.739970769167566
 30
0.0
 10
10.0
 20
-1.397968763497971
 30
0.0
 10
9.999999999999988
 20
-0.751214566389004
 30
0.0
 10
9.999999999999973
 20
-0.4464821533989939
 30
0.0
 10
9.99999999999996
 20
0.3967495933013572
 30
0.0
 10
10.0
 20
0.8617617562455117
 30
0.0
 10
10.0
 20
1.598312823097248
 30
0.0
 10
10.00000000000001
 20
1.872097151276697
 30
0.0
 10
10.0
 20
2.178608320563044
 30
0.0
 10
10.00000000000001
 20
2.263575559818592
 30
0.0
 10
10.0
 20
2.370231451112558
 30
0.0
 10
10.0
 20
2.401916468726249
 30
0.0
 10
9.999999999999988
 20
2.460997309171014
 30
0.0
 10
9.999999999999973
 20
2.488952732025406
 30
0.0
 10
9.999999999999988
 20
2.618720423248058
 30
0.0
 10
9.999999999999973
 20
2.691647576866451
 30
0.0
 10
9.999999999999988
 20
2.697724079001987
 30
0.0
  0
SPLINE
  5
CD
330
1F
100
AcDbEntity
  8
외형선
  6
Continuous
370
    15
100
AcDbSpline
210
0.0
220
0.0
230
1.0
 70
    24
 71
     3
 72
    16
 73
    12
 74
     0
 42
0.000000001
 43
0.00000001
 40
0.0
 40
0.0
 40
0.0
 40
0.0
 40
0.1025318794838262
 40
0.2229720492942653
 40
0.3434122191047027
 40
0.4638523889151404
 40
0.5842925587255797
 40
0.7047327285360186
 40
0.8251728983464602
 40
0.9456130681569026
 40
1.0
 40
1.0
 40
1.0
 40
1.0
 10
9.999999999999988
 20
5.673781534792132
 30
0.0
 10
9.999999999999988
 20
5.832164887654766
 30
0.0
 10
9.999999999999988
 20
6.176594941406477
 30
0.0
 10
10.00000000000003
 20
6.829128279327725
 30
0.0
 10
10.00000000000003
 20
7.585012322199482
 30
0.0
 10
10.00000000000004
 20
8.400324523716566
 30
0.0
 10
9.999999999999988
 20
9.24988425867968
 30
0.0
 10
9.99999999999996
 20
10.10999974382964
 30
0.0
 10
9.99999999999996
 20
10.95472395409286
 30
0.0
 10
10.00000000000011
 20
11.61737742406968
 30
0.0
 10
9.999999999999988
 20
11.98329108540717
 30
0.0
 10
9.99999999999996
 20
12.09712310098939
 30
0.0
  0
SPLINE
  5
CE
330
1F
100
AcDbEntity
  8
외형선
  6
Continuous
370
    15
100
AcDbSpline
210
0.0
220
0.0
230
1.0
 70
    24
 71
     3
 72
    12
 73
     8
 74
     0
 42
0.000000001
 43
0.00000001
 40
0.0
 40
0.0
 40
0.0
 40
0.0
 40
0.2312373071319715
 40
0.4624746142639432
 40
0.7214153688437852
 40
0.9803561234236277
 40
0.9999999999999999
 40
0.9999999999999999
 40
0.9999999999999999
 40
0.9999999999999999
 10
10.0
 20
-12.66968648120066
 30
0.0
 10
10.0
 20
-12.41556657881189
 30
0.0
 10
9.999999999999988
 20
-11.90732677403434
 30
0.0
 10
10.0
 20
-11.11041618633733
 30
0.0
 10
10.00000000000001
 20
-10.31441416442748
 30
0.0
 10
9.999999999999902
 20
-9.753644652701464
 30
0.0
 10
10.0
 20
-9.499464431994413
 30
0.0
 10
10.0
 20
-9.481541386982915
 30
0.0
  0
LINE
  5
CF
330
1F
100
AcDbEntity
  8
중심선
 62
     1
100
AcDbLine
 10
-56.5
 20
0.0010749287238931
 30
0.0
 11
63.80000000000002
 21
0.0010749287239044
 31
0.0
  0
LINE
  5
D0
330
1F
100
AcDbEntity
  8
참조1
100
AcDbLine
 10
3.650000000000006
 20
0.0010749287238892
 30
0.0
 11
3.650000000000009
 21
-39.99892507127611
 31
0.0
  0
LINE
  5
D1
330
1F
100
AcDbEntity
  8
참조1
100
AcDbLine
 10
3.650000000000009
 20
-39.99892507127611
 30
0.0
 11
-19.44635681430869
 21
-39.9989250712761
 31
0.0
  0
CIRCLE
  5
D2
330
1F
100
AcDbEntity
  8
해칭선
100
AcDbCircle
 10
0.0
 20
0.0
 30
0.0
 40
3.000000000000001
  0
INSERT
  5
D3
330
1F
100
AcDbEntity
  8
0
  6
Continuous
 62
     7
100
AcDbBlockReference
 66
     1
  2
블럭10
 10
-10.2902729321252
 20
-52.04609937292004
 30
0.0
  0
ATTRIB
  5
D4
330
D3
100
AcDbEntity
  8
FORMAT
 62
     2
100
AcDbText
 10
-19.35789471269921
 20
-49.97073246008785
 30
0.0
 40
4.233333333333333
  1
EE882064 [ 6 FLUTE ]
 41
0.75
  7
SLDTEXTSTYLE0
 11
-19.35789471269921
 21
-52.08739912675452
 31
0.0
100
AcDbAttribute
  2
AUTOATTR0
 70
     0
 74
     1
  0
SEQEND
  5
D5
330
D3
100
AcDbEntity
  8
0
  6
Continuous
 62
     7
  0
HATCH
  5
D6
330
1F
100
AcDbEntity
  8
중심선
100
AcDbHatch
 10
0.0
 20
0.0
 30
0.0
210
0.0
220
0.0
230
1.0
  2
SOLID
 70
     1
 71
     0
 91
        1
 92
        0
 93
        4
 72
     1
 10
-4.575363627744364
 20
-35.7989250712761
 11
-8.021638871581647
 21
-35.7989250712761
 72
     1
 10
-8.021638871581647
 20
-35.7989250712761
 11
-10.1498687307857
 21
-38.3352506518487
 72
     1
 10
-10.1498687307857
 20
-38.3352506518487
 11
-6.703560401835237
 21
-38.33521122254621
 72
     1
 10
-6.703560401835237
 20
-38.33521122254621
 11
-4.575363627744364
 21
-35.7989250712761
 97
        0
 75
     0
 76
     1
 98
        1
 10
-6.350000000000003
 20
0.0
  0
HATCH
  5
D7
330
1F
100
AcDbEntity
  8
중심선
100
AcDbHatch
 10
0.0
 20
0.0
 30
0.0
210
0.0
220
0.0
230
1.0
  2
SOLID
 70
     1
 71
     0
 91
        1
 92
        0
 93
        4
 72
     1
 10
0.4374003632915873
 20
-35.79892507127608
 11
-3.008874880545696
 21
-35.79892507127613
 72
     1
 10
-3.008874880545696
 20
-35.79892507127613
 11
-7.540012888903084
 21
-41.19892507127612
 72
     1
 10
-7.540012888903084
 20
-41.19892507127612
 11
-4.093737645065801
 21
-41.19892507127612
 72
     1
 10
-4.093737645065801
 20
-41.19892507127612
 11
0.4374003632915873
 21
-35.79892507127608
 97
        0
 75
     0
 76
     1
 98
        1
 10
-6.350000000000003
 20
0.0
  0
HATCH
  5
D8
330
1F
100
AcDbEntity
  8
중심선
100
AcDbHatch
 10
0.0
 20
0.0
 30
0.0
210
0.0
220
0.0
230
1.0
  2
SOLID
 70
     1
 71
     0
 91
        1
 92
        0
 93
        4
 72
     1
 10
5.450164354327482
 20
-35.79892507127608
 11
2.003889110490395
 21
-35.7989250712761
 72
     1
 10
2.003889110490395
 20
-35.7989250712761
 11
-5.044547791398882
 21
-44.19892507127612
 72
     1
 10
-5.044547791398882
 20
-44.19892507127612
 11
-1.598272547561599
 21
-44.19892507127612
 72
     1
 10
-1.598272547561599
 20
-44.19892507127612
 11
5.450164354327482
 21
-35.79892507127608
 97
        0
 75
     0
 76
     1
 98
        1
 10
-6.350000000000003
 20
0.0
  0
HATCH
  5
D9
330
1F
100
AcDbEntity
  8
중심선
100
AcDbHatch
 10
0.0
 20
0.0
 30
0.0
210
0.0
220
0.0
230
1.0
  2
SOLID
 70
     1
 71
     0
 91
        1
 92
        0
 93
        6
 72
     3
 10
10.25005478533968
 20
-39.99892507132738
 11
3.960054785062283
 21
1.540882976769353E-10
 40
0.3939339440162628
 50
17.09539180608436
 51
320.0019657685078
 73
     0
 72
     1
 10
11.93305444104031
 20
-38.58681907591438
 11
14.23835631474134
 21
-36.65249236586646
 72
     3
 10
10.25005478528684
 20
-39.99892507127625
 11
6.600054785286828
 21
-1.278976924368180E-13
 40
0.6363583540795982
 50
39.99873849337413
 51
368.4976242363724
 73
     1
 72
     1
 10
16.67538727718745
 20
-39.03892507120613
 11
8.93012209212276
 21
-39.03892507120613
 72
     1
 10
8.930122092122758
 20
-39.03892507120613
 11
8.930097047676824
 21
-40.95892507120602
 72
     1
 10
8.930097047676824
 20
-40.95892507120602
 11
13.37147681714886
 21
-40.95892507120599
 97
        0
 75
     0
 76
     1
 98
        1
 10
-6.350000000000003
 20
0.0
  0
DIMENSION
  5
DA
330
1F
100
AcDbEntity
  8
치수문자_일반주서
100
AcDbDimension
  2
_D
 10
73.53531097996299
 20
-12.69892507127606
 30
0.0
 11
73.53531097996294
 21
0.001074928723896
 31
0.0
 70
   160
  1
%%c<>
 71
     2
 42
25.40000000000001
 52
-270.0
  3
SLDDIMSTYLE0
100
AcDbAlignedDimension
 13
60.8
 23
12.70107492872391
 33
0.0
 14
60.8
 24
-12.6989250712761
 34
0.0
 50
90.0000000000002
100
AcDbRotatedDimension
1001
PE_URL
1000

1001
ACAD
1000
DSTYLE
1002
{
1070
   171
1070
     6
1070
   273
1070
     7
1002
}
  0
DIMENSION
  5
EF
330
1F
100
AcDbEntity
  8
치수문자_일반주서
100
AcDbDimension
  2
_D_1
 10
-65.86500000000001
 20
-12.69892507127614
 30
0.0
 11
-65.86500000000005
 21
0.001074928723887
 31
0.0
 70
   160
  1
%%c<>
 71
     2
 42
25.39999999999998
 52
-270.0
  3
SLDDIMSTYLE0
100
AcDbAlignedDimension
 13
-50.96000000000003
 23
12.70107492872389
 33
0.0
 14
-50.96000000000003
 24
-12.69892507127609
 34
0.0
 50
90.0000000000002
100
AcDbRotatedDimension
1001
ACAD
1000
DSTYLE
1002
{
1070
   171
1070
     6
1070
   273
1070
     7
1002
}
  0
DIMENSION
  5
103
330
1F
100
AcDbEntity
  8
치수문자_일반주서
100
AcDbDimension
  2
_D_2
 10
10.0
 20
43.21001978839926
 30
0.0
 11
35.39999999999999
 21
43.21001978839926
 31
0.0
 70
   160
  1
<>
 71
     2
 42
50.8
  3
SLDDIMSTYLE0
100
AcDbAlignedDimension
 13
60.8
 23
12.608397325209
 33
0.0
 14
10.0
 24
12.67183633864846
 34
0.0
100
AcDbRotatedDimension
1001
PE_URL
1000

1001
ACAD
1000
DSTYLE
1002
{
1070
   171
1070
     6
1070
   273
1070
     7
1002
}
  0
DIMENSION
  5
117
330
1F
100
AcDbEntity
  8
치수문자_일반주서
100
AcDbDimension
  2
_D_3
 10
-53.50000000000002
 20
55.21001978839928
 30
0.0
 11
3.649999999999991
 21
55.21001978839928
 31
0.0
 70
   160
  1
<>
 71
     2
 42
114.3
  3
SLDDIMSTYLE0
100
AcDbAlignedDimension
 13
60.8
 23
12.608397325209
 33
0.0
 14
-53.50000000000001
 24
10.16107492872391
 34
0.0
100
AcDbRotatedDimension
1001
PE_URL
1000

1001
ACAD
1000
DSTYLE
1002
{
1070
   171
1070
     6
1070
   273
1070
     7
1002
}
  0
LINE
  5
12A
330
1F
100
AcDbEntity
  8
참조1
100
AcDbLine
 10
78.52598381534558
 20
7.441074928723896
 30
0.0
 11
78.52598381534558
 21
-7.438925071276109
 31
0.0
  0
LINE
  5
12B
330
1F
100
AcDbEntity
  8
참조1
100
AcDbLine
 10
91.22598381534559
 20
5.441074928723896
 30
0.0
 11
78.52598381534558
 21
5.441074928723896
 31
0.0
  0
SOLID
  5
12C
330
1F
100
AcDbEntity
  8
참조1
100
AcDbTrace
 10
78.52598381534558
 20
5.441074928723896
 30
0.0
 11
84.87598381534558
 21
4.425074928723896
 31
0.0
 12
84.87598381534558
 22
6.457074928723896
 32
0.0
 13
84.87598381534558
 23
6.457074928723896
 33
0.0
  0
LINE
  5
12D
330
1F
100
AcDbEntity
  8
참조1
100
AcDbLine
 10
91.22598381534559
 20
-5.438925071276109
 30
0.0
 11
78.52598381534558
 21
-5.438925071276109
 31
0.0
  0
SOLID
  5
12E
330
1F
100
AcDbEntity
  8
참조1
100
AcDbTrace
 10
78.52598381534558
 20
-5.438925071276109
 30
0.0
 11
84.87598381534558
 21
-6.454925071276109
 31
0.0
 12
84.87598381534558
 22
-4.422925071276109
 32
0.0
 13
84.87598381534558
 23
-4.422925071276109
 33
0.0
  0
MTEXT
  5
12F
330
1F
100
AcDbEntity
  8
참조1
100
AcDbMText
 10
87.92347390781585
 20
10.98929157337383
 30
0.0
 40
3.5
 41
0.0
 71
     1
 72
     1
  1
A
  7
SLDTEXTSTYLE0
 73
     1
 44
1.0
  0
MTEXT
  5
130
330
1F
100
AcDbEntity
  8
참조1
100
AcDbMText
 10
87.92347390781585
 20
0.1092915733738259
 30
0.0
 40
3.5
 41
0.0
 71
     1
 72
     1
  1
A
  7
SLDTEXTSTYLE0
 73
     1
 44
1.0
  0
INSERT
  5
137
330
1F
100
AcDbEntity
  8
해칭선
100
AcDbBlockReference
  2
SW_DOWELSYMBOL_0
 10
0.0
 20
0.0
 30
0.0
  0
LINE
  5
1BD
330
1F
100
AcDbEntity
  8
외형선
  6
Continuous
370
    15
100
AcDbLine
 10
-38.89500000000001
 20
12.70107492872391
 30
0.0
 11
-32.98632499999988
 21
12.70107492872391
 31
0.0
  0
LINE
  5
1BE
330
1F
100
AcDbEntity
  8
외형선
  6
Continuous
370
    15
100
AcDbLine
 10
-31.08132499999991
 20
10.7960749287239
 30
0.0
 11
-17.97492500000001
 21
10.7960749287239
 31
0.0
  0
LINE
  5
1BF
330
1F
100
AcDbEntity
  8
외형선
  6
Continuous
370
    15
100
AcDbLine
 10
-31.08132499999991
 20
10.79607492872392
 30
0.0
 11
-32.98632499999988
 21
12.70107492872391
 31
0.0
  0
LINE
  5
1C0
330
1F
100
AcDbEntity
  8
외형선
  6
Continuous
370
    15
100
AcDbLine
 10
-53.5
 20
10.7960749287239
 30
0.0
 11
-40.79999999999998
 21
10.7960749287239
 31
0.0
  0
LINE
  5
1C1
330
1F
100
AcDbEntity
  8
외형선
  6
Continuous
370
    15
100
AcDbLine
 10
-40.79999999999998
 20
10.79607492872392
 30
0.0
 11
-38.89500000000001
 21
12.70107492872389
 31
0.0
  0
LINE
  5
1C2
330
1F
100
AcDbEntity
  8
외형선
  6
Continuous
370
    15
100
AcDbLine
 10
-17.97492500000001
 20
10.79607492872392
 30
0.0
 11
-16.06992499999998
 21
12.70107492872391
 31
0.0
  0
LINE
  5
1C3
330
1F
100
AcDbEntity
  8
외형선
  6
Continuous
370
    15
100
AcDbLine
 10
-32.98632499999987
 20
12.7010749287239
 30
0.0
 11
-38.895
 21
12.7010749287239
 31
0.0
  0
ENDSEC
  0
SECTION
  2
OBJECTS
  0
DICTIONARY
  5
C
330
0
100
AcDbDictionary
281
     1
  3
ACAD_GROUP
350
D
  3
ACAD_IMAGE_VARS
350
17F
  3
ACAD_LAYOUT
350
1A
  3
ACAD_MLINESTYLE
350
17
  3
ACAD_PLOTSETTINGS
350
19
  3
ACAD_PLOTSTYLENAME
350
E
  3
ACAD_SCALELIST
350
47
  3
APPDATA
350
159
  3
DWGPROPS
350
1C5
  0
DICTIONARY
  5
1AD
330
2
100
AcDbDictionary
280
     1
281
     1
  3
ACAD_LAYERSTATES
360
1AE
  0
DICTIONARY
  5
D
102
{ACAD_REACTORS
330
C
102
}
330
C
100
AcDbDictionary
281
     1
  0
RASTERVARIABLES
  5
17F
102
{ACAD_REACTORS
330
C
102
}
330
C
100
AcDbRasterVariables
 90
        0
 70
     1
 71
     1
 72
     1
  0
DICTIONARY
  5
1A
102
{ACAD_REACTORS
330
C
102
}
330
C
100
AcDbDictionary
281
     1
  3
Layout1
350
1E
  3
Layout2
350
26
  3
Model
350
22
  0
DICTIONARY
  5
17
102
{ACAD_REACTORS
330
C
102
}
330
C
100
AcDbDictionary
281
     1
  3
Standard
350
18
  0
DICTIONARY
  5
19
102
{ACAD_REACTORS
330
C
102
}
330
C
100
AcDbDictionary
281
     1
  0
ACDBDICTIONARYWDFLT
  5
E
102
{ACAD_REACTORS
330
C
102
}
330
C
100
AcDbDictionary
281
     1
  3
Normal
350
F
100
AcDbDictionaryWithDefault
340
F
  0
DICTIONARY
  5
47
102
{ACAD_REACTORS
330
C
102
}
330
C
100
AcDbDictionary
281
     1
  3
A0
350
48
  3
A1
350
49
  3
A2
350
4A
  3
A3
350
4B
  3
A4
350
4C
  3
A5
350
4D
  3
A6
350
4E
  3
A7
350
4F
  3
A8
350
50
  3
A9
350
51
  3
B0
350
52
  3
B1
350
53
  3
B2
350
54
  3
B3
350
55
  3
B4
350
56
  3
B5
350
57
  3
B6
350
58
  3
B7
350
59
  3
B8
350
5A
  3
B9
350
5B
  3
C0
350
5C
  3
C1
350
5D
  3
C2
350
5E
  3
C3
350
5F
  3
C4
350
60
  3
C5
350
61
  3
C6
350
62
  3
C7
350
63
  3
C8
350
64
  3
C9
350
65
  3
D0
350
66
  3
D1
350
67
  3
D2
350
68
  0
DICTIONARY
  5
159
102
{ACAD_REACTORS
330
C
102
}
330
C
100
AcDbDictionary
281
     1
  0
XRECORD
  5
1C5
102
{ACAD_REACTORS
330
C
102
}
330
C
100
AcDbXrecord
280
     1
  1
DWGPROPS COOKIE
  2

  3

  4

  6

  7

  8
12016016
  9

300
=
301
=
302
=
303
=
304
=
305
=
306
=
307
=
308
=
309
=
 40
0.0
 41
2458292.269787373
 42
2458302.053979468
  1

 90
        0
  0
DICTIONARY
  5
1AE
102
{ACAD_REACTORS
330
1AD
102
}
330
1AD
100
AcDbDictionary
281
     1
  0
LAYOUT
  5
1E
102
{ACAD_REACTORS
330
1A
102
}
330
1A
100
AcDbPlotSettings
  1

  2
none_device
  4

  6

 40
0.0
 41
0.0
 42
0.0
 43
0.0
 44
0.0
 45
0.0
 46
0.0
 47
0.0
 48
0.0
 49
0.0
140
0.0
141
0.0
142
1.0
143
1.0
 70
   688
 72
     1
 73
     0
 74
     5
  7

 75
    16
147
1.0
148
0.0
149
0.0
100
AcDbLayout
  1
Layout1
 70
     1
 71
     1
 10
0.0
 20
0.0
 11
420.0
 21
297.0
 12
0.0
 22
0.0
 32
0.0
 14
1.000000000000000E+20
 24
1.000000000000000E+20
 34
1.000000000000000E+20
 15
-1.000000000000000E+20
 25
-1.000000000000000E+20
 35
-1.000000000000000E+20
146
0.0
 13
0.0
 23
0.0
 33
0.0
 16
1.0
 26
0.0
 36
0.0
 17
0.0
 27
1.0
 37
0.0
 76
     0
330
1B
  0
LAYOUT
  5
26
102
{ACAD_REACTORS
330
1A
102
}
330
1A
100
AcDbPlotSettings
  1

  2
none_device
  4

  6

 40
0.0
 41
0.0
 42
0.0
 43
0.0
 44
0.0
 45
0.0
 46
0.0
 47
0.0
 48
0.0
 49
0.0
140
0.0
141
0.0
142
1.0
143
1.0
 70
   688
 72
     1
 73
     0
 74
     5
  7

 75
    16
147
1.0
148
0.0
149
0.0
100
AcDbLayout
  1
Layout2
 70
     1
 71
     2
 10
0.0
 20
0.0
 11
0.0
 21
0.0
 12
0.0
 22
0.0
 32
0.0
 14
0.0
 24
0.0
 34
0.0
 15
0.0
 25
0.0
 35
0.0
146
0.0
 13
0.0
 23
0.0
 33
0.0
 16
1.0
 26
0.0
 36
0.0
 17
0.0
 27
1.0
 37
0.0
 76
     0
330
23
  0
LAYOUT
  5
22
102
{ACAD_REACTORS
330
1A
102
}
330
1A
100
AcDbPlotSettings
  1

  2
none_device
  4
ANSI_A_(11.00_x_8.50_Inches)
  6

 40
6.35
 41
19.05
 42
6.35000508
 43
19.05000254
 44
279.4
 45
215.9
 46
110.886490840689
 47
76.30555211535018
 48
0.0
 49
0.0
140
0.0
141
0.0
142
0.0648662691053176
143
1.0
 70
  1696
 72
     0
 73
     0
 74
     0
  7

 75
     0
147
0.0235690232323232
148
0.0
149
0.0
100
AcDbLayout
  1
Model
 70
     1
 71
     0
 10
0.0
 20
0.0
 11
420.0
 21
297.0
 12
0.0
 22
0.0
 32
0.0
 14
1.000000000000000E+20
 24
1.000000000000000E+20
 34
1.000000000000000E+20
 15
-1.000000000000000E+20
 25
-1.000000000000000E+20
 35
-1.000000000000000E+20
146
0.0
 13
0.0
 23
0.0
 33
0.0
 16
1.0
 26
0.0
 36
0.0
 17
0.0
 27
1.0
 37
0.0
 76
     0
330
1F
331
29
  0
MLINESTYLE
  5
18
102
{ACAD_REACTORS
330
17
102
}
330
17
100
AcDbMlineStyle
  2
Standard
 70
     0
  3

 62
   256
 51
90.0
 52
90.0
 71
     2
 49
0.5
 62
   256
  6
BYLAYER
 49
-0.5
 62
   256
  6
BYLAYER
  0
ACDBPLACEHOLDER
  5
F
102
{ACAD_REACTORS
330
E
102
}
330
E
  0
SCALE
  5
48
102
{ACAD_REACTORS
330
47
102
}
330
47
100
AcDbScale
 70
     0
300
1:1
140
1.0
141
1.0
290
     1
  0
SCALE
  5
49
102
{ACAD_REACTORS
330
47
102
}
330
47
100
AcDbScale
 70
     0
300
1:2
140
1.0
141
2.0
290
     0
  0
SCALE
  5
4A
102
{ACAD_REACTORS
330
47
102
}
330
47
100
AcDbScale
 70
     0
300
1:4
140
1.0
141
4.0
290
     0
  0
SCALE
  5
4B
102
{ACAD_REACTORS
330
47
102
}
330
47
100
AcDbScale
 70
     0
300
1:5
140
1.0
141
5.0
290
     0
  0
SCALE
  5
4C
102
{ACAD_REACTORS
330
47
102
}
330
47
100
AcDbScale
 70
     0
300
1:8
140
1.0
141
8.0
290
     0
  0
SCALE
  5
4D
102
{ACAD_REACTORS
330
47
102
}
330
47
100
AcDbScale
 70
     0
300
1:10
140
1.0
141
10.0
290
     0
  0
SCALE
  5
4E
102
{ACAD_REACTORS
330
47
102
}
330
47
100
AcDbScale
 70
     0
300
1:16
140
1.0
141
16.0
290
     0
  0
SCALE
  5
4F
102
{ACAD_REACTORS
330
47
102
}
330
47
100
AcDbScale
 70
     0
300
1:20
140
1.0
141
20.0
290
     0
  0
SCALE
  5
50
102
{ACAD_REACTORS
330
47
102
}
330
47
100
AcDbScale
 70
     0
300
1:30
140
1.0
141
30.0
290
     0
  0
SCALE
  5
51
102
{ACAD_REACTORS
330
47
102
}
330
47
100
AcDbScale
 70
     0
300
1:40
140
1.0
141
40.0
290
     0
  0
SCALE
  5
52
102
{ACAD_REACTORS
330
47
102
}
330
47
100
AcDbScale
 70
     0
300
1:50
140
1.0
141
50.0
290
     0
  0
SCALE
  5
53
102
{ACAD_REACTORS
330
47
102
}
330
47
100
AcDbScale
 70
     0
300
1:100
140
1.0
141
100.0
290
     0
  0
SCALE
  5
54
102
{ACAD_REACTORS
330
47
102
}
330
47
100
AcDbScale
 70
     0
300
2:1
140
2.0
141
1.0
290
     0
  0
SCALE
  5
55
102
{ACAD_REACTORS
330
47
102
}
330
47
100
AcDbScale
 70
     0
300
4:1
140
4.0
141
1.0
290
     0
  0
SCALE
  5
56
102
{ACAD_REACTORS
330
47
102
}
330
47
100
AcDbScale
 70
     0
300
8:1
140
8.0
141
1.0
290
     0
  0
SCALE
  5
57
102
{ACAD_REACTORS
330
47
102
}
330
47
100
AcDbScale
 70
     0
300
10:1
140
10.0
141
1.0
290
     0
  0
SCALE
  5
58
102
{ACAD_REACTORS
330
47
102
}
330
47
100
AcDbScale
 70
     0
300
100:1
140
100.0
141
1.0
290
     0
  0
SCALE
  5
59
102
{ACAD_REACTORS
330
47
102
}
330
47
100
AcDbScale
 70
     0
300
1/128" = 1'-0"
140
0.0078125
141
12.0
290
     0
  0
SCALE
  5
5A
102
{ACAD_REACTORS
330
47
102
}
330
47
100
AcDbScale
 70
     0
300
1/64" = 1'-0"
140
0.015625
141
12.0
290
     0
  0
SCALE
  5
5B
102
{ACAD_REACTORS
330
47
102
}
330
47
100
AcDbScale
 70
     0
300
1/32" = 1'-0"
140
0.03125
141
12.0
290
     0
  0
SCALE
  5
5C
102
{ACAD_REACTORS
330
47
102
}
330
47
100
AcDbScale
 70
     0
300
1/16" = 1'-0"
140
0.0625
141
12.0
290
     0
  0
SCALE
  5
5D
102
{ACAD_REACTORS
330
47
102
}
330
47
100
AcDbScale
 70
     0
300
3/32" = 1'-0"
140
0.09375
141
12.0
290
     0
  0
SCALE
  5
5E
102
{ACAD_REACTORS
330
47
102
}
330
47
100
AcDbScale
 70
     0
300
1/8" = 1'-0"
140
0.125
141
12.0
290
     0
  0
SCALE
  5
5F
102
{ACAD_REACTORS
330
47
102
}
330
47
100
AcDbScale
 70
     0
300
3/16" = 1'-0"
140
0.1875
141
12.0
290
     0
  0
SCALE
  5
60
102
{ACAD_REACTORS
330
47
102
}
330
47
100
AcDbScale
 70
     0
300
1/4" = 1'-0"
140
0.25
141
12.0
290
     0
  0
SCALE
  5
61
102
{ACAD_REACTORS
330
47
102
}
330
47
100
AcDbScale
 70
     0
300
3/8" = 1'-0"
140
0.375
141
12.0
290
     0
  0
SCALE
  5
62
102
{ACAD_REACTORS
330
47
102
}
330
47
100
AcDbScale
 70
     0
300
1/2" = 1'-0"
140
0.5
141
12.0
290
     0
  0
SCALE
  5
63
102
{ACAD_REACTORS
330
47
102
}
330
47
100
AcDbScale
 70
     0
300
3/4" = 1'-0"
140
0.75
141
12.0
290
     0
  0
SCALE
  5
64
102
{ACAD_REACTORS
330
47
102
}
330
47
100
AcDbScale
 70
     0
300
1" = 1'-0"
140
1.0
141
12.0
290
     0
  0
SCALE
  5
65
102
{ACAD_REACTORS
330
47
102
}
330
47
100
AcDbScale
 70
     0
300
1-1/2" = 1'-0"
140
1.5
141
12.0
290
     0
  0
SCALE
  5
66
102
{ACAD_REACTORS
330
47
102
}
330
47
100
AcDbScale
 70
     0
300
3" = 1'-0"
140
3.0
141
12.0
290
     0
  0
SCALE
  5
67
102
{ACAD_REACTORS
330
47
102
}
330
47
100
AcDbScale
 70
     0
300
6" = 1'-0"
140
6.0
141
12.0
290
     0
  0
SCALE
  5
68
102
{ACAD_REACTORS
330
47
102
}
330
47
100
AcDbScale
 70
     0
300
1'-0" = 1'-0"
140
12.0
141
12.0
290
     0
  0
ENDSEC
  0
EOF
