  0
SECTION
  2
HEADER
  9
$ACADVER
  1
AC1015
  9
$ACADMAINTVER
 70
     6
  9
$DWGCODEPAGE
  3
ANSI_949
  9
$INSBASE
 10
0.0
 20
0.0
 30
0.0
  9
$EXTMIN
 10
1.000000000000000E+20
 20
1.000000000000000E+20
 30
1.000000000000000E+20
  9
$EXTMAX
 10
-1.000000000000000E+20
 20
-1.000000000000000E+20
 30
-1.000000000000000E+20
  9
$LIMMIN
 10
0.0
 20
0.0
  9
$LIMMAX
 10
420.0
 20
297.0
  9
$ORTHOMODE
 70
     1
  9
$REGENMODE
 70
     1
  9
$FILLMODE
 70
     1
  9
$QTEXTMODE
 70
     0
  9
$MIRRTEXT
 70
     1
  9
$LTSCALE
 40
1.0
  9
$ATTMODE
 70
     1
  9
$TEXTSIZE
 40
3.5
  9
$TRACEWID
 40
1.0
  9
$TEXTSTYLE
  7
Standard
  9
$CLAYER
  8
0
  9
$CELTYPE
  6
ByLayer
  9
$CECOLOR
 62
   256
  9
$CELTSCALE
 40
1.0
  9
$DISPSILH
 70
     0
  9
$DIMSCALE
 40
1.0
  9
$DIMASZ
 40
3.302
  9
$DIMEXO
 40
1.0
  9
$DIMDLI
 40
3.75
  9
$DIMRND
 40
0.0
  9
$DIMDLE
 40
0.0
  9
$DIMEXE
 40
1.0
  9
$DIMTP
 40
0.0
  9
$DIMTM
 40
0.0
  9
$DIMTXT
 40
3.5
  9
$DIMCEN
 40
2.5
  9
$DIMTSZ
 40
0.0
  9
$DIMTOL
 70
     0
  9
$DIMLIM
 70
     0
  9
$DIMTIH
 70
     1
  9
$DIMTOH
 70
     1
  9
$DIMSE1
 70
     0
  9
$DIMSE2
 70
     0
  9
$DIMTAD
 70
     1
  9
$DIMZIN
 70
     0
  9
$DIMBLK
  1

  9
$DIMASO
 70
     1
  9
$DIMSHO
 70
     1
  9
$DIMPOST
  1

  9
$DIMAPOST
  1

  9
$DIMALT
 70
     0
  9
$DIMALTD
 70
     3
  9
$DIMALTF
 40
0.0393700787401575
  9
$DIMLFAC
 40
1.0
  9
$DIMTOFL
 70
     1
  9
$DIMTVP
 40
0.0
  9
$DIMTIX
 70
     0
  9
$DIMSOXD
 70
     0
  9
$DIMSAH
 70
     0
  9
$DIMBLK1
  1

  9
$DIMBLK2
  1

  9
$DIMSTYLE
  2
ISO-25
  9
$DIMCLRD
 70
     0
  9
$DIMCLRE
 70
     0
  9
$DIMCLRT
 70
     0
  9
$DIMTFAC
 40
1.0
  9
$DIMGAP
 40
1.524
  9
$DIMJUST
 70
     0
  9
$DIMSD1
 70
     0
  9
$DIMSD2
 70
     0
  9
$DIMTOLJ
 70
     0
  9
$DIMTZIN
 70
     0
  9
$DIMALTZ
 70
     0
  9
$DIMALTTZ
 70
     0
  9
$DIMUPT
 70
     0
  9
$DIMDEC
 70
     2
  9
$DIMTDEC
 70
     2
  9
$DIMALTU
 70
     2
  9
$DIMALTTD
 70
     3
  9
$DIMTXSTY
  7
Standard
  9
$DIMAUNIT
 70
     0
  9
$DIMADEC
 70
     2
  9
$DIMALTRND
 40
0.0
  9
$DIMAZIN
 70
     0
  9
$DIMDSEP
 70
    44
  9
$DIMATFIT
 70
     3
  9
$DIMFRAC
 70
     0
  9
$DIMLDRBLK
  1

  9
$DIMLUNIT
 70
     2
  9
$DIMLWD
 70
    -2
  9
$DIMLWE
 70
    -2
  9
$DIMTMOVE
 70
     0
  9
$LUNITS
 70
     2
  9
$LUPREC
 70
     2
  9
$SKETCHINC
 40
1.0
  9
$FILLETRAD
 40
10.0
  9
$AUNITS
 70
     0
  9
$AUPREC
 70
     2
  9
$MENU
  1
.
  9
$ELEVATION
 40
0.0
  9
$PELEVATION
 40
0.0
  9
$THICKNESS
 40
0.0
  9
$LIMCHECK
 70
     0
  9
$CHAMFERA
 40
0.0
  9
$CHAMFERB
 40
0.0
  9
$CHAMFERC
 40
0.0
  9
$CHAMFERD
 40
0.0
  9
$SKPOLY
 70
     0
  9
$TDCREATE
 40
2458292.644598333
  9
$TDUCREATE
 40
2458292.269598333
  9
$TDUPDATE
 40
2458302.431947558
  9
$TDUUPDATE
 40
2458302.056947558
  9
$TDINDWG
 40
0.0010418519
  9
$TDUSRTIMER
 40
2458302.056707535
  9
$USRTIMER
 70
     1
  9
$ANGBASE
 50
0.0
  9
$ANGDIR
 70
     0
  9
$PDMODE
 70
     0
  9
$PDSIZE
 40
-1.0
  9
$PLINEWID
 40
0.0
  9
$SPLFRAME
 70
     0
  9
$SPLINETYPE
 70
     6
  9
$SPLINESEGS
 70
     8
  9
$HANDSEED
  5
1CE
  9
$SURFTAB1
 70
     6
  9
$SURFTAB2
 70
     6
  9
$SURFTYPE
 70
     6
  9
$SURFU
 70
     6
  9
$SURFV
 70
     6
  9
$UCSBASE
  2

  9
$UCSNAME
  2

  9
$UCSORG
 10
0.0
 20
0.0
 30
0.0
  9
$UCSXDIR
 10
1.0
 20
0.0
 30
0.0
  9
$UCSYDIR
 10
0.0
 20
1.0
 30
0.0
  9
$UCSORTHOREF
  2

  9
$UCSORTHOVIEW
 70
     0
  9
$UCSORGTOP
 10
0.0
 20
0.0
 30
0.0
  9
$UCSORGBOTTOM
 10
0.0
 20
0.0
 30
0.0
  9
$UCSORGLEFT
 10
0.0
 20
0.0
 30
0.0
  9
$UCSORGRIGHT
 10
0.0
 20
0.0
 30
0.0
  9
$UCSORGFRONT
 10
0.0
 20
0.0
 30
0.0
  9
$UCSORGBACK
 10
0.0
 20
0.0
 30
0.0
  9
$PUCSBASE
  2

  9
$PUCSNAME
  2

  9
$PUCSORG
 10
0.0
 20
0.0
 30
0.0
  9
$PUCSXDIR
 10
1.0
 20
0.0
 30
0.0
  9
$PUCSYDIR
 10
0.0
 20
1.0
 30
0.0
  9
$PUCSORTHOREF
  2

  9
$PUCSORTHOVIEW
 70
     0
  9
$PUCSORGTOP
 10
0.0
 20
0.0
 30
0.0
  9
$PUCSORGBOTTOM
 10
0.0
 20
0.0
 30
0.0
  9
$PUCSORGLEFT
 10
0.0
 20
0.0
 30
0.0
  9
$PUCSORGRIGHT
 10
0.0
 20
0.0
 30
0.0
  9
$PUCSORGFRONT
 10
0.0
 20
0.0
 30
0.0
  9
$PUCSORGBACK
 10
0.0
 20
0.0
 30
0.0
  9
$USERI1
 70
     0
  9
$USERI2
 70
     0
  9
$USERI3
 70
     0
  9
$USERI4
 70
     0
  9
$USERI5
 70
     0
  9
$USERR1
 40
0.0
  9
$USERR2
 40
0.0
  9
$USERR3
 40
0.0
  9
$USERR4
 40
0.0
  9
$USERR5
 40
0.0
  9
$WORLDVIEW
 70
     1
  9
$SHADEDGE
 70
     3
  9
$SHADEDIF
 70
    70
  9
$TILEMODE
 70
     1
  9
$MAXACTVP
 70
    64
  9
$PINSBASE
 10
0.0
 20
0.0
 30
0.0
  9
$PLIMCHECK
 70
     0
  9
$PEXTMIN
 10
1.000000000000000E+20
 20
1.000000000000000E+20
 30
1.000000000000000E+20
  9
$PEXTMAX
 10
-1.000000000000000E+20
 20
-1.000000000000000E+20
 30
-1.000000000000000E+20
  9
$PLIMMIN
 10
0.0
 20
0.0
  9
$PLIMMAX
 10
0.0
 20
0.0
  9
$UNITMODE
 70
     0
  9
$VISRETAIN
 70
     1
  9
$PLINEGEN
 70
     0
  9
$PSLTSCALE
 70
     1
  9
$TREEDEPTH
 70
  3020
  9
$CMLSTYLE
  2
Standard
  9
$CMLJUST
 70
     0
  9
$CMLSCALE
 40
20.0
  9
$PROXYGRAPHICS
 70
     1
  9
$MEASUREMENT
 70
     1
  9
$CELWEIGHT
370
    -1
  9
$ENDCAPS
280
     0
  9
$JOINSTYLE
280
     0
  9
$LWDISPLAY
290
     1
  9
$INSUNITS
 70
     4
  9
$HYPERLINKBASE
  1

  9
$STYLESHEET
  1

  9
$XEDIT
290
     1
  9
$CEPSNTYPE
380
     0
  9
$PSTYLEMODE
290
     1
  9
$FINGERPRINTGUID
  2
{0C8C2B4B-90F3-499A-8363-F2F083C4E414}
  9
$VERSIONGUID
  2
{FAEB1C32-E019-11D5-929B-00C0DF256EC4}
  9
$EXTNAMES
290
     1
  9
$PSVPSCALE
 40
0.0
  9
$OLESTARTUP
290
     0
  0
ENDSEC
  0
SECTION
  2
CLASSES
  0
CLASS
  1
ACDBDICTIONARYWDFLT
  2
AcDbDictionaryWithDefault
  3
ObjectDBX Classes
 90
        0
280
     0
281
     0
  0
CLASS
  1
VISUALSTYLE
  2
AcDbVisualStyle
  3
ObjectDBX Classes
 90
     4095
280
     0
281
     0
  0
CLASS
  1
MATERIAL
  2
AcDbMaterial
  3
ObjectDBX Classes
 90
     1153
280
     0
281
     0
  0
CLASS
  1
SCALE
  2
AcDbScale
  3
ObjectDBX Classes
 90
     1153
280
     0
281
     0
  0
CLASS
  1
SUN
  2
AcDbSun
  3
SCENEOE
 90
     1153
280
     0
281
     0
  0
CLASS
  1
ACDBPLACEHOLDER
  2
AcDbPlaceHolder
  3
ObjectDBX Classes
 90
        0
280
     0
281
     0
  0
CLASS
  1
LAYOUT
  2
AcDbLayout
  3
ObjectDBX Classes
 90
        0
280
     0
281
     0
  0
CLASS
  1
TABLESTYLE
  2
AcDbTableStyle
  3
ObjectDBX Classes
 90
     4095
280
     0
281
     0
  0
CLASS
  1
MLEADERSTYLE
  2
AcDbMLeaderStyle
  3
ACDB_MLEADERSTYLE_CLASS
 90
     4095
280
     0
281
     0
  0
CLASS
  1
RASTERVARIABLES
  2
AcDbRasterVariables
  3
ISM
 90
        0
280
     0
281
     0
  0
ENDSEC
  0
SECTION
  2
TABLES
  0
TABLE
  2
VPORT
  5
8
330
0
100
AcDbSymbolTable
 70
     1
  0
VPORT
  5
29
330
8
100
AcDbSymbolTableRecord
100
AcDbViewportTableRecord
  2
*Active
 70
     0
 10
0.0
 20
0.0
 11
1.0
 21
1.0
 12
-19.95006336869406
 22
-96.71154182108349
 13
0.0
 23
0.0
 14
10.0
 24
10.0
 15
10.0
 25
10.0
 16
0.0
 26
0.0
 36
1.0
 17
0.0
 27
0.0
 37
0.0
 40
375.0776589691084
 41
1.540540540540541
 42
50.0
 43
0.0
 44
0.0
 50
0.0
 51
0.0
 71
    16
 72
  2000
 73
     1
 74
     3
 75
     0
 76
     0
 77
     0
 78
     0
281
     0
 65
     1
110
0.0
120
0.0
130
0.0
111
1.0
121
0.0
131
0.0
112
0.0
122
1.0
132
0.0
 79
     0
146
0.0
  0
ENDTAB
  0
TABLE
  2
LTYPE
  5
5
330
0
100
AcDbSymbolTable
 70
     6
  0
LTYPE
  5
14
330
5
100
AcDbSymbolTableRecord
100
AcDbLinetypeTableRecord
  2
ByBlock
 70
     0
  3

 72
    65
 73
     0
 40
0.0
  0
LTYPE
  5
15
330
5
100
AcDbSymbolTableRecord
100
AcDbLinetypeTableRecord
  2
ByLayer
 70
     0
  3

 72
    65
 73
     0
 40
0.0
  0
LTYPE
  5
16
330
5
100
AcDbSymbolTableRecord
100
AcDbLinetypeTableRecord
  2
Continuous
 70
     0
  3
Solid line
 72
    65
 73
     0
 40
0.0
  0
LTYPE
  5
6A
330
5
100
AcDbSymbolTableRecord
100
AcDbLinetypeTableRecord
  2
HIDDEN
 70
     0
  3
Hidden __ __ __ __ __ __ __ __ __ __ __ __ __ __
 72
    65
 73
     2
 40
1.905
 49
1.27
 74
     0
 49
-0.635
 74
     0
  0
LTYPE
  5
6B
330
5
100
AcDbSymbolTableRecord
100
AcDbLinetypeTableRecord
  2
PHANTOM
 70
     0
  3
Phantom ______  __  __  ______  __  __  ______
 72
    65
 73
     6
 40
12.7
 49
6.35
 74
     0
 49
-1.27
 74
     0
 49
1.27
 74
     0
 49
-1.27
 74
     0
 49
1.27
 74
     0
 49
-1.27
 74
     0
  0
LTYPE
  5
6C
330
5
100
AcDbSymbolTableRecord
100
AcDbLinetypeTableRecord
  2
CENTER
 70
     0
  3
Center ____ _ ____ _ ____ _ ____ _ ____ _ ____
 72
    65
 73
     4
 40
10.16
 49
6.35
 74
     0
 49
-1.27
 74
     0
 49
1.27
 74
     0
 49
-1.27
 74
     0
  0
LTYPE
  5
6D
330
5
100
AcDbSymbolTableRecord
100
AcDbLinetypeTableRecord
  2
CENTERX2
 70
     0
  3
Center (2x) ________  __  ________  __  _____
 72
    65
 73
     4
 40
20.32
 49
12.7
 74
     0
 49
-2.54
 74
     0
 49
2.54
 74
     0
 49
-2.54
 74
     0
  0
LTYPE
  5
6E
330
5
100
AcDbSymbolTableRecord
100
AcDbLinetypeTableRecord
  2
DOT2
 70
     0
  3
Dot (.5x) ........................................
 72
    65
 73
     2
 40
0.635
 49
0.0
 74
     0
 49
-0.635
 74
     0
  0
ENDTAB
  0
TABLE
  2
LAYER
  5
2
102
{ACAD_XDICTIONARY
360
1B7
102
}
330
0
100
AcDbSymbolTable
 70
    18
  0
LAYER
  5
10
330
2
100
AcDbSymbolTableRecord
100
AcDbLayerTableRecord
  2
0
 70
     0
 62
     7
  6
Continuous
370
    -3
390
F
  0
LAYER
  5
6F
330
2
100
AcDbSymbolTableRecord
100
AcDbLayerTableRecord
  2
FORMAT
 70
     0
 62
     2
  6
Continuous
370
    -3
390
F
  0
LAYER
  5
70
330
2
100
AcDbSymbolTableRecord
100
AcDbLayerTableRecord
  2
외형선
 70
     0
 62
     4
  6
Continuous
370
    30
390
F
  0
LAYER
  5
71
330
2
100
AcDbSymbolTableRecord
100
AcDbLayerTableRecord
  2
숨은선
 70
     0
 62
     2
  6
HIDDEN
370
    15
390
F
  0
LAYER
  5
72
330
2
100
AcDbSymbolTableRecord
100
AcDbLayerTableRecord
  2
중심선
 70
     0
 62
     1
  6
CENTERX2
370
    -3
390
F
  0
LAYER
  5
73
330
2
100
AcDbSymbolTableRecord
100
AcDbLayerTableRecord
  2
파단선
 70
     0
 62
     4
  6
Continuous
370
    -3
390
F
  0
LAYER
  5
74
330
2
100
AcDbSymbolTableRecord
100
AcDbLayerTableRecord
  2
해칭선
 70
     0
 62
   100
  6
Continuous
370
    -3
390
F
  0
LAYER
  5
75
330
2
100
AcDbSymbolTableRecord
100
AcDbLayerTableRecord
  2
가는실선
 70
     0
 62
     4
  6
Continuous
370
    -3
390
F
  0
LAYER
  5
76
330
2
100
AcDbSymbolTableRecord
100
AcDbLayerTableRecord
  2
치수_보조선
 70
     0
 62
     4
  6
Continuous
370
    -3
390
F
  0
LAYER
  5
77
330
2
100
AcDbSymbolTableRecord
100
AcDbLayerTableRecord
  2
치수문자_일반주서
 70
     0
 62
     7
  6
Continuous
370
    15
390
F
  0
LAYER
  5
78
330
2
100
AcDbSymbolTableRecord
100
AcDbLayerTableRecord
  2
개별주서
 70
     0
 62
   100
  6
Continuous
370
    30
390
F
  0
LAYER
  5
79
330
2
100
AcDbSymbolTableRecord
100
AcDbLayerTableRecord
  2
중간선
 70
     0
 62
     2
  6
Continuous
370
    15
390
F
  0
LAYER
  5
7A
330
2
100
AcDbSymbolTableRecord
100
AcDbLayerTableRecord
  2
윤곽선
 70
     0
 62
     3
  6
Continuous
370
    40
390
F
  0
LAYER
  5
7B
330
2
100
AcDbSymbolTableRecord
100
AcDbLayerTableRecord
  2
중심마크
 70
     0
 62
   100
  6
Continuous
370
    30
390
F
  0
LAYER
  5
7C
330
2
100
AcDbSymbolTableRecord
100
AcDbLayerTableRecord
  2
가상선
 70
     0
 62
     4
  6
PHANTOM
370
    -3
390
F
  0
LAYER
  5
7D
330
2
100
AcDbSymbolTableRecord
100
AcDbLayerTableRecord
  2
특수지정선
 70
     0
 62
     5
  6
CENTERX2
370
    60
390
F
  0
LAYER
  5
7E
330
2
100
AcDbSymbolTableRecord
100
AcDbLayerTableRecord
  2
참조1
 70
     0
 62
    -4
  6
Continuous
370
    -3
390
F
  0
LAYER
  5
162
330
2
100
AcDbSymbolTableRecord
100
AcDbLayerTableRecord
  2
Defpoints
 70
     0
 62
     7
  6
Continuous
290
     0
370
    -3
390
F
  0
ENDTAB
  0
TABLE
  2
STYLE
  5
3
330
0
100
AcDbSymbolTable
 70
     2
  0
STYLE
  5
11
330
3
100
AcDbSymbolTableRecord
100
AcDbTextStyleTableRecord
  2
Standard
 70
     0
 40
0.0
 41
1.0
 50
0.0
 71
     0
 42
3.5
  3
txt
  4

  0
STYLE
  5
94
330
3
100
AcDbSymbolTableRecord
100
AcDbTextStyleTableRecord
  2
SLDTEXTSTYLE0
 70
     0
 40
0.0
 41
0.75
 50
0.0
 71
     0
 42
3.5
  3
TXT
  4

  0
ENDTAB
  0
TABLE
  2
VIEW
  5
6
330
0
100
AcDbSymbolTable
 70
     0
  0
ENDTAB
  0
TABLE
  2
UCS
  5
7
330
0
100
AcDbSymbolTable
 70
     0
  0
ENDTAB
  0
TABLE
  2
APPID
  5
9
330
0
100
AcDbSymbolTable
 70
     2
  0
APPID
  5
12
330
9
100
AcDbSymbolTableRecord
100
AcDbRegAppTableRecord
  2
ACAD
 70
     0
  0
APPID
  5
163
330
9
100
AcDbSymbolTableRecord
100
AcDbRegAppTableRecord
  2
PE_URL
 70
     0
  0
ENDTAB
  0
TABLE
  2
DIMSTYLE
  5
A
330
0
100
AcDbSymbolTable
 70
     3
100
AcDbDimStyleTable
  0
DIMSTYLE
105
27
330
A
100
AcDbSymbolTableRecord
100
AcDbDimStyleTableRecord
  2
ISO-25
 70
     0
 41
2.5
 42
0.625
 43
3.75
 44
1.25
 73
     0
 74
     0
 77
     1
 78
     8
140
2.5
141
2.5
143
0.03937007874016
147
0.625
171
     3
172
     1
178
     0
271
     2
272
     2
274
     3
278
    44
283
     0
284
     8
340
11
  0
DIMSTYLE
105
E3
102
{ACAD_REACTORS
330
E2
330
F7
330
10B
330
11F
102
}
330
A
100
AcDbSymbolTableRecord
100
AcDbDimStyleTableRecord
  2
SLDDIMSTYLE0
 70
     0
 41
3.302
 44
0.0
 45
0.000000001
 73
     0
 74
     0
 77
     1
 78
    12
 79
     3
140
3.5
143
0.0393700787401575
147
0.875
148
0.000000001
170
     1
172
     1
173
     1
178
     0
271
     2
272
     2
276
     2
284
    12
289
     0
340
94
  0
DIMSTYLE
105
10C
330
A
100
AcDbSymbolTableRecord
100
AcDbDimStyleTableRecord
  2
SLDDIMSTYLE1
 70
     0
 41
3.302
 44
0.0
 45
0.000000001
 73
     0
 74
     0
 77
     1
 78
    12
 79
     3
140
3.5
143
0.0393700787401575
147
0.875
148
0.000000001
170
     1
173
     1
178
     0
271
     2
272
     2
276
     2
284
    12
340
94
  0
ENDTAB
  0
TABLE
  2
BLOCK_RECORD
  5
1
330
0
100
AcDbSymbolTable
 70
     8
  0
BLOCK_RECORD
  5
1F
330
1
100
AcDbSymbolTableRecord
100
AcDbBlockTableRecord
  2
*Model_Space
340
22
  0
BLOCK_RECORD
  5
1B
330
1
100
AcDbSymbolTableRecord
100
AcDbBlockTableRecord
  2
*Paper_Space
340
1E
  0
BLOCK_RECORD
  5
23
330
1
100
AcDbSymbolTableRecord
100
AcDbBlockTableRecord
  2
*Paper_Space0
340
26
  0
BLOCK_RECORD
  5
7F
330
1
100
AcDbSymbolTableRecord
100
AcDbBlockTableRecord
  2
블럭10
340
0
102
{BLKREFS
331
DB
102
}
  0
BLOCK_RECORD
  5
E4
330
1
100
AcDbSymbolTableRecord
100
AcDbBlockTableRecord
  2
_D
340
0
  0
BLOCK_RECORD
  5
F8
330
1
100
AcDbSymbolTableRecord
100
AcDbBlockTableRecord
  2
_D_1
340
0
  0
BLOCK_RECORD
  5
10D
330
1
100
AcDbSymbolTableRecord
100
AcDbBlockTableRecord
  2
_D_2
340
0
  0
BLOCK_RECORD
  5
120
330
1
100
AcDbSymbolTableRecord
100
AcDbBlockTableRecord
  2
_D_3
340
0
  0
BLOCK_RECORD
  5
139
330
1
100
AcDbSymbolTableRecord
100
AcDbBlockTableRecord
  2
SW_DOWELSYMBOL_0
340
0
102
{BLKREFS
331
13F
102
}
  0
ENDTAB
  0
ENDSEC
  0
SECTION
  2
BLOCKS
  0
BLOCK
  5
20
330
1F
100
AcDbEntity
  8
0
100
AcDbBlockBegin
  2
*Model_Space
 70
     0
 10
0.0
 20
0.0
 30
0.0
  3
*Model_Space
  1
*Model_Space
  0
ENDBLK
  5
21
330
1F
100
AcDbEntity
  8
0
100
AcDbBlockEnd
  0
BLOCK
  5
1C
330
1B
100
AcDbEntity
 67
     1
  8
0
100
AcDbBlockBegin
  2
*Paper_Space
 70
     0
 10
0.0
 20
0.0
 30
0.0
  3
*Paper_Space
  1
*Paper_Space
  0
ENDBLK
  5
1D
330
1B
100
AcDbEntity
 67
     1
  8
0
100
AcDbBlockEnd
  0
BLOCK
  5
24
330
23
100
AcDbEntity
  8
0
100
AcDbBlockBegin
  2
*Paper_Space0
 70
     0
 10
0.0
 20
0.0
 30
0.0
  3
*Paper_Space0
  1
*Paper_Space0
  0
ENDBLK
  5
25
330
23
100
AcDbEntity
  8
0
100
AcDbBlockEnd
  0
BLOCK
  5
80
330
7F
100
AcDbEntity
  8
0
100
AcDbBlockBegin
  2
블럭10
 70
     2
 10
0.0
 20
0.0
 30
0.0
  3
블럭10
  1
블럭10
  0
ELLIPSE
  5
82
330
7F
100
AcDbEntity
  8
중심선
100
AcDbEllipse
 10
20.54032771741204
 20
12.0471743016438
 30
0.0
 11
6.600054785286829
 21
-1.261213355974178E-13
 31
0.0
210
0.0
220
0.0
230
1.0
 40
0.636358354079598
 41
0.9219305317359503
 42
6.513795318482858
  0
ELLIPSE
  5
83
330
7F
100
AcDbEntity
  8
중심선
100
AcDbEllipse
 10
20.54032771746488
 20
12.04717430159265
 30
0.0
 11
3.960054785062283
 21
1.540847449632565E-10
 31
0.0
210
0.0
220
0.0
230
1.0
 40
0.3939339440162632
 41
1.131841032648279
 42
5.62031148352944
  0
LINE
  5
84
330
7F
100
AcDbEntity
  8
중심선
100
AcDbLine
 10
2.268634060543552
 20
16.24717430164393
 30
0.0
 11
5.714909304380834
 21
16.24717430164393
 31
0.0
  0
LINE
  5
85
330
7F
100
AcDbEntity
  8
중심선
100
AcDbLine
 10
5.245725140726316
 20
7.84717430164391
 30
0.0
 11
8.692000384563599
 21
7.84717430164391
 31
0.0
  0
LINE
  5
86
330
7F
100
AcDbEntity
  8
중심선
100
AcDbLine
 10
15.74043728645272
 20
16.24717430164393
 30
0.0
 11
8.692000384563599
 21
7.84717430164391
 31
0.0
  0
LINE
  5
87
330
7F
100
AcDbEntity
  8
중심선
100
AcDbLine
 10
0.1404042013395286
 20
13.71084872107135
 30
0.0
 11
3.58671253028996
 21
13.71088815037384
 31
0.0
  0
LINE
  5
88
330
7F
100
AcDbEntity
  8
중심선
100
AcDbLine
 10
2.750260043222114
 20
10.84717430164391
 30
0.0
 11
6.196535287059397
 21
10.84717430164391
 31
0.0
  0
LINE
  5
89
330
7F
100
AcDbEntity
  8
중심선
100
AcDbLine
 10
12.29416204261559
 20
16.24717430164393
 30
0.0
 11
5.245725140726316
 21
7.84717430164391
 31
0.0
  0
LINE
  5
8A
330
7F
100
AcDbEntity
  8
중심선
100
AcDbLine
 10
10.72767329541681
 20
16.24717430164393
 30
0.0
 11
6.196535287059397
 21
10.84717430164391
 31
0.0
  0
LINE
  5
8B
330
7F
100
AcDbEntity
  8
중심선
100
AcDbLine
 10
7.28139805157953
 20
16.24717430164393
 30
0.0
 11
2.750260043222114
 21
10.84717430164391
 31
0.0
  0
LINE
  5
8C
330
7F
100
AcDbEntity
  8
중심선
100
AcDbLine
 10
5.714909304380834
 20
16.24717430164393
 30
0.0
 11
3.58671253028996
 21
13.71088815037384
 31
0.0
  0
LINE
  5
8D
330
7F
100
AcDbEntity
  8
중심선
100
AcDbLine
 10
2.268634060543552
 20
16.24717430164393
 30
0.0
 11
0.1404042013395286
 21
13.71084872107135
 31
0.0
  0
LINE
  5
8E
330
7F
100
AcDbEntity
  8
중심선
100
AcDbLine
 10
7.28139805157953
 20
16.24717430164393
 30
0.0
 11
10.72767329541681
 21
16.24717430164393
 31
0.0
  0
LINE
  5
8F
330
7F
100
AcDbEntity
  8
중심선
100
AcDbLine
 10
12.29416204261559
 20
16.24717430164393
 30
0.0
 11
15.74043728645272
 21
16.24717430164393
 31
0.0
  0
LINE
  5
90
330
7F
100
AcDbEntity
  8
중심선
100
AcDbLine
 10
19.22036997980202
 20
11.08717430171403
 30
0.0
 11
23.66174974927406
 21
11.08717430171406
 31
0.0
  0
LINE
  5
91
330
7F
100
AcDbEntity
  8
중심선
100
AcDbLine
 10
19.22039502424796
 20
13.00717430171391
 30
0.0
 11
19.22036997980202
 21
11.08717430171403
 31
0.0
  0
LINE
  5
92
330
7F
100
AcDbEntity
  8
중심선
100
AcDbLine
 10
19.22039502424796
 20
13.00717430171391
 30
0.0
 11
26.96566020931264
 21
13.00717430171391
 31
0.0
  0
LINE
  5
93
330
7F
100
AcDbEntity
  8
중심선
100
AcDbLine
 10
22.22332737316547
 20
13.45928029700563
 30
0.0
 11
24.52862924686651
 21
15.39360700705356
 31
0.0
  0
ATTDEF
  5
95
330
7F
100
AcDbEntity
  8
FORMAT
 62
     2
100
AcDbText
 10
4.522160859763931
 20
2.075366912832191
 30
0.0
 40
4.233333333333333
  1
EE882056
 41
0.75
  7
SLDTEXTSTYLE0
 11
4.522160859763931
 21
-0.0412997538344756
 31
0.0
100
AcDbAttributeDefinition
  3

  2
AUTOATTR0
 70
     0
 74
     1
  0
ENDBLK
  5
81
330
7F
100
AcDbEntity
  8
0
100
AcDbBlockEnd
  0
BLOCK
  5
E5
330
E4
100
AcDbEntity
  8
0
100
AcDbBlockBegin
  2
_D
 70
     0
 10
0.0
 20
0.0
 30
0.0
  3
_D
  1
_D
  0
LINE
  5
E7
330
E4
100
AcDbEntity
  8
치수문자_일반주서
 62
     0
370
    -2
100
AcDbLine
 10
57.68749999999999
 20
11.1135749287239
 30
0.0
 11
73.49323387467852
 21
11.11357492872396
 31
0.0
  0
LINE
  5
E8
330
E4
100
AcDbEntity
  8
치수문자_일반주서
 62
     0
370
    -2
100
AcDbLine
 10
57.68749999999999
 20
-11.1114250712761
 30
0.0
 11
73.4932338746786
 21
-11.11142507127605
 31
0.0
  0
LINE
  5
E9
330
E4
100
AcDbEntity
  8
치수문자_일반주서
 62
     0
370
    -2
100
AcDbLine
 10
73.49323387467852
 20
11.11357492872396
 30
0.0
 11
73.49323387467841
 21
46.59257492872403
 31
0.0
  0
LINE
  5
EA
330
E4
100
AcDbEntity
  8
치수문자_일반주서
 62
     0
370
    -2
100
AcDbLine
 10
73.49323387467852
 20
11.11357492872396
 30
0.0
 11
73.4932338746786
 21
-11.11142507127605
 31
0.0
  0
LINE
  5
EB
330
E4
100
AcDbEntity
  8
치수문자_일반주서
 62
     0
370
    -2
100
AcDbLine
 10
73.49323387467851
 20
14.41557492872396
 30
0.0
 11
73.4932338746785
 21
17.71757492872396
 31
0.0
  0
LINE
  5
EC
330
E4
100
AcDbEntity
  8
치수문자_일반주서
 62
     0
370
    -2
100
AcDbLine
 10
73.49323387467861
 20
-14.41342507127604
 30
0.0
 11
73.49323387467862
 21
-17.71542507127604
 31
0.0
  0
SOLID
  5
ED
330
E4
100
AcDbEntity
  8
치수문자_일반주서
 62
     0
100
AcDbTrace
 10
72.94290054134518
 20
14.41557492872396
 30
0.0
 11
74.04356720801184
 21
14.41557492872396
 31
0.0
 12
73.49323387467852
 22
11.11357492872396
 32
0.0
 13
73.49323387467852
 23
11.11357492872396
 33
0.0
  0
SOLID
  5
EE
330
E4
100
AcDbEntity
  8
치수문자_일반주서
 62
     0
100
AcDbTrace
 10
74.04356720801194
 20
-14.41342507127604
 30
0.0
 11
72.94290054134528
 21
-14.41342507127605
 31
0.0
 12
73.4932338746786
 22
-11.11142507127605
 32
0.0
 13
73.4932338746786
 23
-11.11142507127605
 33
0.0
  0
MTEXT
  5
EF
330
E4
100
AcDbEntity
  8
치수문자_일반주서
 62
     0
100
AcDbMText
 10
69.11823387467845
 20
32.15507492872402
 30
0.0
 40
3.5
 41
0.0
 71
     2
 72
     1
  1
\A1;%%c22.23 [7/8]
  7
SLDTEXTSTYLE0
 11
-3.197042680585376E-15
 21
1.0
 31
0.0
 73
     1
 44
1.0
  0
POINT
  5
164
330
E4
100
AcDbEntity
  8
Defpoints
 62
     0
100
AcDbPoint
 10
57.62499999999999
 20
11.1135749287239
 30
0.0
  0
POINT
  5
165
330
E4
100
AcDbEntity
  8
Defpoints
 62
     0
100
AcDbPoint
 10
57.62499999999999
 20
-11.1114250712761
 30
0.0
  0
POINT
  5
166
330
E4
100
AcDbEntity
  8
Defpoints
 62
     0
100
AcDbPoint
 10
73.4932338746786
 20
-11.11142507127605
 30
0.0
  0
ENDBLK
  5
E6
330
E4
100
AcDbEntity
  8
0
100
AcDbBlockEnd
  0
BLOCK
  5
F9
330
F8
100
AcDbEntity
  8
0
100
AcDbBlockBegin
  2
_D_1
 70
     0
 10
0.0
 20
0.0
 30
0.0
  3
_D_1
  1
_D_1
  0
LINE
  5
FB
330
F8
100
AcDbEntity
  8
치수문자_일반주서
 62
     0
370
    -2
100
AcDbLine
 10
-44.98999999999999
 20
11.1135749287239
 30
0.0
 11
-59.83250000000005
 21
11.11357492872384
 31
0.0
  0
LINE
  5
FC
330
F8
100
AcDbEntity
  8
치수문자_일반주서
 62
     0
370
    -2
100
AcDbLine
 10
-44.98999999999999
 20
-11.11142507127609
 30
0.0
 11
-59.83249999999997
 21
-11.11142507127615
 31
0.0
  0
LINE
  5
FD
330
F8
100
AcDbEntity
  8
치수문자_일반주서
 62
     0
370
    -2
100
AcDbLine
 10
-59.83250000000003
 20
7.811574928723845
 30
0.0
 11
-59.83249999999998
 21
-7.80942507127615
 31
0.0
  0
SOLID
  5
FE
330
F8
100
AcDbEntity
  8
치수문자_일반주서
 62
     0
100
AcDbTrace
 10
-59.2821666666667
 20
7.811574928723847
 30
0.0
 11
-60.38283333333337
 21
7.811574928723843
 31
0.0
 12
-59.83250000000005
 22
11.11357492872384
 32
0.0
 13
-59.83250000000005
 23
11.11357492872384
 33
0.0
  0
SOLID
  5
FF
330
F8
100
AcDbEntity
  8
치수문자_일반주서
 62
     0
100
AcDbTrace
 10
-60.38283333333332
 20
-7.809425071276152
 30
0.0
 11
-59.28216666666665
 21
-7.809425071276149
 31
0.0
 12
-59.83249999999997
 22
-11.11142507127615
 32
0.0
 13
-59.83249999999997
 23
-11.11142507127615
 33
0.0
  0
MTEXT
  5
100
330
F8
100
AcDbEntity
  8
치수문자_일반주서
 62
     0
100
AcDbMText
 10
-64.20750000000001
 20
0.0010749287238821
 30
0.0
 40
3.5
 41
0.0
 71
     2
 72
     1
  1
\A1;%%c22.23 [7/8]
  7
SLDTEXTSTYLE0
 11
-3.516746948643917E-15
 21
1.0
 31
0.0
 73
     1
 44
1.0
  0
POINT
  5
101
330
F8
100
AcDbEntity
  8
Defpoints
 62
     0
100
AcDbPoint
 10
-44.92749999999999
 20
11.1135749287239
 30
0.0
  0
POINT
  5
102
330
F8
100
AcDbEntity
  8
Defpoints
 62
     0
100
AcDbPoint
 10
-44.92749999999999
 20
-11.11142507127609
 30
0.0
  0
POINT
  5
103
330
F8
100
AcDbEntity
  8
Defpoints
 62
     0
100
AcDbPoint
 10
-59.83249999999997
 20
-11.11142507127615
 30
0.0
  0
ENDBLK
  5
FA
330
F8
100
AcDbEntity
  8
0
100
AcDbBlockEnd
  0
BLOCK
  5
10E
330
10D
100
AcDbEntity
  8
0
100
AcDbBlockBegin
  2
_D_2
 70
     0
 10
0.0
 20
0.0
 30
0.0
  3
_D_2
  1
_D_2
  0
LINE
  5
110
330
10D
100
AcDbEntity
  8
치수문자_일반주서
 62
     0
370
    -2
100
AcDbLine
 10
57.62499999999999
 20
11.09498202564836
 30
0.0
 11
57.62499999999999
 21
32.3645432572435
 31
0.0
  0
LINE
  5
111
330
10D
100
AcDbEntity
  8
치수문자_일반주서
 62
     0
370
    -2
100
AcDbLine
 10
9.99999999999998
 20
11.17288941478848
 30
0.0
 11
9.999999999999979
 21
32.3645432572435
 31
0.0
  0
LINE
  5
112
330
10D
100
AcDbEntity
  8
치수문자_일반주서
 62
     0
370
    -2
100
AcDbLine
 10
54.32299999999999
 20
32.3645432572435
 30
0.0
 11
13.30199999999998
 21
32.3645432572435
 31
0.0
  0
SOLID
  5
113
330
10D
100
AcDbEntity
  8
치수문자_일반주서
 62
     0
100
AcDbTrace
 10
54.32299999999999
 20
31.81420992391016
 30
0.0
 11
54.32299999999999
 21
32.91487659057683
 31
0.0
 12
57.62499999999999
 22
32.3645432572435
 32
0.0
 13
57.62499999999999
 23
32.3645432572435
 33
0.0
  0
SOLID
  5
114
330
10D
100
AcDbEntity
  8
치수문자_일반주서
 62
     0
100
AcDbTrace
 10
13.30199999999998
 20
32.91487659057683
 30
0.0
 11
13.30199999999998
 21
31.81420992391016
 31
0.0
 12
9.999999999999979
 22
32.3645432572435
 32
0.0
 13
9.999999999999979
 23
32.3645432572435
 33
0.0
  0
MTEXT
  5
115
330
10D
100
AcDbEntity
  8
치수문자_일반주서
 62
     0
100
AcDbMText
 10
33.81249999999998
 20
36.7395432572435
 30
0.0
 40
3.5
 41
0.0
 71
     2
 72
     1
  1
\A1;47.63 [1 7/8]
  7
SLDTEXTSTYLE0
 73
     1
 44
1.0
  0
POINT
  5
116
330
10D
100
AcDbEntity
  8
Defpoints
 62
     0
100
AcDbPoint
 10
57.62499999999999
 20
11.03248202564836
 30
0.0
  0
POINT
  5
117
330
10D
100
AcDbEntity
  8
Defpoints
 62
     0
100
AcDbPoint
 10
9.99999999999998
 20
11.11038941478848
 30
0.0
  0
POINT
  5
118
330
10D
100
AcDbEntity
  8
Defpoints
 62
     0
100
AcDbPoint
 10
9.99999999999998
 20
32.3645432572435
 30
0.0
  0
ENDBLK
  5
10F
330
10D
100
AcDbEntity
  8
0
100
AcDbBlockEnd
  0
BLOCK
  5
121
330
120
100
AcDbEntity
  8
0
100
AcDbBlockBegin
  2
_D_3
 70
     0
 10
0.0
 20
0.0
 30
0.0
  3
_D_3
  1
_D_3
  0
LINE
  5
123
330
120
100
AcDbEntity
  8
치수문자_일반주서
 62
     0
370
    -2
100
AcDbLine
 10
57.62499999999999
 20
11.09498202564836
 30
0.0
 11
57.62499999999999
 21
53.63410448883864
 31
0.0
  0
LINE
  5
124
330
120
100
AcDbEntity
  8
치수문자_일반주서
 62
     0
370
    -2
100
AcDbLine
 10
-47.15000000000001
 20
8.953574928723912
 30
0.0
 11
-47.15000000000001
 21
53.63410448883864
 31
0.0
  0
LINE
  5
125
330
120
100
AcDbEntity
  8
치수문자_일반주서
 62
     0
370
    -2
100
AcDbLine
 10
54.32299999999999
 20
53.63410448883864
 30
0.0
 11
-43.84800000000001
 21
53.63410448883864
 31
0.0
  0
SOLID
  5
126
330
120
100
AcDbEntity
  8
치수문자_일반주서
 62
     0
100
AcDbTrace
 10
54.32299999999999
 20
53.0837711555053
 30
0.0
 11
54.32299999999999
 21
54.18443782217197
 31
0.0
 12
57.62499999999999
 22
53.63410448883864
 32
0.0
 13
57.62499999999999
 23
53.63410448883864
 33
0.0
  0
SOLID
  5
127
330
120
100
AcDbEntity
  8
치수문자_일반주서
 62
     0
100
AcDbTrace
 10
-43.84800000000001
 20
54.18443782217197
 30
0.0
 11
-43.84800000000001
 21
53.0837711555053
 31
0.0
 12
-47.15000000000001
 22
53.63410448883864
 32
0.0
 13
-47.15000000000001
 23
53.63410448883864
 33
0.0
  0
MTEXT
  5
128
330
120
100
AcDbEntity
  8
치수문자_일반주서
 62
     0
100
AcDbMText
 10
5.237499999999992
 20
58.00910448883864
 30
0.0
 40
3.5
 41
0.0
 71
     2
 72
     1
  1
\A1;104.78 [4 1/8]
  7
SLDTEXTSTYLE0
 73
     1
 44
1.0
  0
POINT
  5
129
330
120
100
AcDbEntity
  8
Defpoints
 62
     0
100
AcDbPoint
 10
57.62499999999999
 20
11.03248202564836
 30
0.0
  0
POINT
  5
12A
330
120
100
AcDbEntity
  8
Defpoints
 62
     0
100
AcDbPoint
 10
-47.15000000000001
 20
8.891074928723912
 30
0.0
  0
POINT
  5
12B
330
120
100
AcDbEntity
  8
Defpoints
 62
     0
100
AcDbPoint
 10
-47.15000000000001
 20
53.63410448883864
 30
0.0
  0
ENDBLK
  5
122
330
120
100
AcDbEntity
  8
0
100
AcDbBlockEnd
  0
BLOCK
  5
13A
330
139
100
AcDbEntity
  8
0
100
AcDbBlockBegin
  2
SW_DOWELSYMBOL_0
 70
     0
 10
0.0
 20
0.0
 30
0.0
  3
SW_DOWELSYMBOL_0
  1
SW_DOWELSYMBOL_0
  0
CIRCLE
  5
13C
330
139
100
AcDbEntity
  8
해칭선
 62
     0
100
AcDbCircle
 10
0.0
 20
0.0
 30
0.0
 40
3.000000000000002
  0
HATCH
  5
13D
330
139
100
AcDbEntity
  8
0
  6
Continuous
 62
     0
370
     0
100
AcDbHatch
 10
0.0
 20
0.0
 30
0.0
210
0.0
220
0.0
230
1.0
  2
SOLID
 70
     1
 71
     0
 91
        1
 92
        0
 93
        3
 72
     2
 10
0.0
 20
0.0
 40
3.000000000000002
 50
0.0
 51
90.0
 73
     1
 72
     1
 10
0.0
 20
3.000000000000002
 11
0.0
 21
0.0
 72
     1
 10
0.0
 20
0.0
 11
3.000000000000002
 21
0.0
 97
        0
 75
     0
 76
     1
 98
        1
 10
0.0
 20
0.0
  0
HATCH
  5
13E
330
139
100
AcDbEntity
  8
0
  6
Continuous
 62
     0
370
     0
100
AcDbHatch
 10
0.0
 20
0.0
 30
0.0
210
0.0
220
0.0
230
1.0
  2
SOLID
 70
     1
 71
     0
 91
        1
 92
        0
 93
        3
 72
     2
 10
0.0
 20
0.0
 40
3.000000000000002
 50
180.0
 51
270.0000000000007
 73
     1
 72
     1
 10
0.0
 20
-3.000000000000002
 11
0.0
 21
0.0
 72
     1
 10
0.0
 20
0.0
 11
-3.000000000000002
 21
0.0
 97
        0
 75
     0
 76
     1
 98
        1
 10
0.0
 20
0.0
  0
ENDBLK
  5
13B
330
139
100
AcDbEntity
  8
0
100
AcDbBlockEnd
  0
ENDSEC
  0
SECTION
  2
ENTITIES
  0
LINE
  5
96
330
1F
100
AcDbEntity
  8
외형선
  6
Continuous
 62
     1
370
    15
100
AcDbLine
 10
32.05912548472756
 20
-2.169154661977338
 30
0.0
 11
32.11299721329609
 21
-2.221271959916853
 31
0.0
  0
LINE
  5
97
330
1F
100
AcDbEntity
  8
외형선
  6
Continuous
 62
     1
370
    15
100
AcDbLine
 10
36.69581998722969
 20
2.118579971580465
 30
0.0
 11
36.58900128066189
 21
2.223490948107505
 31
0.0
  0
LINE
  5
98
330
1F
100
AcDbEntity
  8
외형선
  6
Continuous
 62
     1
370
    15
100
AcDbLine
 10
20.41364612209279
 20
-2.160779825945662
 30
0.0
 11
20.47606558565418
 21
-2.221322229465041
 31
0.0
  0
LINE
  5
99
330
1F
100
AcDbEntity
  8
외형선
  6
Continuous
 62
     1
370
    15
100
AcDbLine
 10
35.69355758224108
 20
11.11357492872391
 30
0.0
 11
33.00838511244142
 21
11.11357492872391
 31
0.0
  0
LINE
  5
9A
330
1F
100
AcDbEntity
  8
외형선
  6
Continuous
 62
     1
370
    15
100
AcDbLine
 10
33.00838511244134
 20
-11.1114250712761
 30
0.0
 11
35.69355758224101
 21
-11.1114250712761
 31
0.0
  0
LINE
  5
9B
330
1F
100
AcDbEntity
  8
외형선
  6
Continuous
 62
     1
370
    15
100
AcDbLine
 10
56.28073477152937
 20
-11.1114250712761
 30
0.0
 11
57.62499999999999
 21
-11.1114250712761
 31
0.0
  0
LINE
  5
9C
330
1F
100
AcDbEntity
  8
외형선
  6
Continuous
 62
     1
370
    15
100
AcDbLine
 10
24.0579979231924
 20
11.11357492872391
 30
0.0
 11
21.36982927664756
 21
11.11357492872391
 31
0.0
  0
LINE
  5
9D
330
1F
100
AcDbEntity
  8
외형선
  6
Continuous
 62
     1
370
    15
100
AcDbLine
 10
44.6450666651642
 20
-11.1114250712761
 30
0.0
 11
47.33116104367505
 21
-11.1114250712761
 31
0.0
  0
LINE
  5
9E
330
1F
100
AcDbEntity
  8
외형선
  6
Continuous
 62
     1
370
    15
100
AcDbLine
 10
12.42031597941768
 20
11.11357492872391
 30
0.0
 11
9.999999999999988
 21
11.11357492872391
 31
0.0
  0
LINE
  5
9F
330
1F
100
AcDbEntity
  8
외형선
  6
Continuous
 62
     1
370
    15
100
AcDbLine
 10
21.36982927664752
 20
-11.1114250712761
 30
0.0
 11
24.05799792319231
 21
-11.1114250712761
 31
0.0
  0
LINE
  5
A0
330
1F
100
AcDbEntity
  8
외형선
  6
Continuous
 62
     1
370
    15
100
AcDbLine
 10
57.62499999999999
 20
11.11357492872391
 30
0.0
 11
56.28073477152938
 21
11.11357492872391
 31
0.0
  0
LINE
  5
A1
330
1F
100
AcDbEntity
  8
외형선
  6
Continuous
 62
     1
370
    15
100
AcDbLine
 10
9.999999999999988
 20
-11.1114250712761
 30
0.0
 11
12.42031597941767
 21
-11.1114250712761
 31
0.0
  0
LINE
  5
A2
330
1F
100
AcDbEntity
  8
외형선
  6
Continuous
 62
     1
370
    15
100
AcDbLine
 10
47.33116104367506
 20
11.11357492872391
 30
0.0
 11
44.64506666516428
 21
11.11357492872391
 31
0.0
  0
LINE
  5
A3
330
1F
100
AcDbEntity
  8
외형선
  6
Continuous
370
    15
100
AcDbLine
 10
9.733763373037572
 20
-11.1114250712761
 30
0.0
 11
9.999999999999988
 21
-11.1114250712761
 31
0.0
  0
LINE
  5
A4
330
1F
100
AcDbEntity
  8
외형선
  6
Continuous
370
    15
100
AcDbLine
 10
-44.92750000000001
 20
-11.1114250712761
 30
0.0
 11
8.999722471167177
 21
-11.1114250712761
 31
0.0
  0
LINE
  5
A5
330
1F
100
AcDbEntity
  8
외형선
  6
Continuous
370
    15
100
AcDbLine
 10
8.999722471167177
 20
11.1135749287239
 30
0.0
 11
-13.91092499999997
 21
11.1135749287239
 31
0.0
  0
LINE
  5
A6
330
1F
100
AcDbEntity
  8
외형선
  6
Continuous
370
    15
100
AcDbLine
 10
9.999999999999988
 20
11.1135749287239
 30
0.0
 11
9.733763373037503
 21
11.1135749287239
 31
0.0
  0
LINE
  5
A8
330
1F
100
AcDbEntity
  8
외형선
  6
Continuous
370
    15
100
AcDbLine
 10
-47.15000000000001
 20
-8.888925071276107
 30
0.0
 11
-44.92750000000001
 21
-11.1114250712761
 31
0.0
  0
SPLINE
  5
A9
330
1F
100
AcDbEntity
  8
외형선
  6
Continuous
 62
     1
370
    15
100
AcDbSpline
210
0.0
220
0.0
230
1.0
 70
     8
 71
     3
 72
    31
 73
    27
 74
     0
 42
0.000000001
 43
0.00000001
 40
0.0
 40
0.0
 40
0.0
 40
0.0
 40
0.0194930232858984
 40
0.0599579676172119
 40
0.100399277224769
 40
0.1408962685696539
 40
0.1813735240055878
 40
0.2218131034004933
 40
0.2659069979157352
 40
0.3100310132646122
 40
0.3541087234649072
 40
0.3981748204587303
 40
0.4422717960285216
 40
0.4863940958868558
 40
0.5304698900675524
 40
0.5745366512215635
 40
0.6186368631687713
 40
0.662756988771512
 40
0.7068310231910554
 40
0.7508986051632537
 40
0.7950022086679592
 40
0.83911970136849
 40
0.8831921323631368
 40
0.9272606917752011
 40
0.971367841867901
 40
1.0
 40
1.0
 40
1.0
 40
1.0
 10
12.42031597941769
 20
11.08502663056639
 30
0.0
 10
12.67634650161424
 20
11.09088302777626
 30
0.0
 10
13.46386260590079
 20
11.10889653287052
 30
0.0
 10
14.78173816393657
 20
10.89339270278947
 30
0.0
 10
16.37443685297232
 20
10.45483416212675
 30
0.0
 10
17.96936126568416
 20
9.789899138364634
 30
0.0
 10
19.56347010312395
 20
8.92704058165077
 30
0.0
 10
21.20354580843022
 20
7.848194716350938
 30
0.0
 10
22.89282230315391
 20
6.559489683279235
 30
0.0
 10
24.6307836452171
 20
5.075340761839004
 30
0.0
 10
26.36681586179676
 20
3.466482679559603
 30
0.0
 10
28.10236460244758
 20
1.773342331542388
 30
0.0
 10
29.83920132220132
 20
0.0371221625820912
 30
0.0
 10
31.57713660018939
 20
-1.699146686715231
 30
0.0
 10
33.313076902203
 20
-3.395156992856289
 30
0.0
 10
35.04865563647458
 20
-5.00815920123128
 30
0.0
 10
36.78563094668037
 20
-6.498849878329229
 30
0.0
 10
38.52347165536235
 20
-7.830651671357161
 30
0.0
 10
40.25934024163102
 20
-8.972409097989729
 30
0.0
 10
41.99495163043665
 20
-9.895214763917725
 30
0.0
 10
43.7320739989302
 20
-10.57683187948006
 30
0.0
 10
45.46979835121753
 20
-10.99988671342383
 30
0.0
 10
47.20560819826507
 20
-11.15772311553531
 30
0.0
 10
48.94123713700927
 20
-11.03340707771491
 30
0.0
 10
50.47526621358308
 20
-10.71943094224378
 30
0.0
 10
51.43050198352779
 20
-10.34240142330295
 30
0.0
 10
51.80650860616391
 20
-10.19399241213362
 30
0.0
  0
SPLINE
  5
AA
330
1F
100
AcDbEntity
  8
외형선
  6
Continuous
 62
     1
370
    15
100
AcDbSpline
210
0.0
220
0.0
230
1.0
 70
     8
 71
     3
 72
    31
 73
    27
 74
     0
 42
0.000000001
 43
0.00000001
 40
0.0
 40
0.0
 40
0.0
 40
0.0
 40
0.009988896286648
 40
0.0540597004088634
 40
0.0981317951101614
 40
0.1422473082238954
 40
0.1863555699524723
 40
0.2304252400278093
 40
0.274498781783305
 40
0.3186173863803782
 40
0.3627221014315752
 40
0.4067907940424116
 40
0.4508659392632145
 40
0.4949871768288546
 40
0.5390885002370769
 40
0.5831563720090388
 40
0.6272332770353466
 40
0.6713566889113777
 40
0.7154547758606162
 40
0.7595219834556519
 40
0.8036008045498475
 40
0.8477259319596578
 40
0.8918209377766951
 40
0.9322615363734086
 40
0.9727398119607025
 40
1.0
 40
1.0
 40
1.0
 40
1.0
 10
56.28073477152938
 20
-11.0876686320475
 30
0.0
 10
56.14955925236421
 20
-11.09493971943746
 30
0.0
 10
55.43964005172894
 20
-11.13429069422666
 30
0.0
 10
54.15190621368571
 20
-10.93833791321236
 30
0.0
 10
52.41611061912246
 20
-10.49180274598764
 30
0.0
 10
50.67853262478669
 20
-9.767254549952344
 30
0.0
 10
48.94125339567483
 20
-8.810677964167779
 30
0.0
 10
47.20560384309912
 20
-7.637392960069926
 30
0.0
 10
45.46979951956688
 20
-6.27820993101777
 30
0.0
 10
43.73207368583833
 20
-4.766709216420521
 30
0.0
 10
41.99495171424049
 20
-3.138667811250703
 30
0.0
 10
40.25934021918391
 20
-1.43373394943538
 30
0.0
 10
38.5234716613725
 20
0.3063506404086581
 30
0.0
 10
36.78563094511524
 20
2.037897212349745
 30
0.0
 10
35.04865563672509
 20
3.720475269738229
 30
0.0
 10
33.31307690276404
 20
5.312616568214389
 30
0.0
 10
31.57713659769277
 20
6.775434419322658
 30
0.0
 10
29.83920133163527
 20
8.072238295733444
 30
0.0
 10
28.10236456724508
 20
9.173001985991313
 30
0.0
 10
26.36681599309649
 20
10.05021019080787
 30
0.0
 10
24.6307831548245
 20
10.6826796009607
 30
0.0
 10
22.89282413492362
 20
11.05385766363833
 30
0.0
 10
21.20353921686148
 20
11.15551952641441
 30
0.0
 10
19.56349245415412
 20
10.9993959733832
 30
0.0
 10
18.14309135843117
 20
10.69006519767649
 30
0.0
 10
17.25354356386977
 20
10.3416493119729
 30
0.0
 10
16.89556024314727
 20
10.20143528803939
 30
0.0
  0
SPLINE
  5
AB
330
1F
100
AcDbEntity
  8
외형선
  6
Continuous
 62
     1
370
    15
100
AcDbSpline
210
0.0
220
0.0
230
1.0
 70
     8
 71
     3
 72
    25
 73
    21
 74
     0
 42
0.000000001
 43
0.00000001
 40
0.0
 40
0.0
 40
0.0
 40
0.0
 40
0.0528006211748853
 40
0.1056800658732591
 40
0.1585061096350256
 40
0.2113012988145828
 40
0.2641691792072733
 40
0.3170112948298116
 40
0.3698042252569906
 40
0.4273677790881116
 40
0.4849706549670454
 40
0.5425130805513897
 40
0.6000403453647645
 40
0.6576079214409459
 40
0.7152085577868722
 40
0.7727484820521903
 40
0.8302766139112444
 40
0.8878484150028771
 40
0.9454462129086911
 40
1.0
 40
1.0
 40
1.0
 40
1.0
 10
10.0
 20
7.505744247371187
 30
0.0
 10
10.5306778153656
 20
7.099056888907638
 30
0.0
 10
11.59282566964098
 20
6.285075047862695
 30
0.0
 10
13.18807618170374
 20
4.895639336590508
 30
0.0
 10
14.78172874657185
 20
3.415530299083505
 30
0.0
 10
16.3744393796005
 20
1.861583836489573
 30
0.0
 10
17.96936058877022
 20
0.2720807141768706
 30
0.0
 10
19.56347028375079
 20
-1.3239824281558
 30
0.0
 10
21.20354575517616
 20
-2.940376577934039
 30
0.0
 10
22.89282231789166
 20
-4.537212051818673
 30
0.0
 10
24.63078364149882
 20
-6.067693533948122
 30
0.0
 10
26.36681586194545
 20
-7.451320214944609
 30
0.0
 10
28.10236460556843
 20
-8.653083614223425
 30
0.0
 10
29.83920130955547
 20
-9.643786323639619
 30
0.0
 10
31.57713664765684
 20
-10.3992131899512
 30
0.0
 10
33.31307672520845
 20
-10.90125547120317
 30
0.0
 10
35.04865629712947
 20
-11.13888898178758
 30
0.0
 10
36.78562847850023
 20
-11.09951445000907
 30
0.0
 10
38.49345622174094
 20
-10.81515349258208
 30
0.0
 10
39.62096089947875
 20
-10.41227279915511
 30
0.0
 10
40.16941191009391
 20
-10.21629993285119
 30
0.0
  0
SPLINE
  5
AC
330
1F
100
AcDbEntity
  8
외형선
  6
Continuous
370
    15
100
AcDbSpline
210
0.0
220
0.0
230
1.0
 70
    24
 71
     3
 72
    13
 73
     9
 74
     0
 42
0.000000001
 43
0.00000001
 40
0.0
 40
0.0
 40
0.0
 40
0.0
 40
0.0102134713333136
 40
0.2098128400478204
 40
0.4152006039768716
 40
0.614799972691366
 40
0.8201877366204002
 40
1.0
 40
1.0
 40
1.0
 40
1.0
 10
9.99999999999998
 20
11.11038941478848
 30
0.0
 10
10.00000000000001
 20
11.09810875765516
 30
0.0
 10
10.00000000000025
 20
10.84583022602681
 30
0.0
 10
9.999999999999856
 20
10.33578462653251
 30
0.0
 10
10.00000000000006
 20
9.58703820305058
 30
0.0
 10
9.999999999999918
 20
8.84805112093637
 30
0.0
 10
9.999999999999968
 20
8.168278768894158
 30
0.0
 10
9.999999999999973
 20
7.768730894672197
 30
0.0
 10
9.99999999999998
 20
7.582221023179395
 30
0.0
  0
SPLINE
  5
AD
330
1F
100
AcDbEntity
  8
외형선
  6
Continuous
 62
     1
370
    15
100
AcDbSpline
210
0.0
220
0.0
230
1.0
 70
     8
 71
     3
 72
    28
 73
    24
 74
     0
 42
0.000000001
 43
0.00000001
 40
0.0
 40
0.0
 40
0.0
 40
0.0
 40
0.0263467972665538
 40
0.0764852619423743
 40
0.1265827761245466
 40
0.1766876256665892
 40
0.2268448732209705
 40
0.2769794822597852
 40
0.3270760633081449
 40
0.3771829134060473
 40
0.4273426327275538
 40
0.477473562543314
 40
0.5275693885519616
 40
0.5776784168455963
 40
0.6278400863946396
 40
0.6779675135636226
 40
0.7239405919942773
 40
0.7699565018196955
 40
0.8159948480923696
 40
0.8619698934871503
 40
0.9079718076334168
 40
0.95402022432135
 40
1.0
 40
1.0
 40
1.0
 40
1.0
 10
44.6450666651642
 20
-11.07758622464858
 30
0.0
 10
44.34070183496257
 20
-11.08345622946866
 30
0.0
 10
43.45712484727418
 20
-11.10049696697178
 30
0.0
 10
41.99493649079587
 20
-10.83281928693463
 30
0.0
 10
40.25934429740928
 20
-10.30133819745433
 30
0.0
 10
38.52347056726894
 20
-9.505015912296308
 30
0.0
 10
36.78563123822393
 20
-8.481265248531948
 30
0.0
 10
35.04865555843596
 20
-7.249467682604584
 30
0.0
 10
33.31307692311577
 20
-5.841018619685073
 30
0.0
 10
31.57713659455973
 20
-4.28987666842467
 30
0.0
 10
29.83920132378036
 20
-2.63528989513619
 30
0.0
 10
28.10236460176088
 20
-0.9156658221921457
 30
0.0
 10
26.36681586296564
 20
0.826424626790741
 30
0.0
 10
24.63078364122508
 20
2.548618471812662
 30
0.0
 10
22.8928223179652
 20
4.207548816830347
 30
0.0
 10
21.2035457551583
 20
5.722143996818445
 30
0.0
 10
19.56347028375559
 20
7.067173852371322
 30
0.0
 10
17.96936058876927
 20
8.227545993028025
 30
0.0
 10
16.37443937960131
 20
9.2182702929004
 30
0.0
 10
14.78172874657238
 20
10.02194860632445
 30
0.0
 10
13.18807618170449
 20
10.61490808316966
 30
0.0
 10
11.59282566964192
 20
11.00604232156552
 30
0.0
 10
10.5306778153666
 20
11.07562435007486
 30
0.0
 10
10.00000000000107
 20
11.11038941477787
 30
0.0
  0
SPLINE
  5
AE
330
1F
100
AcDbEntity
  8
외형선
  6
Continuous
 62
     1
370
    15
100
AcDbSpline
210
0.0
220
0.0
230
1.0
 70
     8
 71
     3
 72
    19
 73
    15
 74
     0
 42
0.000000001
 43
0.00000001
 40
0.0
 40
0.0
 40
0.0
 40
0.0
 40
0.0859512672091073
 40
0.1720308469565707
 40
0.2580234982158946
 40
0.3439659229744487
 40
0.4300266778159591
 40
0.5160454915856664
 40
0.6019842394437428
 40
0.6956888263738276
 40
0.7894574235326477
 40
0.8831276169358391
 40
0.9767731309423168
 40
1.0
 40
1.0
 40
1.0
 40
1.0
 10
10.0
 20
-3.344174226238553
 30
0.0
 10
10.53067781528697
 20
-3.844132816110183
 30
0.0
 10
11.59282566940501
 20
-4.8447963601343
 30
0.0
 10
13.18807618264903
 20
-6.225804728058424
 30
0.0
 10
14.78172874303198
 20
-7.485214287250793
 30
0.0
 10
16.37443939281554
 20
-8.58991079540897
 30
0.0
 10
17.96936053938325
 20
-9.517364163681211
 30
0.0
 10
19.56347046788505
 20
-10.24973042873468
 30
0.0
 10
21.2035450424642
 20
-10.7877609410293
 30
0.0
 10
22.8928252476686
 20
-11.09472188101061
 30
0.0
 10
24.63077273536625
 20
-11.14528220549584
 30
0.0
 10
26.36685650279384
 20
-10.90435793262729
 30
0.0
 10
27.66696865745476
 20
-10.58007569539219
 30
0.0
 10
28.38908057091324
 20
-10.2623202214515
 30
0.0
 10
28.53259094025079
 20
-10.19917044566973
 30
0.0
  0
SPLINE
  5
AF
330
1F
100
AcDbEntity
  8
외형선
  6
Continuous
370
    15
100
AcDbSpline
210
0.0
220
0.0
230
1.0
 70
    24
 71
     3
 72
    28
 73
    24
 74
     0
 42
0.000000001
 43
0.00000001
 40
0.0
 40
0.0
 40
0.0
 40
0.0
 40
0.1250000000000004
 40
0.1250000000000004
 40
0.1875000000000002
 40
0.1875000000000002
 40
0.2500000000000001
 40
0.2500000000000001
 40
0.3750000000000001
 40
0.3750000000000001
 40
0.5
 40
0.5
 40
0.625
 40
0.625
 40
0.6875
 40
0.6875
 40
0.75
 40
0.75
 40
0.8125
 40
0.8125
 40
0.875
 40
0.875
 40
1.0
 40
1.0
 40
1.0
 40
1.0
 10
9.999999999999988
 20
5.325317491311923
 30
0.0
 10
9.999999999999968
 20
5.201351738378362
 30
0.0
 10
9.999999999999973
 20
5.034101217008933
 30
0.0
 10
9.999999999999988
 20
4.764291011602055
 30
0.0
 10
10.00000000000002
 20
4.674535288052163
 30
0.0
 10
10.0
 20
4.467493231741249
 30
0.0
 10
10.0
 20
4.350933535553549
 30
0.0
 10
10.0
 20
3.955226760394772
 30
0.0
 10
10.00000000000002
 20
3.62906404530024
 30
0.0
 10
10.00000000000001
 20
2.827056626329599
 30
0.0
 10
10.0
 20
2.349415375017945
 30
0.0
 10
9.999999999999995
 20
1.271082623299947
 30
0.0
 10
9.999999999999995
 20
0.6700210178133074
 30
0.0
 10
9.999999999999988
 20
-0.2305490812103914
 30
0.0
 10
9.999999999999988
 20
-0.5297324012147753
 30
0.0
 10
9.999999999999988
 20
-1.104674261159065
 30
0.0
 10
9.999999999999988
 20
-1.380266419530077
 30
0.0
 10
9.999999999999995
 20
-1.887889253781141
 30
0.0
 10
9.999999999999973
 20
-2.119792127487145
 30
0.0
 10
9.999999999999988
 20
-2.526144031635663
 30
0.0
 10
10.0
 20
-2.700559775790682
 30
0.0
 10
10.0
 20
-3.130033039444468
 30
0.0
 10
10.0
 20
-3.288642469593843
 30
0.0
 10
9.999999999999995
 20
-3.344174226238511
 30
0.0
  0
SPLINE
  5
B0
330
1F
100
AcDbEntity
  8
외형선
  6
Continuous
 62
     1
370
    15
100
AcDbSpline
210
0.0
220
0.0
230
1.0
 70
     8
 71
     3
 72
    21
 73
    17
 74
     0
 42
0.000000001
 43
0.00000001
 40
0.0
 40
0.0
 40
0.0
 40
0.0
 40
0.0621988818449511
 40
0.1377264193492649
 40
0.2132106073192432
 40
0.2886419380534932
 40
0.3640931480073242
 40
0.4396236220488717
 40
0.5151025359405775
 40
0.5843260773065929
 40
0.6536141116525959
 40
0.7229359294733565
 40
0.7921624325775716
 40
0.8614293930580038
 40
0.9307663743142157
 40
1.0
 40
1.0
 40
1.0
 40
1.0
 10
33.00838511244134
 20
-11.09181063783154
 30
0.0
 10
32.53148437291122
 20
-11.08192999940522
 30
0.0
 10
31.47548739527697
 20
-11.06005139144672
 30
0.0
 10
29.83919295973681
 20
-10.70160911677622
 30
0.0
 10
28.10236684058645
 20
-10.0888821476657
 30
0.0
 10
26.36681526308694
 20
-9.222392696089171
 30
0.0
 10
24.63078380220487
 20
-8.132968767838452
 30
0.0
 10
22.89282227472032
 20
-6.845622387030566
 30
0.0
 10
21.20354576567825
 20
-5.43081863596311
 30
0.0
 10
19.56347028103768
 20
-3.936191409008538
 30
0.0
 10
17.96936058949826
 20
-2.404682912540396
 30
0.0
 10
16.37443937940623
 20
-0.8247263579427009
 30
0.0
 10
14.78172874662462
 20
0.7746284060536047
 30
0.0
 10
13.18807618169053
 20
2.355269234268385
 30
0.0
 10
11.59282566964538
 20
3.894024477372037
 30
0.0
 10
10.53067781536777
 20
4.848457114016997
 30
0.0
 10
10.00000000000106
 20
5.32531749130778
 30
0.0
  0
LINE
  5
B1
330
1F
100
AcDbEntity
  8
외형선
  6
Continuous
 62
     1
370
    15
100
AcDbLine
 10
57.62499999999999
 20
-11.03033216820054
 30
0.0
 11
57.62499999999999
 21
-6.674234334024097
 31
0.0
  0
SPLINE
  5
B2
330
1F
100
AcDbEntity
  8
외형선
  6
Continuous
 62
     1
370
    15
100
AcDbSpline
210
0.0
220
0.0
230
1.0
 70
     8
 71
     3
 72
    27
 73
    23
 74
     0
 42
0.000000001
 43
0.00000001
 40
0.0
 40
0.0
 40
0.0
 40
0.0
 40
0.0170677602132429
 40
0.0687870627386185
 40
0.1204927387181484
 40
0.1722346465800697
 40
0.2240062691103446
 40
0.2757233234427717
 40
0.3274297787255261
 40
0.3791754840438473
 40
0.4309445553757434
 40
0.4826595448636256
 40
0.5343669632668315
 40
0.5861166481246399
 40
0.6378826300976448
 40
0.6895957381806871
 40
0.7413043034789542
 40
0.79305814978382
 40
0.8448205044056828
 40
0.8965319146067957
 40
0.948241810523988
 40
1.0
 40
1.0
 40
1.0
 40
1.0
 10
24.0579979231924
 20
11.0835873349691
 30
0.0
 10
24.24905470934301
 20
11.09190742466138
 30
0.0
 10
25.01905821134817
 20
11.12543933069374
 30
0.0
 10
26.36679381381105
 20
10.90703451502404
 30
0.0
 10
28.10237051404202
 20
10.43067198151033
 30
0.0
 10
29.8391997366481
 20
9.681149210487376
 30
0.0
 10
31.57713702467385
 20
8.701303841121952
 30
0.0
 10
33.31307678842998
 20
7.507356912336194
 30
0.0
 10
35.04865566740191
 20
6.130908251621078
 30
0.0
 10
36.78563093682009
 20
4.605145398005009
 30
0.0
 10
38.52347166384764
 20
2.967850856507779
 30
0.0
 10
40.25934021757187
 20
1.25719514130387
 30
0.0
 10
41.99495171821623
 20
-0.4839184138681699
 30
0.0
 10
43.7320736715331
 20
-2.212838282018895
 30
0.0
 10
45.46979957280223
 20
-3.887372912777296
 30
0.0
 10
47.20560364469709
 20
-5.468051191153656
 30
0.0
 10
48.94125413633684
 20
-6.915375464894301
 30
0.0
 10
50.6785298576993
 20
-8.193347181585834
 30
0.0
 10
52.4161209433284
 20
-9.272911574333618
 30
0.0
 10
54.15186772620515
 20
-10.12177634685791
 30
0.0
 10
55.88756346859434
 20
-10.7430731071959
 30
0.0
 10
57.04567430742119
 20
-10.93454935745728
 30
0.0
 10
57.62499999999999
 20
-11.03033216820054
 30
0.0
  0
SPLINE
  5
B3
330
1F
100
AcDbEntity
  8
외형선
  6
Continuous
 62
     1
370
    15
100
AcDbSpline
210
0.0
220
0.0
230
1.0
 70
     8
 71
     3
 72
    24
 73
    20
 74
     0
 42
0.000000001
 43
0.00000001
 40
0.0
 40
0.0
 40
0.0
 40
0.0
 40
0.0597198818120232
 40
0.1193840413189556
 40
0.1790499480442057
 40
0.2387746357047421
 40
0.2984895062582554
 40
0.3581521304640925
 40
0.4178199962475941
 40
0.4775488692357807
 40
0.5372589382085394
 40
0.5969202390984298
 40
0.6565902756934644
 40
0.7163227132605073
 40
0.7760281905419758
 40
0.8356883801596191
 40
0.8953607992234657
 40
0.9550961804264274
 40
1.0
 40
1.0
 40
1.0
 40
1.0
 10
57.62499999999999
 20
-6.675139405531994
 30
0.0
 10
57.04567430742124
 20
-6.196622773334598
 30
0.0
 10
55.88756346859454
 20
-5.240035994246894
 30
0.0
 10
54.15186772620454
 20
-3.63301677940354
 30
0.0
 10
52.41612094333052
 20
-1.949015060843482
 30
0.0
 10
50.67852985769125
 20
-0.2152017245799751
 30
0.0
 10
48.94125413636718
 20
1.523289045450991
 30
0.0
 10
47.20560364458391
 20
3.22542123739457
 30
0.0
 10
45.469799573225
 20
4.848981894136474
 30
0.0
 10
43.73207366995361
 20
6.353530532848279
 30
0.0
 10
41.99495172410666
 20
7.703703401571396
 30
0.0
 10
40.25934019560688
 20
8.866414904433999
 30
0.0
 10
38.52347174587408
 20
9.813024143115804
 30
0.0
 10
36.78563063039636
 20
10.52017393679237
 30
0.0
 10
35.04865681000985
 20
10.97068935259454
 30
0.0
 10
33.3130725273373
 20
11.15608656454744
 30
0.0
 10
31.5771529384276
 20
11.06120485647005
 30
0.0
 10
29.98272809456943
 20
10.75549898847776
 30
0.0
 10
28.96802882950846
 20
10.36772552644842
 30
0.0
 10
28.53259094025087
 20
10.20132030311753
 30
0.0
  0
LINE
  5
B4
330
1F
100
AcDbEntity
  8
외형선
  6
Continuous
 62
     1
370
    15
100
AcDbLine
 10
57.62499999999999
 20
-4.354117833944484
 30
0.0
 11
57.62499999999999
 21
4.356267691392497
 31
0.0
  0
SPLINE
  5
B5
330
1F
100
AcDbEntity
  8
외형선
  6
Continuous
 62
     1
370
    15
100
AcDbSpline
210
0.0
220
0.0
230
1.0
 70
     8
 71
     3
 72
    20
 73
    16
 74
     0
 42
0.000000001
 43
0.00000001
 40
0.0
 40
0.0
 40
0.0
 40
0.0
 40
0.0497840717311039
 40
0.1290203050095117
 40
0.2081737621921125
 40
0.2873156312929465
 40
0.3665221921985701
 40
0.4457536969942083
 40
0.5249042745533399
 40
0.6040478990583616
 40
0.6832608293536874
 40
0.7624867822312812
 40
0.8416347610617668
 40
0.9207804221733734
 40
1.0
 40
1.0
 40
1.0
 40
1.0
 10
35.69355758224109
 20
11.08190824826398
 30
0.0
 10
36.05751056386061
 20
11.08401514687625
 30
0.0
 10
37.00073041440441
 20
11.0894753812871
 30
0.0
 10
38.52349237271888
 20
10.79252151210052
 30
0.0
 10
40.25933467215621
 20
10.23256050215209
 30
0.0
 10
41.99495320535412
 20
9.41189700688513
 30
0.0
 10
43.73207327276478
 20
8.365082665106742
 30
0.0
 10
45.46979967954464
 20
7.114006768882215
 30
0.0
 10
47.20560361611154
 20
5.689062686061645
 30
0.0
 10
48.94125414400347
 20
4.125427617541598
 30
0.0
 10
50.67852985564392
 20
2.461918468419051
 30
0.0
 10
52.41612094387833
 20
0.7381505037959112
 30
0.0
 10
54.15186772605858
 20
-1.002389191551611
 30
0.0
 10
55.88756346863101
 20
-2.726032036668304
 30
0.0
 10
57.04567430743343
 20
-3.811253726372346
 30
0.0
 10
57.62499999999999
 20
-4.354117833944485
 30
0.0
  0
SPLINE
  5
B6
330
1F
100
AcDbEntity
  8
외형선
  6
Continuous
 62
     1
370
    15
100
AcDbSpline
210
0.0
220
0.0
230
1.0
 70
     8
 71
     3
 72
    18
 73
    14
 74
     0
 42
0.000000001
 43
0.00000001
 40
0.0
 40
0.0
 40
0.0
 40
0.0
 40
0.0995307039173172
 40
0.1989685395957615
 40
0.2984092872335697
 40
0.3979480007026631
 40
0.4974703527265762
 40
0.5969056296323957
 40
0.6963496422874959
 40
0.7958953311322013
 40
0.8954096807170955
 40
0.9948427521502368
 40
0.9999999999999999
 40
0.9999999999999999
 40
0.9999999999999999
 40
0.9999999999999999
 10
57.62500000000001
 20
4.3562676913925
 30
0.0
 10
57.04567430709709
 20
4.878624991184201
 30
0.0
 10
55.88756346762237
 20
5.922852199434227
 30
0.0
 10
54.15186773008907
 20
7.31727624107038
 30
0.0
 10
52.41612092875679
 20
8.540938115697102
 30
0.0
 10
50.67852991215563
 20
9.553933648284968
 30
0.0
 10
48.94125393321734
 20
10.3347439022448
 30
0.0
 10
47.20560440204295
 20
10.86427588431872
 30
0.0
 10
45.46979674476751
 20
11.1270169025114
 30
0.0
 10
43.73208423650173
 20
11.12593170217813
 30
0.0
 10
41.99491231798454
 20
10.82624170002093
 30
0.0
 10
40.80786722511596
 20
10.51100440728209
 30
0.0
 10
40.19941414510107
 20
10.2321974906699
 30
0.0
 10
40.16941191009401
 20
10.218449790299
 30
0.0
  0
LINE
  5
B7
330
1F
100
AcDbEntity
  8
외형선
  6
Continuous
 62
     1
370
    15
100
AcDbLine
 10
57.62499999999999
 20
-6.675139405531994
 30
0.0
 11
57.62499999999999
 21
-4.354117833944484
 31
0.0
  0
LINE
  5
B8
330
1F
100
AcDbEntity
  8
외형선
  6
Continuous
370
    15
100
AcDbLine
 10
9.99999999999998
 20
5.325317491311932
 30
0.0
 11
10.0
 21
7.505744247371194
 31
0.0
  0
LINE
  5
B9
330
1F
100
AcDbEntity
  8
외형선
  6
Continuous
 62
     1
370
    15
100
AcDbLine
 10
57.62499999999999
 20
-11.1114250712761
 30
0.0
 11
57.62499999999999
 21
-11.03033216820054
 31
0.0
  0
LINE
  5
BA
330
1F
100
AcDbEntity
  8
외형선
  6
Continuous
370
    15
100
AcDbLine
 10
9.99999999999998
 20
11.11038941478848
 30
0.0
 11
9.999999999999988
 21
11.11357492872391
 31
0.0
  0
LINE
  5
BB
330
1F
100
AcDbEntity
  8
외형선
  6
Continuous
 62
     1
370
    15
100
AcDbLine
 10
57.62499999999999
 20
11.03248202564836
 30
0.0
 11
57.62499999999999
 21
11.1135749287239
 31
0.0
  0
SPLINE
  5
BC
330
1F
100
AcDbEntity
  8
외형선
  6
Continuous
 62
     1
370
    15
100
AcDbSpline
210
0.0
220
0.0
230
1.0
 70
     8
 71
     3
 72
    11
 73
     7
 74
     0
 42
0.000000001
 43
0.00000001
 40
0.0
 40
0.0
 40
0.0
 40
0.0
 40
0.2985833971494618
 40
0.596888197713562
 40
0.8952017339007923
 40
1.0
 40
1.0
 40
1.0
 40
1.0
 10
57.62499999999999
 20
11.03248202564836
 30
0.0
 10
57.04567654903563
 20
11.07719760792423
 30
0.0
 10
55.88757019134611
 20
11.16658705010074
 30
0.0
 10
54.15184086414064
 20
10.94088353481517
 30
0.0
 10
52.79196927340897
 20
10.61923779576652
 30
0.0
 10
52.00984099838151
 20
10.28344055386128
 30
0.0
 10
51.80650860616391
 20
10.19614226958142
 30
0.0
  0
SPLINE
  5
BD
330
1F
100
AcDbEntity
  8
외형선
  6
Continuous
 62
     1
370
    15
100
AcDbSpline
210
0.0
220
0.0
230
1.0
 70
     8
 71
     3
 72
    15
 73
    11
 74
     0
 42
0.000000001
 43
0.00000001
 40
0.0
 40
0.0
 40
0.0
 40
0.0
 40
0.0188208739771878
 40
0.158893154927264
 40
0.2990959359736062
 40
0.4393670771222249
 40
0.5794453510830173
 40
0.7196054896357703
 40
0.8599073136554005
 40
1.0
 40
1.0
 40
1.0
 40
1.0
 10
21.36982927664753
 20
-11.09678358015879
 30
0.0
 10
21.29848575200596
 20
-11.10154799352336
 30
0.0
 10
20.69617590562636
 20
-11.14177102842551
 30
0.0
 10
19.56354136232472
 20
-10.98700194721688
 30
0.0
 10
17.96934152467644
 20
-10.63525449832648
 30
0.0
 10
16.37444448080569
 20
-10.040824497178
 30
0.0
 10
14.78172738012538
 20
-9.246539182477523
 30
0.0
 10
13.18807654660981
 20
-8.258485432198356
 30
0.0
 10
11.59282557853587
 20
-7.110962511590877
 30
0.0
 10
10.53067778501303
 20
-6.22609883612557
 30
0.0
 10
10.00000000000106
 20
-5.783996994746207
 30
0.0
  0
LINE
  5
BE
330
1F
100
AcDbEntity
  8
외형선
  6
Continuous
370
    15
100
AcDbLine
 10
9.99999999999998
 20
-5.783996994752669
 30
0.0
 11
10.0
 21
-3.344174226238553
 31
0.0
  0
SPLINE
  5
BF
330
1F
100
AcDbEntity
  8
외형선
  6
Continuous
 62
     1
370
    15
100
AcDbSpline
210
0.0
220
0.0
230
1.0
 70
     8
 71
     3
 72
    12
 73
     8
 74
     0
 42
0.000000001
 43
0.00000001
 40
0.0
 40
0.0
 40
0.0
 40
0.0
 40
0.2309914940388669
 40
0.4623278242378181
 40
0.6934305366903198
 40
0.9243982669042827
 40
1.0
 40
1.0
 40
1.0
 40
1.0
 10
10.0
 20
-10.84884354488582
 30
0.0
 10
10.53067863433626
 20
-10.94191191910693
 30
0.0
 10
11.59282812777561
 20
-11.12818760487635
 30
0.0
 10
13.18806633618311
 20
-11.12280784918893
 30
0.0
 10
14.78176561471599
 20
-10.89053750140387
 30
0.0
 10
16.01671871443987
 20
-10.57567950050002
 30
0.0
 10
16.7217063700357
 20
-10.27374432304522
 30
0.0
 10
16.8955602431473
 20
-10.19928543059158
 30
0.0
  0
SPLINE
  5
C0
330
1F
100
AcDbEntity
  8
외형선
  6
Continuous
 62
     1
370
    15
100
AcDbSpline
210
0.0
220
0.0
230
1.0
 70
     8
 71
     3
 72
    13
 73
     9
 74
     0
 42
0.000000001
 43
0.00000001
 40
0.0
 40
0.0
 40
0.0
 40
0.0
 40
0.156420476256524
 40
0.3251843389912878
 40
0.4939759464550771
 40
0.6626014295079401
 40
0.8312219746398188
 40
1.0
 40
1.0
 40
1.0
 40
1.0
 10
47.33116104367506
 20
11.10448984797314
 30
0.0
 10
47.86769639994801
 20
11.08568841515087
 30
0.0
 10
48.98310596364831
 20
11.04660189878984
 30
0.0
 10
50.67853157096523
 20
10.65246528237355
 30
0.0
 10
52.41612048488945
 20
10.01317396590269
 30
0.0
 10
54.15186784839694
 20
9.120185694229834
 30
0.0
 10
55.88756343801347
 20
8.01818517115031
 30
0.0
 10
57.04567429722437
 20
7.124393624281893
 30
0.0
 10
57.62499999999999
 20
6.677289262979855
 30
0.0
  0
LINE
  5
C1
330
1F
100
AcDbEntity
  8
외형선
  6
Continuous
 62
     1
370
    15
100
AcDbLine
 10
57.62499999999999
 20
4.356267691392497
 30
0.0
 11
57.62499999999999
 21
6.677289262979855
 31
0.0
  0
LINE
  5
C2
330
1F
100
AcDbEntity
  8
외형선
  6
Continuous
370
    15
100
AcDbLine
 10
9.999999999999988
 20
-11.1114250712761
 30
0.0
 11
10.0
 21
-10.84884354488582
 31
0.0
  0
LINE
  5
C3
330
1F
100
AcDbEntity
  8
외형선
  6
Continuous
 62
     1
370
    15
100
AcDbLine
 10
57.62499999999999
 20
6.652857819435422
 30
0.0
 11
57.62499999999999
 21
11.03248202564836
 31
0.0
  0
SPLINE
  5
C4
330
1F
100
AcDbEntity
  8
외형선
  6
Continuous
370
    15
100
AcDbSpline
210
0.0
220
0.0
230
1.0
 70
    24
 71
     3
 72
    16
 73
    12
 74
     0
 42
0.000000001
 43
0.00000001
 40
0.0
 40
0.0
 40
0.0
 40
0.0
 40
0.0036188997373761
 40
0.1422646364749551
 40
0.280910373212537
 40
0.4195561099501189
 40
0.5582018466876972
 40
0.6968475834252755
 40
0.8354933201628542
 40
0.9741390569004327
 40
0.9999999999999999
 40
0.9999999999999999
 40
0.9999999999999999
 40
0.9999999999999999
 10
10.0
 20
-5.860483770560871
 30
0.0
 10
10.0
 20
-5.86464210356169
 30
0.0
 10
10.0
 20
-6.028112709445922
 30
0.0
 10
10.00000000000004
 20
-6.435612450010253
 30
0.0
 10
9.999999999999988
 20
-7.072819701138294
 30
0.0
 10
10.00000000000002
 20
-7.775870287495717
 30
0.0
 10
9.99999999999998
 20
-8.512515789892829
 30
0.0
 10
9.99999999999994
 20
-9.264739067940521
 30
0.0
 10
9.99999999999998
 20
-10.00977696570254
 30
0.0
 10
9.999999999999911
 20
-10.53440194212346
 30
0.0
 10
9.999999999999995
 20
-10.80612747651385
 30
0.0
 10
10.0
 20
-10.84884354488582
 30
0.0
  0
LINE
  5
C5
330
1F
100
AcDbEntity
  8
외형선
  6
Continuous
370
    15
100
AcDbLine
 10
8.999722471167177
 20
-11.1114250712761
 30
0.0
 11
8.999722471167177
 21
-11.087230521175
 31
0.0
  0
SPLINE
  5
C6
330
1F
100
AcDbEntity
  8
외형선
  6
Continuous
370
    15
100
AcDbSpline
210
0.0
220
0.0
230
1.0
 70
     8
 71
     3
 72
     8
 73
     4
 74
     0
 42
0.000000001
 43
0.00000001
 40
0.0
 40
0.0
 40
0.0
 40
0.0
 40
1.0
 40
1.0
 40
1.0
 40
1.0
 10
10.0
 20
11.1103894147779
 30
0.0
 10
9.666074355867533
 20
11.11837003435281
 30
0.0
 10
9.33197547853471
 20
11.11132864100983
 30
0.0
 10
8.999722471167155
 20
11.08938282213351
 30
0.0
  0
LINE
  5
C7
330
1F
100
AcDbEntity
  8
외형선
  6
Continuous
370
    15
100
AcDbLine
 10
8.999722471167177
 20
8.211512270632669
 30
0.0
 11
8.999722471167177
 21
11.1135749287239
 31
0.0
  0
SPLINE
  5
C8
330
1F
100
AcDbEntity
  8
외형선
  6
Continuous
370
    15
100
AcDbSpline
210
0.0
220
0.0
230
1.0
 70
     8
 71
     3
 72
     8
 73
     4
 74
     0
 42
0.000000001
 43
0.00000001
 40
0.0
 40
0.0
 40
0.0
 40
0.0
 40
1.0
 40
1.0
 40
1.0
 40
1.0
 10
10.00000000000001
 20
7.50574424737118
 30
0.0
 10
9.66607435586754
 20
7.751575442736922
 30
0.0
 10
9.331975478534725
 20
7.98729920733549
 30
0.0
 10
8.999722471167177
 20
8.21154206947331
 30
0.0
  0
SPLINE
  5
C9
330
1F
100
AcDbEntity
  8
외형선
  6
Continuous
370
    15
100
AcDbSpline
210
0.0
220
0.0
230
1.0
 70
     8
 71
     3
 72
     8
 73
     4
 74
     0
 42
0.000000001
 43
0.00000001
 40
0.0
 40
0.0
 40
0.0
 40
0.0
 40
1.0
 40
1.0
 40
1.0
 40
1.0
 10
10.0
 20
5.325317491308719
 30
0.0
 10
9.666074355867533
 20
5.61789362106602
 30
0.0
 10
9.33197547853471
 20
5.903318806526791
 30
0.0
 10
8.999722471167155
 20
6.17990456679606
 30
0.0
  0
SPLINE
  5
CA
330
1F
100
AcDbEntity
  8
외형선
  6
Continuous
370
    15
100
AcDbSpline
210
0.0
220
0.0
230
1.0
 70
     8
 71
     3
 72
     8
 73
     4
 74
     0
 42
0.000000001
 43
0.00000001
 40
0.0
 40
0.0
 40
0.0
 40
0.0
 40
1.0
 40
1.0
 40
1.0
 40
1.0
 10
10.00000000000001
 20
-3.34417422623856
 30
0.0
 10
9.66607435586754
 20
-3.026310402754439
 30
0.0
 10
9.331975478534725
 20
-2.70386934551558
 30
0.0
 10
8.999722471167177
 20
-2.378821737489251
 30
0.0
  0
SPLINE
  5
CB
330
1F
100
AcDbEntity
  8
외형선
  6
Continuous
370
    15
100
AcDbSpline
210
0.0
220
0.0
230
1.0
 70
     8
 71
     3
 72
     8
 73
     4
 74
     0
 42
0.000000001
 43
0.00000001
 40
0.0
 40
0.0
 40
0.0
 40
0.0
 40
1.0
 40
1.0
 40
1.0
 40
1.0
 10
10.0
 20
-5.783996994745291
 30
0.0
 10
9.666074355867533
 20
-5.499401484562908
 30
0.0
 10
9.33197547853471
 20
-5.206934905759162
 30
0.0
 10
8.999722471167155
 20
-4.908403326613571
 30
0.0
  0
LINE
  5
CC
330
1F
100
AcDbEntity
  8
외형선
  6
Continuous
370
    15
100
AcDbLine
 10
8.999722471167177
 20
-10.58930227371163
 30
0.0
 11
8.999722471167177
 21
-4.908370088058554
 31
0.0
  0
SPLINE
  5
CD
330
1F
100
AcDbEntity
  8
외형선
  6
Continuous
370
    15
100
AcDbSpline
210
0.0
220
0.0
230
1.0
 70
     8
 71
     3
 72
     8
 73
     4
 74
     0
 42
0.000000001
 43
0.00000001
 40
0.0
 40
0.0
 40
0.0
 40
0.0
 40
1.0
 40
1.0
 40
1.0
 40
1.0
 10
10.00000000000001
 20
-10.84884354488582
 30
0.0
 10
9.66607435586754
 20
-10.77681091676745
 30
0.0
 10
9.331975478534725
 20
-10.69009362412716
 30
0.0
 10
8.999722471167177
 20
-10.58928887823865
 30
0.0
  0
LINE
  5
CE
330
1F
100
AcDbEntity
  8
외형선
  6
Continuous
370
    15
100
AcDbLine
 10
9.73376337303758
 20
-11.10264838467209
 30
0.0
 11
8.999722471167155
 21
-11.0872329646857
 31
0.0
  0
LINE
  5
CF
330
1F
100
AcDbEntity
  8
외형선
  6
Continuous
370
    15
100
AcDbLine
 10
-44.92750000000001
 20
0.0010749287239018
 30
0.0
 11
-44.92750000000001
 21
9.462574928723898
 31
0.0
  0
LINE
  5
D0
330
1F
100
AcDbEntity
  8
외형선
  6
Continuous
370
    15
100
AcDbLine
 10
-44.92750000000001
 20
-11.1114250712761
 30
0.0
 11
-44.92750000000001
 21
0.0010749287239018
 31
0.0
  0
LINE
  5
D1
330
1F
100
AcDbEntity
  8
외형선
  6
Continuous
370
    15
100
AcDbLine
 10
8.999722471167177
 20
-2.378864931802879
 30
0.0
 11
8.999722471167177
 21
6.179935361840379
 31
0.0
  0
LINE
  5
D2
330
1F
100
AcDbEntity
  8
외형선
  6
Continuous
370
    15
100
AcDbLine
 10
-47.15000000000001
 20
0.0010749287239018
 30
0.0
 11
-47.15000000000001
 21
9.462574928723896
 31
0.0
  0
LINE
  5
D3
330
1F
100
AcDbEntity
  8
외형선
  6
Continuous
370
    15
100
AcDbLine
 10
-47.15000000000001
 20
-8.888925071276107
 30
0.0
 11
-47.15000000000001
 21
0.0010749287239018
 31
0.0
  0
SPLINE
  5
D4
330
1F
100
AcDbEntity
  8
외형선
  6
Continuous
370
    15
100
AcDbSpline
210
0.0
220
0.0
230
1.0
 70
    24
 71
     3
 72
    28
 73
    24
 74
     0
 42
0.000000001
 43
0.00000001
 40
0.0
 40
0.0
 40
0.0
 40
0.0
 40
0.1250000000000002
 40
0.1250000000000002
 40
0.1875000000000002
 40
0.1875000000000002
 40
0.2500000000000003
 40
0.2500000000000003
 40
0.3125000000000002
 40
0.3125000000000002
 40
0.3750000000000002
 40
0.3750000000000002
 40
0.5000000000000001
 40
0.5000000000000001
 40
0.6250000000000001
 40
0.6250000000000001
 40
0.7500000000000001
 40
0.7500000000000001
 40
0.8125000000000001
 40
0.8125000000000001
 40
0.875
 40
0.875
 40
1.0
 40
1.0
 40
1.0
 40
1.0
 10
10.0
 20
-3.344174226238511
 30
0.0
 10
10.0
 20
-3.28864246959406
 30
0.0
 10
10.0
 20
-3.13003303944575
 30
0.0
 10
9.99999999999998
 20
-2.700559775795116
 30
0.0
 10
9.99999999999998
 20
-2.526144031641397
 30
0.0
 10
9.999999999999988
 20
-2.11979212749582
 30
0.0
 10
9.999999999999988
 20
-1.887889253791457
 30
0.0
 10
9.999999999999995
 20
-1.380266419543752
 30
0.0
 10
9.999999999999995
 20
-1.104674261174456
 30
0.0
 10
9.999999999999988
 20
-0.5297324012333531
 30
0.0
 10
9.999999999999995
 20
-0.2305490812304351
 30
0.0
 10
10.00000000000002
 20
0.6700210177895666
 30
0.0
 10
9.99999999999998
 20
1.271082623274771
 30
0.0
 10
9.999999999999988
 20
2.34941537499217
 30
0.0
 10
9.99999999999998
 20
2.827056626304602
 30
0.0
 10
9.999999999999988
 20
3.629064045277868
 30
0.0
 10
9.999999999999988
 20
3.955226760374217
 30
0.0
 10
9.999999999999988
 20
4.350933535535782
 30
0.0
 10
9.99999999999998
 20
4.467493231724425
 30
0.0
 10
9.999999999999947
 20
4.674535288037194
 30
0.0
 10
9.999999999999988
 20
4.764291011587152
 30
0.0
 10
10.0
 20
5.034101216994125
 30
0.0
 10
9.999999999999968
 20
5.201351738364321
 30
0.0
 10
9.999999999999995
 20
5.325317491300209
 30
0.0
  0
SPLINE
  5
D5
330
1F
100
AcDbEntity
  8
외형선
  6
Continuous
370
    15
100
AcDbSpline
210
0.0
220
0.0
230
1.0
 70
    24
 71
     3
 72
    14
 73
    10
 74
     0
 42
0.000000001
 43
0.00000001
 40
0.0
 40
0.0
 40
0.0
 40
0.0
 40
0.1947434323930035
 40
0.3332347103080538
 40
0.4717259882231042
 40
0.6102172661381153
 40
0.7487085440531266
 40
0.887199821968214
 40
1.0
 40
1.0
 40
1.0
 40
1.0
 10
10.0
 20
-10.84884354488582
 30
0.0
 10
9.999999999999995
 20
-10.51772061639227
 30
0.0
 10
9.999999999999968
 20
-9.951120491309608
 30
0.0
 10
9.999999999999968
 20
-9.097178440963138
 30
0.0
 10
10.00000000000004
 20
-8.347533314178273
 30
0.0
 10
10.0
 20
-7.616197143115608
 30
0.0
 10
9.999999999999988
 20
-6.927348253654467
 30
0.0
 10
10.00000000000001
 20
-6.329221666613953
 30
0.0
 10
9.999999999999995
 20
-6.005697777904888
 30
0.0
 10
10.00000000000001
 20
-5.86047377056087
 30
0.0
  0
SPLINE
  5
D6
330
1F
100
AcDbEntity
  8
외형선
  6
Continuous
370
    15
100
AcDbSpline
210
0.0
220
0.0
230
1.0
 70
    24
 71
     3
 72
    13
 73
     9
 74
     0
 42
0.000000001
 43
0.00000001
 40
0.0
 40
0.0
 40
0.0
 40
0.0
 40
0.0224365700189185
 40
0.2248606546344584
 40
0.4272847392499989
 40
0.6297088238656614
 40
0.8321329084813232
 40
0.9999999999999999
 40
0.9999999999999999
 40
0.9999999999999999
 40
0.9999999999999999
 10
10.0
 20
7.582221023179395
 30
0.0
 10
10.00000000000001
 20
7.603712153774182
 30
0.0
 10
10.00000000000005
 20
7.819097557617271
 30
0.0
 10
9.999999999999988
 20
8.29910891792897
 30
0.0
 10
10.00000000000003
 20
9.002904418588532
 30
0.0
 10
9.999999999999988
 20
9.7462782684306
 30
0.0
 10
9.999999999999973
 20
10.45689000308958
 30
0.0
 10
9.99999999999998
 20
10.90654409240057
 30
0.0
 10
9.999999999999988
 20
11.11038941474962
 30
0.0
  0
LINE
  5
D7
330
1F
100
AcDbEntity
  8
중심선
 62
     1
100
AcDbLine
 10
-50.15
 20
0.0010749287238931
 30
0.0
 11
60.62500000000001
 21
0.0010749287239032
 31
0.0
  0
LINE
  5
D8
330
1F
100
AcDbEntity
  8
참조1
100
AcDbLine
 10
5.237500000000006
 20
0.0010749287238892
 30
0.0
 11
5.237500000000011
 21
-39.99892507127611
 31
0.0
  0
LINE
  5
D9
330
1F
100
AcDbEntity
  8
참조1
100
AcDbLine
 10
5.237500000000011
 20
-39.99892507127611
 30
0.0
 11
-13.09635681430868
 21
-39.9989250712761
 31
0.0
  0
CIRCLE
  5
DA
330
1F
100
AcDbEntity
  8
해칭선
100
AcDbCircle
 10
0.0
 20
0.0
 30
0.0
 40
3.000000000000002
  0
INSERT
  5
DB
330
1F
100
AcDbEntity
  8
0
  6
Continuous
 62
     7
100
AcDbBlockReference
 66
     1
  2
블럭10
 10
-8.7027729321252
 20
-52.04609937292004
 30
0.0
  0
ATTRIB
  5
DC
330
DB
100
AcDbEntity
  8
FORMAT
 62
     2
100
AcDbText
 10
-17.77039471269921
 20
-49.97073246008785
 30
0.0
 40
4.233333333333333
  1
EE882056 [ 6 FLUTE ]
 41
0.75
  7
SLDTEXTSTYLE0
 11
-17.77039471269921
 21
-52.08739912675452
 31
0.0
100
AcDbAttribute
  2
AUTOATTR0
 70
     0
 74
     1
  0
SEQEND
  5
DD
330
DB
100
AcDbEntity
  8
0
  6
Continuous
 62
     7
  0
HATCH
  5
DE
330
1F
100
AcDbEntity
  8
중심선
100
AcDbHatch
 10
0.0
 20
0.0
 30
0.0
210
0.0
220
0.0
230
1.0
  2
SOLID
 70
     1
 71
     0
 91
        1
 92
        0
 93
        4
 72
     1
 10
-2.987863627744364
 20
-35.7989250712761
 11
-6.434138871581646
 21
-35.7989250712761
 72
     1
 10
-6.434138871581646
 20
-35.7989250712761
 11
-8.56236873078567
 21
-38.3352506518487
 72
     1
 10
-8.56236873078567
 20
-38.3352506518487
 11
-5.116060401835237
 21
-38.33521122254621
 72
     1
 10
-5.116060401835237
 20
-38.33521122254621
 11
-2.987863627744364
 21
-35.7989250712761
 97
        0
 75
     0
 76
     1
 98
        1
 10
0.0
 20
0.0
  0
HATCH
  5
DF
330
1F
100
AcDbEntity
  8
중심선
100
AcDbHatch
 10
0.0
 20
0.0
 30
0.0
210
0.0
220
0.0
230
1.0
  2
SOLID
 70
     1
 71
     0
 91
        1
 92
        0
 93
        4
 72
     1
 10
2.024900363291615
 20
-35.79892507127613
 11
-1.421374880545667
 21
-35.79892507127608
 72
     1
 10
-1.421374880545667
 20
-35.79892507127608
 11
-5.952512888903083
 21
-41.19892507127612
 72
     1
 10
-5.952512888903083
 20
-41.19892507127612
 11
-2.506237645065801
 21
-41.19892507127612
 72
     1
 10
-2.506237645065801
 20
-41.19892507127612
 11
2.024900363291616
 21
-35.79892507127613
 97
        0
 75
     0
 76
     1
 98
        1
 10
0.0
 20
0.0
  0
HATCH
  5
E0
330
1F
100
AcDbEntity
  8
중심선
100
AcDbHatch
 10
0.0
 20
0.0
 30
0.0
210
0.0
220
0.0
230
1.0
  2
SOLID
 70
     1
 71
     0
 91
        1
 92
        0
 93
        4
 72
     1
 10
7.037664354327511
 20
-35.7989250712761
 11
3.591389110490395
 21
-35.7989250712761
 72
     1
 10
3.591389110490395
 20
-35.7989250712761
 11
-3.457047791398882
 21
-44.19892507127612
 72
     1
 10
-3.457047791398882
 20
-44.19892507127612
 11
-0.0107725475615994
 21
-44.19892507127612
 72
     1
 10
-0.0107725475615994
 20
-44.19892507127612
 11
7.037664354327511
 21
-35.7989250712761
 97
        0
 75
     0
 76
     1
 98
        1
 10
0.0
 20
0.0
  0
HATCH
  5
E1
330
1F
100
AcDbEntity
  8
중심선
100
AcDbHatch
 10
0.0
 20
0.0
 30
0.0
210
0.0
220
0.0
230
1.0
  2
SOLID
 70
     1
 71
     0
 91
        1
 92
        0
 93
        6
 72
     3
 10
11.83755478533968
 20
-39.99892507132738
 11
3.960054785062284
 21
1.540850780301639E-10
 40
0.3939339440162633
 50
17.09539180608433
 51
320.0019657685073
 73
     0
 72
     1
 10
13.52055444104028
 20
-38.58681907591438
 11
15.82585631474134
 21
-36.65249236586649
 72
     3
 10
11.83755478528684
 20
-39.99892507127625
 11
6.600054785286829
 21
-1.249000902703301E-13
 40
0.6363583540795982
 50
39.99873849337386
 51
368.4976242363724
 73
     1
 72
     1
 10
18.26288727718745
 20
-39.03892507120613
 11
10.51762209212276
 21
-39.03892507120613
 72
     1
 10
10.51762209212276
 20
-39.03892507120613
 11
10.51759704767682
 21
-40.95892507120602
 72
     1
 10
10.51759704767682
 20
-40.95892507120602
 11
14.95897681714886
 21
-40.95892507120599
 97
        0
 75
     0
 76
     1
 98
        1
 10
0.0
 20
0.0
  0
DIMENSION
  5
E2
330
1F
100
AcDbEntity
  8
치수문자_일반주서
100
AcDbDimension
  2
_D
 10
73.4932338746786
 20
-11.11142507127605
 30
0.0
 11
73.49323387467845
 21
32.15507492872403
 31
0.0
 70
   160
  1
%%c<>
 71
     2
 42
22.22500000000001
  3
SLDDIMSTYLE0
100
AcDbAlignedDimension
 13
57.62499999999999
 23
11.1135749287239
 33
0.0
 14
57.62499999999999
 24
-11.1114250712761
 34
0.0
 50
90.0000000000002
100
AcDbRotatedDimension
1001
PE_URL
1000

1001
ACAD
1000
DSTYLE
1002
{
1070
   171
1070
     6
1070
   273
1070
     7
1002
}
  0
DIMENSION
  5
F7
330
1F
100
AcDbEntity
  8
치수문자_일반주서
100
AcDbDimension
  2
_D_1
 10
-59.83249999999997
 20
-11.11142507127615
 30
0.0
 11
-59.83250000000001
 21
0.0010749287238974
 31
0.0
 70
   160
  1
%%c<>
 71
     2
 42
22.22499999999999
  3
SLDDIMSTYLE0
100
AcDbAlignedDimension
 13
-44.92749999999999
 23
11.1135749287239
 33
0.0
 14
-44.92749999999999
 24
-11.11142507127609
 34
0.0
 50
90.0000000000002
100
AcDbRotatedDimension
1001
ACAD
1000
DSTYLE
1002
{
1070
   171
1070
     6
1070
   273
1070
     7
1002
}
  0
DIMENSION
  5
10B
330
1F
100
AcDbEntity
  8
치수문자_일반주서
100
AcDbDimension
  2
_D_2
 10
9.999999999999979
 20
32.3645432572435
 30
0.0
 11
33.81249999999998
 21
32.3645432572435
 31
0.0
 70
   160
  1
<>
 71
     2
 42
47.62500000000001
  3
SLDDIMSTYLE0
100
AcDbAlignedDimension
 13
57.62499999999999
 23
11.03248202564836
 33
0.0
 14
9.99999999999998
 24
11.11038941478848
 34
0.0
 50
0.0000000000000171
100
AcDbRotatedDimension
1001
PE_URL
1000

1001
ACAD
1000
DSTYLE
1002
{
1070
   171
1070
     6
1070
   273
1070
     7
1002
}
  0
DIMENSION
  5
11F
330
1F
100
AcDbEntity
  8
치수문자_일반주서
100
AcDbDimension
  2
_D_3
 10
-47.15000000000001
 20
53.63410448883864
 30
0.0
 11
5.237499999999992
 21
53.63410448883864
 31
0.0
 70
   160
  1
<>
 71
     2
 42
104.775
  3
SLDDIMSTYLE0
100
AcDbAlignedDimension
 13
57.62499999999999
 23
11.03248202564836
 33
0.0
 14
-47.15000000000001
 24
8.891074928723912
 34
0.0
100
AcDbRotatedDimension
1001
PE_URL
1000

1001
ACAD
1000
DSTYLE
1002
{
1070
   171
1070
     6
1070
   273
1070
     7
1002
}
  0
LINE
  5
132
330
1F
100
AcDbEntity
  8
참조1
100
AcDbLine
 10
84.87598381534559
 20
7.441074928723896
 30
0.0
 11
84.87598381534559
 21
-7.438925071276109
 31
0.0
  0
LINE
  5
133
330
1F
100
AcDbEntity
  8
참조1
100
AcDbLine
 10
97.5759838153456
 20
5.441074928723896
 30
0.0
 11
84.87598381534559
 21
5.441074928723896
 31
0.0
  0
SOLID
  5
134
330
1F
100
AcDbEntity
  8
참조1
100
AcDbTrace
 10
84.87598381534559
 20
5.441074928723896
 30
0.0
 11
91.22598381534559
 21
4.425074928723896
 31
0.0
 12
91.22598381534559
 22
6.457074928723896
 32
0.0
 13
91.22598381534559
 23
6.457074928723896
 33
0.0
  0
LINE
  5
135
330
1F
100
AcDbEntity
  8
참조1
100
AcDbLine
 10
97.5759838153456
 20
-5.438925071276109
 30
0.0
 11
84.87598381534559
 21
-5.438925071276109
 31
0.0
  0
SOLID
  5
136
330
1F
100
AcDbEntity
  8
참조1
100
AcDbTrace
 10
84.87598381534559
 20
-5.438925071276109
 30
0.0
 11
91.22598381534559
 21
-6.454925071276109
 31
0.0
 12
91.22598381534559
 22
-4.422925071276109
 32
0.0
 13
91.22598381534559
 23
-4.422925071276109
 33
0.0
  0
MTEXT
  5
137
330
1F
100
AcDbEntity
  8
참조1
100
AcDbMText
 10
94.27347390781586
 20
10.98929157337383
 30
0.0
 40
3.5
 41
0.0
 71
     1
 72
     1
  1
A
  7
SLDTEXTSTYLE0
 73
     1
 44
1.0
  0
MTEXT
  5
138
330
1F
100
AcDbEntity
  8
참조1
100
AcDbMText
 10
94.27347390781586
 20
0.1092915733738259
 30
0.0
 40
3.5
 41
0.0
 71
     1
 72
     1
  1
A
  7
SLDTEXTSTYLE0
 73
     1
 44
1.0
  0
INSERT
  5
13F
330
1F
100
AcDbEntity
  8
해칭선
100
AcDbBlockReference
  2
SW_DOWELSYMBOL_0
 10
0.0
 20
0.0
 30
0.0
  0
LINE
  5
1C6
330
1F
100
AcDbEntity
  8
외형선
  6
Continuous
370
    15
100
AcDbLine
 10
-27.14432500000001
 20
9.462574928723896
 30
0.0
 11
-15.561925
 21
9.462574928723896
 31
0.0
  0
LINE
  5
1C7
330
1F
100
AcDbEntity
  8
외형선
  6
Continuous
370
    15
100
AcDbLine
 10
-27.14432500000001
 20
9.462574928723896
 30
0.0
 11
-28.79532500000002
 21
11.11357492872388
 31
0.0
  0
LINE
  5
1C8
330
1F
100
AcDbEntity
  8
외형선
  6
Continuous
370
    15
100
AcDbLine
 10
-15.561925
 20
9.462574928723896
 30
0.0
 11
-13.91092499999999
 21
11.11357492872388
 31
0.0
  0
LINE
  5
1C9
330
1F
100
AcDbEntity
  8
외형선
  6
Continuous
370
    15
100
AcDbLine
 10
-47.15000000000001
 20
9.462574928723896
 30
0.0
 11
-34.45000000000002
 21
9.462574928723896
 31
0.0
  0
LINE
  5
1CA
330
1F
100
AcDbEntity
  8
0
100
AcDbLine
 10
-32.79900000000001
 20
11.11357492872389
 30
0.0
 11
-28.79532500000002
 21
11.11357492872389
 31
0.0
  0
LINE
  5
1CB
330
1F
100
AcDbEntity
  8
외형선
  6
Continuous
370
    15
100
AcDbLine
 10
-34.45000000000002
 20
9.462574928723896
 30
0.0
 11
-32.79900000000001
 21
11.11357492872387
 31
0.0
  0
LINE
  5
1CC
330
1F
100
AcDbEntity
  8
외형선
  6
Continuous
370
    15
100
AcDbLine
 10
-28.79532500000005
 20
11.1135749287239
 30
0.0
 11
-32.79899999999998
 21
11.1135749287239
 31
0.0
  0
ENDSEC
  0
SECTION
  2
OBJECTS
  0
DICTIONARY
  5
C
330
0
100
AcDbDictionary
281
     1
  3
ACAD_GROUP
350
D
  3
ACAD_IMAGE_VARS
350
18A
  3
ACAD_LAYOUT
350
1A
  3
ACAD_MLINESTYLE
350
17
  3
ACAD_PLOTSETTINGS
350
19
  3
ACAD_PLOTSTYLENAME
350
E
  3
ACAD_SCALELIST
350
47
  3
APPDATA
350
161
  3
DWGPROPS
350
1CD
  0
DICTIONARY
  5
1B7
330
2
100
AcDbDictionary
280
     1
281
     1
  3
ACAD_LAYERSTATES
360
1B8
  0
DICTIONARY
  5
D
102
{ACAD_REACTORS
330
C
102
}
330
C
100
AcDbDictionary
281
     1
  0
RASTERVARIABLES
  5
18A
102
{ACAD_REACTORS
330
C
102
}
330
C
100
AcDbRasterVariables
 90
        0
 70
     1
 71
     1
 72
     1
  0
DICTIONARY
  5
1A
102
{ACAD_REACTORS
330
C
102
}
330
C
100
AcDbDictionary
281
     1
  3
Layout1
350
1E
  3
Layout2
350
26
  3
Model
350
22
  0
DICTIONARY
  5
17
102
{ACAD_REACTORS
330
C
102
}
330
C
100
AcDbDictionary
281
     1
  3
Standard
350
18
  0
DICTIONARY
  5
19
102
{ACAD_REACTORS
330
C
102
}
330
C
100
AcDbDictionary
281
     1
  0
ACDBDICTIONARYWDFLT
  5
E
102
{ACAD_REACTORS
330
C
102
}
330
C
100
AcDbDictionary
281
     1
  3
Normal
350
F
100
AcDbDictionaryWithDefault
340
F
  0
DICTIONARY
  5
47
102
{ACAD_REACTORS
330
C
102
}
330
C
100
AcDbDictionary
281
     1
  3
A0
350
48
  3
A1
350
49
  3
A2
350
4A
  3
A3
350
4B
  3
A4
350
4C
  3
A5
350
4D
  3
A6
350
4E
  3
A7
350
4F
  3
A8
350
50
  3
A9
350
51
  3
B0
350
52
  3
B1
350
53
  3
B2
350
54
  3
B3
350
55
  3
B4
350
56
  3
B5
350
57
  3
B6
350
58
  3
B7
350
59
  3
B8
350
5A
  3
B9
350
5B
  3
C0
350
5C
  3
C1
350
5D
  3
C2
350
5E
  3
C3
350
5F
  3
C4
350
60
  3
C5
350
61
  3
C6
350
62
  3
C7
350
63
  3
C8
350
64
  3
C9
350
65
  3
D0
350
66
  3
D1
350
67
  3
D2
350
68
  0
DICTIONARY
  5
161
102
{ACAD_REACTORS
330
C
102
}
330
C
100
AcDbDictionary
281
     1
  0
XRECORD
  5
1CD
102
{ACAD_REACTORS
330
C
102
}
330
C
100
AcDbXrecord
280
     1
  1
DWGPROPS COOKIE
  2

  3

  4

  6

  7

  8
12016016
  9

300
=
301
=
302
=
303
=
304
=
305
=
306
=
307
=
308
=
309
=
 40
0.0
 41
2458292.269598333
 42
2458302.056947558
  1

 90
        0
  0
DICTIONARY
  5
1B8
102
{ACAD_REACTORS
330
1B7
102
}
330
1B7
100
AcDbDictionary
281
     1
  0
LAYOUT
  5
1E
102
{ACAD_REACTORS
330
1A
102
}
330
1A
100
AcDbPlotSettings
  1

  2
none_device
  4

  6

 40
0.0
 41
0.0
 42
0.0
 43
0.0
 44
0.0
 45
0.0
 46
0.0
 47
0.0
 48
0.0
 49
0.0
140
0.0
141
0.0
142
1.0
143
1.0
 70
   688
 72
     1
 73
     0
 74
     5
  7

 75
    16
147
1.0
148
0.0
149
0.0
100
AcDbLayout
  1
Layout1
 70
     1
 71
     1
 10
0.0
 20
0.0
 11
420.0
 21
297.0
 12
0.0
 22
0.0
 32
0.0
 14
1.000000000000000E+20
 24
1.000000000000000E+20
 34
1.000000000000000E+20
 15
-1.000000000000000E+20
 25
-1.000000000000000E+20
 35
-1.000000000000000E+20
146
0.0
 13
0.0
 23
0.0
 33
0.0
 16
1.0
 26
0.0
 36
0.0
 17
0.0
 27
1.0
 37
0.0
 76
     0
330
1B
  0
LAYOUT
  5
26
102
{ACAD_REACTORS
330
1A
102
}
330
1A
100
AcDbPlotSettings
  1

  2
none_device
  4

  6

 40
0.0
 41
0.0
 42
0.0
 43
0.0
 44
0.0
 45
0.0
 46
0.0
 47
0.0
 48
0.0
 49
0.0
140
0.0
141
0.0
142
1.0
143
1.0
 70
   688
 72
     1
 73
     0
 74
     5
  7

 75
    16
147
1.0
148
0.0
149
0.0
100
AcDbLayout
  1
Layout2
 70
     1
 71
     2
 10
0.0
 20
0.0
 11
0.0
 21
0.0
 12
0.0
 22
0.0
 32
0.0
 14
0.0
 24
0.0
 34
0.0
 15
0.0
 25
0.0
 35
0.0
146
0.0
 13
0.0
 23
0.0
 33
0.0
 16
1.0
 26
0.0
 36
0.0
 17
0.0
 27
1.0
 37
0.0
 76
     0
330
23
  0
LAYOUT
  5
22
102
{ACAD_REACTORS
330
1A
102
}
330
1A
100
AcDbPlotSettings
  1

  2
none_device
  4
ANSI_A_(11.00_x_8.50_Inches)
  6

 40
6.35
 41
19.05
 42
6.35000508
 43
19.05000254
 44
279.4
 45
215.9
 46
111.1899566638728
 47
77.6251166133796
 48
0.0
 49
0.0
140
0.0
141
0.0
142
0.0647438263393159
143
1.0
 70
  1696
 72
     0
 73
     0
 74
     0
  7

 75
     0
147
0.0235690232323232
148
0.0
149
0.0
100
AcDbLayout
  1
Model
 70
     1
 71
     0
 10
0.0
 20
0.0
 11
420.0
 21
297.0
 12
0.0
 22
0.0
 32
0.0
 14
1.000000000000000E+20
 24
1.000000000000000E+20
 34
1.000000000000000E+20
 15
-1.000000000000000E+20
 25
-1.000000000000000E+20
 35
-1.000000000000000E+20
146
0.0
 13
0.0
 23
0.0
 33
0.0
 16
1.0
 26
0.0
 36
0.0
 17
0.0
 27
1.0
 37
0.0
 76
     0
330
1F
331
29
  0
MLINESTYLE
  5
18
102
{ACAD_REACTORS
330
17
102
}
330
17
100
AcDbMlineStyle
  2
Standard
 70
     0
  3

 62
   256
 51
90.0
 52
90.0
 71
     2
 49
0.5
 62
   256
  6
BYLAYER
 49
-0.5
 62
   256
  6
BYLAYER
  0
ACDBPLACEHOLDER
  5
F
102
{ACAD_REACTORS
330
E
102
}
330
E
  0
SCALE
  5
48
102
{ACAD_REACTORS
330
47
102
}
330
47
100
AcDbScale
 70
     0
300
1:1
140
1.0
141
1.0
290
     1
  0
SCALE
  5
49
102
{ACAD_REACTORS
330
47
102
}
330
47
100
AcDbScale
 70
     0
300
1:2
140
1.0
141
2.0
290
     0
  0
SCALE
  5
4A
102
{ACAD_REACTORS
330
47
102
}
330
47
100
AcDbScale
 70
     0
300
1:4
140
1.0
141
4.0
290
     0
  0
SCALE
  5
4B
102
{ACAD_REACTORS
330
47
102
}
330
47
100
AcDbScale
 70
     0
300
1:5
140
1.0
141
5.0
290
     0
  0
SCALE
  5
4C
102
{ACAD_REACTORS
330
47
102
}
330
47
100
AcDbScale
 70
     0
300
1:8
140
1.0
141
8.0
290
     0
  0
SCALE
  5
4D
102
{ACAD_REACTORS
330
47
102
}
330
47
100
AcDbScale
 70
     0
300
1:10
140
1.0
141
10.0
290
     0
  0
SCALE
  5
4E
102
{ACAD_REACTORS
330
47
102
}
330
47
100
AcDbScale
 70
     0
300
1:16
140
1.0
141
16.0
290
     0
  0
SCALE
  5
4F
102
{ACAD_REACTORS
330
47
102
}
330
47
100
AcDbScale
 70
     0
300
1:20
140
1.0
141
20.0
290
     0
  0
SCALE
  5
50
102
{ACAD_REACTORS
330
47
102
}
330
47
100
AcDbScale
 70
     0
300
1:30
140
1.0
141
30.0
290
     0
  0
SCALE
  5
51
102
{ACAD_REACTORS
330
47
102
}
330
47
100
AcDbScale
 70
     0
300
1:40
140
1.0
141
40.0
290
     0
  0
SCALE
  5
52
102
{ACAD_REACTORS
330
47
102
}
330
47
100
AcDbScale
 70
     0
300
1:50
140
1.0
141
50.0
290
     0
  0
SCALE
  5
53
102
{ACAD_REACTORS
330
47
102
}
330
47
100
AcDbScale
 70
     0
300
1:100
140
1.0
141
100.0
290
     0
  0
SCALE
  5
54
102
{ACAD_REACTORS
330
47
102
}
330
47
100
AcDbScale
 70
     0
300
2:1
140
2.0
141
1.0
290
     0
  0
SCALE
  5
55
102
{ACAD_REACTORS
330
47
102
}
330
47
100
AcDbScale
 70
     0
300
4:1
140
4.0
141
1.0
290
     0
  0
SCALE
  5
56
102
{ACAD_REACTORS
330
47
102
}
330
47
100
AcDbScale
 70
     0
300
8:1
140
8.0
141
1.0
290
     0
  0
SCALE
  5
57
102
{ACAD_REACTORS
330
47
102
}
330
47
100
AcDbScale
 70
     0
300
10:1
140
10.0
141
1.0
290
     0
  0
SCALE
  5
58
102
{ACAD_REACTORS
330
47
102
}
330
47
100
AcDbScale
 70
     0
300
100:1
140
100.0
141
1.0
290
     0
  0
SCALE
  5
59
102
{ACAD_REACTORS
330
47
102
}
330
47
100
AcDbScale
 70
     0
300
1/128" = 1'-0"
140
0.0078125
141
12.0
290
     0
  0
SCALE
  5
5A
102
{ACAD_REACTORS
330
47
102
}
330
47
100
AcDbScale
 70
     0
300
1/64" = 1'-0"
140
0.015625
141
12.0
290
     0
  0
SCALE
  5
5B
102
{ACAD_REACTORS
330
47
102
}
330
47
100
AcDbScale
 70
     0
300
1/32" = 1'-0"
140
0.03125
141
12.0
290
     0
  0
SCALE
  5
5C
102
{ACAD_REACTORS
330
47
102
}
330
47
100
AcDbScale
 70
     0
300
1/16" = 1'-0"
140
0.0625
141
12.0
290
     0
  0
SCALE
  5
5D
102
{ACAD_REACTORS
330
47
102
}
330
47
100
AcDbScale
 70
     0
300
3/32" = 1'-0"
140
0.09375
141
12.0
290
     0
  0
SCALE
  5
5E
102
{ACAD_REACTORS
330
47
102
}
330
47
100
AcDbScale
 70
     0
300
1/8" = 1'-0"
140
0.125
141
12.0
290
     0
  0
SCALE
  5
5F
102
{ACAD_REACTORS
330
47
102
}
330
47
100
AcDbScale
 70
     0
300
3/16" = 1'-0"
140
0.1875
141
12.0
290
     0
  0
SCALE
  5
60
102
{ACAD_REACTORS
330
47
102
}
330
47
100
AcDbScale
 70
     0
300
1/4" = 1'-0"
140
0.25
141
12.0
290
     0
  0
SCALE
  5
61
102
{ACAD_REACTORS
330
47
102
}
330
47
100
AcDbScale
 70
     0
300
3/8" = 1'-0"
140
0.375
141
12.0
290
     0
  0
SCALE
  5
62
102
{ACAD_REACTORS
330
47
102
}
330
47
100
AcDbScale
 70
     0
300
1/2" = 1'-0"
140
0.5
141
12.0
290
     0
  0
SCALE
  5
63
102
{ACAD_REACTORS
330
47
102
}
330
47
100
AcDbScale
 70
     0
300
3/4" = 1'-0"
140
0.75
141
12.0
290
     0
  0
SCALE
  5
64
102
{ACAD_REACTORS
330
47
102
}
330
47
100
AcDbScale
 70
     0
300
1" = 1'-0"
140
1.0
141
12.0
290
     0
  0
SCALE
  5
65
102
{ACAD_REACTORS
330
47
102
}
330
47
100
AcDbScale
 70
     0
300
1-1/2" = 1'-0"
140
1.5
141
12.0
290
     0
  0
SCALE
  5
66
102
{ACAD_REACTORS
330
47
102
}
330
47
100
AcDbScale
 70
     0
300
3" = 1'-0"
140
3.0
141
12.0
290
     0
  0
SCALE
  5
67
102
{ACAD_REACTORS
330
47
102
}
330
47
100
AcDbScale
 70
     0
300
6" = 1'-0"
140
6.0
141
12.0
290
     0
  0
SCALE
  5
68
102
{ACAD_REACTORS
330
47
102
}
330
47
100
AcDbScale
 70
     0
300
1'-0" = 1'-0"
140
12.0
141
12.0
290
     0
  0
ENDSEC
  0
EOF
