  0
SECTION
  2
HEADER
  9
$ACADVER
  1
AC1015
  9
$ACADMAINTVER
 70
     6
  9
$DWGCODEPAGE
  3
ANSI_949
  9
$INSBASE
 10
0.0
 20
0.0
 30
0.0
  9
$EXTMIN
 10
1.000000000000000E+20
 20
1.000000000000000E+20
 30
1.000000000000000E+20
  9
$EXTMAX
 10
-1.000000000000000E+20
 20
-1.000000000000000E+20
 30
-1.000000000000000E+20
  9
$LIMMIN
 10
0.0
 20
0.0
  9
$LIMMAX
 10
420.0
 20
297.0
  9
$ORTHOMODE
 70
     1
  9
$REGENMODE
 70
     1
  9
$FILLMODE
 70
     1
  9
$QTEXTMODE
 70
     0
  9
$MIRRTEXT
 70
     1
  9
$LTSCALE
 40
1.0
  9
$ATTMODE
 70
     1
  9
$TEXTSIZE
 40
3.5
  9
$TRACEWID
 40
1.0
  9
$TEXTSTYLE
  7
Standard
  9
$CLAYER
  8
0
  9
$CELTYPE
  6
ByLayer
  9
$CECOLOR
 62
   256
  9
$CELTSCALE
 40
1.0
  9
$DISPSILH
 70
     0
  9
$DIMSCALE
 40
1.0
  9
$DIMASZ
 40
3.302
  9
$DIMEXO
 40
1.0
  9
$DIMDLI
 40
3.75
  9
$DIMRND
 40
0.0
  9
$DIMDLE
 40
0.0
  9
$DIMEXE
 40
1.0
  9
$DIMTP
 40
0.0
  9
$DIMTM
 40
0.0
  9
$DIMTXT
 40
3.5
  9
$DIMCEN
 40
2.5
  9
$DIMTSZ
 40
0.0
  9
$DIMTOL
 70
     0
  9
$DIMLIM
 70
     0
  9
$DIMTIH
 70
     1
  9
$DIMTOH
 70
     1
  9
$DIMSE1
 70
     0
  9
$DIMSE2
 70
     0
  9
$DIMTAD
 70
     1
  9
$DIMZIN
 70
     0
  9
$DIMBLK
  1

  9
$DIMASO
 70
     1
  9
$DIMSHO
 70
     1
  9
$DIMPOST
  1

  9
$DIMAPOST
  1

  9
$DIMALT
 70
     0
  9
$DIMALTD
 70
     3
  9
$DIMALTF
 40
0.0393700787401575
  9
$DIMLFAC
 40
1.0
  9
$DIMTOFL
 70
     1
  9
$DIMTVP
 40
0.0
  9
$DIMTIX
 70
     0
  9
$DIMSOXD
 70
     0
  9
$DIMSAH
 70
     0
  9
$DIMBLK1
  1

  9
$DIMBLK2
  1

  9
$DIMSTYLE
  2
ISO-25
  9
$DIMCLRD
 70
     0
  9
$DIMCLRE
 70
     0
  9
$DIMCLRT
 70
     0
  9
$DIMTFAC
 40
1.0
  9
$DIMGAP
 40
1.524
  9
$DIMJUST
 70
     0
  9
$DIMSD1
 70
     0
  9
$DIMSD2
 70
     0
  9
$DIMTOLJ
 70
     0
  9
$DIMTZIN
 70
     0
  9
$DIMALTZ
 70
     0
  9
$DIMALTTZ
 70
     0
  9
$DIMUPT
 70
     0
  9
$DIMDEC
 70
     2
  9
$DIMTDEC
 70
     2
  9
$DIMALTU
 70
     2
  9
$DIMALTTD
 70
     3
  9
$DIMTXSTY
  7
Standard
  9
$DIMAUNIT
 70
     0
  9
$DIMADEC
 70
     2
  9
$DIMALTRND
 40
0.0
  9
$DIMAZIN
 70
     0
  9
$DIMDSEP
 70
    44
  9
$DIMATFIT
 70
     3
  9
$DIMFRAC
 70
     0
  9
$DIMLDRBLK
  1

  9
$DIMLUNIT
 70
     2
  9
$DIMLWD
 70
    -2
  9
$DIMLWE
 70
    -2
  9
$DIMTMOVE
 70
     0
  9
$LUNITS
 70
     2
  9
$LUPREC
 70
     2
  9
$SKETCHINC
 40
1.0
  9
$FILLETRAD
 40
10.0
  9
$AUNITS
 70
     0
  9
$AUPREC
 70
     2
  9
$MENU
  1
.
  9
$ELEVATION
 40
0.0
  9
$PELEVATION
 40
0.0
  9
$THICKNESS
 40
0.0
  9
$LIMCHECK
 70
     0
  9
$CHAMFERA
 40
0.0
  9
$CHAMFERB
 40
0.0
  9
$CHAMFERC
 40
0.0
  9
$CHAMFERD
 40
0.0
  9
$SKPOLY
 70
     0
  9
$TDCREATE
 40
2458292.644410011
  9
$TDUCREATE
 40
2458292.269410011
  9
$TDUPDATE
 40
2458302.432142674
  9
$TDUUPDATE
 40
2458302.057142674
  9
$TDINDWG
 40
0.0013925116
  9
$TDUSRTIMER
 40
2458302.057009491
  9
$USRTIMER
 70
     1
  9
$ANGBASE
 50
0.0
  9
$ANGDIR
 70
     0
  9
$PDMODE
 70
     0
  9
$PDSIZE
 40
-1.0
  9
$PLINEWID
 40
0.0
  9
$SPLFRAME
 70
     0
  9
$SPLINETYPE
 70
     6
  9
$SPLINESEGS
 70
     8
  9
$HANDSEED
  5
1C9
  9
$SURFTAB1
 70
     6
  9
$SURFTAB2
 70
     6
  9
$SURFTYPE
 70
     6
  9
$SURFU
 70
     6
  9
$SURFV
 70
     6
  9
$UCSBASE
  2

  9
$UCSNAME
  2

  9
$UCSORG
 10
0.0
 20
0.0
 30
0.0
  9
$UCSXDIR
 10
1.0
 20
0.0
 30
0.0
  9
$UCSYDIR
 10
0.0
 20
1.0
 30
0.0
  9
$UCSORTHOREF
  2

  9
$UCSORTHOVIEW
 70
     0
  9
$UCSORGTOP
 10
0.0
 20
0.0
 30
0.0
  9
$UCSORGBOTTOM
 10
0.0
 20
0.0
 30
0.0
  9
$UCSORGLEFT
 10
0.0
 20
0.0
 30
0.0
  9
$UCSORGRIGHT
 10
0.0
 20
0.0
 30
0.0
  9
$UCSORGFRONT
 10
0.0
 20
0.0
 30
0.0
  9
$UCSORGBACK
 10
0.0
 20
0.0
 30
0.0
  9
$PUCSBASE
  2

  9
$PUCSNAME
  2

  9
$PUCSORG
 10
0.0
 20
0.0
 30
0.0
  9
$PUCSXDIR
 10
1.0
 20
0.0
 30
0.0
  9
$PUCSYDIR
 10
0.0
 20
1.0
 30
0.0
  9
$PUCSORTHOREF
  2

  9
$PUCSORTHOVIEW
 70
     0
  9
$PUCSORGTOP
 10
0.0
 20
0.0
 30
0.0
  9
$PUCSORGBOTTOM
 10
0.0
 20
0.0
 30
0.0
  9
$PUCSORGLEFT
 10
0.0
 20
0.0
 30
0.0
  9
$PUCSORGRIGHT
 10
0.0
 20
0.0
 30
0.0
  9
$PUCSORGFRONT
 10
0.0
 20
0.0
 30
0.0
  9
$PUCSORGBACK
 10
0.0
 20
0.0
 30
0.0
  9
$USERI1
 70
     0
  9
$USERI2
 70
     0
  9
$USERI3
 70
     0
  9
$USERI4
 70
     0
  9
$USERI5
 70
     0
  9
$USERR1
 40
0.0
  9
$USERR2
 40
0.0
  9
$USERR3
 40
0.0
  9
$USERR4
 40
0.0
  9
$USERR5
 40
0.0
  9
$WORLDVIEW
 70
     1
  9
$SHADEDGE
 70
     3
  9
$SHADEDIF
 70
    70
  9
$TILEMODE
 70
     1
  9
$MAXACTVP
 70
    64
  9
$PINSBASE
 10
0.0
 20
0.0
 30
0.0
  9
$PLIMCHECK
 70
     0
  9
$PEXTMIN
 10
1.000000000000000E+20
 20
1.000000000000000E+20
 30
1.000000000000000E+20
  9
$PEXTMAX
 10
-1.000000000000000E+20
 20
-1.000000000000000E+20
 30
-1.000000000000000E+20
  9
$PLIMMIN
 10
0.0
 20
0.0
  9
$PLIMMAX
 10
0.0
 20
0.0
  9
$UNITMODE
 70
     0
  9
$VISRETAIN
 70
     1
  9
$PLINEGEN
 70
     0
  9
$PSLTSCALE
 70
     1
  9
$TREEDEPTH
 70
  3020
  9
$CMLSTYLE
  2
Standard
  9
$CMLJUST
 70
     0
  9
$CMLSCALE
 40
20.0
  9
$PROXYGRAPHICS
 70
     1
  9
$MEASUREMENT
 70
     1
  9
$CELWEIGHT
370
    -1
  9
$ENDCAPS
280
     0
  9
$JOINSTYLE
280
     0
  9
$LWDISPLAY
290
     1
  9
$INSUNITS
 70
     4
  9
$HYPERLINKBASE
  1

  9
$STYLESHEET
  1

  9
$XEDIT
290
     1
  9
$CEPSNTYPE
380
     0
  9
$PSTYLEMODE
290
     1
  9
$FINGERPRINTGUID
  2
{E7959792-D7EA-4387-9CCD-913EDB8D11A4}
  9
$VERSIONGUID
  2
{FAEB1C32-E019-11D5-929B-00C0DF256EC4}
  9
$EXTNAMES
290
     1
  9
$PSVPSCALE
 40
0.0
  9
$OLESTARTUP
290
     0
  0
ENDSEC
  0
SECTION
  2
CLASSES
  0
CLASS
  1
ACDBDICTIONARYWDFLT
  2
AcDbDictionaryWithDefault
  3
ObjectDBX Classes
 90
        0
280
     0
281
     0
  0
CLASS
  1
VISUALSTYLE
  2
AcDbVisualStyle
  3
ObjectDBX Classes
 90
     4095
280
     0
281
     0
  0
CLASS
  1
MATERIAL
  2
AcDbMaterial
  3
ObjectDBX Classes
 90
     1153
280
     0
281
     0
  0
CLASS
  1
SCALE
  2
AcDbScale
  3
ObjectDBX Classes
 90
     1153
280
     0
281
     0
  0
CLASS
  1
SUN
  2
AcDbSun
  3
SCENEOE
 90
     1153
280
     0
281
     0
  0
CLASS
  1
ACDBPLACEHOLDER
  2
AcDbPlaceHolder
  3
ObjectDBX Classes
 90
        0
280
     0
281
     0
  0
CLASS
  1
LAYOUT
  2
AcDbLayout
  3
ObjectDBX Classes
 90
        0
280
     0
281
     0
  0
CLASS
  1
TABLESTYLE
  2
AcDbTableStyle
  3
ObjectDBX Classes
 90
     4095
280
     0
281
     0
  0
CLASS
  1
MLEADERSTYLE
  2
AcDbMLeaderStyle
  3
ACDB_MLEADERSTYLE_CLASS
 90
     4095
280
     0
281
     0
  0
CLASS
  1
RASTERVARIABLES
  2
AcDbRasterVariables
  3
ISM
 90
        0
280
     0
281
     0
  0
ENDSEC
  0
SECTION
  2
TABLES
  0
TABLE
  2
VPORT
  5
8
330
0
100
AcDbSymbolTable
 70
     1
  0
VPORT
  5
29
330
8
100
AcDbSymbolTableRecord
100
AcDbViewportTableRecord
  2
*Active
 70
     0
 10
0.0
 20
0.0
 11
1.0
 21
1.0
 12
-19.5096810675458
 22
-52.38850139020482
 13
0.0
 23
0.0
 14
10.0
 24
10.0
 15
10.0
 25
10.0
 16
0.0
 26
0.0
 36
1.0
 17
0.0
 27
0.0
 37
0.0
 40
151.3896245974279
 41
1.540540540540541
 42
50.0
 43
0.0
 44
0.0
 50
0.0
 51
0.0
 71
    16
 72
  2000
 73
     1
 74
     3
 75
     0
 76
     0
 77
     0
 78
     0
281
     0
 65
     1
110
0.0
120
0.0
130
0.0
111
1.0
121
0.0
131
0.0
112
0.0
122
1.0
132
0.0
 79
     0
146
0.0
  0
ENDTAB
  0
TABLE
  2
LTYPE
  5
5
330
0
100
AcDbSymbolTable
 70
     6
  0
LTYPE
  5
14
330
5
100
AcDbSymbolTableRecord
100
AcDbLinetypeTableRecord
  2
ByBlock
 70
     0
  3

 72
    65
 73
     0
 40
0.0
  0
LTYPE
  5
15
330
5
100
AcDbSymbolTableRecord
100
AcDbLinetypeTableRecord
  2
ByLayer
 70
     0
  3

 72
    65
 73
     0
 40
0.0
  0
LTYPE
  5
16
330
5
100
AcDbSymbolTableRecord
100
AcDbLinetypeTableRecord
  2
Continuous
 70
     0
  3
Solid line
 72
    65
 73
     0
 40
0.0
  0
LTYPE
  5
6A
330
5
100
AcDbSymbolTableRecord
100
AcDbLinetypeTableRecord
  2
HIDDEN
 70
     0
  3
Hidden __ __ __ __ __ __ __ __ __ __ __ __ __ __
 72
    65
 73
     2
 40
1.905
 49
1.27
 74
     0
 49
-0.635
 74
     0
  0
LTYPE
  5
6B
330
5
100
AcDbSymbolTableRecord
100
AcDbLinetypeTableRecord
  2
PHANTOM
 70
     0
  3
Phantom ______  __  __  ______  __  __  ______
 72
    65
 73
     6
 40
12.7
 49
6.35
 74
     0
 49
-1.27
 74
     0
 49
1.27
 74
     0
 49
-1.27
 74
     0
 49
1.27
 74
     0
 49
-1.27
 74
     0
  0
LTYPE
  5
6C
330
5
100
AcDbSymbolTableRecord
100
AcDbLinetypeTableRecord
  2
CENTER
 70
     0
  3
Center ____ _ ____ _ ____ _ ____ _ ____ _ ____
 72
    65
 73
     4
 40
10.16
 49
6.35
 74
     0
 49
-1.27
 74
     0
 49
1.27
 74
     0
 49
-1.27
 74
     0
  0
LTYPE
  5
6D
330
5
100
AcDbSymbolTableRecord
100
AcDbLinetypeTableRecord
  2
CENTERX2
 70
     0
  3
Center (2x) ________  __  ________  __  _____
 72
    65
 73
     4
 40
20.32
 49
12.7
 74
     0
 49
-2.54
 74
     0
 49
2.54
 74
     0
 49
-2.54
 74
     0
  0
LTYPE
  5
6E
330
5
100
AcDbSymbolTableRecord
100
AcDbLinetypeTableRecord
  2
DOT2
 70
     0
  3
Dot (.5x) ........................................
 72
    65
 73
     2
 40
0.635
 49
0.0
 74
     0
 49
-0.635
 74
     0
  0
ENDTAB
  0
TABLE
  2
LAYER
  5
2
102
{ACAD_XDICTIONARY
360
1B6
102
}
330
0
100
AcDbSymbolTable
 70
    18
  0
LAYER
  5
10
330
2
100
AcDbSymbolTableRecord
100
AcDbLayerTableRecord
  2
0
 70
     0
 62
     7
  6
Continuous
370
    -3
390
F
  0
LAYER
  5
6F
330
2
100
AcDbSymbolTableRecord
100
AcDbLayerTableRecord
  2
FORMAT
 70
     0
 62
     2
  6
Continuous
370
    -3
390
F
  0
LAYER
  5
70
330
2
100
AcDbSymbolTableRecord
100
AcDbLayerTableRecord
  2
외형선
 70
     0
 62
     4
  6
Continuous
370
    30
390
F
  0
LAYER
  5
71
330
2
100
AcDbSymbolTableRecord
100
AcDbLayerTableRecord
  2
숨은선
 70
     0
 62
     2
  6
HIDDEN
370
    15
390
F
  0
LAYER
  5
72
330
2
100
AcDbSymbolTableRecord
100
AcDbLayerTableRecord
  2
중심선
 70
     0
 62
     1
  6
CENTERX2
370
    -3
390
F
  0
LAYER
  5
73
330
2
100
AcDbSymbolTableRecord
100
AcDbLayerTableRecord
  2
파단선
 70
     0
 62
     4
  6
Continuous
370
    -3
390
F
  0
LAYER
  5
74
330
2
100
AcDbSymbolTableRecord
100
AcDbLayerTableRecord
  2
해칭선
 70
     0
 62
   100
  6
Continuous
370
    -3
390
F
  0
LAYER
  5
75
330
2
100
AcDbSymbolTableRecord
100
AcDbLayerTableRecord
  2
가는실선
 70
     0
 62
     4
  6
Continuous
370
    -3
390
F
  0
LAYER
  5
76
330
2
100
AcDbSymbolTableRecord
100
AcDbLayerTableRecord
  2
치수_보조선
 70
     0
 62
     4
  6
Continuous
370
    -3
390
F
  0
LAYER
  5
77
330
2
100
AcDbSymbolTableRecord
100
AcDbLayerTableRecord
  2
치수문자_일반주서
 70
     0
 62
     7
  6
Continuous
370
    15
390
F
  0
LAYER
  5
78
330
2
100
AcDbSymbolTableRecord
100
AcDbLayerTableRecord
  2
개별주서
 70
     0
 62
   100
  6
Continuous
370
    30
390
F
  0
LAYER
  5
79
330
2
100
AcDbSymbolTableRecord
100
AcDbLayerTableRecord
  2
중간선
 70
     0
 62
     2
  6
Continuous
370
    15
390
F
  0
LAYER
  5
7A
330
2
100
AcDbSymbolTableRecord
100
AcDbLayerTableRecord
  2
윤곽선
 70
     0
 62
     3
  6
Continuous
370
    40
390
F
  0
LAYER
  5
7B
330
2
100
AcDbSymbolTableRecord
100
AcDbLayerTableRecord
  2
중심마크
 70
     0
 62
   100
  6
Continuous
370
    30
390
F
  0
LAYER
  5
7C
330
2
100
AcDbSymbolTableRecord
100
AcDbLayerTableRecord
  2
가상선
 70
     0
 62
     4
  6
PHANTOM
370
    -3
390
F
  0
LAYER
  5
7D
330
2
100
AcDbSymbolTableRecord
100
AcDbLayerTableRecord
  2
특수지정선
 70
     0
 62
     5
  6
CENTERX2
370
    60
390
F
  0
LAYER
  5
7E
330
2
100
AcDbSymbolTableRecord
100
AcDbLayerTableRecord
  2
참조1
 70
     0
 62
    -4
  6
Continuous
370
    -3
390
F
  0
LAYER
  5
15E
330
2
100
AcDbSymbolTableRecord
100
AcDbLayerTableRecord
  2
Defpoints
 70
     0
 62
     7
  6
Continuous
290
     0
370
    -3
390
F
  0
ENDTAB
  0
TABLE
  2
STYLE
  5
3
330
0
100
AcDbSymbolTable
 70
     2
  0
STYLE
  5
11
330
3
100
AcDbSymbolTableRecord
100
AcDbTextStyleTableRecord
  2
Standard
 70
     0
 40
0.0
 41
1.0
 50
0.0
 71
     0
 42
3.5
  3
txt
  4

  0
STYLE
  5
94
330
3
100
AcDbSymbolTableRecord
100
AcDbTextStyleTableRecord
  2
SLDTEXTSTYLE0
 70
     0
 40
0.0
 41
0.75
 50
0.0
 71
     0
 42
3.5
  3
TXT
  4

  0
ENDTAB
  0
TABLE
  2
VIEW
  5
6
330
0
100
AcDbSymbolTable
 70
     0
  0
ENDTAB
  0
TABLE
  2
UCS
  5
7
330
0
100
AcDbSymbolTable
 70
     0
  0
ENDTAB
  0
TABLE
  2
APPID
  5
9
330
0
100
AcDbSymbolTable
 70
     4
  0
APPID
  5
12
330
9
100
AcDbSymbolTableRecord
100
AcDbRegAppTableRecord
  2
ACAD
 70
     0
  0
APPID
  5
15F
330
9
100
AcDbSymbolTableRecord
100
AcDbRegAppTableRecord
  2
PE_URL
 70
     0
  0
APPID
  5
166
330
9
100
AcDbSymbolTableRecord
100
AcDbRegAppTableRecord
  2
ACAD_DSTYLE_DIMFLIPARROW_SYMBOL
 70
     0
  0
APPID
  5
167
330
9
100
AcDbSymbolTableRecord
100
AcDbRegAppTableRecord
  2
ACAD_DSTYLE_DIMFLIPARROW_WHICH_SYMBOL
 70
     0
  0
ENDTAB
  0
TABLE
  2
DIMSTYLE
  5
A
330
0
100
AcDbSymbolTable
 70
     3
100
AcDbDimStyleTable
  0
DIMSTYLE
105
27
330
A
100
AcDbSymbolTableRecord
100
AcDbDimStyleTableRecord
  2
ISO-25
 70
     0
 41
2.5
 42
0.625
 43
3.75
 44
1.25
 73
     0
 74
     0
 77
     1
 78
     8
140
2.5
141
2.5
143
0.03937007874016
147
0.625
171
     3
172
     1
178
     0
271
     2
272
     2
274
     3
278
    44
283
     0
284
     8
340
11
  0
DIMSTYLE
105
DF
102
{ACAD_REACTORS
330
DE
330
F3
330
107
330
11B
102
}
330
A
100
AcDbSymbolTableRecord
100
AcDbDimStyleTableRecord
  2
SLDDIMSTYLE0
 70
     0
 41
3.302
 44
0.0
 45
0.000000001
 73
     0
 74
     0
 77
     1
 78
    12
 79
     3
140
3.5
143
0.0393700787401575
147
0.875
148
0.000000001
170
     1
172
     1
173
     1
178
     0
271
     2
272
     2
276
     2
284
    12
289
     0
340
94
  0
DIMSTYLE
105
108
330
A
100
AcDbSymbolTableRecord
100
AcDbDimStyleTableRecord
  2
SLDDIMSTYLE1
 70
     0
 41
3.302
 44
0.0
 45
0.000000001
 73
     0
 74
     0
 77
     1
 78
    12
 79
     3
140
3.5
143
0.0393700787401575
147
0.875
148
0.000000001
170
     1
173
     1
178
     0
271
     2
272
     2
276
     2
284
    12
340
94
  0
ENDTAB
  0
TABLE
  2
BLOCK_RECORD
  5
1
330
0
100
AcDbSymbolTable
 70
     8
  0
BLOCK_RECORD
  5
1F
330
1
100
AcDbSymbolTableRecord
100
AcDbBlockTableRecord
  2
*Model_Space
340
22
  0
BLOCK_RECORD
  5
1B
330
1
100
AcDbSymbolTableRecord
100
AcDbBlockTableRecord
  2
*Paper_Space
340
1E
  0
BLOCK_RECORD
  5
23
330
1
100
AcDbSymbolTableRecord
100
AcDbBlockTableRecord
  2
*Paper_Space0
340
26
  0
BLOCK_RECORD
  5
7F
330
1
100
AcDbSymbolTableRecord
100
AcDbBlockTableRecord
  2
블럭10
340
0
102
{BLKREFS
331
D7
102
}
  0
BLOCK_RECORD
  5
E0
330
1
100
AcDbSymbolTableRecord
100
AcDbBlockTableRecord
  2
_D
340
0
  0
BLOCK_RECORD
  5
F4
330
1
100
AcDbSymbolTableRecord
100
AcDbBlockTableRecord
  2
_D_1
340
0
  0
BLOCK_RECORD
  5
109
330
1
100
AcDbSymbolTableRecord
100
AcDbBlockTableRecord
  2
_D_2
340
0
  0
BLOCK_RECORD
  5
11C
330
1
100
AcDbSymbolTableRecord
100
AcDbBlockTableRecord
  2
_D_3
340
0
  0
BLOCK_RECORD
  5
135
330
1
100
AcDbSymbolTableRecord
100
AcDbBlockTableRecord
  2
SW_DOWELSYMBOL_0
340
0
102
{BLKREFS
331
13B
102
}
  0
ENDTAB
  0
ENDSEC
  0
SECTION
  2
BLOCKS
  0
BLOCK
  5
20
330
1F
100
AcDbEntity
  8
0
100
AcDbBlockBegin
  2
*Model_Space
 70
     0
 10
0.0
 20
0.0
 30
0.0
  3
*Model_Space
  1
*Model_Space
  0
ENDBLK
  5
21
330
1F
100
AcDbEntity
  8
0
100
AcDbBlockEnd
  0
BLOCK
  5
1C
330
1B
100
AcDbEntity
 67
     1
  8
0
100
AcDbBlockBegin
  2
*Paper_Space
 70
     0
 10
0.0
 20
0.0
 30
0.0
  3
*Paper_Space
  1
*Paper_Space
  0
ENDBLK
  5
1D
330
1B
100
AcDbEntity
 67
     1
  8
0
100
AcDbBlockEnd
  0
BLOCK
  5
24
330
23
100
AcDbEntity
  8
0
100
AcDbBlockBegin
  2
*Paper_Space0
 70
     0
 10
0.0
 20
0.0
 30
0.0
  3
*Paper_Space0
  1
*Paper_Space0
  0
ENDBLK
  5
25
330
23
100
AcDbEntity
  8
0
100
AcDbBlockEnd
  0
BLOCK
  5
80
330
7F
100
AcDbEntity
  8
0
100
AcDbBlockBegin
  2
블럭10
 70
     2
 10
0.0
 20
0.0
 30
0.0
  3
블럭10
  1
블럭10
  0
ELLIPSE
  5
82
330
7F
100
AcDbEntity
  8
중심선
100
AcDbEllipse
 10
20.54032771741204
 20
12.0471743016438
 30
0.0
 11
6.600054785286829
 21
-1.261213355974178E-13
 31
0.0
210
0.0
220
0.0
230
1.0
 40
0.636358354079598
 41
0.9219305317359503
 42
6.513795318482858
  0
ELLIPSE
  5
83
330
7F
100
AcDbEntity
  8
중심선
100
AcDbEllipse
 10
20.54032771746488
 20
12.04717430159265
 30
0.0
 11
3.960054785062283
 21
1.540847449632565E-10
 31
0.0
210
0.0
220
0.0
230
1.0
 40
0.3939339440162632
 41
1.131841032648279
 42
5.62031148352944
  0
LINE
  5
84
330
7F
100
AcDbEntity
  8
중심선
100
AcDbLine
 10
2.268634060543552
 20
16.24717430164393
 30
0.0
 11
5.714909304380834
 21
16.24717430164393
 31
0.0
  0
LINE
  5
85
330
7F
100
AcDbEntity
  8
중심선
100
AcDbLine
 10
5.245725140726316
 20
7.84717430164391
 30
0.0
 11
8.692000384563599
 21
7.84717430164391
 31
0.0
  0
LINE
  5
86
330
7F
100
AcDbEntity
  8
중심선
100
AcDbLine
 10
15.74043728645272
 20
16.24717430164393
 30
0.0
 11
8.692000384563599
 21
7.84717430164391
 31
0.0
  0
LINE
  5
87
330
7F
100
AcDbEntity
  8
중심선
100
AcDbLine
 10
0.1404042013395286
 20
13.71084872107135
 30
0.0
 11
3.58671253028996
 21
13.71088815037384
 31
0.0
  0
LINE
  5
88
330
7F
100
AcDbEntity
  8
중심선
100
AcDbLine
 10
2.750260043222114
 20
10.84717430164391
 30
0.0
 11
6.196535287059397
 21
10.84717430164391
 31
0.0
  0
LINE
  5
89
330
7F
100
AcDbEntity
  8
중심선
100
AcDbLine
 10
12.29416204261559
 20
16.24717430164393
 30
0.0
 11
5.245725140726316
 21
7.84717430164391
 31
0.0
  0
LINE
  5
8A
330
7F
100
AcDbEntity
  8
중심선
100
AcDbLine
 10
10.72767329541681
 20
16.24717430164393
 30
0.0
 11
6.196535287059397
 21
10.84717430164391
 31
0.0
  0
LINE
  5
8B
330
7F
100
AcDbEntity
  8
중심선
100
AcDbLine
 10
7.28139805157953
 20
16.24717430164393
 30
0.0
 11
2.750260043222114
 21
10.84717430164391
 31
0.0
  0
LINE
  5
8C
330
7F
100
AcDbEntity
  8
중심선
100
AcDbLine
 10
5.714909304380834
 20
16.24717430164393
 30
0.0
 11
3.58671253028996
 21
13.71088815037384
 31
0.0
  0
LINE
  5
8D
330
7F
100
AcDbEntity
  8
중심선
100
AcDbLine
 10
2.268634060543552
 20
16.24717430164393
 30
0.0
 11
0.1404042013395286
 21
13.71084872107135
 31
0.0
  0
LINE
  5
8E
330
7F
100
AcDbEntity
  8
중심선
100
AcDbLine
 10
7.28139805157953
 20
16.24717430164393
 30
0.0
 11
10.72767329541681
 21
16.24717430164393
 31
0.0
  0
LINE
  5
8F
330
7F
100
AcDbEntity
  8
중심선
100
AcDbLine
 10
12.29416204261559
 20
16.24717430164393
 30
0.0
 11
15.74043728645272
 21
16.24717430164393
 31
0.0
  0
LINE
  5
90
330
7F
100
AcDbEntity
  8
중심선
100
AcDbLine
 10
19.22036997980202
 20
11.08717430171403
 30
0.0
 11
23.66174974927406
 21
11.08717430171406
 31
0.0
  0
LINE
  5
91
330
7F
100
AcDbEntity
  8
중심선
100
AcDbLine
 10
19.22039502424796
 20
13.00717430171391
 30
0.0
 11
19.22036997980202
 21
11.08717430171403
 31
0.0
  0
LINE
  5
92
330
7F
100
AcDbEntity
  8
중심선
100
AcDbLine
 10
19.22039502424796
 20
13.00717430171391
 30
0.0
 11
26.96566020931264
 21
13.00717430171391
 31
0.0
  0
LINE
  5
93
330
7F
100
AcDbEntity
  8
중심선
100
AcDbLine
 10
22.22332737316547
 20
13.45928029700563
 30
0.0
 11
24.52862924686651
 21
15.39360700705356
 31
0.0
  0
ATTDEF
  5
95
330
7F
100
AcDbEntity
  8
FORMAT
 62
     2
100
AcDbText
 10
4.522160859763931
 20
2.075366912832191
 30
0.0
 40
4.233333333333333
  1
EE882048
 41
0.75
  7
SLDTEXTSTYLE0
 11
4.522160859763931
 21
-0.0412997538344756
 31
0.0
100
AcDbAttributeDefinition
  3

  2
AUTOATTR0
 70
     0
 74
     1
  0
ENDBLK
  5
81
330
7F
100
AcDbEntity
  8
0
100
AcDbBlockEnd
  0
BLOCK
  5
E1
330
E0
100
AcDbEntity
  8
0
100
AcDbBlockBegin
  2
_D
 70
     0
 10
0.0
 20
0.0
 30
0.0
  3
_D
  1
_D
  0
LINE
  5
E3
330
E0
100
AcDbEntity
  8
치수문자_일반주서
 62
     0
370
    -2
100
AcDbLine
 10
50.76135122619242
 20
9.526074928723908
 30
0.0
 11
70.27500000000009
 21
9.526074928723975
 31
0.0
  0
LINE
  5
E4
330
E0
100
AcDbEntity
  8
치수문자_일반주서
 62
     0
370
    -2
100
AcDbLine
 10
50.82385122619241
 20
-9.523925071276103
 30
0.0
 11
70.27500000000016
 21
-9.523925071276043
 31
0.0
  0
LINE
  5
E5
330
E0
100
AcDbEntity
  8
치수문자_일반주서
 62
     0
370
    -2
100
AcDbLine
 10
70.27500000000009
 20
9.526074928723975
 30
0.0
 11
70.27499999999996
 21
43.69257492872397
 31
0.0
  0
LINE
  5
E6
330
E0
100
AcDbEntity
  8
치수문자_일반주서
 62
     0
370
    -2
100
AcDbLine
 10
70.2750000000001
 20
6.224074928723976
 30
0.0
 11
70.27500000000015
 21
-6.221925071276043
 31
0.0
  0
LINE
  5
E7
330
E0
100
AcDbEntity
  8
치수문자_일반주서
 62
     0
370
    -2
100
AcDbLine
 10
70.2750000000001
 20
6.224074928723976
 30
0.0
 11
70.27500000000012
 21
2.922074928723976
 31
0.0
  0
SOLID
  5
E8
330
E0
100
AcDbEntity
  8
치수문자_일반주서
 62
     0
100
AcDbTrace
 10
70.82533333333343
 20
6.224074928723978
 30
0.0
 11
69.72466666666678
 21
6.224074928723974
 31
0.0
 12
70.27500000000009
 22
9.526074928723975
 32
0.0
 13
70.27500000000009
 23
9.526074928723975
 33
0.0
  0
SOLID
  5
E9
330
E0
100
AcDbEntity
  8
치수문자_일반주서
 62
     0
100
AcDbTrace
 10
69.72466666666682
 20
-6.221925071276045
 30
0.0
 11
70.82533333333348
 21
-6.221925071276042
 31
0.0
 12
70.27500000000016
 22
-9.523925071276043
 32
0.0
 13
70.27500000000016
 23
-9.523925071276043
 33
0.0
  0
MTEXT
  5
EA
330
E0
100
AcDbEntity
  8
치수문자_일반주서
 62
     0
100
AcDbMText
 10
65.90000000000002
 20
29.91132492872396
 30
0.0
 40
3.5
 41
0.0
 71
     2
 72
     1
  1
\A1;%%c19.05 [3/4]
  7
SLDTEXTSTYLE0
 11
-3.729883127349605E-15
 21
1.0
 31
0.0
 73
     1
 44
1.0
  0
POINT
  5
EB
330
E0
100
AcDbEntity
  8
Defpoints
 62
     0
100
AcDbPoint
 10
50.69885122619242
 20
9.526074928723908
 30
0.0
  0
POINT
  5
163
330
E0
100
AcDbEntity
  8
Defpoints
 62
     0
100
AcDbPoint
 10
50.76135122619241
 20
-9.523925071276103
 30
0.0
  0
POINT
  5
164
330
E0
100
AcDbEntity
  8
Defpoints
 62
     0
100
AcDbPoint
 10
70.27500000000016
 20
-9.523925071276036
 30
0.0
  0
ENDBLK
  5
E2
330
E0
100
AcDbEntity
  8
0
100
AcDbBlockEnd
  0
BLOCK
  5
F5
330
F4
100
AcDbEntity
  8
0
100
AcDbBlockBegin
  2
_D_1
 70
     0
 10
0.0
 20
0.0
 30
0.0
  3
_D_1
  1
_D_1
  0
LINE
  5
F7
330
F4
100
AcDbEntity
  8
치수문자_일반주서
 62
     0
370
    -2
100
AcDbLine
 10
-45.30750000000002
 20
9.526074928723908
 30
0.0
 11
-60.15000000000006
 21
9.526074928723853
 31
0.0
  0
LINE
  5
F8
330
F4
100
AcDbEntity
  8
치수문자_일반주서
 62
     0
370
    -2
100
AcDbLine
 10
-45.30750000000002
 20
-9.523925071276103
 30
0.0
 11
-60.15
 21
-9.523925071276159
 31
0.0
  0
LINE
  5
F9
330
F4
100
AcDbEntity
  8
치수문자_일반주서
 62
     0
370
    -2
100
AcDbLine
 10
-60.15000000000005
 20
6.224074928723853
 30
0.0
 11
-60.15000000000001
 21
-6.221925071276159
 31
0.0
  0
SOLID
  5
FA
330
F4
100
AcDbEntity
  8
치수문자_일반주서
 62
     0
100
AcDbTrace
 10
-59.59966666666671
 20
6.224074928723855
 30
0.0
 11
-60.70033333333338
 21
6.224074928723851
 31
0.0
 12
-60.15000000000006
 22
9.526074928723853
 32
0.0
 13
-60.15000000000006
 23
9.526074928723853
 33
0.0
  0
SOLID
  5
FB
330
F4
100
AcDbEntity
  8
치수문자_일반주서
 62
     0
100
AcDbTrace
 10
-60.70033333333335
 20
-6.221925071276161
 30
0.0
 11
-59.59966666666668
 21
-6.221925071276157
 31
0.0
 12
-60.15
 22
-9.523925071276159
 32
0.0
 13
-60.15
 23
-9.523925071276159
 33
0.0
  0
MTEXT
  5
FC
330
F4
100
AcDbEntity
  8
치수문자_일반주서
 62
     0
100
AcDbMText
 10
-64.52500000000003
 20
0.0010749287238898
 30
0.0
 40
3.5
 41
0.0
 71
     2
 72
     1
  1
\A1;%%c19.05 [3/4]
  7
SLDTEXTSTYLE0
 11
-3.356894814614645E-15
 21
1.0
 31
0.0
 73
     1
 44
1.0
  0
POINT
  5
FD
330
F4
100
AcDbEntity
  8
Defpoints
 62
     0
100
AcDbPoint
 10
-45.24500000000002
 20
9.526074928723908
 30
0.0
  0
POINT
  5
FE
330
F4
100
AcDbEntity
  8
Defpoints
 62
     0
100
AcDbPoint
 10
-45.24500000000002
 20
-9.523925071276103
 30
0.0
  0
POINT
  5
FF
330
F4
100
AcDbEntity
  8
Defpoints
 62
     0
100
AcDbPoint
 10
-60.15
 20
-9.523925071276155
 30
0.0
  0
ENDBLK
  5
F6
330
F4
100
AcDbEntity
  8
0
100
AcDbBlockEnd
  0
BLOCK
  5
10A
330
109
100
AcDbEntity
  8
0
100
AcDbBlockBegin
  2
_D_2
 70
     0
 10
0.0
 20
0.0
 30
0.0
  3
_D_2
  1
_D_2
  0
LINE
  5
10C
330
109
100
AcDbEntity
  8
치수문자_일반주서
 62
     0
370
    -2
100
AcDbLine
 10
51.27499999999997
 20
9.519066726087722
 30
0.0
 11
51.27499999999997
 21
30.78862795768287
 31
0.0
  0
LINE
  5
10D
330
109
100
AcDbEntity
  8
치수문자_일반주서
 62
     0
370
    -2
100
AcDbLine
 10
9.999999999999995
 20
9.58589175279918
 30
0.0
 11
9.999999999999996
 21
30.78862795768287
 31
0.0
  0
LINE
  5
10E
330
109
100
AcDbEntity
  8
치수문자_일반주서
 62
     0
370
    -2
100
AcDbLine
 10
47.97299999999997
 20
30.78862795768287
 30
0.0
 11
13.302
 21
30.78862795768287
 31
0.0
  0
SOLID
  5
10F
330
109
100
AcDbEntity
  8
치수문자_일반주서
 62
     0
100
AcDbTrace
 10
47.97299999999997
 20
30.23829462434953
 30
0.0
 11
47.97299999999997
 21
31.3389612910162
 31
0.0
 12
51.27499999999997
 22
30.78862795768287
 32
0.0
 13
51.27499999999997
 23
30.78862795768287
 33
0.0
  0
SOLID
  5
110
330
109
100
AcDbEntity
  8
치수문자_일반주서
 62
     0
100
AcDbTrace
 10
13.302
 20
31.3389612910162
 30
0.0
 11
13.302
 21
30.23829462434953
 31
0.0
 12
9.999999999999996
 22
30.78862795768287
 32
0.0
 13
9.999999999999996
 23
30.78862795768287
 33
0.0
  0
MTEXT
  5
111
330
109
100
AcDbEntity
  8
치수문자_일반주서
 62
     0
100
AcDbMText
 10
30.63749999999998
 20
35.16362795768286
 30
0.0
 40
3.5
 41
0.0
 71
     2
 72
     1
  1
\A1;41.28 [1 5/8]
  7
SLDTEXTSTYLE0
 73
     1
 44
1.0
  0
POINT
  5
112
330
109
100
AcDbEntity
  8
Defpoints
 62
     0
100
AcDbPoint
 10
51.27499999999997
 20
9.456566726087722
 30
0.0
  0
POINT
  5
113
330
109
100
AcDbEntity
  8
Defpoints
 62
     0
100
AcDbPoint
 10
9.999999999999995
 20
9.52339175279918
 30
0.0
  0
POINT
  5
114
330
109
100
AcDbEntity
  8
Defpoints
 62
     0
100
AcDbPoint
 10
9.999999999999995
 20
30.78862795768287
 30
0.0
  0
ENDBLK
  5
10B
330
109
100
AcDbEntity
  8
0
100
AcDbBlockEnd
  0
BLOCK
  5
11D
330
11C
100
AcDbEntity
  8
0
100
AcDbBlockBegin
  2
_D_3
 70
     0
 10
0.0
 20
0.0
 30
0.0
  3
_D_3
  1
_D_3
  0
LINE
  5
11F
330
11C
100
AcDbEntity
  8
치수문자_일반주서
 62
     0
370
    -2
100
AcDbLine
 10
51.27499999999997
 20
9.519066726087722
 30
0.0
 11
51.27499999999997
 21
52.05818918927801
 31
0.0
  0
LINE
  5
120
330
11C
100
AcDbEntity
  8
치수문자_일반주서
 62
     0
370
    -2
100
AcDbLine
 10
-47.15000000000001
 20
7.683574928723907
 30
0.0
 11
-47.15000000000001
 21
52.05818918927801
 31
0.0
  0
LINE
  5
121
330
11C
100
AcDbEntity
  8
치수문자_일반주서
 62
     0
370
    -2
100
AcDbLine
 10
47.97299999999997
 20
52.05818918927801
 30
0.0
 11
-43.84800000000001
 21
52.05818918927801
 31
0.0
  0
SOLID
  5
122
330
11C
100
AcDbEntity
  8
치수문자_일반주서
 62
     0
100
AcDbTrace
 10
47.97299999999997
 20
51.50785585594468
 30
0.0
 11
47.97299999999997
 21
52.60852252261135
 31
0.0
 12
51.27499999999997
 22
52.05818918927801
 32
0.0
 13
51.27499999999997
 23
52.05818918927801
 33
0.0
  0
SOLID
  5
123
330
11C
100
AcDbEntity
  8
치수문자_일반주서
 62
     0
100
AcDbTrace
 10
-43.84800000000001
 20
52.60852252261135
 30
0.0
 11
-43.84800000000001
 21
51.50785585594468
 31
0.0
 12
-47.15000000000001
 22
52.05818918927801
 32
0.0
 13
-47.15000000000001
 23
52.05818918927801
 33
0.0
  0
MTEXT
  5
124
330
11C
100
AcDbEntity
  8
치수문자_일반주서
 62
     0
100
AcDbMText
 10
2.062499999999981
 20
56.43318918927801
 30
0.0
 40
3.5
 41
0.0
 71
     2
 72
     1
  1
\A1;98.43 [3 7/8]
  7
SLDTEXTSTYLE0
 73
     1
 44
1.0
  0
POINT
  5
125
330
11C
100
AcDbEntity
  8
Defpoints
 62
     0
100
AcDbPoint
 10
51.27499999999997
 20
9.456566726087722
 30
0.0
  0
POINT
  5
126
330
11C
100
AcDbEntity
  8
Defpoints
 62
     0
100
AcDbPoint
 10
-47.15000000000001
 20
7.621074928723907
 30
0.0
  0
POINT
  5
127
330
11C
100
AcDbEntity
  8
Defpoints
 62
     0
100
AcDbPoint
 10
-47.15000000000001
 20
52.05818918927801
 30
0.0
  0
ENDBLK
  5
11E
330
11C
100
AcDbEntity
  8
0
100
AcDbBlockEnd
  0
BLOCK
  5
136
330
135
100
AcDbEntity
  8
0
100
AcDbBlockBegin
  2
SW_DOWELSYMBOL_0
 70
     0
 10
0.0
 20
0.0
 30
0.0
  3
SW_DOWELSYMBOL_0
  1
SW_DOWELSYMBOL_0
  0
CIRCLE
  5
138
330
135
100
AcDbEntity
  8
해칭선
 62
     0
100
AcDbCircle
 10
0.0
 20
0.0
 30
0.0
 40
3.000000000000002
  0
HATCH
  5
139
330
135
100
AcDbEntity
  8
0
  6
Continuous
 62
     0
370
     0
100
AcDbHatch
 10
0.0
 20
0.0
 30
0.0
210
0.0
220
0.0
230
1.0
  2
SOLID
 70
     1
 71
     0
 91
        1
 92
        0
 93
        3
 72
     2
 10
0.0
 20
0.0
 40
3.000000000000002
 50
0.0
 51
90.0
 73
     1
 72
     1
 10
0.0
 20
3.000000000000002
 11
0.0
 21
0.0
 72
     1
 10
0.0
 20
0.0
 11
3.000000000000002
 21
0.0
 97
        0
 75
     0
 76
     1
 98
        1
 10
0.0
 20
0.0
  0
HATCH
  5
13A
330
135
100
AcDbEntity
  8
0
  6
Continuous
 62
     0
370
     0
100
AcDbHatch
 10
0.0
 20
0.0
 30
0.0
210
0.0
220
0.0
230
1.0
  2
SOLID
 70
     1
 71
     0
 91
        1
 92
        0
 93
        3
 72
     2
 10
0.0
 20
0.0
 40
3.000000000000002
 50
180.0
 51
270.0000000000007
 73
     1
 72
     1
 10
0.0
 20
-3.000000000000002
 11
0.0
 21
0.0
 72
     1
 10
0.0
 20
0.0
 11
-3.000000000000002
 21
0.0
 97
        0
 75
     0
 76
     1
 98
        1
 10
0.0
 20
0.0
  0
ENDBLK
  5
137
330
135
100
AcDbEntity
  8
0
100
AcDbBlockEnd
  0
ENDSEC
  0
SECTION
  2
ENTITIES
  0
LINE
  5
96
330
1F
100
AcDbEntity
  8
외형선
  6
Continuous
 62
     1
370
    15
100
AcDbLine
 10
29.35315197860557
 20
-1.849982139795272
 30
0.0
 11
29.40891005927669
 21
-1.904022164061741
 31
0.0
  0
LINE
  5
97
330
1F
100
AcDbEntity
  8
외형선
  6
Continuous
 62
     1
370
    15
100
AcDbLine
 10
32.47781536875014
 20
9.526074928723908
 30
0.0
 11
30.17375414101779
 21
9.526074928723908
 31
0.0
  0
LINE
  5
98
330
1F
100
AcDbEntity
  8
외형선
  6
Continuous
 62
     1
370
    15
100
AcDbLine
 10
30.17375414101772
 20
-9.523925071276103
 30
0.0
 11
32.47781536875006
 21
-9.523925071276103
 31
0.0
  0
LINE
  5
99
330
1F
100
AcDbEntity
  8
외형선
  6
Continuous
 62
     1
370
    15
100
AcDbLine
 10
50.12270245238486
 20
-9.523925071276103
 30
0.0
 11
51.27499999999997
 21
-9.523925071276103
 31
0.0
  0
LINE
  5
9A
330
1F
100
AcDbEntity
  8
외형선
  6
Continuous
 62
     1
370
    15
100
AcDbLine
 10
22.50326024648251
 20
9.526074928723908
 30
0.0
 11
20.199619584822
 21
9.526074928723908
 31
0.0
  0
LINE
  5
9B
330
1F
100
AcDbEntity
  8
외형선
  6
Continuous
 62
     1
370
    15
100
AcDbLine
 10
40.14873544909224
 20
-9.523925071276103
 30
0.0
 11
42.45226563231356
 21
-9.523925071276103
 31
0.0
  0
LINE
  5
9C
330
1F
100
AcDbEntity
  8
외형선
  6
Continuous
 62
     1
370
    15
100
AcDbLine
 10
12.52772191537375
 20
9.526074928723908
 30
0.0
 11
10.22562195957526
 21
9.526074928723908
 31
0.0
  0
LINE
  5
9D
330
1F
100
AcDbEntity
  8
외형선
  6
Continuous
 62
     1
370
    15
100
AcDbLine
 10
20.19961958482201
 20
-9.523925071276103
 30
0.0
 11
22.50326024648244
 21
-9.523925071276103
 31
0.0
  0
LINE
  5
9E
330
1F
100
AcDbEntity
  8
외형선
  6
Continuous
 62
     1
370
    15
100
AcDbLine
 10
51.27499999999997
 20
9.526074928723908
 30
0.0
 11
50.12270245238486
 21
9.526074928723908
 31
0.0
  0
LINE
  5
9F
330
1F
100
AcDbEntity
  8
외형선
  6
Continuous
 62
     1
370
    15
100
AcDbLine
 10
10.22562195957536
 20
-9.523925071276103
 30
0.0
 11
12.52772191537374
 21
-9.523925071276103
 31
0.0
  0
LINE
  5
A0
330
1F
100
AcDbEntity
  8
외형선
  6
Continuous
 62
     1
370
    15
100
AcDbLine
 10
42.45226563231358
 20
9.526074928723908
 30
0.0
 11
40.14873544909229
 21
9.526074928723908
 31
0.0
  0
LINE
  5
A1
330
1F
100
AcDbEntity
  8
외형선
  6
Continuous
370
    15
100
AcDbLine
 10
-45.24500000000001
 20
-9.5239250712761
 30
0.0
 11
8.999627570183632
 21
-9.5239250712761
 31
0.0
  0
LINE
  5
A2
330
1F
100
AcDbEntity
  8
외형선
  6
Continuous
370
    15
100
AcDbLine
 10
8.999627570183632
 20
9.526074928723904
 30
0.0
 11
-13.65692500000002
 21
9.526074928723904
 31
0.0
  0
LINE
  5
A3
330
1F
100
AcDbEntity
  8
외형선
  6
Continuous
370
    15
100
AcDbLine
 10
-45.24500000000001
 20
9.526074928723904
 30
0.0
 11
-47.15000000000001
 21
7.621074928723907
 31
0.0
  0
LINE
  5
A4
330
1F
100
AcDbEntity
  8
외형선
  6
Continuous
370
    15
100
AcDbLine
 10
-47.15000000000001
 20
-7.618925071276103
 30
0.0
 11
-45.24500000000001
 21
-9.5239250712761
 31
0.0
  0
SPLINE
  5
A5
330
1F
100
AcDbEntity
  8
외형선
  6
Continuous
 62
     1
370
    15
100
AcDbSpline
210
0.0
220
0.0
230
1.0
 70
     8
 71
     3
 72
    30
 73
    26
 74
     0
 42
0.000000001
 43
0.00000001
 40
0.0
 40
0.0
 40
0.0
 40
0.0
 40
0.019555376666987
 40
0.066842407880269
 40
0.1140940714717801
 40
0.161309986729035
 40
0.2085423606560919
 40
0.2533117096652394
 40
0.2980226941838952
 40
0.342711886226031
 40
0.3874600340468318
 40
0.432202864388756
 40
0.4768911379513697
 40
0.5216057265782376
 40
0.5663740504286763
 40
0.6110747261183334
 40
0.6557688905524272
 40
0.7005308794996595
 40
0.7452572408209104
 40
0.789944284041807
 40
0.8346729033364166
 40
0.8794332791383886
 40
0.9241265254350505
 40
0.9688285459194219
 40
1.0
 40
1.0
 40
1.0
 40
1.0
 10
12.52772191537374
 20
9.493703813350594
 30
0.0
 10
12.7477281723973
 20
9.501556101050683
 30
0.0
 10
13.49973352717046
 20
9.528396075865828
 30
0.0
 10
14.78478087012714
 20
9.293498447292873
 30
0.0
 10
16.37998755380136
 20
8.801898394151218
 30
0.0
 10
17.97400056144571
 20
8.047844346601027
 30
0.0
 10
19.54015911328895
 20
7.089960214895541
 30
0.0
 10
21.07998468701311
 20
5.964022039662084
 30
0.0
 10
22.58937961864279
 20
4.708493382068927
 30
0.0
 10
24.09801219398278
 20
3.334507855445722
 30
0.0
 10
25.60867264694291
 20
1.878181817322867
 30
0.0
 10
27.11914322720091
 20
0.3746625564931466
 30
0.0
 10
28.62774691212597
 20
-1.139329845664617
 30
0.0
 10
30.13724373999047
 20
-2.624384596434529
 30
0.0
 10
31.64861510534128
 20
-4.042142720501148
 30
0.0
 10
33.15764824749624
 20
-5.360273032722472
 30
0.0
 10
34.66645992546309
 20
-6.54387982379223
 30
0.0
 10
36.17760866884098
 20
-7.562184851997139
 30
0.0
 10
37.68750461870862
 20
-8.391630549602413
 30
0.0
 10
39.19606309892855
 20
-9.010969902462431
 30
0.0
 10
40.70603628287428
 20
-9.40343827402778
 30
0.0
 10
42.21713067325533
 20
-9.562306710954951
 30
0.0
 10
43.72590101493493
 20
-9.473378576015309
 30
0.0
 10
45.08206770306506
 20
-9.207027202060697
 30
0.0
 10
45.93643489714591
 20
-8.875033298121995
 30
0.0
 10
46.28743856359122
 20
-8.738638691297995
 30
0.0
  0
SPLINE
  5
A6
330
1F
100
AcDbEntity
  8
외형선
  6
Continuous
 62
     1
370
    15
100
AcDbSpline
210
0.0
220
0.0
230
1.0
 70
     8
 71
     3
 72
    31
 73
    27
 74
     0
 42
0.000000001
 43
0.00000001
 40
0.0
 40
0.0
 40
0.0
 40
0.0
 40
0.0106211303852519
 40
0.0553103356975155
 40
0.1000235952224617
 40
0.1447930125956685
 40
0.1894955373850471
 40
0.2341892878877293
 40
0.2789501686530425
 40
0.323679292552733
 40
0.3683668399096701
 40
0.4130937058105286
 40
0.4578561997393007
 40
0.5025508683897724
 40
0.5472520483692656
 40
0.5920208772727108
 40
0.6367359703463731
 40
0.6814247480589076
 40
0.7261680831662339
 40
0.7709167358124268
 40
0.8156064320148451
 40
0.860317920939635
 40
0.905087775013355
 40
0.9523206817915538
 40
0.9995371297142719
 40
1.0
 40
1.0
 40
1.0
 40
1.0
 10
50.12270245238486
 20
-9.502274155072657
 30
0.0
 10
50.00314592074355
 20
-9.508848109766493
 30
0.0
 10
49.38054628585981
 20
-9.543082473510042
 30
0.0
 10
48.25586359555079
 20
-9.368285493580299
 30
0.0
 10
46.74636579640939
 20
-8.971741662003042
 30
0.0
 10
45.23499057033295
 20
-8.331399068304272
 30
0.0
 10
43.72590770116091
 20
-7.486598506343514
 30
0.0
 10
42.21712887879325
 20
-6.452367103844582
 30
0.0
 10
40.70603676363795
 20
-5.258011818542252
 30
0.0
 10
39.19606297028361
 20
-3.930995256251411
 30
0.0
 10
37.68750465320036
 20
-2.504775585848933
 30
0.0
 10
36.17760865957925
 20
-1.01625299150024
 30
0.0
 10
34.66645992796957
 20
0.496680206080325
 30
0.0
 10
33.15764824672002
 20
1.99893458045573
 30
0.0
 10
31.64861510594202
 20
3.450958978482136
 30
0.0
 10
30.13724373836334
 20
4.814798192142087
 30
0.0
 10
28.62774691802368
 20
6.059402348164229
 30
0.0
 10
27.11914320523679
 20
7.152212416215424
 30
0.0
 10
25.60867272901969
 20
8.065001347627192
 30
0.0
 10
24.09801188781337
 20
8.775546320497078
 30
0.0
 10
22.58938075983323
 20
9.267123275724241
 30
0.0
 10
21.079980423184
 20
9.524150391627632
 30
0.0
 10
19.54017541962622
 20
9.550108967995518
 30
0.0
 10
17.97393597892524
 20
9.292473043781479
 30
0.0
 10
16.90646454903534
 20
9.015429916205711
 30
0.0
 10
16.36987495373095
 20
8.765313770817832
 30
0.0
 10
16.36466574796565
 20
8.762885646087213
 30
0.0
  0
LINE
  5
A7
330
1F
100
AcDbEntity
  8
외형선
  6
Continuous
 62
     1
370
    15
100
AcDbLine
 10
51.27499999999997
 20
-9.454416868639914
 30
0.0
 11
51.27499999999997
 21
-5.709864417409157
 31
0.0
  0
SPLINE
  5
A8
330
1F
100
AcDbEntity
  8
외형선
  6
Continuous
 62
     1
370
    15
100
AcDbSpline
210
0.0
220
0.0
230
1.0
 70
     8
 71
     3
 72
    27
 73
    23
 74
     0
 42
0.000000001
 43
0.00000001
 40
0.0
 40
0.0
 40
0.0
 40
0.0
 40
0.00299905373562
 40
0.0554340628646069
 40
0.1079382463655445
 40
0.1604361907280978
 40
0.2128701221808069
 40
0.2653349297933066
 40
0.317862786362606
 40
0.3703112695584779
 40
0.4227521129262547
 40
0.4752725365863368
 40
0.527751157412037
 40
0.5801836452723199
 40
0.6326649154377882
 40
0.685183446351938
 40
0.7376232124448205
 40
0.7900732735238426
 40
0.8426018205524638
 40
0.8950644768381066
 40
0.9474989099992094
 40
1.0
 40
1.0
 40
1.0
 40
1.0
 10
22.5032602464825
 20
9.519638470545376
 30
0.0
 10
22.53201968660025
 20
9.521764562090262
 30
0.0
 10
23.06360489712988
 20
9.561062921754642
 30
0.0
 10
24.09794507796036
 20
9.415297914129571
 30
0.0
 10
25.60869063897018
 20
9.066513967011858
 30
0.0
 10
27.11913841314073
 20
8.463859129302078
 30
0.0
 10
28.6277482021961
 20
7.655630725684932
 30
0.0
 10
30.1372433937007
 20
6.653588880237811
 30
0.0
 10
31.64861519820886
 20
5.486524261427972
 30
0.0
 10
33.1576482219319
 20
4.180341012009903
 30
0.0
 10
34.66645993494451
 20
2.769210816912447
 30
0.0
 10
36.1776086565073
 20
1.290361263362403
 30
0.0
 10
37.68750465850761
 20
-0.2218563136424984
 30
0.0
 10
39.19606295213261
 20
-1.729068438582907
 30
0.0
 10
40.70603683102937
 20
-3.192245403444252
 30
0.0
 10
42.21712862737138
 20
-4.574487027217804
 30
0.0
 10
43.72590863793577
 20
-5.843623018011459
 30
0.0
 10
45.23498707110589
 20
-6.965630154425368
 30
0.0
 10
46.74637887048068
 20
-7.913017601817694
 30
0.0
 10
48.25581488409783
 20
-8.658489991664926
 30
0.0
 10
49.7644342215121
 20
-9.203754379244149
 30
0.0
 10
50.7712648884821
 20
-9.370827329642461
 30
0.0
 10
51.27500000000003
 20
-9.454416868639914
 30
0.0
  0
SPLINE
  5
A9
330
1F
100
AcDbEntity
  8
외형선
  6
Continuous
 62
     1
370
    15
100
AcDbSpline
210
0.0
220
0.0
230
1.0
 70
     8
 71
     3
 72
    24
 73
    20
 74
     0
 42
0.000000001
 43
0.00000001
 40
0.0
 40
0.0
 40
0.0
 40
0.0
 40
0.0605770353728662
 40
0.1210771604618606
 40
0.1816098500788218
 40
0.2422185660386272
 40
0.3027367229996573
 40
0.3632430013551274
 40
0.423840160478292
 40
0.4843943272428057
 40
0.5448922077963703
 40
0.6054433176881819
 40
0.666042660707667
 40
0.7265501820491274
 40
0.7870665184101777
 40
0.847674437701214
 40
0.90820960957146
 40
0.9687091557770994
 40
1.0
 40
1.0
 40
1.0
 40
1.0
 10
51.27499999999995
 20
-5.721394500638297
 30
0.0
 10
50.77126488848197
 20
-5.305191091827869
 30
0.0
 10
49.76443422151181
 20
-4.473312697595893
 30
0.0
 10
48.25581488409885
 20
-3.073565704625659
 30
0.0
 10
46.74637887047682
 20
-1.607216420084232
 30
0.0
 10
45.23498707112
 20
-0.0994321165934204
 30
0.0
 10
43.72590863788339
 20
1.411988773831449
 30
0.0
 10
42.21712862756678
 20
2.888295779378467
 30
0.0
 10
40.70603683029904
 20
4.290561311002186
 30
0.0
 10
39.19606295485484
 20
5.586244932382238
 30
0.0
 10
37.68750464835434
 20
6.742344287118055
 30
0.0
 10
36.17760869445094
 20
7.728926800315339
 30
0.0
 10
34.66645979330553
 20
8.52121275332997
 30
0.0
 10
33.15764874966158
 20
9.100960562167966
 30
0.0
 10
31.64861322702018
 20
9.451446830123938
 30
0.0
 10
30.137250758923
 20
9.567832935907733
 30
0.0
 10
28.62772075975063
 20
9.43335358706059
 30
0.0
 10
27.36246868739964
 20
9.156940470883642
 30
0.0
 10
26.59924089558437
 20
8.843452549483208
 30
0.0
 10
26.33906069775774
 20
8.73658622427743
 30
0.0
  0
SPLINE
  5
AA
330
1F
100
AcDbEntity
  8
외형선
  6
Continuous
 62
     1
370
    15
100
AcDbSpline
210
0.0
220
0.0
230
1.0
 70
     8
 71
     3
 72
    25
 73
    21
 74
     0
 42
0.000000001
 43
0.00000001
 40
0.0
 40
0.0
 40
0.0
 40
0.0
 40
0.0605761642657547
 40
0.1211695081284311
 40
0.1818360657583596
 40
0.2424572487515357
 40
0.3030325686756063
 40
0.3636290041320848
 40
0.4210655194309128
 40
0.478427156425159
 40
0.5357608349179139
 40
0.5931701503041726
 40
0.6505726436690349
 40
0.7079051438050726
 40
0.7652714046641066
 40
0.8227066047429198
 40
0.8800550160989201
 40
0.9373950738862835
 40
0.9948221466464519
 40
1.0
 40
1.0
 40
1.0
 40
1.0
 10
9.999999999999961
 20
6.761161286862994
 30
0.0
 10
10.531194671073
 20
6.368443765413922
 30
0.0
 10
11.59373466175298
 20
5.582897346551248
 30
0.0
 10
13.18816124759339
 20
4.197059188641717
 30
0.0
 10
14.78474657984945
 20
2.708635372490902
 30
0.0
 10
16.37999673227355
 20
1.139890585442181
 30
0.0
 10
17.97399809755734
 20
-0.4597572343487089
 30
0.0
 10
19.54015973525605
 20
-2.018950077258646
 30
0.0
 10
21.07998452485504
 20
-3.494170165327775
 30
0.0
 10
22.58937966026271
 20
-4.856121882171358
 30
0.0
 10
24.09801218946249
 20
-6.096395434017989
 30
0.0
 10
25.60867262331199
 20
-7.182780780719543
 30
0.0
 10
27.11914332617234
 20
-8.089337635529667
 30
0.0
 10
28.62774654026994
 20
-8.79349176914261
 30
0.0
 10
30.13724513022668
 20
-9.277258418932659
 30
0.0
 10
31.64860991316361
 20
-9.526546386495458
 30
0.0
 10
33.1576675904419
 20
-9.54335500997347
 30
0.0
 10
34.66638769858089
 20
-9.29778846893758
 30
0.0
 10
35.71952354236363
 20
-9.023857249355812
 30
0.0
 10
36.26865120562087
 20
-8.773599448541304
 30
0.0
 10
36.3140677996371
 20
-8.752901425659761
 30
0.0
  0
SPLINE
  5
AB
330
1F
100
AcDbEntity
  8
외형선
  6
Continuous
370
    15
100
AcDbSpline
210
0.0
220
0.0
230
1.0
 70
    24
 71
     3
 72
    13
 73
     9
 74
     0
 42
0.000000001
 43
0.00000001
 40
0.0
 40
0.0
 40
0.0
 40
0.0
 40
0.0003507726835764
 40
0.2256889105158008
 40
0.4575618696106492
 40
0.6829000074428273
 40
0.9147729665376279
 40
1.0
 40
1.0
 40
1.0
 40
1.0
 10
9.999999999999988
 20
9.523391752799153
 30
0.0
 10
9.999999999999988
 20
9.523068589686543
 30
0.0
 10
10.00000000000079
 20
9.315143816125822
 30
0.0
 10
9.999999999999677
 20
8.886636795186249
 30
0.0
 10
10.00000000000002
 20
8.245718586812966
 30
0.0
 10
9.999999999999954
 20
7.619754755349089
 30
0.0
 10
10.00000000000002
 20
7.143370271301056
 30
0.0
 10
10.00000000000001
 20
6.898167627446438
 30
0.0
 10
9.999999999999995
 20
6.83226445991769
 30
0.0
  0
SPLINE
  5
AC
330
1F
100
AcDbEntity
  8
외형선
  6
Continuous
 62
     1
370
    15
100
AcDbSpline
210
0.0
220
0.0
230
1.0
 70
     8
 71
     3
 72
    27
 73
    23
 74
     0
 42
0.000000001
 43
0.00000001
 40
0.0
 40
0.0
 40
0.0
 40
0.0
 40
0.0316067779969429
 40
0.0816447707973507
 40
0.1317267897556934
 40
0.1818487024900358
 40
0.2318946692173134
 40
0.2819479268758228
 40
0.3320769330721213
 40
0.3821457696412454
 40
0.4321851401078748
 40
0.4822856001327653
 40
0.5323920143660931
 40
0.5824324132935111
 40
0.6324972141885831
 40
0.682627368298917
 40
0.7355154767115833
 40
0.7883851556480136
 40
0.8412948635226606
 40
0.8942441740354763
 40
0.9471295841285636
 40
1.0
 40
1.0
 40
1.0
 40
1.0
 10
40.14873544909223
 20
-9.496080374728647
 30
0.0
 10
39.831043158906
 20
-9.497854380742156
 30
0.0
 10
39.01039911164339
 20
-9.502436888784578
 30
0.0
 10
37.68753164964286
 20
-9.239852835173929
 30
0.0
 10
36.17760141644435
 20
-8.745757249487713
 30
0.0
 10
34.66646186609716
 20
-8.023048899038498
 30
0.0
 10
33.15764772777466
 20
-7.100935964817131
 30
0.0
 10
31.64861524486423
 20
-5.999882189447912
 30
0.0
 10
30.13724370257491
 20
-4.750095533911155
 30
0.0
 10
28.62774692234776
 20
-3.379852133059513
 30
0.0
 10
27.11914322368135
 20
-1.924477008913625
 30
0.0
 10
25.60867265079332
 20
-0.4218976582338916
 30
0.0
 10
24.09801218210951
 20
1.091111742019812
 30
0.0
 10
22.58937966223257
 20
2.578079674843719
 30
0.0
 10
21.07998452432729
 20
4.000118476831791
 30
0.0
 10
19.5401597354062
 20
5.34529902092655
 30
0.0
 10
17.97399809751624
 20
6.574785705791403
 30
0.0
 10
16.37999673228453
 20
7.641817369050028
 30
0.0
 10
14.78474657984647
 20
8.496400998046434
 30
0.0
 10
13.18816124759416
 20
9.107816628376272
 30
0.0
 10
11.59373466175278
 20
9.484029475380591
 30
0.0
 10
10.53119467107294
 20
9.510272233905694
 30
0.0
 10
9.999999999999973
 20
9.52339175279916
 30
0.0
  0
LINE
  5
AD
330
1F
100
AcDbEntity
  8
외형선
  6
Continuous
 62
     1
370
    15
100
AcDbLine
 10
51.27499999999997
 20
-3.731947439277574
 30
0.0
 11
51.27499999999997
 21
3.734097296725555
 31
0.0
  0
SPLINE
  5
AE
330
1F
100
AcDbEntity
  8
외형선
  6
Continuous
 62
     1
370
    15
100
AcDbSpline
210
0.0
220
0.0
230
1.0
 70
     8
 71
     3
 72
    20
 73
    16
 74
     0
 42
0.000000001
 43
0.00000001
 40
0.0
 40
0.0
 40
0.0
 40
0.0
 40
0.0361778070493472
 40
0.116445479331607
 40
0.1968349598155025
 40
0.2771604555120615
 40
0.3574153385809105
 40
0.4377448894436837
 40
0.5181314728286681
 40
0.5983974961986944
 40
0.6786792774116639
 40
0.7590811917894834
 40
0.8393822516381961
 40
0.9196401122481882
 40
1.0
 40
1.0
 40
1.0
 40
1.0
 10
32.47781536875015
 20
9.496482709550468
 30
0.0
 10
32.70445382108326
 20
9.503101542107673
 30
0.0
 10
33.43393483083339
 20
9.524405573296956
 30
0.0
 10
34.66642136587352
 20
9.30565142254263
 30
0.0
 10
36.17761898879808
 20
8.855895337855673
 30
0.0
 10
37.68750189370852
 20
8.170265060131184
 30
0.0
 10
39.19606369343506
 20
7.283041742025064
 30
0.0
 10
40.70603663215305
 20
6.212591361570257
 30
0.0
 10
42.21712868058657
 20
4.987534755896718
 30
0.0
 10
43.72590862368342
 20
3.635937991772074
 30
0.0
 10
45.2349870749316
 20
2.193343471477263
 30
0.0
 10
46.74637886945665
 20
0.6971368738052511
 30
0.0
 10
48.25581488437059
 20
-0.8163443506097879
 30
0.0
 10
49.76443422144375
 20
-2.316311064821653
 30
0.0
 10
50.77126488845933
 20
-3.259868859773939
 30
0.0
 10
51.27500000000003
 20
-3.731947439277575
 30
0.0
  0
SPLINE
  5
AF
330
1F
100
AcDbEntity
  8
외형선
  6
Continuous
 62
     1
370
    15
100
AcDbSpline
210
0.0
220
0.0
230
1.0
 70
     8
 71
     3
 72
    17
 73
    13
 74
     0
 42
0.000000001
 43
0.00000001
 40
0.0
 40
0.0
 40
0.0
 40
0.0
 40
0.1009651853908778
 40
0.2018021825826835
 40
0.3026934558476428
 40
0.4037114440261432
 40
0.5045784953678727
 40
0.6054257483552392
 40
0.7064244744792866
 40
0.8073515442168028
 40
0.908184800388032
 40
1.0
 40
1.0
 40
1.0
 40
1.0
 10
51.27499999999995
 20
3.734097296725555
 30
0.0
 10
50.77126488900159
 20
4.188096664896213
 30
0.0
 10
49.76443422307003
 20
5.095518991050584
 30
0.0
 10
48.25581487787375
 20
6.305161564454585
 30
0.0
 10
46.74637889384828
 20
7.363090323452013
 30
0.0
 10
45.23498698380109
 20
8.233697947867665
 30
0.0
 10
43.72590896318701
 20
8.89954498967889
 30
0.0
 10
42.2171274129531
 20
9.341551165088056
 30
0.0
 10
40.70604136956317
 20
9.550513340212635
 30
0.0
 10
39.19604603495343
 20
9.51504499906563
 30
0.0
 10
37.73295320407583
 20
9.2680645832095
 30
0.0
 10
36.77203578311844
 20
8.920634540086455
 30
0.0
 10
36.31406779963715
 20
8.75505128310756
 30
0.0
  0
LINE
  5
B0
330
1F
100
AcDbEntity
  8
외형선
  6
Continuous
370
    15
100
AcDbLine
 10
10.22562195957537
 20
-9.507726968355355
 30
0.0
 11
9.999999999999968
 21
-9.521241895351352
 31
0.0
  0
SPLINE
  5
B1
330
1F
100
AcDbEntity
  8
외형선
  6
Continuous
 62
     1
370
    15
100
AcDbSpline
210
0.0
220
0.0
230
1.0
 70
     8
 71
     3
 72
    18
 73
    14
 74
     0
 42
0.000000001
 43
0.00000001
 40
0.0
 40
0.0
 40
0.0
 40
0.0
 40
0.0975587543543829
 40
0.1951451766883468
 40
0.2928495108118946
 40
0.3904807684523982
 40
0.4880381629827653
 40
0.5856295643715101
 40
0.6781318704341257
 40
0.7705135839466564
 40
0.8628502699040066
 40
0.9553087701294423
 40
1.0
 40
1.0
 40
1.0
 40
1.0
 10
9.999999999999961
 20
-2.430090292606303
 30
0.0
 10
10.53119467082578
 20
-2.937435678494785
 30
0.0
 10
11.59373466101125
 20
-3.952270335070918
 30
0.0
 10
13.18816125056274
 20
-5.346407626847107
 30
0.0
 10
14.78474656870302
 20
-6.5947228403564
 30
0.0
 10
16.37999677383728
 20
-7.658016293927529
 30
0.0
 10
17.97399794253995
 20
-8.507271173864702
 30
0.0
 10
19.54016030127349
 20
-9.107788108207291
 30
0.0
 10
21.0799825358048
 20
-9.456637893004414
 30
0.0
 10
22.58938708443038
 20
-9.565509427948648
 30
0.0
 10
24.09798447693474
 20
-9.422430127222244
 30
0.0
 10
25.34853562960511
 20
-9.145235524257913
 30
0.0
 10
26.09561838684213
 20
-8.835398875928984
 30
0.0
 10
26.33906069775768
 20
-8.734436366829627
 30
0.0
  0
SPLINE
  5
B2
330
1F
100
AcDbEntity
  8
외형선
  6
Continuous
370
    15
100
AcDbSpline
210
0.0
220
0.0
230
1.0
 70
    24
 71
     3
 72
    24
 73
    20
 74
     0
 42
0.000000001
 43
0.00000001
 40
0.0
 40
0.0
 40
0.0
 40
0.0
 40
0.1250000000000004
 40
0.1250000000000004
 40
0.1875000000000004
 40
0.1875000000000004
 40
0.2500000000000004
 40
0.2500000000000004
 40
0.3750000000000004
 40
0.3750000000000004
 40
0.5000000000000004
 40
0.5000000000000004
 40
0.6250000000000003
 40
0.6250000000000003
 40
0.7500000000000002
 40
0.7500000000000002
 40
0.8750000000000002
 40
0.8750000000000002
 40
1.0
 40
1.0
 40
1.0
 40
1.0
 10
9.99999999999998
 20
4.958015046878551
 30
0.0
 10
9.999999999999968
 20
4.835407900018052
 30
0.0
 10
9.999999999999973
 20
4.678200880765558
 30
0.0
 10
9.999999999999988
 20
4.429422487063933
 30
0.0
 10
9.999999999999995
 20
4.347349889257348
 30
0.0
 10
9.999999999999988
 20
4.159327905192984
 30
0.0
 10
9.999999999999968
 20
4.054098559435988
 30
0.0
 10
9.999999999999973
 20
3.699147474524228
 30
0.0
 10
9.999999999999995
 20
3.40925945513693
 30
0.0
 10
9.999999999999995
 20
2.704482602772599
 30
0.0
 10
9.999999999999988
 20
2.288090561350967
 30
0.0
 10
10.0
 20
1.357483682146077
 30
0.0
 10
9.999999999999995
 20
0.843085453601817
 30
0.0
 10
9.999999999999961
 20
-0.1735579435959035
 30
0.0
 10
9.999999999999995
 20
-0.6722995990932138
 30
0.0
 10
9.999999999999973
 20
-1.50960587354008
 30
0.0
 10
10.0
 20
-1.84503080912326
 30
0.0
 10
10.00000000000001
 20
-2.291522147025919
 30
0.0
 10
10.00000000000001
 20
-2.404193484593103
 30
0.0
 10
9.999999999999995
 20
-2.43009029260631
 30
0.0
  0
SPLINE
  5
B3
330
1F
100
AcDbEntity
  8
외형선
  6
Continuous
 62
     1
370
    15
100
AcDbSpline
210
0.0
220
0.0
230
1.0
 70
     8
 71
     3
 72
    21
 73
    17
 74
     0
 42
0.000000001
 43
0.00000001
 40
0.0
 40
0.0
 40
0.0
 40
0.0
 40
0.0018245046072069
 40
0.0766497176006708
 40
0.1514308950713161
 40
0.2263033676373097
 40
0.3011847384510968
 40
0.3759674529016848
 40
0.4507866347949432
 40
0.5257034835921457
 40
0.6047419483932143
 40
0.6837528713223481
 40
0.7628236153704291
 40
0.8419535434547119
 40
0.9209879757606985
 40
1.0
 40
1.0
 40
1.0
 40
1.0
 10
30.17375414101772
 20
-9.521084524103632
 30
0.0
 10
30.16147871263769
 20
-9.522028586047254
 30
0.0
 10
29.64577263272995
 20
-9.561689807559342
 30
0.0
 10
28.62777891665626
 20
-9.420511094484565
 30
0.0
 10
27.11913464132408
 20
-9.080359750575928
 30
0.0
 10
25.60867495201555
 20
-8.484530203315678
 30
0.0
 10
24.09801156638985
 20
-7.683786080452164
 30
0.0
 10
22.58937982718347
 20
-6.687555402154697
 30
0.0
 10
21.07998448013436
 20
-5.524185174023708
 30
0.0
 10
19.54015974798204
 20
-4.199124388584087
 30
0.0
 10
17.97399809407203
 20
-2.734847566842041
 30
0.0
 10
16.37999673320803
 20
-1.168040388311874
 30
0.0
 10
14.7847465795988
 20
0.4321848705880374
 30
0.0
 10
13.18816124766015
 20
2.016683783787645
 30
0.0
 10
11.59373466173628
 20
3.556072538852146
 30
0.0
 10
10.53119467106745
 20
4.490745050632588
 30
0.0
 10
9.999999999999968
 20
4.958015046878556
 30
0.0
  0
LINE
  5
B4
330
1F
100
AcDbEntity
  8
외형선
  6
Continuous
 62
     1
370
    15
100
AcDbLine
 10
51.27499999999997
 20
-5.721394500638296
 30
0.0
 11
51.27499999999997
 21
-3.731947439277574
 31
0.0
  0
LINE
  5
B5
330
1F
100
AcDbEntity
  8
외형선
  6
Continuous
370
    15
100
AcDbLine
 10
9.999999999999988
 20
4.958015046878558
 30
0.0
 11
9.999999999999973
 21
6.761161286862987
 31
0.0
  0
LINE
  5
B6
330
1F
100
AcDbEntity
  8
외형선
  6
Continuous
 62
     1
370
    15
100
AcDbLine
 10
51.27499999999997
 20
-9.523925071276102
 30
0.0
 11
51.27499999999997
 21
-9.454416868639914
 31
0.0
  0
LINE
  5
B7
330
1F
100
AcDbEntity
  8
외형선
  6
Continuous
 62
     1
370
    15
100
AcDbLine
 10
51.27499999999997
 20
9.456566726087722
 30
0.0
 11
51.27499999999997
 21
9.526074928723906
 31
0.0
  0
SPLINE
  5
B8
330
1F
100
AcDbEntity
  8
외형선
  6
Continuous
 62
     1
370
    15
100
AcDbSpline
210
0.0
220
0.0
230
1.0
 70
     8
 71
     3
 72
    11
 73
     7
 74
     0
 42
0.000000001
 43
0.00000001
 40
0.0
 40
0.0
 40
0.0
 40
0.0
 40
0.302857526167533
 40
0.6053305360217984
 40
0.9079663536516531
 40
1.0
 40
1.0
 40
1.0
 40
1.0
 10
51.27499999999995
 20
9.456566726087722
 30
0.0
 10
50.77126555478436
 20
9.495197453462989
 30
0.0
 10
49.76443621957304
 20
9.572409861570838
 30
0.0
 10
48.25580690190119
 20
9.369801808722258
 30
0.0
 10
47.09708337984269
 20
9.09276823396088
 30
0.0
 10
46.44053921798534
 20
8.807346524611521
 30
0.0
 10
46.2874385635912
 20
8.740788548745797
 30
0.0
  0
SPLINE
  5
B9
330
1F
100
AcDbEntity
  8
외형선
  6
Continuous
 62
     1
370
    15
100
AcDbSpline
210
0.0
220
0.0
230
1.0
 70
     8
 71
     3
 72
    14
 73
    10
 74
     0
 42
0.000000001
 43
0.00000001
 40
0.0
 40
0.0
 40
0.0
 40
0.0
 40
0.0618752684261558
 40
0.2182077229360057
 40
0.3744857015846128
 40
0.5308820021462287
 40
0.6873953645165538
 40
0.8437198430383134
 40
1.0
 40
1.0
 40
1.0
 40
1.0
 10
20.19961958482201
 20
-9.49481012545925
 30
0.0
 10
19.98912669146162
 20
-9.50176136312179
 30
0.0
 10
19.24680789232468
 20
-9.52627541826065
 30
0.0
 10
17.97400303033118
 20
-9.298881643596383
 30
0.0
 10
16.37999540968321
 20
-8.811377374970798
 30
0.0
 10
14.78474693453786
 20
-8.062445400820353
 30
0.0
 10
13.18816115310652
 20
-7.090243272241229
 30
0.0
 10
11.59373468535499
 20
-5.926835707348656
 30
0.0
 10
10.53119467893959
 20
-5.018436822522775
 30
0.0
 10
9.999999999999968
 20
-4.564301777196721
 30
0.0
  0
LINE
  5
BA
330
1F
100
AcDbEntity
  8
외형선
  6
Continuous
370
    15
100
AcDbLine
 10
9.999999999999988
 20
-4.564301777196711
 30
0.0
 11
9.999999999999973
 21
-2.430090292606315
 31
0.0
  0
SPLINE
  5
BB
330
1F
100
AcDbEntity
  8
외형선
  6
Continuous
 62
     1
370
    15
100
AcDbSpline
210
0.0
220
0.0
230
1.0
 70
     8
 71
     3
 72
    11
 73
     7
 74
     0
 42
0.000000001
 43
0.00000001
 40
0.0
 40
0.0
 40
0.0
 40
0.0
 40
0.2504560815020573
 40
0.5009831931622465
 40
0.7518130118934464
 40
1.0
 40
1.0
 40
1.0
 40
1.0
 10
9.999999999999961
 20
-9.190176650745384
 30
0.0
 10
10.53119532582105
 20
-9.30505409000668
 30
0.0
 10
11.59373662618281
 20
-9.534841548144138
 30
0.0
 10
13.18815338331668
 20
-9.539394206271245
 30
0.0
 10
14.77956323610353
 20
-9.314273504196777
 30
0.0
 10
15.83816705922636
 20
-8.944595746735319
 30
0.0
 10
16.36466574796565
 20
-8.76073578863941
 30
0.0
  0
SPLINE
  5
BC
330
1F
100
AcDbEntity
  8
외형선
  6
Continuous
 62
     1
370
    15
100
AcDbSpline
210
0.0
220
0.0
230
1.0
 70
     8
 71
     3
 72
    13
 73
     9
 74
     0
 42
0.000000001
 43
0.00000001
 40
0.0
 40
0.0
 40
0.0
 40
0.0
 40
0.1443937946810081
 40
0.3154325445137601
 40
0.4867272356823789
 40
0.6578070582679546
 40
0.8287948457283392
 40
1.0
 40
1.0
 40
1.0
 40
1.0
 10
42.45226563231358
 20
9.510382198625319
 30
0.0
 10
42.87680617021038
 20
9.500302239997229
 30
0.0
 10
43.80422761802168
 20
9.478282270193983
 30
0.0
 10
45.23496160908436
 20
9.155949853915724
 30
0.0
 10
46.74638568554523
 20
8.612326446466637
 30
0.0
 10
48.25581306887857
 20
7.842928368292717
 30
0.0
 10
49.76443467588809
 20
6.888591385468063
 30
0.0
 10
50.77126504000488
 20
6.112057789688786
 30
0.0
 10
51.27500000000001
 20
5.72354435808615
 30
0.0
  0
LINE
  5
BD
330
1F
100
AcDbEntity
  8
외형선
  6
Continuous
 62
     1
370
    15
100
AcDbLine
 10
51.27499999999997
 20
3.734097296725555
 30
0.0
 11
51.27499999999997
 21
5.72354435808615
 31
0.0
  0
LINE
  5
BE
330
1F
100
AcDbEntity
  8
외형선
  6
Continuous
370
    15
100
AcDbLine
 10
9.999999999999988
 20
-9.521241895351347
 30
0.0
 11
9.999999999999973
 21
-9.19017665074539
 31
0.0
  0
LINE
  5
BF
330
1F
100
AcDbEntity
  8
외형선
  6
Continuous
 62
     1
370
    15
100
AcDbLine
 10
51.27499999999997
 20
5.711052182733789
 30
0.0
 11
51.27499999999997
 21
9.456566726087722
 31
0.0
  0
SPLINE
  5
C0
330
1F
100
AcDbEntity
  8
외형선
  6
Continuous
370
    15
100
AcDbSpline
210
0.0
220
0.0
230
1.0
 70
    24
 71
     3
 72
    16
 73
    12
 74
     0
 42
0.000000001
 43
0.00000001
 40
0.0
 40
0.0
 40
0.0
 40
0.0
 40
0.0697567896655755
 40
0.1983246771166038
 40
0.3268925645676365
 40
0.4554604520186694
 40
0.5840283394696997
 40
0.7125962269207295
 40
0.841164114371759
 40
0.9697320018227888
 40
1.0
 40
1.0
 40
1.0
 40
1.0
 10
9.999999999999973
 20
-4.635414950251415
 30
0.0
 10
9.99999999999998
 20
-4.711039586585163
 30
0.0
 10
10.00000000000003
 20
-4.926047066930164
 30
0.0
 10
10.00000000000004
 20
-5.364001845911182
 30
0.0
 10
10.00000000000002
 20
-5.927243415994006
 30
0.0
 10
10.00000000000002
 20
-6.53746714567964
 30
0.0
 10
9.999999999999973
 20
-7.173776218306801
 30
0.0
 10
9.999999999999995
 20
-7.818876675188545
 30
0.0
 10
9.99999999999998
 20
-8.453484398483933
 30
0.0
 10
10.00000000000006
 20
-8.907400853109582
 30
0.0
 10
9.999999999999988
 20
-9.144915510914936
 30
0.0
 10
9.999999999999973
 20
-9.19017665074539
 30
0.0
  0
LINE
  5
C1
330
1F
100
AcDbEntity
  8
외형선
  6
Continuous
370
    15
100
AcDbLine
 10
8.999627570183632
 20
-9.5239250712761
 30
0.0
 11
8.999627570183632
 21
-9.44527722990144
 31
0.0
  0
SPLINE
  5
C2
330
1F
100
AcDbEntity
  8
외형선
  6
Continuous
370
    15
100
AcDbSpline
210
0.0
220
0.0
230
1.0
 70
     8
 71
     3
 72
     8
 73
     4
 74
     0
 42
0.000000001
 43
0.00000001
 40
0.0
 40
0.0
 40
0.0
 40
0.0
 40
1.0
 40
1.0
 40
1.0
 40
1.0
 10
9.99999999999998
 20
9.523391752799155
 30
0.0
 10
9.666737306421814
 20
9.515491486457913
 30
0.0
 10
9.332363528575243
 20
9.49009106228943
 30
0.0
 10
8.999627570183646
 20
9.447426736353934
 30
0.0
  0
LINE
  5
C3
330
1F
100
AcDbEntity
  8
외형선
  6
Continuous
370
    15
100
AcDbLine
 10
8.999627570183632
 20
7.426369234548605
 30
0.0
 11
8.999627570183632
 21
9.526074928723904
 31
0.0
  0
SPLINE
  5
C4
330
1F
100
AcDbEntity
  8
외형선
  6
Continuous
370
    15
100
AcDbSpline
210
0.0
220
0.0
230
1.0
 70
     8
 71
     3
 72
     8
 73
     4
 74
     0
 42
0.000000001
 43
0.00000001
 40
0.0
 40
0.0
 40
0.0
 40
0.0
 40
1.0
 40
1.0
 40
1.0
 40
1.0
 10
9.999999999999995
 20
6.761161286862961
 30
0.0
 10
9.666737306421814
 20
6.995657629949171
 30
0.0
 10
9.332363528575243
 20
7.217995568199211
 30
0.0
 10
8.99962757018364
 20
7.426367569269753
 30
0.0
  0
SPLINE
  5
C5
330
1F
100
AcDbEntity
  8
외형선
  6
Continuous
370
    15
100
AcDbSpline
210
0.0
220
0.0
230
1.0
 70
     8
 71
     3
 72
     8
 73
     4
 74
     0
 42
0.000000001
 43
0.00000001
 40
0.0
 40
0.0
 40
0.0
 40
0.0
 40
1.0
 40
1.0
 40
1.0
 40
1.0
 10
9.99999999999998
 20
4.958015046878559
 30
0.0
 10
9.666737306421814
 20
5.242251335416752
 30
0.0
 10
9.332363528575243
 20
5.517696358601129
 30
0.0
 10
8.999627570183646
 20
5.782100961273469
 30
0.0
  0
SPLINE
  5
C6
330
1F
100
AcDbEntity
  8
외형선
  6
Continuous
370
    15
100
AcDbSpline
210
0.0
220
0.0
230
1.0
 70
     8
 71
     3
 72
     8
 73
     4
 74
     0
 42
0.000000001
 43
0.00000001
 40
0.0
 40
0.0
 40
0.0
 40
0.0
 40
1.0
 40
1.0
 40
1.0
 40
1.0
 10
9.999999999999995
 20
-2.430090292606341
 30
0.0
 10
9.666737306421814
 20
-2.108252719766573
 30
0.0
 10
9.332363528575243
 20
-1.781593742334885
 30
0.0
 10
8.99962757018364
 20
-1.452804726133075
 30
0.0
  0
SPLINE
  5
C7
330
1F
100
AcDbEntity
  8
외형선
  6
Continuous
370
    15
100
AcDbSpline
210
0.0
220
0.0
230
1.0
 70
     8
 71
     3
 72
     8
 73
     4
 74
     0
 42
0.000000001
 43
0.00000001
 40
0.0
 40
0.0
 40
0.0
 40
0.0
 40
1.0
 40
1.0
 40
1.0
 40
1.0
 10
9.99999999999998
 20
-4.564301777196712
 30
0.0
 10
9.666737306421814
 20
-4.272165222317279
 30
0.0
 10
9.332363528575243
 20
-3.971319774964417
 30
0.0
 10
8.999627570183646
 20
-3.664250846356584
 30
0.0
  0
LINE
  5
C8
330
1F
100
AcDbEntity
  8
외형선
  6
Continuous
370
    15
100
AcDbLine
 10
8.999627570183632
 20
-8.878096404323061
 30
0.0
 11
8.999627570183632
 21
-3.664253372585903
 31
0.0
  0
SPLINE
  5
C9
330
1F
100
AcDbEntity
  8
외형선
  6
Continuous
370
    15
100
AcDbSpline
210
0.0
220
0.0
230
1.0
 70
     8
 71
     3
 72
     8
 73
     4
 74
     0
 42
0.000000001
 43
0.00000001
 40
0.0
 40
0.0
 40
0.0
 40
0.0
 40
1.0
 40
1.0
 40
1.0
 40
1.0
 10
9.999999999999995
 20
-9.190176650745387
 30
0.0
 10
9.666737306421814
 20
-9.102835420991832
 30
0.0
 10
9.332363528575243
 20
-8.998514381810185
 30
0.0
 10
8.99962757018364
 20
-8.87809736667892
 30
0.0
  0
SPLINE
  5
CA
330
1F
100
AcDbEntity
  8
외형선
  6
Continuous
370
    15
100
AcDbSpline
210
0.0
220
0.0
230
1.0
 70
     8
 71
     3
 72
     8
 73
     4
 74
     0
 42
0.000000001
 43
0.00000001
 40
0.0
 40
0.0
 40
0.0
 40
0.0
 40
1.0
 40
1.0
 40
1.0
 40
1.0
 10
9.99999999999998
 20
-9.521241895351348
 30
0.0
 10
9.666737306421814
 20
-9.513341629010105
 30
0.0
 10
9.332363528575243
 20
-9.487941204841617
 30
0.0
 10
8.999627570183646
 20
-9.44527687890612
 30
0.0
  0
LINE
  5
CB
330
1F
100
AcDbEntity
  8
외형선
  6
Continuous
370
    15
100
AcDbLine
 10
-45.24500000000001
 20
0.0010749287239018
 30
0.0
 11
-45.24500000000001
 21
9.526074928723908
 31
0.0
  0
LINE
  5
CC
330
1F
100
AcDbEntity
  8
외형선
  6
Continuous
370
    15
100
AcDbLine
 10
-45.24500000000001
 20
-9.523925071276116
 30
0.0
 11
-45.24500000000001
 21
0.0010749287239018
 31
0.0
  0
LINE
  5
CD
330
1F
100
AcDbEntity
  8
외형선
  6
Continuous
370
    15
100
AcDbLine
 10
8.999627570183632
 20
-1.452802098498366
 30
0.0
 11
8.999627570183632
 21
5.782098786039469
 31
0.0
  0
LINE
  5
CE
330
1F
100
AcDbEntity
  8
외형선
  6
Continuous
370
    15
100
AcDbLine
 10
-47.15000000000001
 20
0.0010749287239018
 30
0.0
 11
-47.15000000000001
 21
7.621074928723907
 31
0.0
  0
LINE
  5
CF
330
1F
100
AcDbEntity
  8
외형선
  6
Continuous
370
    15
100
AcDbLine
 10
-47.15000000000001
 20
-7.618925071276103
 30
0.0
 11
-47.15000000000001
 21
0.0010749287239018
 31
0.0
  0
SPLINE
  5
D0
330
1F
100
AcDbEntity
  8
외형선
  6
Continuous
370
    15
100
AcDbSpline
210
0.0
220
0.0
230
1.0
 70
    24
 71
     3
 72
    24
 73
    20
 74
     0
 42
0.000000001
 43
0.00000001
 40
0.0
 40
0.0
 40
0.0
 40
0.0
 40
0.125
 40
0.125
 40
0.2500000000000001
 40
0.2500000000000001
 40
0.3750000000000002
 40
0.3750000000000002
 40
0.5000000000000003
 40
0.5000000000000003
 40
0.6250000000000006
 40
0.6250000000000006
 40
0.7500000000000007
 40
0.7500000000000007
 40
0.8125000000000006
 40
0.8125000000000006
 40
0.8750000000000004
 40
0.8750000000000004
 40
1.0
 40
1.0
 40
1.0
 40
1.0
 10
9.999999999999988
 20
-2.430090292606309
 30
0.0
 10
10.00000000000002
 20
-2.404193484593101
 30
0.0
 10
9.999999999999988
 20
-2.291522147025914
 30
0.0
 10
9.99999999999998
 20
-1.845030809123251
 30
0.0
 10
9.999999999999988
 20
-1.509605873540071
 30
0.0
 10
9.999999999999973
 20
-0.6722995990931987
 30
0.0
 10
9.999999999999995
 20
-0.173557943595883
 30
0.0
 10
9.999999999999988
 20
0.8430854536018402
 30
0.0
 10
9.999999999999995
 20
1.3574836821461
 30
0.0
 10
9.999999999999995
 20
2.288090561350988
 30
0.0
 10
9.999999999999988
 20
2.704482602772619
 30
0.0
 10
9.999999999999988
 20
3.409259455136947
 30
0.0
 10
9.99999999999998
 20
3.699147474524245
 30
0.0
 10
9.999999999999988
 20
4.054098559436003
 30
0.0
 10
9.999999999999988
 20
4.159327905192997
 30
0.0
 10
9.999999999999995
 20
4.347349889257358
 30
0.0
 10
9.999999999999988
 20
4.429422487063945
 30
0.0
 10
9.999999999999988
 20
4.678200880765573
 30
0.0
 10
10.0
 20
4.835407900018065
 30
0.0
 10
9.999999999999995
 20
4.95801504687856
 30
0.0
  0
SPLINE
  5
D1
330
1F
100
AcDbEntity
  8
외형선
  6
Continuous
370
    15
100
AcDbSpline
210
0.0
220
0.0
230
1.0
 70
    24
 71
     3
 72
    15
 73
    11
 74
     0
 42
0.000000001
 43
0.00000001
 40
0.0
 40
0.0
 40
0.0
 40
0.0
 40
0.152806695637137
 40
0.2813962787284323
 40
0.4099858618197274
 40
0.5385754449110213
 40
0.667165028002315
 40
0.7957546110936096
 40
0.9243441941849041
 40
1.0
 40
1.0
 40
1.0
 40
1.0
 10
10.0
 20
-9.19017665074539
 30
0.0
 10
10.00000000000003
 20
-8.95614177744358
 30
0.0
 10
10.00000000000003
 20
-8.525162348399478
 30
0.0
 10
9.999999999999995
 20
-7.847861161578349
 30
0.0
 10
9.999999999999961
 20
-7.203685551774313
 30
0.0
 10
9.999999999999968
 20
-6.566689053081283
 30
0.0
 10
10.0
 20
-5.954247089748717
 30
0.0
 10
9.999999999999968
 20
-5.389398733013432
 30
0.0
 10
9.999999999999968
 20
-4.940538244368226
 30
0.0
 10
9.99999999999998
 20
-4.717880858474645
 30
0.0
 10
9.999999999999988
 20
-4.635404950251414
 30
0.0
  0
SPLINE
  5
D2
330
1F
100
AcDbEntity
  8
외형선
  6
Continuous
370
    15
100
AcDbSpline
210
0.0
220
0.0
230
1.0
 70
    24
 71
     3
 72
    16
 73
    12
 74
     0
 42
0.000000001
 43
0.00000001
 40
0.0
 40
0.0
 40
0.0
 40
0.0
 40
0.0693872765796252
 40
0.1851494382720044
 40
0.3017629979359553
 40
0.4142799940065755
 40
0.5275782151215507
 40
0.6433403768139785
 40
0.7599539364779803
 40
0.8795076505577808
 40
1.0
 40
1.0
 40
1.0
 40
1.0
 10
10.00000000000002
 20
6.832264459917692
 30
0.0
 10
10.00000000000002
 20
6.887145935593892
 30
0.0
 10
10.00000000000004
 20
7.033588841179422
 30
0.0
 10
9.999999999999995
 20
7.28762700787533
 30
0.0
 10
9.999999999999932
 20
7.586992501201305
 30
0.0
 10
10.00000000000011
 20
7.893747419365176
 30
0.0
 10
9.999999999999892
 20
8.206242385264268
 30
0.0
 10
9.999999999999968
 20
8.527180850865616
 30
0.0
 10
9.999999999999973
 20
8.856207775563858
 30
0.0
 10
10.00000000000002
 20
9.19001729811908
 30
0.0
 10
10.00000000000002
 20
9.411977629243898
 30
0.0
 10
10.0
 20
9.523391752799181
 30
0.0
  0
LINE
  5
D3
330
1F
100
AcDbEntity
  8
중심선
 62
     1
100
AcDbLine
 10
-50.15
 20
0.0010749287238931
 30
0.0
 11
54.27499999999999
 21
0.0010749287238892
 31
0.0
  0
LINE
  5
D4
330
1F
100
AcDbEntity
  8
참조1
100
AcDbLine
 10
2.062499999999995
 20
0.0010749287238892
 30
0.0
 11
2.0625
 21
-39.99892507127611
 31
0.0
  0
LINE
  5
D5
330
1F
100
AcDbEntity
  8
참조1
100
AcDbLine
 10
2.0625
 20
-39.99892507127611
 30
0.0
 11
-13.09635681430868
 21
-39.9989250712761
 31
0.0
  0
CIRCLE
  5
D6
330
1F
100
AcDbEntity
  8
해칭선
100
AcDbCircle
 10
0.0
 20
0.0
 30
0.0
 40
3.000000000000002
  0
INSERT
  5
D7
330
1F
100
AcDbEntity
  8
0
  6
Continuous
 62
     7
100
AcDbBlockReference
 66
     1
  2
블럭10
 10
-11.87777293212521
 20
-52.04609937292004
 30
0.0
  0
ATTRIB
  5
D8
330
D7
100
AcDbEntity
  8
FORMAT
 62
     2
100
AcDbText
 10
-20.94539471269923
 20
-49.97073246008785
 30
0.0
 40
4.233333333333333
  1
EE882048 [ 6 FLUTE ]
 41
0.75
  7
SLDTEXTSTYLE0
 11
-20.94539471269923
 21
-52.08739912675452
 31
0.0
100
AcDbAttribute
  2
AUTOATTR0
 70
     0
 74
     1
  0
SEQEND
  5
D9
330
D7
100
AcDbEntity
  8
0
  6
Continuous
 62
     7
  0
HATCH
  5
DA
330
1F
100
AcDbEntity
  8
중심선
100
AcDbHatch
 10
0.0
 20
0.0
 30
0.0
210
0.0
220
0.0
230
1.0
  2
SOLID
 70
     1
 71
     0
 91
        1
 92
        0
 93
        4
 72
     1
 10
-6.162863627744375
 20
-35.7989250712761
 11
-9.609138871581656
 21
-35.7989250712761
 72
     1
 10
-9.609138871581656
 20
-35.7989250712761
 11
-11.73736873078568
 21
-38.3352506518487
 72
     1
 10
-11.73736873078568
 20
-38.3352506518487
 11
-8.29106040183525
 21
-38.33521122254621
 72
     1
 10
-8.29106040183525
 20
-38.33521122254621
 11
-6.162863627744375
 21
-35.7989250712761
 97
        0
 75
     0
 76
     1
 98
        1
 10
0.0
 20
0.0
  0
HATCH
  5
DB
330
1F
100
AcDbEntity
  8
중심선
100
AcDbHatch
 10
0.0
 20
0.0
 30
0.0
210
0.0
220
0.0
230
1.0
  2
SOLID
 70
     1
 71
     0
 91
        1
 92
        0
 93
        4
 72
     1
 10
-1.150099636708396
 20
-35.7989250712761
 11
-4.596374880545678
 21
-35.7989250712761
 72
     1
 10
-4.596374880545678
 20
-35.7989250712761
 11
-9.127512888903095
 21
-41.19892507127612
 72
     1
 10
-9.127512888903095
 20
-41.19892507127612
 11
-5.681237645065812
 21
-41.19892507127612
 72
     1
 10
-5.681237645065812
 20
-41.19892507127612
 11
-1.150099636708396
 21
-35.7989250712761
 97
        0
 75
     0
 76
     1
 98
        1
 10
0.0
 20
0.0
  0
HATCH
  5
DC
330
1F
100
AcDbEntity
  8
중심선
100
AcDbHatch
 10
0.0
 20
0.0
 30
0.0
210
0.0
220
0.0
230
1.0
  2
SOLID
 70
     1
 71
     0
 91
        1
 92
        0
 93
        4
 72
     1
 10
3.862664354327472
 20
-35.7989250712761
 11
0.4163891104903561
 21
-35.7989250712761
 72
     1
 10
0.4163891104903561
 20
-35.7989250712761
 11
-6.632047791398893
 21
-44.19892507127612
 72
     1
 10
-6.632047791398893
 20
-44.19892507127612
 11
-3.18577254756161
 21
-44.19892507127612
 72
     1
 10
-3.18577254756161
 20
-44.19892507127612
 11
3.862664354327471
 21
-35.7989250712761
 97
        0
 75
     0
 76
     1
 98
        1
 10
0.0
 20
0.0
  0
HATCH
  5
DD
330
1F
100
AcDbEntity
  8
중심선
100
AcDbHatch
 10
0.0
 20
0.0
 30
0.0
210
0.0
220
0.0
230
1.0
  2
SOLID
 70
     1
 71
     0
 91
        1
 92
        0
 93
        6
 72
     3
 10
8.66255478533967
 20
-39.99892507132738
 11
3.960054785062284
 21
1.540850780301639E-10
 40
0.3939339440162633
 50
17.09539180608433
 51
320.0019657685073
 73
     0
 72
     1
 10
10.34555444104027
 20
-38.58681907591438
 11
12.6508563147413
 21
-36.65249236586649
 72
     3
 10
8.662554785286824
 20
-39.99892507127625
 11
6.600054785286829
 21
-1.249000902703301E-13
 40
0.6363583540795982
 50
39.99873849337408
 51
368.4976242363724
 73
     1
 72
     1
 10
15.08788727718743
 20
-39.03892507120613
 11
7.342622092122747
 21
-39.0389250712061
 72
     1
 10
7.342622092122747
 20
-39.0389250712061
 11
7.342597047676813
 21
-40.95892507120602
 72
     1
 10
7.342597047676813
 20
-40.95892507120602
 11
11.78397681714885
 21
-40.95892507120599
 97
        0
 75
     0
 76
     1
 98
        1
 10
0.0
 20
0.0
  0
DIMENSION
  5
DE
330
1F
100
AcDbEntity
  8
치수문자_일반주서
100
AcDbDimension
  2
_D
 10
70.27500000000016
 20
-9.523925071276043
 30
0.0
 11
70.27500000000002
 21
29.91132492872397
 31
0.0
 70
   160
  1
%%c<>
 71
     2
 42
19.05000000000001
  3
SLDDIMSTYLE0
100
AcDbAlignedDimension
 13
50.69885122619242
 23
9.526074928723908
 33
0.0
 14
50.76135122619241
 24
-9.523925071276103
 34
0.0
 50
90.0000000000002
100
AcDbRotatedDimension
1001
PE_URL
1000

1001
ACAD
1000
DSTYLE
1002
{
1070
   171
1070
     6
1070
   273
1070
     7
1002
}
1001
ACAD_DSTYLE_DIMFLIPARROW_SYMBOL
1070
   385
1070
     0
1001
ACAD_DSTYLE_DIMFLIPARROW_WHICH_SYMBOL
1070
   386
1070
     3
  0
DIMENSION
  5
F3
330
1F
100
AcDbEntity
  8
치수문자_일반주서
100
AcDbDimension
  2
_D_1
 10
-60.15
 20
-9.523925071276159
 30
0.0
 11
-60.15000000000003
 21
0.0010749287239044
 31
0.0
 70
   160
  1
%%c<>
 71
     2
 42
19.05000000000001
  3
SLDDIMSTYLE0
100
AcDbAlignedDimension
 13
-45.24500000000002
 23
9.526074928723908
 33
0.0
 14
-45.24500000000002
 24
-9.523925071276103
 34
0.0
 50
90.0000000000002
100
AcDbRotatedDimension
1001
ACAD
1000
DSTYLE
1002
{
1070
   171
1070
     6
1070
   273
1070
     7
1002
}
  0
DIMENSION
  5
107
330
1F
100
AcDbEntity
  8
치수문자_일반주서
100
AcDbDimension
  2
_D_2
 10
9.999999999999996
 20
30.78862795768287
 30
0.0
 11
30.63749999999998
 21
30.78862795768287
 31
0.0
 70
   160
  1
<>
 71
     2
 42
41.27499999999998
  3
SLDDIMSTYLE0
100
AcDbAlignedDimension
 13
51.27499999999997
 23
9.456566726087722
 33
0.0
 14
9.999999999999995
 24
9.52339175279918
 34
0.0
100
AcDbRotatedDimension
1001
PE_URL
1000

1001
ACAD
1000
DSTYLE
1002
{
1070
   171
1070
     6
1070
   273
1070
     7
1002
}
  0
DIMENSION
  5
11B
330
1F
100
AcDbEntity
  8
치수문자_일반주서
100
AcDbDimension
  2
_D_3
 10
-47.15000000000001
 20
52.05818918927801
 30
0.0
 11
2.062499999999981
 21
52.05818918927801
 31
0.0
 70
   160
  1
<>
 71
     2
 42
98.42499999999998
  3
SLDDIMSTYLE0
100
AcDbAlignedDimension
 13
51.27499999999997
 23
9.456566726087722
 33
0.0
 14
-47.15000000000001
 24
7.621074928723907
 34
0.0
100
AcDbRotatedDimension
1001
PE_URL
1000

1001
ACAD
1000
DSTYLE
1002
{
1070
   171
1070
     6
1070
   273
1070
     7
1002
}
  0
LINE
  5
12E
330
1F
100
AcDbEntity
  8
참조1
100
AcDbLine
 10
84.87598381534559
 20
7.441074928723896
 30
0.0
 11
84.87598381534559
 21
-7.438925071276109
 31
0.0
  0
LINE
  5
12F
330
1F
100
AcDbEntity
  8
참조1
100
AcDbLine
 10
97.5759838153456
 20
5.441074928723896
 30
0.0
 11
84.87598381534559
 21
5.441074928723896
 31
0.0
  0
SOLID
  5
130
330
1F
100
AcDbEntity
  8
참조1
100
AcDbTrace
 10
84.87598381534559
 20
5.441074928723896
 30
0.0
 11
91.22598381534559
 21
4.425074928723896
 31
0.0
 12
91.22598381534559
 22
6.457074928723896
 32
0.0
 13
91.22598381534559
 23
6.457074928723896
 33
0.0
  0
LINE
  5
131
330
1F
100
AcDbEntity
  8
참조1
100
AcDbLine
 10
97.5759838153456
 20
-5.438925071276109
 30
0.0
 11
84.87598381534559
 21
-5.438925071276109
 31
0.0
  0
SOLID
  5
132
330
1F
100
AcDbEntity
  8
참조1
100
AcDbTrace
 10
84.87598381534559
 20
-5.438925071276109
 30
0.0
 11
91.22598381534559
 21
-6.454925071276109
 31
0.0
 12
91.22598381534559
 22
-4.422925071276109
 32
0.0
 13
91.22598381534559
 23
-4.422925071276109
 33
0.0
  0
MTEXT
  5
133
330
1F
100
AcDbEntity
  8
참조1
100
AcDbMText
 10
94.27347390781586
 20
10.98929157337383
 30
0.0
 40
3.5
 41
0.0
 71
     1
 72
     1
  1
A
  7
SLDTEXTSTYLE0
 73
     1
 44
1.0
  0
MTEXT
  5
134
330
1F
100
AcDbEntity
  8
참조1
100
AcDbMText
 10
94.27347390781586
 20
0.1092915733738259
 30
0.0
 40
3.5
 41
0.0
 71
     1
 72
     1
  1
A
  7
SLDTEXTSTYLE0
 73
     1
 44
1.0
  0
INSERT
  5
13B
330
1F
100
AcDbEntity
  8
해칭선
100
AcDbBlockReference
  2
SW_DOWELSYMBOL_0
 10
0.0
 20
0.0
 30
0.0
  0
LINE
  5
1C4
330
1F
100
AcDbEntity
  8
외형선
  6
Continuous
370
    15
100
AcDbLine
 10
-27.14432499999999
 20
7.6210749287239
 30
0.0
 11
-15.56192499999999
 21
7.6210749287239
 31
0.0
  0
LINE
  5
1C5
330
1F
100
AcDbEntity
  8
외형선
  6
Continuous
370
    15
100
AcDbLine
 10
-27.14432499999999
 20
7.621074928723885
 30
0.0
 11
-29.04932500000014
 21
9.526074928723915
 31
0.0
  0
LINE
  5
1C6
330
1F
100
AcDbEntity
  8
외형선
  6
Continuous
370
    15
100
AcDbLine
 10
-15.56192499999999
 20
7.621074928723885
 30
0.0
 11
-13.65692500000002
 21
9.526074928723915
 31
0.0
  0
LINE
  5
1C7
330
1F
100
AcDbEntity
  8
외형선
  6
Continuous
370
    15
100
AcDbLine
 10
-29.04932500000013
 20
9.526074928723904
 30
0.0
 11
-45.24500000000001
 21
9.526074928723904
 31
0.0
  0
ENDSEC
  0
SECTION
  2
OBJECTS
  0
DICTIONARY
  5
C
330
0
100
AcDbDictionary
281
     1
  3
ACAD_GROUP
350
D
  3
ACAD_IMAGE_VARS
350
18A
  3
ACAD_LAYOUT
350
1A
  3
ACAD_MLINESTYLE
350
17
  3
ACAD_PLOTSETTINGS
350
19
  3
ACAD_PLOTSTYLENAME
350
E
  3
ACAD_SCALELIST
350
47
  3
APPDATA
350
15D
  3
DWGPROPS
350
1C8
  0
DICTIONARY
  5
1B6
330
2
100
AcDbDictionary
280
     1
281
     1
  3
ACAD_LAYERSTATES
360
1B7
  0
DICTIONARY
  5
D
102
{ACAD_REACTORS
330
C
102
}
330
C
100
AcDbDictionary
281
     1
  0
RASTERVARIABLES
  5
18A
102
{ACAD_REACTORS
330
C
102
}
330
C
100
AcDbRasterVariables
 90
        0
 70
     1
 71
     1
 72
     1
  0
DICTIONARY
  5
1A
102
{ACAD_REACTORS
330
C
102
}
330
C
100
AcDbDictionary
281
     1
  3
Layout1
350
1E
  3
Layout2
350
26
  3
Model
350
22
  0
DICTIONARY
  5
17
102
{ACAD_REACTORS
330
C
102
}
330
C
100
AcDbDictionary
281
     1
  3
Standard
350
18
  0
DICTIONARY
  5
19
102
{ACAD_REACTORS
330
C
102
}
330
C
100
AcDbDictionary
281
     1
  0
ACDBDICTIONARYWDFLT
  5
E
102
{ACAD_REACTORS
330
C
102
}
330
C
100
AcDbDictionary
281
     1
  3
Normal
350
F
100
AcDbDictionaryWithDefault
340
F
  0
DICTIONARY
  5
47
102
{ACAD_REACTORS
330
C
102
}
330
C
100
AcDbDictionary
281
     1
  3
A0
350
48
  3
A1
350
49
  3
A2
350
4A
  3
A3
350
4B
  3
A4
350
4C
  3
A5
350
4D
  3
A6
350
4E
  3
A7
350
4F
  3
A8
350
50
  3
A9
350
51
  3
B0
350
52
  3
B1
350
53
  3
B2
350
54
  3
B3
350
55
  3
B4
350
56
  3
B5
350
57
  3
B6
350
58
  3
B7
350
59
  3
B8
350
5A
  3
B9
350
5B
  3
C0
350
5C
  3
C1
350
5D
  3
C2
350
5E
  3
C3
350
5F
  3
C4
350
60
  3
C5
350
61
  3
C6
350
62
  3
C7
350
63
  3
C8
350
64
  3
C9
350
65
  3
D0
350
66
  3
D1
350
67
  3
D2
350
68
  0
DICTIONARY
  5
15D
102
{ACAD_REACTORS
330
C
102
}
330
C
100
AcDbDictionary
281
     1
  0
XRECORD
  5
1C8
102
{ACAD_REACTORS
330
C
102
}
330
C
100
AcDbXrecord
280
     1
  1
DWGPROPS COOKIE
  2

  3

  4

  6

  7

  8
12016016
  9

300
=
301
=
302
=
303
=
304
=
305
=
306
=
307
=
308
=
309
=
 40
0.0
 41
2458292.269410011
 42
2458302.057142674
  1

 90
        0
  0
DICTIONARY
  5
1B7
102
{ACAD_REACTORS
330
1B6
102
}
330
1B6
100
AcDbDictionary
281
     1
  0
LAYOUT
  5
1E
102
{ACAD_REACTORS
330
1A
102
}
330
1A
100
AcDbPlotSettings
  1

  2
none_device
  4

  6

 40
0.0
 41
0.0
 42
0.0
 43
0.0
 44
0.0
 45
0.0
 46
0.0
 47
0.0
 48
0.0
 49
0.0
140
0.0
141
0.0
142
1.0
143
1.0
 70
   688
 72
     1
 73
     0
 74
     5
  7

 75
    16
147
1.0
148
0.0
149
0.0
100
AcDbLayout
  1
Layout1
 70
     1
 71
     1
 10
0.0
 20
0.0
 11
420.0
 21
297.0
 12
0.0
 22
0.0
 32
0.0
 14
1.000000000000000E+20
 24
1.000000000000000E+20
 34
1.000000000000000E+20
 15
-1.000000000000000E+20
 25
-1.000000000000000E+20
 35
-1.000000000000000E+20
146
0.0
 13
0.0
 23
0.0
 33
0.0
 16
1.0
 26
0.0
 36
0.0
 17
0.0
 27
1.0
 37
0.0
 76
     0
330
1B
  0
LAYOUT
  5
26
102
{ACAD_REACTORS
330
1A
102
}
330
1A
100
AcDbPlotSettings
  1

  2
none_device
  4

  6

 40
0.0
 41
0.0
 42
0.0
 43
0.0
 44
0.0
 45
0.0
 46
0.0
 47
0.0
 48
0.0
 49
0.0
140
0.0
141
0.0
142
1.0
143
1.0
 70
   688
 72
     1
 73
     0
 74
     5
  7

 75
    16
147
1.0
148
0.0
149
0.0
100
AcDbLayout
  1
Layout2
 70
     1
 71
     2
 10
0.0
 20
0.0
 11
0.0
 21
0.0
 12
0.0
 22
0.0
 32
0.0
 14
0.0
 24
0.0
 34
0.0
 15
0.0
 25
0.0
 35
0.0
146
0.0
 13
0.0
 23
0.0
 33
0.0
 16
1.0
 26
0.0
 36
0.0
 17
0.0
 27
1.0
 37
0.0
 76
     0
330
23
  0
LAYOUT
  5
22
102
{ACAD_REACTORS
330
1A
102
}
330
1A
100
AcDbPlotSettings
  1

  2
none_device
  4
ANSI_A_(11.00_x_8.50_Inches)
  6

 40
6.35
 41
19.05
 42
6.35000508
 43
19.05000254
 44
279.4
 45
215.9
 46
111.4922789901721
 47
78.93970882861082
 48
0.0
 49
0.0
140
0.0
141
0.0
142
0.0646218449528526
143
1.0
 70
  1696
 72
     0
 73
     0
 74
     0
  7

 75
     0
147
0.0235690232323232
148
0.0
149
0.0
100
AcDbLayout
  1
Model
 70
     1
 71
     0
 10
0.0
 20
0.0
 11
420.0
 21
297.0
 12
0.0
 22
0.0
 32
0.0
 14
1.000000000000000E+20
 24
1.000000000000000E+20
 34
1.000000000000000E+20
 15
-1.000000000000000E+20
 25
-1.000000000000000E+20
 35
-1.000000000000000E+20
146
0.0
 13
0.0
 23
0.0
 33
0.0
 16
1.0
 26
0.0
 36
0.0
 17
0.0
 27
1.0
 37
0.0
 76
     0
330
1F
331
29
  0
MLINESTYLE
  5
18
102
{ACAD_REACTORS
330
17
102
}
330
17
100
AcDbMlineStyle
  2
Standard
 70
     0
  3

 62
   256
 51
90.0
 52
90.0
 71
     2
 49
0.5
 62
   256
  6
BYLAYER
 49
-0.5
 62
   256
  6
BYLAYER
  0
ACDBPLACEHOLDER
  5
F
102
{ACAD_REACTORS
330
E
102
}
330
E
  0
SCALE
  5
48
102
{ACAD_REACTORS
330
47
102
}
330
47
100
AcDbScale
 70
     0
300
1:1
140
1.0
141
1.0
290
     1
  0
SCALE
  5
49
102
{ACAD_REACTORS
330
47
102
}
330
47
100
AcDbScale
 70
     0
300
1:2
140
1.0
141
2.0
290
     0
  0
SCALE
  5
4A
102
{ACAD_REACTORS
330
47
102
}
330
47
100
AcDbScale
 70
     0
300
1:4
140
1.0
141
4.0
290
     0
  0
SCALE
  5
4B
102
{ACAD_REACTORS
330
47
102
}
330
47
100
AcDbScale
 70
     0
300
1:5
140
1.0
141
5.0
290
     0
  0
SCALE
  5
4C
102
{ACAD_REACTORS
330
47
102
}
330
47
100
AcDbScale
 70
     0
300
1:8
140
1.0
141
8.0
290
     0
  0
SCALE
  5
4D
102
{ACAD_REACTORS
330
47
102
}
330
47
100
AcDbScale
 70
     0
300
1:10
140
1.0
141
10.0
290
     0
  0
SCALE
  5
4E
102
{ACAD_REACTORS
330
47
102
}
330
47
100
AcDbScale
 70
     0
300
1:16
140
1.0
141
16.0
290
     0
  0
SCALE
  5
4F
102
{ACAD_REACTORS
330
47
102
}
330
47
100
AcDbScale
 70
     0
300
1:20
140
1.0
141
20.0
290
     0
  0
SCALE
  5
50
102
{ACAD_REACTORS
330
47
102
}
330
47
100
AcDbScale
 70
     0
300
1:30
140
1.0
141
30.0
290
     0
  0
SCALE
  5
51
102
{ACAD_REACTORS
330
47
102
}
330
47
100
AcDbScale
 70
     0
300
1:40
140
1.0
141
40.0
290
     0
  0
SCALE
  5
52
102
{ACAD_REACTORS
330
47
102
}
330
47
100
AcDbScale
 70
     0
300
1:50
140
1.0
141
50.0
290
     0
  0
SCALE
  5
53
102
{ACAD_REACTORS
330
47
102
}
330
47
100
AcDbScale
 70
     0
300
1:100
140
1.0
141
100.0
290
     0
  0
SCALE
  5
54
102
{ACAD_REACTORS
330
47
102
}
330
47
100
AcDbScale
 70
     0
300
2:1
140
2.0
141
1.0
290
     0
  0
SCALE
  5
55
102
{ACAD_REACTORS
330
47
102
}
330
47
100
AcDbScale
 70
     0
300
4:1
140
4.0
141
1.0
290
     0
  0
SCALE
  5
56
102
{ACAD_REACTORS
330
47
102
}
330
47
100
AcDbScale
 70
     0
300
8:1
140
8.0
141
1.0
290
     0
  0
SCALE
  5
57
102
{ACAD_REACTORS
330
47
102
}
330
47
100
AcDbScale
 70
     0
300
10:1
140
10.0
141
1.0
290
     0
  0
SCALE
  5
58
102
{ACAD_REACTORS
330
47
102
}
330
47
100
AcDbScale
 70
     0
300
100:1
140
100.0
141
1.0
290
     0
  0
SCALE
  5
59
102
{ACAD_REACTORS
330
47
102
}
330
47
100
AcDbScale
 70
     0
300
1/128" = 1'-0"
140
0.0078125
141
12.0
290
     0
  0
SCALE
  5
5A
102
{ACAD_REACTORS
330
47
102
}
330
47
100
AcDbScale
 70
     0
300
1/64" = 1'-0"
140
0.015625
141
12.0
290
     0
  0
SCALE
  5
5B
102
{ACAD_REACTORS
330
47
102
}
330
47
100
AcDbScale
 70
     0
300
1/32" = 1'-0"
140
0.03125
141
12.0
290
     0
  0
SCALE
  5
5C
102
{ACAD_REACTORS
330
47
102
}
330
47
100
AcDbScale
 70
     0
300
1/16" = 1'-0"
140
0.0625
141
12.0
290
     0
  0
SCALE
  5
5D
102
{ACAD_REACTORS
330
47
102
}
330
47
100
AcDbScale
 70
     0
300
3/32" = 1'-0"
140
0.09375
141
12.0
290
     0
  0
SCALE
  5
5E
102
{ACAD_REACTORS
330
47
102
}
330
47
100
AcDbScale
 70
     0
300
1/8" = 1'-0"
140
0.125
141
12.0
290
     0
  0
SCALE
  5
5F
102
{ACAD_REACTORS
330
47
102
}
330
47
100
AcDbScale
 70
     0
300
3/16" = 1'-0"
140
0.1875
141
12.0
290
     0
  0
SCALE
  5
60
102
{ACAD_REACTORS
330
47
102
}
330
47
100
AcDbScale
 70
     0
300
1/4" = 1'-0"
140
0.25
141
12.0
290
     0
  0
SCALE
  5
61
102
{ACAD_REACTORS
330
47
102
}
330
47
100
AcDbScale
 70
     0
300
3/8" = 1'-0"
140
0.375
141
12.0
290
     0
  0
SCALE
  5
62
102
{ACAD_REACTORS
330
47
102
}
330
47
100
AcDbScale
 70
     0
300
1/2" = 1'-0"
140
0.5
141
12.0
290
     0
  0
SCALE
  5
63
102
{ACAD_REACTORS
330
47
102
}
330
47
100
AcDbScale
 70
     0
300
3/4" = 1'-0"
140
0.75
141
12.0
290
     0
  0
SCALE
  5
64
102
{ACAD_REACTORS
330
47
102
}
330
47
100
AcDbScale
 70
     0
300
1" = 1'-0"
140
1.0
141
12.0
290
     0
  0
SCALE
  5
65
102
{ACAD_REACTORS
330
47
102
}
330
47
100
AcDbScale
 70
     0
300
1-1/2" = 1'-0"
140
1.5
141
12.0
290
     0
  0
SCALE
  5
66
102
{ACAD_REACTORS
330
47
102
}
330
47
100
AcDbScale
 70
     0
300
3" = 1'-0"
140
3.0
141
12.0
290
     0
  0
SCALE
  5
67
102
{ACAD_REACTORS
330
47
102
}
330
47
100
AcDbScale
 70
     0
300
6" = 1'-0"
140
6.0
141
12.0
290
     0
  0
SCALE
  5
68
102
{ACAD_REACTORS
330
47
102
}
330
47
100
AcDbScale
 70
     0
300
1'-0" = 1'-0"
140
12.0
141
12.0
290
     0
  0
ENDSEC
  0
EOF
