  0
SECTION
  2
HEADER
  9
$ACADVER
  1
AC1015
  9
$ACADMAINTVER
 70
     6
  9
$DWGCODEPAGE
  3
ANSI_949
  9
$INSBASE
 10
0.0
 20
0.0
 30
0.0
  9
$EXTMIN
 10
-63.31022080064086
 20
-49.97180738881174
 30
0.0
  9
$EXTMAX
 10
55.1400080176001
 20
39.62352819251141
 30
0.0
  9
$LIMMIN
 10
0.0
 20
0.0
  9
$LIMMAX
 10
420.0
 20
297.0
  9
$ORTHOMODE
 70
     1
  9
$REGENMODE
 70
     1
  9
$FILLMODE
 70
     1
  9
$QTEXTMODE
 70
     0
  9
$MIRRTEXT
 70
     1
  9
$LTSCALE
 40
1.0
  9
$ATTMODE
 70
     1
  9
$TEXTSIZE
 40
3.5
  9
$TRACEWID
 40
1.0
  9
$TEXTSTYLE
  7
Standard
  9
$CLAYER
  8
0
  9
$CELTYPE
  6
ByLayer
  9
$CECOLOR
 62
   256
  9
$CELTSCALE
 40
1.0
  9
$DISPSILH
 70
     0
  9
$DIMSCALE
 40
1.0
  9
$DIMASZ
 40
3.302
  9
$DIMEXO
 40
1.0
  9
$DIMDLI
 40
3.75
  9
$DIMRND
 40
0.0
  9
$DIMDLE
 40
0.0
  9
$DIMEXE
 40
1.0
  9
$DIMTP
 40
0.0
  9
$DIMTM
 40
0.0
  9
$DIMTXT
 40
3.5
  9
$DIMCEN
 40
2.5
  9
$DIMTSZ
 40
0.0
  9
$DIMTOL
 70
     0
  9
$DIMLIM
 70
     0
  9
$DIMTIH
 70
     1
  9
$DIMTOH
 70
     1
  9
$DIMSE1
 70
     0
  9
$DIMSE2
 70
     0
  9
$DIMTAD
 70
     1
  9
$DIMZIN
 70
     0
  9
$DIMBLK
  1

  9
$DIMASO
 70
     1
  9
$DIMSHO
 70
     1
  9
$DIMPOST
  1

  9
$DIMAPOST
  1

  9
$DIMALT
 70
     0
  9
$DIMALTD
 70
     3
  9
$DIMALTF
 40
0.0393700787401575
  9
$DIMLFAC
 40
1.0
  9
$DIMTOFL
 70
     1
  9
$DIMTVP
 40
0.0
  9
$DIMTIX
 70
     0
  9
$DIMSOXD
 70
     0
  9
$DIMSAH
 70
     0
  9
$DIMBLK1
  1

  9
$DIMBLK2
  1

  9
$DIMSTYLE
  2
ISO-25
  9
$DIMCLRD
 70
     0
  9
$DIMCLRE
 70
     0
  9
$DIMCLRT
 70
     0
  9
$DIMTFAC
 40
1.0
  9
$DIMGAP
 40
1.524
  9
$DIMJUST
 70
     0
  9
$DIMSD1
 70
     0
  9
$DIMSD2
 70
     0
  9
$DIMTOLJ
 70
     0
  9
$DIMTZIN
 70
     0
  9
$DIMALTZ
 70
     0
  9
$DIMALTTZ
 70
     0
  9
$DIMUPT
 70
     0
  9
$DIMDEC
 70
     2
  9
$DIMTDEC
 70
     2
  9
$DIMALTU
 70
     2
  9
$DIMALTTD
 70
     3
  9
$DIMTXSTY
  7
Standard
  9
$DIMAUNIT
 70
     0
  9
$DIMADEC
 70
     2
  9
$DIMALTRND
 40
0.0
  9
$DIMAZIN
 70
     0
  9
$DIMDSEP
 70
    44
  9
$DIMATFIT
 70
     3
  9
$DIMFRAC
 70
     0
  9
$DIMLDRBLK
  1

  9
$DIMLUNIT
 70
     2
  9
$DIMLWD
 70
    -2
  9
$DIMLWE
 70
    -2
  9
$DIMTMOVE
 70
     0
  9
$LUNITS
 70
     2
  9
$LUPREC
 70
     2
  9
$SKETCHINC
 40
1.0
  9
$FILLETRAD
 40
10.0
  9
$AUNITS
 70
     0
  9
$AUPREC
 70
     2
  9
$MENU
  1
.
  9
$ELEVATION
 40
0.0
  9
$PELEVATION
 40
0.0
  9
$THICKNESS
 40
0.0
  9
$LIMCHECK
 70
     0
  9
$CHAMFERA
 40
0.0
  9
$CHAMFERB
 40
0.0
  9
$CHAMFERC
 40
0.0
  9
$CHAMFERD
 40
0.0
  9
$SKPOLY
 70
     0
  9
$TDCREATE
 40
2458270.781788044
  9
$TDUCREATE
 40
2458270.406788044
  9
$TDUPDATE
 40
2459723.29170478
  9
$TDUUPDATE
 40
2459722.91670478
  9
$TDINDWG
 40
0.0072831019
  9
$TDUSRTIMER
 40
0.0014632639
  9
$USRTIMER
 70
     1
  9
$ANGBASE
 50
0.0
  9
$ANGDIR
 70
     0
  9
$PDMODE
 70
     0
  9
$PDSIZE
 40
-1.0
  9
$PLINEWID
 40
0.0
  9
$SPLFRAME
 70
     0
  9
$SPLINETYPE
 70
     6
  9
$SPLINESEGS
 70
     8
  9
$HANDSEED
  5
358
  9
$SURFTAB1
 70
     6
  9
$SURFTAB2
 70
     6
  9
$SURFTYPE
 70
     6
  9
$SURFU
 70
     6
  9
$SURFV
 70
     6
  9
$UCSBASE
  2

  9
$UCSNAME
  2

  9
$UCSORG
 10
0.0
 20
0.0
 30
0.0
  9
$UCSXDIR
 10
1.0
 20
0.0
 30
0.0
  9
$UCSYDIR
 10
0.0
 20
1.0
 30
0.0
  9
$UCSORTHOREF
  2

  9
$UCSORTHOVIEW
 70
     0
  9
$UCSORGTOP
 10
0.0
 20
0.0
 30
0.0
  9
$UCSORGBOTTOM
 10
0.0
 20
0.0
 30
0.0
  9
$UCSORGLEFT
 10
0.0
 20
0.0
 30
0.0
  9
$UCSORGRIGHT
 10
0.0
 20
0.0
 30
0.0
  9
$UCSORGFRONT
 10
0.0
 20
0.0
 30
0.0
  9
$UCSORGBACK
 10
0.0
 20
0.0
 30
0.0
  9
$PUCSBASE
  2

  9
$PUCSNAME
  2

  9
$PUCSORG
 10
0.0
 20
0.0
 30
0.0
  9
$PUCSXDIR
 10
1.0
 20
0.0
 30
0.0
  9
$PUCSYDIR
 10
0.0
 20
1.0
 30
0.0
  9
$PUCSORTHOREF
  2

  9
$PUCSORTHOVIEW
 70
     0
  9
$PUCSORGTOP
 10
0.0
 20
0.0
 30
0.0
  9
$PUCSORGBOTTOM
 10
0.0
 20
0.0
 30
0.0
  9
$PUCSORGLEFT
 10
0.0
 20
0.0
 30
0.0
  9
$PUCSORGRIGHT
 10
0.0
 20
0.0
 30
0.0
  9
$PUCSORGFRONT
 10
0.0
 20
0.0
 30
0.0
  9
$PUCSORGBACK
 10
0.0
 20
0.0
 30
0.0
  9
$USERI1
 70
     0
  9
$USERI2
 70
     0
  9
$USERI3
 70
     0
  9
$USERI4
 70
     0
  9
$USERI5
 70
     0
  9
$USERR1
 40
0.0
  9
$USERR2
 40
0.0
  9
$USERR3
 40
0.0
  9
$USERR4
 40
0.0
  9
$USERR5
 40
0.0
  9
$WORLDVIEW
 70
     1
  9
$SHADEDGE
 70
     3
  9
$SHADEDIF
 70
    70
  9
$TILEMODE
 70
     1
  9
$MAXACTVP
 70
    64
  9
$PINSBASE
 10
0.0
 20
0.0
 30
0.0
  9
$PLIMCHECK
 70
     0
  9
$PEXTMIN
 10
1.000000000000000E+20
 20
1.000000000000000E+20
 30
1.000000000000000E+20
  9
$PEXTMAX
 10
-1.000000000000000E+20
 20
-1.000000000000000E+20
 30
-1.000000000000000E+20
  9
$PLIMMIN
 10
0.0
 20
0.0
  9
$PLIMMAX
 10
0.0
 20
0.0
  9
$UNITMODE
 70
     0
  9
$VISRETAIN
 70
     1
  9
$PLINEGEN
 70
     0
  9
$PSLTSCALE
 70
     1
  9
$TREEDEPTH
 70
  3020
  9
$CMLSTYLE
  2
Standard
  9
$CMLJUST
 70
     0
  9
$CMLSCALE
 40
20.0
  9
$PROXYGRAPHICS
 70
     1
  9
$MEASUREMENT
 70
     1
  9
$CELWEIGHT
370
    -1
  9
$ENDCAPS
280
     0
  9
$JOINSTYLE
280
     0
  9
$LWDISPLAY
290
     1
  9
$INSUNITS
 70
     4
  9
$HYPERLINKBASE
  1

  9
$STYLESHEET
  1

  9
$XEDIT
290
     1
  9
$CEPSNTYPE
380
     0
  9
$PSTYLEMODE
290
     1
  9
$FINGERPRINTGUID
  2
{2ADF4CC2-F3B5-4AD1-8104-725347E6FC45}
  9
$VERSIONGUID
  2
{FAEB1C32-E019-11D5-929B-00C0DF256EC4}
  9
$EXTNAMES
290
     1
  9
$PSVPSCALE
 40
0.0
  9
$OLESTARTUP
290
     0
  0
ENDSEC
  0
SECTION
  2
CLASSES
  0
CLASS
  1
ACDBDICTIONARYWDFLT
  2
AcDbDictionaryWithDefault
  3
ObjectDBX Classes
 90
        0
280
     0
281
     0
  0
CLASS
  1
VISUALSTYLE
  2
AcDbVisualStyle
  3
ObjectDBX Classes
 90
     4095
280
     0
281
     0
  0
CLASS
  1
MATERIAL
  2
AcDbMaterial
  3
ObjectDBX Classes
 90
     1153
280
     0
281
     0
  0
CLASS
  1
SCALE
  2
AcDbScale
  3
ObjectDBX Classes
 90
     1153
280
     0
281
     0
  0
CLASS
  1
SUN
  2
AcDbSun
  3
SCENEOE
 90
     1153
280
     0
281
     0
  0
CLASS
  1
ACDBPLACEHOLDER
  2
AcDbPlaceHolder
  3
ObjectDBX Classes
 90
        0
280
     0
281
     0
  0
CLASS
  1
LAYOUT
  2
AcDbLayout
  3
ObjectDBX Classes
 90
        0
280
     0
281
     0
  0
CLASS
  1
TABLESTYLE
  2
AcDbTableStyle
  3
ObjectDBX Classes
 90
     4095
280
     0
281
     0
  0
CLASS
  1
MLEADERSTYLE
  2
AcDbMLeaderStyle
  3
ACDB_MLEADERSTYLE_CLASS
 90
     4095
280
     0
281
     0
  0
CLASS
  1
RASTERVARIABLES
  2
AcDbRasterVariables
  3
ISM
 90
        0
280
     0
281
     0
  0
CLASS
  1
DIMASSOC
  2
AcDbDimAssoc
  3
"AcDbDimAssoc|Product Desc:     AcDim ARX App For Dimension|Company:          Autodesk, Inc.|WEB Address:      www.autodesk.com"
 90
        0
280
     0
281
     0
  0
CLASS
  1
BREAKDATA
  2
AcDbBreakData
  3
ObjectDBX Classes
 90
     1024
280
     0
281
     0
  0
ENDSEC
  0
SECTION
  2
TABLES
  0
TABLE
  2
VPORT
  5
8
330
0
100
AcDbSymbolTable
 70
     1
  0
VPORT
  5
29
330
8
100
AcDbSymbolTableRecord
100
AcDbViewportTableRecord
  2
*Active
 70
     0
 10
0.0
 20
0.0
 11
1.0
 21
1.0
 12
-4.085106391520377
 22
-5.17413959815017
 13
0.0
 23
0.0
 14
10.0
 24
10.0
 15
10.0
 25
10.0
 16
0.0
 26
0.0
 36
1.0
 17
0.0
 27
0.0
 37
0.0
 40
91.38724229294961
 41
1.913499344692005
 42
50.0
 43
0.0
 44
0.0
 50
0.0
 51
0.0
 71
    16
 72
  2000
 73
     1
 74
     3
 75
     0
 76
     0
 77
     0
 78
     0
281
     0
 65
     1
110
0.0
120
0.0
130
0.0
111
1.0
121
0.0
131
0.0
112
0.0
122
1.0
132
0.0
 79
     0
146
0.0
  0
ENDTAB
  0
TABLE
  2
LTYPE
  5
5
330
0
100
AcDbSymbolTable
 70
     6
  0
LTYPE
  5
14
330
5
100
AcDbSymbolTableRecord
100
AcDbLinetypeTableRecord
  2
ByBlock
 70
     0
  3

 72
    65
 73
     0
 40
0.0
  0
LTYPE
  5
15
330
5
100
AcDbSymbolTableRecord
100
AcDbLinetypeTableRecord
  2
ByLayer
 70
     0
  3

 72
    65
 73
     0
 40
0.0
  0
LTYPE
  5
16
330
5
100
AcDbSymbolTableRecord
100
AcDbLinetypeTableRecord
  2
Continuous
 70
     0
  3
Solid line
 72
    65
 73
     0
 40
0.0
  0
LTYPE
  5
6A
330
5
100
AcDbSymbolTableRecord
100
AcDbLinetypeTableRecord
  2
HIDDEN
 70
     0
  3
Hidden __ __ __ __ __ __ __ __ __ __ __ __ __ __
 72
    65
 73
     2
 40
1.905
 49
1.27
 74
     0
 49
-0.635
 74
     0
  0
LTYPE
  5
6B
330
5
100
AcDbSymbolTableRecord
100
AcDbLinetypeTableRecord
  2
PHANTOM
 70
     0
  3
Phantom ______  __  __  ______  __  __  ______
 72
    65
 73
     6
 40
12.7
 49
6.35
 74
     0
 49
-1.27
 74
     0
 49
1.27
 74
     0
 49
-1.27
 74
     0
 49
1.27
 74
     0
 49
-1.27
 74
     0
  0
LTYPE
  5
6C
330
5
100
AcDbSymbolTableRecord
100
AcDbLinetypeTableRecord
  2
CENTER
 70
     0
  3
Center ____ _ ____ _ ____ _ ____ _ ____ _ ____
 72
    65
 73
     4
 40
10.16
 49
6.35
 74
     0
 49
-1.27
 74
     0
 49
1.27
 74
     0
 49
-1.27
 74
     0
  0
LTYPE
  5
6D
330
5
100
AcDbSymbolTableRecord
100
AcDbLinetypeTableRecord
  2
CENTERX2
 70
     0
  3
Center (2x) ________  __  ________  __  _____
 72
    65
 73
     4
 40
20.32
 49
12.7
 74
     0
 49
-2.54
 74
     0
 49
2.54
 74
     0
 49
-2.54
 74
     0
  0
LTYPE
  5
6E
330
5
100
AcDbSymbolTableRecord
100
AcDbLinetypeTableRecord
  2
DOT2
 70
     0
  3
Dot (.5x) ........................................
 72
    65
 73
     2
 40
0.635
 49
0.0
 74
     0
 49
-0.635
 74
     0
  0
ENDTAB
  0
TABLE
  2
LAYER
  5
2
330
0
100
AcDbSymbolTable
 70
    17
  0
LAYER
  5
10
330
2
100
AcDbSymbolTableRecord
100
AcDbLayerTableRecord
  2
0
 70
     0
 62
     7
  6
Continuous
370
    -3
390
F
  0
LAYER
  5
6F
330
2
100
AcDbSymbolTableRecord
100
AcDbLayerTableRecord
  2
FORMAT
 70
     0
 62
     2
  6
Continuous
370
    -3
390
F
  0
LAYER
  5
70
330
2
100
AcDbSymbolTableRecord
100
AcDbLayerTableRecord
  2
외형선
 70
     0
 62
   100
  6
Continuous
370
    30
390
F
  0
LAYER
  5
71
330
2
100
AcDbSymbolTableRecord
100
AcDbLayerTableRecord
  2
숨은선
 70
     0
 62
     2
  6
HIDDEN
370
    15
390
F
  0
LAYER
  5
72
330
2
100
AcDbSymbolTableRecord
100
AcDbLayerTableRecord
  2
중심선
 70
     0
 62
     1
  6
CENTERX2
370
    -3
390
F
  0
LAYER
  5
73
330
2
100
AcDbSymbolTableRecord
100
AcDbLayerTableRecord
  2
파단선
 70
     0
 62
     4
  6
Continuous
370
    -3
390
F
  0
LAYER
  5
74
330
2
100
AcDbSymbolTableRecord
100
AcDbLayerTableRecord
  2
해칭선
 70
     0
 62
     4
  6
Continuous
370
    -3
390
F
  0
LAYER
  5
75
330
2
100
AcDbSymbolTableRecord
100
AcDbLayerTableRecord
  2
가는실선
 70
     0
 62
     4
  6
Continuous
370
    -3
390
F
  0
LAYER
  5
76
330
2
100
AcDbSymbolTableRecord
100
AcDbLayerTableRecord
  2
치수_보조선
 70
     0
 62
     4
  6
Continuous
370
    -3
390
F
  0
LAYER
  5
77
330
2
100
AcDbSymbolTableRecord
100
AcDbLayerTableRecord
  2
치수문자_일반주서
 70
     0
 62
     7
  6
Continuous
370
    15
390
F
  0
LAYER
  5
78
330
2
100
AcDbSymbolTableRecord
100
AcDbLayerTableRecord
  2
개별주서
 70
     0
 62
   100
  6
Continuous
370
    30
390
F
  0
LAYER
  5
79
330
2
100
AcDbSymbolTableRecord
100
AcDbLayerTableRecord
  2
중간선
 70
     0
 62
     2
  6
Continuous
370
    15
390
F
  0
LAYER
  5
7A
330
2
100
AcDbSymbolTableRecord
100
AcDbLayerTableRecord
  2
윤곽선
 70
     0
 62
     3
  6
Continuous
370
    40
390
F
  0
LAYER
  5
7B
330
2
100
AcDbSymbolTableRecord
100
AcDbLayerTableRecord
  2
중심마크
 70
     0
 62
   100
  6
Continuous
370
    30
390
F
  0
LAYER
  5
7C
330
2
100
AcDbSymbolTableRecord
100
AcDbLayerTableRecord
  2
가상선
 70
     0
 62
     4
  6
PHANTOM
370
    -3
390
F
  0
LAYER
  5
7D
330
2
100
AcDbSymbolTableRecord
100
AcDbLayerTableRecord
  2
특수지정선
 70
     0
 62
     5
  6
CENTERX2
370
    60
390
F
  0
LAYER
  5
2BF
330
2
100
AcDbSymbolTableRecord
100
AcDbLayerTableRecord
  2
Defpoints
 70
     0
 62
     7
  6
Continuous
290
     0
370
    -3
390
F
  0
ENDTAB
  0
TABLE
  2
STYLE
  5
3
330
0
100
AcDbSymbolTable
 70
     2
  0
STYLE
  5
11
330
3
100
AcDbSymbolTableRecord
100
AcDbTextStyleTableRecord
  2
Standard
 70
     0
 40
0.0
 41
1.0
 50
0.0
 71
     0
 42
3.5
  3
txt
  4

  0
STYLE
  5
93
330
3
100
AcDbSymbolTableRecord
100
AcDbTextStyleTableRecord
  2
SLDTEXTSTYLE0
 70
     0
 40
0.0
 41
0.75
 50
0.0
 71
     0
 42
3.5
  3
TXT
  4

  0
ENDTAB
  0
TABLE
  2
VIEW
  5
6
330
0
100
AcDbSymbolTable
 70
     0
  0
ENDTAB
  0
TABLE
  2
UCS
  5
7
330
0
100
AcDbSymbolTable
 70
     0
  0
ENDTAB
  0
TABLE
  2
APPID
  5
9
330
0
100
AcDbSymbolTable
 70
     4
  0
APPID
  5
12
330
9
100
AcDbSymbolTableRecord
100
AcDbRegAppTableRecord
  2
ACAD
 70
     0
  0
APPID
  5
2CF
330
9
100
AcDbSymbolTableRecord
100
AcDbRegAppTableRecord
  2
PE_DIMMEASUREMENT
 70
     0
  0
APPID
  5
33D
330
9
100
AcDbSymbolTableRecord
100
AcDbRegAppTableRecord
  2
ENABLE_CUSTOM_SPLIT
 70
     0
  0
APPID
  5
33E
330
9
100
AcDbSymbolTableRecord
100
AcDbRegAppTableRecord
  2
PE_URL
 70
     0
  0
ENDTAB
  0
TABLE
  2
DIMSTYLE
  5
A
330
0
100
AcDbSymbolTable
 70
     3
100
AcDbDimStyleTable
  0
DIMSTYLE
105
27
330
A
100
AcDbSymbolTableRecord
100
AcDbDimStyleTableRecord
  2
ISO-25
 70
     0
 41
2.5
 42
0.625
 43
3.75
 44
1.25
 73
     0
 74
     0
 77
     1
 78
     8
140
2.5
141
2.5
143
0.03937007874016
147
0.625
171
     3
172
     1
178
     0
271
     2
272
     2
274
     3
278
    44
283
     0
284
     8
340
11
  0
DIMSTYLE
105
253
102
{ACAD_REACTORS
330
252
330
27C
330
2C0
330
32C
330
344
102
}
330
A
100
AcDbSymbolTableRecord
100
AcDbDimStyleTableRecord
  2
SLDDIMSTYLE0
 70
     0
 41
3.302
 44
0.0
 45
0.000000001
 73
     0
 74
     0
 77
     1
 78
     4
 79
     1
140
3.5
143
0.0393700787401575
147
0.875
148
0.000000001
170
     1
172
     1
173
     1
178
     0
271
     2
272
     2
276
     2
284
    12
289
     0
340
93
  0
DIMSTYLE
105
269
330
A
100
AcDbSymbolTableRecord
100
AcDbDimStyleTableRecord
  2
SLDDIMSTYLE1
 70
     0
 41
3.302
 44
0.0
 45
0.000000001
 73
     0
 74
     0
 77
     1
 78
     4
 79
     1
140
3.5
143
0.0393700787401575
147
0.875
148
0.000000001
170
     1
173
     1
178
     0
271
     2
272
     2
276
     2
284
    12
340
93
  0
ENDTAB
  0
TABLE
  2
BLOCK_RECORD
  5
1
330
0
100
AcDbSymbolTable
 70
     9
  0
BLOCK_RECORD
  5
1F
102
{ACAD_XDICTIONARY
360
355
102
}
330
1
100
AcDbSymbolTableRecord
100
AcDbBlockTableRecord
  2
*Model_Space
340
22
  0
BLOCK_RECORD
  5
1B
330
1
100
AcDbSymbolTableRecord
100
AcDbBlockTableRecord
  2
*Paper_Space
340
1E
  0
BLOCK_RECORD
  5
23
330
1
100
AcDbSymbolTableRecord
100
AcDbBlockTableRecord
  2
*Paper_Space0
340
26
  0
BLOCK_RECORD
  5
7E
330
1
100
AcDbSymbolTableRecord
100
AcDbBlockTableRecord
  2
블럭10
340
0
102
{BLKREFS
331
24A
102
}
  0
BLOCK_RECORD
  5
254
330
1
100
AcDbSymbolTableRecord
100
AcDbBlockTableRecord
  2
_D
340
0
  0
BLOCK_RECORD
  5
26A
330
1
100
AcDbSymbolTableRecord
100
AcDbBlockTableRecord
  2
_D_1
340
0
  0
BLOCK_RECORD
  5
27D
330
1
100
AcDbSymbolTableRecord
100
AcDbBlockTableRecord
  2
_D_2
340
0
  0
BLOCK_RECORD
  5
290
330
1
100
AcDbSymbolTableRecord
100
AcDbBlockTableRecord
  2
SW_DOWELSYMBOL_0
340
0
102
{BLKREFS
331
296
102
}
  0
BLOCK_RECORD
  5
2C1
330
1
100
AcDbSymbolTableRecord
100
AcDbBlockTableRecord
  2
*D6
340
0
  0
BLOCK_RECORD
  5
32F
330
1
100
AcDbSymbolTableRecord
100
AcDbBlockTableRecord
  2
*D7
340
0
  0
BLOCK_RECORD
  5
347
330
1
100
AcDbSymbolTableRecord
100
AcDbBlockTableRecord
  2
*D8
340
0
  0
ENDTAB
  0
ENDSEC
  0
SECTION
  2
BLOCKS
  0
BLOCK
  5
20
330
1F
100
AcDbEntity
  8
0
100
AcDbBlockBegin
  2
*Model_Space
 70
     0
 10
0.0
 20
0.0
 30
0.0
  3
*Model_Space
  1
*Model_Space
  0
ENDBLK
  5
21
330
1F
100
AcDbEntity
  8
0
100
AcDbBlockEnd
  0
BLOCK
  5
1C
330
1B
100
AcDbEntity
 67
     1
  8
0
100
AcDbBlockBegin
  2
*Paper_Space
 70
     0
 10
0.0
 20
0.0
 30
0.0
  3
*Paper_Space
  1
*Paper_Space
  0
ENDBLK
  5
1D
330
1B
100
AcDbEntity
 67
     1
  8
0
100
AcDbBlockEnd
  0
BLOCK
  5
24
330
23
100
AcDbEntity
  8
0
100
AcDbBlockBegin
  2
*Paper_Space0
 70
     0
 10
0.0
 20
0.0
 30
0.0
  3
*Paper_Space0
  1
*Paper_Space0
  0
ENDBLK
  5
25
330
23
100
AcDbEntity
  8
0
100
AcDbBlockEnd
  0
BLOCK
  5
7F
330
7E
100
AcDbEntity
  8
0
100
AcDbBlockBegin
  2
블럭10
 70
     2
 10
0.0
 20
0.0
 30
0.0
  3
블럭10
  1
블럭10
  0
ELLIPSE
  5
81
330
7E
100
AcDbEntity
  8
중심선
100
AcDbEllipse
 10
20.54032771741204
 20
12.0471743016438
 30
0.0
 11
6.600054785286829
 21
-1.261213355974178E-13
 31
0.0
210
0.0
220
0.0
230
1.0
 40
0.636358354079598
 41
0.9219305317359503
 42
6.513795318482858
  0
ELLIPSE
  5
82
330
7E
100
AcDbEntity
  8
중심선
100
AcDbEllipse
 10
20.54032771746488
 20
12.04717430159265
 30
0.0
 11
3.960054785062283
 21
1.540847449632565E-10
 31
0.0
210
0.0
220
0.0
230
1.0
 40
0.3939339440162632
 41
1.131841032648279
 42
5.62031148352944
  0
LINE
  5
83
330
7E
100
AcDbEntity
  8
중심선
100
AcDbLine
 10
2.268634060543552
 20
16.24717430164393
 30
0.0
 11
5.714909304380834
 21
16.24717430164393
 31
0.0
  0
LINE
  5
84
330
7E
100
AcDbEntity
  8
중심선
100
AcDbLine
 10
5.245725140726316
 20
7.84717430164391
 30
0.0
 11
8.692000384563599
 21
7.84717430164391
 31
0.0
  0
LINE
  5
85
330
7E
100
AcDbEntity
  8
중심선
100
AcDbLine
 10
15.74043728645272
 20
16.24717430164393
 30
0.0
 11
8.692000384563599
 21
7.84717430164391
 31
0.0
  0
LINE
  5
86
330
7E
100
AcDbEntity
  8
중심선
100
AcDbLine
 10
0.1404042013395286
 20
13.71084872107135
 30
0.0
 11
3.58671253028996
 21
13.71088815037384
 31
0.0
  0
LINE
  5
87
330
7E
100
AcDbEntity
  8
중심선
100
AcDbLine
 10
2.750260043222114
 20
10.84717430164391
 30
0.0
 11
6.196535287059397
 21
10.84717430164391
 31
0.0
  0
LINE
  5
88
330
7E
100
AcDbEntity
  8
중심선
100
AcDbLine
 10
12.29416204261559
 20
16.24717430164393
 30
0.0
 11
5.245725140726316
 21
7.84717430164391
 31
0.0
  0
LINE
  5
89
330
7E
100
AcDbEntity
  8
중심선
100
AcDbLine
 10
10.72767329541681
 20
16.24717430164393
 30
0.0
 11
6.196535287059397
 21
10.84717430164391
 31
0.0
  0
LINE
  5
8A
330
7E
100
AcDbEntity
  8
중심선
100
AcDbLine
 10
7.28139805157953
 20
16.24717430164393
 30
0.0
 11
2.750260043222114
 21
10.84717430164391
 31
0.0
  0
LINE
  5
8B
330
7E
100
AcDbEntity
  8
중심선
100
AcDbLine
 10
5.714909304380834
 20
16.24717430164393
 30
0.0
 11
3.58671253028996
 21
13.71088815037384
 31
0.0
  0
LINE
  5
8C
330
7E
100
AcDbEntity
  8
중심선
100
AcDbLine
 10
2.268634060543552
 20
16.24717430164393
 30
0.0
 11
0.1404042013395286
 21
13.71084872107135
 31
0.0
  0
LINE
  5
8D
330
7E
100
AcDbEntity
  8
중심선
100
AcDbLine
 10
7.28139805157953
 20
16.24717430164393
 30
0.0
 11
10.72767329541681
 21
16.24717430164393
 31
0.0
  0
LINE
  5
8E
330
7E
100
AcDbEntity
  8
중심선
100
AcDbLine
 10
12.29416204261559
 20
16.24717430164393
 30
0.0
 11
15.74043728645272
 21
16.24717430164393
 31
0.0
  0
LINE
  5
8F
330
7E
100
AcDbEntity
  8
중심선
100
AcDbLine
 10
19.22036997980202
 20
11.08717430171403
 30
0.0
 11
23.66174974927406
 21
11.08717430171406
 31
0.0
  0
LINE
  5
90
330
7E
100
AcDbEntity
  8
중심선
100
AcDbLine
 10
19.22039502424796
 20
13.00717430171391
 30
0.0
 11
19.22036997980202
 21
11.08717430171403
 31
0.0
  0
LINE
  5
91
330
7E
100
AcDbEntity
  8
중심선
100
AcDbLine
 10
19.22039502424796
 20
13.00717430171391
 30
0.0
 11
26.96566020931264
 21
13.00717430171391
 31
0.0
  0
LINE
  5
92
330
7E
100
AcDbEntity
  8
중심선
100
AcDbLine
 10
22.22332737316547
 20
13.45928029700563
 30
0.0
 11
24.52862924686651
 21
15.39360700705356
 31
0.0
  0
ATTDEF
  5
94
330
7E
100
AcDbEntity
  8
FORMAT
 62
     2
100
AcDbText
 10
-9.067621780574013
 20
2.075366912832191
 30
0.0
 40
4.233333333333333
  1
E5E44032 [ 3 FLUTE ]
 41
0.75
  7
SLDTEXTSTYLE0
 11
-9.067621780574013
 21
-0.0412997538344756
 31
0.0
100
AcDbAttributeDefinition
  3

  2
AUTOATTR0
 70
     0
 74
     1
  0
ENDBLK
  5
80
330
7E
100
AcDbEntity
  8
0
100
AcDbBlockEnd
  0
BLOCK
  5
255
330
254
100
AcDbEntity
  8
0
100
AcDbBlockBegin
  2
_D
 70
     0
 10
0.0
 20
0.0
 30
0.0
  3
_D
  1
_D
  0
LINE
  5
257
330
254
100
AcDbEntity
  8
치수문자_일반주서
 62
     0
370
    -2
100
AcDbLine
 10
37.38677592541679
 20
6.394528115770479
 30
0.0
 11
37.38677592541679
 21
14.660156696272
 31
0.0
  0
LINE
  5
258
330
254
100
AcDbEntity
  8
치수문자_일반주서
 62
     0
370
    -2
100
AcDbLine
 10
11.98677592541679
 20
5.63252826925244
 30
0.0
 11
11.98677592541679
 21
14.660156696272
 31
0.0
  0
LINE
  5
259
330
254
100
AcDbEntity
  8
치수문자_일반주서
 62
     0
370
    -2
100
AcDbLine
 10
34.08477592541679
 20
14.660156696272
 30
0.0
 11
15.28877592541679
 21
14.660156696272
 31
0.0
  0
SOLID
  5
25A
330
254
100
AcDbEntity
  8
치수문자_일반주서
 62
     0
100
AcDbTrace
 10
34.08477592541679
 20
14.10982336293867
 30
0.0
 11
34.08477592541679
 21
15.21049002960533
 31
0.0
 12
37.38677592541679
 22
14.660156696272
 32
0.0
 13
37.38677592541679
 23
14.660156696272
 33
0.0
  0
SOLID
  5
25B
330
254
100
AcDbEntity
  8
치수문자_일반주서
 62
     0
100
AcDbTrace
 10
15.28877592541679
 20
15.21049002960533
 30
0.0
 11
15.28877592541679
 21
14.10982336293867
 31
0.0
 12
11.98677592541679
 22
14.660156696272
 32
0.0
 13
11.98677592541679
 23
14.660156696272
 33
0.0
  0
MTEXT
  5
25C
330
254
100
AcDbEntity
  8
치수문자_일반주서
 62
     0
100
AcDbMText
 10
24.68677592541679
 20
19.035156696272
 30
0.0
 40
3.5
 41
0.0
 71
     2
 72
     1
  1
\A1;25.40 [1]
  7
SLDTEXTSTYLE0
 73
     1
 44
1.0
  0
POINT
  5
25D
330
254
100
AcDbEntity
  8
Defpoints
 62
     0
100
AcDbPoint
 10
37.38677592541679
 20
6.332028115770479
 30
0.0
  0
POINT
  5
25E
330
254
100
AcDbEntity
  8
Defpoints
 62
     0
100
AcDbPoint
 10
11.98677592541679
 20
5.57002826925244
 30
0.0
  0
POINT
  5
25F
330
254
100
AcDbEntity
  8
Defpoints
 62
     0
100
AcDbPoint
 10
11.98677592541679
 20
14.660156696272
 30
0.0
  0
ENDBLK
  5
256
330
254
100
AcDbEntity
  8
0
100
AcDbBlockEnd
  0
BLOCK
  5
26B
330
26A
100
AcDbEntity
  8
0
100
AcDbBlockBegin
  2
_D_1
 70
     0
 10
0.0
 20
0.0
 30
0.0
  3
_D_1
  1
_D_1
  0
LINE
  5
26D
330
26A
100
AcDbEntity
  8
치수문자_일반주서
 62
     0
370
    -2
100
AcDbLine
 10
37.38677592541679
 20
6.394528115770479
 30
0.0
 11
37.38677592541679
 21
27.20511009518712
 31
0.0
  0
LINE
  5
26E
330
26A
100
AcDbEntity
  8
치수문자_일반주서
 62
     0
370
    -2
100
AcDbLine
 10
-45.16322421763436
 20
6.39452819251143
 30
0.0
 11
-45.16322421763436
 21
27.20511009518712
 31
0.0
  0
LINE
  5
26F
330
26A
100
AcDbEntity
  8
치수문자_일반주서
 62
     0
370
    -2
100
AcDbLine
 10
34.08477592541679
 20
27.20511009518712
 30
0.0
 11
-41.86122421763436
 21
27.20511009518712
 31
0.0
  0
SOLID
  5
270
330
26A
100
AcDbEntity
  8
치수문자_일반주서
 62
     0
100
AcDbTrace
 10
34.08477592541679
 20
26.65477676185379
 30
0.0
 11
34.08477592541679
 21
27.75544342852045
 31
0.0
 12
37.38677592541679
 22
27.20511009518712
 32
0.0
 13
37.38677592541679
 23
27.20511009518712
 33
0.0
  0
SOLID
  5
271
330
26A
100
AcDbEntity
  8
치수문자_일반주서
 62
     0
100
AcDbTrace
 10
-41.86122421763436
 20
27.75544342852045
 30
0.0
 11
-41.86122421763436
 21
26.65477676185379
 31
0.0
 12
-45.16322421763436
 22
27.20511009518712
 32
0.0
 13
-45.16322421763436
 23
27.20511009518712
 33
0.0
  0
MTEXT
  5
272
330
26A
100
AcDbEntity
  8
치수문자_일반주서
 62
     0
100
AcDbMText
 10
1.298328639421406
 20
31.58011009518712
 30
0.0
 40
3.5
 41
0.0
 71
     2
 72
     1
  1
\A1;82.55 [3 1/4]
  7
SLDTEXTSTYLE0
 73
     1
 44
1.0
  0
POINT
  5
273
330
26A
100
AcDbEntity
  8
Defpoints
 62
     0
100
AcDbPoint
 10
37.38677592541679
 20
6.332028115770479
 30
0.0
  0
POINT
  5
274
330
26A
100
AcDbEntity
  8
Defpoints
 62
     0
100
AcDbPoint
 10
-45.16322421763436
 20
5.832028033814094
 30
0.0
  0
POINT
  5
275
330
26A
100
AcDbEntity
  8
Defpoints
 62
     0
100
AcDbPoint
 10
-45.16322421763436
 20
27.20511009518712
 30
0.0
  0
ENDBLK
  5
26C
330
26A
100
AcDbEntity
  8
0
100
AcDbBlockEnd
  0
BLOCK
  5
27E
330
27D
100
AcDbEntity
  8
0
100
AcDbBlockBegin
  2
_D_2
 70
     0
 10
0.0
 20
0.0
 30
0.0
  3
_D_2
  1
_D_2
  0
LINE
  5
280
330
27D
100
AcDbEntity
  8
치수문자_일반주서
 62
     0
370
    -2
100
AcDbLine
 10
-44.72572313282983
 20
6.332028192511455
 30
0.0
 11
-58.93522080064076
 21
6.332028192511402
 31
0.0
  0
LINE
  5
281
330
27D
100
AcDbEntity
  8
치수문자_일반주서
 62
     0
370
    -2
100
AcDbLine
 10
-44.72572313282983
 20
-6.367971807488544
 30
0.0
 11
-58.93522080064072
 21
-6.367971807488601
 31
0.0
  0
LINE
  5
282
330
27D
100
AcDbEntity
  8
치수문자_일반주서
 62
     0
370
    -2
100
AcDbLine
 10
-58.93522080064076
 20
6.332028192511402
 30
0.0
 11
-58.93522080064087
 21
39.6235281925114
 31
0.0
  0
LINE
  5
283
330
27D
100
AcDbEntity
  8
치수문자_일반주서
 62
     0
370
    -2
100
AcDbLine
 10
-58.93522080064076
 20
6.332028192511402
 30
0.0
 11
-58.93522080064072
 21
-6.367971807488601
 31
0.0
  0
LINE
  5
284
330
27D
100
AcDbEntity
  8
치수문자_일반주서
 62
     0
370
    -2
100
AcDbLine
 10
-58.93522080064078
 20
9.634028192511401
 30
0.0
 11
-58.93522080064079
 21
12.9360281925114
 31
0.0
  0
LINE
  5
285
330
27D
100
AcDbEntity
  8
치수문자_일반주서
 62
     0
370
    -2
100
AcDbLine
 10
-58.93522080064071
 20
-9.6699718074886
 30
0.0
 11
-58.93522080064069
 21
-12.9719718074886
 31
0.0
  0
SOLID
  5
286
330
27D
100
AcDbEntity
  8
치수문자_일반주서
 62
     0
100
AcDbTrace
 10
-59.48555413397411
 20
9.6340281925114
 30
0.0
 11
-58.38488746730744
 21
9.634028192511403
 31
0.0
 12
-58.93522080064076
 22
6.332028192511402
 32
0.0
 13
-58.93522080064076
 23
6.332028192511402
 33
0.0
  0
SOLID
  5
287
330
27D
100
AcDbEntity
  8
치수문자_일반주서
 62
     0
100
AcDbTrace
 10
-58.38488746730737
 20
-9.669971807488599
 30
0.0
 11
-59.48555413397404
 21
-9.669971807488603
 31
0.0
 12
-58.93522080064072
 22
-6.367971807488601
 32
0.0
 13
-58.93522080064072
 23
-6.367971807488601
 33
0.0
  0
MTEXT
  5
288
330
27D
100
AcDbEntity
  8
치수문자_일반주서
 62
     0
100
AcDbMText
 10
-63.31022080064083
 20
26.27977819251139
 30
0.0
 40
3.5
 41
0.0
 71
     2
 72
     1
  1
\A1;%%c12.70 [1/2]
  7
SLDTEXTSTYLE0
 11
-3.356894814614647E-15
 21
1.0
 31
0.0
 73
     1
 44
1.0
  0
POINT
  5
2D1
330
27D
100
AcDbEntity
  8
Defpoints
 62
     0
100
AcDbPoint
 10
-44.66322313282983
 20
6.332028192511455
 30
0.0
  0
POINT
  5
2D2
330
27D
100
AcDbEntity
  8
Defpoints
 62
     0
100
AcDbPoint
 10
-44.66322313282983
 20
-6.367971807488544
 30
0.0
  0
POINT
  5
2D3
330
27D
100
AcDbEntity
  8
Defpoints
 62
     0
100
AcDbPoint
 10
-58.93522080064072
 20
-6.367971807488598
 30
0.0
  0
ENDBLK
  5
27F
330
27D
100
AcDbEntity
  8
0
100
AcDbBlockEnd
  0
BLOCK
  5
291
330
290
100
AcDbEntity
  8
0
100
AcDbBlockBegin
  2
SW_DOWELSYMBOL_0
 70
     0
 10
0.0
 20
0.0
 30
0.0
  3
SW_DOWELSYMBOL_0
  1
SW_DOWELSYMBOL_0
  0
CIRCLE
  5
293
330
290
100
AcDbEntity
  8
외형선
 62
     0
100
AcDbCircle
 10
0.0
 20
0.0
 30
0.0
 40
3.000000000000004
  0
HATCH
  5
294
330
290
100
AcDbEntity
  8
0
  6
Continuous
 62
     0
370
    30
100
AcDbHatch
 10
0.0
 20
0.0
 30
0.0
210
0.0
220
0.0
230
1.0
  2
SOLID
 70
     1
 71
     0
 91
        1
 92
        0
 93
        3
 72
     2
 10
-0.0000000000000013
 20
-0.0000000000000039
 40
3.000000000000004
 50
0.0
 51
90.0
 73
     1
 72
     1
 10
-0.0000000000000013
 20
3.0
 11
-0.0000000000000013
 21
-0.000000000000004
 72
     1
 10
-0.0000000000000013
 20
-0.0000000000000039
 11
3.000000000000003
 21
-0.0000000000000039
 97
        0
 75
     0
 76
     1
 98
        1
 10
0.0
 20
0.0
  0
HATCH
  5
295
330
290
100
AcDbEntity
  8
0
  6
Continuous
 62
     0
370
    30
100
AcDbHatch
 10
0.0
 20
0.0
 30
0.0
210
0.0
220
0.0
230
1.0
  2
SOLID
 70
     1
 71
     0
 91
        1
 92
        0
 93
        3
 72
     2
 10
-0.0000000000000013
 20
-0.0000000000000039
 40
3.000000000000004
 50
180.0
 51
270.0000000000007
 73
     1
 72
     1
 10
-0.0000000000000013
 20
-3.000000000000008
 11
-0.0000000000000013
 21
-0.000000000000004
 72
     1
 10
-0.0000000000000013
 20
-0.0000000000000039
 11
-3.000000000000006
 21
-0.0000000000000039
 97
        0
 75
     0
 76
     1
 98
        1
 10
0.0
 20
0.0
  0
ENDBLK
  5
292
330
290
100
AcDbEntity
  8
0
100
AcDbBlockEnd
  0
BLOCK
  5
2C2
330
2C1
100
AcDbEntity
  8
0
100
AcDbBlockBegin
  2
*D6
 70
     1
 10
0.0
 20
0.0
 30
0.0
  3
*D6
  1
*D6
  0
LINE
  5
2C4
330
2C1
100
AcDbEntity
  8
치수문자_일반주서
 62
     0
370
    -2
100
AcDbLine
 10
37.44927592541679
 20
6.332028115770479
 30
0.0
 11
54.58967468426678
 21
6.332028115770477
 31
0.0
  0
LINE
  5
2C5
330
2C1
100
AcDbEntity
  8
치수문자_일반주서
 62
     0
370
    -2
100
AcDbLine
 10
37.44927592541679
 20
-6.367971730747559
 30
0.0
 11
54.58967468426678
 21
-6.367971730747563
 31
0.0
  0
LINE
  5
2C6
330
2C1
100
AcDbEntity
  8
치수문자_일반주서
 62
     0
370
    -2
100
AcDbLine
 10
54.58967468426678
 20
6.332028115770477
 30
0.0
 11
54.58967468426678
 21
39.62352811577048
 31
0.0
  0
LINE
  5
2C7
330
2C1
100
AcDbEntity
  8
치수문자_일반주서
 62
     0
370
    -2
100
AcDbLine
 10
54.58967468426678
 20
6.332028115770477
 30
0.0
 11
54.58967468426678
 21
-6.367971730747563
 31
0.0
  0
LINE
  5
2C8
330
2C1
100
AcDbEntity
  8
치수문자_일반주서
 62
     0
370
    -2
100
AcDbLine
 10
54.58967468426678
 20
9.634028115770477
 30
0.0
 11
54.58967468426678
 21
12.93602811577048
 31
0.0
  0
LINE
  5
2C9
330
2C1
100
AcDbEntity
  8
치수문자_일반주서
 62
     0
370
    -2
100
AcDbLine
 10
54.58967468426678
 20
-9.669971730747562
 30
0.0
 11
54.58967468426678
 21
-12.97197173074756
 31
0.0
  0
SOLID
  5
2CA
330
2C1
100
AcDbEntity
  8
치수문자_일반주서
 62
     0
100
AcDbTrace
 10
54.03934135093344
 20
9.634028115770477
 30
0.0
 11
55.14000801760011
 21
9.634028115770477
 31
0.0
 12
54.58967468426678
 22
6.332028115770477
 32
0.0
 13
54.58967468426678
 23
6.332028115770477
 33
0.0
  0
SOLID
  5
2CB
330
2C1
100
AcDbEntity
  8
치수문자_일반주서
 62
     0
100
AcDbTrace
 10
55.14000801760011
 20
-9.669971730747562
 30
0.0
 11
54.03934135093344
 21
-9.669971730747562
 31
0.0
 12
54.58967468426678
 22
-6.367971730747563
 32
0.0
 13
54.58967468426678
 23
-6.367971730747563
 33
0.0
  0
MTEXT
  5
2CC
330
2C1
100
AcDbEntity
  8
치수문자_일반주서
 62
     0
100
AcDbMText
 10
51.96467468426678
 20
26.27977811577048
 30
0.0
 40
3.5
 41
0.0
 71
     5
 72
     1
  1
\A1;{%%c12.70 [1/2]}
  7
SLDTEXTSTYLE0
 11
0.0
 21
1.0
 31
0.0
 73
     1
 44
1.0
  0
POINT
  5
2CD
330
2C1
100
AcDbEntity
  8
Defpoints
 62
     0
100
AcDbPoint
 10
37.38677592541679
 20
6.332028115770479
 30
0.0
  0
POINT
  5
2CE
330
2C1
100
AcDbEntity
  8
Defpoints
 62
     0
100
AcDbPoint
 10
37.38677592541679
 20
-6.367971730747559
 30
0.0
  0
POINT
  5
2D0
330
2C1
100
AcDbEntity
  8
Defpoints
 62
     0
100
AcDbPoint
 10
54.58967468426678
 20
-6.36797173074756
 30
0.0
  0
ENDBLK
  5
2C3
330
2C1
100
AcDbEntity
  8
0
100
AcDbBlockEnd
  0
BLOCK
  5
330
330
32F
100
AcDbEntity
  8
0
100
AcDbBlockBegin
  2
*D7
 70
     1
 10
0.0
 20
0.0
 30
0.0
  3
*D7
  1

  0
LINE
  5
332
330
32F
100
AcDbEntity
  8
치수문자_일반주서
 62
     0
370
    -2
100
AcDbLine
 10
37.38677592541679
 20
6.394528115770479
 30
0.0
 11
37.38677592541679
 21
20.97002826925244
 31
0.0
  0
LINE
  5
333
330
32F
100
AcDbEntity
  8
치수문자_일반주서
 62
     0
370
    -2
100
AcDbLine
 10
2.461775782365635
 20
5.632528269252441
 30
0.0
 11
2.461775782365635
 21
20.97002826925244
 31
0.0
  0
LINE
  5
334
330
32F
100
AcDbEntity
  8
치수문자_일반주서
 62
     0
370
    -2
100
AcDbLine
 10
34.08477592541679
 20
20.97002826925244
 30
0.0
 11
5.763775782365634
 21
20.97002826925244
 31
0.0
  0
SOLID
  5
335
330
32F
100
AcDbEntity
  8
치수문자_일반주서
 62
     0
100
AcDbTrace
 10
34.08477592541679
 20
20.4196949359191
 30
0.0
 11
34.08477592541679
 21
21.52036160258577
 31
0.0
 12
37.38677592541679
 22
20.97002826925244
 32
0.0
 13
37.38677592541679
 23
20.97002826925244
 33
0.0
  0
SOLID
  5
336
330
32F
100
AcDbEntity
  8
치수문자_일반주서
 62
     0
100
AcDbTrace
 10
5.763775782365634
 20
21.52036160258577
 30
0.0
 11
5.763775782365634
 21
20.4196949359191
 31
0.0
 12
2.461775782365635
 22
20.97002826925244
 32
0.0
 13
2.461775782365635
 23
20.97002826925244
 33
0.0
  0
MTEXT
  5
337
330
32F
100
AcDbEntity
  8
치수문자_일반주서
 62
     0
100
AcDbMText
 10
20.4849707883959
 20
23.59502826925244
 30
0.0
 40
3.5
 41
0.0
 71
     5
 72
     1
  1
\A1;34.93 [1 3/8]
  7
SLDTEXTSTYLE0
 73
     1
 44
1.0
  0
POINT
  5
338
330
32F
100
AcDbEntity
  8
Defpoints
 62
     0
100
AcDbPoint
 10
37.38677592541679
 20
6.332028115770479
 30
0.0
  0
POINT
  5
339
330
32F
100
AcDbEntity
  8
Defpoints
 62
     0
100
AcDbPoint
 10
2.461775782365635
 20
5.570028269252441
 30
0.0
  0
POINT
  5
33A
330
32F
100
AcDbEntity
  8
Defpoints
 62
     0
100
AcDbPoint
 10
2.461775782365635
 20
20.97002826925244
 30
0.0
  0
ENDBLK
  5
331
330
32F
100
AcDbEntity
  8
0
100
AcDbBlockEnd
  0
BLOCK
  5
348
330
347
100
AcDbEntity
  8
0
100
AcDbBlockBegin
  2
*D8
 70
     1
 10
0.0
 20
0.0
 30
0.0
  3
*D8
  1

  0
LINE
  5
34A
330
347
100
AcDbEntity
  8
치수문자_일반주서
 62
     0
370
    -2
100
AcDbLine
 10
37.38677592541679
 20
6.394528115770479
 30
0.0
 11
37.38677592541679
 21
28.23202811577048
 31
0.0
  0
LINE
  5
34B
330
347
100
AcDbEntity
  8
치수문자_일반주서
 62
     0
370
    -2
100
AcDbLine
 10
-45.16322421763436
 20
5.894528033814094
 30
0.0
 11
-45.16322421763436
 21
28.23202811577048
 31
0.0
  0
LINE
  5
34C
330
347
100
AcDbEntity
  8
치수문자_일반주서
 62
     0
370
    -2
100
AcDbLine
 10
34.08477592541679
 20
28.23202811577048
 30
0.0
 11
-41.86122421763436
 21
28.23202811577048
 31
0.0
  0
SOLID
  5
34D
330
347
100
AcDbEntity
  8
치수문자_일반주서
 62
     0
100
AcDbTrace
 10
34.08477592541679
 20
27.68169478243715
 30
0.0
 11
34.08477592541679
 21
28.78236144910382
 31
0.0
 12
37.38677592541679
 22
28.23202811577048
 32
0.0
 13
37.38677592541679
 23
28.23202811577048
 33
0.0
  0
SOLID
  5
34E
330
347
100
AcDbEntity
  8
치수문자_일반주서
 62
     0
100
AcDbTrace
 10
-41.86122421763436
 20
28.78236144910382
 30
0.0
 11
-41.86122421763436
 21
27.68169478243715
 31
0.0
 12
-45.16322421763436
 22
28.23202811577048
 32
0.0
 13
-45.16322421763436
 23
28.23202811577048
 33
0.0
  0
MTEXT
  5
34F
330
347
100
AcDbEntity
  8
치수문자_일반주서
 62
     0
100
AcDbMText
 10
-3.888224146108783
 20
30.85702811577048
 30
0.0
 40
3.5
 41
0.0
 71
     5
 72
     1
  1
\A1;82.55 [3 1/4]
  7
SLDTEXTSTYLE0
 73
     1
 44
1.0
  0
POINT
  5
350
330
347
100
AcDbEntity
  8
Defpoints
 62
     0
100
AcDbPoint
 10
37.38677592541679
 20
6.332028115770479
 30
0.0
  0
POINT
  5
351
330
347
100
AcDbEntity
  8
Defpoints
 62
     0
100
AcDbPoint
 10
-45.16322421763436
 20
5.832028033814094
 30
0.0
  0
POINT
  5
352
330
347
100
AcDbEntity
  8
Defpoints
 62
     0
100
AcDbPoint
 10
-45.16322421763436
 20
28.23202811577048
 30
0.0
  0
ENDBLK
  5
349
330
347
100
AcDbEntity
  8
0
100
AcDbBlockEnd
  0
ENDSEC
  0
SECTION
  2
ENTITIES
  0
LINE
  5
95
330
1F
100
AcDbEntity
  8
0
  6
Continuous
 62
     1
370
    15
100
AcDbLine
 10
11.3871111914388
 20
-0.0128823065149853
 30
0.0
 11
11.3871111914388
 21
-0.0128662339246155
 31
0.0
  0
LINE
  5
96
330
1F
100
AcDbEntity
  8
0
  6
Continuous
 62
     4
370
    15
100
AcDbLine
 10
1.699775935847587
 20
6.332028115770481
 30
0.0
 11
-44.66322320435538
 21
6.332028115770481
 31
0.0
  0
LINE
  5
97
330
1F
100
AcDbEntity
  8
0
  6
Continuous
 62
     4
370
    15
100
AcDbLine
 10
-44.6632232043554
 20
-6.367971730747559
 30
0.0
 11
1.699775782365641
 21
-6.367971730747559
 31
0.0
  0
LINE
  5
98
330
1F
100
AcDbEntity
  8
0
  6
Continuous
 62
     4
370
    15
100
AcDbLine
 10
-44.6632232043554
 20
6.332028115770481
 30
0.0
 11
-45.16322421763436
 21
5.832028033814094
 31
0.0
  0
LINE
  5
99
330
1F
100
AcDbEntity
  8
0
  6
Continuous
 62
     4
370
    15
100
AcDbLine
 10
-45.16322421763436
 20
-5.867971648791173
 30
0.0
 11
-44.6632232043554
 21
-6.367971730747559
 31
0.0
  0
LINE
  5
9A
330
1F
100
AcDbEntity
  8
0
  6
Continuous
 62
     1
370
    15
100
AcDbLine
 10
21.1779883336614
 20
6.175191997221372
 30
0.0
 11
21.17333917136892
 21
6.175388040623329
 31
0.0
  0
SPLINE
  5
9B
330
1F
100
AcDbEntity
  8
0
  6
Continuous
 62
     1
370
    15
100
AcDbSpline
210
0.0
220
0.0
230
1.0
 70
     8
 71
     3
 72
     9
 73
     5
 74
     0
 42
0.000000001
 43
0.00000001
 40
0.0
 40
0.0
 40
0.0
 40
0.0
 40
0.5553084060777725
 40
1.0
 40
1.0
 40
1.0
 40
1.0
 10
21.22798359211191
 20
6.165821495136878
 30
0.0
 10
21.21885839581491
 20
6.169299826948556
 30
0.0
 10
21.20242573209664
 20
6.175563610773199
 30
0.0
 10
21.18976319326312
 20
6.175127170753598
 30
0.0
 10
21.18413226868614
 20
6.174933089545629
 30
0.0
  0
SPLINE
  5
9C
330
1F
100
AcDbEntity
  8
0
  6
Continuous
 62
     1
370
    15
100
AcDbSpline
210
0.0
220
0.0
230
1.0
 70
     8
 71
     3
 72
     9
 73
     5
 74
     0
 42
0.000000001
 43
0.00000001
 40
0.0
 40
0.0
 40
0.0
 40
0.0
 40
0.8083389251638733
 40
0.9999999999999999
 40
0.9999999999999999
 40
0.9999999999999999
 40
0.9999999999999999
 10
21.1478414219211
 20
6.21665494390454
 30
0.0
 10
21.11251675086066
 20
6.243509926083997
 30
0.0
 10
21.06881642917532
 20
6.276732354626594
 30
0.0
 10
21.0169714301106
 20
6.287036377309104
 30
0.0
 10
21.00703476186499
 20
6.289011257371566
 30
0.0
  0
SPLINE
  5
9D
330
1F
100
AcDbEntity
  8
0
  6
Continuous
 62
     1
370
    15
100
AcDbSpline
210
0.0
220
0.0
230
1.0
 70
     8
 71
     3
 72
    11
 73
     7
 74
     0
 42
0.000000001
 43
0.00000001
 40
0.0
 40
0.0
 40
0.0
 40
0.0
 40
0.2440313139645251
 40
0.4999597615911862
 40
0.7559067002223138
 40
1.0
 40
1.0
 40
1.0
 40
1.0
 10
25.12285469289526
 20
-6.249360815950968
 30
0.0
 10
25.15872135884948
 20
-6.22429408798858
 30
0.0
 10
25.23220327995305
 20
-6.172938566714096
 30
0.0
 10
25.36879671629727
 20
-6.148163762595715
 30
0.0
 10
25.50518870132687
 20
-6.167265653239802
 30
0.0
 10
25.57820328653748
 20
-6.214212687739634
 30
0.0
 10
25.61384516026482
 20
-6.237129756578545
 30
0.0
  0
SPLINE
  5
9E
330
1F
100
AcDbEntity
  8
0
  6
Continuous
 62
     1
370
    15
100
AcDbSpline
210
0.0
220
0.0
230
1.0
 70
     8
 71
     3
 72
    11
 73
     7
 74
     0
 42
0.000000001
 43
0.00000001
 40
0.0
 40
0.0
 40
0.0
 40
0.0
 40
0.2441924621878237
 40
0.5000740722927246
 40
0.7559210665979175
 40
1.0
 40
1.0
 40
1.0
 40
1.0
 10
20.65092774297699
 20
6.218518986037633
 30
0.0
 10
20.61531297439816
 20
6.193304993331502
 30
0.0
 10
20.54237860862204
 20
6.141670049736819
 30
0.0
 10
20.40599386181801
 20
6.116101082374513
 30
0.0
 10
20.26940656224551
 20
6.134468143125474
 30
0.0
 10
20.1959831662798
 20
6.181092718079602
 30
0.0
 10
20.16013564731583
 20
6.203856243422887
 30
0.0
  0
SPLINE
  5
9F
330
1F
100
AcDbEntity
  8
0
  6
Continuous
 62
     1
370
    15
100
AcDbSpline
210
0.0
220
0.0
230
1.0
 70
     8
 71
     3
 72
     9
 73
     5
 74
     0
 42
0.000000001
 43
0.00000001
 40
0.0
 40
0.0
 40
0.0
 40
0.0
 40
0.4991539270650749
 40
1.0
 40
1.0
 40
1.0
 40
1.0
 10
25.61823634620413
 20
-6.243486964472869
 30
0.0
 10
25.65676234010053
 20
-6.270274595375374
 30
0.0
 10
25.73394493209759
 20
-6.323940668003534
 30
0.0
 10
25.82591136228778
 20
-6.335113957951307
 30
0.0
 10
25.87197238769039
 20
-6.340710056343415
 30
0.0
  0
SPLINE
  5
A0
330
1F
100
AcDbEntity
  8
0
  6
Continuous
 62
     1
370
    15
100
AcDbSpline
210
0.0
220
0.0
230
1.0
 70
     8
 71
     3
 72
    11
 73
     7
 74
     0
 42
0.000000001
 43
0.00000001
 40
0.0
 40
0.0
 40
0.0
 40
0.0
 40
0.2437399093296849
 40
0.4998886752920928
 40
0.7560920865990091
 40
1.0
 40
1.0
 40
1.0
 40
1.0
 10
20.15349438603624
 20
6.21181905143585
 30
0.0
 10
20.11570808301703
 20
6.236907775255792
 30
0.0
 10
20.03821176732378
 20
6.288362495779857
 30
0.0
 10
19.89670530077054
 20
6.312279799296363
 30
0.0
 10
19.75519048812295
 20
6.29218088165166
 30
0.0
 10
19.67770056622565
 20
6.243381770517077
 30
0.0
 10
19.63990817036137
 20
6.219582090756557
 30
0.0
  0
SPLINE
  5
A1
330
1F
100
AcDbEntity
  8
0
  6
Continuous
 62
     1
370
    15
100
AcDbSpline
210
0.0
220
0.0
230
1.0
 70
     8
 71
     3
 72
     9
 73
     5
 74
     0
 42
0.000000001
 43
0.00000001
 40
0.0
 40
0.0
 40
0.0
 40
0.0
 40
0.5008543541626994
 40
1.0
 40
1.0
 40
1.0
 40
1.0
 10
25.87646229382261
 20
-6.344322190949061
 30
0.0
 10
25.92246338279461
 20
-6.340442922466393
 30
0.0
 10
26.01430862401028
 20
-6.33269761996392
 30
0.0
 10
26.09136334598938
 20
-6.282411576441207
 30
0.0
 10
26.12982487495646
 20
-6.257311516770462
 30
0.0
  0
SPLINE
  5
A2
330
1F
100
AcDbEntity
  8
0
  6
Continuous
 62
     1
370
    15
100
AcDbSpline
210
0.0
220
0.0
230
1.0
 70
     8
 71
     3
 72
    11
 73
     7
 74
     0
 42
0.000000001
 43
0.00000001
 40
0.0
 40
0.0
 40
0.0
 40
0.0
 40
0.2447637055266332
 40
0.4999620365980221
 40
0.7551752079120245
 40
1.0
 40
1.0
 40
1.0
 40
1.0
 10
26.13691037710413
 20
-6.257823278525212
 30
0.0
 10
26.17219737699599
 20
-6.233421309980608
 30
0.0
 10
26.24427571186761
 20
-6.183577082200548
 30
0.0
 10
26.38022063756225
 20
-6.159665059208352
 30
0.0
 10
26.51636655143471
 20
-6.179947932517864
 30
0.0
 10
26.58886170429019
 20
-6.227382414527218
 30
0.0
 10
26.6243562307547
 20
-6.250606925555804
 30
0.0
  0
SPLINE
  5
A3
330
1F
100
AcDbEntity
  8
0
  6
Continuous
 62
     1
370
    15
100
AcDbSpline
210
0.0
220
0.0
230
1.0
 70
     8
 71
     3
 72
    11
 73
     7
 74
     0
 42
0.000000001
 43
0.00000001
 40
0.0
 40
0.0
 40
0.0
 40
0.0
 40
0.2450826947380511
 40
0.5000699883144044
 40
0.7550259749395688
 40
1.0
 40
1.0
 40
1.0
 40
1.0
 10
19.63227877583012
 20
6.218993029228113
 30
0.0
 10
19.59689794040253
 20
6.195156900339056
 30
0.0
 10
19.52470641346613
 20
6.146521346091731
 30
0.0
 10
19.38868952483917
 20
6.124261235942603
 30
0.0
 10
19.25287430614205
 20
6.146258611757634
 30
0.0
 10
19.18108354304866
 20
6.194484947592125
 30
0.0
 10
19.14590487446293
 20
6.218116654685399
 30
0.0
  0
SPLINE
  5
A4
330
1F
100
AcDbEntity
  8
0
  6
Continuous
 62
     1
370
    15
100
AcDbSpline
210
0.0
220
0.0
230
1.0
 70
     8
 71
     3
 72
    11
 73
     7
 74
     0
 42
0.000000001
 43
0.00000001
 40
0.0
 40
0.0
 40
0.0
 40
0.0
 40
0.2447102839415449
 40
0.5001940922115562
 40
0.7555826862164073
 40
1.0
 40
1.0
 40
1.0
 40
1.0
 10
26.62757674421772
 20
-6.252821610638239
 30
0.0
 10
26.66576008279928
 20
-6.27767079992136
 30
0.0
 10
26.74380780548499
 20
-6.328463179691688
 30
0.0
 10
26.88709051824844
 20
-6.351093501563039
 30
0.0
 10
27.03036072654051
 20
-6.328631881503753
 30
0.0
 10
27.10842291004145
 20
-6.277922445161076
 30
0.0
 10
27.14659722711548
 20
-6.25312429047499
 30
0.0
  0
SPLINE
  5
A5
330
1F
100
AcDbEntity
  8
0
  6
Continuous
 62
     1
370
    15
100
AcDbSpline
210
0.0
220
0.0
230
1.0
 70
     8
 71
     3
 72
     9
 73
     5
 74
     0
 42
0.000000001
 43
0.00000001
 40
0.0
 40
0.0
 40
0.0
 40
0.0
 40
0.4985521023836592
 40
1.0
 40
1.0
 40
1.0
 40
1.0
 10
19.1445153411816
 20
6.2190228315505
 30
0.0
 10
19.1053061858885
 20
6.245391478516163
 30
0.0
 10
19.02666013243565
 20
6.298281932371621
 30
0.0
 10
18.93352282374209
 20
6.307430913102191
 30
0.0
 10
18.88681931610807
 20
6.312018650254867
 30
0.0
  0
SPLINE
  5
A6
330
1F
100
AcDbEntity
  8
0
  6
Continuous
 62
     1
370
    15
100
AcDbSpline
210
0.0
220
0.0
230
1.0
 70
     8
 71
     3
 72
     9
 73
     5
 74
     0
 42
0.000000001
 43
0.00000001
 40
0.0
 40
0.0
 40
0.0
 40
0.0
 40
0.5011328403662169
 40
1.0
 40
1.0
 40
1.0
 40
1.0
 10
18.88447145189747
 20
6.311769987127445
 30
0.0
 10
18.83793028846152
 20
6.306859238302524
 30
0.0
 10
18.74505837968393
 20
6.297059942727858
 30
0.0
 10
18.66680925669297
 20
6.243911002956503
 30
0.0
 10
18.62777333896264
 20
6.217396742335222
 30
0.0
  0
SPLINE
  5
A7
330
1F
100
AcDbEntity
  8
0
  6
Continuous
 62
     1
370
    15
100
AcDbSpline
210
0.0
220
0.0
230
1.0
 70
     8
 71
     3
 72
    11
 73
     7
 74
     0
 42
0.000000001
 43
0.00000001
 40
0.0
 40
0.0
 40
0.0
 40
0.0
 40
0.2685555280686923
 40
0.5285593930581065
 40
0.7725957143517461
 40
1.0
 40
1.0
 40
1.0
 40
1.0
 10
27.1518647875975
 20
-6.249296089032033
 30
0.0
 10
27.19451253343317
 20
-6.222903149546333
 30
0.0
 10
27.27844998508909
 20
-6.170957705801777
 30
0.0
 10
27.42469171845546
 20
-6.162128998989989
 30
0.0
 10
27.54703823850966
 20
-6.196010254030842
 30
0.0
 10
27.60030154787529
 20
-6.233723247407589
 30
0.0
 10
27.62599365975365
 20
-6.251914502450564
 30
0.0
  0
SPLINE
  5
A8
330
1F
100
AcDbEntity
  8
0
  6
Continuous
 62
     1
370
    15
100
AcDbSpline
210
0.0
220
0.0
230
1.0
 70
     8
 71
     3
 72
    10
 73
     6
 74
     0
 42
0.000000001
 43
0.00000001
 40
0.0
 40
0.0
 40
0.0
 40
0.0
 40
0.278765784122893
 40
0.5423643355100827
 40
1.0
 40
1.0
 40
1.0
 40
1.0
 10
18.62399263497099
 20
6.214140372953079
 30
0.0
 10
18.58261725235315
 20
6.187994661345488
 30
0.0
 10
18.50211766030097
 20
6.137125787508955
 30
0.0
 10
18.31184363539246
 20
6.121375146588639
 30
0.0
 10
18.21424921191633
 20
6.177392878309661
 30
0.0
 10
18.15232385139569
 20
6.212937104186675
 30
0.0
  0
SPLINE
  5
A9
330
1F
100
AcDbEntity
  8
0
  6
Continuous
 62
     1
370
    15
100
AcDbSpline
210
0.0
220
0.0
230
1.0
 70
     8
 71
     3
 72
     9
 73
     5
 74
     0
 42
0.000000001
 43
0.00000001
 40
0.0
 40
0.0
 40
0.0
 40
0.0
 40
0.4986076178787625
 40
1.0
 40
1.0
 40
1.0
 40
1.0
 10
27.62675734426483
 20
-6.252549198785164
 30
0.0
 10
27.66658874971498
 20
-6.279655956008904
 30
0.0
 10
27.74647402226577
 20
-6.33402086390795
 30
0.0
 10
27.84081957178762
 20
-6.343301239410073
 30
0.0
 10
27.88812371160492
 20
-6.347954348990061
 30
0.0
  0
SPLINE
  5
AA
330
1F
100
AcDbEntity
  8
0
  6
Continuous
 62
     1
370
    15
100
AcDbSpline
210
0.0
220
0.0
230
1.0
 70
     8
 71
     3
 72
    11
 73
     7
 74
     0
 42
0.000000001
 43
0.00000001
 40
0.0
 40
0.0
 40
0.0
 40
0.0
 40
0.2700920372673367
 40
0.5328076972480724
 40
0.7773570843335044
 40
0.9999999999999999
 40
0.9999999999999999
 40
0.9999999999999999
 40
0.9999999999999999
 10
18.15182047154411
 20
6.213391589603088
 30
0.0
 10
18.10451142837999
 20
6.243353840992352
 30
0.0
 10
18.01118538070264
 20
6.302460056520211
 30
0.0
 10
17.85277148887129
 20
6.314211421633283
 30
0.0
 10
17.71738366361848
 20
6.279576919468012
 30
0.0
 10
17.6525596461038
 20
6.234038772593314
 30
0.0
 10
17.62166742425068
 20
6.212337332448623
 30
0.0
  0
SPLINE
  5
AB
330
1F
100
AcDbEntity
  8
0
  6
Continuous
 62
     1
370
    15
100
AcDbSpline
210
0.0
220
0.0
230
1.0
 70
     8
 71
     3
 72
     9
 73
     5
 74
     0
 42
0.000000001
 43
0.00000001
 40
0.0
 40
0.0
 40
0.0
 40
0.0
 40
0.5019965059485195
 40
0.9999999999999999
 40
0.9999999999999999
 40
0.9999999999999999
 40
0.9999999999999999
 10
27.88768226470455
 20
-6.347968784489968
 30
0.0
 10
27.93527364616192
 20
-6.34309852132435
 30
0.0
 10
28.03007785474389
 20
-6.333396734343953
 30
0.0
 10
28.1106662273481
 20
-6.277669281672825
 30
0.0
 10
28.15079951848492
 20
-6.249916815528014
 30
0.0
  0
SPLINE
  5
AC
330
1F
100
AcDbEntity
  8
0
  6
Continuous
 62
     1
370
    15
100
AcDbSpline
210
0.0
220
0.0
230
1.0
 70
     8
 71
     3
 72
    11
 73
     7
 74
     0
 42
0.000000001
 43
0.00000001
 40
0.0
 40
0.0
 40
0.0
 40
0.0
 40
0.246503825391548
 40
0.4997736886052496
 40
0.7531462455833954
 40
1.0
 40
1.0
 40
1.0
 40
1.0
 10
28.14627701606258
 20
-6.253798102357724
 30
0.0
 10
28.1805981344343
 20
-6.23059940166749
 30
0.0
 10
28.25018241734935
 20
-6.183565242273039
 30
0.0
 10
28.3848237313638
 20
-6.160504279856047
 30
0.0
 10
28.51966133179657
 20
-6.181782507475658
 30
0.0
 10
28.58957808018319
 20
-6.22771877788546
 30
0.0
 10
28.62408088709816
 20
-6.250387599089482
 30
0.0
  0
SPLINE
  5
AD
330
1F
100
AcDbEntity
  8
0
  6
Continuous
 62
     1
370
    15
100
AcDbSpline
210
0.0
220
0.0
230
1.0
 70
     8
 71
     3
 72
    11
 73
     7
 74
     0
 42
0.000000001
 43
0.00000001
 40
0.0
 40
0.0
 40
0.0
 40
0.0
 40
0.2464100545866016
 40
0.5001805026421126
 40
0.753868533766952
 40
1.0
 40
1.0
 40
1.0
 40
1.0
 10
17.62641390975221
 20
6.216149701407812
 30
0.0
 10
17.59167894799944
 20
6.193087785384034
 30
0.0
 10
17.52117147354632
 20
6.146275082192941
 30
0.0
 10
17.38599411696014
 20
6.124554724324547
 30
0.0
 10
17.25101689110146
 20
6.14722581034575
 30
0.0
 10
17.18086038522219
 20
6.194532614369015
 30
0.0
 10
17.14631246592506
 20
6.217828410348556
 30
0.0
  0
SPLINE
  5
AE
330
1F
100
AcDbEntity
  8
0
  6
Continuous
 62
     1
370
    15
100
AcDbSpline
210
0.0
220
0.0
230
1.0
 70
     8
 71
     3
 72
    11
 73
     7
 74
     0
 42
0.000000001
 43
0.00000001
 40
0.0
 40
0.0
 40
0.0
 40
0.0
 40
0.2454632428457372
 40
0.5003265155399763
 40
0.7550262283478926
 40
0.9999999999999999
 40
0.9999999999999999
 40
0.9999999999999999
 40
0.9999999999999999
 10
28.62642595734104
 20
-6.252100766965487
 30
0.0
 10
28.6649726958607
 20
-6.27724990235736
 30
0.0
 10
28.74354232260153
 20
-6.328511260814063
 30
0.0
 10
28.88845652179556
 20
-6.35123473558532
 30
0.0
 10
29.03334908192518
 20
-6.327730157527835
 30
0.0
 10
29.11194585030672
 20
-6.275886719011382
 30
0.0
 10
29.15047930743202
 20
-6.250469555476048
 30
0.0
  0
SPLINE
  5
AF
330
1F
100
AcDbEntity
  8
0
  6
Continuous
 62
     1
370
    15
100
AcDbSpline
210
0.0
220
0.0
230
1.0
 70
     8
 71
     3
 72
     9
 73
     5
 74
     0
 42
0.000000001
 43
0.00000001
 40
0.0
 40
0.0
 40
0.0
 40
0.0
 40
0.4982631230203343
 40
1.0
 40
1.0
 40
1.0
 40
1.0
 10
17.14792598228558
 20
6.216586026034019
 30
0.0
 10
17.10827076738108
 20
6.24359379633786
 30
0.0
 10
17.0286838722801
 20
6.297797627719415
 30
0.0
 10
16.93475155934345
 20
6.307272305563556
 30
0.0
 10
16.88762225400313
 20
6.312026100835464
 30
0.0
  0
SPLINE
  5
B0
330
1F
100
AcDbEntity
  8
0
  6
Continuous
 62
     1
370
    15
100
AcDbSpline
210
0.0
220
0.0
230
1.0
 70
     8
 71
     3
 72
     9
 73
     5
 74
     0
 42
0.000000001
 43
0.00000001
 40
0.0
 40
0.0
 40
0.0
 40
0.0
 40
0.5013643065746453
 40
1.0
 40
1.0
 40
1.0
 40
1.0
 10
16.88720176186069
 20
6.312027497819326
 30
0.0
 10
16.84003324206565
 20
6.307270116225165
 30
0.0
 10
16.74595291130319
 20
6.297781244497017
 30
0.0
 10
16.66635351108894
 20
6.243563601638384
 30
0.0
 10
16.62666240896686
 20
6.21652874969568
 30
0.0
  0
SPLINE
  5
B1
330
1F
100
AcDbEntity
  8
0
  6
Continuous
 62
     1
370
    15
100
AcDbSpline
210
0.0
220
0.0
230
1.0
 70
     8
 71
     3
 72
    11
 73
     7
 74
     0
 42
0.000000001
 43
0.00000001
 40
0.0
 40
0.0
 40
0.0
 40
0.0
 40
0.2715286108180431
 40
0.5323625646584788
 40
0.7755102226326969
 40
1.0
 40
1.0
 40
1.0
 40
1.0
 10
29.1517421808432
 20
-6.249404122450688
 30
0.0
 10
29.19408612005152
 20
-6.223126645777556
 30
0.0
 10
29.27710620403741
 20
-6.171606679493649
 30
0.0
 10
29.42303840892006
 20
-6.162118588631584
 30
0.0
 10
29.54501340912222
 20
-6.195130484497424
 30
0.0
 10
29.59860680984957
 20
-6.23248239280743
 30
0.0
 10
29.62433437075123
 20
-6.250413210460284
 30
0.0
  0
SPLINE
  5
B2
330
1F
100
AcDbEntity
  8
0
  6
Continuous
 62
     1
370
    15
100
AcDbSpline
210
0.0
220
0.0
230
1.0
 70
     8
 71
     3
 72
    10
 73
     6
 74
     0
 42
0.000000001
 43
0.00000001
 40
0.0
 40
0.0
 40
0.0
 40
0.0
 40
0.2810530865479599
 40
0.5452785854526364
 40
1.0
 40
1.0
 40
1.0
 40
1.0
 10
16.6246833484958
 20
6.214799283674619
 30
0.0
 10
16.58349775221209
 20
6.188625250207512
 30
0.0
 10
16.50359247894701
 20
6.13784431013732
 30
0.0
 10
16.31409437288361
 20
6.121050096744083
 30
0.0
 10
16.21587024161071
 20
6.176498708856382
 30
0.0
 10
16.15374518748029
 20
6.211568991324565
 30
0.0
  0
SPLINE
  5
B3
330
1F
100
AcDbEntity
  8
0
  6
Continuous
 62
     1
370
    15
100
AcDbSpline
210
0.0
220
0.0
230
1.0
 70
     8
 71
     3
 72
     9
 73
     5
 74
     0
 42
0.000000001
 43
0.00000001
 40
0.0
 40
0.0
 40
0.0
 40
0.0
 40
0.4985787314616935
 40
0.9999999999999999
 40
0.9999999999999999
 40
0.9999999999999999
 40
0.9999999999999999
 10
29.62359862591728
 20
-6.24969609207783
 30
0.0
 10
29.66350292331358
 20
-6.27729976771732
 30
0.0
 10
29.74353902368898
 20
-6.332664495287156
 30
0.0
 10
29.83801908796222
 20
-6.34277953953
 30
0.0
 10
29.88539340164169
 20
-6.347851437845566
 30
0.0
  0
SPLINE
  5
B4
330
1F
100
AcDbEntity
  8
0
  6
Continuous
 62
     1
370
    15
100
AcDbSpline
210
0.0
220
0.0
230
1.0
 70
     8
 71
     3
 72
    11
 73
     7
 74
     0
 42
0.000000001
 43
0.00000001
 40
0.0
 40
0.0
 40
0.0
 40
0.0
 40
0.2671361965627622
 40
0.5289276222995243
 40
0.7743990146065225
 40
1.0
 40
1.0
 40
1.0
 40
1.0
 10
16.15199057574972
 20
6.213239784023425
 30
0.0
 10
16.10479780922202
 20
6.243105391689546
 30
0.0
 10
16.01135649310532
 20
6.302239066027314
 30
0.0
 10
15.85346696750076
 20
6.314107035681612
 30
0.0
 10
15.71834799251933
 20
6.279928185786208
 30
0.0
 10
15.65410998865713
 20
6.235240775969855
 30
0.0
 10
15.62334580536588
 20
6.213839555761478
 30
0.0
  0
SPLINE
  5
B5
330
1F
100
AcDbEntity
  8
0
  6
Continuous
 62
     1
370
    15
100
AcDbSpline
210
0.0
220
0.0
230
1.0
 70
     8
 71
     3
 72
     9
 73
     5
 74
     0
 42
0.000000001
 43
0.00000001
 40
0.0
 40
0.0
 40
0.0
 40
0.0
 40
0.502018783045335
 40
1.0
 40
1.0
 40
1.0
 40
1.0
 10
29.88418268229469
 20
-6.347659119733908
 30
0.0
 10
29.93186612804953
 20
-6.343360244714164
 30
0.0
 10
30.02684951784541
 20
-6.334797069062315
 30
0.0
 10
30.10763104594789
 20
-6.27991457470919
 30
0.0
 10
30.14785872961983
 20
-6.252584123381714
 30
0.0
  0
SPLINE
  5
B6
330
1F
100
AcDbEntity
  8
0
  6
Continuous
 62
     1
370
    15
100
AcDbSpline
210
0.0
220
0.0
230
1.0
 70
     8
 71
     3
 72
    11
 73
     7
 74
     0
 42
0.000000001
 43
0.00000001
 40
0.0
 40
0.0
 40
0.0
 40
0.0
 40
0.245994381978096
 40
0.499842328515655
 40
0.7537634569347129
 40
1.0
 40
1.0
 40
1.0
 40
1.0
 10
30.14469782080158
 20
-6.254854687818625
 30
0.0
 10
30.17932681269472
 20
-6.231336998912488
 30
0.0
 10
30.24969035434485
 20
-6.183550800343134
 30
0.0
 10
30.38478101083648
 20
-6.160482485654095
 30
0.0
 10
30.52007399080332
 20
-6.181809555385707
 30
0.0
 10
30.59079880809103
 20
-6.228541203225792
 30
0.0
 10
30.62561789717182
 20
-6.251548027017453
 30
0.0
  0
SPLINE
  5
B7
330
1F
100
AcDbEntity
  8
0
  6
Continuous
 62
     1
370
    15
100
AcDbSpline
210
0.0
220
0.0
230
1.0
 70
     8
 71
     3
 72
    11
 73
     7
 74
     0
 42
0.000000001
 43
0.00000001
 40
0.0
 40
0.0
 40
0.0
 40
0.0
 40
0.2457048765699821
 40
0.5001101554574195
 40
0.7544663668797643
 40
1.0
 40
1.0
 40
1.0
 40
1.0
 10
15.6276084687899
 20
6.216896622112653
 30
0.0
 10
15.59252753246841
 20
6.193570778689123
 30
0.0
 10
15.5211234449214
 20
6.146093124425333
 30
0.0
 10
15.38548465163083
 20
6.12455170896998
 30
0.0
 10
15.25004750352655
 20
6.147377437868778
 30
0.0
 10
15.1790258066968
 20
6.19557358391677
 30
0.0
 10
15.14414169083937
 20
6.219246348968408
 30
0.0
  0
SPLINE
  5
B8
330
1F
100
AcDbEntity
  8
0
  6
Continuous
 62
     1
370
    15
100
AcDbSpline
210
0.0
220
0.0
230
1.0
 70
     8
 71
     3
 72
    11
 73
     7
 74
     0
 42
0.000000001
 43
0.00000001
 40
0.0
 40
0.0
 40
0.0
 40
0.0
 40
0.2443153972793922
 40
0.5001497668585612
 40
0.7559123720572383
 40
1.0
 40
1.0
 40
1.0
 40
1.0
 10
30.63205147351727
 20
-6.254865398028233
 30
0.0
 10
30.6700446392483
 20
-6.279253908520893
 30
0.0
 10
30.74782227092522
 20
-6.329180797995578
 30
0.0
 10
30.89023964716206
 20
-6.350753223798312
 30
0.0
 10
31.03264734676679
 20
-6.327776779888151
 30
0.0
 10
31.11043443849295
 20
-6.276858269496575
 30
0.0
 10
31.14841954972253
 20
-6.251993664869408
 30
0.0
  0
SPLINE
  5
B9
330
1F
100
AcDbEntity
  8
0
  6
Continuous
 62
     1
370
    15
100
AcDbSpline
210
0.0
220
0.0
230
1.0
 70
     8
 71
     3
 72
     9
 73
     5
 74
     0
 42
0.000000001
 43
0.00000001
 40
0.0
 40
0.0
 40
0.0
 40
0.0
 40
0.4990049028911999
 40
0.9999999999999999
 40
0.9999999999999999
 40
0.9999999999999999
 40
0.9999999999999999
 10
15.13808576579794
 20
6.221669650307557
 30
0.0
 10
15.09946176518551
 20
6.247308524314038
 30
0.0
 10
15.02205971885561
 20
6.298688528514251
 30
0.0
 10
14.92993869052096
 20
6.307312510177923
 30
0.0
 10
14.88378650698467
 20
6.311633082708976
 30
0.0
  0
SPLINE
  5
BA
330
1F
100
AcDbEntity
  8
0
  6
Continuous
 62
     1
370
    15
100
AcDbSpline
210
0.0
220
0.0
230
1.0
 70
     8
 71
     3
 72
     9
 73
     5
 74
     0
 42
0.000000001
 43
0.00000001
 40
0.0
 40
0.0
 40
0.0
 40
0.0
 40
0.5009678812147783
 40
1.0
 40
1.0
 40
1.0
 40
1.0
 10
14.87991173941299
 20
6.310319452217481
 30
0.0
 10
14.83366637102865
 20
6.305141975045411
 30
0.0
 10
14.74135432844381
 20
6.294807026705977
 30
0.0
 10
14.66375885718641
 20
6.241651230513897
 30
0.0
 10
14.62503622475668
 20
6.215124780914447
 30
0.0
  0
SPLINE
  5
BB
330
1F
100
AcDbEntity
  8
0
  6
Continuous
 62
     1
370
    15
100
AcDbSpline
210
0.0
220
0.0
230
1.0
 70
     8
 71
     3
 72
    11
 73
     7
 74
     0
 42
0.000000001
 43
0.00000001
 40
0.0
 40
0.0
 40
0.0
 40
0.0
 40
0.2662403635285137
 40
0.5445530665516424
 40
0.8229155383357645
 40
1.0
 40
1.0
 40
1.0
 40
1.0
 10
31.15329222943291
 20
-6.247961969443896
 30
0.0
 10
31.18898299567518
 20
-6.224829219673914
 30
0.0
 10
31.26198288174514
 20
-6.177514794249968
 30
0.0
 10
31.39801612785951
 20
-6.158564132258775
 30
0.0
 10
31.52049271693681
 20
-6.178284533272985
 30
0.0
 10
31.58154002340941
 20
-6.21965148706029
 30
0.0
 10
31.60527611340984
 20
-6.235735566684344
 30
0.0
  0
LINE
  5
BC
330
1F
100
AcDbEntity
  8
0
  6
Continuous
 62
     1
370
    15
100
AcDbLine
 10
37.38677578236564
 20
5.822028423330448
 30
0.0
 11
36.89890990223392
 21
6.309893837800882
 31
0.0
  0
SPLINE
  5
BD
330
1F
100
AcDbEntity
  8
0
  6
Continuous
 62
     1
370
    15
100
AcDbSpline
210
0.0
220
0.0
230
1.0
 70
     8
 71
     3
 72
     9
 73
     5
 74
     0
 42
0.000000001
 43
0.00000001
 40
0.0
 40
0.0
 40
0.0
 40
0.0
 40
0.5008425318802439
 40
1.0
 40
1.0
 40
1.0
 40
1.0
 10
31.90720530416473
 20
-6.335724686601498
 30
0.0
 10
31.95315767503219
 20
-6.329948189566508
 30
0.0
 10
32.0449078119364
 20
-6.31841463027931
 30
0.0
 10
32.12185534056896
 20
-6.26454401240983
 30
0.0
 10
32.16026427413926
 20
-6.237654091188054
 30
0.0
  0
LINE
  5
BE
330
1F
100
AcDbEntity
  8
0
  6
Continuous
 62
     1
370
    15
100
AcDbLine
 10
32.36490564610466
 20
-6.172696669915059
 30
0.0
 11
32.43482189442619
 21
-6.182959379026034
 31
0.0
  0
LINE
  5
BF
330
1F
100
AcDbEntity
  8
0
  6
Continuous
 62
     1
370
    15
100
AcDbLine
 10
36.88714171018108
 20
6.312026566496751
 30
0.0
 11
36.86911130513652
 21
6.308687309405467
 31
0.0
  0
SPLINE
  5
C0
330
1F
100
AcDbEntity
  8
0
  6
Continuous
 62
     1
370
    15
100
AcDbSpline
210
0.0
220
0.0
230
1.0
 70
     8
 71
     3
 72
     9
 73
     5
 74
     0
 42
0.000000001
 43
0.00000001
 40
0.0
 40
0.0
 40
0.0
 40
0.0
 40
0.1381055278028705
 40
1.0
 40
1.0
 40
1.0
 40
1.0
 10
36.77127028073772
 20
6.290567031732461
 30
0.0
 10
36.76389495234636
 20
6.289375462701301
 30
0.0
 10
36.71049138111567
 20
6.280747502255993
 30
0.0
 10
36.66546665867269
 20
6.246255421117969
 30
0.0
 10
36.62666009928688
 20
6.216526887050531
 30
0.0
  0
SPLINE
  5
C1
330
1F
100
AcDbEntity
  8
0
  6
Continuous
 62
     1
370
    15
100
AcDbSpline
210
0.0
220
0.0
230
1.0
 70
     8
 71
     3
 72
     9
 73
     5
 74
     0
 42
0.000000001
 43
0.00000001
 40
0.0
 40
0.0
 40
0.0
 40
0.0
 40
0.8514736781159213
 40
1.0
 40
1.0
 40
1.0
 40
1.0
 10
13.6240951922129
 20
6.214456091305873
 30
0.0
 10
13.58838971503763
 20
6.186162026210656
 30
0.0
 10
13.54645597346351
 20
6.152932502125047
 30
0.0
 10
13.48472430556574
 20
6.147581433270688
 30
0.0
 10
13.47555552798911
 20
6.1467866586956
 30
0.0
  0
LINE
  5
C2
330
1F
100
AcDbEntity
  8
0
  6
Continuous
 62
     1
370
    15
100
AcDbLine
 10
36.62666009928687
 20
6.216526887050531
 30
0.0
 11
36.5618046578358
 21
6.180208566269538
 31
0.0
  0
LINE
  5
C3
330
1F
100
AcDbEntity
  8
0
  6
Continuous
 62
     1
370
    15
100
AcDbLine
 10
36.51221359338268
 20
6.153425591668746
 30
0.0
 11
36.48855241205199
 21
6.149690988144538
 31
0.0
  0
SPLINE
  5
C4
330
1F
100
AcDbEntity
  8
0
  6
Continuous
 62
     1
370
    15
100
AcDbSpline
210
0.0
220
0.0
230
1.0
 70
     8
 71
     3
 72
     9
 73
     5
 74
     0
 42
0.000000001
 43
0.00000001
 40
0.0
 40
0.0
 40
0.0
 40
0.0
 40
0.7258236547578284
 40
0.9999999999999999
 40
0.9999999999999999
 40
0.9999999999999999
 40
0.9999999999999999
 10
33.11353998448357
 20
-6.271707435467579
 30
0.0
 10
33.11426042794645
 20
-6.271362506766355
 30
0.0
 10
33.11525301541336
 20
-6.270887282930701
 30
0.0
 10
33.11612767017437
 20
-6.269954358488175
 30
0.0
 10
33.1163674798201
 20
-6.269698572674134
 30
0.0
  0
SPLINE
  5
C5
330
1F
100
AcDbEntity
  8
0
  6
Continuous
 62
     1
370
    15
100
AcDbSpline
210
0.0
220
0.0
230
1.0
 70
     8
 71
     3
 72
    10
 73
     6
 74
     0
 42
0.000000001
 43
0.00000001
 40
0.0
 40
0.0
 40
0.0
 40
0.0
 40
0.5
 40
0.5
 40
1.0
 40
1.0
 40
1.0
 40
1.0
 10
36.80696804638111
 20
-3.203087855713083
 30
0.0
 10
36.73332943700058
 20
-3.189096255952036
 30
0.0
 10
36.64517844311266
 20
-3.156609644273013
 30
0.0
 10
36.46455029605615
 20
-3.06705423233101
 30
0.0
 10
36.37107802042492
 20
-3.009379129186273
 30
0.0
 10
36.29248445333453
 20
-2.94915735204032
 30
0.0
  0
SPLINE
  5
C6
330
1F
100
AcDbEntity
  8
0
  6
Continuous
 62
     1
370
    15
100
AcDbSpline
210
0.0
220
0.0
230
1.0
 70
     8
 71
     3
 72
    12
 73
     8
 74
     0
 42
0.000000001
 43
0.00000001
 40
0.0
 40
0.0
 40
0.0
 40
0.0
 40
0.5
 40
0.5
 40
0.75
 40
0.75
 40
1.0
 40
1.0
 40
1.0
 40
1.0
 10
36.29248445333452
 20
-2.949157352040308
 30
0.0
 10
36.25847950927675
 20
-2.340890472840795
 30
0.0
 10
36.22170668144823
 20
-1.66124661653962
 30
0.0
 10
36.16676313643372
 20
-0.6141374843980928
 30
0.0
 10
36.14850337627781
 20
-0.2609005236174743
 30
0.0
 10
36.1128609005529
 20
0.4388460349246855
 30
0.0
 10
36.09591607639315
 20
0.7824684775202229
 30
0.0
 10
36.07857676073674
 20
1.123385064655752
 30
0.0
  0
SPLINE
  5
C7
330
1F
100
AcDbEntity
  8
0
  6
Continuous
 62
     1
370
    15
100
AcDbSpline
210
0.0
220
0.0
230
1.0
 70
     8
 71
     3
 72
    10
 73
     6
 74
     0
 42
0.000000001
 43
0.00000001
 40
0.0
 40
0.0
 40
0.0
 40
0.0
 40
0.5000000000000001
 40
0.5000000000000001
 40
1.0
 40
1.0
 40
1.0
 40
1.0
 10
36.07857676073674
 20
1.123385064655755
 30
0.0
 10
36.1522225001646
 20
1.084604185671244
 30
0.0
 10
36.24038340413109
 20
1.035925706379103
 30
0.0
 10
36.42100949542154
 20
0.9336142192636231
 30
0.0
 10
36.51446432434265
 20
0.879453860478681
 30
0.0
 10
36.59304273989036
 20
0.8358803860486768
 30
0.0
  0
SPLINE
  5
C8
330
1F
100
AcDbEntity
  8
0
  6
Continuous
 62
     1
370
    15
100
AcDbSpline
210
0.0
220
0.0
230
1.0
 70
     8
 71
     3
 72
    12
 73
     8
 74
     0
 42
0.000000001
 43
0.00000001
 40
0.0
 40
0.0
 40
0.0
 40
0.0
 40
0.2499999999999999
 40
0.2499999999999999
 40
0.5
 40
0.5
 40
1.0
 40
1.0
 40
1.0
 40
1.0
 10
36.8069680463811
 20
-3.203087855713084
 30
0.0
 10
36.78960844402668
 20
-2.90481695716781
 30
0.0
 10
36.7726927314821
 20
-2.594460778092726
 30
0.0
 10
36.73708021999597
 20
-1.941916972937684
 30
0.0
 10
36.71882920569911
 20
-1.60224999559783
 30
0.0
 10
36.66389136375685
 20
-0.5640245313155644
 30
0.0
 10
36.62707735787307
 20
0.1530843505479315
 30
0.0
 10
36.59304273989036
 20
0.8358803860485882
 30
0.0
  0
SPLINE
  5
C9
330
1F
100
AcDbEntity
  8
0
  6
Continuous
 62
     1
370
    15
100
AcDbSpline
210
0.0
220
0.0
230
1.0
 70
     8
 71
     3
 72
    10
 73
     6
 74
     0
 42
0.000000001
 43
0.00000001
 40
0.0
 40
0.0
 40
0.0
 40
0.0
 40
0.5
 40
0.5
 40
1.0
 40
1.0
 40
1.0
 40
1.0
 10
12.77903686440863
 20
-2.707460040060603
 30
0.0
 10
12.70534254367519
 20
-2.686824693670075
 30
0.0
 10
12.617127523594
 20
-2.649661353646685
 30
0.0
 10
12.43643573505314
 20
-2.555510611245849
 30
0.0
 10
12.34297384320428
 20
-2.497937450949993
 30
0.0
 10
12.26435527712622
 20
-2.441195983117927
 30
0.0
  0
SPLINE
  5
CA
330
1F
100
AcDbEntity
  8
0
  6
Continuous
 62
     1
370
    15
100
AcDbSpline
210
0.0
220
0.0
230
1.0
 70
     8
 71
     3
 72
    12
 73
     8
 74
     0
 42
0.000000001
 43
0.00000001
 40
0.0
 40
0.0
 40
0.0
 40
0.0
 40
0.5
 40
0.5
 40
0.75
 40
0.75
 40
1.0
 40
1.0
 40
1.0
 40
1.0
 10
12.26435527712622
 20
-2.441195983117914
 30
0.0
 10
12.22909996201367
 20
-1.798887091790731
 30
0.0
 10
12.19179073761081
 20
-1.097746969596018
 30
0.0
 10
12.13739150544966
 20
-0.0442495891962625
 30
0.0
 10
12.1195263278245
 20
0.3069644673152214
 30
0.0
 10
12.08504525714048
 20
0.9949468648857972
 30
0.0
 10
12.06796120477882
 20
1.334900758551179
 30
0.0
 10
12.05008902722401
 20
1.671928763962944
 30
0.0
  0
SPLINE
  5
CB
330
1F
100
AcDbEntity
  8
0
  6
Continuous
 62
     1
370
    15
100
AcDbSpline
210
0.0
220
0.0
230
1.0
 70
     8
 71
     3
 72
    10
 73
     6
 74
     0
 42
0.000000001
 43
0.00000001
 40
0.0
 40
0.0
 40
0.0
 40
0.0
 40
0.5
 40
0.5
 40
1.0
 40
1.0
 40
1.0
 40
1.0
 10
12.05008902722401
 20
1.67192876396289
 30
0.0
 10
12.12378511368901
 20
1.638938299491912
 30
0.0
 10
12.21197909701095
 20
1.593679519192621
 30
0.0
 10
12.39270947407225
 20
1.493102424983658
 30
0.0
 10
12.48625525686438
 20
1.437219323260565
 30
0.0
 10
12.56494858859174
 20
1.3886577982225
 30
0.0
  0
SPLINE
  5
CC
330
1F
100
AcDbEntity
  8
0
  6
Continuous
 62
     1
370
    15
100
AcDbSpline
210
0.0
220
0.0
230
1.0
 70
     8
 71
     3
 72
    12
 73
     8
 74
     0
 42
0.000000001
 43
0.00000001
 40
0.0
 40
0.0
 40
0.0
 40
0.0
 40
0.5
 40
0.5
 40
0.75
 40
0.75
 40
1.0
 40
1.0
 40
1.0
 40
1.0
 10
12.77903686440863
 20
-2.707460040060603
 30
0.0
 10
12.74439116812741
 20
-2.082033646237891
 30
0.0
 10
12.70729311091589
 20
-1.390909669883162
 30
0.0
 10
12.65253026641449
 20
-0.3391226981350708
 30
0.0
 10
12.63443447906987
 20
0.0136686766274118
 30
0.0
 10
12.59930482042898
 20
0.7087253467168929
 30
0.0
 10
12.58256901836312
 20
1.049099346502737
 30
0.0
 10
12.56494858859173
 20
1.38865779822255
 30
0.0
  0
SPLINE
  5
CD
330
1F
100
AcDbEntity
  8
0
  6
Continuous
 62
     1
370
    15
100
AcDbSpline
210
0.0
220
0.0
230
1.0
 70
     8
 71
     3
 72
     8
 73
     4
 74
     0
 42
0.000000001
 43
0.00000001
 40
0.0
 40
0.0
 40
0.0
 40
0.0
 40
1.0
 40
1.0
 40
1.0
 40
1.0
 10
13.80508991321986
 20
-3.220220450416872
 30
0.0
 10
13.73151311764501
 20
-3.206872878621002
 30
0.0
 10
13.64211819325901
 20
-3.17439600530056
 30
0.0
 10
13.550072102056
 20
-3.128795652626598
 30
0.0
  0
SPLINE
  5
CE
330
1F
100
AcDbEntity
  8
0
  6
Continuous
 62
     1
370
    15
100
AcDbSpline
210
0.0
220
0.0
230
1.0
 70
     8
 71
     3
 72
    14
 73
    10
 74
     0
 42
0.000000001
 43
0.00000001
 40
0.0
 40
0.0
 40
0.0
 40
0.0
 40
0.2499999999999998
 40
0.2499999999999998
 40
0.4999999999999999
 40
0.4999999999999999
 40
0.7499999999999999
 40
0.7499999999999999
 40
1.0
 40
1.0
 40
1.0
 40
1.0
 10
13.550072102055
 20
-3.128795652626108
 30
0.0
 10
13.53298151397121
 20
-2.825040583879887
 30
0.0
 10
13.51589116456054
 20
-2.507174000188291
 30
0.0
 10
13.48028753259548
 20
-1.842471841762953
 30
0.0
 10
13.46209257455075
 20
-1.497523915335022
 30
0.0
 10
13.42567657646846
 20
-0.796614150211006
 30
0.0
 10
13.40745917965322
 20
-0.4407223154714049
 30
0.0
 10
13.37176889075055
 20
0.2668160959091362
 30
0.0
 10
13.35451797288061
 20
0.6169410299913454
 30
0.0
 10
13.33749974180094
 20
0.9610431480923312
 30
0.0
  0
SPLINE
  5
CF
330
1F
100
AcDbEntity
  8
0
  6
Continuous
 62
     1
370
    15
100
AcDbSpline
210
0.0
220
0.0
230
1.0
 70
     8
 71
     3
 72
     8
 73
     4
 74
     0
 42
0.000000001
 43
0.00000001
 40
0.0
 40
0.0
 40
0.0
 40
0.0
 40
1.0
 40
1.0
 40
1.0
 40
1.0
 10
13.33749974180196
 20
0.9610431480917596
 30
0.0
 10
13.42607524326645
 20
0.9107344392180506
 30
0.0
 10
13.51577316274334
 20
0.8587969233017945
 30
0.0
 10
13.5911849322818
 20
0.8171133609147397
 30
0.0
  0
SPLINE
  5
D0
330
1F
100
AcDbEntity
  8
0
  6
Continuous
 62
     1
370
    15
100
AcDbSpline
210
0.0
220
0.0
230
1.0
 70
     8
 71
     3
 72
    12
 73
     8
 74
     0
 42
0.000000001
 43
0.00000001
 40
0.0
 40
0.0
 40
0.0
 40
0.0
 40
0.2500000000000001
 40
0.2500000000000001
 40
0.5
 40
0.5
 40
1.0
 40
1.0
 40
1.0
 40
1.0
 10
13.80508991322021
 20
-3.220220450416705
 30
0.0
 10
13.78771260750924
 20
-2.922308084792831
 30
0.0
 10
13.77082820687006
 20
-2.612511668259544
 30
0.0
 10
13.73525449719407
 20
-1.960817511428079
 30
0.0
 10
13.71701649226541
 20
-1.621460074182864
 30
0.0
 10
13.66209586736562
 20
-0.5837521546204419
 30
0.0
 10
13.62526325769583
 20
0.1335799993145263
 30
0.0
 10
13.59118493228216
 20
0.8171133609144373
 30
0.0
  0
SPLINE
  5
D1
330
1F
100
AcDbEntity
  8
0
  6
Continuous
 62
     1
370
    15
100
AcDbSpline
210
0.0
220
0.0
230
1.0
 70
     8
 71
     3
 72
     8
 73
     4
 74
     0
 42
0.000000001
 43
0.00000001
 40
0.0
 40
0.0
 40
0.0
 40
0.0
 40
1.0
 40
1.0
 40
1.0
 40
1.0
 10
13.550072102055
 20
-3.128795652626101
 30
0.0
 10
13.46150153676737
 20
-3.084001831641888
 30
0.0
 10
13.37179227971924
 20
-3.027811855476476
 30
0.0
 10
13.29637074408691
 20
-2.969477909919976
 30
0.0
  0
SPLINE
  5
D2
330
1F
100
AcDbEntity
  8
0
  6
Continuous
 62
     1
370
    15
100
AcDbSpline
210
0.0
220
0.0
230
1.0
 70
     8
 71
     3
 72
    12
 73
     8
 74
     0
 42
0.000000001
 43
0.00000001
 40
0.0
 40
0.0
 40
0.0
 40
0.0
 40
0.4999999999999999
 40
0.4999999999999999
 40
0.7499999999999999
 40
0.7499999999999999
 40
1.0
 40
1.0
 40
1.0
 40
1.0
 10
13.29637074408691
 20
-2.969477909919966
 30
0.0
 10
13.26231329510434
 20
-2.361874848363226
 30
0.0
 10
13.22568924485812
 20
-1.683771851743673
 30
0.0
 10
13.17074697521955
 20
-0.6369742520163217
 30
0.0
 10
13.15247906356121
 20
-0.2836769111141416
 30
0.0
 10
13.11680430316523
 20
0.4165097681772836
 30
0.0
 10
13.0998218077518
 20
0.7605944774272276
 30
0.0
 10
13.0825107988224
 20
1.101647563295399
 30
0.0
  0
SPLINE
  5
D3
330
1F
100
AcDbEntity
  8
0
  6
Continuous
 62
     1
370
    15
100
AcDbSpline
210
0.0
220
0.0
230
1.0
 70
     8
 71
     3
 72
     8
 73
     4
 74
     0
 42
0.000000001
 43
0.00000001
 40
0.0
 40
0.0
 40
0.0
 40
0.0
 40
1.0
 40
1.0
 40
1.0
 40
1.0
 10
13.08251079882241
 20
1.10164756329535
 30
0.0
 10
13.15608139601536
 20
1.062719773802616
 30
0.0
 10
13.24547249010213
 20
1.0132455419343
 30
0.0
 10
13.33749974180095
 20
0.9610431480923223
 30
0.0
  0
SPLINE
  5
D4
330
1F
100
AcDbEntity
  8
0
  6
Continuous
 62
     4
370
    15
100
AcDbSpline
210
0.0
220
0.0
230
1.0
 70
     8
 71
     3
 72
     8
 73
     4
 74
     0
 42
0.000000001
 43
0.00000001
 40
0.0
 40
0.0
 40
0.0
 40
0.0
 40
0.0000201722732124
 40
0.0000201722732124
 40
0.0000201722732124
 40
0.0000201722732124
 10
11.49005070016636
 20
-2.047739312323218
 30
0.0
 10
11.49000580957818
 20
-2.049033715082901
 30
0.0
 10
11.48996161146814
 20
-2.050338897903487
 30
0.0
 10
11.48991809969221
 20
-2.051654851260631
 30
0.0
  0
LINE
  5
D9
330
1F
100
AcDbEntity
  8
0
  6
Continuous
 62
     4
370
    15
100
AcDbLine
 10
9.956618255969428
 20
5.570028269252441
 30
0.0
 11
9.956618255969428
 21
3.210783161825201
 31
0.0
  0
SPLINE
  5
DA
330
1F
100
AcDbEntity
  8
0
  6
Continuous
 62
     4
370
    15
100
AcDbSpline
210
0.0
220
0.0
230
1.0
 70
     8
 71
     3
 72
    10
 73
     6
 74
     0
 42
0.000000001
 43
0.00000001
 40
0.0
 40
0.0
 40
0.0
 40
0.0
 40
0.5
 40
0.5
 40
1.0
 40
1.0
 40
1.0
 40
1.0
 10
10.34002367173967
 20
2.613701670673889
 30
0.0
 10
10.22175753467319
 20
2.67580836721547
 30
0.0
 10
10.12429486255496
 20
2.765804690163401
 30
0.0
 10
9.991662116209076
 20
2.974576411628945
 30
0.0
 10
9.95661826560487
 20
3.093269696051404
 30
0.0
 10
9.956618265604865
 20
3.210783209668207
 30
0.0
  0
SPLINE
  5
DB
330
1F
100
AcDbEntity
  8
0
  6
Continuous
 62
     4
370
    15
100
AcDbSpline
210
0.0
220
0.0
230
1.0
 70
     8
 71
     3
 72
     8
 73
     4
 74
     0
 42
0.000000001
 43
0.00000001
 40
0.0
 40
0.0
 40
0.0
 40
0.0
 40
1.0
 40
1.0
 40
1.0
 40
1.0
 10
11.27721175635583
 20
2.113080253777419
 30
0.0
 10
10.96493975399846
 20
2.28270583090932
 30
0.0
 10
10.65197848714137
 20
2.4498806181274
 30
0.0
 10
10.34002367173967
 20
2.613701670673889
 30
0.0
  0
SPLINE
  5
DC
330
1F
100
AcDbEntity
  8
0
  6
Continuous
 62
     4
370
    15
100
AcDbSpline
210
0.0
220
0.0
230
1.0
 70
     8
 71
     3
 72
     8
 73
     4
 74
     0
 42
0.000000001
 43
0.00000001
 40
0.0
 40
0.0
 40
0.0
 40
0.0
 40
1.0
 40
1.0
 40
1.0
 40
1.0
 10
11.48991809969221
 20
-2.051654851260625
 30
0.0
 10
11.35905820436347
 20
-1.980109148506829
 30
0.0
 10
11.22800932745224
 20
-1.908097366533209
 30
0.0
 10
11.09689644457046
 20
-1.835687479960463
 30
0.0
  0
SPLINE
  5
DD
330
1F
100
AcDbEntity
  8
0
  6
Continuous
 62
     4
370
    15
100
AcDbSpline
210
0.0
220
0.0
230
1.0
 70
     8
 71
     3
 72
    14
 73
    10
 74
     0
 42
0.000000001
 43
0.00000001
 40
0.0
 40
0.0
 40
0.0
 40
0.0
 40
0.25
 40
0.25
 40
0.5
 40
0.5
 40
0.75
 40
0.75
 40
1.0
 40
1.0
 40
1.0
 40
1.0
 10
9.956618265604865
 20
-2.469839353631975
 30
0.0
 10
9.956618265604865
 20
-2.345411402670284
 30
0.0
 10
9.990700161366012
 20
-2.220927948663688
 30
0.0
 10
10.12002660089937
 20
-2.001587420081697
 30
0.0
 10
10.21577202745969
 20
-1.906565718614011
 30
0.0
 10
10.44714018391374
 20
-1.774775442960334
 30
0.0
 10
10.5798974364276
 20
-1.739446166889433
 30
0.0
 10
10.84621349434461
 20
-1.737563799648863
 30
0.0
 10
10.97995972391624
 20
-1.771106681394732
 30
0.0
 10
11.09689644457046
 20
-1.835687479960464
 30
0.0
  0
LINE
  5
DE
330
1F
100
AcDbEntity
  8
0
  6
Continuous
 62
     4
370
    15
100
AcDbLine
 10
9.956618255969428
 20
-2.469839371138551
 30
0.0
 11
9.956618255969428
 21
-5.60597173074756
 31
0.0
  0
LINE
  5
E2
330
1F
100
AcDbEntity
  8
0
  6
Continuous
 62
     4
370
    15
100
AcDbLine
 10
11.96841110665008
 20
-6.160266773172953
 30
0.0
 11
11.96476206838741
 21
-6.180030369528868
 31
0.0
  0
LINE
  5
E3
330
1F
100
AcDbEntity
  8
0
  6
Continuous
 62
     4
370
    15
100
AcDbLine
 10
-44.6632232043554
 20
6.332028115770481
 30
0.0
 11
-44.6632232043554
 21
-6.367971730747559
 31
0.0
  0
SPLINE
  5
E4
330
1F
100
AcDbEntity
  8
0
  6
Continuous
 62
     1
370
    15
100
AcDbSpline
210
0.0
220
0.0
230
1.0
 70
     8
 71
     3
 72
     8
 73
     4
 74
     0
 42
0.000000001
 43
0.00000001
 40
0.0
 40
0.0
 40
0.0
 40
0.0
 40
1.0
 40
1.0
 40
1.0
 40
1.0
 10
35.77510131553466
 20
-2.688081529728086
 30
0.0
 10
35.70149507056763
 20
-2.667521780260248
 30
0.0
 10
35.61206873180524
 20
-2.629899540663652
 30
0.0
 10
35.52003271298619
 20
-2.581815330251106
 30
0.0
  0
SPLINE
  5
E5
330
1F
100
AcDbEntity
  8
0
  6
Continuous
 62
     1
370
    15
100
AcDbSpline
210
0.0
220
0.0
230
1.0
 70
     8
 71
     3
 72
    12
 73
     8
 74
     0
 42
0.000000001
 43
0.00000001
 40
0.0
 40
0.0
 40
0.0
 40
0.0
 40
0.4999999999999998
 40
0.4999999999999998
 40
0.7499999999999999
 40
0.7499999999999999
 40
1.0
 40
1.0
 40
1.0
 40
1.0
 10
35.52003271298514
 20
-2.581815330250566
 30
0.0
 10
35.48521761084587
 20
-1.940399230161981
 30
0.0
 10
35.44822016702228
 20
-1.237319786991467
 30
0.0
 10
35.39398332526751
 20
-0.1752161708176619
 30
0.0
 10
35.3761228170404
 20
0.1797895088637577
 30
0.0
 10
35.34155339610081
 20
0.8770762763390957
 30
0.0
 10
35.3248072569578
 20
1.219707657078296
 30
0.0
 10
35.30715851218184
 20
1.560936889084677
 30
0.0
  0
SPLINE
  5
E6
330
1F
100
AcDbEntity
  8
0
  6
Continuous
 62
     1
370
    15
100
AcDbSpline
210
0.0
220
0.0
230
1.0
 70
     8
 71
     3
 72
     8
 73
     4
 74
     0
 42
0.000000001
 43
0.00000001
 40
0.0
 40
0.0
 40
0.0
 40
0.0
 40
1.0
 40
1.0
 40
1.0
 40
1.0
 10
35.30715851218287
 20
1.560936889084127
 30
0.0
 10
35.39576129678754
 20
1.511319727119165
 30
0.0
 10
35.48553121480114
 20
1.457395709327557
 30
0.0
 10
35.56103331900358
 20
1.410484917137879
 30
0.0
  0
SPLINE
  5
E7
330
1F
100
AcDbEntity
  8
0
  6
Continuous
 62
     1
370
    15
100
AcDbSpline
210
0.0
220
0.0
230
1.0
 70
     8
 71
     3
 72
    12
 73
     8
 74
     0
 42
0.000000001
 43
0.00000001
 40
0.0
 40
0.0
 40
0.0
 40
0.0
 40
0.5
 40
0.5
 40
0.75
 40
0.75
 40
1.0
 40
1.0
 40
1.0
 40
1.0
 10
35.77510131553509
 20
-2.688081529727932
 30
0.0
 10
35.74041052293607
 20
-2.061161587050201
 30
0.0
 10
35.70329814910009
 20
-1.36905309287667
 30
0.0
 10
35.64856583626079
 20
-0.316805131968002
 30
0.0
 10
35.6304885876576
 20
0.0359759930435105
 30
0.0
 10
35.59541023230505
 20
0.7307094082713314
 30
0.0
 10
35.57867155889753
 20
1.071009858841194
 30
0.0
 10
35.56103331900366
 20
1.410484917137836
 30
0.0
  0
SPLINE
  5
E8
330
1F
100
AcDbEntity
  8
0
  6
Continuous
 62
     1
370
    15
100
AcDbSpline
210
0.0
220
0.0
230
1.0
 70
     8
 71
     3
 72
     8
 73
     4
 74
     0
 42
0.000000001
 43
0.00000001
 40
0.0
 40
0.0
 40
0.0
 40
0.0
 40
1.0
 40
1.0
 40
1.0
 40
1.0
 10
35.52003271298515
 20
-2.581815330250564
 30
0.0
 10
35.43140490413697
 20
-2.534818836249316
 30
0.0
 10
35.34166212182307
 20
-2.478924589550252
 30
0.0
 10
35.26618629599535
 20
-2.424254108855632
 30
0.0
  0
SPLINE
  5
E9
330
1F
100
AcDbEntity
  8
0
  6
Continuous
 62
     1
370
    15
100
AcDbSpline
210
0.0
220
0.0
230
1.0
 70
     8
 71
     3
 72
    12
 73
     8
 74
     0
 42
0.000000001
 43
0.00000001
 40
0.0
 40
0.0
 40
0.0
 40
0.0
 40
0.5000000000000001
 40
0.5000000000000001
 40
0.7500000000000002
 40
0.7500000000000002
 40
1.0
 40
1.0
 40
1.0
 40
1.0
 10
35.26618629599504
 20
-2.424254108855402
 30
0.0
 10
35.23090015810087
 20
-1.780764964478966
 30
0.0
 10
35.19358788024628
 20
-1.078915312380727
 30
0.0
 10
35.13922715774017
 20
-0.0252149429274953
 30
0.0
 10
35.1213817263208
 20
0.325928166664805
 30
0.0
 10
35.08695134618235
 20
1.013522634602522
 30
0.0
 10
35.06982759990362
 20
1.35362353156772
 30
0.0
 10
35.05194414872989
 20
1.69051959480311
 30
0.0
  0
SPLINE
  5
EA
330
1F
100
AcDbEntity
  8
0
  6
Continuous
 62
     1
370
    15
100
AcDbSpline
210
0.0
220
0.0
230
1.0
 70
     8
 71
     3
 72
     8
 73
     4
 74
     0
 42
0.000000001
 43
0.00000001
 40
0.0
 40
0.0
 40
0.0
 40
0.0
 40
1.0
 40
1.0
 40
1.0
 40
1.0
 10
35.05194414873015
 20
1.690519594803147
 30
0.0
 10
35.12560066496724
 20
1.657911929388462
 30
0.0
 10
35.21504470160102
 20
1.612208871723876
 30
0.0
 10
35.30715851218184
 20
1.560936889084703
 30
0.0
  0
SPLINE
  5
EB
330
1F
100
AcDbEntity
  8
0
  6
Continuous
 62
     1
370
    15
100
AcDbSpline
210
0.0
220
0.0
230
1.0
 70
     8
 71
     3
 72
    10
 73
     6
 74
     0
 42
0.000000001
 43
0.00000001
 40
0.0
 40
0.0
 40
0.0
 40
0.0
 40
0.5
 40
0.5
 40
1.0
 40
1.0
 40
1.0
 40
1.0
 10
34.7484224584988
 20
-2.149517936668977
 30
0.0
 10
34.67470784262186
 20
-2.121806949434478
 30
0.0
 10
34.58648014784393
 20
-2.079947147776675
 30
0.0
 10
34.40570022478986
 20
-1.981912141222046
 30
0.0
 10
34.31214637962068
 20
-1.925160420120352
 30
0.0
 10
34.23345061984261
 20
-1.872924448799071
 30
0.0
  0
SPLINE
  5
EC
330
1F
100
AcDbEntity
  8
0
  6
Continuous
 62
     1
370
    15
100
AcDbSpline
210
0.0
220
0.0
230
1.0
 70
     8
 71
     3
 72
    12
 73
     8
 74
     0
 42
0.000000001
 43
0.00000001
 40
0.0
 40
0.0
 40
0.0
 40
0.0
 40
0.5
 40
0.5
 40
0.75
 40
0.75
 40
1.0
 40
1.0
 40
1.0
 40
1.0
 10
34.23345061984259
 20
-1.872924448799061
 30
0.0
 10
34.19729456294979
 20
-1.202080998510667
 30
0.0
 10
34.15996957973221
 20
-0.4881806762722372
 30
0.0
 10
34.10688116837274
 20
0.5576348035195946
 30
0.0
 10
34.09010796146897
 20
0.8991454302138643
 30
0.0
 10
34.05520847831247
 20
1.579342875326624
 30
0.0
 10
34.03719683004915
 20
1.917179902883966
 30
0.0
 10
34.01899008460263
 20
2.245327059355951
 30
0.0
  0
SPLINE
  5
ED
330
1F
100
AcDbEntity
  8
0
  6
Continuous
 62
     1
370
    15
100
AcDbSpline
210
0.0
220
0.0
230
1.0
 70
     8
 71
     3
 72
    10
 73
     6
 74
     0
 42
0.000000001
 43
0.00000001
 40
0.0
 40
0.0
 40
0.0
 40
0.0
 40
0.5
 40
0.5
 40
1.0
 40
1.0
 40
1.0
 40
1.0
 10
34.01899008460269
 20
2.245327059355009
 30
0.0
 10
34.0927463929568
 20
2.219305359053623
 30
0.0
 10
34.18101441901716
 20
2.178564619353989
 30
0.0
 10
34.36182407304572
 20
2.081419302706987
 30
0.0
 10
34.45536105541105
 20
2.024436348085198
 30
0.0
 10
34.53403925559347
 20
1.971089554688011
 30
0.0
  0
SPLINE
  5
EE
330
1F
100
AcDbEntity
  8
0
  6
Continuous
 62
     1
370
    15
100
AcDbSpline
210
0.0
220
0.0
230
1.0
 70
     8
 71
     3
 72
    12
 73
     8
 74
     0
 42
0.000000001
 43
0.00000001
 40
0.0
 40
0.0
 40
0.0
 40
0.0
 40
0.5
 40
0.5
 40
0.75
 40
0.75
 40
1.0
 40
1.0
 40
1.0
 40
1.0
 10
34.74842245849879
 20
-2.149517936668941
 30
0.0
 10
34.71264065917885
 20
-1.491353971221395
 30
0.0
 10
34.67525498558921
 20
-0.7823001961084137
 30
0.0
 10
34.62144654307348
 20
0.2690079528665724
 30
0.0
 10
34.60412983152763
 20
0.6156691756317282
 30
0.0
 10
34.5698888728144
 20
1.297416668301492
 30
0.0
 10
34.55211530517148
 20
1.638071965676153
 30
0.0
 10
34.53403925559346
 20
1.971089554688185
 30
0.0
  0
SPLINE
  5
EF
330
1F
100
AcDbEntity
  8
0
  6
Continuous
 62
     1
370
    15
100
AcDbSpline
210
0.0
220
0.0
230
1.0
 70
     8
 71
     3
 72
     9
 73
     5
 74
     0
 42
0.000000001
 43
0.00000001
 40
0.0
 40
0.0
 40
0.0
 40
0.0
 40
0.2992292604261273
 40
1.0
 40
1.0
 40
1.0
 40
1.0
 10
36.20671557452186
 20
-2.891562722021082
 30
0.0
 10
36.12508916966922
 20
-2.912566923325345
 30
0.0
 10
35.85230032296218
 20
-2.98276126619927
 30
0.0
 10
35.54598831443158
 20
-3.121573488694883
 30
0.0
 10
35.33133382167323
 20
-3.218849032515028
 30
0.0
  0
SPLINE
  5
F0
330
1F
100
AcDbEntity
  8
0
  6
Continuous
 62
     1
370
    15
100
AcDbSpline
210
0.0
220
0.0
230
1.0
 70
     8
 71
     3
 72
     8
 73
     4
 74
     0
 42
0.000000001
 43
0.00000001
 40
0.0
 40
0.0
 40
0.0
 40
0.0
 40
1.0
 40
1.0
 40
1.0
 40
1.0
 10
37.38677592541679
 20
-3.730233715737691
 30
0.0
 10
36.68422552049154
 20
-3.622599168301233
 30
0.0
 10
35.99966541643477
 20
-3.450018608531972
 30
0.0
 10
35.33133470785587
 20
-3.218849005334936
 30
0.0
  0
LINE
  5
F1
330
1F
100
AcDbEntity
  8
0
  6
Continuous
 62
     1
370
    15
100
AcDbLine
 10
37.38677578236564
 20
-5.28600726402674
 30
0.0
 11
37.38677578236564
 21
-3.730233601623514
 31
0.0
  0
SPLINE
  5
F2
330
1F
100
AcDbEntity
  8
0
  6
Continuous
 62
     1
370
    15
100
AcDbSpline
210
0.0
220
0.0
230
1.0
 70
     8
 71
     3
 72
     8
 73
     4
 74
     0
 42
0.000000001
 43
0.00000001
 40
0.0
 40
0.0
 40
0.0
 40
0.0
 40
1.0
 40
1.0
 40
1.0
 40
1.0
 10
36.91507055911516
 20
-5.788329638287568
 30
0.0
 10
37.07043944736079
 20
-5.618527018939647
 30
0.0
 10
37.22746304547512
 20
-5.450874116080925
 30
0.0
 10
37.38677592541679
 20
-5.286007397511806
 30
0.0
  0
SPLINE
  5
F3
330
1F
100
AcDbEntity
  8
0
  6
Continuous
 62
     1
370
    15
100
AcDbSpline
210
0.0
220
0.0
230
1.0
 70
     8
 71
     3
 72
     8
 73
     4
 74
     0
 42
0.000000001
 43
0.00000001
 40
0.0
 40
0.0
 40
0.0
 40
0.0
 40
1.0
 40
1.0
 40
1.0
 40
1.0
 10
36.76425914088264
 20
-5.75885413103498
 30
0.0
 10
36.81007087642188
 20
-5.779240295541909
 30
0.0
 10
36.86048639152609
 20
-5.788753695723649
 30
0.0
 10
36.91507055911509
 20
-5.788329638287514
 30
0.0
  0
SPLINE
  5
F4
330
1F
100
AcDbEntity
  8
0
  6
Continuous
 62
     1
370
    15
100
AcDbSpline
210
0.0
220
0.0
230
1.0
 70
     8
 71
     3
 72
    10
 73
     6
 74
     0
 42
0.000000001
 43
0.00000001
 40
0.0
 40
0.0
 40
0.0
 40
0.0
 40
0.5
 40
0.5
 40
1.0
 40
1.0
 40
1.0
 40
1.0
 10
36.24634489446699
 20
-5.869195153273331
 30
0.0
 10
36.32452295411223
 20
-5.798571731782825
 30
0.0
 10
36.41807792046551
 20
-5.755202058010449
 30
0.0
 10
36.60225800698771
 20
-5.718961225563817
 30
0.0
 10
36.69058907940229
 20
-5.726071046637564
 30
0.0
 10
36.76425914088274
 20
-5.758854131035021
 30
0.0
  0
SPLINE
  5
F5
330
1F
100
AcDbEntity
  8
0
  6
Continuous
 62
     1
370
    15
100
AcDbSpline
210
0.0
220
0.0
230
1.0
 70
     8
 71
     3
 72
     8
 73
     4
 74
     0
 42
0.000000001
 43
0.00000001
 40
0.0
 40
0.0
 40
0.0
 40
0.0
 40
1.0
 40
1.0
 40
1.0
 40
1.0
 10
35.99240501945133
 20
-5.998598307282961
 30
0.0
 10
36.08105225568244
 20
-5.980818497596914
 30
0.0
 10
36.17084019391241
 20
-5.937403552355754
 30
0.0
 10
36.24634489446668
 20
-5.869195153273605
 30
0.0
  0
SPLINE
  5
F6
330
1F
100
AcDbEntity
  8
0
  6
Continuous
 62
     1
370
    15
100
AcDbSpline
210
0.0
220
0.0
230
1.0
 70
     8
 71
     3
 72
     8
 73
     4
 74
     0
 42
0.000000001
 43
0.00000001
 40
0.0
 40
0.0
 40
0.0
 40
0.0
 40
1.0
 40
1.0
 40
1.0
 40
1.0
 10
35.73718898718228
 20
-5.963131672778399
 30
0.0
 10
35.81083258230117
 20
-6.003107136546184
 30
0.0
 10
35.90029837462788
 20
-6.014805163920741
 30
0.0
 10
35.99240501945042
 20
-5.998598307283137
 30
0.0
  0
SPLINE
  5
F7
330
1F
100
AcDbEntity
  8
0
  6
Continuous
 62
     1
370
    15
100
AcDbSpline
210
0.0
220
0.0
230
1.0
 70
     8
 71
     3
 72
    10
 73
     6
 74
     0
 42
0.000000001
 43
0.00000001
 40
0.0
 40
0.0
 40
0.0
 40
0.0
 40
0.5
 40
0.5
 40
1.0
 40
1.0
 40
1.0
 40
1.0
 10
35.21943642194379
 20
-6.043684035202958
 30
0.0
 10
35.29806843840181
 20
-5.975038110502549
 30
0.0
 10
35.3917345888654
 20
-5.935671269731685
 30
0.0
 10
35.575745415486
 20
-5.909909446206644
 30
0.0
 10
35.66392765342988
 20
-5.923363709409761
 30
0.0
 10
35.73718898718219
 20
-5.963131672778266
 30
0.0
  0
SPLINE
  5
F8
330
1F
100
AcDbEntity
  8
0
  6
Continuous
 62
     1
370
    15
100
AcDbSpline
210
0.0
220
0.0
230
1.0
 70
     8
 71
     3
 72
    10
 73
     6
 74
     0
 42
0.000000001
 43
0.00000001
 40
0.0
 40
0.0
 40
0.0
 40
0.0
 40
0.5
 40
0.5
 40
1.0
 40
1.0
 40
1.0
 40
1.0
 10
34.70473302739123
 20
-6.11266683219992
 30
0.0
 10
34.77844206741137
 20
-6.157679813347862
 30
0.0
 10
34.86666199650288
 20
-6.174123831851235
 30
0.0
 10
35.04733802614788
 20
-6.151691175332939
 30
0.0
 10
35.14078203510991
 20
-6.112349489291075
 30
0.0
 10
35.21943642194383
 20
-6.043684035202919
 30
0.0
  0
SPLINE
  5
F9
330
1F
100
AcDbEntity
  8
0
  6
Continuous
 62
     1
370
    15
100
AcDbSpline
210
0.0
220
0.0
230
1.0
 70
     8
 71
     3
 72
    10
 73
     6
 74
     0
 42
0.000000001
 43
0.00000001
 40
0.0
 40
0.0
 40
0.0
 40
0.0
 40
0.5
 40
0.5
 40
1.0
 40
1.0
 40
1.0
 40
1.0
 10
34.18739424284411
 20
-6.170530224359693
 30
0.0
 10
34.26548268348734
 20
-6.103272042664287
 30
0.0
 10
34.35894701113089
 20
-6.066927038522586
 30
0.0
 10
34.54294865831704
 20
-6.049304899237672
 30
0.0
 10
34.63116969192347
 20
-6.067742830589181
 30
0.0
 10
34.70473302739123
 20
-6.112666832199926
 30
0.0
  0
SPLINE
  5
FA
330
1F
100
AcDbEntity
  8
0
  6
Continuous
 62
     1
370
    15
100
AcDbSpline
210
0.0
220
0.0
230
1.0
 70
     8
 71
     3
 72
     8
 73
     4
 74
     0
 42
0.000000001
 43
0.00000001
 40
0.0
 40
0.0
 40
0.0
 40
0.0
 40
1.0
 40
1.0
 40
1.0
 40
1.0
 10
33.93368794771856
 20
-6.280098583488151
 30
0.0
 10
34.02226805578626
 20
-6.271493279751329
 30
0.0
 10
34.11197593934693
 20
-6.235488596149137
 30
0.0
 10
34.18739424284374
 20
-6.17053022436
 30
0.0
  0
SPLINE
  5
FB
330
1F
100
AcDbEntity
  8
0
  6
Continuous
 62
     1
370
    15
100
AcDbSpline
210
0.0
220
0.0
230
1.0
 70
     8
 71
     3
 72
     8
 73
     4
 74
     0
 42
0.000000001
 43
0.00000001
 40
0.0
 40
0.0
 40
0.0
 40
0.0
 40
1.0
 40
1.0
 40
1.0
 40
1.0
 10
33.67867010903348
 20
-6.212026513639518
 30
0.0
 10
33.75224919708083
 20
-6.263482283534017
 30
0.0
 10
33.84164855105759
 20
-6.286601947856589
 30
0.0
 10
33.93368794771755
 20
-6.280098583488238
 30
0.0
  0
SPLINE
  5
FC
330
1F
100
AcDbEntity
  8
0
  6
Continuous
 62
     1
370
    15
100
AcDbSpline
210
0.0
220
0.0
230
1.0
 70
     8
 71
     3
 72
    10
 73
     6
 74
     0
 42
0.000000001
 43
0.00000001
 40
0.0
 40
0.0
 40
0.0
 40
0.0
 40
0.5
 40
0.5
 40
1.0
 40
1.0
 40
1.0
 40
1.0
 10
33.16105374284709
 20
-6.238481207754214
 30
0.0
 10
33.23966678849274
 20
-6.174510478745511
 30
0.0
 10
33.33331560248384
 20
-6.142930548970178
 30
0.0
 10
33.51729313545523
 20
-6.13628076729688
 30
0.0
 10
33.60545107573902
 20
-6.160822539397589
 30
0.0
 10
33.67867010903312
 20
-6.21202651363922
 30
0.0
  0
SPLINE
  5
FD
330
1F
100
AcDbEntity
  8
0
  6
Continuous
 62
     1
370
    15
100
AcDbSpline
210
0.0
220
0.0
230
1.0
 70
     8
 71
     3
 72
    10
 73
     6
 74
     0
 42
0.000000001
 43
0.00000001
 40
0.0
 40
0.0
 40
0.0
 40
0.0
 40
0.5
 40
0.5
 40
1.0
 40
1.0
 40
1.0
 40
1.0
 10
32.64614496942576
 20
-6.25337324599804
 30
0.0
 10
32.71987815335535
 20
-6.308946934082083
 30
0.0
 10
32.80806895412728
 20
-6.336253092379707
 30
0.0
 10
32.98880033687436
 20
-6.333255944804074
 30
0.0
 10
33.0823473300126
 20
-6.302527913556426
 30
0.0
 10
33.16105374284709
 20
-6.238481207754212
 30
0.0
  0
SPLINE
  5
FE
330
1F
100
AcDbEntity
  8
0
  6
Continuous
 62
     1
370
    15
100
AcDbSpline
210
0.0
220
0.0
230
1.0
 70
     8
 71
     3
 72
    10
 73
     6
 74
     0
 42
0.000000001
 43
0.00000001
 40
0.0
 40
0.0
 40
0.0
 40
0.0
 40
0.5
 40
0.5
 40
1.0
 40
1.0
 40
1.0
 40
1.0
 10
32.12826426273004
 20
-6.25679042458883
 30
0.0
 10
32.20646410649992
 20
-6.195195538939604
 30
0.0
 10
32.30002897788243
 20
-6.167180279617389
 30
0.0
 10
32.48418910458325
 20
-6.168777018105017
 30
0.0
 10
32.57249591616659
 20
-6.197862968326859
 30
0.0
 10
32.64614496942576
 20
-6.253373245998027
 30
0.0
  0
SPLINE
  5
FF
330
1F
100
AcDbEntity
  8
0
  6
Continuous
 62
     1
370
    15
100
AcDbSpline
210
0.0
220
0.0
230
1.0
 70
     8
 71
     3
 72
     8
 73
     4
 74
     0
 42
0.000000001
 43
0.00000001
 40
0.0
 40
0.0
 40
0.0
 40
0.0
 40
1.0
 40
1.0
 40
1.0
 40
1.0
 10
31.87428941267445
 20
-6.342727212001805
 30
0.0
 10
31.9629562135722
 20
-6.343586417498392
 30
0.0
 10
32.05275186753332
 20
-6.316268514608016
 30
0.0
 10
32.12826426272969
 20
-6.256790424589116
 30
0.0
  0
SPLINE
  5
100
330
1F
100
AcDbEntity
  8
0
  6
Continuous
 62
     1
370
    15
100
AcDbSpline
210
0.0
220
0.0
230
1.0
 70
     8
 71
     3
 72
     8
 73
     4
 74
     0
 42
0.000000001
 43
0.00000001
 40
0.0
 40
0.0
 40
0.0
 40
0.0
 40
1.0
 40
1.0
 40
1.0
 40
1.0
 10
31.618991238766
 20
-6.244465009031671
 30
0.0
 10
31.69267203024327
 20
-6.305616927661797
 30
0.0
 10
31.78216808311193
 20
-6.339311357488999
 30
0.0
 10
31.87428941267346
 20
-6.342727212001783
 30
0.0
  0
SPLINE
  5
101
330
1F
100
AcDbEntity
  8
0
  6
Continuous
 62
     1
370
    15
100
AcDbSpline
210
0.0
220
0.0
230
1.0
 70
     8
 71
     3
 72
    10
 73
     6
 74
     0
 42
0.000000001
 43
0.00000001
 40
0.0
 40
0.0
 40
0.0
 40
0.0
 40
0.5
 40
0.5
 40
1.0
 40
1.0
 40
1.0
 40
1.0
 10
31.1009661671474
 20
-6.215981031410648
 30
0.0
 10
31.179648733097
 20
-6.158862628522249
 30
0.0
 10
31.27337525691717
 20
-6.136179705456181
 30
0.0
 10
31.4574879101684
 20
-6.14887785216774
 30
0.0
 10
31.54570203585932
 20
-6.183638092235894
 30
0.0
 10
31.61899123876568
 20
-6.244465009031423
 30
0.0
  0
SPLINE
  5
102
330
1F
100
AcDbEntity
  8
0
  6
Continuous
 62
     1
370
    15
100
AcDbSpline
210
0.0
220
0.0
230
1.0
 70
     8
 71
     3
 72
    10
 73
     6
 74
     0
 42
0.000000001
 43
0.00000001
 40
0.0
 40
0.0
 40
0.0
 40
0.0
 40
0.5
 40
0.5
 40
1.0
 40
1.0
 40
1.0
 40
1.0
 10
30.58579774052845
 20
-6.176229379233863
 30
0.0
 10
30.65954775691544
 20
-6.24046552835328
 30
0.0
 10
30.74779967790798
 20
-6.277720048177086
 30
0.0
 10
30.92863292305559
 20
-6.294215560212514
 30
0.0
 10
31.02222412414494
 20
-6.273142610754052
 30
0.0
 10
31.10096616714741
 20
-6.215981031410644
 30
0.0
  0
SPLINE
  5
103
330
1F
100
AcDbEntity
  8
0
  6
Continuous
 62
     1
370
    15
100
AcDbSpline
210
0.0
220
0.0
230
1.0
 70
     8
 71
     3
 72
    10
 73
     6
 74
     0
 42
0.000000001
 43
0.00000001
 40
0.0
 40
0.0
 40
0.0
 40
0.0
 40
0.5
 40
0.5
 40
1.0
 40
1.0
 40
1.0
 40
1.0
 10
30.06774626423622
 20
-6.124816600479727
 30
0.0
 10
30.14598582069254
 20
-6.071080271785105
 30
0.0
 10
30.23958421045807
 20
-6.052407067757843
 30
0.0
 10
30.42378009079017
 20
-6.07326818824137
 30
0.0
 10
30.51209331745726
 20
-6.112032941821282
 30
0.0
 10
30.58579774052845
 20
-6.176229379233853
 30
0.0
  0
SPLINE
  5
104
330
1F
100
AcDbEntity
  8
0
  6
Continuous
 62
     1
370
    15
100
AcDbSpline
210
0.0
220
0.0
230
1.0
 70
     8
 71
     3
 72
     8
 73
     4
 74
     0
 42
0.000000001
 43
0.00000001
 40
0.0
 40
0.0
 40
0.0
 40
0.0
 40
1.0
 40
1.0
 40
1.0
 40
1.0
 10
29.81374303046233
 20
-6.184032337819634
 30
0.0
 10
29.90241999157796
 20
-6.194349390813896
 30
0.0
 10
29.99222086656059
 20
-6.176688796311298
 30
0.0
 10
30.06774626423586
 20
-6.124816600479965
 30
0.0
  0
SPLINE
  5
105
330
1F
100
AcDbEntity
  8
0
  6
Continuous
 62
     1
370
    15
100
AcDbSpline
210
0.0
220
0.0
230
1.0
 70
     8
 71
     3
 72
     8
 73
     4
 74
     0
 42
0.000000001
 43
0.00000001
 40
0.0
 40
0.0
 40
0.0
 40
0.0
 40
1.0
 40
1.0
 40
1.0
 40
1.0
 10
29.55845266173664
 20
-6.058968679771811
 30
0.0
 10
29.63213370432254
 20
-6.127681580235453
 30
0.0
 10
29.72163071949792
 20
-6.170795407980931
 30
0.0
 10
29.8137430304613
 20
-6.184032337819501
 30
0.0
  0
SPLINE
  5
106
330
1F
100
AcDbEntity
  8
0
  6
Continuous
 62
     1
370
    15
100
AcDbSpline
210
0.0
220
0.0
230
1.0
 70
     8
 71
     3
 72
    10
 73
     6
 74
     0
 42
0.000000001
 43
0.00000001
 40
0.0
 40
0.0
 40
0.0
 40
0.0
 40
0.5
 40
0.5
 40
1.0
 40
1.0
 40
1.0
 40
1.0
 10
29.04055966153533
 20
-5.976567799365862
 30
0.0
 10
29.11922090352488
 20
-5.92830649840487
 30
0.0
 10
29.21293336813807
 20
-5.915288462324201
 30
0.0
 10
29.39701241902556
 20
-5.946876940102994
 30
0.0
 10
29.48519080147845
 20
-5.990646697141697
 30
0.0
 10
29.55845266173627
 20
-6.058968679771478
 30
0.0
  0
SPLINE
  5
107
330
1F
100
AcDbEntity
  8
0
  6
Continuous
 62
     1
370
    15
100
AcDbSpline
210
0.0
220
0.0
230
1.0
 70
     8
 71
     3
 72
    10
 73
     6
 74
     0
 42
0.000000001
 43
0.00000001
 40
0.0
 40
0.0
 40
0.0
 40
0.0
 40
0.5
 40
0.5
 40
1.0
 40
1.0
 40
1.0
 40
1.0
 10
28.52567545580543
 20
-5.883743953977909
 30
0.0
 10
28.59937374411963
 20
-5.954383870555208
 30
0.0
 10
28.68758730044633
 20
-6.000232267709555
 30
0.0
 10
28.86834046928216
 20
-6.035567826305522
 30
0.0
 10
28.96187980341654
 20
-6.024840521944281
 30
0.0
 10
29.0405596615353
 20
-5.976567799365842
 30
0.0
  0
SPLINE
  5
108
330
1F
100
AcDbEntity
  8
0
  6
Continuous
 62
     1
370
    15
100
AcDbSpline
210
0.0
220
0.0
230
1.0
 70
     8
 71
     3
 72
    10
 73
     6
 74
     0
 42
0.000000001
 43
0.00000001
 40
0.0
 40
0.0
 40
0.0
 40
0.0
 40
0.5
 40
0.5
 40
1.0
 40
1.0
 40
1.0
 40
1.0
 10
28.0080232845126
 20
-5.779372206805073
 30
0.0
 10
28.0861745697046
 20
-5.735428064094542
 30
0.0
 10
28.17964547248502
 20
-5.726747991378017
 30
0.0
 10
28.3637011049673
 20
-5.76606967839062
 30
0.0
 10
28.4520137839959
 20
-5.813139134373579
 30
0.0
 10
28.52567545580544
 20
-5.883743953977904
 30
0.0
  0
SPLINE
  5
109
330
1F
100
AcDbEntity
  8
0
  6
Continuous
 62
     1
370
    15
100
AcDbSpline
210
0.0
220
0.0
230
1.0
 70
     8
 71
     3
 72
     8
 73
     4
 74
     0
 42
0.000000001
 43
0.00000001
 40
0.0
 40
0.0
 40
0.0
 40
0.0
 40
1.0
 40
1.0
 40
1.0
 40
1.0
 10
27.75423340972716
 20
-5.809779334627022
 30
0.0
 10
27.84284350891608
 20
-5.829195499865666
 30
0.0
 10
27.93256654593147
 20
-5.821801217160077
 30
0.0
 10
28.00802328451223
 20
-5.77937220680527
 30
0.0
  0
SPLINE
  5
10A
330
1F
100
AcDbEntity
  8
0
  6
Continuous
 62
     1
370
    15
100
AcDbSpline
210
0.0
220
0.0
230
1.0
 70
     8
 71
     3
 72
     8
 73
     4
 74
     0
 42
0.000000001
 43
0.00000001
 40
0.0
 40
0.0
 40
0.0
 40
0.0
 40
1.0
 40
1.0
 40
1.0
 40
1.0
 10
27.499238788763
 20
-5.66232030459053
 30
0.0
 10
27.57281883474675
 20
-5.736166226674762
 30
0.0
 10
27.66222108037093
 20
-5.78718846098015
 30
0.0
 10
27.75423340972614
 20
-5.809779334626787
 30
0.0
  0
SPLINE
  5
10B
330
1F
100
AcDbEntity
  8
0
  6
Continuous
 62
     1
370
    15
100
AcDbSpline
210
0.0
220
0.0
230
1.0
 70
     8
 71
     3
 72
    10
 73
     6
 74
     0
 42
0.000000001
 43
0.00000001
 40
0.0
 40
0.0
 40
0.0
 40
0.0
 40
0.5
 40
0.5
 40
1.0
 40
1.0
 40
1.0
 40
1.0
 10
26.98189570788025
 20
-5.529022415998437
 30
0.0
 10
27.06047395809371
 20
-5.491303039607352
 30
0.0
 10
27.15409898142567
 20
-5.488360848099012
 30
0.0
 10
27.33800801161718
 20
-5.537667526621492
 30
0.0
 10
27.42608595428531
 20
-5.588903137709643
 30
0.0
 10
27.49923878876265
 20
-5.662320304590276
 30
0.0
  0
SPLINE
  5
10C
330
1F
100
AcDbEntity
  8
0
  6
Continuous
 62
     1
370
    15
100
AcDbSpline
210
0.0
220
0.0
230
1.0
 70
     8
 71
     3
 72
    10
 73
     6
 74
     0
 42
0.000000001
 43
0.00000001
 40
0.0
 40
0.0
 40
0.0
 40
0.0
 40
0.5
 40
0.5
 40
1.0
 40
1.0
 40
1.0
 40
1.0
 10
26.46727315982265
 20
-5.386526026058524
 30
0.0
 10
26.5409369365841
 20
-5.4610567728768
 30
0.0
 10
26.62911240790289
 20
-5.513873844472345
 30
0.0
 10
26.80978476412149
 20
-5.566781712928202
 30
0.0
 10
26.90327827434663
 20
-5.566760601288895
 30
0.0
 10
26.98189570788025
 20
-5.529022415998432
 30
0.0
  0
SPLINE
  5
10D
330
1F
100
AcDbEntity
  8
0
  6
Continuous
 62
     1
370
    15
100
AcDbSpline
210
0.0
220
0.0
230
1.0
 70
     8
 71
     3
 72
    10
 73
     6
 74
     0
 42
0.000000001
 43
0.00000001
 40
0.0
 40
0.0
 40
0.0
 40
0.0
 40
0.5
 40
0.5
 40
1.0
 40
1.0
 40
1.0
 40
1.0
 10
25.9495709361665
 20
-5.233050816133211
 30
0.0
 10
26.02770549011415
 20
-5.200436995918311
 30
0.0
 10
26.12118923528362
 20
-5.201960780070152
 30
0.0
 10
26.30526992897115
 20
-5.258289533469469
 30
0.0
 10
26.39361450918502
 20
-5.312000465694881
 30
0.0
 10
26.46727315982263
 20
-5.386526026058513
 30
0.0
  0
SPLINE
  5
10E
330
1F
100
AcDbEntity
  8
0
  6
Continuous
 62
     1
370
    15
100
AcDbSpline
210
0.0
220
0.0
230
1.0
 70
     8
 71
     3
 72
     8
 73
     4
 74
     0
 42
0.000000001
 43
0.00000001
 40
0.0
 40
0.0
 40
0.0
 40
0.0
 40
1.0
 40
1.0
 40
1.0
 40
1.0
 10
25.69563052543987
 20
-5.233437845457335
 30
0.0
 10
25.78428226909068
 20
-5.261328321853826
 30
0.0
 10
25.87404311652264
 20
-5.264576570189833
 30
0.0
 10
25.94957093616614
 20
-5.233050816133353
 30
0.0
  0
SPLINE
  5
10F
330
1F
100
AcDbEntity
  8
0
  6
Continuous
 62
     1
370
    15
100
AcDbSpline
210
0.0
220
0.0
230
1.0
 70
     8
 71
     3
 72
     8
 73
     4
 74
     0
 42
0.000000001
 43
0.00000001
 40
0.0
 40
0.0
 40
0.0
 40
0.0
 40
1.0
 40
1.0
 40
1.0
 40
1.0
 10
25.44037644792638
 20
-5.068529452321352
 30
0.0
 10
25.51406151660898
 20
-5.145003218426341
 30
0.0
 10
25.60354658615594
 20
-5.20221390623089
 30
0.0
 10
25.69563052543887
 20
-5.233437845457008
 30
0.0
  0
SPLINE
  5
110
330
1F
100
AcDbEntity
  8
0
  6
Continuous
 62
     1
370
    15
100
AcDbSpline
210
0.0
220
0.0
230
1.0
 70
     8
 71
     3
 72
    10
 73
     6
 74
     0
 42
0.000000001
 43
0.00000001
 40
0.0
 40
0.0
 40
0.0
 40
0.0
 40
0.5
 40
0.5
 40
1.0
 40
1.0
 40
1.0
 40
1.0
 10
24.92242911156201
 20
-4.888592073841568
 30
0.0
 10
25.00112022923744
 20
-4.862743198006278
 30
0.0
 10
25.09485672340611
 20
-4.870091762794225
 30
0.0
 10
25.2789506406042
 20
-4.93555084721708
 30
0.0
 10
25.36712118410358
 20
-4.992501757542586
 30
0.0
 10
25.44037644792602
 20
-5.068529452321107
 30
0.0
  0
SPLINE
  5
111
330
1F
100
AcDbEntity
  8
0
  6
Continuous
 62
     1
370
    15
100
AcDbSpline
210
0.0
220
0.0
230
1.0
 70
     8
 71
     3
 72
    10
 73
     6
 74
     0
 42
0.000000001
 43
0.00000001
 40
0.0
 40
0.0
 40
0.0
 40
0.0
 40
0.5
 40
0.5
 40
1.0
 40
1.0
 40
1.0
 40
1.0
 10
24.40733804103104
 20
-4.701144072820027
 30
0.0
 10
24.48108964148469
 20
-4.77702319530637
 30
0.0
 10
24.5693537082892
 20
-4.834986969643362
 30
0.0
 10
24.75017752136056
 20
-4.903689436660947
 30
0.0
 10
24.8437361314114
 20
-4.914441561472584
 30
0.0
 10
24.922429111562
 20
-4.888592073841572
 30
0.0
  0
SPLINE
  5
112
330
1F
100
AcDbEntity
  8
0
  6
Continuous
 62
     1
370
    15
100
AcDbSpline
210
0.0
220
0.0
230
1.0
 70
     8
 71
     3
 72
    10
 73
     6
 74
     0
 42
0.000000001
 43
0.00000001
 40
0.0
 40
0.0
 40
0.0
 40
0.0
 40
0.5
 40
0.5
 40
1.0
 40
1.0
 40
1.0
 40
1.0
 10
23.88931646223027
 20
-4.503900631197478
 30
0.0
 10
23.96750127443233
 20
-4.48366973360217
 30
0.0
 10
24.06104760833898
 20
-4.495389325009533
 30
0.0
 10
24.24524063393172
 20
-4.56682343121135
 30
0.0
 10
24.33362667471776
 20
-4.62530634511354
 30
0.0
 10
24.40733804103102
 20
-4.701144072820016
 30
0.0
  0
SPLINE
  5
113
330
1F
100
AcDbEntity
  8
0
  6
Continuous
 62
     1
370
    15
100
AcDbSpline
210
0.0
220
0.0
230
1.0
 70
     8
 71
     3
 72
     8
 73
     4
 74
     0
 42
0.000000001
 43
0.00000001
 40
0.0
 40
0.0
 40
0.0
 40
0.0
 40
1.0
 40
1.0
 40
1.0
 40
1.0
 10
23.63527533768099
 20
-4.474429982188836
 30
0.0
 10
23.72392201919947
 20
-4.509810071843448
 30
0.0
 10
23.81374754043267
 20
-4.523454647830711
 30
0.0
 10
23.88931646222991
 20
-4.503900631197563
 30
0.0
  0
SPLINE
  5
114
330
1F
100
AcDbEntity
  8
0
  6
Continuous
 62
     1
370
    15
100
AcDbSpline
210
0.0
220
0.0
230
1.0
 70
     8
 71
     3
 72
     8
 73
     4
 74
     0
 42
0.000000001
 43
0.00000001
 40
0.0
 40
0.0
 40
0.0
 40
0.0
 40
1.0
 40
1.0
 40
1.0
 40
1.0
 10
23.37991442418069
 20
-4.297747133469022
 30
0.0
 10
23.45364231624544
 20
-4.374201660620416
 30
0.0
 10
23.54314040395032
 20
-4.435658196957329
 30
0.0
 10
23.63527533767999
 20
-4.474429982188429
 30
0.0
  0
SPLINE
  5
115
330
1F
100
AcDbEntity
  8
0
  6
Continuous
 62
     1
370
    15
100
AcDbSpline
210
0.0
220
0.0
230
1.0
 70
     8
 71
     3
 72
    10
 73
     6
 74
     0
 42
0.000000001
 43
0.00000001
 40
0.0
 40
0.0
 40
0.0
 40
0.0
 40
0.5
 40
0.5
 40
1.0
 40
1.0
 40
1.0
 40
1.0
 10
22.86188101602281
 20
-4.077391323876032
 30
0.0
 10
22.94059724046095
 20
-4.064343329307109
 30
0.0
 10
23.03435726247487
 20
-4.08171917761417
 30
0.0
 10
23.21847425962647
 20
-4.161065030031029
 30
0.0
 10
23.3066443209033
 20
-4.221767325237298
 30
0.0
 10
23.37991442418035
 20
-4.297747133468842
 30
0.0
  0
SPLINE
  5
116
330
1F
100
AcDbEntity
  8
0
  6
Continuous
 62
     1
370
    15
100
AcDbSpline
210
0.0
220
0.0
230
1.0
 70
     8
 71
     3
 72
    10
 73
     6
 74
     0
 42
0.000000001
 43
0.00000001
 40
0.0
 40
0.0
 40
0.0
 40
0.0
 40
0.5
 40
0.5
 40
1.0
 40
1.0
 40
1.0
 40
1.0
 10
22.3468575140689
 20
-3.851612652185274
 30
0.0
 10
22.42059993727107
 20
-3.926155580131408
 30
0.0
 10
22.50886041926022
 20
-3.9872282627612
 30
0.0
 10
22.68966497732312
 20
-4.069303181935446
 30
0.0
 10
22.78320290483666
 20
-4.090433000795581
 30
0.0
 10
22.86188101602281
 20
-4.07739132387602
 30
0.0
  0
SPLINE
  5
117
330
1F
100
AcDbEntity
  8
0
  6
Continuous
 62
     1
370
    15
100
AcDbSpline
210
0.0
220
0.0
230
1.0
 70
     8
 71
     3
 72
    10
 73
     6
 74
     0
 42
0.000000001
 43
0.00000001
 40
0.0
 40
0.0
 40
0.0
 40
0.0
 40
0.5
 40
0.5
 40
1.0
 40
1.0
 40
1.0
 40
1.0
 10
21.8290571761507
 20
-3.617683129930835
 30
0.0
 10
21.90720152208755
 20
-3.610524383795941
 30
0.0
 10
22.00071827941699
 20
-3.631983370223703
 30
0.0
 10
22.18485479416181
 20
-3.715961195105351
 30
0.0
 10
22.27319082029588
 20
-3.777146275742804
 30
0.0
 10
22.34685751406889
 20
-3.851612652185264
 30
0.0
  0
SPLINE
  5
118
330
1F
100
AcDbEntity
  8
0
  6
Continuous
 62
     1
370
    15
100
AcDbSpline
210
0.0
220
0.0
230
1.0
 70
     8
 71
     3
 72
     8
 73
     4
 74
     0
 42
0.000000001
 43
0.00000001
 40
0.0
 40
0.0
 40
0.0
 40
0.0
 40
1.0
 40
1.0
 40
1.0
 40
1.0
 10
21.5751668126886
 20
-3.559602137088616
 30
0.0
 10
21.66377813455926
 20
-3.60111074634854
 30
0.0
 10
21.753551617482
 20
-3.624600138702118
 30
0.0
 10
21.82905717615033
 20
-3.617683129930828
 30
0.0
  0
SPLINE
  5
119
330
1F
100
AcDbEntity
  8
0
  6
Continuous
 62
     1
370
    15
100
AcDbSpline
210
0.0
220
0.0
230
1.0
 70
     8
 71
     3
 72
     8
 73
     4
 74
     0
 42
0.000000001
 43
0.00000001
 40
0.0
 40
0.0
 40
0.0
 40
0.0
 40
1.0
 40
1.0
 40
1.0
 40
1.0
 10
21.32001372152253
 20
-3.37772083581666
 30
0.0
 10
21.3936357849075
 20
-3.451384569711421
 30
0.0
 10
21.48307181077908
 20
-3.514786060217233
 30
0.0
 10
21.57516681268759
 20
-3.559602137088133
 30
0.0
  0
SPLINE
  5
11A
330
1F
100
AcDbEntity
  8
0
  6
Continuous
 62
     1
370
    15
100
AcDbSpline
210
0.0
220
0.0
230
1.0
 70
     8
 71
     3
 72
    10
 73
     6
 74
     0
 42
0.000000001
 43
0.00000001
 40
0.0
 40
0.0
 40
0.0
 40
0.0
 40
0.5
 40
0.5
 40
1.0
 40
1.0
 40
1.0
 40
1.0
 10
20.80243613703487
 20
-3.124728806041914
 30
0.0
 10
20.88108564337222
 20
-3.124932169451835
 30
0.0
 10
20.97477590236551
 20
-3.151700492330186
 30
0.0
 10
21.15874422432744
 20
-3.242136503844792
 30
0.0
 10
21.24681281055616
 20
-3.304478492715202
 30
0.0
 10
21.32001372152216
 20
-3.377720835816496
 30
0.0
  0
SPLINE
  5
11B
330
1F
100
AcDbEntity
  8
0
  6
Continuous
 62
     1
370
    15
100
AcDbSpline
210
0.0
220
0.0
230
1.0
 70
     8
 71
     3
 72
    10
 73
     6
 74
     0
 42
0.000000001
 43
0.00000001
 40
0.0
 40
0.0
 40
0.0
 40
0.0
 40
0.5
 40
0.5
 40
1.0
 40
1.0
 40
1.0
 40
1.0
 10
20.28799308295835
 20
-2.868670587594514
 30
0.0
 10
20.36163946094932
 20
-2.93922979297726
 30
0.0
 10
20.4498055892008
 20
-3.001256273830769
 30
0.0
 10
20.63042429306348
 20
-3.093788531709945
 30
0.0
 10
20.72386013743238
 20
-3.124525632697758
 30
0.0
 10
20.80243613703486
 20
-3.124728806041893
 30
0.0
  0
SPLINE
  5
11C
330
1F
100
AcDbEntity
  8
0
  6
Continuous
 62
     1
370
    15
100
AcDbSpline
210
0.0
220
0.0
230
1.0
 70
     8
 71
     3
 72
    10
 73
     6
 74
     0
 42
0.000000001
 43
0.00000001
 40
0.0
 40
0.0
 40
0.0
 40
0.0
 40
0.5
 40
0.5
 40
1.0
 40
1.0
 40
1.0
 40
1.0
 10
19.77058257461763
 20
-2.606303105536255
 30
0.0
 10
19.84866891318698
 20
-2.612459562158219
 30
0.0
 10
19.94212498315265
 20
-2.642889243444586
 30
0.0
 10
20.12614451862399
 20
-2.736435689915961
 30
0.0
 10
20.21441295908497
 20
-2.798174859031926
 30
0.0
 10
20.28799308295833
 20
-2.868670587594512
 30
0.0
  0
SPLINE
  5
11D
330
1F
100
AcDbEntity
  8
0
  6
Continuous
 62
     1
370
    15
100
AcDbSpline
210
0.0
220
0.0
230
1.0
 70
     8
 71
     3
 72
     8
 73
     4
 74
     0
 42
0.000000001
 43
0.00000001
 40
0.0
 40
0.0
 40
0.0
 40
0.0
 40
1.0
 40
1.0
 40
1.0
 40
1.0
 10
19.51676906597766
 20
-2.521626574000664
 30
0.0
 10
19.60536665656707
 20
-2.567819736406212
 30
0.0
 10
19.69511517272333
 20
-2.600353130231296
 30
0.0
 10
19.77058257461726
 20
-2.606303105536208
 30
0.0
  0
SPLINE
  5
11E
330
1F
100
AcDbEntity
  8
0
  6
Continuous
 62
     1
370
    15
100
AcDbSpline
210
0.0
220
0.0
230
1.0
 70
     8
 71
     3
 72
     8
 73
     4
 74
     0
 42
0.000000001
 43
0.00000001
 40
0.0
 40
0.0
 40
0.0
 40
0.0
 40
1.0
 40
1.0
 40
1.0
 40
1.0
 10
19.26162498095707
 20
-2.340956986806681
 30
0.0
 10
19.33524651358995
 20
-2.409211482475235
 30
0.0
 10
19.42467996607306
 20
-2.472320024247979
 30
0.0
 10
19.51676906597663
 20
-2.521626574000113
 30
0.0
  0
SPLINE
  5
11F
330
1F
100
AcDbEntity
  8
0
  6
Continuous
 62
     1
370
    15
100
AcDbSpline
210
0.0
220
0.0
230
1.0
 70
     8
 71
     3
 72
    10
 73
     6
 74
     0
 42
0.000000001
 43
0.00000001
 40
0.0
 40
0.0
 40
0.0
 40
0.0
 40
0.5
 40
0.5
 40
1.0
 40
1.0
 40
1.0
 40
1.0
 10
18.74378231413544
 20
-2.064051692124954
 30
0.0
 10
18.82247442725323
 20
-2.07757699731074
 30
0.0
 10
18.91616285877843
 20
-2.112908911078514
 30
0.0
 10
19.10016770922914
 20
-2.211309547015231
 30
0.0
 10
19.18835152867522
 20
-2.273025196302867
 30
0.0
 10
19.26162498095671
 20
-2.34095698680655
 30
0.0
  0
SPLINE
  5
120
330
1F
100
AcDbEntity
  8
0
  6
Continuous
 62
     1
370
    15
100
AcDbSpline
210
0.0
220
0.0
230
1.0
 70
     8
 71
     3
 72
    10
 73
     6
 74
     0
 42
0.000000001
 43
0.00000001
 40
0.0
 40
0.0
 40
0.0
 40
0.0
 40
0.5
 40
0.5
 40
1.0
 40
1.0
 40
1.0
 40
1.0
 10
18.22876849109258
 20
-1.785935758074232
 30
0.0
 10
18.3025309846336
 20
-1.850176206495339
 30
0.0
 10
18.39080103197918
 20
-1.911101336107472
 30
0.0
 10
18.57159381254758
 20
-2.011107675988868
 30
0.0
 10
18.66511025951886
 20
-2.050529834519099
 30
0.0
 10
18.74378231413544
 20
-2.064051692124947
 30
0.0
  0
SPLINE
  5
121
330
1F
100
AcDbEntity
  8
0
  6
Continuous
 62
     1
370
    15
100
AcDbSpline
210
0.0
220
0.0
230
1.0
 70
     8
 71
     3
 72
    10
 73
     6
 74
     0
 42
0.000000001
 43
0.00000001
 40
0.0
 40
0.0
 40
0.0
 40
0.0
 40
0.5
 40
0.5
 40
1.0
 40
1.0
 40
1.0
 40
1.0
 10
17.7108245225165
 20
-1.503703480942376
 30
0.0
 10
17.78900685350045
 20
-1.523035202632643
 30
0.0
 10
17.88256258514339
 20
-1.561495436280523
 30
0.0
 10
18.06674981332007
 20
-1.661548615922628
 30
0.0
 10
18.15509428821112
 20
-1.721772202817787
 30
0.0
 10
18.22876849109255
 20
-1.785935758074207
 30
0.0
  0
SPLINE
  5
122
330
1F
100
AcDbEntity
  8
0
  6
Continuous
 62
     1
370
    15
100
AcDbSpline
210
0.0
220
0.0
230
1.0
 70
     8
 71
     3
 72
     8
 73
     4
 74
     0
 42
0.000000001
 43
0.00000001
 40
0.0
 40
0.0
 40
0.0
 40
0.0
 40
1.0
 40
1.0
 40
1.0
 40
1.0
 10
17.45682118639078
 20
-1.395185105657681
 30
0.0
 10
17.54548548070165
 20
-1.444509993891052
 30
0.0
 10
17.63529664173803
 20
-1.485028110782716
 30
0.0
 10
17.71082452251615
 20
-1.50370348094228
 30
0.0
  0
SPLINE
  5
123
330
1F
100
AcDbEntity
  8
0
  6
Continuous
 62
     1
370
    15
100
AcDbSpline
210
0.0
220
0.0
230
1.0
 70
     8
 71
     3
 72
     8
 73
     4
 74
     0
 42
0.000000001
 43
0.00000001
 40
0.0
 40
0.0
 40
0.0
 40
0.0
 40
1.0
 40
1.0
 40
1.0
 40
1.0
 10
17.20148930549348
 20
-1.221898898233193
 30
0.0
 10
17.27517585637252
 20
-1.282407931377955
 30
0.0
 10
17.36467672117362
 20
-1.343059699951842
 30
0.0
 10
17.45682118638977
 20
-1.395185105657098
 30
0.0
  0
SPLINE
  5
124
330
1F
100
AcDbEntity
  8
0
  6
Continuous
 62
     1
370
    15
100
AcDbSpline
210
0.0
220
0.0
230
1.0
 70
     8
 71
     3
 72
    10
 73
     6
 74
     0
 42
0.000000001
 43
0.00000001
 40
0.0
 40
0.0
 40
0.0
 40
0.0
 40
0.5
 40
0.5
 40
1.0
 40
1.0
 40
1.0
 40
1.0
 10
16.68340070854884
 20
-0.93120027999944
 30
0.0
 10
16.76209522610323
 20
-0.95756972322901
 30
0.0
 10
16.85581432053514
 20
-1.000070036485536
 30
0.0
 10
17.03991984347354
 20
-1.102760748894563
 30
0.0
 10
17.12816648879551
 20
-1.161688551936499
 30
0.0
 10
17.20148930549313
 20
-1.221898898233119
 30
0.0
  0
SPLINE
  5
125
330
1F
100
AcDbEntity
  8
0
  6
Continuous
 62
     1
370
    15
100
AcDbSpline
210
0.0
220
0.0
230
1.0
 70
     8
 71
     3
 72
    10
 73
     6
 74
     0
 42
0.000000001
 43
0.00000001
 40
0.0
 40
0.0
 40
0.0
 40
0.0
 40
0.5
 40
0.5
 40
1.0
 40
1.0
 40
1.0
 40
1.0
 10
16.16823754794338
 20
-0.6407663359888086
 30
0.0
 10
16.24203366103394
 20
-0.6964187468556435
 30
0.0
 10
16.33033509685448
 20
-0.754110570477279
 30
0.0
 10
16.51116913446019
 20
-0.8580882336839397
 30
0.0
 10
16.60469079275654
 20
-0.9048256770335399
 30
0.0
 10
16.68340070854884
 20
-0.9312002799994281
 30
0.0
  0
SPLINE
  5
126
330
1F
100
AcDbEntity
  8
0
  6
Continuous
 62
     1
370
    15
100
AcDbSpline
210
0.0
220
0.0
230
1.0
 70
     8
 71
     3
 72
    10
 73
     6
 74
     0
 42
0.000000001
 43
0.00000001
 40
0.0
 40
0.0
 40
0.0
 40
0.0
 40
0.5
 40
0.5
 40
1.0
 40
1.0
 40
1.0
 40
1.0
 10
15.65029733453901
 20
-0.348666674728894
 30
0.0
 10
15.72848552034571
 20
-0.3804913767373486
 30
0.0
 10
15.82204938251343
 20
-0.4256069880403612
 30
0.0
 10
16.00623660043556
 20
-0.5286252527888077
 30
0.0
 10
16.09456607239473
 20
-0.5852079189571717
 30
0.0
 10
16.16823754794337
 20
-0.6407663359888012
 30
0.0
  0
SPLINE
  5
127
330
1F
100
AcDbEntity
  8
0
  6
Continuous
 62
     1
370
    15
100
AcDbSpline
210
0.0
220
0.0
230
1.0
 70
     8
 71
     3
 72
     8
 73
     4
 74
     0
 42
0.000000001
 43
0.00000001
 40
0.0
 40
0.0
 40
0.0
 40
0.0
 40
1.0
 40
1.0
 40
1.0
 40
1.0
 10
15.39634595157554
 20
-0.2201625015821874
 30
0.0
 10
15.48499986704097
 20
-0.2708735985809532
 30
0.0
 10
15.5747906024196
 20
-0.3179333967465094
 30
0.0
 10
15.65029733453865
 20
-0.3486666747287372
 30
0.0
  0
SPLINE
  5
128
330
1F
100
AcDbEntity
  8
0
  6
Continuous
 62
     1
370
    15
100
AcDbSpline
210
0.0
220
0.0
230
1.0
 70
     8
 71
     3
 72
     8
 73
     4
 74
     0
 42
0.000000001
 43
0.00000001
 40
0.0
 40
0.0
 40
0.0
 40
0.0
 40
1.0
 40
1.0
 40
1.0
 40
1.0
 10
15.14111591836783
 20
-0.0604251833020012
 30
0.0
 10
15.21476552433799
 20
-0.1110261414216583
 30
0.0
 10
15.30423753001021
 20
-0.1670696859738784
 30
0.0
 10
15.39634595157453
 20
-0.2201625015816176
 30
0.0
  0
SPLINE
  5
129
330
1F
100
AcDbEntity
  8
0
  6
Continuous
 62
     1
370
    15
100
AcDbSpline
210
0.0
220
0.0
230
1.0
 70
     8
 71
     3
 72
    10
 73
     6
 74
     0
 42
0.000000001
 43
0.00000001
 40
0.0
 40
0.0
 40
0.0
 40
0.0
 40
0.5000000000000009
 40
0.5000000000000009
 40
1.0
 40
1.0
 40
1.0
 40
1.0
 10
14.62333723207482
 20
0.2334669899470015
 30
0.0
 10
14.70197277248242
 20
0.1953775851042249
 30
0.0
 10
14.79564747800673
 20
0.1472705075860764
 30
0.0
 10
14.97967328612639
 20
0.0439349125821011
 30
0.0
 10
15.0678551056779
 20
-0.0100913455863954
 30
0.0
 10
15.14111591836747
 20
-0.0604251833020061
 30
0.0
  0
SPLINE
  5
12A
330
1F
100
AcDbEntity
  8
0
  6
Continuous
 62
     1
370
    15
100
AcDbSpline
210
0.0
220
0.0
230
1.0
 70
     8
 71
     3
 72
    10
 73
     6
 74
     0
 42
0.000000001
 43
0.00000001
 40
0.0
 40
0.0
 40
0.0
 40
0.0
 40
0.5
 40
0.5
 40
1.0
 40
1.0
 40
1.0
 40
1.0
 10
14.10858397650081
 20
0.5255215237529893
 30
0.0
 10
14.1822947694223
 20
0.4804496234914016
 30
0.0
 10
14.27050146088662
 20
0.4280377679053231
 30
0.0
 10
14.45115571838663
 20
0.3238041351998868
 30
0.0
 10
14.54465775463305
 20
0.2715776769666947
 30
0.0
 10
14.62333723207483
 20
0.2334669899470071
 30
0.0
  0
SPLINE
  5
12B
330
1F
100
AcDbEntity
  8
0
  6
Continuous
 62
     1
370
    15
100
AcDbSpline
210
0.0
220
0.0
230
1.0
 70
     8
 71
     3
 72
    10
 73
     6
 74
     0
 42
0.000000001
 43
0.00000001
 40
0.0
 40
0.0
 40
0.0
 40
0.0
 40
0.5
 40
0.5
 40
1.0
 40
1.0
 40
1.0
 40
1.0
 10
13.59118493228216
 20
0.817113360914529
 30
0.0
 10
13.66928901658419
 20
0.7739416320105116
 30
0.0
 10
13.76276947148992
 20
0.7237795988496136
 30
0.0
 10
13.94678881650694
 20
0.6214478353462661
 30
0.0
 10
14.03501224999528
 20
0.5705083891454337
 30
0.0
 10
14.1085839765008
 20
0.5255215237529901
 30
0.0
  0
SPLINE
  5
12C
330
1F
100
AcDbEntity
  8
0
  6
Continuous
 62
     1
370
    15
100
AcDbSpline
210
0.0
220
0.0
230
1.0
 70
     8
 71
     3
 72
    10
 73
     6
 74
     0
 42
0.000000001
 43
0.00000001
 40
0.0
 40
0.0
 40
0.0
 40
0.0
 40
0.5
 40
0.5
 40
1.0
 40
1.0
 40
1.0
 40
1.0
 10
12.56494858859174
 20
1.388657798222493
 30
0.0
 10
12.64355281635499
 20
1.340151259093506
 30
0.0
 10
12.73719657407985
 20
1.288083096961689
 30
0.0
 10
12.92116264039131
 20
1.187655328179941
 30
0.0
 10
13.00930635815009
 20
1.14038161147703
 30
0.0
 10
13.08251079882242
 20
1.101647563295369
 30
0.0
  0
SPLINE
  5
12D
330
1F
100
AcDbEntity
  8
0
  6
Continuous
 62
     4
370
    15
100
AcDbSpline
210
0.0
220
0.0
230
1.0
 70
     8
 71
     3
 72
    10
 73
     6
 74
     0
 42
0.000000001
 43
0.00000001
 40
0.0
 40
0.0
 40
0.0
 40
0.0
 40
0.5
 40
0.5
 40
1.0
 40
1.0
 40
1.0
 40
1.0
 10
11.53222278709546
 20
1.953513824494347
 30
0.0
 10
11.6104291373924
 20
1.9003814284483
 30
0.0
 10
11.70399632443512
 20
1.846814478703872
 30
0.0
 10
11.88814743834309
 20
1.748536917698164
 30
0.0
 10
11.97644456379703
 20
1.704896119092746
 30
0.0
 10
12.05008902722401
 20
1.671928763962893
 30
0.0
  0
SPLINE
  5
12E
330
1F
100
AcDbEntity
  8
0
  6
Continuous
 62
     4
370
    15
100
AcDbSpline
210
0.0
220
0.0
230
1.0
 70
     8
 71
     3
 72
     8
 73
     4
 74
     0
 42
0.000000001
 43
0.00000001
 40
0.0
 40
0.0
 40
0.0
 40
0.0
 40
1.0
 40
1.0
 40
1.0
 40
1.0
 10
11.27825416355114
 20
2.108207809620726
 30
0.0
 10
11.36692008951799
 20
2.05994297233528
 30
0.0
 10
11.45671171325814
 20
2.004815084120346
 30
0.0
 10
11.5322227870951
 20
1.95351382449459
 30
0.0
  0
SPLINE
  5
12F
330
1F
100
AcDbEntity
  8
0
  6
Continuous
 62
     1
370
    15
100
AcDbSpline
210
0.0
220
0.0
230
1.0
 70
    24
 71
     3
 72
     9
 73
     5
 74
     0
 42
0.000000001
 43
0.00000001
 40
0.0
 40
0.0
 40
0.0
 40
0.0
 40
0.5
 40
1.0
 40
1.0
 40
1.0
 40
1.0
 10
11.98677592541679
 20
6.355507773690022
 30
0.0
 10
11.98677592541679
 20
6.339420516198192
 30
0.0
 10
11.98677592541679
 20
6.307159127128287
 30
0.0
 10
11.98677592541679
 20
6.274725843464184
 30
0.0
 10
11.98677592541679
 20
6.258466721042472
 30
0.0
  0
SPLINE
  5
132
330
1F
100
AcDbEntity
  8
0
  6
Continuous
 62
     1
370
    15
100
AcDbSpline
210
0.0
220
0.0
230
1.0
 70
     8
 71
     3
 72
     8
 73
     4
 74
     0
 42
0.000000001
 43
0.00000001
 40
0.0
 40
0.0
 40
0.0
 40
0.0
 40
1.0
 40
1.0
 40
1.0
 40
1.0
 10
13.11946561200599
 20
6.215167168643472
 30
0.0
 10
13.04578295760638
 20
6.270724705727194
 30
0.0
 10
12.53056222888035
 20
6.332028115770479
 30
0.0
 10
11.98677592541679
 20
6.258466721042472
 30
0.0
  0
SPLINE
  5
133
330
1F
100
AcDbEntity
  8
0
  6
Continuous
 62
     1
370
    15
100
AcDbSpline
210
0.0
220
0.0
230
1.0
 70
     8
 71
     3
 72
    10
 73
     6
 74
     0
 42
0.000000001
 43
0.00000001
 40
0.0
 40
0.0
 40
0.0
 40
0.0
 40
0.5
 40
0.5
 40
1.0
 40
1.0
 40
1.0
 40
1.0
 10
13.63740208008243
 20
6.219778259093481
 30
0.0
 10
13.55873597056471
 20
6.15826076260598
 30
0.0
 10
13.46502104456865
 20
6.130110653234231
 30
0.0
 10
13.28093178235417
 20
6.131184640889606
 30
0.0
 10
13.1927392903632
 20
6.159918004022746
 30
0.0
 10
13.11946561200642
 20
6.215167168643122
 30
0.0
  0
SPLINE
  5
134
330
1F
100
AcDbEntity
  8
0
  6
Continuous
 62
     1
370
    15
100
AcDbSpline
210
0.0
220
0.0
230
1.0
 70
     8
 71
     3
 72
    10
 73
     6
 74
     0
 42
0.000000001
 43
0.00000001
 40
0.0
 40
0.0
 40
0.0
 40
0.0
 40
0.5
 40
0.5
 40
1.0
 40
1.0
 40
1.0
 40
1.0
 10
14.15235467006316
 20
6.212908745584468
 30
0.0
 10
14.07864601338103
 20
6.272166775352645
 30
0.0
 10
13.99042664834167
 20
6.303570492715599
 30
0.0
 10
13.809656676111
 20
6.308335402027868
 30
0.0
 10
13.71610258301592
 20
6.281322651493921
 30
0.0
 10
13.63740208008245
 20
6.219778259093497
 30
0.0
  0
SPLINE
  5
135
330
1F
100
AcDbEntity
  8
0
  6
Continuous
 62
     1
370
    15
100
AcDbSpline
210
0.0
220
0.0
230
1.0
 70
     8
 71
     3
 72
    10
 73
     6
 74
     0
 42
0.000000001
 43
0.00000001
 40
0.0
 40
0.0
 40
0.0
 40
0.0
 40
0.4999999999999999
 40
0.4999999999999999
 40
1.0
 40
1.0
 40
1.0
 40
1.0
 10
14.67007970268929
 20
6.19445812397557
 30
0.0
 10
14.5919011208213
 20
6.13574096001855
 30
0.0
 10
14.49836691211172
 20
6.111341391637998
 30
0.0
 10
14.31429620124472
 20
6.120632097204517
 30
0.0
 10
14.22601670545914
 20
6.153688196970965
 30
0.0
 10
14.15235467006315
 20
6.212908745584469
 30
0.0
  0
SPLINE
  5
136
330
1F
100
AcDbEntity
  8
0
  6
Continuous
 62
     1
370
    15
100
AcDbSpline
210
0.0
220
0.0
230
1.0
 70
     8
 71
     3
 72
     8
 73
     4
 74
     0
 42
0.000000001
 43
0.00000001
 40
0.0
 40
0.0
 40
0.0
 40
0.0
 40
1.0
 40
1.0
 40
1.0
 40
1.0
 10
14.92389914779443
 20
6.270086223464926
 30
0.0
 10
14.83527942321761
 20
6.274725895486158
 30
0.0
 10
14.74554336417192
 20
6.251136207386519
 30
0.0
 10
14.6700797026896
 20
6.194458123975799
 30
0.0
  0
SPLINE
  5
137
330
1F
100
AcDbEntity
  8
0
  6
Continuous
 62
     1
370
    15
100
AcDbSpline
210
0.0
220
0.0
230
1.0
 70
     8
 71
     3
 72
     8
 73
     4
 74
     0
 42
0.000000001
 43
0.00000001
 40
0.0
 40
0.0
 40
0.0
 40
0.0
 40
1.0
 40
1.0
 40
1.0
 40
1.0
 10
15.17893676427768
 20
6.160716090765737
 30
0.0
 10
15.10534540294785
 20
6.225142271987263
 30
0.0
 10
15.01592993814113
 20
6.262735660522504
 30
0.0
 10
14.92389914779545
 20
6.270086223464858
 30
0.0
  0
SPLINE
  5
138
330
1F
100
AcDbEntity
  8
0
  6
Continuous
 62
     1
370
    15
100
AcDbSpline
210
0.0
220
0.0
230
1.0
 70
     8
 71
     3
 72
    10
 73
     6
 74
     0
 42
0.000000001
 43
0.00000001
 40
0.0
 40
0.0
 40
0.0
 40
0.0
 40
0.5
 40
0.5
 40
1.0
 40
1.0
 40
1.0
 40
1.0
 10
15.69627810452885
 20
6.110648307520806
 30
0.0
 10
15.61770860308111
 20
6.056830470471512
 30
0.0
 10
15.52408814004062
 20
6.037872680030434
 30
0.0
 10
15.34017900940089
 20
6.058153003874798
 30
0.0
 10
15.25209795859617
 20
6.096666502901172
 30
0.0
 10
15.1789367642781
 20
6.160716090765398
 30
0.0
  0
SPLINE
  5
139
330
1F
100
AcDbEntity
  8
0
  6
Continuous
 62
     1
370
    15
100
AcDbSpline
210
0.0
220
0.0
230
1.0
 70
     8
 71
     3
 72
    10
 73
     6
 74
     0
 42
0.000000001
 43
0.00000001
 40
0.0
 40
0.0
 40
0.0
 40
0.0
 40
0.5
 40
0.5
 40
1.0
 40
1.0
 40
1.0
 40
1.0
 10
16.2108217901781
 20
6.049675951063575
 30
0.0
 10
16.13717516509256
 20
6.116699315356767
 30
0.0
 10
16.04901852826995
 20
6.157526554850094
 30
0.0
 10
15.86837407200513
 20
6.181567930806107
 30
0.0
 10
15.77488845148561
 20
6.164494122562928
 30
0.0
 10
15.69627810452886
 20
6.110648307520812
 30
0.0
  0
SPLINE
  5
13A
330
1F
100
AcDbEntity
  8
0
  6
Continuous
 62
     1
370
    15
100
AcDbSpline
210
0.0
220
0.0
230
1.0
 70
     8
 71
     3
 72
    10
 73
     6
 74
     0
 42
0.000000001
 43
0.00000001
 40
0.0
 40
0.0
 40
0.0
 40
0.0
 40
0.5
 40
0.5
 40
1.0
 40
1.0
 40
1.0
 40
1.0
 10
16.72846823684478
 20
5.976996522241887
 30
0.0
 10
16.65032563910387
 20
5.92698776578111
 30
0.0
 10
16.55686628815911
 20
5.912203264047665
 30
0.0
 10
16.3728077851294
 20
5.940428129469597
 30
0.0
 10
16.28447480949129
 20
5.982646767594703
 30
0.0
 10
16.2108217901781
 20
6.049675951063579
 30
0.0
  0
SPLINE
  5
13B
330
1F
100
AcDbEntity
  8
0
  6
Continuous
 62
     1
370
    15
100
AcDbSpline
210
0.0
220
0.0
230
1.0
 70
     8
 71
     3
 72
     8
 73
     4
 74
     0
 42
0.000000001
 43
0.00000001
 40
0.0
 40
0.0
 40
0.0
 40
0.0
 40
1.0
 40
1.0
 40
1.0
 40
1.0
 10
16.98237324868273
 20
6.024925116727823
 30
0.0
 10
16.89372749823284
 20
6.038929790789028
 30
0.0
 10
16.80396518929376
 20
6.025312150563595
 30
0.0
 10
16.72846823684507
 20
5.976996522242079
 30
0.0
  0
SPLINE
  5
13C
330
1F
100
AcDbEntity
  8
0
  6
Continuous
 62
     1
370
    15
100
AcDbSpline
210
0.0
220
0.0
230
1.0
 70
     8
 71
     3
 72
     8
 73
     4
 74
     0
 42
0.000000001
 43
0.00000001
 40
0.0
 40
0.0
 40
0.0
 40
0.0
 40
1.0
 40
1.0
 40
1.0
 40
1.0
 10
17.23759128448454
 20
5.890351517752025
 30
0.0
 10
17.16392411416168
 20
5.961417664909163
 30
0.0
 10
17.07445164972494
 20
6.007883530183294
 30
0.0
 10
16.98237324868374
 20
6.024925116727649
 30
0.0
  0
SPLINE
  5
13D
330
1F
100
AcDbEntity
  8
0
  6
Continuous
 62
     1
370
    15
100
AcDbSpline
210
0.0
220
0.0
230
1.0
 70
     8
 71
     3
 72
    10
 73
     6
 74
     0
 42
0.000000001
 43
0.00000001
 40
0.0
 40
0.0
 40
0.0
 40
0.0
 40
0.5
 40
0.5
 40
1.0
 40
1.0
 40
1.0
 40
1.0
 10
17.75548935074874
 20
5.787224216488077
 30
0.0
 10
17.67681306340233
 20
5.742960795921855
 30
0.0
 10
17.58309007129494
 20
5.733928078116012
 30
0.0
 10
17.3990100672286
 20
5.772747664768623
 30
0.0
 10
17.31084043581429
 20
5.819688630271228
 30
0.0
 10
17.23759128448496
 20
5.890351517751698
 30
0.0
  0
SPLINE
  5
13E
330
1F
100
AcDbEntity
  8
0
  6
Continuous
 62
     1
370
    15
100
AcDbSpline
210
0.0
220
0.0
230
1.0
 70
     8
 71
     3
 72
    10
 73
     6
 74
     0
 42
0.000000001
 43
0.00000001
 40
0.0
 40
0.0
 40
0.0
 40
0.0
 40
0.5
 40
0.5
 40
1.0
 40
1.0
 40
1.0
 40
1.0
 10
18.27055682533654
 20
5.674200334235735
 30
0.0
 10
18.19681290161729
 20
5.746688509913463
 30
0.0
 10
18.10855779324657
 20
5.795502339769582
 30
0.0
 10
17.92774301153995
 20
5.837991541785232
 30
0.0
 10
17.83418289733275
 20
5.831497347132364
 30
0.0
 10
17.75548935074876
 20
5.787224216488092
 30
0.0
  0
SPLINE
  5
13F
330
1F
100
AcDbEntity
  8
0
  6
Continuous
 62
     1
370
    15
100
AcDbSpline
210
0.0
220
0.0
230
1.0
 70
     8
 71
     3
 72
    10
 73
     6
 74
     0
 42
0.000000001
 43
0.00000001
 40
0.0
 40
0.0
 40
0.0
 40
0.0
 40
0.5
 40
0.5
 40
1.0
 40
1.0
 40
1.0
 40
1.0
 10
18.78858035817269
 20
5.549890904180987
 30
0.0
 10
18.71039372654025
 20
5.510286987289579
 30
0.0
 10
18.61685179034276
 20
5.505608120172159
 30
0.0
 10
18.43266612260294
 20
5.551834195749533
 30
0.0
 10
18.34427368343145
 20
5.601738763295497
 30
0.0
 10
18.27055682533654
 20
5.674200334235733
 30
0.0
  0
SPLINE
  5
140
330
1F
100
AcDbEntity
  8
0
  6
Continuous
 62
     1
370
    15
100
AcDbSpline
210
0.0
220
0.0
230
1.0
 70
     8
 71
     3
 72
     8
 73
     4
 74
     0
 42
0.000000001
 43
0.00000001
 40
0.0
 40
0.0
 40
0.0
 40
0.0
 40
1.0
 40
1.0
 40
1.0
 40
1.0
 10
19.04262971359636
 20
5.568345954732093
 30
0.0
 10
18.95395885738579
 20
5.591274980547514
 30
0.0
 10
18.864155985426
 20
5.588172267609179
 30
0.0
 10
18.788580358173
 20
5.549890904181147
 30
0.0
  0
SPLINE
  5
141
330
1F
100
AcDbEntity
  8
0
  6
Continuous
 62
     1
370
    15
100
AcDbSpline
210
0.0
220
0.0
230
1.0
 70
     8
 71
     3
 72
     8
 73
     4
 74
     0
 42
0.000000001
 43
0.00000001
 40
0.0
 40
0.0
 40
0.0
 40
0.0
 40
1.0
 40
1.0
 40
1.0
 40
1.0
 10
19.29798618198609
 20
5.413138270415747
 30
0.0
 10
19.22426286507336
 20
5.48840716662111
 30
0.0
 10
19.13474226196621
 20
5.542157841054999
 30
0.0
 10
19.04262971359738
 20
5.568345954731821
 30
0.0
  0
SPLINE
  5
142
330
1F
100
AcDbEntity
  8
0
  6
Continuous
 62
     1
370
    15
100
AcDbSpline
210
0.0
220
0.0
230
1.0
 70
     8
 71
     3
 72
    10
 73
     6
 74
     0
 42
0.000000001
 43
0.00000001
 40
0.0
 40
0.0
 40
0.0
 40
0.0
 40
0.5
 40
0.5
 40
1.0
 40
1.0
 40
1.0
 40
1.0
 10
19.81602680358321
 20
5.260422341640346
 30
0.0
 10
19.73731747995439
 20
5.227285411603193
 30
0.0
 10
19.64356149794585
 20
5.228499658650955
 30
0.0
 10
19.45943903014269
 20
5.284562181283849
 30
0.0
 10
19.37125995109418
 20
5.338328346601362
 30
0.0
 10
19.29798618198651
 20
5.413138270415448
 30
0.0
  0
SPLINE
  5
143
330
1F
100
AcDbEntity
  8
0
  6
Continuous
 62
     1
370
    15
100
AcDbSpline
210
0.0
220
0.0
230
1.0
 70
     8
 71
     3
 72
    10
 73
     6
 74
     0
 42
0.000000001
 43
0.00000001
 40
0.0
 40
0.0
 40
0.0
 40
0.0
 40
0.5
 40
0.5
 40
1.0
 40
1.0
 40
1.0
 40
1.0
 10
20.33108294162594
 20
5.099326326277389
 30
0.0
 10
20.2573385713212
 20
5.174722769869476
 30
0.0
 10
20.16907702582219
 20
5.229812011467557
 30
0.0
 10
19.98826233499283
 20
5.289252930102952
 30
0.0
 10
19.89471334643803
 20
5.293549680883427
 30
0.0
 10
19.81602680358321
 20
5.260422341640343
 30
0.0
  0
SPLINE
  5
144
330
1F
100
AcDbEntity
  8
0
  6
Continuous
 62
     1
370
    15
100
AcDbSpline
210
0.0
220
0.0
230
1.0
 70
     8
 71
     3
 72
    10
 73
     6
 74
     0
 42
0.000000001
 43
0.00000001
 40
0.0
 40
0.0
 40
0.0
 40
0.0
 40
0.5
 40
0.5
 40
1.0
 40
1.0
 40
1.0
 40
1.0
 10
20.84894141799472
 20
4.927914201098353
 30
0.0
 10
20.77078733712011
 20
4.900055170254912
 30
0.0
 10
20.67726545439994
 20
4.905616857992896
 30
0.0
 10
20.49311696656502
 20
4.968170107212247
 30
0.0
 10
20.40476480209347
 20
5.023993792911886
 30
0.0
 10
20.33108294162594
 20
5.099326326277389
 30
0.0
  0
SPLINE
  5
145
330
1F
100
AcDbEntity
  8
0
  6
Continuous
 62
     1
370
    15
100
AcDbSpline
210
0.0
220
0.0
230
1.0
 70
     8
 71
     3
 72
     8
 73
     4
 74
     0
 42
0.000000001
 43
0.00000001
 40
0.0
 40
0.0
 40
0.0
 40
0.0
 40
1.0
 40
1.0
 40
1.0
 40
1.0
 10
21.10286686966055
 20
4.916515863422182
 30
0.0
 10
21.01425177265912
 20
4.94749184055439
 30
0.0
 10
20.92446623312789
 20
4.954835996232859
 30
0.0
 10
20.84894141799503
 20
4.92791420109846
 30
0.0
  0
SPLINE
  5
146
330
1F
100
AcDbEntity
  8
0
  6
Continuous
 62
     1
370
    15
100
AcDbSpline
210
0.0
220
0.0
230
1.0
 70
     8
 71
     3
 72
     8
 73
     4
 74
     0
 42
0.000000001
 43
0.00000001
 40
0.0
 40
0.0
 40
0.0
 40
0.0
 40
1.0
 40
1.0
 40
1.0
 40
1.0
 10
21.35806421886785
 20
4.746152231785286
 30
0.0
 10
21.28440523884669
 20
4.822967983192823
 30
0.0
 10
21.19497016104375
 20
4.882158241671375
 30
0.0
 10
21.10286686966158
 20
4.916515863421811
 30
0.0
  0
SPLINE
  5
147
330
1F
100
AcDbEntity
  8
0
  6
Continuous
 62
     1
370
    15
100
AcDbSpline
210
0.0
220
0.0
230
1.0
 70
     8
 71
     3
 72
    10
 73
     6
 74
     0
 42
0.000000001
 43
0.00000001
 40
0.0
 40
0.0
 40
0.0
 40
0.0
 40
0.5
 40
0.5
 40
1.0
 40
1.0
 40
1.0
 40
1.0
 10
21.87570609197302
 20
4.549209819218738
 30
0.0
 10
21.79705447269454
 20
4.528363631371791
 30
0.0
 10
21.70335728359866
 20
4.539760149839585
 30
0.0
 10
21.519361288441
 20
4.611096693146552
 30
0.0
 10
21.43126484761309
 20
4.669814475018068
 30
0.0
 10
21.35806421886827
 20
4.746152231785024
 30
0.0
  0
SPLINE
  5
148
330
1F
100
AcDbEntity
  8
0
  6
Continuous
 62
     1
370
    15
100
AcDbSpline
210
0.0
220
0.0
230
1.0
 70
     8
 71
     3
 72
    10
 73
     6
 74
     0
 42
0.000000001
 43
0.00000001
 40
0.0
 40
0.0
 40
0.0
 40
0.0
 40
0.5
 40
0.5
 40
1.0
 40
1.0
 40
1.0
 40
1.0
 10
22.39021637764915
 20
4.3458321005964
 30
0.0
 10
22.3165680925409
 20
4.421459967552741
 30
0.0
 10
22.2283920240499
 20
4.480873246299256
 30
0.0
 10
22.04774769429364
 20
4.555137590819834
 30
0.0
 10
21.9542953810199
 20
4.570039486773691
 30
0.0
 10
21.87570609197303
 20
4.549209819218747
 30
0.0
  0
SPLINE
  5
149
330
1F
100
AcDbEntity
  8
0
  6
Continuous
 62
     1
370
    15
100
AcDbSpline
210
0.0
220
0.0
230
1.0
 70
     8
 71
     3
 72
    10
 73
     6
 74
     0
 42
0.000000001
 43
0.00000001
 40
0.0
 40
0.0
 40
0.0
 40
0.0
 40
0.5
 40
0.5
 40
1.0
 40
1.0
 40
1.0
 40
1.0
 10
22.90754227369787
 20
4.133522228777151
 30
0.0
 10
22.82947298858953
 20
4.118361069386403
 30
0.0
 10
22.73603631809838
 20
4.133917622894867
 30
0.0
 10
22.5520464191053
 20
4.210520513079935
 30
0.0
 10
22.46378832771311
 20
4.270282620483217
 30
0.0
 10
22.39021637764915
 20
4.345832100596397
 30
0.0
  0
SPLINE
  5
14A
330
1F
100
AcDbEntity
  8
0
  6
Continuous
 62
     1
370
    15
100
AcDbSpline
210
0.0
220
0.0
230
1.0
 70
     8
 71
     3
 72
     8
 73
     4
 74
     0
 42
0.000000001
 43
0.00000001
 40
0.0
 40
0.0
 40
0.0
 40
0.0
 40
1.0
 40
1.0
 40
1.0
 40
1.0
 10
23.16132416824229
 20
4.092766680762042
 30
0.0
 10
23.072742311247
 20
4.130649693956002
 30
0.0
 10
22.98300403229383
 20
4.148177003038045
 30
0.0
 10
22.90754227369818
 20
4.133522228777213
 30
0.0
  0
SPLINE
  5
14B
330
1F
100
AcDbEntity
  8
0
  6
Continuous
 62
     1
370
    15
100
AcDbSpline
210
0.0
220
0.0
230
1.0
 70
     8
 71
     3
 72
     8
 73
     4
 74
     0
 42
0.000000001
 43
0.00000001
 40
0.0
 40
0.0
 40
0.0
 40
0.0
 40
1.0
 40
1.0
 40
1.0
 40
1.0
 10
23.41643597295421
 20
3.913475689174084
 30
0.0
 10
23.3428248834763
 20
3.989081660181093
 30
0.0
 10
23.25340490609447
 20
4.051507819147309
 30
0.0
 10
23.1613241682433
 20
4.092766680761589
 30
0.0
  0
SPLINE
  5
14C
330
1F
100
AcDbEntity
  8
0
  6
Continuous
 62
     1
370
    15
100
AcDbSpline
210
0.0
220
0.0
230
1.0
 70
     8
 71
     3
 72
    10
 73
     6
 74
     0
 42
0.000000001
 43
0.00000001
 40
0.0
 40
0.0
 40
0.0
 40
0.0
 40
0.5
 40
0.5
 40
1.0
 40
1.0
 40
1.0
 40
1.0
 10
23.93421314503467
 20
3.678911043706982
 30
0.0
 10
23.85552203200055
 20
3.671136969283392
 30
0.0
 10
23.76180473972504
 20
3.692384804893826
 30
0.0
 10
23.57779826001211
 20
3.776589280883463
 30
0.0
 10
23.4896803663313
 20
3.838246351836853
 30
0.0
 10
23.41643597295464
 20
3.913475689173867
 30
0.0
  0
SPLINE
  5
14D
330
1F
100
AcDbEntity
  8
0
  6
Continuous
 62
     1
370
    15
100
AcDbSpline
210
0.0
220
0.0
230
1.0
 70
     8
 71
     3
 72
    10
 73
     6
 74
     0
 42
0.000000001
 43
0.00000001
 40
0.0
 40
0.0
 40
0.0
 40
0.0
 40
0.5
 40
0.5
 40
1.0
 40
1.0
 40
1.0
 40
1.0
 10
24.44916747647761
 20
3.439856138271551
 30
0.0
 10
24.37542126140573
 20
3.513154357497322
 30
0.0
 10
24.28716509200727
 20
3.574897074200184
 30
0.0
 10
24.1063880823765
 20
3.661574365754733
 30
0.0
 10
24.01287368762161
 20
3.686682098006415
 30
0.0
 10
23.93421314503469
 20
3.678911043706992
 30
0.0
  0
SPLINE
  5
14E
330
1F
100
AcDbEntity
  8
0
  6
Continuous
 62
     1
370
    15
100
AcDbSpline
210
0.0
220
0.0
230
1.0
 70
     8
 71
     3
 72
    10
 73
     6
 74
     0
 42
0.000000001
 43
0.00000001
 40
0.0
 40
0.0
 40
0.0
 40
0.0
 40
0.5
 40
0.5
 40
1.0
 40
1.0
 40
1.0
 40
1.0
 10
24.96707710058124
 20
3.193534902469028
 30
0.0
 10
24.88890469046671
 20
3.191645633280702
 30
0.0
 10
24.79535985856262
 20
3.216779588948155
 30
0.0
 10
24.61118470872057
 20
3.304950964989665
 30
0.0
 10
24.52283900466242
 20
3.36663215222257
 30
0.0
 10
24.44916747647759
 20
3.439856138271572
 30
0.0
  0
SPLINE
  5
14F
330
1F
100
AcDbEntity
  8
0
  6
Continuous
 62
     1
370
    15
100
AcDbSpline
210
0.0
220
0.0
230
1.0
 70
     8
 71
     3
 72
     8
 73
     4
 74
     0
 42
0.000000001
 43
0.00000001
 40
0.0
 40
0.0
 40
0.0
 40
0.0
 40
1.0
 40
1.0
 40
1.0
 40
1.0
 10
25.2210736774426
 20
3.124660707094028
 30
0.0
 10
25.13241618427783
 20
3.168182679191383
 30
0.0
 10
25.04260635794179
 20
3.195360291996249
 30
0.0
 10
24.96707710058156
 20
3.19353490246902
 30
0.0
  0
SPLINE
  5
150
330
1F
100
AcDbEntity
  8
0
  6
Continuous
 62
     1
370
    15
100
AcDbSpline
210
0.0
220
0.0
230
1.0
 70
     8
 71
     3
 72
     8
 73
     4
 74
     0
 42
0.000000001
 43
0.00000001
 40
0.0
 40
0.0
 40
0.0
 40
0.0
 40
1.0
 40
1.0
 40
1.0
 40
1.0
 10
25.4764035085542
 20
2.942598060261864
 30
0.0
 10
25.402717534648
 20
3.014384146174055
 30
0.0
 10
25.31321980496799
 20
3.07789613545023
 30
0.0
 10
25.22107367744363
 20
3.124660707093509
 30
0.0
  0
SPLINE
  5
151
330
1F
100
AcDbEntity
  8
0
  6
Continuous
 62
     1
370
    15
100
AcDbSpline
210
0.0
220
0.0
230
1.0
 70
     8
 71
     3
 72
    10
 73
     6
 74
     0
 42
0.000000001
 43
0.00000001
 40
0.0
 40
0.0
 40
0.0
 40
0.0
 40
0.5
 40
0.5
 40
1.0
 40
1.0
 40
1.0
 40
1.0
 10
25.9945042922565
 20
2.678773651887257
 30
0.0
 10
25.91578229781481
 20
2.684389679565663
 30
0.0
 10
25.82207376761106
 20
2.714809093447842
 30
0.0
 10
25.63796958860293
 20
2.808832600235111
 30
0.0
 10
25.54973108706331
 20
2.871161129031443
 30
0.0
 10
25.47640350855463
 20
2.942598060261699
 30
0.0
  0
SPLINE
  5
152
330
1F
100
AcDbEntity
  8
0
  6
Continuous
 62
     1
370
    15
100
AcDbSpline
210
0.0
220
0.0
230
1.0
 70
     8
 71
     3
 72
    10
 73
     6
 74
     0
 42
0.000000001
 43
0.00000001
 40
0.0
 40
0.0
 40
0.0
 40
0.0
 40
0.5
 40
0.5
 40
1.0
 40
1.0
 40
1.0
 40
1.0
 10
26.50966411023419
 20
2.412267962092316
 30
0.0
 10
26.43587458190446
 20
2.480685575613606
 30
0.0
 10
26.34757684755089
 20
2.542613547017805
 30
0.0
 10
26.16673899554748
 20
2.638707421692422
 30
0.0
 10
26.07320486181953
 20
2.673159152659845
 30
0.0
 10
25.99450429225651
 20
2.67877365188725
 30
0.0
  0
SPLINE
  5
153
330
1F
100
AcDbEntity
  8
0
  6
Continuous
 62
     1
370
    15
100
AcDbSpline
210
0.0
220
0.0
230
1.0
 70
     8
 71
     3
 72
    10
 73
     6
 74
     0
 42
0.000000001
 43
0.00000001
 40
0.0
 40
0.0
 40
0.0
 40
0.0
 40
0.5
 40
0.5
 40
1.0
 40
1.0
 40
1.0
 40
1.0
 10
27.02762645099764
 20
2.140628848699154
 30
0.0
 10
26.94944025856522
 20
2.152081928773357
 30
0.0
 10
26.85587780256509
 20
2.185887496701888
 30
0.0
 10
26.67168327629762
 20
2.282515737528691
 30
0.0
 10
26.58334269899246
 20
2.343953211685849
 30
0.0
 10
26.50966411023419
 20
2.41226796209232
 30
0.0
  0
SPLINE
  5
154
330
1F
100
AcDbEntity
  8
0
  6
Continuous
 62
     1
370
    15
100
AcDbSpline
210
0.0
220
0.0
230
1.0
 70
     8
 71
     3
 72
     8
 73
     4
 74
     0
 42
0.000000001
 43
0.00000001
 40
0.0
 40
0.0
 40
0.0
 40
0.0
 40
1.0
 40
1.0
 40
1.0
 40
1.0
 10
27.28159621146614
 20
2.046098886121483
 30
0.0
 10
27.1929401055832
 20
2.093717466953758
 30
0.0
 10
27.10314170887879
 20
2.129567019641679
 30
0.0
 10
27.02762645099796
 20
2.140628848699102
 30
0.0
  0
SPLINE
  5
155
330
1F
100
AcDbEntity
  8
0
  6
Continuous
 62
     1
370
    15
100
AcDbSpline
210
0.0
220
0.0
230
1.0
 70
     8
 71
     3
 72
     8
 73
     4
 74
     0
 42
0.000000001
 43
0.00000001
 40
0.0
 40
0.0
 40
0.0
 40
0.0
 40
1.0
 40
1.0
 40
1.0
 40
1.0
 10
27.53685454460515
 20
1.867739833266391
 30
0.0
 10
27.46319560410498
 20
1.933146083787732
 30
0.0
 10
27.37371635838115
 20
1.995492716193763
 30
0.0
 10
27.28159621146715
 20
2.046098886120934
 30
0.0
  0
SPLINE
  5
156
330
1F
100
AcDbEntity
  8
0
  6
Continuous
 62
     1
370
    15
100
AcDbSpline
210
0.0
220
0.0
230
1.0
 70
     8
 71
     3
 72
    10
 73
     6
 74
     0
 42
0.000000001
 43
0.00000001
 40
0.0
 40
0.0
 40
0.0
 40
0.0
 40
0.5
 40
0.5
 40
1.0
 40
1.0
 40
1.0
 40
1.0
 10
28.05470596954583
 20
1.584570947180521
 30
0.0
 10
27.9760561587434
 20
1.603269936348013
 30
0.0
 10
27.88237391162311
 20
1.641526812943452
 30
0.0
 10
27.69833416192704
 20
1.741876574722307
 30
0.0
 10
27.61013393229151
 20
1.802670610759136
 30
0.0
 10
27.53685454460558
 20
1.867739833266289
 30
0.0
  0
SPLINE
  5
157
330
1F
100
AcDbEntity
  8
0
  6
Continuous
 62
     1
370
    15
100
AcDbSpline
210
0.0
220
0.0
230
1.0
 70
     8
 71
     3
 72
    10
 73
     6
 74
     0
 42
0.000000001
 43
0.00000001
 40
0.0
 40
0.0
 40
0.0
 40
0.0
 40
0.5
 40
0.5
 40
1.0
 40
1.0
 40
1.0
 40
1.0
 10
28.56952869454685
 20
1.300098870257939
 30
0.0
 10
28.49579701326399
 20
1.361209341806967
 30
0.0
 10
28.40755565927038
 20
1.421142211933672
 30
0.0
 10
28.22683880978872
 20
1.523267645607503
 30
0.0
 10
28.13337761033285
 20
1.565866767935117
 30
0.0
 10
28.05470596954584
 20
1.584570947180518
 30
0.0
  0
SPLINE
  5
158
330
1F
100
AcDbEntity
  8
0
  6
Continuous
 62
     1
370
    15
100
AcDbSpline
210
0.0
220
0.0
230
1.0
 70
     8
 71
     3
 72
    10
 73
     6
 74
     0
 42
0.000000001
 43
0.00000001
 40
0.0
 40
0.0
 40
0.0
 40
0.0
 40
0.5
 40
0.5
 40
1.0
 40
1.0
 40
1.0
 40
1.0
 10
29.08700541069223
 20
1.012800111016496
 30
0.0
 10
29.00889560636266
 20
1.037168773805113
 30
0.0
 10
28.91540723873072
 20
1.078427613760712
 30
0.0
 10
28.73136145172683
 20
1.180083201223706
 30
0.0
 10
28.64311717479229
 20
1.239107086941308
 30
0.0
 10
28.56952869454685
 20
1.30009887025794
 30
0.0
  0
SPLINE
  5
159
330
1F
100
AcDbEntity
  8
0
  6
Continuous
 62
     1
370
    15
100
AcDbSpline
210
0.0
220
0.0
230
1.0
 70
     8
 71
     3
 72
     8
 73
     4
 74
     0
 42
0.000000001
 43
0.00000001
 40
0.0
 40
0.0
 40
0.0
 40
0.0
 40
1.0
 40
1.0
 40
1.0
 40
1.0
 10
29.34070820406491
 20
0.8960125510043545
 30
0.0
 10
29.25213001146999
 20
0.9460360712430216
 30
0.0
 10
29.16242554444756
 20
0.9892705704839855
 30
0.0
 10
29.08700541069254
 20
1.012800111016401
 30
0.0
  0
SPLINE
  5
15A
330
1F
100
AcDbEntity
  8
0
  6
Continuous
 62
     1
370
    15
100
AcDbSpline
210
0.0
220
0.0
230
1.0
 70
     8
 71
     3
 72
     8
 73
     4
 74
     0
 42
0.000000001
 43
0.00000001
 40
0.0
 40
0.0
 40
0.0
 40
0.0
 40
1.0
 40
1.0
 40
1.0
 40
1.0
 10
29.59564955497843
 20
0.727681932326036
 30
0.0
 10
29.52209791060123
 20
0.784388231118147
 30
0.0
 10
29.43272410055241
 20
0.8433626145809067
 30
0.0
 10
29.34070820406593
 20
0.8960125510037819
 30
0.0
  0
SPLINE
  5
15B
330
1F
100
AcDbEntity
  8
0
  6
Continuous
 62
     1
370
    15
100
AcDbSpline
210
0.0
220
0.0
230
1.0
 70
     8
 71
     3
 72
    10
 73
     6
 74
     0
 42
0.000000001
 43
0.00000001
 40
0.0
 40
0.0
 40
0.0
 40
0.0
 40
0.5
 40
0.5
 40
1.0
 40
1.0
 40
1.0
 40
1.0
 10
30.11313616930806
 20
0.4351442768791043
 30
0.0
 10
30.03454512870145
 20
0.4661723244348362
 30
0.0
 10
29.94091904393566
 20
0.510955323959419
 30
0.0
 10
29.75698223648807
 20
0.6141216773181616
 30
0.0
 10
29.66884496254762
 20
0.671250282334247
 30
0.0
 10
29.59564955497886
 20
0.7276819323259917
 30
0.0
  0
SPLINE
  5
15C
330
1F
100
AcDbEntity
  8
0
  6
Continuous
 62
     1
370
    15
100
AcDbSpline
210
0.0
220
0.0
230
1.0
 70
     8
 71
     3
 72
    10
 73
     6
 74
     0
 42
0.000000001
 43
0.00000001
 40
0.0
 40
0.0
 40
0.0
 40
0.0
 40
0.5
 40
0.5
 40
1.0
 40
1.0
 40
1.0
 40
1.0
 10
30.62793904301171
 20
0.1428674419294385
 30
0.0
 10
30.55422174570165
 20
0.1945794297384428
 30
0.0
 10
30.46604571705995
 20
0.25049799416276
 30
0.0
 10
30.28535170279974
 20
0.355018538926942
 30
0.0
 10
30.19182348508419
 20
0.4040782195131582
 30
0.0
 10
30.11313616930807
 20
0.435144276879102
 30
0.0
  0
SPLINE
  5
15D
330
1F
100
AcDbEntity
  8
0
  6
Continuous
 62
     1
370
    15
100
AcDbSpline
210
0.0
220
0.0
230
1.0
 70
     8
 71
     3
 72
    10
 73
     6
 74
     0
 42
0.000000001
 43
0.00000001
 40
0.0
 40
0.0
 40
0.0
 40
0.0
 40
0.5
 40
0.5
 40
1.0
 40
1.0
 40
1.0
 40
1.0
 10
31.14573489251454
 20
-0.1506421347083986
 30
0.0
 10
31.06755038762839
 20
-0.1141142487922403
 30
0.0
 10
30.97400078668873
 20
-0.0667408072693504
 30
0.0
 10
30.78986641009934
 20
0.0365661320396235
 30
0.0
 10
30.70157236150953
 20
0.0912143644640333
 30
0.0
 10
30.6279390430117
 20
0.1428674419294364
 30
0.0
  0
SPLINE
  5
15E
330
1F
100
AcDbEntity
  8
0
  6
Continuous
 62
     1
370
    15
100
AcDbSpline
210
0.0
220
0.0
230
1.0
 70
     8
 71
     3
 72
     8
 73
     4
 74
     0
 42
0.000000001
 43
0.00000001
 40
0.0
 40
0.0
 40
0.0
 40
0.0
 40
1.0
 40
1.0
 40
1.0
 40
1.0
 10
31.39967994733126
 20
-0.2859528538369396
 30
0.0
 10
31.31102257062194
 20
-0.2351610510773431
 30
0.0
 10
31.2212366854912
 20
-0.1859166546958891
 30
0.0
 10
31.14573489251486
 20
-0.1506421347085434
 30
0.0
  0
SPLINE
  5
15F
330
1F
100
AcDbEntity
  8
0
  6
Continuous
 62
     1
370
    15
100
AcDbSpline
210
0.0
220
0.0
230
1.0
 70
     8
 71
     3
 72
     8
 73
     4
 74
     0
 42
0.000000001
 43
0.00000001
 40
0.0
 40
0.0
 40
0.0
 40
0.0
 40
1.0
 40
1.0
 40
1.0
 40
1.0
 10
31.65494935372158
 20
-0.4387952069678095
 30
0.0
 10
31.58127881123742
 20
-0.3926219650771252
 30
0.0
 10
31.49179272049038
 20
-0.3389432388150656
 30
0.0
 10
31.39967994733227
 20
-0.2859528538375234
 30
0.0
  0
SPLINE
  5
160
330
1F
100
AcDbEntity
  8
0
  6
Continuous
 62
     1
370
    15
100
AcDbSpline
210
0.0
220
0.0
230
1.0
 70
     8
 71
     3
 72
    10
 73
     6
 74
     0
 42
0.000000001
 43
0.00000001
 40
0.0
 40
0.0
 40
0.0
 40
0.0
 40
0.5
 40
0.5
 40
1.0
 40
1.0
 40
1.0
 40
1.0
 10
32.17294020420691
 20
-0.7310961733018408
 30
0.0
 10
32.09426329665647
 20
-0.6887229885316919
 30
0.0
 10
32.00054327916634
 20
-0.6388619030371592
 30
0.0
 10
31.81644188971394
 20
-0.5362829529431331
 30
0.0
 10
31.7282322248362
 20
-0.4847254746202735
 30
0.0
 10
31.654949353722
 20
-0.4387952069677857
 30
0.0
  0
SPLINE
  5
161
330
1F
100
AcDbEntity
  8
0
  6
Continuous
 62
     1
370
    15
100
AcDbSpline
210
0.0
220
0.0
230
1.0
 70
     8
 71
     3
 72
    10
 73
     6
 74
     0
 42
0.000000001
 43
0.00000001
 40
0.0
 40
0.0
 40
0.0
 40
0.0
 40
0.5
 40
0.5
 40
1.0
 40
1.0
 40
1.0
 40
1.0
 10
32.68810014758672
 20
-1.02072905183513
 30
0.0
 10
32.61435127647894
 20
-0.9802429450074427
 30
0.0
 10
32.52610167108135
 20
-0.930466342025127
 30
0.0
 10
32.34527203697983
 20
-0.8273633674791718
 30
0.0
 10
32.25168159303561
 20
-0.7735040858873489
 30
0.0
 10
32.17294020420693
 20
-0.7310961733018524
 30
0.0
  0
SPLINE
  5
162
330
1F
100
AcDbEntity
  8
0
  6
Continuous
 62
     1
370
    15
100
AcDbSpline
210
0.0
220
0.0
230
1.0
 70
     8
 71
     3
 72
    10
 73
     6
 74
     0
 42
0.000000001
 43
0.00000001
 40
0.0
 40
0.0
 40
0.0
 40
0.0
 40
0.5
 40
0.5
 40
1.0
 40
1.0
 40
1.0
 40
1.0
 10
33.20616452188976
 20
-1.310259845877157
 30
0.0
 10
33.12792244021432
 20
-1.262824876291712
 30
0.0
 10
33.03432105485216
 20
-1.210976672198248
 30
0.0
 10
32.85011786341445
 20
-1.109590134240015
 30
0.0
 10
32.76180301359685
 20
-1.061189903126436
 30
0.0
 10
32.68810014758672
 20
-1.020729051835128
 30
0.0
  0
SPLINE
  5
163
330
1F
100
AcDbEntity
  8
0
  6
Continuous
 62
     1
370
    15
100
AcDbSpline
210
0.0
220
0.0
230
1.0
 70
     8
 71
     3
 72
     8
 73
     4
 74
     0
 42
0.000000001
 43
0.00000001
 40
0.0
 40
0.0
 40
0.0
 40
0.0
 40
1.0
 40
1.0
 40
1.0
 40
1.0
 10
33.4601813901234
 20
-1.459343752274446
 30
0.0
 10
33.37150020656193
 20
-1.409568327223219
 30
0.0
 10
33.28169425369186
 20
-1.356050428823182
 30
0.0
 10
33.20616452189007
 20
-1.310259845877342
 30
0.0
  0
SPLINE
  5
164
330
1F
100
AcDbEntity
  8
0
  6
Continuous
 62
     1
370
    15
100
AcDbSpline
210
0.0
220
0.0
230
1.0
 70
     8
 71
     3
 72
     8
 73
     4
 74
     0
 42
0.000000001
 43
0.00000001
 40
0.0
 40
0.0
 40
0.0
 40
0.0
 40
1.0
 40
1.0
 40
1.0
 40
1.0
 10
33.71549485834318
 20
-1.591246849183252
 30
0.0
 10
33.64180565227795
 20
-1.557270820658055
 30
0.0
 10
33.55230141619936
 20
-1.510794452171882
 30
0.0
 10
33.46018139012442
 20
-1.45934375227501
 30
0.0
  0
SPLINE
  5
165
330
1F
100
AcDbEntity
  8
0
  6
Continuous
 62
     1
370
    15
100
AcDbSpline
210
0.0
220
0.0
230
1.0
 70
     8
 71
     3
 72
    10
 73
     6
 74
     0
 42
0.000000001
 43
0.00000001
 40
0.0
 40
0.0
 40
0.0
 40
0.0
 40
0.5
 40
0.5
 40
1.0
 40
1.0
 40
1.0
 40
1.0
 10
34.23345061984259
 20
-1.872924448799055
 30
0.0
 10
34.15477845819868
 20
-1.820704141237326
 30
0.0
 10
34.06105603194693
 20
-1.76753519179133
 30
0.0
 10
33.87695833950521
 20
-1.669183219397487
 30
0.0
 10
33.78876798349049
 20
-1.625031034453313
 30
0.0
 10
33.7154948583436
 20
-1.59124684918316
 30
0.0
  0
SPLINE
  5
166
330
1F
100
AcDbEntity
  8
0
  6
Continuous
 62
     1
370
    15
100
AcDbSpline
210
0.0
220
0.0
230
1.0
 70
     8
 71
     3
 72
    10
 73
     6
 74
     0
 42
0.000000001
 43
0.00000001
 40
0.0
 40
0.0
 40
0.0
 40
0.0
 40
0.5
 40
0.5
 40
1.0
 40
1.0
 40
1.0
 40
1.0
 10
35.26618629599505
 20
-2.424254108855412
 30
0.0
 10
35.18801270639684
 20
-2.367629518477098
 30
0.0
 10
35.09451759116074
 20
-2.313144919777252
 30
0.0
 10
34.91043226559118
 20
-2.21743084726253
 30
0.0
 10
34.82210295745878
 20
-2.177216098584656
 30
0.0
 10
34.7484224584988
 20
-2.149517936668978
 30
0.0
  0
SPLINE
  5
167
330
1F
100
AcDbEntity
  8
0
  6
Continuous
 62
     1
370
    15
100
AcDbSpline
210
0.0
220
0.0
230
1.0
 70
     8
 71
     3
 72
    10
 73
     6
 74
     0
 42
0.000000001
 43
0.00000001
 40
0.0
 40
0.0
 40
0.0
 40
0.0
 40
0.5
 40
0.5
 40
1.0
 40
1.0
 40
1.0
 40
1.0
 10
36.29248445333452
 20
-2.949157352040309
 30
0.0
 10
36.21390703123318
 20
-2.88894794588055
 30
0.0
 10
36.12027351815931
 20
-2.834346187084945
 30
0.0
 10
35.93634736387245
 20
-2.743697409807139
 30
0.0
 10
35.8482675888392
 20
-2.708518385993253
 30
0.0
 10
35.77510131553508
 20
-2.688081529727937
 30
0.0
  0
SPLINE
  5
168
330
1F
100
AcDbEntity
  8
0
  6
Continuous
 62
     1
370
    15
100
AcDbSpline
210
0.0
220
0.0
230
1.0
 70
     8
 71
     3
 72
     8
 73
     4
 74
     0
 42
0.000000001
 43
0.00000001
 40
0.0
 40
0.0
 40
0.0
 40
0.0
 40
1.0
 40
1.0
 40
1.0
 40
1.0
 10
37.07661682390227
 20
-3.298485019132122
 30
0.0
 10
36.97951877851782
 20
-3.251455905785976
 30
0.0
 10
36.88478683337634
 20
-3.217873704205966
 30
0.0
 10
36.8069680463811
 20
-3.203087855713078
 30
0.0
  0
SPLINE
  5
169
330
1F
100
AcDbEntity
  8
0
  6
Continuous
 62
     1
370
    15
100
AcDbSpline
210
0.0
220
0.0
230
1.0
 70
     8
 71
     3
 72
     8
 73
     4
 74
     0
 42
0.000000001
 43
0.00000001
 40
0.0
 40
0.0
 40
0.0
 40
0.0
 40
1.0
 40
1.0
 40
1.0
 40
1.0
 10
37.38677592541679
 20
-3.319926771193425
 30
0.0
 10
37.28392732360182
 20
-3.313761103023648
 30
0.0
 10
37.18051246589904
 20
-3.306602155732421
 30
0.0
 10
37.07661682390238
 20
-3.298485019132137
 30
0.0
  0
LINE
  5
16A
330
1F
100
AcDbEntity
  8
0
  6
Continuous
 62
     1
370
    15
100
AcDbLine
 10
37.38677578236564
 20
4.093678592375181
 30
0.0
 11
37.38677578236564
 21
5.804578697911165
 31
0.0
  0
SPLINE
  5
16B
330
1F
100
AcDbEntity
  8
0
  6
Continuous
 62
     1
370
    15
100
AcDbSpline
210
0.0
220
0.0
230
1.0
 70
     8
 71
     3
 72
    14
 73
    10
 74
     0
 42
0.000000001
 43
0.00000001
 40
0.0
 40
0.0
 40
0.0
 40
0.0
 40
0.25
 40
0.25
 40
0.5
 40
0.5
 40
0.75
 40
0.75
 40
1.0
 40
1.0
 40
1.0
 40
1.0
 10
37.38677592541679
 20
4.093678367700456
 30
0.0
 10
37.28213574545408
 20
3.854736268233806
 30
0.0
 10
37.15878644306548
 20
3.633362306659862
 30
0.0
 10
36.87266544923261
 20
3.227632579834808
 30
0.0
 10
36.70777573738049
 20
3.042078649189841
 30
0.0
 10
36.35338271633842
 20
2.726686201380355
 30
0.0
 10
36.16274506183976
 20
2.59430913041099
 30
0.0
 10
35.7557430300327
 20
2.37801655025822
 30
0.0
 10
35.5461563971722
 20
2.297603856028358
 30
0.0
 10
35.33133470785587
 20
2.241175296723878
 30
0.0
  0
SPLINE
  5
16C
330
1F
100
AcDbEntity
  8
0
  6
Continuous
 62
     1
370
    15
100
AcDbSpline
210
0.0
220
0.0
230
1.0
 70
     8
 71
     3
 72
     8
 73
     4
 74
     0
 42
0.000000001
 43
0.00000001
 40
0.0
 40
0.0
 40
0.0
 40
0.0
 40
1.0
 40
1.0
 40
1.0
 40
1.0
 10
37.38677592541679
 20
1.206945810040301
 30
0.0
 10
36.68422552049154
 20
1.588935892709139
 30
0.0
 10
35.99966541643477
 20
1.932422814628907
 30
0.0
 10
35.33133470785587
 20
2.241175296723879
 30
0.0
  0
LINE
  5
16D
330
1F
100
AcDbEntity
  8
0
  6
Continuous
 62
     1
370
    15
100
AcDbLine
 10
37.38677578236564
 20
0.433146353947631
 30
0.0
 11
37.38677578236564
 21
1.206945784992239
 31
0.0
  0
SPLINE
  5
16E
330
1F
100
AcDbEntity
  8
0
  6
Continuous
 62
     1
370
    15
100
AcDbSpline
210
0.0
220
0.0
230
1.0
 70
     8
 71
     3
 72
     8
 73
     4
 74
     0
 42
0.000000001
 43
0.00000001
 40
0.0
 40
0.0
 40
0.0
 40
0.0
 40
1.0
 40
1.0
 40
1.0
 40
1.0
 10
37.03436962668307
 20
0.5897979129229054
 30
0.0
 10
37.15074491755536
 20
0.531086015069222
 30
0.0
 10
37.268124394034
 20
0.4787101742185252
 30
0.0
 10
37.38677592541679
 20
0.4331463639292804
 30
0.0
  0
SPLINE
  5
16F
330
1F
100
AcDbEntity
  8
0
  6
Continuous
 62
     1
370
    15
100
AcDbSpline
210
0.0
220
0.0
230
1.0
 70
     8
 71
     3
 72
     8
 73
     4
 74
     0
 42
0.000000001
 43
0.00000001
 40
0.0
 40
0.0
 40
0.0
 40
0.0
 40
1.0
 40
1.0
 40
1.0
 40
1.0
 10
36.59304273989036
 20
0.8358803860486781
 30
0.0
 10
36.72458439559305
 20
0.7629376201340066
 30
0.0
 10
36.89696194193425
 20
0.6706000674163859
 30
0.0
 10
37.03436962668304
 20
0.5897979129229216
 30
0.0
  0
SPLINE
  5
170
330
1F
100
AcDbEntity
  8
0
  6
Continuous
 62
     1
370
    15
100
AcDbSpline
210
0.0
220
0.0
230
1.0
 70
     8
 71
     3
 72
    10
 73
     6
 74
     0
 42
0.000000001
 43
0.00000001
 40
0.0
 40
0.0
 40
0.0
 40
0.0
 40
0.5
 40
0.5
 40
1.0
 40
1.0
 40
1.0
 40
1.0
 10
35.56103331900366
 20
1.410484917137838
 30
0.0
 10
35.63913842550639
 20
1.361956833598884
 30
0.0
 10
35.73260693870104
 20
1.309853668032892
 30
0.0
 10
35.91665809781914
 20
1.209382544054657
 30
0.0
 10
36.00496178521437
 20
1.162149743771755
 30
0.0
 10
36.07857676073674
 20
1.123385064655754
 30
0.0
  0
SPLINE
  5
171
330
1F
100
AcDbEntity
  8
0
  6
Continuous
 62
     1
370
    15
100
AcDbSpline
210
0.0
220
0.0
230
1.0
 70
     8
 71
     3
 72
    10
 73
     6
 74
     0
 42
0.000000001
 43
0.00000001
 40
0.0
 40
0.0
 40
0.0
 40
0.0
 40
0.5
 40
0.5
 40
1.0
 40
1.0
 40
1.0
 40
1.0
 10
34.53403925559347
 20
1.971089554688014
 30
0.0
 10
34.61274601607855
 20
1.917723396326189
 30
0.0
 10
34.70648860454917
 20
1.864171413873229
 30
0.0
 10
34.89055959038411
 20
1.766272832267545
 30
0.0
 10
34.97870430970669
 20
1.722942797635615
 30
0.0
 10
35.05194414872989
 20
1.690519594803096
 30
0.0
  0
SPLINE
  5
172
330
1F
100
AcDbEntity
  8
0
  6
Continuous
 62
     1
370
    15
100
AcDbSpline
210
0.0
220
0.0
230
1.0
 70
     8
 71
     3
 72
    10
 73
     6
 74
     0
 42
0.000000001
 43
0.00000001
 40
0.0
 40
0.0
 40
0.0
 40
0.0
 40
0.5
 40
0.5
 40
1.0
 40
1.0
 40
1.0
 40
1.0
 10
33.50101070202876
 20
2.516650727454263
 30
0.0
 10
33.5791909301449
 20
2.459187825058439
 30
0.0
 10
33.67274216474015
 20
2.404741050342037
 30
0.0
 10
33.8569357900631
 20
2.31032380962779
 30
0.0
 10
33.94529982162151
 20
2.271325458423743
 30
0.0
 10
34.01899008460269
 20
2.245327059355009
 30
0.0
  0
SPLINE
  5
173
330
1F
100
AcDbEntity
  8
0
  6
Continuous
 62
     1
370
    15
100
AcDbSpline
210
0.0
220
0.0
230
1.0
 70
     8
 71
     3
 72
     8
 73
     4
 74
     0
 42
0.000000001
 43
0.00000001
 40
0.0
 40
0.0
 40
0.0
 40
0.0
 40
1.0
 40
1.0
 40
1.0
 40
1.0
 10
33.24699051345474
 20
2.674720159802141
 30
0.0
 10
33.33564879291564
 20
2.628164114612713
 30
0.0
 10
33.42546714079049
 20
2.57217566503336
 30
0.0
 10
33.50101070202868
 20
2.516650727454323
 30
0.0
  0
SPLINE
  5
174
330
1F
100
AcDbEntity
  8
0
  6
Continuous
 62
     1
370
    15
100
AcDbSpline
210
0.0
220
0.0
230
1.0
 70
     8
 71
     3
 72
     8
 73
     4
 74
     0
 42
0.000000001
 43
0.00000001
 40
0.0
 40
0.0
 40
0.0
 40
0.0
 40
1.0
 40
1.0
 40
1.0
 40
1.0
 10
32.99164048478093
 20
2.777967504301115
 30
0.0
 10
33.06533384282593
 20
2.758918512316159
 30
0.0
 10
33.15483574688889
 20
2.722338261818312
 30
0.0
 10
33.24699051345374
 20
2.674720159802668
 30
0.0
  0
SPLINE
  5
175
330
1F
100
AcDbEntity
  8
0
  6
Continuous
 62
     1
370
    15
100
AcDbSpline
210
0.0
220
0.0
230
1.0
 70
     8
 71
     3
 72
    10
 73
     6
 74
     0
 42
0.000000001
 43
0.00000001
 40
0.0
 40
0.0
 40
0.0
 40
0.0
 40
0.5
 40
0.5
 40
1.0
 40
1.0
 40
1.0
 40
1.0
 10
32.47354327938175
 20
3.037369859126933
 30
0.0
 10
32.55228395457081
 20
2.976108304548361
 30
0.0
 10
32.64604869756206
 20
2.921238084738432
 30
0.0
 10
32.83013368278387
 20
2.831204483851133
 30
0.0
 10
32.91832455528791
 20
2.79691893480064
 30
0.0
 10
32.99164048478068
 20
2.777967504301022
 30
0.0
  0
SPLINE
  5
176
330
1F
100
AcDbEntity
  8
0
  6
Continuous
 62
     1
370
    15
100
AcDbSpline
210
0.0
220
0.0
230
1.0
 70
     8
 71
     3
 72
    10
 73
     6
 74
     0
 42
0.000000001
 43
0.00000001
 40
0.0
 40
0.0
 40
0.0
 40
0.0
 40
0.5
 40
0.5
 40
1.0
 40
1.0
 40
1.0
 40
1.0
 10
31.9584439972969
 20
3.28854141081817
 30
0.0
 10
32.03221437818571
 20
3.276237643120363
 30
0.0
 10
32.1204978783439
 20
3.244894838545935
 30
0.0
 10
32.3013213509858
 20
3.156372521990759
 30
0.0
 10
32.39485441896723
 20
3.098591100949355
 30
0.0
 10
32.47354327938174
 20
3.037369859126935
 30
0.0
  0
SPLINE
  5
177
330
1F
100
AcDbEntity
  8
0
  6
Continuous
 62
     1
370
    15
100
AcDbSpline
210
0.0
220
0.0
230
1.0
 70
     8
 71
     3
 72
    10
 73
     6
 74
     0
 42
0.000000001
 43
0.00000001
 40
0.0
 40
0.0
 40
0.0
 40
0.0
 40
0.5
 40
0.5
 40
1.0
 40
1.0
 40
1.0
 40
1.0
 10
31.44056773546619
 20
3.534440795913203
 30
0.0
 10
31.51873262149626
 20
3.470074681624907
 30
0.0
 10
31.61227470675961
 20
3.415208359010973
 30
0.0
 10
31.79644249127178
 20
3.330195765658309
 30
0.0
 10
31.8847755804425
 20
3.30082817247945
 30
0.0
 10
31.9584439972969
 20
3.288541410818181
 30
0.0
  0
SPLINE
  5
178
330
1F
100
AcDbEntity
  8
0
  6
Continuous
 62
     1
370
    15
100
AcDbSpline
210
0.0
220
0.0
230
1.0
 70
     8
 71
     3
 72
     8
 73
     4
 74
     0
 42
0.000000001
 43
0.00000001
 40
0.0
 40
0.0
 40
0.0
 40
0.0
 40
1.0
 40
1.0
 40
1.0
 40
1.0
 10
31.1866445457711
 20
3.69456161155813
 30
0.0
 10
31.27528101261827
 20
3.652703754491987
 30
0.0
 10
31.36506452580883
 20
3.596615110605713
 30
0.0
 10
31.44056773546613
 20
3.534440795913255
 30
0.0
  0
SPLINE
  5
179
330
1F
100
AcDbEntity
  8
0
  6
Continuous
 62
     1
370
    15
100
AcDbSpline
210
0.0
220
0.0
230
1.0
 70
     8
 71
     3
 72
     8
 73
     4
 74
     0
 42
0.000000001
 43
0.00000001
 40
0.0
 40
0.0
 40
0.0
 40
0.0
 40
1.0
 40
1.0
 40
1.0
 40
1.0
 10
30.93144922683473
 20
3.767808590643551
 30
0.0
 10
31.00508476524321
 20
3.763024941677077
 30
0.0
 10
31.09454108987538
 20
3.736847063754771
 30
0.0
 10
31.18664454577009
 20
3.694561611558604
 30
0.0
  0
SPLINE
  5
17A
330
1F
100
AcDbEntity
  8
0
  6
Continuous
 62
     1
370
    15
100
AcDbSpline
210
0.0
220
0.0
230
1.0
 70
     8
 71
     3
 72
    10
 73
     6
 74
     0
 42
0.000000001
 43
0.00000001
 40
0.0
 40
0.0
 40
0.0
 40
0.0
 40
0.5
 40
0.5
 40
1.0
 40
1.0
 40
1.0
 40
1.0
 10
30.41373614806805
 20
3.996258042273642
 30
0.0
 10
30.49237727047217
 20
3.929326740131777
 30
0.0
 10
30.58602068697736
 20
3.875114582950754
 30
0.0
 10
30.77001174369116
 20
3.796430613883304
 30
0.0
 10
30.85818770748907
 20
3.772567941887
 30
0.0
 10
30.93144922683451
 20
3.76780859064347
 30
0.0
  0
SPLINE
  5
17B
330
1F
100
AcDbEntity
  8
0
  6
Continuous
 62
     1
370
    15
100
AcDbSpline
210
0.0
220
0.0
230
1.0
 70
     8
 71
     3
 72
    10
 73
     6
 74
     0
 42
0.000000001
 43
0.00000001
 40
0.0
 40
0.0
 40
0.0
 40
0.0
 40
0.5
 40
0.5
 40
1.0
 40
1.0
 40
1.0
 40
1.0
 10
29.89912320357767
 20
4.215417880158759
 30
0.0
 10
29.97281085138219
 20
4.217286316072361
 30
0.0
 10
30.06101764208636
 20
4.196461290964999
 30
0.0
 10
30.24168399332724
 20
4.119700532213775
 30
0.0
 10
30.33512722682513
 20
4.063161938071559
 30
0.0
 10
30.41373614806805
 20
3.996258042273648
 30
0.0
  0
SPLINE
  5
17C
330
1F
100
AcDbEntity
  8
0
  6
Continuous
 62
     1
370
    15
100
AcDbSpline
210
0.0
220
0.0
230
1.0
 70
     8
 71
     3
 72
    10
 73
     6
 74
     0
 42
0.000000001
 43
0.00000001
 40
0.0
 40
0.0
 40
0.0
 40
0.0
 40
0.5
 40
0.5
 40
1.0
 40
1.0
 40
1.0
 40
1.0
 10
29.38182065872984
 20
4.427242012340264
 30
0.0
 10
29.45989826825581
 20
4.358250590885616
 30
0.0
 10
29.55334861871383
 20
4.304880016735567
 30
0.0
 10
29.73733805502733
 20
4.232250969391879
 30
0.0
 10
29.82556512056915
 20
4.213552729511077
 30
0.0
 10
29.89912320357769
 20
4.215417880158761
 30
0.0
  0
SPLINE
  5
17D
330
1F
100
AcDbEntity
  8
0
  6
Continuous
 62
     1
370
    15
100
AcDbSpline
210
0.0
220
0.0
230
1.0
 70
     8
 71
     3
 72
     8
 73
     4
 74
     0
 42
0.000000001
 43
0.00000001
 40
0.0
 40
0.0
 40
0.0
 40
0.0
 40
1.0
 40
1.0
 40
1.0
 40
1.0
 10
29.12807887314582
 20
4.583869715057677
 30
0.0
 10
29.21666596963917
 20
4.548148174572196
 30
0.0
 10
29.30638776760424
 20
4.493896491323222
 30
0.0
 10
29.38182065872977
 20
4.427242012340324
 30
0.0
  0
SPLINE
  5
17E
330
1F
100
AcDbEntity
  8
0
  6
Continuous
 62
     1
370
    15
100
AcDbSpline
210
0.0
220
0.0
230
1.0
 70
     8
 71
     3
 72
     8
 73
     4
 74
     0
 42
0.000000001
 43
0.00000001
 40
0.0
 40
0.0
 40
0.0
 40
0.0
 40
1.0
 40
1.0
 40
1.0
 40
1.0
 10
28.87301884138771
 20
4.624698291101691
 30
0.0
 10
28.94661114362101
 20
4.63428839536512
 30
0.0
 10
29.03602225902798
 20
4.619387304078169
 30
0.0
 10
29.1280788731448
 20
4.583869715058084
 30
0.0
  0
SPLINE
  5
17F
330
1F
100
AcDbEntity
  8
0
  6
Continuous
 62
     1
370
    15
100
AcDbSpline
210
0.0
220
0.0
230
1.0
 70
     8
 71
     3
 72
    10
 73
     6
 74
     0
 42
0.000000001
 43
0.00000001
 40
0.0
 40
0.0
 40
0.0
 40
0.0
 40
0.5
 40
0.5
 40
1.0
 40
1.0
 40
1.0
 40
1.0
 10
28.35532294782323
 20
4.814249683125412
 30
0.0
 10
28.43395051108005
 20
4.744053482425176
 30
0.0
 10
28.52760678779202
 20
4.692494469224476
 30
0.0
 10
28.71159927965242
 20
4.627845242199884
 30
0.0
 10
28.79977786738096
 20
4.615153969810164
 30
0.0
 10
28.87301884138746
 20
4.624698291101538
 30
0.0
  0
SPLINE
  5
180
330
1F
100
AcDbEntity
  8
0
  6
Continuous
 62
     1
370
    15
100
AcDbSpline
210
0.0
220
0.0
230
1.0
 70
     8
 71
     3
 72
    10
 73
     6
 74
     0
 42
0.000000001
 43
0.00000001
 40
0.0
 40
0.0
 40
0.0
 40
0.0
 40
0.5000000000000004
 40
0.5000000000000004
 40
1.0
 40
1.0
 40
1.0
 40
1.0
 10
27.84036094432125
 20
4.993997918959414
 30
0.0
 10
27.91412429500289
 20
5.009888778867198
 30
0.0
 10
28.00238247652661
 20
5.000243340294581
 30
0.0
 10
28.18312502937174
 20
4.937841125313357
 30
0.0
 10
28.27662159859945
 20
4.884511757602361
 30
0.0
 10
28.35532294782323
 20
4.814249683125411
 30
0.0
  0
SPLINE
  5
181
330
1F
100
AcDbEntity
  8
0
  6
Continuous
 62
     1
370
    15
100
AcDbSpline
210
0.0
220
0.0
230
1.0
 70
     8
 71
     3
 72
    10
 73
     6
 74
     0
 42
0.000000001
 43
0.00000001
 40
0.0
 40
0.0
 40
0.0
 40
0.0
 40
0.5
 40
0.5
 40
1.0
 40
1.0
 40
1.0
 40
1.0
 10
27.32245910721711
 20
5.164865852051316
 30
0.0
 10
27.40065112440715
 20
5.093531673369096
 30
0.0
 10
27.49421276902219
 20
5.043464686552159
 30
0.0
 10
27.67838417873223
 20
4.985610862683101
 30
0.0
 10
27.76670397977153
 20
4.978129977846717
 30
0.0
 10
27.84036094432125
 20
4.993997918959423
 30
0.0
  0
SPLINE
  5
182
330
1F
100
AcDbEntity
  8
0
  6
Continuous
 62
     1
370
    15
100
AcDbSpline
210
0.0
220
0.0
230
1.0
 70
     8
 71
     3
 72
     8
 73
     4
 74
     0
 42
0.000000001
 43
0.00000001
 40
0.0
 40
0.0
 40
0.0
 40
0.0
 40
1.0
 40
1.0
 40
1.0
 40
1.0
 10
27.06847497108423
 20
5.312736553165017
 30
0.0
 10
27.15714209091699
 20
5.284333698275663
 30
0.0
 10
27.24694330699818
 20
5.233758531633331
 30
0.0
 10
27.32245910721704
 20
5.164865852051381
 30
0.0
  0
SPLINE
  5
183
330
1F
100
AcDbEntity
  8
0
  6
Continuous
 62
     1
370
    15
100
AcDbSpline
210
0.0
220
0.0
230
1.0
 70
     8
 71
     3
 72
     8
 73
     4
 74
     0
 42
0.000000001
 43
0.00000001
 40
0.0
 40
0.0
 40
0.0
 40
0.0
 40
1.0
 40
1.0
 40
1.0
 40
1.0
 10
26.81316535674188
 20
5.319908992199723
 30
0.0
 10
26.8868471587945
 20
5.343494327733172
 30
0.0
 10
26.9763452313384
 20
5.34030865024201
 30
0.0
 10
27.06847497108321
 20
5.312736553165335
 30
0.0
  0
SPLINE
  5
184
330
1F
100
AcDbEntity
  8
0
  6
Continuous
 62
     1
370
    15
100
AcDbSpline
210
0.0
220
0.0
230
1.0
 70
     8
 71
     3
 72
    10
 73
     6
 74
     0
 42
0.000000001
 43
0.00000001
 40
0.0
 40
0.0
 40
0.0
 40
0.0
 40
0.5
 40
0.5
 40
1.0
 40
1.0
 40
1.0
 40
1.0
 10
26.29511916244208
 20
5.464204044064122
 30
0.0
 10
26.37380383739811
 20
5.393144155669642
 30
0.0
 10
26.46752784532195
 20
5.34598273410144
 30
0.0
 10
26.65164036554437
 20
5.297554962921145
 30
0.0
 10
26.73986558735736
 20
5.296445944237883
 30
0.0
 10
26.81316535674162
 20
5.319908992199549
 30
0.0
  0
SPLINE
  5
185
330
1F
100
AcDbEntity
  8
0
  6
Continuous
 62
     1
370
    15
100
AcDbSpline
210
0.0
220
0.0
230
1.0
 70
     8
 71
     3
 72
    10
 73
     6
 74
     0
 42
0.000000001
 43
0.00000001
 40
0.0
 40
0.0
 40
0.0
 40
0.0
 40
0.5
 40
0.5
 40
1.0
 40
1.0
 40
1.0
 40
1.0
 10
25.77993189822798
 20
5.597799344316304
 30
0.0
 10
25.85370402321435
 20
5.627193564378448
 30
0.0
 10
25.94193989327714
 20
5.629106964627402
 30
0.0
 10
26.12276801618061
 20
5.583466083501509
 30
0.0
 10
26.21636196089161
 20
5.535329431003374
 30
0.0
 10
26.29511916244208
 20
5.464204044064116
 30
0.0
  0
SPLINE
  5
186
330
1F
100
AcDbEntity
  8
0
  6
Continuous
 62
     1
370
    15
100
AcDbSpline
210
0.0
220
0.0
230
1.0
 70
     8
 71
     3
 72
    10
 73
     6
 74
     0
 42
0.000000001
 43
0.00000001
 40
0.0
 40
0.0
 40
0.0
 40
0.0
 40
0.5
 40
0.5
 40
1.0
 40
1.0
 40
1.0
 40
1.0
 10
25.26191532652749
 20
5.721474518252338
 30
0.0
 10
25.34013859012322
 20
5.650331848742224
 30
0.0
 10
25.43372907424194
 20
5.605351663134906
 30
0.0
 10
25.61793127992296
 20
5.564384549130319
 30
0.0
 10
25.70625494859058
 20
5.568443046506667
 30
0.0
 10
25.77993189822799
 20
5.597799344316307
 30
0.0
  0
SPLINE
  5
187
330
1F
100
AcDbEntity
  8
0
  6
Continuous
 62
     1
370
    15
100
AcDbSpline
210
0.0
220
0.0
230
1.0
 70
     8
 71
     3
 72
     8
 73
     4
 74
     0
 42
0.000000001
 43
0.00000001
 40
0.0
 40
0.0
 40
0.0
 40
0.0
 40
1.0
 40
1.0
 40
1.0
 40
1.0
 10
25.00792962483666
 20
5.855335306793547
 30
0.0
 10
25.09660003051264
 20
5.835267588257596
 30
0.0
 10
25.18639791658835
 20
5.790156261899902
 30
0.0
 10
25.26191532652742
 20
5.721474518252403
 30
0.0
  0
SPLINE
  5
188
330
1F
100
AcDbEntity
  8
0
  6
Continuous
 62
     1
370
    15
100
AcDbSpline
210
0.0
220
0.0
230
1.0
 70
     8
 71
     3
 72
     8
 73
     4
 74
     0
 42
0.000000001
 43
0.00000001
 40
0.0
 40
0.0
 40
0.0
 40
0.0
 40
1.0
 40
1.0
 40
1.0
 40
1.0
 10
24.7526591688827
 20
5.828526898485475
 30
0.0
 10
24.8263288087776
 20
5.865304064174872
 30
0.0
 10
24.91581789201382
 20
5.873972714841999
 30
0.0
 10
25.00792962483572
 20
5.855335306793748
 30
0.0
  0
SPLINE
  5
189
330
1F
100
AcDbEntity
  8
0
  6
Continuous
 62
     1
370
    15
100
AcDbSpline
210
0.0
220
0.0
230
1.0
 70
     8
 71
     3
 72
    10
 73
     6
 74
     0
 42
0.000000001
 43
0.00000001
 40
0.0
 40
0.0
 40
0.0
 40
0.0
 40
0.5
 40
0.5
 40
1.0
 40
1.0
 40
1.0
 40
1.0
 10
24.23480422170375
 20
5.92249781362977
 30
0.0
 10
24.31345503244046
 20
5.853068624369849
 30
0.0
 10
24.40715485488283
 20
5.811938383705106
 30
0.0
 10
24.59121841232453
 20
5.781426860067189
 30
0.0
 10
24.67939824486051
 20
5.791953770868949
 30
0.0
 10
24.75265916888267
 20
5.828526898485389
 30
0.0
  0
SPLINE
  5
18A
330
1F
100
AcDbEntity
  8
0
  6
Continuous
 62
     1
370
    15
100
AcDbSpline
210
0.0
220
0.0
230
1.0
 70
     8
 71
     3
 72
    10
 73
     6
 74
     0
 42
0.000000001
 43
0.00000001
 40
0.0
 40
0.0
 40
0.0
 40
0.0
 40
0.5
 40
0.5
 40
1.0
 40
1.0
 40
1.0
 40
1.0
 10
23.71995797976406
 20
6.005065188291088
 30
0.0
 10
23.79364580146203
 20
6.046999859133027
 30
0.0
 10
23.8818454590297
 20
6.060532452818512
 30
0.0
 10
24.06258087474973
 20
6.033264273447772
 30
0.0
 10
24.15611898173652
 20
5.991957395374376
 30
0.0
 10
24.23480422170376
 20
5.922497813629755
 30
0.0
  0
SPLINE
  5
18B
330
1F
100
AcDbEntity
  8
0
  6
Continuous
 62
     1
370
    15
100
AcDbSpline
210
0.0
220
0.0
230
1.0
 70
     8
 71
     3
 72
    10
 73
     6
 74
     0
 42
0.000000001
 43
0.00000001
 40
0.0
 40
0.0
 40
0.0
 40
0.0
 40
0.5
 40
0.5
 40
1.0
 40
1.0
 40
1.0
 40
1.0
 10
23.20237375203639
 20
6.077018042857697
 30
0.0
 10
23.28052910209733
 20
6.008603097547452
 30
0.0
 10
23.3740448526392
 20
5.970296992458428
 30
0.0
 10
23.5580878981813
 20
5.947690961863474
 30
0.0
 10
23.64632710373039
 20
5.963162924400976
 30
0.0
 10
23.7199579797641
 20
6.005065188291109
 30
0.0
  0
SPLINE
  5
18C
330
1F
100
AcDbEntity
  8
0
  6
Continuous
 62
     1
370
    15
100
AcDbSpline
210
0.0
220
0.0
230
1.0
 70
     8
 71
     3
 72
     8
 73
     4
 74
     0
 42
0.000000001
 43
0.00000001
 40
0.0
 40
0.0
 40
0.0
 40
0.0
 40
1.0
 40
1.0
 40
1.0
 40
1.0
 10
22.94862752921497
 20
6.192152847261241
 30
0.0
 10
23.03722442149899
 20
6.181126685192545
 30
0.0
 10
23.1269361622501
 20
6.143053938999671
 30
0.0
 10
23.20237375203632
 20
6.077018042857752
 30
0.0
  0
SPLINE
  5
18D
330
1F
100
AcDbEntity
  8
0
  6
Continuous
 62
     1
370
    15
100
AcDbSpline
210
0.0
220
0.0
230
1.0
 70
     8
 71
     3
 72
     8
 73
     4
 74
     0
 42
0.000000001
 43
0.00000001
 40
0.0
 40
0.0
 40
0.0
 40
0.0
 40
1.0
 40
1.0
 40
1.0
 40
1.0
 10
22.69368096538144
 20
6.132312068382086
 30
0.0
 10
22.76724046238238
 20
6.180976598411904
 30
0.0
 10
22.85662390470009
 20
6.201202005132506
 30
0.0
 10
22.94862752921396
 20
6.192152847261356
 30
0.0
  0
SPLINE
  5
18E
330
1F
100
AcDbEntity
  8
0
  6
Continuous
 62
     1
370
    15
100
AcDbSpline
210
0.0
220
0.0
230
1.0
 70
     8
 71
     3
 72
    10
 73
     6
 74
     0
 42
0.000000001
 43
0.00000001
 40
0.0
 40
0.0
 40
0.0
 40
0.0
 40
0.5
 40
0.5
 40
1.0
 40
1.0
 40
1.0
 40
1.0
 10
22.17627702316386
 20
6.172819760280261
 30
0.0
 10
22.25486050384052
 20
6.107443492020217
 30
0.0
 10
22.34848966306694
 20
6.073742790029323
 30
0.0
 10
22.5324162523813
 20
6.062142964744664
 30
0.0
 10
22.62051759857346
 20
6.083909604984601
 30
0.0
 10
22.69368096538119
 20
6.132312068381877
 30
0.0
  0
SPLINE
  5
18F
330
1F
100
AcDbEntity
  8
0
  6
Continuous
 62
     1
370
    15
100
AcDbSpline
210
0.0
220
0.0
230
1.0
 70
     8
 71
     3
 72
    10
 73
     6
 74
     0
 42
0.000000001
 43
0.00000001
 40
0.0
 40
0.0
 40
0.0
 40
0.0
 40
0.5
 40
0.5
 40
1.0
 40
1.0
 40
1.0
 40
1.0
 10
21.66157572544603
 20
6.201763969226995
 30
0.0
 10
21.73524958370153
 20
6.254741672437822
 30
0.0
 10
21.82343169837542
 20
6.279345603123144
 30
0.0
 10
22.00412492956193
 20
6.271315758450161
 30
0.0
 10
22.09763647942612
 20
6.238243501240104
 30
0.0
 10
22.17627702316386
 20
6.172819760280246
 30
0.0
  0
SPLINE
  5
190
330
1F
100
AcDbEntity
  8
0
  6
Continuous
 62
     1
370
    15
100
AcDbSpline
210
0.0
220
0.0
230
1.0
 70
     8
 71
     3
 72
    11
 73
     7
 74
     0
 42
0.000000001
 43
0.00000001
 40
0.0
 40
0.0
 40
0.0
 40
0.0
 40
0.1009782344419364
 40
0.4073629948991124
 40
0.7546233724599688
 40
1.0
 40
1.0
 40
1.0
 40
1.0
 10
21.23095264847979
 20
6.171310710391662
 30
0.0
 10
21.24499170131253
 20
6.162892692276161
 30
0.0
 10
21.30162757575717
 20
6.128933006908346
 30
0.0
 10
21.42019010509658
 20
6.118594294975834
 30
0.0
 10
21.5546451963634
 20
6.137118671189411
 30
0.0
 10
21.63026566548265
 20
6.18283538595697
 30
0.0
 10
21.66157571788534
 20
6.201764027259014
 30
0.0
  0
SPLINE
  5
191
330
1F
100
AcDbEntity
  8
0
  6
Continuous
 62
     1
370
    15
100
AcDbSpline
210
0.0
220
0.0
230
1.0
 70
     8
 71
     3
 72
     9
 73
     5
 74
     0
 42
0.000000001
 43
0.00000001
 40
0.0
 40
0.0
 40
0.0
 40
0.0
 40
0.6387576050884975
 40
1.0
 40
1.0
 40
1.0
 40
1.0
 10
20.88984644230112
 20
6.311838904997966
 30
0.0
 10
20.91523368558918
 20
6.31053773670082
 30
0.0
 10
20.95497840735189
 20
6.308500706868559
 30
0.0
 10
20.99374838376313
 20
6.295546861417007
 30
0.0
 10
21.00775374289259
 20
6.290867383262775
 30
0.0
  0
SPLINE
  5
192
330
1F
100
AcDbEntity
  8
0
  6
Continuous
 62
     1
370
    15
100
AcDbSpline
210
0.0
220
0.0
230
1.0
 70
     8
 71
     3
 72
     8
 73
     4
 74
     0
 42
0.000000001
 43
0.00000001
 40
0.0
 40
0.0
 40
0.0
 40
0.0
 40
1.0
 40
1.0
 40
1.0
 40
1.0
 10
20.63458037915195
 20
6.221098355726625
 30
0.0
 10
20.70826302016267
 20
6.279949477636329
 30
0.0
 10
20.79775162304754
 20
6.310994722967925
 30
0.0
 10
20.88984675390034
 20
6.311838750884641
 30
0.0
  0
SPLINE
  5
193
330
1F
100
AcDbEntity
  8
0
  6
Continuous
 62
     1
370
    15
100
AcDbSpline
210
0.0
220
0.0
230
1.0
 70
     8
 71
     3
 72
    10
 73
     6
 74
     0
 42
0.000000001
 43
0.00000001
 40
0.0
 40
0.0
 40
0.0
 40
0.0
 40
0.0337922492216561
 40
0.6021036286194351
 40
1.0
 40
1.0
 40
1.0
 40
1.0
 10
20.37759760584339
 20
6.127813289544246
 30
0.0
 10
20.38073213134152
 20
6.127441531438912
 30
0.0
 10
20.43658248815111
 20
6.120817618874737
 30
0.0
 10
20.52884356768018
 20
6.151564877169998
 30
0.0
 10
20.60373784339976
 20
6.200816041679332
 30
0.0
 10
20.63458023782476
 20
6.221098283908031
 30
0.0
  0
LINE
  5
194
330
1F
100
AcDbEntity
  8
0
  6
Continuous
 62
     1
370
    15
100
AcDbLine
 10
28.65434142019257
 20
4.695504362365863
 30
0.0
 11
28.59868558313354
 21
4.670258535674474
 31
0.0
  0
SPLINE
  5
195
330
1F
100
AcDbEntity
  8
0
  6
Continuous
 62
     1
370
    15
100
AcDbSpline
210
0.0
220
0.0
230
1.0
 70
     8
 71
     3
 72
     8
 73
     4
 74
     0
 42
0.000000001
 43
0.00000001
 40
0.0
 40
0.0
 40
0.0
 40
0.0
 40
1.0
 40
1.0
 40
1.0
 40
1.0
 10
28.90966949447373
 20
4.731877691177129
 30
0.0
 10
28.83596989489432
 20
4.743430643424137
 30
0.0
 10
28.74645981801922
 20
4.730066932256769
 30
0.0
 10
28.65434152247313
 20
4.69550444515458
 30
0.0
  0
SPLINE
  5
196
330
1F
100
AcDbEntity
  8
0
  6
Continuous
 62
     1
370
    15
100
AcDbSpline
210
0.0
220
0.0
230
1.0
 70
     8
 71
     3
 72
    10
 73
     6
 74
     0
 42
0.000000001
 43
0.00000001
 40
0.0
 40
0.0
 40
0.0
 40
0.0
 40
0.5
 40
0.5
 40
1.0
 40
1.0
 40
1.0
 40
1.0
 10
29.42765351291986
 20
4.91524330957961
 30
0.0
 10
29.34897089261981
 20
4.844842195776527
 30
0.0
 10
29.25523740312244
 20
4.793865505114848
 30
0.0
 10
29.07112923615577
 20
4.731457685593202
 30
0.0
 10
28.98294228510159
 20
4.72039164436052
 30
0.0
 10
28.90966949447381
 20
4.731877691177079
 30
0.0
  0
SPLINE
  5
197
330
1F
100
AcDbEntity
  8
0
  6
Continuous
 62
     1
370
    15
100
AcDbSpline
210
0.0
220
0.0
230
1.0
 70
     8
 71
     3
 72
    10
 73
     6
 74
     0
 42
0.000000001
 43
0.00000001
 40
0.0
 40
0.0
 40
0.0
 40
0.0
 40
0.5
 40
0.5
 40
1.0
 40
1.0
 40
1.0
 40
1.0
 10
29.94265348750524
 20
5.088319568167073
 30
0.0
 10
29.86892960977887
 20
5.106147982334665
 30
0.0
 10
29.78069014844144
 20
5.098186269285536
 30
0.0
 10
29.59989702580054
 20
5.038234402100978
 30
0.0
 10
29.50634411083564
 20
4.985651561338079
 30
0.0
 10
29.42765351291986
 20
4.915243309579614
 30
0.0
  0
SPLINE
  5
198
330
1F
100
AcDbEntity
  8
0
  6
Continuous
 62
     1
370
    15
100
AcDbSpline
210
0.0
220
0.0
230
1.0
 70
     8
 71
     3
 72
    10
 73
     6
 74
     0
 42
0.000000001
 43
0.00000001
 40
0.0
 40
0.0
 40
0.0
 40
0.0
 40
0.5
 40
0.5
 40
1.0
 40
1.0
 40
1.0
 40
1.0
 10
30.46045532438354
 20
5.253233904987244
 30
0.0
 10
30.38230787854431
 20
5.181694212399432
 30
0.0
 10
30.28880749954793
 20
5.132142674798114
 30
0.0
 10
30.10469686705643
 20
5.076409885560375
 30
0.0
 10
30.01634028422556
 20
5.070500121182896
 30
0.0
 10
29.94265348750523
 20
5.088319568167071
 30
0.0
  0
SPLINE
  5
199
330
1F
100
AcDbEntity
  8
0
  6
Continuous
 62
     1
370
    15
100
AcDbSpline
210
0.0
220
0.0
230
1.0
 70
     8
 71
     3
 72
     8
 73
     4
 74
     0
 42
0.000000001
 43
0.00000001
 40
0.0
 40
0.0
 40
0.0
 40
0.0
 40
1.0
 40
1.0
 40
1.0
 40
1.0
 10
30.71434152007827
 20
5.39975979716597
 30
0.0
 10
30.62570291621876
 20
5.37237992125433
 30
0.0
 10
30.5359539461648
 20
5.322348744698589
 30
0.0
 10
30.46045532438376
 20
5.253233904987436
 30
0.0
  0
SPLINE
  5
19A
330
1F
100
AcDbEntity
  8
0
  6
Continuous
 62
     1
370
    15
100
AcDbSpline
210
0.0
220
0.0
230
1.0
 70
     8
 71
     3
 72
     8
 73
     4
 74
     0
 42
0.000000001
 43
0.00000001
 40
0.0
 40
0.0
 40
0.0
 40
0.0
 40
1.0
 40
1.0
 40
1.0
 40
1.0
 10
30.96945546393
 20
5.402327277139037
 30
0.0
 10
30.89582656231381
 20
5.427802230800264
 30
0.0
 10
30.80638458583336
 20
5.426210373206461
 30
0.0
 10
30.71434152007929
 20
5.39975979716627
 30
0.0
  0
SPLINE
  5
19B
330
1F
100
AcDbEntity
  8
0
  6
Continuous
 62
     1
370
    15
100
AcDbSpline
210
0.0
220
0.0
230
1.0
 70
     8
 71
     3
 72
    10
 73
     6
 74
     0
 42
0.000000001
 43
0.00000001
 40
0.0
 40
0.0
 40
0.0
 40
0.0
 40
0.5
 40
0.5
 40
1.0
 40
1.0
 40
1.0
 40
1.0
 10
31.48692459380621
 20
5.539718936767066
 30
0.0
 10
31.40832453112864
 20
5.468796052515787
 30
0.0
 10
31.31466990554569
 20
5.422415569136385
 30
0.0
 10
31.13071823789488
 20
5.376461926511277
 30
0.0
 10
31.04263261943307
 20
5.377008623667555
 30
0.0
 10
30.9694554639301
 20
5.402327277138985
 30
0.0
  0
SPLINE
  5
19C
330
1F
100
AcDbEntity
  8
0
  6
Continuous
 62
     1
370
    15
100
AcDbSpline
210
0.0
220
0.0
230
1.0
 70
     8
 71
     3
 72
    10
 73
     6
 74
     0
 42
0.000000001
 43
0.00000001
 40
0.0
 40
0.0
 40
0.0
 40
0.0
 40
0.5
 40
0.5
 40
1.0
 40
1.0
 40
1.0
 40
1.0
 10
32.0013518309018
 20
5.665861406036031
 30
0.0
 10
31.92772065056284
 20
5.697137655414256
 30
0.0
 10
31.83957316255832
 20
5.700828895757926
 30
0.0
 10
31.65896049399725
 20
5.657852652277729
 30
0.0
 10
31.56550515065453
 20
5.610624220400448
 30
0.0
 10
31.48692459380621
 20
5.539718936767063
 30
0.0
  0
SPLINE
  5
19D
330
1F
100
AcDbEntity
  8
0
  6
Continuous
 62
     1
370
    15
100
AcDbSpline
210
0.0
220
0.0
230
1.0
 70
     8
 71
     3
 72
    10
 73
     6
 74
     0
 42
0.000000001
 43
0.00000001
 40
0.0
 40
0.0
 40
0.0
 40
0.0
 40
0.5
 40
0.5
 40
1.0
 40
1.0
 40
1.0
 40
1.0
 10
32.51884990342013
 20
5.782414591293245
 30
0.0
 10
32.44075204345471
 20
5.7115508392347
 30
0.0
 10
32.34729792253293
 20
5.667380508257953
 30
0.0
 10
32.16327022577148
 20
5.628890079752708
 30
0.0
 10
32.07496569364805
 20
5.63459251263588
 30
0.0
 10
32.0013518309018
 20
5.665861406036035
 30
0.0
  0
SPLINE
  5
19E
330
1F
100
AcDbEntity
  8
0
  6
Continuous
 62
     1
370
    15
100
AcDbSpline
210
0.0
220
0.0
230
1.0
 70
     8
 71
     3
 72
     8
 73
     4
 74
     0
 42
0.000000001
 43
0.00000001
 40
0.0
 40
0.0
 40
0.0
 40
0.0
 40
1.0
 40
1.0
 40
1.0
 40
1.0
 10
32.77271376886068
 20
5.914129961763665
 30
0.0
 10
32.68412533448353
 20
5.89519658319321
 30
0.0
 10
32.59435935632818
 20
5.850929697229761
 30
0.0
 10
32.51884990342035
 20
5.782414591293437
 30
0.0
  0
SPLINE
  5
19F
330
1F
100
AcDbEntity
  8
0
  6
Continuous
 62
     1
370
    15
100
AcDbSpline
210
0.0
220
0.0
230
1.0
 70
     8
 71
     3
 72
     8
 73
     4
 74
     0
 42
0.000000001
 43
0.00000001
 40
0.0
 40
0.0
 40
0.0
 40
0.0
 40
1.0
 40
1.0
 40
1.0
 40
1.0
 10
33.02790196402979
 20
5.882889710572536
 30
0.0
 10
32.95423299458241
 20
5.921359142966518
 30
0.0
 10
32.86477290604402
 20
5.931565234528312
 30
0.0
 10
32.77271376886168
 20
5.914129961763878
 30
0.0
  0
SPLINE
  5
1A0
330
1F
100
AcDbEntity
  8
0
  6
Continuous
 62
     1
370
    15
100
AcDbSpline
210
0.0
220
0.0
230
1.0
 70
     8
 71
     3
 72
    10
 73
     6
 74
     0
 42
0.000000001
 43
0.00000001
 40
0.0
 40
0.0
 40
0.0
 40
0.0
 40
0.5
 40
0.5
 40
1.0
 40
1.0
 40
1.0
 40
1.0
 10
33.5457478530472
 20
5.969769421914313
 30
0.0
 10
33.46706436149059
 20
5.900736733891096
 30
0.0
 10
33.37333927872105
 20
5.86055437202085
 30
0.0
 10
33.18928008943894
 20
5.832574708637932
 30
0.0
 10
33.10113433096614
 20
5.844648269026012
 30
0.0
 10
33.02790196402988
 20
5.882889710572474
 30
0.0
  0
SPLINE
  5
1A1
330
1F
100
AcDbEntity
  8
0
  6
Continuous
 62
     1
370
    15
100
AcDbSpline
210
0.0
220
0.0
230
1.0
 70
     8
 71
     3
 72
    10
 73
     6
 74
     0
 42
0.000000001
 43
0.00000001
 40
0.0
 40
0.0
 40
0.0
 40
0.0
 40
0.5
 40
0.5
 40
1.0
 40
1.0
 40
1.0
 40
1.0
 10
34.06076365895783
 20
6.044926386887974
 30
0.0
 10
33.98701986586136
 20
6.088520559489144
 30
0.0
 10
33.89876353643493
 20
6.103649955853706
 30
0.0
 10
33.71796332933175
 20
6.079033699331875
 30
0.0
 10
33.6244228791118
 20
6.038794682767501
 30
0.0
 10
33.5457478530472
 20
5.969769421914307
 30
0.0
  0
SPLINE
  5
1A2
330
1F
100
AcDbEntity
  8
0
  6
Continuous
 62
     1
370
    15
100
AcDbSpline
210
0.0
220
0.0
230
1.0
 70
     8
 71
     3
 72
    10
 73
     6
 74
     0
 42
0.000000001
 43
0.00000001
 40
0.0
 40
0.0
 40
0.0
 40
0.0
 40
0.5
 40
0.5
 40
1.0
 40
1.0
 40
1.0
 40
1.0
 10
34.57873503130708
 20
6.109349524308143
 30
0.0
 10
34.5005581290493
 20
6.041536529200835
 30
0.0
 10
34.40701504939883
 20
6.004262767514463
 30
0.0
 10
34.22283044028033
 20
5.984293198742556
 30
0.0
 10
34.13445883712539
 20
6.001360953350975
 30
0.0
 10
34.06076365895783
 20
6.044926386887974
 30
0.0
  0
SPLINE
  5
1A3
330
1F
100
AcDbEntity
  8
0
  6
Continuous
 62
     1
370
    15
100
AcDbSpline
210
0.0
220
0.0
230
1.0
 70
     8
 71
     3
 72
     8
 73
     4
 74
     0
 42
0.000000001
 43
0.00000001
 40
0.0
 40
0.0
 40
0.0
 40
0.0
 40
1.0
 40
1.0
 40
1.0
 40
1.0
 10
34.83276092896607
 20
6.221628663049811
 30
0.0
 10
34.74411006827491
 20
6.211858679543342
 30
0.0
 10
34.65428938204469
 20
6.174887639389818
 30
0.0
 10
34.57873503130728
 20
6.109349524308318
 30
0.0
  0
SPLINE
  5
1A4
330
1F
100
AcDbEntity
  8
0
  6
Continuous
 62
     1
370
    15
100
AcDbSpline
210
0.0
220
0.0
230
1.0
 70
     8
 71
     3
 72
     8
 73
     4
 74
     0
 42
0.000000001
 43
0.00000001
 40
0.0
 40
0.0
 40
0.0
 40
0.0
 40
1.0
 40
1.0
 40
1.0
 40
1.0
 10
35.08812259514757
 20
6.15750479582705
 30
0.0
 10
35.0144217837432
 20
6.20764310431783
 30
0.0
 10
34.92492138610571
 20
6.229363661439196
 30
0.0
 10
34.8327609289671
 20
6.221628663049909
 30
0.0
  0
SPLINE
  5
1A5
330
1F
100
AcDbEntity
  8
0
  6
Continuous
 62
     1
370
    15
100
AcDbSpline
210
0.0
220
0.0
230
1.0
 70
     8
 71
     3
 72
    10
 73
     6
 74
     0
 42
0.000000001
 43
0.00000001
 40
0.0
 40
0.0
 40
0.0
 40
0.0
 40
0.5
 40
0.5
 40
1.0
 40
1.0
 40
1.0
 40
1.0
 10
35.60621106701043
 20
6.19062284419285
 30
0.0
 10
35.52747312854388
 20
6.125908061151859
 30
0.0
 10
35.43369772849749
 20
6.093364377715039
 30
0.0
 10
35.24957008983832
 20
6.084427196746168
 30
0.0
 10
35.16139884087833
 20
6.107655317327547
 30
0.0
 10
35.08812259514766
 20
6.157504795826988
 30
0.0
  0
SPLINE
  5
1A6
330
1F
100
AcDbEntity
  8
0
  6
Continuous
 62
     1
370
    15
100
AcDbSpline
210
0.0
220
0.0
230
1.0
 70
     8
 71
     3
 72
    10
 73
     6
 74
     0
 42
0.000000001
 43
0.00000001
 40
0.0
 40
0.0
 40
0.0
 40
0.0
 40
0.5
 40
0.5
 40
1.0
 40
1.0
 40
1.0
 40
1.0
 10
36.12131447917885
 20
6.212000198094655
 30
0.0
 10
36.04755072590933
 20
6.266412140227542
 30
0.0
 10
35.95927197362473
 20
6.292480016130737
 30
0.0
 10
35.77844405424064
 20
6.287128485734369
 30
0.0
 10
35.68490058159833
 20
6.255297827604039
 30
0.0
 10
35.60621106701044
 20
6.190622844192845
 30
0.0
  0
SPLINE
  5
1A7
330
1F
100
AcDbEntity
  8
0
  6
Continuous
 62
     1
370
    15
100
AcDbSpline
210
0.0
220
0.0
230
1.0
 70
     8
 71
     3
 72
    10
 73
     6
 74
     0
 42
0.000000001
 43
0.00000001
 40
0.0
 40
0.0
 40
0.0
 40
0.0
 40
0.5
 40
0.5
 40
1.0
 40
1.0
 40
1.0
 40
1.0
 10
36.63922042488493
 20
6.222020094310034
 30
0.0
 10
36.56105490451136
 20
6.159640839970566
 30
0.0
 10
36.46751469568729
 20
6.130549399691624
 30
0.0
 10
36.28334141296825
 20
6.129799346245919
 30
0.0
 10
36.19499394933568
 20
6.157650427525006
 30
0.0
 10
36.12131447917886
 20
6.212000198094657
 30
0.0
  0
SPLINE
  5
1A8
330
1F
100
AcDbEntity
  8
0
  6
Continuous
 62
     1
370
    15
100
AcDbSpline
210
0.0
220
0.0
230
1.0
 70
     8
 71
     3
 72
     8
 73
     4
 74
     0
 42
0.000000001
 43
0.00000001
 40
0.0
 40
0.0
 40
0.0
 40
0.0
 40
1.0
 40
1.0
 40
1.0
 40
1.0
 10
36.89316581719469
 20
6.310989767252055
 30
0.0
 10
36.80452993370876
 20
6.31070225691851
 30
0.0
 10
36.71473785812611
 20
6.282286067755814
 30
0.0
 10
36.63922042488515
 20
6.22202009431021
 30
0.0
  0
SPLINE
  5
1A9
330
1F
100
AcDbEntity
  8
0
  6
Continuous
 62
     1
370
    15
100
AcDbSpline
210
0.0
220
0.0
230
1.0
 70
     8
 71
     3
 72
     8
 73
     4
 74
     0
 42
0.000000001
 43
0.00000001
 40
0.0
 40
0.0
 40
0.0
 40
0.0
 40
1.0
 40
1.0
 40
1.0
 40
1.0
 10
36.8968419785027
 20
6.310884893257072
 30
0.0
 10
36.89561754092028
 20
6.310925260116774
 30
0.0
 10
36.89439215592351
 20
6.310960225720706
 30
0.0
 10
36.89316581719572
 20
6.310989767252043
 30
0.0
  0
SPLINE
  5
1AA
330
1F
100
AcDbEntity
  8
0
  6
Continuous
 62
     1
370
    15
100
AcDbSpline
210
0.0
220
0.0
230
1.0
 70
     8
 71
     3
 72
     8
 73
     4
 74
     0
 42
0.000000001
 43
0.00000001
 40
0.0
 40
0.0
 40
0.0
 40
0.0
 40
1.0
 40
1.0
 40
1.0
 40
1.0
 10
37.38677592541679
 20
5.804578526807994
 30
0.0
 10
37.22475986298786
 20
5.975599130560704
 30
0.0
 10
37.06134495437403
 20
6.144269931129601
 30
0.0
 10
36.89684197850299
 20
6.310884893257299
 30
0.0
  0
SPLINE
  5
1AB
330
1F
100
AcDbEntity
  8
0
  6
Continuous
 62
     1
370
    15
100
AcDbSpline
210
0.0
220
0.0
230
1.0
 70
     8
 71
     3
 72
    10
 73
     6
 74
     0
 42
0.000000001
 43
0.00000001
 40
0.0
 40
0.0
 40
0.0
 40
0.0
 40
0.5
 40
0.5
 40
1.0
 40
1.0
 40
1.0
 40
1.0
 10
14.8376187166061
 20
-3.707831059757748
 30
0.0
 10
14.76386733579128
 20
-3.701081901811261
 30
0.0
 10
14.67561325418989
 20
-3.673747205176581
 30
0.0
 10
14.49486645684118
 20
-3.58941710556459
 30
0.0
 10
14.40138625404023
 20
-3.531802255222986
 30
0.0
 10
14.32272639322585
 20
-3.467995181923019
 30
0.0
  0
SPLINE
  5
1AC
330
1F
100
AcDbEntity
  8
0
  6
Continuous
 62
     1
370
    15
100
AcDbSpline
210
0.0
220
0.0
230
1.0
 70
     8
 71
     3
 72
    12
 73
     8
 74
     0
 42
0.000000001
 43
0.00000001
 40
0.0
 40
0.0
 40
0.0
 40
0.0
 40
0.2499999999999999
 40
0.2499999999999999
 40
0.4999999999999998
 40
0.4999999999999998
 40
1.0
 40
1.0
 40
1.0
 40
1.0
 10
14.32272639322585
 20
-3.467995181923043
 30
0.0
 10
14.30504880528355
 20
-3.177307086302664
 30
0.0
 10
14.28828871211009
 20
-2.875736959561058
 30
0.0
 10
14.25328066625026
 20
-2.240463511980106
 30
0.0
 10
14.23522597949763
 20
-1.907591664726021
 30
0.0
 10
14.18051883297585
 20
-0.8830862305999214
 30
0.0
 10
14.14336460005005
 20
-0.1659027784749565
 30
0.0
 10
14.10858397650083
 20
0.5255215237521813
 30
0.0
  0
SPLINE
  5
1AD
330
1F
100
AcDbEntity
  8
0
  6
Continuous
 62
     1
370
    15
100
AcDbSpline
210
0.0
220
0.0
230
1.0
 70
     8
 71
     3
 72
    12
 73
     8
 74
     0
 42
0.000000001
 43
0.00000001
 40
0.0
 40
0.0
 40
0.0
 40
0.0
 40
0.25
 40
0.25
 40
0.5
 40
0.5
 40
1.0
 40
1.0
 40
1.0
 40
1.0
 10
14.8376187166061
 20
-3.707831059757739
 30
0.0
 10
14.81970343786574
 20
-3.425333042207763
 30
0.0
 10
14.80247731116397
 20
-3.129123231840864
 30
0.0
 10
14.76814356934136
 20
-2.511841051394812
 30
0.0
 10
14.75033382885599
 20
-2.186402693050214
 30
0.0
 10
14.69603502802597
 20
-1.178237278292988
 30
0.0
 10
14.65870155804384
 20
-0.4636784911751283
 30
0.0
 10
14.62333723207489
 20
0.2334669899456367
 30
0.0
  0
SPLINE
  5
1AE
330
1F
100
AcDbEntity
  8
0
  6
Continuous
 62
     4
370
    15
100
AcDbSpline
210
0.0
220
0.0
230
1.0
 70
     8
 71
     3
 72
     8
 73
     4
 74
     0
 42
0.000000001
 43
0.00000001
 40
0.0
 40
0.0
 40
0.0
 40
0.0
 40
1.0
 40
1.0
 40
1.0
 40
1.0
 10
11.746565251206
 20
-2.167796148324077
 30
0.0
 10
11.67291607977126
 20
-2.140538992077429
 30
0.0
 10
11.58345017715038
 20
-2.09838577405069
 30
0.0
 10
11.49133314101452
 20
-2.048438150120763
 30
0.0
  0
LINE
  5
1B0
330
1F
100
AcDbEntity
  8
0
  6
Continuous
 62
     1
370
    15
100
AcDbLine
 10
37.38677578236564
 20
-3.319926868521907
 30
0.0
 11
37.38677578236564
 21
0.433146353947631
 31
0.0
  0
SPLINE
  5
1B1
330
1F
100
AcDbEntity
  8
0
  6
Continuous
 62
     1
370
    15
100
AcDbSpline
210
0.0
220
0.0
230
1.0
 70
     8
 71
     3
 72
    14
 73
    10
 74
     0
 42
0.000000001
 43
0.00000001
 40
0.0
 40
0.0
 40
0.0
 40
0.0
 40
0.25
 40
0.25
 40
0.5
 40
0.5
 40
0.75
 40
0.75
 40
1.0
 40
1.0
 40
1.0
 40
1.0
 10
37.07661682390231
 20
-3.298485019132167
 30
0.0
 10
37.07613801074766
 20
-3.009926319609851
 30
0.0
 10
37.07466842355376
 20
-2.705578241657366
 30
0.0
 10
37.07016842130673
 20
-2.082598928367146
 30
0.0
 10
37.06712895431302
 20
-1.762834086208255
 30
0.0
 10
37.05970436867715
 20
-1.106784155733108
 30
0.0
 10
37.05527507059061
 20
-0.7677668122060202
 30
0.0
 10
37.04547224067278
 20
-0.0897693589830627
 30
0.0
 10
37.04010164821356
 20
0.2497497301767909
 30
0.0
 10
37.0343696266831
 20
0.5897979129230443
 30
0.0
  0
SPLINE
  5
1B2
330
1F
100
AcDbEntity
  8
0
  6
Continuous
 62
     1
370
    15
100
AcDbSpline
210
0.0
220
0.0
230
1.0
 70
     8
 71
     3
 72
    10
 73
     6
 74
     0
 42
0.000000001
 43
0.00000001
 40
0.0
 40
0.0
 40
0.0
 40
0.0
 40
0.5
 40
0.5
 40
1.0
 40
1.0
 40
1.0
 40
1.0
 10
13.29637074408691
 20
-2.969477909919974
 30
0.0
 10
13.21829818912649
 20
-2.909093563031052
 30
0.0
 10
13.12484598606473
 20
-2.854302032237984
 30
0.0
 10
12.94084312375402
 20
-2.763330294269799
 30
0.0
 10
12.85260741704605
 20
-2.728060729811269
 30
0.0
 10
12.77903686440863
 20
-2.707460040060602
 30
0.0
  0
SPLINE
  5
1B3
330
1F
100
AcDbEntity
  8
0
  6
Continuous
 62
     1
370
    15
100
AcDbSpline
210
0.0
220
0.0
230
1.0
 70
     8
 71
     3
 72
    10
 73
     6
 74
     0
 42
0.000000001
 43
0.00000001
 40
0.0
 40
0.0
 40
0.0
 40
0.0
 40
0.5
 40
0.5
 40
1.0
 40
1.0
 40
1.0
 40
1.0
 10
14.32272639322585
 20
-3.467995181923013
 30
0.0
 10
14.24410678655901
 20
-3.404220761863417
 30
0.0
 10
14.15046540470416
 20
-3.349415848758454
 30
0.0
 10
13.96650018250921
 20
-3.263685361016604
 30
0.0
 10
13.87832562673082
 20
-3.233506146490605
 30
0.0
 10
13.80508991322021
 20
-3.220220450416732
 30
0.0
  0
SPLINE
  5
1B4
330
1F
100
AcDbEntity
  8
0
  6
Continuous
 62
     1
370
    15
100
AcDbSpline
210
0.0
220
0.0
230
1.0
 70
     8
 71
     3
 72
    12
 73
     8
 74
     0
 42
0.000000001
 43
0.00000001
 40
0.0
 40
0.0
 40
0.0
 40
0.0
 40
0.4999999999999999
 40
0.4999999999999999
 40
0.7499999999999998
 40
0.7499999999999998
 40
1.0
 40
1.0
 40
1.0
 40
1.0
 10
33.46018139012338
 20
-1.45934375227425
 30
0.0
 10
33.42389421385176
 20
-0.7671305671608806
 30
0.0
 10
33.38713397063985
 20
-0.0445057146320436
 30
0.0
 10
33.33572665192241
 20
0.9960153491796816
 30
0.0
 10
33.31878912863395
 20
1.338575086539851
 30
0.0
 10
33.2833197605397
 20
2.018290711216671
 30
0.0
 10
33.26517279549886
 20
2.352810541818377
 30
0.0
 10
33.24699051345374
 20
2.674720159802497
 30
0.0
  0
SPLINE
  5
1B5
330
1F
100
AcDbEntity
  8
0
  6
Continuous
 62
     1
370
    15
100
AcDbSpline
210
0.0
220
0.0
230
1.0
 70
     8
 71
     3
 72
    12
 73
     8
 74
     0
 42
0.000000001
 43
0.00000001
 40
0.0
 40
0.0
 40
0.0
 40
0.0
 40
0.5
 40
0.5
 40
0.75
 40
0.75
 40
1.0
 40
1.0
 40
1.0
 40
1.0
 10
33.7154948583436
 20
-1.591246849183161
 30
0.0
 10
33.67908183531705
 20
-0.9095882703373509
 30
0.0
 10
33.64194830370653
 20
-0.1930890388576624
 30
0.0
 10
33.58974540361533
 20
0.8442402196509854
 30
0.0
 10
33.57293582938646
 20
1.183817233152611
 30
0.0
 10
33.53748063625501
 20
1.860426493184037
 30
0.0
 10
33.5192883660734
 20
2.194388678500647
 30
0.0
 10
33.50101070202874
 20
2.516650727454656
 30
0.0
  0
SPLINE
  5
1B6
330
1F
100
AcDbEntity
  8
0
  6
Continuous
 62
     1
370
    15
100
AcDbSpline
210
0.0
220
0.0
230
1.0
 70
     8
 71
     3
 72
    12
 73
     8
 74
     0
 42
0.000000001
 43
0.00000001
 40
0.0
 40
0.0
 40
0.0
 40
0.0
 40
0.4999999999999999
 40
0.4999999999999999
 40
0.7499999999999998
 40
0.7499999999999998
 40
1.0
 40
1.0
 40
1.0
 40
1.0
 10
33.20616452188976
 20
-1.310259845877169
 30
0.0
 10
33.16960565278946
 20
-0.6201876027547766
 30
0.0
 10
33.13277317521067
 20
0.0963886784429642
 30
0.0
 10
33.08157557743854
 20
1.122172121219917
 30
0.0
 10
33.06415746082429
 20
1.46279847623039
 30
0.0
 10
33.0282515933125
 20
2.13359249112494
 30
0.0
 10
33.0099342560563
 20
2.462587091694266
 30
0.0
 10
32.99164048478077
 20
2.777967504299519
 30
0.0
  0
SPLINE
  5
1B7
330
1F
100
AcDbEntity
  8
0
  6
Continuous
 62
     1
370
    15
100
AcDbSpline
210
0.0
220
0.0
230
1.0
 70
     8
 71
     3
 72
    12
 73
     8
 74
     0
 42
0.000000001
 43
0.00000001
 40
0.0
 40
0.0
 40
0.0
 40
0.0
 40
0.2500000000000001
 40
0.2500000000000001
 40
0.5000000000000002
 40
0.5000000000000002
 40
1.0
 40
1.0
 40
1.0
 40
1.0
 10
32.17294020420691
 20
-0.7310961733018198
 30
0.0
 10
32.15469037121891
 20
-0.3809952945008328
 30
0.0
 10
32.13658317697352
 20
-0.0284001125848097
 30
0.0
 10
32.10140081529673
 20
0.6668614919945058
 30
0.0
 10
32.08468156267058
 20
1.007244411843546
 30
0.0
 10
32.03199358167822
 20
2.025814332833688
 30
0.0
 10
31.99474100758886
 20
2.691995767601528
 30
0.0
 10
31.9584439972969
 20
3.288541410818181
 30
0.0
  0
SPLINE
  5
1B8
330
1F
100
AcDbEntity
  8
0
  6
Continuous
 62
     1
370
    15
100
AcDbSpline
210
0.0
220
0.0
230
1.0
 70
     8
 71
     3
 72
    12
 73
     8
 74
     0
 42
0.000000001
 43
0.00000001
 40
0.0
 40
0.0
 40
0.0
 40
0.0
 40
0.25
 40
0.25
 40
0.5
 40
0.5
 40
1.0
 40
1.0
 40
1.0
 40
1.0
 10
32.68810014758672
 20
-1.020729051835143
 30
0.0
 10
32.66980335101464
 20
-0.6726025963870682
 30
0.0
 10
32.65153918513796
 20
-0.3198655954202355
 30
0.0
 10
32.61584459031663
 20
0.3797328857299983
 30
0.0
 10
32.59880722051177
 20
0.7239883612549721
 30
0.0
 10
32.54706089714156
 20
1.745915481391674
 30
0.0
 10
32.51004904537476
 20
2.422851603898891
 30
0.0
 10
32.47354327938174
 20
3.037369859126903
 30
0.0
  0
SPLINE
  5
1B9
330
1F
100
AcDbEntity
  8
0
  6
Continuous
 62
     4
370
    15
100
AcDbSpline
210
0.0
220
0.0
230
1.0
 70
     8
 71
     3
 72
    10
 73
     6
 74
     0
 42
0.000000001
 43
0.00000001
 40
0.0
 40
0.0
 40
0.0
 40
0.0
 40
0.5
 40
0.5
 40
1.0
 40
1.0
 40
1.0
 40
1.0
 10
12.26435527712622
 20
-2.441195983117924
 30
0.0
 10
12.1856774474284
 20
-2.384411742885627
 30
0.0
 10
12.09199574476468
 20
-2.330023718590919
 30
0.0
 10
11.90800425523532
 20
-2.234778570519848
 30
0.0
 10
11.81983657773398
 20
-2.194913466233371
 30
0.0
 10
11.74656525120635
 20
-2.167796148323983
 30
0.0
  0
SPLINE
  5
1BA
330
1F
100
AcDbEntity
  8
0
  6
Continuous
 62
     1
370
    15
100
AcDbSpline
210
0.0
220
0.0
230
1.0
 70
     8
 71
     3
 72
    12
 73
     8
 74
     0
 42
0.000000001
 43
0.00000001
 40
0.0
 40
0.0
 40
0.0
 40
0.0
 40
0.25
 40
0.25
 40
0.4999999999999999
 40
0.4999999999999999
 40
1.0
 40
1.0
 40
1.0
 40
1.0
 10
31.39967994733126
 20
-0.2859528538369234
 30
0.0
 10
31.38172690000864
 20
0.0679950060922346
 30
0.0
 10
31.36407902147872
 20
0.4211697256325659
 30
0.0
 10
31.33007997161034
 20
1.111679131547524
 30
0.0
 10
31.3128422582434
 20
1.455016394342994
 30
0.0
 10
31.25935856835533
 20
2.470992852072987
 30
0.0
 10
31.22221533744432
 20
3.122471412871036
 30
0.0
 10
31.18664454577007
 20
3.694561611558623
 30
0.0
  0
SPLINE
  5
1BB
330
1F
100
AcDbEntity
  8
0
  6
Continuous
 62
     1
370
    15
100
AcDbSpline
210
0.0
220
0.0
230
1.0
 70
     8
 71
     3
 72
    12
 73
     8
 74
     0
 42
0.000000001
 43
0.00000001
 40
0.0
 40
0.0
 40
0.0
 40
0.0
 40
0.2499999999999999
 40
0.2499999999999999
 40
0.4999999999999998
 40
0.4999999999999998
 40
1.0
 40
1.0
 40
1.0
 40
1.0
 10
31.654949353722
 20
-0.4387952069677913
 30
0.0
 10
31.636807547876
 20
-0.0877595359821563
 30
0.0
 10
31.61891738623044
 20
0.2636383029501222
 30
0.0
 10
31.58435743392994
 20
0.952576376900121
 30
0.0
 10
31.56737523506177
 20
1.292280134947639
 30
0.0
 10
31.5139005104141
 20
2.304392085926641
 30
0.0
 10
31.47653560669563
 20
2.957605645605412
 30
0.0
 10
31.44056773546619
 20
3.534440795913195
 30
0.0
  0
SPLINE
  5
1BC
330
1F
100
AcDbEntity
  8
0
  6
Continuous
 62
     1
370
    15
100
AcDbSpline
210
0.0
220
0.0
230
1.0
 70
     8
 71
     3
 72
    12
 73
     8
 74
     0
 42
0.000000001
 43
0.00000001
 40
0.0
 40
0.0
 40
0.0
 40
0.0
 40
0.2499999999999999
 40
0.2499999999999999
 40
0.4999999999999998
 40
0.4999999999999998
 40
1.0
 40
1.0
 40
1.0
 40
1.0
 10
30.11313616930806
 20
0.4351442768790985
 30
0.0
 10
30.09564441186198
 20
0.7819645641175976
 30
0.0
 10
30.07887170009049
 20
1.122024575470886
 30
0.0
 10
30.043482801884
 20
1.800243598740663
 30
0.0
 10
30.02530116107337
 20
2.135450027367033
 30
0.0
 10
29.9704297557256
 20
3.107145446577134
 30
0.0
 10
29.93346485736306
 20
3.707734603068667
 30
0.0
 10
29.89912320357767
 20
4.215417880158748
 30
0.0
  0
SPLINE
  5
1BD
330
1F
100
AcDbEntity
  8
0
  6
Continuous
 62
     1
370
    15
100
AcDbSpline
210
0.0
220
0.0
230
1.0
 70
     8
 71
     3
 72
    12
 73
     8
 74
     0
 42
0.000000001
 43
0.00000001
 40
0.0
 40
0.0
 40
0.0
 40
0.0
 40
0.2500000000000001
 40
0.2500000000000001
 40
0.5000000000000001
 40
0.5000000000000001
 40
1.0
 40
1.0
 40
1.0
 40
1.0
 10
30.6279390430117
 20
0.1428674419295271
 30
0.0
 10
30.61017096689918
 20
0.4922312273722685
 30
0.0
 10
30.59331365788459
 20
0.8348752785945587
 30
0.0
 10
30.5585299430045
 20
1.516090648816578
 30
0.0
 10
30.54055424275786
 20
1.854898892118144
 30
0.0
 10
30.48596833568952
 20
2.843579356573028
 30
0.0
 10
30.44873505300001
 20
3.463951130729334
 30
0.0
 10
30.4137361480681
 20
3.996258042272808
 30
0.0
  0
SPLINE
  5
1BE
330
1F
100
AcDbEntity
  8
0
  6
Continuous
 62
     1
370
    15
100
AcDbSpline
210
0.0
220
0.0
230
1.0
 70
     8
 71
     3
 72
    12
 73
     8
 74
     0
 42
0.000000001
 43
0.00000001
 40
0.0
 40
0.0
 40
0.0
 40
0.0
 40
0.25
 40
0.25
 40
0.5
 40
0.5
 40
1.0
 40
1.0
 40
1.0
 40
1.0
 10
31.14573489251454
 20
-0.1506421347084107
 30
0.0
 10
31.12775206166634
 20
0.2001490135138292
 30
0.0
 10
31.11022330808478
 20
0.54857940811875
 30
0.0
 10
31.07615747807412
 20
1.230536363605517
 30
0.0
 10
31.05845088312321
 20
1.571775631002709
 30
0.0
 10
31.00434840051632
 20
2.574059432145144
 30
0.0
 10
30.96698909521319
 20
3.212168179872103
 30
0.0
 10
30.93144922683446
 20
3.767808590643526
 30
0.0
  0
LINE
  5
1BF
102
{ACAD_REACTORS
102
}
330
1F
100
AcDbEntity
  8
0
  6
Continuous
 62
     4
370
    15
100
AcDbLine
 10
-45.16322421763436
 20
5.832028033814094
 30
0.0
 11
-45.16322421763436
 21
-5.867971648791173
 31
0.0
  0
SPLINE
  5
1C0
330
1F
100
AcDbEntity
  8
0
  6
Continuous
 62
     1
370
    15
100
AcDbSpline
210
0.0
220
0.0
230
1.0
 70
     8
 71
     3
 72
    10
 73
     6
 74
     0
 42
0.000000001
 43
0.00000001
 40
0.0
 40
0.0
 40
0.0
 40
0.0
 40
0.5
 40
0.5
 40
1.0
 40
1.0
 40
1.0
 40
1.0
 10
16.89797024867817
 20
-4.579854895838192
 30
0.0
 10
16.82417403625791
 20
-4.587248194518693
 30
0.0
 10
16.73589319705175
 20
-4.570696417374608
 30
0.0
 10
16.55510224434459
 20
-4.499177107057825
 30
0.0
 10
16.46152899523517
 20
-4.44367045702681
 30
0.0
 10
16.38277521414387
 20
-4.375117212498308
 30
0.0
  0
SPLINE
  5
1C1
330
1F
100
AcDbEntity
  8
0
  6
Continuous
 62
     1
370
    15
100
AcDbSpline
210
0.0
220
0.0
230
1.0
 70
     8
 71
     3
 72
    12
 73
     8
 74
     0
 42
0.000000001
 43
0.00000001
 40
0.0
 40
0.0
 40
0.0
 40
0.0
 40
0.25
 40
0.25
 40
0.5
 40
0.5
 40
1.0
 40
1.0
 40
1.0
 40
1.0
 10
16.38277521414387
 20
-4.375117212498305
 30
0.0
 10
16.36448832499665
 20
-4.122764149344976
 30
0.0
 10
16.34627278118874
 20
-3.849724881449586
 30
0.0
 10
16.31074611064643
 20
-3.274924673381072
 30
0.0
 10
16.29388641641262
 20
-2.975992021443225
 30
0.0
 10
16.24179315904878
 20
-2.034090959366123
 30
0.0
 10
16.20468306609538
 20
-1.341714083980708
 30
0.0
 10
16.16823754794336
 20
-0.6407663359887701
 30
0.0
  0
SPLINE
  5
1C2
330
1F
100
AcDbEntity
  8
0
  6
Continuous
 62
     1
370
    15
100
AcDbSpline
210
0.0
220
0.0
230
1.0
 70
     8
 71
     3
 72
    10
 73
     6
 74
     0
 42
0.000000001
 43
0.00000001
 40
0.0
 40
0.0
 40
0.0
 40
0.0
 40
0.5
 40
0.5
 40
1.0
 40
1.0
 40
1.0
 40
1.0
 10
16.89797024867817
 20
-4.579854895838155
 30
0.0
 10
16.8613804623315
 20
-4.098758004899436
 30
0.0
 10
16.82483747956661
 20
-3.528737795193502
 30
0.0
 10
16.75676583225314
 20
-2.309321464397172
 30
0.0
 10
16.71997795265178
 20
-1.628921097945234
 30
0.0
 10
16.68340070854884
 20
-0.9312002799993947
 30
0.0
  0
SPLINE
  5
1C3
330
1F
100
AcDbEntity
  8
0
  6
Continuous
 62
     1
370
    15
100
AcDbSpline
210
0.0
220
0.0
230
1.0
 70
     8
 71
     3
 72
     8
 73
     4
 74
     0
 42
0.000000001
 43
0.00000001
 40
0.0
 40
0.0
 40
0.0
 40
0.0
 40
1.0
 40
1.0
 40
1.0
 40
1.0
 10
15.60943486565268
 20
-4.100802435475856
 30
0.0
 10
15.52077548283066
 20
-4.061218316752903
 30
0.0
 10
15.43097800607246
 20
-4.005622599949282
 30
0.0
 10
15.35546663194176
 20
-3.94138190146166
 30
0.0
  0
SPLINE
  5
1C4
330
1F
100
AcDbEntity
  8
0
  6
Continuous
 62
     1
370
    15
100
AcDbSpline
210
0.0
220
0.0
230
1.0
 70
     8
 71
     3
 72
    12
 73
     8
 74
     0
 42
0.000000001
 43
0.00000001
 40
0.0
 40
0.0
 40
0.0
 40
0.0
 40
0.2500000000000001
 40
0.2500000000000001
 40
0.5000000000000002
 40
0.5000000000000002
 40
1.0
 40
1.0
 40
1.0
 40
1.0
 10
15.35546663194176
 20
-3.94138190146166
 30
0.0
 10
15.33737319446673
 20
-3.668020047773342
 30
0.0
 10
15.31956765621709
 20
-3.377333617135199
 30
0.0
 10
15.28523798099074
 20
-2.775058168620271
 30
0.0
 10
15.26803359964661
 20
-2.459674009621026
 30
0.0
 10
15.21432582805648
 20
-1.470784126192949
 30
0.0
 10
15.17694908339746
 20
-0.7612031284361644
 30
0.0
 10
15.14111591836751
 20
-0.0604251833028052
 30
0.0
  0
SPLINE
  5
1C5
330
1F
100
AcDbEntity
  8
0
  6
Continuous
 62
     1
370
    15
100
AcDbSpline
210
0.0
220
0.0
230
1.0
 70
     8
 71
     3
 72
    12
 73
     8
 74
     0
 42
0.000000001
 43
0.00000001
 40
0.0
 40
0.0
 40
0.0
 40
0.0
 40
0.2500000000000001
 40
0.2500000000000001
 40
0.5000000000000002
 40
0.5000000000000002
 40
1.0
 40
1.0
 40
1.0
 40
1.0
 10
15.60943486565268
 20
-4.100802435475842
 30
0.0
 10
15.59138799320557
 20
-3.829632375995387
 30
0.0
 10
15.5735778555951
 20
-3.540300977292471
 30
0.0
 10
15.53913915470906
 20
-2.938809975139566
 30
0.0
 10
15.52233057038427
 20
-2.625876324303998
 30
0.0
 10
15.46928940383881
 20
-1.639466960227191
 30
0.0
 10
15.43217005049182
 20
-0.9277313533832849
 30
0.0
 10
15.39634595157461
 20
-0.220162501583315
 30
0.0
  0
SPLINE
  5
1C6
330
1F
100
AcDbEntity
  8
0
  6
Continuous
 62
     1
370
    15
100
AcDbSpline
210
0.0
220
0.0
230
1.0
 70
     8
 71
     3
 72
     8
 73
     4
 74
     0
 42
0.000000001
 43
0.00000001
 40
0.0
 40
0.0
 40
0.0
 40
0.0
 40
1.0
 40
1.0
 40
1.0
 40
1.0
 10
15.86473220254398
 20
-4.161407163325594
 30
0.0
 10
15.79105614143412
 20
-4.162347210869223
 30
0.0
 10
15.70156403365533
 20
-4.140564184971973
 30
0.0
 10
15.60943486565371
 20
-4.100802435476311
 30
0.0
  0
SPLINE
  5
1C7
330
1F
100
AcDbEntity
  8
0
  6
Continuous
 62
     1
370
    15
100
AcDbSpline
210
0.0
220
0.0
230
1.0
 70
     8
 71
     3
 72
    12
 73
     8
 74
     0
 42
0.000000001
 43
0.00000001
 40
0.0
 40
0.0
 40
0.0
 40
0.0
 40
0.2500000000000001
 40
0.2500000000000001
 40
0.5000000000000001
 40
0.5000000000000001
 40
1.0
 40
1.0
 40
1.0
 40
1.0
 10
15.86473220254433
 20
-4.16140716332532
 30
0.0
 10
15.84651602911598
 20
-3.897989837553905
 30
0.0
 10
15.82848139408979
 20
-3.615527383973537
 30
0.0
 10
15.79351201982111
 20
-3.025788832464993
 30
0.0
 10
15.77676847862705
 20
-2.719948996084901
 30
0.0
 10
15.72378960116201
 20
-1.752948904897584
 30
0.0
 10
15.68648711739884
 20
-1.050698922641822
 30
0.0
 10
15.65029733453901
 20
-0.3486666747289883
 30
0.0
  0
SPLINE
  5
1C8
330
1F
100
AcDbEntity
  8
0
  6
Continuous
 62
     1
370
    15
100
AcDbSpline
210
0.0
220
0.0
230
1.0
 70
     8
 71
     3
 72
    10
 73
     6
 74
     0
 42
0.000000001
 43
0.00000001
 40
0.0
 40
0.0
 40
0.0
 40
0.0
 40
0.5
 40
0.5
 40
1.0
 40
1.0
 40
1.0
 40
1.0
 10
15.35546663194176
 20
-3.941381901461667
 30
0.0
 10
15.27729096952006
 20
-3.874874580988195
 30
0.0
 10
15.18374383042678
 20
-3.820354678498852
 30
0.0
 10
14.99958704399245
 20
-3.739856609452771
 30
0.0
 10
14.91126868656798
 20
-3.714570937364577
 30
0.0
 10
14.8376187166061
 20
-3.707831059757746
 30
0.0
  0
SPLINE
  5
1C9
330
1F
100
AcDbEntity
  8
0
  6
Continuous
 62
     1
370
    15
100
AcDbSpline
210
0.0
220
0.0
230
1.0
 70
     8
 71
     3
 72
    12
 73
     8
 74
     0
 42
0.000000001
 43
0.00000001
 40
0.0
 40
0.0
 40
0.0
 40
0.0
 40
0.4999999999999998
 40
0.4999999999999998
 40
0.7499999999999999
 40
0.7499999999999999
 40
1.0
 40
1.0
 40
1.0
 40
1.0
 10
29.34070820406491
 20
0.8960125510043493
 30
0.0
 10
29.30684082564138
 20
1.584111898137754
 30
0.0
 10
29.27025215069325
 20
2.273264473792383
 30
0.0
 10
29.21566256101844
 20
3.220750017629134
 30
0.0
 10
29.19752882277742
 20
3.522223168758607
 30
0.0
 10
29.16213873764167
 20
4.084686287375712
 30
0.0
 10
29.14532015561264
 20
4.343710223264235
 30
0.0
 10
29.12807887314479
 20
4.583869715058075
 30
0.0
  0
SPLINE
  5
1CA
330
1F
100
AcDbEntity
  8
0
  6
Continuous
 62
     1
370
    15
100
AcDbSpline
210
0.0
220
0.0
230
1.0
 70
     8
 71
     3
 72
    14
 73
    10
 74
     0
 42
0.000000001
 43
0.00000001
 40
0.0
 40
0.0
 40
0.0
 40
0.0
 40
0.25
 40
0.25
 40
0.5
 40
0.5
 40
0.75
 40
0.75
 40
1.0
 40
1.0
 40
1.0
 40
1.0
 10
29.59564955497886
 20
0.7276819323259894
 30
0.0
 10
29.57849389021113
 20
1.07087516425515
 30
0.0
 10
29.56120804542263
 20
1.41155106296653
 30
0.0
 10
29.5253274034033
 20
2.084488425871915
 30
0.0
 10
29.50700301970567
 20
2.414913676911784
 30
0.0
 10
29.47036269313197
 20
3.049130338576548
 30
0.0
 10
29.45205050651777
 20
3.35285689399557
 30
0.0
 10
29.41621694862172
 20
3.921272518927164
 30
0.0
 10
29.39901517379808
 20
4.184469647689355
 30
0.0
 10
29.38182065872984
 20
4.42724201234026
 30
0.0
  0
SPLINE
  5
1CB
330
1F
100
AcDbEntity
  8
0
  6
Continuous
 62
     1
370
    15
100
AcDbSpline
210
0.0
220
0.0
230
1.0
 70
     8
 71
     3
 72
    12
 73
     8
 74
     0
 42
0.000000001
 43
0.00000001
 40
0.0
 40
0.0
 40
0.0
 40
0.0
 40
0.5
 40
0.5
 40
0.75
 40
0.75
 40
1.0
 40
1.0
 40
1.0
 40
1.0
 10
29.08700541069224
 20
1.012800111016488
 30
0.0
 10
29.05260635371057
 20
1.695066054574465
 30
0.0
 10
29.01561992830663
 20
2.374532391666856
 30
0.0
 10
28.96077874952562
 20
3.301930091888497
 30
0.0
 10
28.94261724619281
 20
3.595818871033013
 30
0.0
 10
28.90728602819417
 20
4.141793530443609
 30
0.0
 10
28.89053358173375
 20
4.392204776495719
 30
0.0
 10
28.87301884138747
 20
4.624698291101545
 30
0.0
  0
SPLINE
  5
1CC
330
1F
100
AcDbEntity
  8
0
  6
Continuous
 62
     1
370
    15
100
AcDbSpline
210
0.0
220
0.0
230
1.0
 70
     8
 71
     3
 72
    10
 73
     6
 74
     0
 42
0.000000001
 43
0.00000001
 40
0.0
 40
0.0
 40
0.0
 40
0.0
 40
0.3709370033589693
 40
0.7030667686590327
 40
1.0
 40
1.0
 40
1.0
 40
1.0
 10
16.85584785606369
 20
-4.843663965680935
 30
0.0
 10
16.90713519393208
 20
-4.845406272738009
 30
0.0
 10
17.00434421482171
 20
-4.848708607586069
 30
0.0
 10
17.16794628687335
 20
-4.793700161327193
 30
0.0
 10
17.2640100090562
 20
-4.729889958829235
 30
0.0
 10
17.30935445245012
 20
-4.699769971289971
 30
0.0
  0
SPLINE
  5
1CD
330
1F
100
AcDbEntity
  8
0
  6
Continuous
 62
     1
370
    15
100
AcDbSpline
210
0.0
220
0.0
230
1.0
 70
     8
 71
     3
 72
    10
 73
     6
 74
     0
 42
0.000000001
 43
0.00000001
 40
0.0
 40
0.0
 40
0.0
 40
0.0
 40
0.5
 40
0.5
 40
1.0
 40
1.0
 40
1.0
 40
1.0
 10
16.33801428560881
 20
-5.026396253137397
 30
0.0
 10
16.41621694440997
 20
-4.955331248895408
 30
0.0
 10
16.50976789652053
 20
-4.9041438942381
 30
0.0
 10
16.69386776611181
 20
-4.84199806987677
 30
0.0
 10
16.7821732028777
 20
-4.831430039929213
 30
0.0
 10
16.85584772893616
 20
-4.843664197388225
 30
0.0
  0
SPLINE
  5
1CE
330
1F
100
AcDbEntity
  8
0
  6
Continuous
 62
     1
370
    15
100
AcDbSpline
210
0.0
220
0.0
230
1.0
 70
     8
 71
     3
 72
     8
 73
     4
 74
     0
 42
0.000000001
 43
0.00000001
 40
0.0
 40
0.0
 40
0.0
 40
0.0
 40
1.0
 40
1.0
 40
1.0
 40
1.0
 10
16.08405462429242
 20
-5.17722816810344
 30
0.0
 10
16.17271830975717
 20
-5.146780754162803
 30
0.0
 10
16.26250367961485
 20
-5.095014911601607
 30
0.0
 10
16.33801428560851
 20
-5.026396253137674
 30
0.0
  0
SPLINE
  5
1CF
330
1F
100
AcDbEntity
  8
0
  6
Continuous
 62
     1
370
    15
100
AcDbSpline
210
0.0
220
0.0
230
1.0
 70
     8
 71
     3
 72
     8
 73
     4
 74
     0
 42
0.000000001
 43
0.00000001
 40
0.0
 40
0.0
 40
0.0
 40
0.0
 40
1.0
 40
1.0
 40
1.0
 40
1.0
 10
15.82877619947017
 20
-5.193243011210004
 30
0.0
 10
15.90245736564316
 20
-5.213269634442028
 30
0.0
 10
15.99194909092123
 20
-5.206998969470652
 30
0.0
 10
16.0840546242914
 20
-5.177228168103779
 30
0.0
  0
SPLINE
  5
1D0
330
1F
100
AcDbEntity
  8
0
  6
Continuous
 62
     1
370
    15
100
AcDbSpline
210
0.0
220
0.0
230
1.0
 70
     8
 71
     3
 72
    10
 73
     6
 74
     0
 42
0.000000001
 43
0.00000001
 40
0.0
 40
0.0
 40
0.0
 40
0.0
 40
0.5
 40
0.5
 40
1.0
 40
1.0
 40
1.0
 40
1.0
 10
15.31078662601386
 20
-5.349607238915086
 30
0.0
 10
15.3894698938988
 20
-5.278579226600073
 30
0.0
 10
15.48320080905366
 20
-5.230162971283992
 30
0.0
 10
15.66730865450219
 20
-5.177427161348822
 30
0.0
 10
15.75550343855175
 20
-5.17332739298217
 30
0.0
 10
15.82877619947018
 20
-5.193243011210013
 30
0.0
  0
SPLINE
  5
1D1
330
1F
100
AcDbEntity
  8
0
  6
Continuous
 62
     1
370
    15
100
AcDbSpline
210
0.0
220
0.0
230
1.0
 70
     8
 71
     3
 72
    10
 73
     6
 74
     0
 42
0.000000001
 43
0.00000001
 40
0.0
 40
0.0
 40
0.0
 40
0.0
 40
0.5
 40
0.5
 40
1.0
 40
1.0
 40
1.0
 40
1.0
 10
14.79565362403768
 20
-5.495225231186263
 30
0.0
 10
14.86940325269363
 20
-5.52122665246492
 30
0.0
 10
14.95766154602747
 20
-5.52023528639692
 30
0.0
 10
15.13849316079371
 20
-5.470240757831817
 30
0.0
 10
15.23207058592003
 20
-5.420664834963949
 30
0.0
 10
15.31078662601386
 20
-5.349607238915073
 30
0.0
  0
SPLINE
  5
1D2
330
1F
100
AcDbEntity
  8
0
  6
Continuous
 62
     1
370
    15
100
AcDbSpline
210
0.0
220
0.0
230
1.0
 70
     8
 71
     3
 72
    10
 73
     6
 74
     0
 42
0.000000001
 43
0.00000001
 40
0.0
 40
0.0
 40
0.0
 40
0.0
 40
0.5
 40
0.5
 40
1.0
 40
1.0
 40
1.0
 40
1.0
 10
14.27759117185151
 20
-5.631849784317954
 30
0.0
 10
14.35580245502886
 20
-5.560355373701698
 30
0.0
 10
14.4493337304312
 20
-5.513813988628279
 30
0.0
 10
14.63352172738048
 20
-5.468191394288707
 30
0.0
 10
14.72192027503228
 20
-5.469229549516871
 30
0.0
 10
14.79565362403768
 20
-5.495225231186261
 30
0.0
  0
SPLINE
  5
1D3
330
1F
100
AcDbEntity
  8
0
  6
Continuous
 62
     1
370
    15
100
AcDbSpline
210
0.0
220
0.0
230
1.0
 70
     8
 71
     3
 72
     8
 73
     4
 74
     0
 42
0.000000001
 43
0.00000001
 40
0.0
 40
0.0
 40
0.0
 40
0.0
 40
1.0
 40
1.0
 40
1.0
 40
1.0
 10
14.02355780895338
 20
-5.770020258531497
 30
0.0
 10
14.11224330392993
 20
-5.747658661967954
 30
0.0
 10
14.20204831177545
 20
-5.700904938996214
 30
0.0
 10
14.27759117185122
 20
-5.631849784318225
 30
0.0
  0
SPLINE
  5
1D4
330
1F
100
AcDbEntity
  8
0
  6
Continuous
 62
     1
370
    15
100
AcDbSpline
210
0.0
220
0.0
230
1.0
 70
     8
 71
     3
 72
     8
 73
     4
 74
     0
 42
0.000000001
 43
0.00000001
 40
0.0
 40
0.0
 40
0.0
 40
0.0
 40
1.0
 40
1.0
 40
1.0
 40
1.0
 10
13.76823431920497
 20
-5.752076198205014
 30
0.0
 10
13.84193670816082
 20
-5.785535115956002
 30
0.0
 10
13.9314461941024
 20
-5.791099618059398
 30
0.0
 10
14.02355780895236
 20
-5.770020258531744
 30
0.0
  0
SPLINE
  5
1D5
330
1F
100
AcDbEntity
  8
0
  6
Continuous
 62
     1
370
    15
100
AcDbSpline
210
0.0
220
0.0
230
1.0
 70
     8
 71
     3
 72
    10
 73
     6
 74
     0
 42
0.000000001
 43
0.00000001
 40
0.0
 40
0.0
 40
0.0
 40
0.0
 40
0.5
 40
0.5
 40
1.0
 40
1.0
 40
1.0
 40
1.0
 10
13.25027727261203
 20
-5.859438835494643
 30
0.0
 10
13.32896035597925
 20
-5.789355375763186
 30
0.0
 10
13.42269431613448
 20
-5.746536449384459
 30
0.0
 10
13.60679442014064
 20
-5.711282226622229
 30
0.0
 10
13.69496961214115
 20
-5.71881597635296
 30
0.0
 10
13.76823431920497
 20
-5.752076198205019
 30
0.0
  0
SPLINE
  5
1D6
330
1F
100
AcDbEntity
  8
0
  6
Continuous
 62
     1
370
    15
100
AcDbSpline
210
0.0
220
0.0
230
1.0
 70
     8
 71
     3
 72
    10
 73
     6
 74
     0
 42
0.000000001
 43
0.00000001
 40
0.0
 40
0.0
 40
0.0
 40
0.0
 40
0.5
 40
0.5
 40
1.0
 40
1.0
 40
1.0
 40
1.0
 10
12.73532937541896
 20
-5.955296088114611
 30
0.0
 10
12.8090467071444
 20
-5.99415594916678
 30
0.0
 10
12.8972824934014
 20
-6.004770811667987
 30
0.0
 10
13.07806183992316
 20
-5.972710359804569
 30
0.0
 10
13.1716017054631
 20
-5.929515600488655
 30
0.0
 10
13.25027727261203
 20
-5.859438835494618
 30
0.0
  0
SPLINE
  5
1D7
330
1F
100
AcDbEntity
  8
0
  6
Continuous
 62
     1
370
    15
100
AcDbSpline
210
0.0
220
0.0
230
1.0
 70
     8
 71
     3
 72
    10
 73
     6
 74
     0
 42
0.000000001
 43
0.00000001
 40
0.0
 40
0.0
 40
0.0
 40
0.0
 40
0.5
 40
0.5
 40
1.0
 40
1.0
 40
1.0
 40
1.0
 10
12.21760514926195
 20
-6.040848609079752
 30
0.0
 10
12.29573655298957
 20
-5.971514299633339
 30
0.0
 10
12.38922837675037
 20
-5.931320882466748
 30
0.0
 10
12.57332459111366
 20
-5.903862874559898
 30
0.0
 10
12.66166221076861
 20
-5.916462672479215
 30
0.0
 10
12.73532937541893
 20
-5.955296088114508
 30
0.0
  0
SPLINE
  5
1D8
330
1F
100
AcDbEntity
  8
0
  6
Continuous
 62
     1
370
    15
100
AcDbSpline
210
0.0
220
0.0
230
1.0
 70
     8
 71
     3
 72
     8
 73
     4
 74
     0
 42
0.000000001
 43
0.00000001
 40
0.0
 40
0.0
 40
0.0
 40
0.0
 40
1.0
 40
1.0
 40
1.0
 40
1.0
 10
11.96374901334177
 20
-6.161379176864905
 30
0.0
 10
12.05235959404492
 20
-6.147916942574742
 30
0.0
 10
12.14209562341685
 20
-6.107856247254436
 30
0.0
 10
12.21760514926159
 20
-6.040848609079724
 30
0.0
  0
SPLINE
  5
1D9
330
1F
100
AcDbEntity
  8
0
  6
Continuous
 62
     1
370
    15
100
AcDbSpline
210
0.0
220
0.0
230
1.0
 70
     8
 71
     3
 72
     8
 73
     4
 74
     0
 42
0.000000001
 43
0.00000001
 40
0.0001007258227002
 40
0.0001007258227002
 40
0.0001007258227002
 40
0.0001007258227002
 40
0.0001208982515424
 40
0.0001208982515424
 40
0.0001208982515424
 40
0.0001208982515424
 10
11.96476201103634
 20
-6.180030481340287
 30
0.0
 10
11.96471800447982
 20
-6.173768602305017
 30
0.0
 10
11.96467330467045
 20
-6.167510723109864
 30
0.0
 10
11.96462790548018
 20
-6.161256893734176
 30
0.0
  0
SPLINE
  5
1DA
330
1F
100
AcDbEntity
  8
0
  6
Continuous
 62
     1
370
    15
100
AcDbSpline
210
0.0
220
0.0
230
1.0
 70
     8
 71
     3
 72
    10
 73
     6
 74
     0
 42
0.000000001
 43
0.00000001
 40
0.0
 40
0.0
 40
0.0
 40
0.0
 40
0.5
 40
0.5
 40
1.0
 40
1.0
 40
1.0
 40
1.0
 10
16.38277521414387
 20
-4.375117212498306
 30
0.0
 10
16.30409052095743
 20
-4.306624107304964
 30
0.0
 10
16.21037188325067
 20
-4.253300469766028
 30
0.0
 10
16.02626727154902
 20
-4.179957365444901
 30
0.0
 10
15.93803632411479
 20
-4.160471861432315
 30
0.0
 10
15.86473220254434
 20
-4.161407163325398
 30
0.0
  0
SPLINE
  5
1DB
330
1F
100
AcDbEntity
  8
0
  6
Continuous
 62
     1
370
    15
100
AcDbSpline
210
0.0
220
0.0
230
1.0
 70
     8
 71
     3
 72
    10
 73
     6
 74
     0
 42
0.000000001
 43
0.00000001
 40
0.0
 40
0.0
 40
0.0
 40
0.0
 40
0.5
 40
0.5
 40
1.0
 40
1.0
 40
1.0
 40
1.0
 10
17.41598916652012
 20
-4.776610472101657
 30
0.0
 10
17.33777441629046
 20
-4.70632037434466
 30
0.0
 10
17.24418901649575
 20
-4.654001154993999
 30
0.0
 10
17.05998209899609
 20
-4.586850130446624
 30
0.0
 10
16.9716499759686
 20
-4.572473267260104
 30
0.0
 10
16.89797024867817
 20
-4.579854895838192
 30
0.0
  0
SPLINE
  5
1DC
330
1F
100
AcDbEntity
  8
0
  6
Continuous
 62
     1
370
    15
100
AcDbSpline
210
0.0
220
0.0
230
1.0
 70
     8
 71
     3
 72
     8
 73
     4
 74
     0
 42
0.000000001
 43
0.00000001
 40
0.0
 40
0.0
 40
0.0
 40
0.0
 40
1.0
 40
1.0
 40
1.0
 40
1.0
 10
17.66998412010269
 20
-4.930482882390987
 30
0.0
 10
17.58131248032161
 20
-4.897515596139195
 30
0.0
 10
17.49150932031156
 20
-4.844478987657062
 30
0.0
 10
17.41598916652012
 20
-4.776610472101652
 30
0.0
  0
SPLINE
  5
1DD
330
1F
100
AcDbEntity
  8
0
  6
Continuous
 62
     1
370
    15
100
AcDbSpline
210
0.0
220
0.0
230
1.0
 70
     8
 71
     3
 72
     8
 73
     4
 74
     0
 42
0.000000001
 43
0.00000001
 40
0.0
 40
0.0
 40
0.0
 40
0.0
 40
1.0
 40
1.0
 40
1.0
 40
1.0
 10
17.92527275202802
 20
-4.958058040690227
 30
0.0
 10
17.85159891240328
 20
-4.973285710635194
 30
0.0
 10
17.76210540127489
 20
-4.962988635574311
 30
0.0
 10
17.6699841201037
 20
-4.930482882391352
 30
0.0
  0
SPLINE
  5
1DE
330
1F
100
AcDbEntity
  8
0
  6
Continuous
 62
     1
370
    15
100
AcDbSpline
210
0.0
220
0.0
230
1.0
 70
     8
 71
     3
 72
    10
 73
     6
 74
     0
 42
0.000000001
 43
0.00000001
 40
0.0
 40
0.0
 40
0.0
 40
0.0
 40
0.5
 40
0.5
 40
1.0
 40
1.0
 40
1.0
 40
1.0
 10
18.44318093535627
 20
-5.130168277421353
 30
0.0
 10
18.36452211364134
 20
-5.059361882995924
 30
0.0
 10
18.27081811607718
 20
-5.009378304518139
 30
0.0
 10
18.08674308812042
 20
-4.951002202240531
 30
0.0
 10
17.99854772889626
 20
-4.942912811818175
 30
0.0
 10
17.92527275202837
 20
-4.958058040690002
 30
0.0
  0
SPLINE
  5
1DF
330
1F
100
AcDbEntity
  8
0
  6
Continuous
 62
     1
370
    15
100
AcDbSpline
210
0.0
220
0.0
230
1.0
 70
     8
 71
     3
 72
    10
 73
     6
 74
     0
 42
0.000000001
 43
0.00000001
 40
0.0
 40
0.0
 40
0.0
 40
0.0
 40
0.5
 40
0.5
 40
1.0
 40
1.0
 40
1.0
 40
1.0
 10
18.95810525032586
 20
-5.29208579275663
 30
0.0
 10
18.8844048011887
 20
-5.313387531401508
 30
0.0
 10
18.79619809403083
 20
-5.308334741906565
 30
0.0
 10
18.61544409298464
 20
-5.252444755583278
 30
0.0
 10
18.52189019747696
 20
-5.201020076839974
 30
0.0
 10
18.44318093535627
 20
-5.130168277421353
 30
0.0
  0
SPLINE
  5
1E0
330
1F
100
AcDbEntity
  8
0
  6
Continuous
 62
     1
370
    15
100
AcDbSpline
210
0.0
220
0.0
230
1.0
 70
     8
 71
     3
 72
    10
 73
     6
 74
     0
 42
0.000000001
 43
0.00000001
 40
0.0
 40
0.0
 40
0.0
 40
0.0
 40
0.5
 40
0.5
 40
1.0
 40
1.0
 40
1.0
 40
1.0
 10
19.47575468979699
 20
-5.444982629193985
 30
0.0
 10
19.3975913555375
 20
-5.373408408140513
 30
0.0
 10
19.30405972820662
 20
-5.325139042107185
 30
0.0
 10
19.11997150287233
 20
-5.273738731154181
 30
0.0
 10
19.03171732957404
 20
-5.270809595778063
 30
0.0
 10
18.95810525032586
 20
-5.292085792756627
 30
0.0
  0
SPLINE
  5
1E1
330
1F
100
AcDbEntity
  8
0
  6
Continuous
 62
     1
370
    15
100
AcDbSpline
210
0.0
220
0.0
230
1.0
 70
     8
 71
     3
 72
     8
 73
     4
 74
     0
 42
0.000000001
 43
0.00000001
 40
0.0
 40
0.0
 40
0.0
 40
0.0
 40
1.0
 40
1.0
 40
1.0
 40
1.0
 10
19.72953493616829
 20
-5.587878006972666
 30
0.0
 10
19.64092795719876
 20
-5.562688960054412
 30
0.0
 10
19.55120205646565
 20
-5.514069836783134
 30
0.0
 10
19.47575468979699
 20
-5.444982629193982
 30
0.0
  0
SPLINE
  5
1E2
330
1F
100
AcDbEntity
  8
0
  6
Continuous
 62
     1
370
    15
100
AcDbSpline
210
0.0
220
0.0
230
1.0
 70
     8
 71
     3
 72
     8
 73
     4
 74
     0
 42
0.000000001
 43
0.00000001
 40
0.0
 40
0.0
 40
0.0
 40
0.0
 40
1.0
 40
1.0
 40
1.0
 40
1.0
 10
19.98452708784018
 20
-5.581444947561499
 30
0.0
 10
19.91095669803235
 20
-5.610425261260403
 30
0.0
 10
19.82155746377034
 20
-5.611982591698503
 30
0.0
 10
19.7295349361693
 20
-5.587878006972945
 30
0.0
  0
SPLINE
  5
1E3
330
1F
100
AcDbEntity
  8
0
  6
Continuous
 62
     1
370
    15
100
AcDbSpline
210
0.0
220
0.0
230
1.0
 70
     8
 71
     3
 72
    10
 73
     6
 74
     0
 42
0.000000001
 43
0.00000001
 40
0.0
 40
0.0
 40
0.0
 40
0.0
 40
0.5
 40
0.5
 40
1.0
 40
1.0
 40
1.0
 40
1.0
 10
20.50186346213185
 20
-5.706029862045954
 30
0.0
 10
20.423295892162
 20
-5.635392322291505
 30
0.0
 10
20.32968317113126
 20
-5.590461191652064
 30
0.0
 10
20.14577988350002
 20
-5.549044296783716
 30
0.0
 10
20.05768873451115
 20
-5.552625642990519
 30
0.0
 10
19.98452708784054
 20
-5.581444947561243
 30
0.0
  0
SPLINE
  5
1E4
330
1F
100
AcDbEntity
  8
0
  6
Continuous
 62
     1
370
    15
100
AcDbSpline
210
0.0
220
0.0
230
1.0
 70
     8
 71
     3
 72
    10
 73
     6
 74
     0
 42
0.000000001
 43
0.00000001
 40
0.0
 40
0.0
 40
0.0
 40
0.0
 40
0.5
 40
0.5
 40
1.0
 40
1.0
 40
1.0
 40
1.0
 10
21.0164953798502
 20
-5.819563171594842
 30
0.0
 10
20.94283643076616
 20
-5.854090455092839
 30
0.0
 10
20.85467191709192
 20
-5.860721296778708
 30
0.0
 10
20.67400485829481
 20
-5.822315413993355
 30
0.0
 10
20.58050021230633
 20
-5.776729599466128
 30
0.0
 10
20.50186346213186
 20
-5.706029862045956
 30
0.0
  0
SPLINE
  5
1E5
330
1F
100
AcDbEntity
  8
0
  6
Continuous
 62
     1
370
    15
100
AcDbSpline
210
0.0
220
0.0
230
1.0
 70
     8
 71
     3
 72
    10
 73
     6
 74
     0
 42
0.000000001
 43
0.00000001
 40
0.0
 40
0.0
 40
0.0
 40
0.0
 40
0.5
 40
0.5
 40
1.0
 40
1.0
 40
1.0
 40
1.0
 10
21.53421184779239
 20
-5.923241862840031
 30
0.0
 10
21.45603185712518
 20
-5.852880469883715
 30
0.0
 10
21.36250838563861
 20
-5.810348388888269
 30
0.0
 10
21.17846335462617
 20
-5.776434339886126
 30
0.0
 10
21.09015305005627
 20
-5.785036487564845
 30
0.0
 10
21.01649537985019
 20
-5.819563171594851
 30
0.0
  0
SPLINE
  5
1E6
330
1F
100
AcDbEntity
  8
0
  6
Continuous
 62
     1
370
    15
100
AcDbSpline
210
0.0
220
0.0
230
1.0
 70
     8
 71
     3
 72
     8
 73
     4
 74
     0
 42
0.000000001
 43
0.00000001
 40
0.0
 40
0.0
 40
0.0
 40
0.0
 40
1.0
 40
1.0
 40
1.0
 40
1.0
 10
21.78813004287944
 20
-6.050263671930344
 30
0.0
 10
21.6994792738569
 20
-6.033699278098114
 30
0.0
 10
21.6097086739366
 20
-5.991188428271329
 30
0.0
 10
21.53421184779239
 20
-5.923241862840031
 30
0.0
  0
SPLINE
  5
1E7
330
1F
100
AcDbEntity
  8
0
  6
Continuous
 62
     1
370
    15
100
AcDbSpline
210
0.0
220
0.0
230
1.0
 70
     8
 71
     3
 72
     8
 73
     4
 74
     0
 42
0.000000001
 43
0.00000001
 40
0.0
 40
0.0
 40
0.0
 40
0.0
 40
1.0
 40
1.0
 40
1.0
 40
1.0
 10
22.04336544514337
 20
-6.010214158338034
 30
0.0
 10
21.96969808300088
 20
-6.051878976151892
 30
0.0
 10
21.88022066317847
 20
-6.065175844066562
 30
0.0
 10
21.78813004288046
 20
-6.050263671930521
 30
0.0
  0
SPLINE
  5
1E8
330
1F
100
AcDbEntity
  8
0
  6
Continuous
 62
     1
370
    15
100
AcDbSpline
210
0.0
220
0.0
230
1.0
 70
     8
 71
     3
 72
    10
 73
     6
 74
     0
 42
0.000000001
 43
0.00000001
 40
0.0
 40
0.0
 40
0.0
 40
0.0
 40
0.5
 40
0.5
 40
1.0
 40
1.0
 40
1.0
 40
1.0
 10
22.561294446571
 20
-6.083278581959513
 30
0.0
 10
22.48261985280775
 20
-6.015163435946812
 30
0.0
 10
22.38889794582994
 20
-5.976833390556441
 30
0.0
 10
22.20480858461981
 20
-5.953736361694771
 30
0.0
 10
22.11662527598055
 20
-5.968779832251753
 30
0.0
 10
22.04336544514372
 20
-6.010214158337766
 30
0.0
  0
SPLINE
  5
1E9
330
1F
100
AcDbEntity
  8
0
  6
Continuous
 62
     1
370
    15
100
AcDbSpline
210
0.0
220
0.0
230
1.0
 70
     8
 71
     3
 72
    10
 73
     6
 74
     0
 42
0.000000001
 43
0.00000001
 40
0.0
 40
0.0
 40
0.0
 40
0.0
 40
0.5
 40
0.5
 40
1.0
 40
1.0
 40
1.0
 40
1.0
 10
23.07639266699118
 20
-6.144760847959182
 30
0.0
 10
23.00264775687889
 20
-6.191287189701328
 30
0.0
 10
22.91439399342887
 20
-6.209300144146942
 30
0.0
 10
22.73357267587016
 20
-6.189606388028997
 30
0.0
 10
22.6400017975598
 20
-6.151422088629642
 30
0.0
 10
22.56129444657099
 20
-6.083278581959512
 30
0.0
  0
SPLINE
  5
1EA
330
1F
100
AcDbEntity
  8
0
  6
Continuous
 62
     1
370
    15
100
AcDbSpline
210
0.0
220
0.0
230
1.0
 70
     8
 71
     3
 72
    10
 73
     6
 74
     0
 42
0.000000001
 43
0.00000001
 40
0.0
 40
0.0
 40
0.0
 40
0.0
 40
0.5
 40
0.5
 40
1.0
 40
1.0
 40
1.0
 40
1.0
 10
23.59444711023001
 20
-6.195389844599198
 30
0.0
 10
23.51624584994173
 20
-6.128730795811384
 30
0.0
 10
23.42271052215988
 20
-6.093447640906001
 30
0.0
 10
23.23852475882775
 20
-6.078349664928362
 30
0.0
 10
23.15012297985272
 20
-6.098243715756707
 30
0.0
 10
23.07639266699118
 20
-6.14476084795918
 30
0.0
  0
SPLINE
  5
1EB
330
1F
100
AcDbEntity
  8
0
  6
Continuous
 62
     1
370
    15
100
AcDbSpline
210
0.0
220
0.0
230
1.0
 70
     8
 71
     3
 72
     8
 73
     4
 74
     0
 42
0.000000001
 43
0.00000001
 40
0.0
 40
0.0
 40
0.0
 40
0.0
 40
1.0
 40
1.0
 40
1.0
 40
1.0
 10
23.84849097775689
 20
-6.302001145806239
 30
0.0
 10
23.75980255439208
 20
-6.294671373055175
 30
0.0
 10
23.66999475968422
 20
-6.259786945518131
 30
0.0
 10
23.59444711023001
 20
-6.195389844599195
 30
0.0
  0
SPLINE
  5
1EC
330
1F
100
AcDbEntity
  8
0
  6
Continuous
 62
     1
370
    15
100
AcDbSpline
210
0.0
220
0.0
230
1.0
 70
     8
 71
     3
 72
     8
 73
     4
 74
     0
 42
0.000000001
 43
0.00000001
 40
0.0
 40
0.0
 40
0.0
 40
0.0
 40
1.0
 40
1.0
 40
1.0
 40
1.0
 10
24.1038332787867
 20
-6.229623112956221
 30
0.0
 10
24.03012231785781
 20
-6.282560955500834
 30
0.0
 10
23.94060678758319
 20
-6.307160301578454
 30
0.0
 10
23.8484909777579
 20
-6.302001145806306
 30
0.0
  0
SPLINE
  5
1ED
330
1F
100
AcDbEntity
  8
0
  6
Continuous
 62
     1
370
    15
100
AcDbSpline
210
0.0
220
0.0
230
1.0
 70
     8
 71
     3
 72
    10
 73
     6
 74
     0
 42
0.000000001
 43
0.00000001
 40
0.0
 40
0.0
 40
0.0
 40
0.0
 40
0.5
 40
0.5
 40
1.0
 40
1.0
 40
1.0
 40
1.0
 10
24.6218455746891
 20
-6.248448530273572
 30
0.0
 10
24.54315057764219
 20
-6.1852682154486
 30
0.0
 10
24.44940591099201
 20
-6.154889029197639
 30
0.0
 10
24.26528948725903
 20
-6.150973004287241
 30
0.0
 10
24.17710628793581
 20
-6.176999799242147
 30
0.0
 10
24.10383327878706
 20
-6.229623112955931
 30
0.0
  0
SPLINE
  5
1EE
330
1F
100
AcDbEntity
  8
0
  6
Continuous
 62
     1
370
    15
100
AcDbSpline
210
0.0
220
0.0
230
1.0
 70
     8
 71
     3
 72
    10
 73
     6
 74
     0
 42
0.000000001
 43
0.00000001
 40
0.0
 40
0.0
 40
0.0
 40
0.0
 40
0.5
 40
0.5
 40
1.0
 40
1.0
 40
1.0
 40
1.0
 10
25.1368736398911
 20
-6.255714460630944
 30
0.0
 10
25.06313985082135
 20
-6.312608996582101
 30
0.0
 10
24.9748891146748
 20
-6.341377583688107
 30
0.0
 10
24.79408440866148
 20
-6.341082067625067
 30
0.0
 10
24.70053310787858
 20
-6.311622852737139
 30
0.0
 10
24.6218455746891
 20
-6.248448530273571
 30
0.0
  0
SPLINE
  5
1EF
330
1F
100
AcDbEntity
  8
0
  6
Continuous
 62
     1
370
    15
100
AcDbSpline
210
0.0
220
0.0
230
1.0
 70
     8
 71
     3
 72
    10
 73
     6
 74
     0
 42
0.000000001
 43
0.00000001
 40
0.0
 40
0.0
 40
0.0
 40
0.0
 40
0.5
 40
0.5
 40
1.0
 40
1.0
 40
1.0
 40
1.0
 10
25.65470383879294
 20
-6.251535988890319
 30
0.0
 10
25.57655401595746
 20
-6.190938239368807
 30
0.0
 10
25.48304291025106
 20
-6.164143008595978
 30
0.0
 10
25.2989121982676
 20
-6.168374664269839
 30
0.0
 10
25.21055767380881
 20
-6.198858316797182
 30
0.0
 10
25.13687363989109
 20
-6.25571446063095
 30
0.0
  0
SPLINE
  5
1F0
330
1F
100
AcDbEntity
  8
0
  6
Continuous
 62
     1
370
    15
100
AcDbSpline
210
0.0
220
0.0
230
1.0
 70
     8
 71
     3
 72
    12
 73
     8
 74
     0
 42
0.000000001
 43
0.00000001
 40
0.0
 40
0.0
 40
0.0
 40
0.0
 40
0.4999999999999998
 40
0.4999999999999998
 40
0.7499999999999999
 40
0.7499999999999999
 40
1.0
 40
1.0
 40
1.0
 40
1.0
 10
28.05470596954582
 20
1.584570947180546
 30
0.0
 10
28.0191153470879
 20
2.260250555564183
 30
0.0
 10
27.98174150112243
 20
2.915760207927578
 30
0.0
 10
27.92767694629952
 20
3.785894189018058
 30
0.0
 10
27.90999258777919
 20
4.057299065540958
 30
0.0
 10
27.87598737119333
 20
4.553750066559109
 30
0.0
 10
27.85836496836785
 20
4.785084280042494
 30
0.0
 10
27.84036094432124
 20
4.993997918959412
 30
0.0
  0
SPLINE
  5
1F1
330
1F
100
AcDbEntity
  8
0
  6
Continuous
 62
     1
370
    15
100
AcDbSpline
210
0.0
220
0.0
230
1.0
 70
     8
 71
     3
 72
    12
 73
     8
 74
     0
 42
0.000000001
 43
0.00000001
 40
0.0
 40
0.0
 40
0.0
 40
0.0
 40
0.5000000000000002
 40
0.5000000000000002
 40
0.7500000000000001
 40
0.7500000000000001
 40
1.0
 40
1.0
 40
1.0
 40
1.0
 10
28.56952869454685
 20
1.300098870257933
 30
0.0
 10
28.53447540490229
 20
1.980154648441846
 30
0.0
 10
28.49722592605792
 20
2.648747078144274
 30
0.0
 10
28.44267945083202
 20
3.54872168597839
 30
0.0
 10
28.4247271349044
 20
3.831697890746281
 30
0.0
 10
28.39000750317654
 20
4.353382007657139
 30
0.0
 10
28.37311292956588
 20
4.593174621629686
 30
0.0
 10
28.35532294782323
 20
4.814249683125411
 30
0.0
  0
SPLINE
  5
1F2
330
1F
100
AcDbEntity
  8
0
  6
Continuous
 62
     1
370
    15
100
AcDbSpline
210
0.0
220
0.0
230
1.0
 70
     8
 71
     3
 72
    12
 73
     8
 74
     0
 42
0.000000001
 43
0.00000001
 40
0.0
 40
0.0
 40
0.0
 40
0.0
 40
0.4999999999999997
 40
0.4999999999999997
 40
0.7499999999999998
 40
0.7499999999999998
 40
1.0
 40
1.0
 40
1.0
 40
1.0
 10
17.41598916652011
 20
-4.776610472101664
 30
0.0
 10
17.37951348001566
 20
-4.320686262711666
 30
0.0
 10
17.34247008485522
 20
-3.769227469124184
 30
0.0
 10
17.29059658588067
 20
-2.872926492924099
 30
0.0
 10
17.27364177501834
 20
-2.561655010574305
 30
0.0
 10
17.23802033684763
 20
-1.907983980679078
 30
0.0
 10
17.21977885580729
 20
-1.568011640006879
 30
0.0
 10
17.20148930549312
 20
-1.221898898233094
 30
0.0
  0
SPLINE
  5
1F3
330
1F
100
AcDbEntity
  8
0
  6
Continuous
 62
     1
370
    15
100
AcDbSpline
210
0.0
220
0.0
230
1.0
 70
     8
 71
     3
 72
    12
 73
     8
 74
     0
 42
0.000000001
 43
0.00000001
 40
0.0
 40
0.0
 40
0.0
 40
0.0
 40
0.5000000000000003
 40
0.5000000000000003
 40
0.7500000000000001
 40
0.7500000000000001
 40
1.0
 40
1.0
 40
1.0
 40
1.0
 10
17.66998412010268
 20
-4.930482882390915
 30
0.0
 10
17.6338129025474
 20
-4.482636712495673
 30
0.0
 10
17.59687979407699
 20
-3.93671695722977
 30
0.0
 10
17.54484632781357
 20
-3.042539801147611
 30
0.0
 10
17.52818278606269
 20
-2.733342856062894
 30
0.0
 10
17.49303120254788
 20
-2.081966231701813
 30
0.0
 10
17.4749791117639
 20
-1.742207993520087
 30
0.0
 10
17.45682118638976
 20
-1.395185105657124
 30
0.0
  0
SPLINE
  5
1F4
330
1F
100
AcDbEntity
  8
0
  6
Continuous
 62
     1
370
    15
100
AcDbSpline
210
0.0
220
0.0
230
1.0
 70
     8
 71
     3
 72
    12
 73
     8
 74
     0
 42
0.000000001
 43
0.00000001
 40
0.0
 40
0.0
 40
0.0
 40
0.0
 40
0.5000000000000003
 40
0.5000000000000003
 40
0.7500000000000001
 40
0.7500000000000001
 40
1.0
 40
1.0
 40
1.0
 40
1.0
 10
17.92527275202836
 20
-4.958058040689975
 30
0.0
 10
17.8890161064075
 20
-4.528303412973996
 30
0.0
 10
17.8517489586272
 20
-3.998069898324863
 30
0.0
 10
17.79896263404846
 20
-3.121551874728715
 30
0.0
 10
17.782245243707
 20
-2.818644756518671
 30
0.0
 10
17.74714107735324
 20
-2.180094543713326
 30
0.0
 10
17.72906102064313
 20
-1.845982461381199
 30
0.0
 10
17.7108245225165
 20
-1.503703480942349
 30
0.0
  0
SPLINE
  5
1F5
330
1F
100
AcDbEntity
  8
0
  6
Continuous
 62
     1
370
    15
100
AcDbSpline
210
0.0
220
0.0
230
1.0
 70
     8
 71
     3
 72
    12
 73
     8
 74
     0
 42
0.000000001
 43
0.00000001
 40
0.0
 40
0.0
 40
0.0
 40
0.0
 40
0.4999999999999996
 40
0.4999999999999996
 40
0.7499999999999998
 40
0.7499999999999998
 40
1.0
 40
1.0
 40
1.0
 40
1.0
 10
18.44318093535627
 20
-5.130168277421362
 30
0.0
 10
18.40725511684848
 20
-4.728378603806229
 30
0.0
 10
18.36987657446053
 20
-4.221765500292616
 30
0.0
 10
18.31630289761383
 20
-3.36867199735855
 30
0.0
 10
18.2992431125185
 20
-3.071580023309706
 30
0.0
 10
18.26476010457553
 20
-2.450277640263723
 30
0.0
 10
18.2468968376671
 20
-2.123188251611147
 30
0.0
 10
18.22876849109255
 20
-1.785935758074154
 30
0.0
  0
SPLINE
  5
1F6
330
1F
100
AcDbEntity
  8
0
  6
Continuous
 62
     1
370
    15
100
AcDbSpline
210
0.0
220
0.0
230
1.0
 70
     8
 71
     3
 72
    12
 73
     8
 74
     0
 42
0.000000001
 43
0.00000001
 40
0.0
 40
0.0
 40
0.0
 40
0.0
 40
0.4999999999999999
 40
0.4999999999999999
 40
0.7499999999999999
 40
0.7499999999999999
 40
1.0
 40
1.0
 40
1.0
 40
1.0
 10
18.95810525032586
 20
-5.292085792756637
 30
0.0
 10
18.9226264999849
 20
-4.919142844770541
 30
0.0
 10
18.88526842411693
 20
-4.437775420571951
 30
0.0
 10
18.83107707378114
 20
-3.610960133892377
 30
0.0
 10
18.81332632009445
 20
-3.318444701401331
 30
0.0
 10
18.77914893851795
 20
-2.713442097819127
 30
0.0
 10
18.76174311629096
 20
-2.395318416461751
 30
0.0
 10
18.7437823141354
 20
-2.064051692124289
 30
0.0
  0
SPLINE
  5
1F7
330
1F
100
AcDbEntity
  8
0
  6
Continuous
 62
     1
370
    15
100
AcDbSpline
210
0.0
220
0.0
230
1.0
 70
     8
 71
     3
 72
    12
 73
     8
 74
     0
 42
0.000000001
 43
0.00000001
 40
0.0
 40
0.0
 40
0.0
 40
0.0
 40
0.5000000000000002
 40
0.5000000000000002
 40
0.7500000000000001
 40
0.7500000000000001
 40
1.0
 40
1.0
 40
1.0
 40
1.0
 10
27.28159621146612
 20
2.046098886121856
 30
0.0
 10
27.24562488050557
 20
2.71621999767214
 30
0.0
 10
27.20855239544518
 20
3.352803464636682
 30
0.0
 10
27.15585463520945
 20
4.180801841194267
 30
0.0
 10
27.13919933881442
 20
4.434212254550165
 30
0.0
 10
27.10448132553499
 20
4.905020103210378
 30
0.0
 10
27.08657263622005
 20
5.121206982178103
 30
0.0
 10
27.06847497108321
 20
5.312736553165314
 30
0.0
  0
SPLINE
  5
1F8
330
1F
100
AcDbEntity
  8
0
  6
Continuous
 62
     1
370
    15
100
AcDbSpline
210
0.0
220
0.0
230
1.0
 70
     8
 71
     3
 72
    12
 73
     8
 74
     0
 42
0.000000001
 43
0.00000001
 40
0.0
 40
0.0
 40
0.0
 40
0.0
 40
0.4999999999999999
 40
0.4999999999999999
 40
0.7499999999999999
 40
0.7499999999999999
 40
1.0
 40
1.0
 40
1.0
 40
1.0
 10
27.53685454460557
 20
1.867739833266276
 30
0.0
 10
27.50084576750879
 20
2.536820010874072
 30
0.0
 10
27.46348684625777
 20
3.177016332551461
 30
0.0
 10
27.41008908611398
 20
4.014889799764266
 30
0.0
 10
27.39316330440506
 20
4.27216213868112
 30
0.0
 10
27.35853155783992
 20
4.74887592303191
 30
0.0
 10
27.3406153461673
 20
4.968876617062891
 30
0.0
 10
27.3224591072171
 20
5.164865852051319
 30
0.0
  0
SPLINE
  5
1F9
330
1F
100
AcDbEntity
  8
0
  6
Continuous
 62
     1
370
    15
100
AcDbSpline
210
0.0
220
0.0
230
1.0
 70
     8
 71
     3
 72
    12
 73
     8
 74
     0
 42
0.000000001
 43
0.00000001
 40
0.0
 40
0.0
 40
0.0
 40
0.0
 40
0.5000000000000004
 40
0.5000000000000004
 40
0.7500000000000002
 40
0.7500000000000002
 40
1.0
 40
1.0
 40
1.0
 40
1.0
 10
27.02762645099765
 20
2.140628848699157
 30
0.0
 10
26.99131223677039
 20
2.800970350763763
 30
0.0
 10
26.95408403461153
 20
3.424005584133898
 30
0.0
 10
26.90148573737599
 20
4.227989409641101
 30
0.0
 10
26.88476469936075
 20
4.473702053318494
 30
0.0
 10
26.8495384707718
 20
4.929488566071365
 30
0.0
 10
26.83141829589318
 20
5.137333763361495
 30
0.0
 10
26.81316535674163
 20
5.319908992199553
 30
0.0
  0
SPLINE
  5
1FA
330
1F
100
AcDbEntity
  8
0
  6
Continuous
 62
     1
370
    15
100
AcDbSpline
210
0.0
220
0.0
230
1.0
 70
     8
 71
     3
 72
    12
 73
     8
 74
     0
 42
0.000000001
 43
0.00000001
 40
0.0
 40
0.0
 40
0.0
 40
0.0
 40
0.4999999999999998
 40
0.4999999999999998
 40
0.7499999999999999
 40
0.7499999999999999
 40
1.0
 40
1.0
 40
1.0
 40
1.0
 10
19.47575468979699
 20
-5.444982629193984
 30
0.0
 10
19.44084817040677
 20
-5.101954331529345
 30
0.0
 10
19.40365332147068
 20
-4.647697437169867
 30
0.0
 10
19.34902942028001
 20
-3.85044173405895
 30
0.0
 10
19.33102565971774
 20
-3.565968852300253
 30
0.0
 10
19.29615892786286
 20
-2.972996814759668
 30
0.0
 10
19.27935328124605
 20
-2.665152602316072
 30
0.0
 10
19.26162498095663
 20
-2.340956986805307
 30
0.0
  0
SPLINE
  5
1FB
330
1F
100
AcDbEntity
  8
0
  6
Continuous
 62
     1
370
    15
100
AcDbSpline
210
0.0
220
0.0
230
1.0
 70
     8
 71
     3
 72
    12
 73
     8
 74
     0
 42
0.000000001
 43
0.00000001
 40
0.0
 40
0.0
 40
0.0
 40
0.0
 40
0.4999999999999998
 40
0.4999999999999998
 40
0.7499999999999999
 40
0.7499999999999999
 40
1.0
 40
1.0
 40
1.0
 40
1.0
 10
19.72953493616829
 20
-5.587878006972657
 30
0.0
 10
19.69512765904688
 20
-5.255823191465721
 30
0.0
 10
19.65828581916288
 20
-4.81133976647936
 30
0.0
 10
19.60384390587507
 20
-4.023335459747038
 30
0.0
 10
19.58584445656656
 20
-3.741053991370566
 30
0.0
 10
19.55087477569467
 20
-3.15035063072772
 30
0.0
 10
19.53424465857233
 20
-2.84424009128031
 30
0.0
 10
19.51676906597659
 20
-2.521626573999356
 30
0.0
  0
SPLINE
  5
1FC
330
1F
100
AcDbEntity
  8
0
  6
Continuous
 62
     1
370
    15
100
AcDbSpline
210
0.0
220
0.0
230
1.0
 70
     8
 71
     3
 72
    12
 73
     8
 74
     0
 42
0.000000001
 43
0.00000001
 40
0.0
 40
0.0
 40
0.0
 40
0.0
 40
0.2499999999999998
 40
0.2499999999999998
 40
0.4999999999999996
 40
0.4999999999999996
 40
1.0
 40
1.0
 40
1.0
 40
1.0
 10
25.99450429225649
 20
2.678773651887264
 30
0.0
 10
25.97620540536072
 20
2.996838100778876
 30
0.0
 10
25.95789254194707
 20
3.301936481615245
 30
0.0
 10
25.92201411752025
 20
3.873799183416105
 30
0.0
 10
25.90466931566909
 20
4.139507196071152
 30
0.0
 10
25.85336408166446
 20
4.872674406621115
 30
0.0
 10
25.81649063465807
 20
5.290823703378761
 30
0.0
 10
25.77993189822797
 20
5.597799344316307
 30
0.0
  0
SPLINE
  5
1FD
330
1F
100
AcDbEntity
  8
0
  6
Continuous
 62
     1
370
    15
100
AcDbSpline
210
0.0
220
0.0
230
1.0
 70
     8
 71
     3
 72
    12
 73
     8
 74
     0
 42
0.000000001
 43
0.00000001
 40
0.0
 40
0.0
 40
0.0
 40
0.0
 40
0.4999999999999999
 40
0.4999999999999999
 40
0.7499999999999998
 40
0.7499999999999998
 40
1.0
 40
1.0
 40
1.0
 40
1.0
 10
26.50966411023418
 20
2.4122679620924
 30
0.0
 10
26.47314715703032
 20
3.06147133463635
 30
0.0
 10
26.4361674973407
 20
3.665013168489138
 30
0.0
 10
26.38452215800954
 20
4.432501377534255
 30
0.0
 10
26.36742570899005
 20
4.668637064784846
 30
0.0
 10
26.33169068527426
 20
5.101293162271705
 30
0.0
 10
26.31341601440351
 20
5.29594597252976
 30
0.0
 10
26.29511916244208
 20
5.464204044064124
 30
0.0
  0
SPLINE
  5
1FE
330
1F
100
AcDbEntity
  8
0
  6
Continuous
 62
     1
370
    15
100
AcDbSpline
210
0.0
220
0.0
230
1.0
 70
     8
 71
     3
 72
    12
 73
     8
 74
     0
 42
0.000000001
 43
0.00000001
 40
0.0
 40
0.0
 40
0.0
 40
0.0
 40
0.5
 40
0.5
 40
0.75
 40
0.75
 40
1.0
 40
1.0
 40
1.0
 40
1.0
 10
19.98452708784054
 20
-5.581444947561225
 30
0.0
 10
19.95028148729245
 20
-5.26861035527981
 30
0.0
 10
19.91336705848609
 20
-4.842577619140132
 30
0.0
 10
19.85848368712267
 20
-4.077415560205692
 30
0.0
 10
19.84028390653236
 20
-3.801963138084297
 30
0.0
 10
19.80483298561541
 20
-3.223096810568236
 30
0.0
 10
19.78803167852521
 20
-2.922541483328434
 30
0.0
 10
19.77058257461757
 20
-2.606303105535326
 30
0.0
  0
SPLINE
  5
1FF
330
1F
100
AcDbEntity
  8
0
  6
Continuous
 62
     1
370
    15
100
AcDbSpline
210
0.0
220
0.0
230
1.0
 70
     8
 71
     3
 72
    14
 73
    10
 74
     0
 42
0.000000001
 43
0.00000001
 40
0.0
 40
0.0
 40
0.0
 40
0.0
 40
0.2499999999999999
 40
0.2499999999999999
 40
0.4999999999999999
 40
0.4999999999999999
 40
0.7499999999999998
 40
0.7499999999999998
 40
1.0
 40
1.0
 40
1.0
 40
1.0
 10
20.50186346213186
 20
-5.706029862045963
 30
0.0
 10
20.48462152486323
 20
-5.563947095831129
 30
0.0
 10
20.46750643815644
 20
-5.396150991977082
 30
0.0
 10
20.43172376239806
 20
-5.00625557624147
 30
0.0
 10
20.41342374128808
 20
-4.785119766231224
 30
0.0
 10
20.37677945389227
 20
-4.298801012684683
 30
0.0
 10
20.35843894551866
 20
-4.033667054431215
 30
0.0
 10
20.32249997909994
 20
-3.47153619452985
 30
0.0
 10
20.30510610016707
 20
-3.17580098963349
 30
0.0
 10
20.28799308295833
 20
-2.868670587594331
 30
0.0
  0
SPLINE
  5
200
330
1F
100
AcDbEntity
  8
0
  6
Continuous
 62
     1
370
    15
100
AcDbSpline
210
0.0
220
0.0
230
1.0
 70
     8
 71
     3
 72
    12
 73
     8
 74
     0
 42
0.000000001
 43
0.00000001
 40
0.0
 40
0.0
 40
0.0
 40
0.0
 40
0.2499999999999999
 40
0.2499999999999999
 40
0.4999999999999998
 40
0.4999999999999998
 40
1.0
 40
1.0
 40
1.0
 40
1.0
 10
21.0164953798502
 20
-5.819563171594822
 30
0.0
 10
20.99893581794033
 20
-5.691659303495296
 30
0.0
 10
20.98219625591209
 20
-5.53913312369467
 30
0.0
 10
20.9469362619079
 20
-5.178957370999857
 30
0.0
 10
20.92879649166692
 20
-4.971939777012704
 30
0.0
 10
20.87397429640262
 20
-4.280666431380471
 30
0.0
 10
20.83693685659011
 20
-3.725026831286324
 30
0.0
 10
20.80243613703486
 20
-3.124728806041921
 30
0.0
  0
SPLINE
  5
201
330
1F
100
AcDbEntity
  8
0
  6
Continuous
 62
     1
370
    15
100
AcDbSpline
210
0.0
220
0.0
230
1.0
 70
     8
 71
     3
 72
    12
 73
     8
 74
     0
 42
0.000000001
 43
0.00000001
 40
0.0
 40
0.0
 40
0.0
 40
0.0
 40
0.2500000000000002
 40
0.2500000000000002
 40
0.5000000000000001
 40
0.5000000000000001
 40
1.0
 40
1.0
 40
1.0
 40
1.0
 10
25.47640350855463
 20
2.942598060261702
 30
0.0
 10
25.45813019132152
 20
3.253029039786241
 30
0.0
 10
25.43995405393215
 20
3.548602256969861
 30
0.0
 10
25.40455245255256
 20
4.098557409497827
 30
0.0
 10
25.38777429090205
 20
4.35106027322254
 30
0.0
 10
25.33546816026031
 20
5.054252158347463
 30
0.0
 10
25.29830724279191
 20
5.445082408800557
 30
0.0
 10
25.26191532652749
 20
5.721474518252307
 30
0.0
  0
SPLINE
  5
202
330
1F
100
AcDbEntity
  8
0
  6
Continuous
 62
     1
370
    15
100
AcDbSpline
210
0.0
220
0.0
230
1.0
 70
     8
 71
     3
 72
    12
 73
     8
 74
     0
 42
0.000000001
 43
0.00000001
 40
0.0
 40
0.0
 40
0.0
 40
0.0
 40
0.2500000000000004
 40
0.2500000000000004
 40
0.5000000000000007
 40
0.5000000000000007
 40
1.0
 40
1.0
 40
1.0
 40
1.0
 10
25.2210736774426
 20
3.124660707094019
 30
0.0
 10
25.20294620779032
 20
3.433128391797684
 30
0.0
 10
25.1849728874484
 20
3.7257377292294
 30
0.0
 10
25.15006472865661
 20
4.268332421551229
 30
0.0
 10
25.13344770167392
 20
4.517174425722082
 30
0.0
 10
25.08101725188373
 20
5.210270812699079
 30
0.0
 10
25.04399376486111
 20
5.590743567439214
 30
0.0
 10
25.00792962483568
 20
5.855335306793519
 30
0.0
  0
SPLINE
  5
203
330
1F
100
AcDbEntity
  8
0
  6
Continuous
 62
     1
370
    15
100
AcDbSpline
210
0.0
220
0.0
230
1.0
 70
     8
 71
     3
 72
    12
 73
     8
 74
     0
 42
0.000000001
 43
0.00000001
 40
0.0
 40
0.0
 40
0.0
 40
0.0
 40
0.2499999999999998
 40
0.2499999999999998
 40
0.4999999999999996
 40
0.4999999999999996
 40
1.0
 40
1.0
 40
1.0
 40
1.0
 10
24.96707710058124
 20
3.19353490246903
 30
0.0
 10
24.94888311327243
 20
3.495470740392222
 30
0.0
 10
24.93089418849451
 20
3.780796699502
 30
0.0
 10
24.89605701993155
 20
4.307765390761759
 30
0.0
 10
24.87926096271056
 20
4.549632757317228
 30
0.0
 10
24.82610918155731
 20
5.220531158276753
 30
0.0
 10
24.78878005271348
 20
5.582971634273669
 30
0.0
 10
24.75265916888269
 20
5.82852689848368
 30
0.0
  0
SPLINE
  5
204
330
1F
100
AcDbEntity
  8
0
  6
Continuous
 62
     1
370
    15
100
AcDbSpline
210
0.0
220
0.0
230
1.0
 70
     8
 71
     3
 72
    12
 73
     8
 74
     0
 42
0.000000001
 43
0.00000001
 40
0.0
 40
0.0
 40
0.0
 40
0.0
 40
0.2500000000000001
 40
0.2500000000000001
 40
0.5000000000000001
 40
0.5000000000000001
 40
1.0
 40
1.0
 40
1.0
 40
1.0
 10
21.5342118477924
 20
-5.923241862840035
 30
0.0
 10
21.51639119242888
 20
-5.810182536969315
 30
0.0
 10
21.49943257456474
 20
-5.671461526366986
 30
0.0
 10
21.46481165580175
 20
-5.341726409627368
 30
0.0
 10
21.44689599977043
 20
-5.149383255229555
 30
0.0
 10
21.39241400560993
 20
-4.498481372089993
 30
0.0
 10
21.35514456223209
 20
-3.964597734501091
 30
0.0
 10
21.3200137215222
 20
-3.377720835817113
 30
0.0
  0
SPLINE
  5
205
330
1F
100
AcDbEntity
  8
0
  6
Continuous
 62
     1
370
    15
100
AcDbSpline
210
0.0
220
0.0
230
1.0
 70
     8
 71
     3
 72
    12
 73
     8
 74
     0
 42
0.000000001
 43
0.00000001
 40
0.0
 40
0.0
 40
0.0
 40
0.0
 40
0.2499999999999999
 40
0.2499999999999999
 40
0.4999999999999999
 40
0.4999999999999999
 40
1.0
 40
1.0
 40
1.0
 40
1.0
 10
24.4491674764776
 20
3.439856138271579
 30
0.0
 10
24.4311079993984
 20
3.732196038512435
 30
0.0
 10
24.41336120185427
 20
4.006264865395956
 30
0.0
 10
24.37919058204108
 20
4.508514534067771
 30
0.0
 10
24.36179176254814
 20
4.741589840809853
 30
0.0
 10
24.30792529739689
 20
5.376846976903305
 30
0.0
 10
24.27054243340203
 20
5.708966134986193
 30
0.0
 10
24.23480422170375
 20
5.922497813629764
 30
0.0
  0
SPLINE
  5
206
330
1F
100
AcDbEntity
  8
0
  6
Continuous
 62
     1
370
    15
100
AcDbSpline
210
0.0
220
0.0
230
1.0
 70
     8
 71
     3
 72
    12
 73
     8
 74
     0
 42
0.000000001
 43
0.00000001
 40
0.0
 40
0.0
 40
0.0
 40
0.0
 40
0.2499999999999999
 40
0.2499999999999999
 40
0.4999999999999998
 40
0.4999999999999998
 40
1.0
 40
1.0
 40
1.0
 40
1.0
 10
21.78813004287944
 20
-6.050263671930347
 30
0.0
 10
21.77031920189469
 20
-5.943163658633177
 30
0.0
 10
21.753160804198
 20
-5.809308060949792
 30
0.0
 10
21.71908122589872
 20
-5.491444000608839
 30
0.0
 10
21.70140165610384
 20
-5.304794555337283
 30
0.0
 10
21.64747938048625
 20
-4.669235337486842
 30
0.0
 10
21.61037600207224
 20
-4.143139101868375
 30
0.0
 10
21.57516681268758
 20
-3.559602137088143
 30
0.0
  0
SPLINE
  5
207
330
1F
100
AcDbEntity
  8
0
  6
Continuous
 62
     1
370
    15
100
AcDbSpline
210
0.0
220
0.0
230
1.0
 70
     8
 71
     3
 72
    12
 73
     8
 74
     0
 42
0.000000001
 43
0.00000001
 40
0.0
 40
0.0
 40
0.0
 40
0.0
 40
0.25
 40
0.25
 40
0.5
 40
0.5
 40
1.0
 40
1.0
 40
1.0
 40
1.0
 10
23.93421314503467
 20
3.678911043707008
 30
0.0
 10
23.91634688569574
 20
3.960880025918271
 30
0.0
 10
23.89927836964467
 20
4.221334796675738
 30
0.0
 10
23.86478212080664
 20
4.702880444886933
 30
0.0
 10
23.84691152240362
 20
4.925696917095875
 30
0.0
 10
23.79250364934269
 20
5.523007437730362
 30
0.0
 10
23.75519920070712
 20
5.823779822146376
 30
0.0
 10
23.71995797976406
 20
6.005065188291075
 30
0.0
  0
SPLINE
  5
208
330
1F
100
AcDbEntity
  8
0
  6
Continuous
 62
     1
370
    15
100
AcDbSpline
210
0.0
220
0.0
230
1.0
 70
     8
 71
     3
 72
    12
 73
     8
 74
     0
 42
0.000000001
 43
0.00000001
 40
0.0
 40
0.0
 40
0.0
 40
0.0
 40
0.2500000000000002
 40
0.2500000000000002
 40
0.5000000000000004
 40
0.5000000000000004
 40
1.0
 40
1.0
 40
1.0
 40
1.0
 10
22.04336544514373
 20
-6.010214158337764
 30
0.0
 10
22.02534302355198
 20
-5.912255631863983
 30
0.0
 10
22.00765424290969
 20
-5.786267960916826
 30
0.0
 10
21.97363382607647
 20
-5.486507930027964
 30
0.0
 10
21.95604939599853
 20
-5.309154979715702
 30
0.0
 10
21.9020712416612
 20
-4.699697939317808
 30
0.0
 10
21.86470022781246
 20
-4.189151003542493
 30
0.0
 10
21.82905717615069
 20
-3.617683129930759
 30
0.0
  0
SPLINE
  5
209
330
1F
100
AcDbEntity
  8
0
  6
Continuous
 62
     1
370
    15
100
AcDbSpline
210
0.0
220
0.0
230
1.0
 70
     8
 71
     3
 72
    12
 73
     8
 74
     0
 42
0.000000001
 43
0.00000001
 40
0.0
 40
0.0
 40
0.0
 40
0.0
 40
0.2500000000000001
 40
0.2500000000000001
 40
0.5000000000000002
 40
0.5000000000000002
 40
1.0
 40
1.0
 40
1.0
 40
1.0
 10
22.56129444657099
 20
-6.083278581959517
 30
0.0
 10
22.54312001380378
 20
-6.001096122992481
 30
0.0
 10
22.52517203604825
 20
-5.890104985869066
 30
0.0
 10
22.49045390120297
 20
-5.617662876668431
 30
0.0
 10
22.47358327628807
 20
-5.456522477961824
 30
0.0
 10
22.42027093780916
 20
-4.890550630630289
 30
0.0
 10
22.38291615344056
 20
-4.405400677574455
 30
0.0
 10
22.34685751406889
 20
-3.851612652185373
 30
0.0
  0
SPLINE
  5
20A
330
1F
100
AcDbEntity
  8
0
  6
Continuous
 62
     1
370
    15
100
AcDbSpline
210
0.0
220
0.0
230
1.0
 70
     8
 71
     3
 72
    12
 73
     8
 74
     0
 42
0.000000001
 43
0.00000001
 40
0.0
 40
0.0
 40
0.0
 40
0.0
 40
0.2499999999999999
 40
0.2499999999999999
 40
0.4999999999999999
 40
0.4999999999999999
 40
1.0
 40
1.0
 40
1.0
 40
1.0
 10
23.41643597295464
 20
3.913475689173857
 30
0.0
 10
23.39882599123234
 20
4.184165793637753
 30
0.0
 10
23.38209312840624
 20
4.432343712784936
 30
0.0
 10
23.34694839083615
 20
4.893054901693917
 30
0.0
 10
23.32884816429974
 20
5.103668128386973
 30
0.0
 10
23.27408225784637
 20
5.660286448263626
 30
0.0
 10
23.23699628530794
 20
5.928428888166051
 30
0.0
 10
23.20237375203639
 20
6.077018042857699
 30
0.0
  0
SPLINE
  5
20B
330
1F
100
AcDbEntity
  8
0
  6
Continuous
 62
     1
370
    15
100
AcDbSpline
210
0.0
220
0.0
230
1.0
 70
     8
 71
     3
 72
    12
 73
     8
 74
     0
 42
0.000000001
 43
0.00000001
 40
0.0
 40
0.0
 40
0.0
 40
0.0
 40
0.2499999999999999
 40
0.2499999999999999
 40
0.4999999999999998
 40
0.4999999999999998
 40
1.0
 40
1.0
 40
1.0
 40
1.0
 10
23.07639266699117
 20
-6.144760847959176
 30
0.0
 10
23.05812705218221
 20
-6.078566930947808
 30
0.0
 10
23.03997909021854
 20
-5.982967979785563
 30
0.0
 10
23.00467084598121
 20
-5.738911536769482
 30
0.0
 10
22.98793013518392
 20
-5.592122617875612
 30
0.0
 10
22.93544402116695
 20
-5.07032802512555
 30
0.0
 10
22.89823566199448
 20
-4.611825035320143
 30
0.0
 10
22.86188101602284
 20
-4.07739132387661
 30
0.0
  0
SPLINE
  5
20C
330
1F
100
AcDbEntity
  8
0
  6
Continuous
 62
     1
370
    15
100
AcDbSpline
210
0.0
220
0.0
230
1.0
 70
     8
 71
     3
 72
    12
 73
     8
 74
     0
 42
0.000000001
 43
0.00000001
 40
0.0
 40
0.0
 40
0.0
 40
0.0
 40
0.25
 40
0.25
 40
0.5
 40
0.5
 40
1.0
 40
1.0
 40
1.0
 40
1.0
 10
23.16132416824229
 20
4.092766680762043
 30
0.0
 10
23.14397973377524
 20
4.359245756485524
 30
0.0
 10
23.12728313784226
 20
4.60389313481072
 30
0.0
 10
23.09206105077182
 20
5.056768910268575
 30
0.0
 10
23.07397890733791
 20
5.262541782871304
 30
0.0
 10
23.01943630305176
 20
5.802653919707579
 30
0.0
 10
22.98273052463673
 20
6.057161871622528
 30
0.0
 10
22.94862752921395
 20
6.192152847261363
 30
0.0
  0
SPLINE
  5
20D
330
1F
100
AcDbEntity
  8
0
  6
Continuous
 62
     1
370
    15
100
AcDbSpline
210
0.0
220
0.0
230
1.0
 70
     8
 71
     3
 72
    12
 73
     8
 74
     0
 42
0.000000001
 43
0.00000001
 40
0.0
 40
0.0
 40
0.0
 40
0.0
 40
0.2500000000000002
 40
0.2500000000000002
 40
0.5000000000000001
 40
0.5000000000000001
 40
1.0
 40
1.0
 40
1.0
 40
1.0
 10
22.90754227369787
 20
4.133522228777153
 30
0.0
 10
22.89023595054485
 20
4.392325245972209
 30
0.0
 10
22.87324481809681
 20
4.63062857570597
 30
0.0
 10
22.83756196330598
 20
5.068804859087908
 30
0.0
 10
22.819291540626
 20
5.266483225096129
 30
0.0
 10
22.76434686139253
 20
5.780754866106751
 30
0.0
 10
22.72775083892748
 20
6.01576290131692
 30
0.0
 10
22.69368096538119
 20
6.132312068381875
 30
0.0
  0
SPLINE
  5
20E
330
1F
100
AcDbEntity
  8
0
  6
Continuous
 62
     1
370
    15
100
AcDbSpline
210
0.0
220
0.0
230
1.0
 70
     8
 71
     3
 72
    12
 73
     8
 74
     0
 42
0.000000001
 43
0.00000001
 40
0.0
 40
0.0
 40
0.0
 40
0.0
 40
0.2499999999999999
 40
0.2499999999999999
 40
0.5
 40
0.5
 40
1.0
 40
1.0
 40
1.0
 40
1.0
 10
23.59444711023001
 20
-6.195389844599195
 30
0.0
 10
23.57615065240405
 20
-6.145540508714337
 30
0.0
 10
23.55786107438619
 20
-6.065871545097915
 30
0.0
 10
23.52206772946294
 20
-5.85154956459181
 30
0.0
 10
23.50487505926854
 20
-5.71790802391423
 30
0.0
 10
23.45337835950935
 20
-5.24135339831078
 30
0.0
 10
23.41644673005285
 20
-4.810961944210085
 30
0.0
 10
23.37991442418036
 20
-4.297747133469413
 30
0.0
  0
SPLINE
  5
20F
330
1F
100
AcDbEntity
  8
0
  6
Continuous
 62
     1
370
    15
100
AcDbSpline
210
0.0
220
0.0
230
1.0
 70
     8
 71
     3
 72
    12
 73
     8
 74
     0
 42
0.000000001
 43
0.00000001
 40
0.0
 40
0.0
 40
0.0
 40
0.0
 40
0.4999999999999997
 40
0.4999999999999997
 40
0.7499999999999998
 40
0.7499999999999998
 40
1.0
 40
1.0
 40
1.0
 40
1.0
 10
22.39021637764915
 20
4.345832100596418
 30
0.0
 10
22.35611058631044
 20
4.838678828425786
 30
0.0
 10
22.31926110879681
 20
5.262132147793444
 30
0.0
 10
22.26433740557591
 20
5.731166136182008
 30
0.0
 10
22.24610197072149
 20
5.860229374402044
 30
0.0
 10
22.21054020287655
 20
6.059909782241562
 30
0.0
 10
22.19366717422089
 20
6.130310692845086
 30
0.0
 10
22.17627702316386
 20
6.172819760280246
 30
0.0
  0
SPLINE
  5
210
330
1F
100
AcDbEntity
  8
0
  6
Continuous
 62
     1
370
    15
100
AcDbSpline
210
0.0
220
0.0
230
1.0
 70
     8
 71
     3
 72
    10
 73
     6
 74
     0
 42
0.000000001
 43
0.00000001
 40
0.0
 40
0.0
 40
0.0
 40
0.0
 40
0.5
 40
0.5
 40
1.0
 40
1.0
 40
1.0
 40
1.0
 10
23.84849097775688
 20
-6.302001145806235
 30
0.0
 10
23.81212851338302
 20
-6.216419279109893
 30
0.0
 10
23.77568243643965
 20
-6.00874396149959
 30
0.0
 10
23.70814753097185
 20
-5.398415460588959
 30
0.0
 10
23.67163474253611
 20
-4.979641691211441
 30
0.0
 10
23.63527533767997
 20
-4.4744299821886
 30
0.0
  0
SPLINE
  5
211
330
1F
100
AcDbEntity
  8
0
  6
Continuous
 62
     1
370
    15
100
AcDbSpline
210
0.0
220
0.0
230
1.0
 70
     8
 71
     3
 72
    12
 73
     8
 74
     0
 42
0.000000001
 43
0.00000001
 40
0.0
 40
0.0
 40
0.0
 40
0.0
 40
0.5
 40
0.5
 40
0.75
 40
0.75
 40
1.0
 40
1.0
 40
1.0
 40
1.0
 10
21.87570609197302
 20
4.549209819218735
 30
0.0
 10
21.8409122440364
 20
5.021973615129838
 30
0.0
 10
21.80375494822889
 20
5.417911384834238
 30
0.0
 10
21.74905976424061
 20
5.840623054410635
 30
0.0
 10
21.73101172397725
 20
5.953467025721434
 30
0.0
 10
21.6960214013784
 20
6.120566181270423
 30
0.0
 10
21.67925828593796
 20
6.175264938422931
 30
0.0
 10
21.66157572544603
 20
6.201763969226992
 30
0.0
  0
SPLINE
  5
212
330
1F
100
AcDbEntity
  8
0
  6
Continuous
 62
     1
370
    15
100
AcDbSpline
210
0.0
220
0.0
230
1.0
 70
     8
 71
     3
 72
    12
 73
     8
 74
     0
 42
0.000000001
 43
0.00000001
 40
0.0
 40
0.0
 40
0.0
 40
0.0
 40
0.5
 40
0.5
 40
0.75
 40
0.75
 40
1.0
 40
1.0
 40
1.0
 40
1.0
 10
24.10383327878706
 20
-6.229623112955933
 30
0.0
 10
24.06729682477089
 20
-6.162454646898412
 30
0.0
 10
24.03038827615639
 20
-5.972885456913618
 30
0.0
 10
23.97895823431688
 20
-5.538751964568693
 30
0.0
 10
23.96172200824191
 20
-5.367873922009698
 30
0.0
 10
23.9259062168325
 20
-4.972669242645471
 30
0.0
 10
23.90761153617833
 20
-4.749123246836001
 30
0.0
 10
23.88931646223027
 20
-4.50390063119748
 30
0.0
  0
SPLINE
  5
213
330
1F
100
AcDbEntity
  8
0
  6
Continuous
 62
     1
370
    15
100
AcDbSpline
210
0.0
220
0.0
230
1.0
 70
     8
 71
     3
 72
    12
 73
     8
 74
     0
 42
0.000000001
 43
0.00000001
 40
0.0
 40
0.0
 40
0.0
 40
0.0
 40
0.5
 40
0.5
 40
0.75
 40
0.75
 40
1.0
 40
1.0
 40
1.0
 40
1.0
 10
24.6218455746891
 20
-6.248448530273572
 30
0.0
 10
24.58547773208296
 20
-6.214463739099511
 30
0.0
 10
24.54828379909546
 20
-6.057914035634118
 30
0.0
 10
24.49585519064141
 20
-5.665334812401847
 30
0.0
 10
24.47910418877935
 20
-5.509873329762732
 30
0.0
 10
24.44376440069892
 20
-5.143779268928439
 30
0.0
 10
24.42560669434653
 20
-4.934002793677159
 30
0.0
 10
24.40733804103102
 20
-4.701144072820018
 30
0.0
  0
LINE
  5
214
330
1F
100
AcDbEntity
  8
0
  6
Continuous
 62
     1
370
    15
100
AcDbLine
 10
21.14683559354052
 20
6.21331848078098
 30
0.0
 11
21.14379761930212
 21
6.219444255015514
 31
0.0
  0
SPLINE
  5
215
330
1F
100
AcDbEntity
  8
0
  6
Continuous
 62
     1
370
    15
100
AcDbSpline
210
0.0
220
0.0
230
1.0
 70
     8
 71
     3
 72
    12
 73
     8
 74
     0
 42
0.000000001
 43
0.00000001
 40
0.0
 40
0.0
 40
0.0
 40
0.0
 40
0.5000000000000002
 40
0.5000000000000002
 40
0.7500000000000001
 40
0.7500000000000001
 40
1.0
 40
1.0
 40
1.0
 40
1.0
 10
25.13687363989109
 20
-6.255714460630944
 30
0.0
 10
25.10079308876206
 20
-6.254629466381175
 30
0.0
 10
25.06344334096462
 20
-6.13161510034268
 30
0.0
 10
25.01017700674458
 20
-5.782252876235876
 30
0.0
 10
24.99333104177102
 20
-5.640573472610088
 30
0.0
 10
24.95857317961954
 20
-5.304077348797257
 30
0.0
 10
24.94061103968528
 20
-5.108499254936145
 30
0.0
 10
24.92242911156201
 20
-4.888592073841565
 30
0.0
  0
SPLINE
  5
216
330
1F
100
AcDbEntity
  8
0
  6
Continuous
 62
     1
370
    15
100
AcDbSpline
210
0.0
220
0.0
230
1.0
 70
     8
 71
     3
 72
    12
 73
     8
 74
     0
 42
0.000000001
 43
0.00000001
 40
0.0
 40
0.0
 40
0.0
 40
0.0
 40
0.4999999999999999
 40
0.4999999999999999
 40
0.7499999999999999
 40
0.7499999999999999
 40
1.0
 40
1.0
 40
1.0
 40
1.0
 10
21.10286686966053
 20
4.916515863422374
 30
0.0
 10
21.06743854295042
 20
5.358382705333003
 30
0.0
 10
21.03030051922223
 20
5.712565369140593
 30
0.0
 10
20.97661653221
 20
6.067023483259495
 30
0.0
 10
20.95907036988351
 20
6.156246052346114
 30
0.0
 10
20.92530443125172
 20
6.27650326874274
 30
0.0
 10
20.90774511947546
 20
6.309100453825833
 30
0.0
 10
20.88984675389967
 20
6.311838750884739
 30
0.0
  0
SPLINE
  5
217
330
1F
100
AcDbEntity
  8
0
  6
Continuous
 62
     1
370
    15
100
AcDbSpline
210
0.0
220
0.0
230
1.0
 70
     8
 71
     3
 72
    12
 73
     8
 74
     0
 42
0.000000001
 43
0.00000001
 40
0.0
 40
0.0
 40
0.0
 40
0.0
 40
0.5
 40
0.5
 40
0.75
 40
0.75
 40
1.0
 40
1.0
 40
1.0
 40
1.0
 10
20.84894141799472
 20
4.927914201098337
 30
0.0
 10
20.81310079296557
 20
5.355251332128416
 30
0.0
 10
20.77572265340665
 20
5.692172032206011
 30
0.0
 10
20.72202238232216
 20
6.01997562987439
 30
0.0
 10
20.70482838939743
 20
6.099944656994028
 30
0.0
 10
20.6704869800004
 20
6.203427294325174
 30
0.0
 10
20.65267684283567
 20
6.227231440628657
 30
0.0
 10
20.63458037915158
 20
6.221098355726383
 30
0.0
  0
LINE
  5
218
330
1F
100
AcDbEntity
  8
0
  6
Continuous
 62
     1
370
    15
100
AcDbLine
 10
25.61847755875095
 20
-6.225666572668889
 30
0.0
 11
25.61391966607079
 21
-6.222412531593182
 31
0.0
  0
SPLINE
  5
219
330
1F
100
AcDbEntity
  8
0
  6
Continuous
 62
     1
370
    15
100
AcDbSpline
210
0.0
220
0.0
230
1.0
 70
     8
 71
     3
 72
     9
 73
     5
 74
     0
 42
0.000000001
 43
0.00000001
 40
0.0
 40
0.0
 40
0.0
 40
0.0
 40
0.7882499910263054
 40
1.0
 40
1.0
 40
1.0
 40
1.0
 10
20.1600229572843
 20
6.198931409648321
 30
0.0
 10
20.15841018965695
 20
6.204180758228471
 30
0.0
 10
20.15636417932304
 20
6.210840255392966
 30
0.0
 10
20.154243356217
 20
6.210138909549286
 30
0.0
 10
20.15379427190527
 20
6.209990399560592
 30
0.0
  0
SPLINE
  5
21A
330
1F
100
AcDbEntity
  8
0
  6
Continuous
 62
     1
370
    15
100
AcDbSpline
210
0.0
220
0.0
230
1.0
 70
     8
 71
     3
 72
    11
 73
     7
 74
     0
 42
0.000000001
 43
0.00000001
 40
0.0
 40
0.0
 40
0.0
 40
0.0
 40
0.0956765886671478
 40
0.3996985764185003
 40
0.7004173151853411
 40
1.0
 40
1.0
 40
1.0
 40
1.0
 10
25.87174793894991
 20
-6.321333424517253
 30
0.0
 10
25.86608632414598
 20
-6.321395375729653
 30
0.0
 10
25.84243435861415
 20
-6.32165418315317
 30
0.0
 10
25.80017113965677
 20
-6.138977741846031
 30
0.0
 10
25.74773684716985
 20
-5.790101942825142
 30
0.0
 10
25.71297714411375
 20
-5.418758281702766
 30
0.0
 10
25.69563018347725
 20
-5.233437829979994
 30
0.0
  0
LINE
  5
21B
330
1F
100
AcDbEntity
  8
0
  6
Continuous
 62
     1
370
    15
100
AcDbLine
 10
19.6403803509067
 20
6.210856995216272
 30
0.0
 11
19.63240916099056
 21
6.204774993142745
 31
0.0
  0
LINE
  5
21C
330
1F
100
AcDbEntity
  8
0
  6
Continuous
 62
     1
370
    15
100
AcDbLine
 10
26.16377623941406
 20
-6.231663824388125
 30
0.0
 11
26.13645216639742
 21
-6.23567922166858
 31
0.0
  0
LINE
  5
21D
330
1F
100
AcDbEntity
  8
0
  6
Continuous
 62
     1
370
    15
100
AcDbLine
 10
27.15141589011654
 20
-6.235557684072592
 30
0.0
 11
27.14578325118526
 21
-6.245828775086739
 31
0.0
  0
SPLINE
  5
21E
330
1F
100
AcDbEntity
  8
0
  6
Continuous
 62
     1
370
    15
100
AcDbSpline
210
0.0
220
0.0
230
1.0
 70
     8
 71
     3
 72
    11
 73
     7
 74
     0
 42
0.000000001
 43
0.00000001
 40
0.0
 40
0.0
 40
0.0
 40
0.0
 40
0.3226864269323361
 40
0.6413798679743116
 40
0.999453310571756
 40
0.9999999999999999
 40
0.9999999999999999
 40
0.9999999999999999
 40
0.9999999999999999
 10
19.04262958284124
 20
5.568345932892225
 30
0.0
 10
19.02549854264769
 20
5.713207947655718
 30
0.0
 10
18.99144844515194
 20
6.001139425861293
 30
0.0
 10
18.94026316657672
 20
6.236237943429925
 30
0.0
 10
18.90578841381854
 20
6.345465347650135
 30
0.0
 10
18.88684911896169
 20
6.311919379964632
 30
0.0
 10
18.88682024743065
 20
6.311868241659067
 30
0.0
  0
LINE
  5
21F
330
1F
100
AcDbEntity
  8
0
  6
Continuous
 62
     1
370
    15
100
AcDbLine
 10
18.15212873931631
 20
6.207980605444572
 30
0.0
 11
18.15036621134385
 21
6.211617420098445
 31
0.0
  0
SPLINE
  5
220
330
1F
100
AcDbEntity
  8
0
  6
Continuous
 62
     1
370
    15
100
AcDbSpline
210
0.0
220
0.0
230
1.0
 70
     8
 71
     3
 72
    10
 73
     6
 74
     0
 42
0.000000001
 43
0.00000001
 40
0.0
 40
0.0
 40
0.0
 40
0.0
 40
0.2925052925535372
 40
0.6479386610166503
 40
1.0
 40
1.0
 40
1.0
 40
1.0
 10
27.88799332644447
 20
-6.337897927829363
 30
0.0
 10
27.87491513697463
 20
-6.333032353801547
 30
0.0
 10
27.84594518398801
 20
-6.32225445131254
 30
0.0
 10
27.80068267799695
 20
-6.147788192625464
 30
0.0
 10
27.76966698612533
 20
-5.922090397111914
 30
0.0
 10
27.7542330529879
 20
-5.809779354700186
 30
0.0
  0
LINE
  5
221
330
1F
100
AcDbEntity
  8
0
  6
Continuous
 62
     1
370
    15
100
AcDbLine
 10
37.38677578236564
 20
1.206945784992239
 30
0.0
 11
37.38677578236564
 21
4.093678592375181
 31
0.0
  0
LINE
  5
222
330
1F
100
AcDbEntity
  8
0
  6
Continuous
 62
     1
370
    15
100
AcDbLine
 10
28.14954782094463
 20
-6.245667656281331
 30
0.0
 11
28.14623044993385
 21
-6.252512877204754
 31
0.0
  0
SPLINE
  5
223
330
1F
100
AcDbEntity
  8
0
  6
Continuous
 62
     1
370
    15
100
AcDbSpline
210
0.0
220
0.0
230
1.0
 70
     8
 71
     3
 72
     9
 73
     5
 74
     0
 42
0.000000001
 43
0.00000001
 40
0.0
 40
0.0
 40
0.0
 40
0.0
 40
0.4240738739954342
 40
1.0
 40
1.0
 40
1.0
 40
1.0
 10
16.98237315009936
 20
6.024924962452314
 30
0.0
 10
16.96904230691845
 20
6.097225121918408
 30
0.0
 10
16.93760711602751
 20
6.267714661358589
 30
0.0
 10
16.90587752689845
 20
6.293905522428316
 30
0.0
 10
16.88760362755164
 20
6.30898952358093
 30
0.0
  0
LINE
  5
224
330
1F
100
AcDbEntity
  8
0
  6
Continuous
 62
     1
370
    15
100
AcDbLine
 10
16.15333214591845
 20
6.200957036248109
 30
0.0
 11
16.15065086822613
 21
6.206178496262691
 31
0.0
  0
SPLINE
  5
225
330
1F
100
AcDbEntity
  8
0
  6
Continuous
 62
     1
370
    15
100
AcDbSpline
210
0.0
220
0.0
230
1.0
 70
     8
 71
     3
 72
     9
 73
     5
 74
     0
 42
0.000000001
 43
0.00000001
 40
0.0
 40
0.0
 40
0.0
 40
0.0
 40
0.3904616065103115
 40
1.0
 40
1.0
 40
1.0
 40
1.0
 10
29.88518292273983
 20
-6.334673689076045
 30
0.0
 10
29.87593209656456
 20
-6.334751745803889
 30
0.0
 10
29.85224007148189
 20
-6.334951654646508
 30
0.0
 10
29.82832200842022
 20
-6.24118601809819
 30
0.0
 10
29.81374303068623
 20
-6.184032262631991
 30
0.0
  0
LINE
  5
226
330
1F
100
AcDbEntity
  8
0
  6
Continuous
 62
     1
370
    15
100
AcDbLine
 10
14.92389926876529
 20
6.270086316994092
 30
0.0
 11
14.8837178219448
 21
6.295197101912162
 31
0.0
  0
LINE
  5
227
330
1F
100
AcDbEntity
  8
0
  6
Continuous
 62
     1
370
    15
100
AcDbLine
 10
37.38677578236564
 20
-3.319926868521907
 30
0.0
 11
37.38677578236564
 21
-3.730233601623514
 31
0.0
  0
LINE
  5
228
330
1F
100
AcDbEntity
  8
0
  6
Continuous
 62
     1
370
    15
100
AcDbLine
 10
36.89684236611827
 20
6.310884765020273
 30
0.0
 11
36.89719254340633
 21
6.308176478973291
 31
0.0
  0
LINE
  5
229
330
1F
100
AcDbEntity
  8
0
  6
Continuous
 62
     1
370
    15
100
AcDbLine
 10
37.38677578236564
 20
5.804578697911165
 30
0.0
 11
37.38677578236564
 21
5.822028423330448
 31
0.0
  0
LINE
  5
22A
330
1F
100
AcDbEntity
  8
0
  6
Continuous
 62
     1
370
    15
100
AcDbLine
 10
36.89316550459369
 20
6.310989538809917
 30
0.0
 11
36.88704671527847
 21
6.303685641518495
 31
0.0
  0
SPLINE
  5
22D
330
1F
100
AcDbEntity
  8
0
  6
Continuous
 62
     1
370
    15
100
AcDbSpline
210
0.0
220
0.0
230
1.0
 70
     8
 71
     3
 72
    11
 73
     7
 74
     0
 42
0.000000001
 43
0.00000001
 40
0.0
 40
0.0
 40
0.0
 40
0.0
 40
0.2655180883599373
 40
0.5319103318117819
 40
0.7950514861616561
 40
1.0
 40
1.0
 40
1.0
 40
1.0
 10
21.35806421007618
 20
4.746152012279889
 30
0.0
 10
21.33929684124482
 20
4.96877606098311
 30
0.0
 10
21.30170031648831
 20
5.414757095068016
 30
0.0
 10
21.2443308384148
 20
5.87004445297049
 30
0.0
 10
21.19359910319677
 20
6.146273787240274
 30
0.0
 10
21.16107566499836
 20
6.192902536085926
 30
0.0
 10
21.14683559354052
 20
6.21331848078098
 30
0.0
  0
SPLINE
  5
22E
330
1F
100
AcDbEntity
  8
0
  6
Continuous
 62
     1
370
    15
100
AcDbSpline
210
0.0
220
0.0
230
1.0
 70
     8
 71
     3
 72
    12
 73
     8
 74
     0
 42
0.000000001
 43
0.00000001
 40
0.0
 40
0.0
 40
0.0
 40
0.0
 40
0.0692444281130692
 40
0.3711561423328689
 40
0.6695033793204048
 40
0.967393829763173
 40
1.0
 40
1.0
 40
1.0
 40
1.0
 10
25.61391966607079
 20
-6.222412531593184
 30
0.0
 10
25.60986880293264
 20
-6.220583794471123
 30
0.0
 10
25.58815582505925
 20
-6.210781604835651
 30
0.0
 10
25.5483976885388
 20
-6.027223653678451
 30
0.0
 10
25.49714905508203
 20
-5.671860269417174
 30
0.0
 10
25.46153569282406
 20
-5.308615114092957
 30
0.0
 10
25.44227619204089
 20
-5.090088859173344
 30
0.0
 10
25.44037608619436
 20
-5.068529473015406
 30
0.0
  0
SPLINE
  5
22F
330
1F
100
AcDbEntity
  8
0
  6
Continuous
 62
     1
370
    15
100
AcDbSpline
210
0.0
220
0.0
230
1.0
 70
     8
 71
     3
 72
    11
 73
     7
 74
     0
 42
0.000000001
 43
0.00000001
 40
0.0
 40
0.0
 40
0.0
 40
0.0
 40
0.2707437503049868
 40
0.540986038510979
 40
0.8079055588382678
 40
1.0
 40
1.0
 40
1.0
 40
1.0
 10
20.33108269985422
 20
5.099326296380422
 30
0.0
 10
20.31542988578416
 20
5.262048893106368
 30
0.0
 10
20.28415324923846
 20
5.587192697459464
 30
0.0
 10
20.23724078264966
 20
5.923333250009437
 30
0.0
 10
20.19654954493428
 20
6.132112625499921
 30
0.0
 10
20.17079928026462
 20
6.179218076280424
 30
0.0
 10
20.1600229572843
 20
6.198931409648321
 30
0.0
  0
SPLINE
  5
230
330
1F
100
AcDbEntity
  8
0
  6
Continuous
 62
     1
370
    15
100
AcDbSpline
210
0.0
220
0.0
230
1.0
 70
     8
 71
     3
 72
    12
 73
     8
 74
     0
 42
0.000000001
 43
0.00000001
 40
0.0
 40
0.0
 40
0.0
 40
0.0
 40
0.2353242139979177
 40
0.4697822286047933
 40
0.7014322353405357
 40
0.958498527418252
 40
1.0
 40
1.0
 40
1.0
 40
1.0
 10
19.8160268571566
 20
5.260422284385822
 30
0.0
 10
19.80200987270059
 20
5.395704935028357
 30
0.0
 10
19.77402749857858
 20
5.665772277571261
 30
0.0
 10
19.73235155135422
 20
5.952752282904505
 30
0.0
 10
19.69083329839236
 20
6.142413366883767
 30
0.0
 10
19.66056280458724
 20
6.229697244361322
 30
0.0
 10
19.64284338330225
 20
6.213156227248167
 30
0.0
 10
19.6403803509067
 20
6.210856995216272
 30
0.0
  0
SPLINE
  5
231
330
1F
100
AcDbEntity
  8
0
  6
Continuous
 62
     1
370
    15
100
AcDbSpline
210
0.0
220
0.0
230
1.0
 70
     8
 71
     3
 72
    11
 73
     7
 74
     0
 42
0.000000001
 43
0.00000001
 40
0.0
 40
0.0
 40
0.0
 40
0.0
 40
0.1416438108966186
 40
0.4302250018811214
 40
0.7162125719647429
 40
1.0
 40
1.0
 40
1.0
 40
1.0
 10
26.13645216639742
 20
-6.23567922166858
 30
0.0
 10
26.12760295610813
 20
-6.241203562610561
 30
0.0
 10
26.10072460901159
 20
-6.257983043317219
 30
0.0
 10
26.0549107126557
 20
-6.09145107583309
 30
0.0
 10
26.00168435947347
 20
-5.765383580361604
 30
0.0
 10
25.96689742142164
 20
-5.410037723581272
 30
0.0
 10
25.94957111592993
 20
-5.233050865450242
 30
0.0
  0
SPLINE
  5
232
330
1F
100
AcDbEntity
  8
0
  6
Continuous
 62
     1
370
    15
100
AcDbSpline
210
0.0
220
0.0
230
1.0
 70
     8
 71
     3
 72
    10
 73
     6
 74
     0
 42
0.000000001
 43
0.00000001
 40
0.0
 40
0.0
 40
0.0
 40
0.0
 40
0.320903611671876
 40
0.6626667484862289
 40
0.9999999999999999
 40
0.9999999999999999
 40
0.9999999999999999
 40
0.9999999999999999
 10
26.62442142333492
 20
-6.245181040236096
 30
0.0
 10
26.60733308052581
 20
-6.218525277599875
 30
0.0
 10
26.5720456105365
 20
-6.163481062103088
 30
0.0
 10
26.51909099406372
 20
-5.872459716616897
 30
0.0
 10
26.4844702827243
 20
-5.547797854074052
 30
0.0
 10
26.46727284606203
 20
-5.386525840827563
 30
0.0
  0
SPLINE
  5
233
330
1F
100
AcDbEntity
  8
0
  6
Continuous
 62
     1
370
    15
100
AcDbSpline
210
0.0
220
0.0
230
1.0
 70
     8
 71
     3
 72
    10
 73
     6
 74
     0
 42
0.000000001
 43
0.00000001
 40
0.0
 40
0.0
 40
0.0
 40
0.0
 40
0.3567890939736277
 40
0.7091927929745896
 40
1.0
 40
1.0
 40
1.0
 40
1.0
 10
19.29798612560734
 20
5.413138231864831
 30
0.0
 10
19.27945164565264
 20
5.572201525935549
 30
0.0
 10
19.24261049824253
 20
5.888373022450208
 30
0.0
 10
19.192684656035
 20
6.149812313357444
 30
0.0
 10
19.16026969024497
 20
6.189199329870497
 30
0.0
 10
19.14561430181965
 20
6.207006907692811
 30
0.0
  0
SPLINE
  5
234
330
1F
100
AcDbEntity
  8
0
  6
Continuous
 62
     1
370
    15
100
AcDbSpline
210
0.0
220
0.0
230
1.0
 70
     8
 71
     3
 72
    11
 73
     7
 74
     0
 42
0.000000001
 43
0.00000001
 40
0.0
 40
0.0
 40
0.0
 40
0.0
 40
0.0325261677870931
 40
0.3568431049036875
 40
0.680694390072858
 40
1.0
 40
1.0
 40
1.0
 40
1.0
 10
27.14578325118526
 20
-6.245828775086739
 30
0.0
 10
27.14403207395041
 20
-6.249263725775819
 30
0.0
 10
27.12481998829024
 20
-6.286948413289748
 30
0.0
 10
27.08666173896541
 20
-6.194881189583505
 30
0.0
 10
27.03311170529247
 20
-5.970458853829451
 30
0.0
 10
26.99888764272652
 20
-5.675472912303851
 30
0.0
 10
26.98189655508503
 20
-5.529022385695317
 30
0.0
  0
SPLINE
  5
235
330
1F
100
AcDbEntity
  8
0
  6
Continuous
 62
     1
370
    15
100
AcDbSpline
210
0.0
220
0.0
230
1.0
 70
     8
 71
     3
 72
    11
 73
     7
 74
     0
 42
0.000000001
 43
0.00000001
 40
0.0
 40
0.0
 40
0.0
 40
0.0
 40
0.2926620211641792
 40
0.5817169288004563
 40
0.8297142824932641
 40
0.9999999999999999
 40
0.9999999999999999
 40
0.9999999999999999
 40
0.9999999999999999
 10
18.78858015130862
 20
5.549890844753644
 30
0.0
 10
18.77262248406595
 20
5.677272771679796
 30
0.0
 10
18.74090383078017
 20
5.93046661972814
 30
0.0
 10
18.69724649652807
 20
6.134579924434977
 30
0.0
 10
18.66025654787963
 20
6.229392619938968
 30
0.0
 10
18.63754804036942
 20
6.213407795623974
 30
0.0
 10
18.6283032615076
 20
6.206900271258018
 30
0.0
  0
SPLINE
  5
236
330
1F
100
AcDbEntity
  8
0
  6
Continuous
 62
     1
370
    15
100
AcDbSpline
210
0.0
220
0.0
230
1.0
 70
     8
 71
     3
 72
    10
 73
     6
 74
     0
 42
0.000000001
 43
0.00000001
 40
0.0
 40
0.0
 40
0.0
 40
0.0
 40
0.2277112595594275
 40
0.6160587877629865
 40
1.0
 40
1.0
 40
1.0
 40
1.0
 10
27.62656362916931
 20
-6.234402378418782
 30
0.0
 10
27.61683580412677
 20
-6.228335602636166
 30
0.0
 10
27.59051777262112
 20
-6.211922314415377
 30
0.0
 10
27.54732770507439
 20
-6.028725562917641
 30
0.0
 10
27.51520734360683
 20
-5.783989910497134
 30
0.0
 10
27.49923879470333
 20
-5.662320257493594
 30
0.0
  0
SPLINE
  5
237
330
1F
100
AcDbEntity
  8
0
  6
Continuous
 62
     1
370
    15
100
AcDbSpline
210
0.0
220
0.0
230
1.0
 70
     8
 71
     3
 72
    10
 73
     6
 74
     0
 42
0.000000001
 43
0.00000001
 40
0.0
 40
0.0
 40
0.0
 40
0.0
 40
0.3311418305960301
 40
0.6583719002348809
 40
1.0
 40
1.0
 40
1.0
 40
1.0
 10
18.27055664922699
 20
5.674200522384307
 30
0.0
 10
18.25719996224301
 20
5.770852806629764
 30
0.0
 10
18.23064437011303
 20
5.96301562679111
 30
0.0
 10
18.1918518747513
 20
6.147702577380819
 30
0.0
 10
18.16555845101989
 20
6.187601636612129
 30
0.0
 10
18.15212873931631
 20
6.207980605444572
 30
0.0
  0
SPLINE
  5
238
330
1F
100
AcDbEntity
  8
0
  6
Continuous
 62
     1
370
    15
100
AcDbSpline
210
0.0
220
0.0
230
1.0
 70
     8
 71
     3
 72
    11
 73
     7
 74
     0
 42
0.000000001
 43
0.00000001
 40
0.0
 40
0.0
 40
0.0
 40
0.0
 40
0.2403514811059889
 40
0.4781173671632479
 40
0.8516929970725717
 40
1.0
 40
1.0
 40
1.0
 40
1.0
 10
17.75548916499718
 20
5.78722443305578
 30
0.0
 10
17.74473089857295
 20
5.858332536688037
 30
0.0
 10
17.72333009840178
 20
5.999783794388563
 30
0.0
 10
17.68647684013798
 20
6.156631518829517
 30
0.0
 10
17.65339220614653
 20
6.242355786088421
 30
0.0
 10
17.62984095058118
 20
6.205582265333454
 30
0.0
 10
17.62314822714432
 20
6.195132079205177
 30
0.0
  0
SPLINE
  5
239
330
1F
100
AcDbEntity
  8
0
  6
Continuous
 62
     1
370
    15
100
AcDbSpline
210
0.0
220
0.0
230
1.0
 70
     8
 71
     3
 72
    11
 73
     7
 74
     0
 42
0.000000001
 43
0.00000001
 40
0.0
 40
0.0
 40
0.0
 40
0.0
 40
0.0070810153120732
 40
0.3384601955736352
 40
0.6705614226481726
 40
1.0
 40
1.0
 40
1.0
 40
1.0
 10
28.14623044993385
 20
-6.252512877204754
 30
0.0
 10
28.14591140340515
 20
-6.253179792023996
 30
0.0
 10
28.13066153516753
 20
-6.285057158503745
 30
0.0
 10
28.09927134897242
 20
-6.23109207613893
 30
0.0
 10
28.05309082123215
 20
-6.089083212051026
 30
0.0
 10
28.02300593892515
 20
-5.882331776373785
 30
0.0
 10
28.00802404250607
 20
-5.779372138300278
 30
0.0
  0
SPLINE
  5
23A
330
1F
100
AcDbEntity
  8
0
  6
Continuous
 62
     1
370
    15
100
AcDbSpline
210
0.0
220
0.0
230
1.0
 70
     8
 71
     3
 72
     9
 73
     5
 74
     0
 42
0.000000001
 43
0.00000001
 40
0.0
 40
0.0
 40
0.0
 40
0.0
 40
0.4324720575077992
 40
1.0
 40
1.0
 40
1.0
 40
1.0
 10
28.62443478967651
 20
-6.233390030780175
 30
0.0
 10
28.61013368733249
 20
-6.220088452040917
 30
0.0
 10
28.5770654183062
 20
-6.189331369569715
 30
0.0
 10
28.54428135386053
 20
-5.99438281456642
 30
0.0
 10
28.52567548121914
 20
-5.883744062253573
 30
0.0
  0
SPLINE
  5
23B
330
1F
100
AcDbEntity
  8
0
  6
Continuous
 62
     1
370
    15
100
AcDbSpline
210
0.0
220
0.0
230
1.0
 70
     8
 71
     3
 72
     9
 73
     5
 74
     0
 42
0.000000001
 43
0.00000001
 40
0.0
 40
0.0
 40
0.0
 40
0.0
 40
0.5245580323197586
 40
1.0
 40
1.0
 40
1.0
 40
1.0
 10
17.23759139146312
 20
5.890351644388101
 30
0.0
 10
17.2215767430076
 20
5.982667624931528
 30
0.0
 10
17.19104694941221
 20
6.15865574227133
 30
0.0
 10
17.16041322533537
 20
6.189136006791795
 30
0.0
 10
17.1458486672829
 20
6.203627603730819
 30
0.0
  0
SPLINE
  5
23C
330
1F
100
AcDbEntity
  8
0
  6
Continuous
 62
     1
370
    15
100
AcDbSpline
210
0.0
220
0.0
230
1.0
 70
     8
 71
     3
 72
    10
 73
     6
 74
     0
 42
0.000000001
 43
0.00000001
 40
0.0
 40
0.0
 40
0.0
 40
0.0
 40
0.0611385234686524
 40
0.5306018823398109
 40
1.0
 40
1.0
 40
1.0
 40
1.0
 10
29.14949024285778
 20
-6.242394057431559
 30
0.0
 10
29.14732506548877
 20
-6.246846495917632
 30
0.0
 10
29.1285341768245
 20
-6.285487799431014
 30
0.0
 10
29.09160279879853
 20
-6.217807515469335
 30
0.0
 10
29.05757283084895
 20
-6.056977170659573
 30
0.0
 10
29.04055902924046
 20
-5.976567586281638
 30
0.0
  0
SPLINE
  5
23D
330
1F
100
AcDbEntity
  8
0
  6
Continuous
 62
     1
370
    15
100
AcDbSpline
210
0.0
220
0.0
230
1.0
 70
     8
 71
     3
 72
    10
 73
     6
 74
     0
 42
0.000000001
 43
0.00000001
 40
0.0
 40
0.0
 40
0.0
 40
0.0
 40
0.3324581738584667
 40
0.7701201756911068
 40
1.0
 40
1.0
 40
1.0
 40
1.0
 10
16.7284680735658
 20
5.976996308794877
 30
0.0
 10
16.7173471090229
 20
6.031070521943281
 30
0.0
 10
16.69158603637957
 20
6.156330316421778
 30
0.0
 10
16.65835033019846
 20
6.235664897918362
 30
0.0
 10
16.63528205255332
 20
6.210176372841051
 30
0.0
 10
16.62733808349475
 20
6.201398948809764
 30
0.0
  0
SPLINE
  5
23E
330
1F
100
AcDbEntity
  8
0
  6
Continuous
 62
     1
370
    15
100
AcDbSpline
210
0.0
220
0.0
230
1.0
 70
     8
 71
     3
 72
     9
 73
     5
 74
     0
 42
0.000000001
 43
0.00000001
 40
0.0
 40
0.0
 40
0.0
 40
0.0
 40
0.3029234198093705
 40
1.0
 40
1.0
 40
1.0
 40
1.0
 10
29.62481120790943
 20
-6.235255004235844
 30
0.0
 10
29.61813483085408
 20
-6.233082069237568
 30
0.0
 10
29.59609501280516
 20
-6.225908853645178
 30
0.0
 10
29.57391428070289
 20
-6.127539589572693
 30
0.0
 10
29.55845261182293
 20
-6.058968679377177
 30
0.0
  0
SPLINE
  5
23F
330
1F
100
AcDbEntity
  8
0
  6
Continuous
 62
     1
370
    15
100
AcDbSpline
210
0.0
220
0.0
230
1.0
 70
     8
 71
     3
 72
     9
 73
     5
 74
     0
 42
0.000000001
 43
0.00000001
 40
0.0
 40
0.0
 40
0.0
 40
0.0
 40
0.3244052972186796
 40
1.0
 40
1.0
 40
1.0
 40
1.0
 10
16.21082175712689
 20
6.049675791195295
 30
0.0
 10
16.20466948562663
 20
6.076895332740555
 30
0.0
 10
16.18570471670021
 20
6.160801304001291
 30
0.0
 10
16.16638466828515
 20
6.184766366781783
 30
0.0
 10
16.15333214591845
 20
6.200957036248109
 30
0.0
  0
SPLINE
  5
240
330
1F
100
AcDbEntity
  8
0
  6
Continuous
 62
     1
370
    15
100
AcDbSpline
210
0.0
220
0.0
230
1.0
 70
     8
 71
     3
 72
    10
 73
     6
 74
     0
 42
0.000000001
 43
0.00000001
 40
0.0
 40
0.0
 40
0.0
 40
0.0
 40
0.0567206799536236
 40
0.783240377623755
 40
1.0
 40
1.0
 40
1.0
 40
1.0
 10
15.69627814184531
 20
6.110648083171508
 30
0.0
 10
15.69496190212503
 20
6.115469139148935
 30
0.0
 10
15.6767863073261
 20
6.182041784388584
 30
0.0
 10
15.65310564414383
 20
6.24635840501697
 30
0.0
 10
15.6301311479109
 20
6.206398456845843
 30
0.0
 10
15.62485175396904
 20
6.197215913465879
 30
0.0
  0
SPLINE
  5
241
330
1F
100
AcDbEntity
  8
0
  6
Continuous
 62
     1
370
    15
100
AcDbSpline
210
0.0
220
0.0
230
1.0
 70
     8
 71
     3
 72
     9
 73
     5
 74
     0
 42
0.000000001
 43
0.00000001
 40
0.0
 40
0.0
 40
0.0
 40
0.0
 40
0.4774990480294709
 40
1.0
 40
1.0
 40
1.0
 40
1.0
 10
30.14667408730492
 20
-6.249645334997513
 30
0.0
 10
30.1341852134406
 20
-6.253332217195878
 30
0.0
 10
30.10803045163353
 20
-6.261053451852952
 30
0.0
 10
30.08157129584122
 20
-6.171571073109529
 30
0.0
 10
30.0677463617514
 20
-6.124816445031502
 30
0.0
  0
LINE
  5
242
330
1F
100
AcDbEntity
  8
0
  6
Continuous
 62
     1
370
    15
100
AcDbLine
 10
30.62589915658936
 20
-6.234820542254784
 30
0.0
 11
30.58579826917156
 21
-6.176229176440575
 31
0.0
  0
LINE
  5
243
330
1F
100
AcDbEntity
  8
0
  6
Continuous
 62
     1
370
    15
100
AcDbLine
 10
15.17893683354958
 20
6.160715984782836
 30
0.0
 11
15.1436122339557
 21
6.199790554723403
 31
0.0
  0
SPLINE
  5
244
330
1F
100
AcDbEntity
  8
0
  6
Continuous
 62
     1
370
    15
100
AcDbSpline
210
0.0
220
0.0
230
1.0
 70
     8
 71
     3
 72
     9
 73
     5
 74
     0
 42
0.000000001
 43
0.00000001
 40
0.0
 40
0.0
 40
0.0
 40
0.0
 40
0.009915099093639
 40
1.0
 40
1.0
 40
1.0
 40
1.0
 10
31.14795016314491
 20
-6.251663976677992
 30
0.0
 10
31.14779868696547
 20
-6.251975782505095
 30
0.0
 10
31.13252136315695
 20
-6.283423357981341
 30
0.0
 10
31.11666547618355
 20
-6.249534080163226
 30
0.0
 10
31.10096680190071
 20
-6.215980817892888
 30
0.0
  0
LINE
  5
245
330
1F
100
AcDbEntity
  8
0
  6
Continuous
 62
     1
370
    15
100
AcDbLine
 10
14.67007964107796
 20
6.194458267322442
 30
0.0
 11
14.62539268847211
 21
6.202936096719167
 31
0.0
  0
LINE
  5
246
330
1F
100
AcDbEntity
  8
0
  6
Continuous
 62
     1
370
    15
100
AcDbLine
 10
13.63740216198965
 20
6.219778134158513
 30
0.0
 11
13.62441393736406
 21
6.200563552460334
 31
0.0
  0
LINE
  5
247
330
1F
100
AcDbEntity
  8
0
  6
Continuous
 62
     8
370
    15
100
AcDbLine
 10
36.63921991552814
 20
6.2220202932569
 30
0.0
 11
36.62745731141074
 21
6.204000132760665
 31
0.0
  0
LINE
  5
248
330
1F
100
AcDbEntity
  8
중심선
100
AcDbLine
 10
-45.81322515938775
 20
-0.01797173074756
 30
0.0
 11
44.38677578236565
 21
-0.0179717307475599
 31
0.0
  0
CIRCLE
  5
249
330
1F
100
AcDbEntity
  8
외형선
100
AcDbCircle
 10
0.0
 20
0.0
 30
0.0
 40
3.000000000000004
  0
INSERT
  5
24A
330
1F
100
AcDbEntity
  8
0
  6
Continuous
 62
     7
100
AcDbBlockReference
 66
     1
  2
블럭10
 10
-16.63945112874702
 20
-52.04717430164393
 30
0.0
  0
ATTRIB
  5
24B
330
24A
100
AcDbEntity
  8
FORMAT
 62
     2
100
AcDbText
 10
-25.70707290932103
 20
-49.97180738881174
 30
0.0
 40
4.233333333333333
  1
E5E98032 [ 3 FLUTE ]
 41
0.75
  7
SLDTEXTSTYLE0
 11
-25.70707290932103
 21
-52.08847405547841
 31
0.0
100
AcDbAttribute
  2
AUTOATTR0
 70
     0
 74
     1
  0
SEQEND
  5
24C
330
24A
100
AcDbEntity
  8
0
  6
Continuous
 62
     7
  0
HATCH
  5
24D
330
1F
100
AcDbEntity
  8
중심선
100
AcDbHatch
 10
0.0
 20
0.0
 30
0.0
210
0.0
220
0.0
230
1.0
  2
SOLID
 70
     1
 71
     0
 91
        1
 92
        0
 93
        4
 72
     1
 10
-10.92454182436617
 20
-35.8
 11
-14.37081706820345
 21
-35.8
 72
     1
 10
-14.37081706820345
 20
-35.8
 11
-16.49904692740747
 21
-38.33632558057259
 72
     1
 10
-16.49904692740747
 20
-38.33632558057259
 11
-13.05273859845704
 21
-38.3362861512701
 72
     1
 10
-13.05273859845704
 20
-38.3362861512701
 11
-10.92454182436617
 21
-35.8
 97
        0
 75
     0
 76
     1
 98
        1
 10
0.0
 20
0.0
  0
HATCH
  5
24E
330
1F
100
AcDbEntity
  8
중심선
100
AcDbHatch
 10
0.0
 20
0.0
 30
0.0
210
0.0
220
0.0
230
1.0
  2
SOLID
 70
     1
 71
     0
 91
        1
 92
        0
 93
        4
 72
     1
 10
-5.911777833330217
 20
-35.8
 11
-9.358053077167499
 21
-35.8
 72
     1
 10
-9.358053077167499
 20
-35.8
 11
-13.88919108552489
 21
-41.20000000000002
 72
     1
 10
-13.88919108552489
 20
-41.20000000000002
 11
-10.44291584168761
 21
-41.20000000000002
 72
     1
 10
-10.44291584168761
 20
-41.20000000000002
 11
-5.911777833330217
 21
-35.8
 97
        0
 75
     0
 76
     1
 98
        1
 10
0.0
 20
0.0
  0
HATCH
  5
24F
330
1F
100
AcDbEntity
  8
중심선
100
AcDbHatch
 10
0.0
 20
0.0
 30
0.0
210
0.0
220
0.0
230
1.0
  2
SOLID
 70
     1
 71
     0
 91
        1
 92
        0
 93
        4
 72
     1
 10
-0.8990138422943217
 20
-35.80000000000003
 11
-4.345289086131437
 21
-35.8
 72
     1
 10
-4.345289086131437
 20
-35.8
 11
-11.39372598802069
 21
-44.20000000000002
 72
     1
 10
-11.39372598802069
 20
-44.20000000000002
 11
-7.947450744183405
 21
-44.20000000000002
 72
     1
 10
-7.947450744183405
 20
-44.20000000000002
 11
-0.8990138422943215
 21
-35.80000000000003
 97
        0
 75
     0
 76
     1
 98
        1
 10
0.0
 20
0.0
  0
HATCH
  5
250
330
1F
100
AcDbEntity
  8
중심선
100
AcDbHatch
 10
0.0
 20
0.0
 30
0.0
210
0.0
220
0.0
230
1.0
  2
SOLID
 70
     1
 71
     0
 91
        1
 92
        0
 93
        6
 72
     3
 10
3.900876588717877
 20
-40.00000000005127
 11
3.960054785062284
 21
1.540850780301639E-10
 40
0.3939339440162633
 50
17.09539180608433
 51
320.0019657685079
 73
     0
 72
     1
 10
5.583876244418473
 20
-38.5878940046383
 11
7.889178118119511
 21
-36.65356729459038
 72
     3
 10
3.900876588665031
 20
-40.00000000000015
 11
6.600054785286829
 21
-1.249000902703301E-13
 40
0.6363583540795982
 50
39.99873849337408
 51
368.4976242363724
 73
     1
 72
     1
 10
10.32620908056564
 20
-39.03999999993002
 11
2.580943895500953
 21
-39.03999999992999
 72
     1
 10
2.580943895500953
 20
-39.03999999992999
 11
2.58091885105502
 21
-40.95999999992991
 72
     1
 10
2.58091885105502
 20
-40.95999999992991
 11
7.022298620527057
 21
-40.95999999992988
 97
        0
 75
     0
 76
     1
 98
        1
 10
0.0
 20
0.0
  0
POINT
  5
251
330
1F
100
AcDbEntity
  8
치수문자_일반주서
100
AcDbPoint
 10
-0.0000000000000013
 20
-0.0000000000000039
 30
0.0
  0
DIMENSION
  5
252
330
1F
100
AcDbEntity
  8
치수문자_일반주서
100
AcDbDimension
  2
_D
 10
11.98677592541679
 20
14.660156696272
 30
0.0
 11
24.68677592541679
 21
14.660156696272
 31
0.0
 70
   160
  1
<>
 71
     2
 42
25.4
  3
SLDDIMSTYLE0
100
AcDbAlignedDimension
 13
37.38677592541679
 23
6.332028115770479
 33
0.0
 14
11.98677592541679
 24
5.57002826925244
 34
0.0
 50
-0.000000000000004
100
AcDbRotatedDimension
1001
ACAD
1000
DSTYLE
1002
{
1070
   171
1070
     6
1070
   273
1070
     7
1002
}
  0
DIMENSION
  5
27C
330
1F
100
AcDbEntity
  8
치수문자_일반주서
100
AcDbDimension
  2
_D_2
 10
-58.93522080064072
 20
-6.367971807488601
 30
0.0
 11
-58.93522080064083
 21
26.2797781925114
 31
0.0
 70
   160
  1
%%c<>
 71
     2
 42
12.7
 52
-270.0
  3
SLDDIMSTYLE0
100
AcDbAlignedDimension
 13
-44.66322313282983
 23
6.332028192511455
 33
0.0
 14
-44.66322313282983
 24
-6.367971807488544
 34
0.0
 50
90.0000000000002
100
AcDbRotatedDimension
1001
ACAD
1000
DSTYLE
1002
{
1070
   171
1070
     6
1070
   273
1070
     7
1002
}
  0
INSERT
  5
296
330
1F
100
AcDbEntity
  8
외형선
100
AcDbBlockReference
  2
SW_DOWELSYMBOL_0
 10
0.0
 20
0.0
 30
0.0
  0
DIMENSION
  5
2C0
330
1F
100
AcDbEntity
  8
치수문자_일반주서
100
AcDbDimension
  2
*D6
 10
54.58967468426678
 20
-6.367971730747563
 30
0.0
 11
54.58967468426678
 21
26.27977811577048
 31
0.0
 70
   160
  1
{%%c<>[]}
 71
     5
 42
12.69999984651804
  3
SLDDIMSTYLE0
100
AcDbAlignedDimension
 13
37.38677592541679
 23
6.332028115770479
 33
0.0
 14
37.38677592541679
 24
-6.367971730747559
 34
0.0
 50
90.0
100
AcDbRotatedDimension
1001
ACAD
1000
DSTYLE
1002
{
1070
   283
1070
     1
1070
   170
1070
     1
1070
   171
1070
     6
1070
   273
1070
     7
1002
}
  0
LINE
  5
2FC
102
{ACAD_REACTORS
102
}
330
1F
100
AcDbEntity
  8
0
  6
Continuous
 62
     4
370
    15
100
AcDbLine
 10
2.461775782365635
 20
5.570028269252441
 30
0.0
 11
2.461775782365635
 21
-5.60597173074756
 31
0.0
  0
LINE
  5
2FD
330
1F
100
AcDbEntity
  8
0
  6
Continuous
 62
     4
370
    15
100
AcDbLine
 10
2.461775782365628
 20
5.570028269252441
 30
0.0
 11
11.98677592541679
 21
5.570028269252441
 31
0.0
  0
LINE
  5
2FE
330
1F
100
AcDbEntity
  8
0
  6
Continuous
 62
     4
370
    15
100
AcDbLine
 10
2.461775782365628
 20
-5.60597173074756
 30
0.0
 11
11.98677592541679
 21
-5.60597173074756
 31
0.0
  0
LINE
  5
300
330
1F
100
AcDbEntity
  8
0
100
AcDbLine
 10
11.98677592541679
 20
5.570028269252441
 30
0.0
 11
11.98677592541679
 21
6.258466721042472
 31
0.0
  0
LINE
  5
302
330
1F
100
AcDbEntity
  8
0
100
AcDbLine
 10
11.98677592541679
 20
6.258466721042472
 30
0.0
 11
11.98677592541679
 21
-6.157284960798211
 31
0.0
  0
LINE
  5
305
330
1F
100
AcDbEntity
  8
0
  6
Continuous
 62
     4
370
    15
100
AcDbLine
 10
1.699775782365628
 20
-6.367971730747559
 30
0.0
 11
2.461775782365627
 21
-5.60597173074756
 31
0.0
  0
LINE
  5
306
330
1F
100
AcDbEntity
  8
0
  6
Continuous
 62
     4
370
    15
100
AcDbLine
 10
1.699775935847587
 20
6.332028115770481
 30
0.0
 11
2.461775782365628
 21
5.570028269252441
 31
0.0
  0
LINE
  5
309
330
1F
100
AcDbEntity
  8
0
  6
Continuous
 62
     4
370
    15
100
AcDbLine
 10
1.699775782365628
 20
-6.367971730747559
 30
0.0
 11
1.699775935847587
 21
6.332028115770481
 31
0.0
  0
DIMENSION
  5
32C
102
{ACAD_REACTORS
102
}
102
{ACAD_XDICTIONARY
360
32D
102
}
330
1F
100
AcDbEntity
  8
치수문자_일반주서
100
AcDbDimension
  2
*D7
 10
2.461775782365635
 20
20.97002826925244
 30
0.0
 11
20.4849707883959
 21
20.97002826925244
 31
0.0
 70
   160
 71
     5
 42
34.92500014305116
  3
SLDDIMSTYLE0
100
AcDbAlignedDimension
 13
37.38677592541679
 23
6.332028115770479
 33
0.0
 14
2.461775782365635
 24
5.570028269252441
 34
0.0
100
AcDbRotatedDimension
1001
ACAD
1000
DSTYLE
1002
{
1070
   171
1070
     6
1070
   273
1070
     7
1002
}
1001
ENABLE_CUSTOM_SPLIT
1070
     1
1001
PE_URL
1000

  0
DIMENSION
  5
344
102
{ACAD_REACTORS
102
}
102
{ACAD_XDICTIONARY
360
345
102
}
330
1F
100
AcDbEntity
  8
치수문자_일반주서
100
AcDbDimension
  2
*D8
 10
-45.16322421763436
 20
28.23202811577048
 30
0.0
 11
-3.888224146108783
 21
30.85702811577048
 31
0.0
 70
    32
 71
     5
 42
82.55000014305115
  3
SLDDIMSTYLE0
100
AcDbAlignedDimension
 13
37.38677592541679
 23
6.332028115770479
 33
0.0
 14
-45.16322421763436
 24
5.832028033814094
 34
0.0
100
AcDbRotatedDimension
1001
ACAD
1000
DSTYLE
1002
{
1070
   171
1070
     6
1070
   273
1070
     7
1002
}
1001
ENABLE_CUSTOM_SPLIT
1070
     1
1001
PE_URL
1000

  0
ENDSEC
  0
SECTION
  2
OBJECTS
  0
DICTIONARY
  5
C
330
0
100
AcDbDictionary
281
     1
  3
ACAD_GROUP
350
D
  3
ACAD_IMAGE_VARS
350
2BA
  3
ACAD_LAYOUT
350
1A
  3
ACAD_MLINESTYLE
350
17
  3
ACAD_PLOTSETTINGS
350
19
  3
ACAD_PLOTSTYLENAME
350
E
  3
ACAD_SCALELIST
350
47
  3
APPDATA
350
2B8
  3
DWGPROPS
350
357
  0
DICTIONARY
  5
355
330
1F
100
AcDbDictionary
280
     1
281
     1
  3
DIM_BOUNDING_BOXES_V1
360
356
  0
DICTIONARY
  5
32D
330
32C
100
AcDbDictionary
280
     1
281
     1
  3
ACAD_CUSTOM_BREAKDATA
360
340
  0
DICTIONARY
  5
345
330
344
100
AcDbDictionary
280
     1
281
     1
  3
ACAD_CUSTOM_BREAKDATA
360
354
  0
DICTIONARY
  5
D
102
{ACAD_REACTORS
330
C
102
}
330
C
100
AcDbDictionary
281
     1
  0
RASTERVARIABLES
  5
2BA
102
{ACAD_REACTORS
330
C
102
}
330
C
100
AcDbRasterVariables
 90
        0
 70
     1
 71
     1
 72
     1
  0
DICTIONARY
  5
1A
102
{ACAD_REACTORS
330
C
102
}
330
C
100
AcDbDictionary
281
     1
  3
Layout1
350
1E
  3
Layout2
350
26
  3
Model
350
22
  0
DICTIONARY
  5
17
102
{ACAD_REACTORS
330
C
102
}
330
C
100
AcDbDictionary
281
     1
  3
Standard
350
18
  0
DICTIONARY
  5
19
102
{ACAD_REACTORS
330
C
102
}
330
C
100
AcDbDictionary
281
     1
  0
ACDBDICTIONARYWDFLT
  5
E
102
{ACAD_REACTORS
330
C
102
}
330
C
100
AcDbDictionary
281
     1
  3
Normal
350
F
100
AcDbDictionaryWithDefault
340
F
  0
DICTIONARY
  5
47
102
{ACAD_REACTORS
330
C
102
}
330
C
100
AcDbDictionary
281
     1
  3
A0
350
48
  3
A1
350
49
  3
A2
350
4A
  3
A3
350
4B
  3
A4
350
4C
  3
A5
350
4D
  3
A6
350
4E
  3
A7
350
4F
  3
A8
350
50
  3
A9
350
51
  3
B0
350
52
  3
B1
350
53
  3
B2
350
54
  3
B3
350
55
  3
B4
350
56
  3
B5
350
57
  3
B6
350
58
  3
B7
350
59
  3
B8
350
5A
  3
B9
350
5B
  3
C0
350
5C
  3
C1
350
5D
  3
C2
350
5E
  3
C3
350
5F
  3
C4
350
60
  3
C5
350
61
  3
C6
350
62
  3
C7
350
63
  3
C8
350
64
  3
C9
350
65
  3
D0
350
66
  3
D1
350
67
  3
D2
350
68
  0
DICTIONARY
  5
2B8
102
{ACAD_REACTORS
330
C
102
}
330
C
100
AcDbDictionary
281
     1
  0
XRECORD
  5
357
102
{ACAD_REACTORS
330
C
102
}
330
C
100
AcDbXrecord
280
     1
  1
DWGPROPS COOKIE
  2

  3

  4

  6

  7

  8
12014102
  9

300
=
301
=
302
=
303
=
304
=
305
=
306
=
307
=
308
=
309
=
 40
0.0
 41
2458270.406788044
 42
2459722.91670478
  1

 90
        0
  0
DICTIONARY
  5
356
102
{ACAD_REACTORS
330
355
102
}
330
355
100
AcDbDictionary
281
     1
  0
BREAKDATA
  5
340
102
{ACAD_REACTORS
330
32D
102
}
330
32D
100
AcDbBreakData
 70
     0
330
32C
 90
        0
  0
BREAKDATA
  5
354
102
{ACAD_REACTORS
330
345
102
}
330
345
100
AcDbBreakData
 70
     0
330
344
 90
        0
  0
LAYOUT
  5
1E
102
{ACAD_REACTORS
330
1A
102
}
330
1A
100
AcDbPlotSettings
  1

  2
none_device
  4

  6

 40
0.0
 41
0.0
 42
0.0
 43
0.0
 44
0.0
 45
0.0
 46
0.0
 47
0.0
 48
0.0
 49
0.0
140
0.0
141
0.0
142
1.0
143
1.0
 70
   688
 72
     1
 73
     0
 74
     5
  7

 75
    16
147
1.0
148
0.0
149
0.0
100
AcDbLayout
  1
Layout1
 70
     1
 71
     1
 10
0.0
 20
0.0
 11
420.0
 21
297.0
 12
0.0
 22
0.0
 32
0.0
 14
1.000000000000000E+20
 24
1.000000000000000E+20
 34
1.000000000000000E+20
 15
-1.000000000000000E+20
 25
-1.000000000000000E+20
 35
-1.000000000000000E+20
146
0.0
 13
0.0
 23
0.0
 33
0.0
 16
1.0
 26
0.0
 36
0.0
 17
0.0
 27
1.0
 37
0.0
 76
     0
330
1B
  0
LAYOUT
  5
26
102
{ACAD_REACTORS
330
1A
102
}
330
1A
100
AcDbPlotSettings
  1

  2
none_device
  4

  6

 40
0.0
 41
0.0
 42
0.0
 43
0.0
 44
0.0
 45
0.0
 46
0.0
 47
0.0
 48
0.0
 49
0.0
140
0.0
141
0.0
142
1.0
143
1.0
 70
   688
 72
     1
 73
     0
 74
     5
  7

 75
    16
147
1.0
148
0.0
149
0.0
100
AcDbLayout
  1
Layout2
 70
     1
 71
     2
 10
0.0
 20
0.0
 11
0.0
 21
0.0
 12
0.0
 22
0.0
 32
0.0
 14
0.0
 24
0.0
 34
0.0
 15
0.0
 25
0.0
 35
0.0
146
0.0
 13
0.0
 23
0.0
 33
0.0
 16
1.0
 26
0.0
 36
0.0
 17
0.0
 27
1.0
 37
0.0
 76
     0
330
23
  0
LAYOUT
  5
22
102
{ACAD_REACTORS
330
1A
102
}
330
1A
100
AcDbPlotSettings
  1

  2
none_device
  4
ANSI_A_(11.00_x_8.50_Inches)
  6

 40
6.35
 41
19.05
 42
6.35000508
 43
19.05000254
 44
279.4
 45
215.9
 46
154.1920544397954
 47
101.8331407099376
 48
0.0
 49
0.0
140
0.0
141
0.0
142
0.0800735294117647
143
1.0
 70
  1696
 72
     0
 73
     0
 74
     0
  7

 75
     0
147
0.0235690232323232
148
0.0
149
0.0
100
AcDbLayout
  1
Model
 70
     1
 71
     0
 10
0.0
 20
0.0
 11
420.0
 21
297.0
 12
0.0
 22
0.0
 32
0.0
 14
-63.31022080064086
 24
-49.97180738881174
 34
0.0
 15
55.1400080176001
 25
39.62352819251141
 35
0.0
146
0.0
 13
0.0
 23
0.0
 33
0.0
 16
1.0
 26
0.0
 36
0.0
 17
0.0
 27
1.0
 37
0.0
 76
     0
330
1F
331
29
  0
MLINESTYLE
  5
18
102
{ACAD_REACTORS
330
17
102
}
330
17
100
AcDbMlineStyle
  2
Standard
 70
     0
  3

 62
   256
 51
90.0
 52
90.0
 71
     2
 49
0.5
 62
   256
  6
BYLAYER
 49
-0.5
 62
   256
  6
BYLAYER
  0
ACDBPLACEHOLDER
  5
F
102
{ACAD_REACTORS
330
E
102
}
330
E
  0
SCALE
  5
48
102
{ACAD_REACTORS
330
47
102
}
330
47
100
AcDbScale
 70
     0
300
1:1
140
1.0
141
1.0
290
     1
  0
SCALE
  5
49
102
{ACAD_REACTORS
330
47
102
}
330
47
100
AcDbScale
 70
     0
300
1:2
140
1.0
141
2.0
290
     0
  0
SCALE
  5
4A
102
{ACAD_REACTORS
330
47
102
}
330
47
100
AcDbScale
 70
     0
300
1:4
140
1.0
141
4.0
290
     0
  0
SCALE
  5
4B
102
{ACAD_REACTORS
330
47
102
}
330
47
100
AcDbScale
 70
     0
300
1:5
140
1.0
141
5.0
290
     0
  0
SCALE
  5
4C
102
{ACAD_REACTORS
330
47
102
}
330
47
100
AcDbScale
 70
     0
300
1:8
140
1.0
141
8.0
290
     0
  0
SCALE
  5
4D
102
{ACAD_REACTORS
330
47
102
}
330
47
100
AcDbScale
 70
     0
300
1:10
140
1.0
141
10.0
290
     0
  0
SCALE
  5
4E
102
{ACAD_REACTORS
330
47
102
}
330
47
100
AcDbScale
 70
     0
300
1:16
140
1.0
141
16.0
290
     0
  0
SCALE
  5
4F
102
{ACAD_REACTORS
330
47
102
}
330
47
100
AcDbScale
 70
     0
300
1:20
140
1.0
141
20.0
290
     0
  0
SCALE
  5
50
102
{ACAD_REACTORS
330
47
102
}
330
47
100
AcDbScale
 70
     0
300
1:30
140
1.0
141
30.0
290
     0
  0
SCALE
  5
51
102
{ACAD_REACTORS
330
47
102
}
330
47
100
AcDbScale
 70
     0
300
1:40
140
1.0
141
40.0
290
     0
  0
SCALE
  5
52
102
{ACAD_REACTORS
330
47
102
}
330
47
100
AcDbScale
 70
     0
300
1:50
140
1.0
141
50.0
290
     0
  0
SCALE
  5
53
102
{ACAD_REACTORS
330
47
102
}
330
47
100
AcDbScale
 70
     0
300
1:100
140
1.0
141
100.0
290
     0
  0
SCALE
  5
54
102
{ACAD_REACTORS
330
47
102
}
330
47
100
AcDbScale
 70
     0
300
2:1
140
2.0
141
1.0
290
     0
  0
SCALE
  5
55
102
{ACAD_REACTORS
330
47
102
}
330
47
100
AcDbScale
 70
     0
300
4:1
140
4.0
141
1.0
290
     0
  0
SCALE
  5
56
102
{ACAD_REACTORS
330
47
102
}
330
47
100
AcDbScale
 70
     0
300
8:1
140
8.0
141
1.0
290
     0
  0
SCALE
  5
57
102
{ACAD_REACTORS
330
47
102
}
330
47
100
AcDbScale
 70
     0
300
10:1
140
10.0
141
1.0
290
     0
  0
SCALE
  5
58
102
{ACAD_REACTORS
330
47
102
}
330
47
100
AcDbScale
 70
     0
300
100:1
140
100.0
141
1.0
290
     0
  0
SCALE
  5
59
102
{ACAD_REACTORS
330
47
102
}
330
47
100
AcDbScale
 70
     0
300
1/128" = 1'-0"
140
0.0078125
141
12.0
290
     0
  0
SCALE
  5
5A
102
{ACAD_REACTORS
330
47
102
}
330
47
100
AcDbScale
 70
     0
300
1/64" = 1'-0"
140
0.015625
141
12.0
290
     0
  0
SCALE
  5
5B
102
{ACAD_REACTORS
330
47
102
}
330
47
100
AcDbScale
 70
     0
300
1/32" = 1'-0"
140
0.03125
141
12.0
290
     0
  0
SCALE
  5
5C
102
{ACAD_REACTORS
330
47
102
}
330
47
100
AcDbScale
 70
     0
300
1/16" = 1'-0"
140
0.0625
141
12.0
290
     0
  0
SCALE
  5
5D
102
{ACAD_REACTORS
330
47
102
}
330
47
100
AcDbScale
 70
     0
300
3/32" = 1'-0"
140
0.09375
141
12.0
290
     0
  0
SCALE
  5
5E
102
{ACAD_REACTORS
330
47
102
}
330
47
100
AcDbScale
 70
     0
300
1/8" = 1'-0"
140
0.125
141
12.0
290
     0
  0
SCALE
  5
5F
102
{ACAD_REACTORS
330
47
102
}
330
47
100
AcDbScale
 70
     0
300
3/16" = 1'-0"
140
0.1875
141
12.0
290
     0
  0
SCALE
  5
60
102
{ACAD_REACTORS
330
47
102
}
330
47
100
AcDbScale
 70
     0
300
1/4" = 1'-0"
140
0.25
141
12.0
290
     0
  0
SCALE
  5
61
102
{ACAD_REACTORS
330
47
102
}
330
47
100
AcDbScale
 70
     0
300
3/8" = 1'-0"
140
0.375
141
12.0
290
     0
  0
SCALE
  5
62
102
{ACAD_REACTORS
330
47
102
}
330
47
100
AcDbScale
 70
     0
300
1/2" = 1'-0"
140
0.5
141
12.0
290
     0
  0
SCALE
  5
63
102
{ACAD_REACTORS
330
47
102
}
330
47
100
AcDbScale
 70
     0
300
3/4" = 1'-0"
140
0.75
141
12.0
290
     0
  0
SCALE
  5
64
102
{ACAD_REACTORS
330
47
102
}
330
47
100
AcDbScale
 70
     0
300
1" = 1'-0"
140
1.0
141
12.0
290
     0
  0
SCALE
  5
65
102
{ACAD_REACTORS
330
47
102
}
330
47
100
AcDbScale
 70
     0
300
1-1/2" = 1'-0"
140
1.5
141
12.0
290
     0
  0
SCALE
  5
66
102
{ACAD_REACTORS
330
47
102
}
330
47
100
AcDbScale
 70
     0
300
3" = 1'-0"
140
3.0
141
12.0
290
     0
  0
SCALE
  5
67
102
{ACAD_REACTORS
330
47
102
}
330
47
100
AcDbScale
 70
     0
300
6" = 1'-0"
140
6.0
141
12.0
290
     0
  0
SCALE
  5
68
102
{ACAD_REACTORS
330
47
102
}
330
47
100
AcDbScale
 70
     0
300
1'-0" = 1'-0"
140
12.0
141
12.0
290
     0
  0
ENDSEC
  0
EOF
