  0
SECTION
  2
HEADER
  9
$ACADVER
  1
AC1015
  9
$ACADMAINTVER
 70
     6
  9
$DWGCODEPAGE
  3
ANSI_949
  9
$INSBASE
 10
0.0
 20
0.0
 30
0.0
  9
$EXTMIN
 10
-54.33784298459787
 20
-49.97180738881174
 30
0.0
  9
$EXTMAX
 10
52.55449193088917
 20
37.81727819251145
 30
0.0
  9
$LIMMIN
 10
0.0
 20
0.0
  9
$LIMMAX
 10
420.0
 20
297.0
  9
$ORTHOMODE
 70
     1
  9
$REGENMODE
 70
     1
  9
$FILLMODE
 70
     1
  9
$QTEXTMODE
 70
     0
  9
$MIRRTEXT
 70
     1
  9
$LTSCALE
 40
1.0
  9
$ATTMODE
 70
     1
  9
$TEXTSIZE
 40
3.5
  9
$TRACEWID
 40
1.0
  9
$TEXTSTYLE
  7
Standard
  9
$CLAYER
  8
0
  9
$CELTYPE
  6
ByLayer
  9
$CECOLOR
 62
   256
  9
$CELTSCALE
 40
1.0
  9
$DISPSILH
 70
     0
  9
$DIMSCALE
 40
1.0
  9
$DIMASZ
 40
3.302
  9
$DIMEXO
 40
1.0
  9
$DIMDLI
 40
3.75
  9
$DIMRND
 40
0.0
  9
$DIMDLE
 40
0.0
  9
$DIMEXE
 40
1.0
  9
$DIMTP
 40
0.0
  9
$DIMTM
 40
0.0
  9
$DIMTXT
 40
3.5
  9
$DIMCEN
 40
2.5
  9
$DIMTSZ
 40
0.0
  9
$DIMTOL
 70
     0
  9
$DIMLIM
 70
     0
  9
$DIMTIH
 70
     1
  9
$DIMTOH
 70
     1
  9
$DIMSE1
 70
     0
  9
$DIMSE2
 70
     0
  9
$DIMTAD
 70
     1
  9
$DIMZIN
 70
     0
  9
$DIMBLK
  1

  9
$DIMASO
 70
     1
  9
$DIMSHO
 70
     1
  9
$DIMPOST
  1

  9
$DIMAPOST
  1

  9
$DIMALT
 70
     0
  9
$DIMALTD
 70
     3
  9
$DIMALTF
 40
0.0393700787401575
  9
$DIMLFAC
 40
1.0
  9
$DIMTOFL
 70
     1
  9
$DIMTVP
 40
0.0
  9
$DIMTIX
 70
     0
  9
$DIMSOXD
 70
     0
  9
$DIMSAH
 70
     0
  9
$DIMBLK1
  1

  9
$DIMBLK2
  1

  9
$DIMSTYLE
  2
ISO-25
  9
$DIMCLRD
 70
     0
  9
$DIMCLRE
 70
     0
  9
$DIMCLRT
 70
     0
  9
$DIMTFAC
 40
1.0
  9
$DIMGAP
 40
1.524
  9
$DIMJUST
 70
     0
  9
$DIMSD1
 70
     0
  9
$DIMSD2
 70
     0
  9
$DIMTOLJ
 70
     0
  9
$DIMTZIN
 70
     0
  9
$DIMALTZ
 70
     0
  9
$DIMALTTZ
 70
     0
  9
$DIMUPT
 70
     0
  9
$DIMDEC
 70
     2
  9
$DIMTDEC
 70
     2
  9
$DIMALTU
 70
     2
  9
$DIMALTTD
 70
     3
  9
$DIMTXSTY
  7
Standard
  9
$DIMAUNIT
 70
     0
  9
$DIMADEC
 70
     2
  9
$DIMALTRND
 40
0.0
  9
$DIMAZIN
 70
     0
  9
$DIMDSEP
 70
    44
  9
$DIMATFIT
 70
     3
  9
$DIMFRAC
 70
     0
  9
$DIMLDRBLK
  1

  9
$DIMLUNIT
 70
     2
  9
$DIMLWD
 70
    -2
  9
$DIMLWE
 70
    -2
  9
$DIMTMOVE
 70
     0
  9
$LUNITS
 70
     2
  9
$LUPREC
 70
     2
  9
$SKETCHINC
 40
1.0
  9
$FILLETRAD
 40
10.0
  9
$AUNITS
 70
     0
  9
$AUPREC
 70
     2
  9
$MENU
  1
.
  9
$ELEVATION
 40
0.0
  9
$PELEVATION
 40
0.0
  9
$THICKNESS
 40
0.0
  9
$LIMCHECK
 70
     0
  9
$CHAMFERA
 40
0.0
  9
$CHAMFERB
 40
0.0
  9
$CHAMFERC
 40
0.0
  9
$CHAMFERD
 40
0.0
  9
$SKPOLY
 70
     0
  9
$TDCREATE
 40
2458270.781574271
  9
$TDUCREATE
 40
2458270.406574271
  9
$TDUPDATE
 40
2459723.29402456
  9
$TDUUPDATE
 40
2459722.91902456
  9
$TDINDWG
 40
0.0057214583
  9
$TDUSRTIMER
 40
0.002313669
  9
$USRTIMER
 70
     1
  9
$ANGBASE
 50
0.0
  9
$ANGDIR
 70
     0
  9
$PDMODE
 70
     0
  9
$PDSIZE
 40
-1.0
  9
$PLINEWID
 40
0.0
  9
$SPLFRAME
 70
     0
  9
$SPLINETYPE
 70
     6
  9
$SPLINESEGS
 70
     8
  9
$HANDSEED
  5
31D
  9
$SURFTAB1
 70
     6
  9
$SURFTAB2
 70
     6
  9
$SURFTYPE
 70
     6
  9
$SURFU
 70
     6
  9
$SURFV
 70
     6
  9
$UCSBASE
  2

  9
$UCSNAME
  2

  9
$UCSORG
 10
0.0
 20
0.0
 30
0.0
  9
$UCSXDIR
 10
1.0
 20
0.0
 30
0.0
  9
$UCSYDIR
 10
0.0
 20
1.0
 30
0.0
  9
$UCSORTHOREF
  2

  9
$UCSORTHOVIEW
 70
     0
  9
$UCSORGTOP
 10
0.0
 20
0.0
 30
0.0
  9
$UCSORGBOTTOM
 10
0.0
 20
0.0
 30
0.0
  9
$UCSORGLEFT
 10
0.0
 20
0.0
 30
0.0
  9
$UCSORGRIGHT
 10
0.0
 20
0.0
 30
0.0
  9
$UCSORGFRONT
 10
0.0
 20
0.0
 30
0.0
  9
$UCSORGBACK
 10
0.0
 20
0.0
 30
0.0
  9
$PUCSBASE
  2

  9
$PUCSNAME
  2

  9
$PUCSORG
 10
0.0
 20
0.0
 30
0.0
  9
$PUCSXDIR
 10
1.0
 20
0.0
 30
0.0
  9
$PUCSYDIR
 10
0.0
 20
1.0
 30
0.0
  9
$PUCSORTHOREF
  2

  9
$PUCSORTHOVIEW
 70
     0
  9
$PUCSORGTOP
 10
0.0
 20
0.0
 30
0.0
  9
$PUCSORGBOTTOM
 10
0.0
 20
0.0
 30
0.0
  9
$PUCSORGLEFT
 10
0.0
 20
0.0
 30
0.0
  9
$PUCSORGRIGHT
 10
0.0
 20
0.0
 30
0.0
  9
$PUCSORGFRONT
 10
0.0
 20
0.0
 30
0.0
  9
$PUCSORGBACK
 10
0.0
 20
0.0
 30
0.0
  9
$USERI1
 70
     0
  9
$USERI2
 70
     0
  9
$USERI3
 70
     0
  9
$USERI4
 70
     0
  9
$USERI5
 70
     0
  9
$USERR1
 40
0.0
  9
$USERR2
 40
0.0
  9
$USERR3
 40
0.0
  9
$USERR4
 40
0.0
  9
$USERR5
 40
0.0
  9
$WORLDVIEW
 70
     1
  9
$SHADEDGE
 70
     3
  9
$SHADEDIF
 70
    70
  9
$TILEMODE
 70
     1
  9
$MAXACTVP
 70
    64
  9
$PINSBASE
 10
0.0
 20
0.0
 30
0.0
  9
$PLIMCHECK
 70
     0
  9
$PEXTMIN
 10
1.000000000000000E+20
 20
1.000000000000000E+20
 30
1.000000000000000E+20
  9
$PEXTMAX
 10
-1.000000000000000E+20
 20
-1.000000000000000E+20
 30
-1.000000000000000E+20
  9
$PLIMMIN
 10
0.0
 20
0.0
  9
$PLIMMAX
 10
0.0
 20
0.0
  9
$UNITMODE
 70
     0
  9
$VISRETAIN
 70
     1
  9
$PLINEGEN
 70
     0
  9
$PSLTSCALE
 70
     1
  9
$TREEDEPTH
 70
  3020
  9
$CMLSTYLE
  2
Standard
  9
$CMLJUST
 70
     0
  9
$CMLSCALE
 40
20.0
  9
$PROXYGRAPHICS
 70
     1
  9
$MEASUREMENT
 70
     1
  9
$CELWEIGHT
370
    -1
  9
$ENDCAPS
280
     0
  9
$JOINSTYLE
280
     0
  9
$LWDISPLAY
290
     1
  9
$INSUNITS
 70
     4
  9
$HYPERLINKBASE
  1

  9
$STYLESHEET
  1

  9
$XEDIT
290
     1
  9
$CEPSNTYPE
380
     0
  9
$PSTYLEMODE
290
     1
  9
$FINGERPRINTGUID
  2
{4A5A833B-6645-45EF-BAE4-8317EDD7C178}
  9
$VERSIONGUID
  2
{FAEB1C32-E019-11D5-929B-00C0DF256EC4}
  9
$EXTNAMES
290
     1
  9
$PSVPSCALE
 40
0.0
  9
$OLESTARTUP
290
     0
  0
ENDSEC
  0
SECTION
  2
CLASSES
  0
CLASS
  1
ACDBDICTIONARYWDFLT
  2
AcDbDictionaryWithDefault
  3
ObjectDBX Classes
 90
        0
280
     0
281
     0
  0
CLASS
  1
VISUALSTYLE
  2
AcDbVisualStyle
  3
ObjectDBX Classes
 90
     4095
280
     0
281
     0
  0
CLASS
  1
MATERIAL
  2
AcDbMaterial
  3
ObjectDBX Classes
 90
     1153
280
     0
281
     0
  0
CLASS
  1
SCALE
  2
AcDbScale
  3
ObjectDBX Classes
 90
     1153
280
     0
281
     0
  0
CLASS
  1
SUN
  2
AcDbSun
  3
SCENEOE
 90
     1153
280
     0
281
     0
  0
CLASS
  1
ACDBPLACEHOLDER
  2
AcDbPlaceHolder
  3
ObjectDBX Classes
 90
        0
280
     0
281
     0
  0
CLASS
  1
LAYOUT
  2
AcDbLayout
  3
ObjectDBX Classes
 90
        0
280
     0
281
     0
  0
CLASS
  1
TABLESTYLE
  2
AcDbTableStyle
  3
ObjectDBX Classes
 90
     4095
280
     0
281
     0
  0
CLASS
  1
MLEADERSTYLE
  2
AcDbMLeaderStyle
  3
ACDB_MLEADERSTYLE_CLASS
 90
     4095
280
     0
281
     0
  0
CLASS
  1
RASTERVARIABLES
  2
AcDbRasterVariables
  3
ISM
 90
        0
280
     0
281
     0
  0
CLASS
  1
DIMASSOC
  2
AcDbDimAssoc
  3
"AcDbDimAssoc|Product Desc:     AcDim ARX App For Dimension|Company:          Autodesk, Inc.|WEB Address:      www.autodesk.com"
 90
        0
280
     0
281
     0
  0
CLASS
  1
DICTIONARYVAR
  2
AcDbDictionaryVar
  3
ObjectDBX Classes
 90
        0
280
     0
281
     0
  0
CLASS
  1
BREAKDATA
  2
AcDbBreakData
  3
ObjectDBX Classes
 90
     1024
280
     0
281
     0
  0
ENDSEC
  0
SECTION
  2
TABLES
  0
TABLE
  2
VPORT
  5
8
330
0
100
AcDbSymbolTable
 70
     1
  0
VPORT
  5
29
330
8
100
AcDbSymbolTableRecord
100
AcDbViewportTableRecord
  2
*Active
 70
     0
 10
0.0
 20
0.0
 11
1.0
 21
1.0
 12
-0.8916755268543426
 22
-6.077264598150144
 13
0.0
 23
0.0
 14
10.0
 24
10.0
 15
10.0
 25
10.0
 16
0.0
 26
0.0
 36
1.0
 17
0.0
 27
0.0
 37
0.0
 40
89.54486729294966
 41
1.913499344692005
 42
50.0
 43
0.0
 44
0.0
 50
0.0
 51
0.0
 71
    16
 72
  2000
 73
     1
 74
     3
 75
     0
 76
     0
 77
     0
 78
     0
281
     0
 65
     1
110
0.0
120
0.0
130
0.0
111
1.0
121
0.0
131
0.0
112
0.0
122
1.0
132
0.0
 79
     0
146
0.0
  0
ENDTAB
  0
TABLE
  2
LTYPE
  5
5
330
0
100
AcDbSymbolTable
 70
     6
  0
LTYPE
  5
14
330
5
100
AcDbSymbolTableRecord
100
AcDbLinetypeTableRecord
  2
ByBlock
 70
     0
  3

 72
    65
 73
     0
 40
0.0
  0
LTYPE
  5
15
330
5
100
AcDbSymbolTableRecord
100
AcDbLinetypeTableRecord
  2
ByLayer
 70
     0
  3

 72
    65
 73
     0
 40
0.0
  0
LTYPE
  5
16
330
5
100
AcDbSymbolTableRecord
100
AcDbLinetypeTableRecord
  2
Continuous
 70
     0
  3
Solid line
 72
    65
 73
     0
 40
0.0
  0
LTYPE
  5
6A
330
5
100
AcDbSymbolTableRecord
100
AcDbLinetypeTableRecord
  2
HIDDEN
 70
     0
  3
Hidden __ __ __ __ __ __ __ __ __ __ __ __ __ __
 72
    65
 73
     2
 40
1.905
 49
1.27
 74
     0
 49
-0.635
 74
     0
  0
LTYPE
  5
6B
330
5
100
AcDbSymbolTableRecord
100
AcDbLinetypeTableRecord
  2
PHANTOM
 70
     0
  3
Phantom ______  __  __  ______  __  __  ______
 72
    65
 73
     6
 40
12.7
 49
6.35
 74
     0
 49
-1.27
 74
     0
 49
1.27
 74
     0
 49
-1.27
 74
     0
 49
1.27
 74
     0
 49
-1.27
 74
     0
  0
LTYPE
  5
6C
330
5
100
AcDbSymbolTableRecord
100
AcDbLinetypeTableRecord
  2
CENTER
 70
     0
  3
Center ____ _ ____ _ ____ _ ____ _ ____ _ ____
 72
    65
 73
     4
 40
10.16
 49
6.35
 74
     0
 49
-1.27
 74
     0
 49
1.27
 74
     0
 49
-1.27
 74
     0
  0
LTYPE
  5
6D
330
5
100
AcDbSymbolTableRecord
100
AcDbLinetypeTableRecord
  2
CENTERX2
 70
     0
  3
Center (2x) ________  __  ________  __  _____
 72
    65
 73
     4
 40
20.32
 49
12.7
 74
     0
 49
-2.54
 74
     0
 49
2.54
 74
     0
 49
-2.54
 74
     0
  0
LTYPE
  5
6E
330
5
100
AcDbSymbolTableRecord
100
AcDbLinetypeTableRecord
  2
DOT2
 70
     0
  3
Dot (.5x) ........................................
 72
    65
 73
     2
 40
0.635
 49
0.0
 74
     0
 49
-0.635
 74
     0
  0
ENDTAB
  0
TABLE
  2
LAYER
  5
2
330
0
100
AcDbSymbolTable
 70
    17
  0
LAYER
  5
10
330
2
100
AcDbSymbolTableRecord
100
AcDbLayerTableRecord
  2
0
 70
     0
 62
     7
  6
Continuous
370
    -3
390
F
  0
LAYER
  5
6F
330
2
100
AcDbSymbolTableRecord
100
AcDbLayerTableRecord
  2
FORMAT
 70
     0
 62
     2
  6
Continuous
370
    -3
390
F
  0
LAYER
  5
70
330
2
100
AcDbSymbolTableRecord
100
AcDbLayerTableRecord
  2
외형선
 70
     0
 62
   100
  6
Continuous
370
    30
390
F
  0
LAYER
  5
71
330
2
100
AcDbSymbolTableRecord
100
AcDbLayerTableRecord
  2
숨은선
 70
     0
 62
     2
  6
HIDDEN
370
    15
390
F
  0
LAYER
  5
72
330
2
100
AcDbSymbolTableRecord
100
AcDbLayerTableRecord
  2
중심선
 70
     0
 62
     1
  6
CENTERX2
370
    -3
390
F
  0
LAYER
  5
73
330
2
100
AcDbSymbolTableRecord
100
AcDbLayerTableRecord
  2
파단선
 70
     0
 62
     4
  6
Continuous
370
    -3
390
F
  0
LAYER
  5
74
330
2
100
AcDbSymbolTableRecord
100
AcDbLayerTableRecord
  2
해칭선
 70
     0
 62
     4
  6
Continuous
370
    -3
390
F
  0
LAYER
  5
75
330
2
100
AcDbSymbolTableRecord
100
AcDbLayerTableRecord
  2
가는실선
 70
     0
 62
     4
  6
Continuous
370
    -3
390
F
  0
LAYER
  5
76
330
2
100
AcDbSymbolTableRecord
100
AcDbLayerTableRecord
  2
치수_보조선
 70
     0
 62
     4
  6
Continuous
370
    -3
390
F
  0
LAYER
  5
77
330
2
100
AcDbSymbolTableRecord
100
AcDbLayerTableRecord
  2
치수문자_일반주서
 70
     0
 62
     7
  6
Continuous
370
    15
390
F
  0
LAYER
  5
78
330
2
100
AcDbSymbolTableRecord
100
AcDbLayerTableRecord
  2
개별주서
 70
     0
 62
   100
  6
Continuous
370
    30
390
F
  0
LAYER
  5
79
330
2
100
AcDbSymbolTableRecord
100
AcDbLayerTableRecord
  2
중간선
 70
     0
 62
     2
  6
Continuous
370
    15
390
F
  0
LAYER
  5
7A
330
2
100
AcDbSymbolTableRecord
100
AcDbLayerTableRecord
  2
윤곽선
 70
     0
 62
     3
  6
Continuous
370
    40
390
F
  0
LAYER
  5
7B
330
2
100
AcDbSymbolTableRecord
100
AcDbLayerTableRecord
  2
중심마크
 70
     0
 62
   100
  6
Continuous
370
    30
390
F
  0
LAYER
  5
7C
330
2
100
AcDbSymbolTableRecord
100
AcDbLayerTableRecord
  2
가상선
 70
     0
 62
     4
  6
PHANTOM
370
    -3
390
F
  0
LAYER
  5
7D
330
2
100
AcDbSymbolTableRecord
100
AcDbLayerTableRecord
  2
특수지정선
 70
     0
 62
     5
  6
CENTERX2
370
    60
390
F
  0
LAYER
  5
285
330
2
100
AcDbSymbolTableRecord
100
AcDbLayerTableRecord
  2
Defpoints
 70
     0
 62
     7
  6
Continuous
290
     0
370
    -3
390
F
  0
ENDTAB
  0
TABLE
  2
STYLE
  5
3
330
0
100
AcDbSymbolTable
 70
     2
  0
STYLE
  5
11
330
3
100
AcDbSymbolTableRecord
100
AcDbTextStyleTableRecord
  2
Standard
 70
     0
 40
0.0
 41
1.0
 50
0.0
 71
     0
 42
3.5
  3
txt
  4

  0
STYLE
  5
93
330
3
100
AcDbSymbolTableRecord
100
AcDbTextStyleTableRecord
  2
SLDTEXTSTYLE0
 70
     0
 40
0.0
 41
0.75
 50
0.0
 71
     0
 42
3.5
  3
TXT
  4

  0
ENDTAB
  0
TABLE
  2
VIEW
  5
6
330
0
100
AcDbSymbolTable
 70
     0
  0
ENDTAB
  0
TABLE
  2
UCS
  5
7
330
0
100
AcDbSymbolTable
 70
     0
  0
ENDTAB
  0
TABLE
  2
APPID
  5
9
330
0
100
AcDbSymbolTable
 70
     4
  0
APPID
  5
12
330
9
100
AcDbSymbolTableRecord
100
AcDbRegAppTableRecord
  2
ACAD
 70
     0
  0
APPID
  5
29C
330
9
100
AcDbSymbolTableRecord
100
AcDbRegAppTableRecord
  2
PE_DIMMEASUREMENT
 70
     0
  0
APPID
  5
30E
330
9
100
AcDbSymbolTableRecord
100
AcDbRegAppTableRecord
  2
ENABLE_CUSTOM_SPLIT
 70
     0
  0
APPID
  5
30F
330
9
100
AcDbSymbolTableRecord
100
AcDbRegAppTableRecord
  2
PE_URL
 70
     0
  0
ENDTAB
  0
TABLE
  2
DIMSTYLE
  5
A
330
0
100
AcDbSymbolTable
 70
     3
100
AcDbDimStyleTable
  0
DIMSTYLE
105
27
330
A
100
AcDbSymbolTableRecord
100
AcDbDimStyleTableRecord
  2
ISO-25
 70
     0
 41
2.5
 42
0.625
 43
3.75
 44
1.25
 73
     0
 74
     0
 77
     1
 78
     8
140
2.5
141
2.5
143
0.03937007874016
147
0.625
171
     3
172
     1
178
     0
271
     2
272
     2
274
     3
278
    44
283
     0
284
     8
340
11
  0
DIMSTYLE
105
21B
102
{ACAD_REACTORS
330
21A
330
244
330
289
330
2FD
102
}
330
A
100
AcDbSymbolTableRecord
100
AcDbDimStyleTableRecord
  2
SLDDIMSTYLE0
 70
     0
 41
3.302
 44
0.0
 45
0.000000001
 73
     0
 74
     0
 77
     1
 78
    12
 79
     3
140
3.5
143
0.0393700787401575
147
0.875
148
0.000000001
170
     1
172
     1
173
     1
178
     0
271
     2
272
     2
276
     2
284
    12
289
     0
340
93
  0
DIMSTYLE
105
231
102
{ACAD_REACTORS
330
230
102
}
330
A
100
AcDbSymbolTableRecord
100
AcDbDimStyleTableRecord
  2
SLDDIMSTYLE1
 70
     0
 41
3.302
 44
0.0
 45
0.000000001
 73
     0
 74
     0
 77
     1
 78
     4
 79
     1
140
3.5
143
0.0393700787401575
147
0.875
148
0.000000001
170
     1
173
     1
178
     0
271
     2
272
     2
276
     2
284
    12
340
93
  0
ENDTAB
  0
TABLE
  2
BLOCK_RECORD
  5
1
330
0
100
AcDbSymbolTable
 70
     8
  0
BLOCK_RECORD
  5
1F
102
{ACAD_XDICTIONARY
360
31A
102
}
330
1
100
AcDbSymbolTableRecord
100
AcDbBlockTableRecord
  2
*Model_Space
340
22
  0
BLOCK_RECORD
  5
1B
330
1
100
AcDbSymbolTableRecord
100
AcDbBlockTableRecord
  2
*Paper_Space
340
1E
  0
BLOCK_RECORD
  5
23
330
1
100
AcDbSymbolTableRecord
100
AcDbBlockTableRecord
  2
*Paper_Space0
340
26
  0
BLOCK_RECORD
  5
7E
330
1
100
AcDbSymbolTableRecord
100
AcDbBlockTableRecord
  2
블럭10
340
0
102
{BLKREFS
331
212
102
}
  0
BLOCK_RECORD
  5
21C
330
1
100
AcDbSymbolTableRecord
100
AcDbBlockTableRecord
  2
_D
340
0
  0
BLOCK_RECORD
  5
232
330
1
100
AcDbSymbolTableRecord
100
AcDbBlockTableRecord
  2
_D_1
340
0
  0
BLOCK_RECORD
  5
245
330
1
100
AcDbSymbolTableRecord
100
AcDbBlockTableRecord
  2
_D_2
340
0
  0
BLOCK_RECORD
  5
258
330
1
100
AcDbSymbolTableRecord
100
AcDbBlockTableRecord
  2
SW_DOWELSYMBOL_0
340
0
102
{BLKREFS
331
25E
102
}
  0
BLOCK_RECORD
  5
28C
330
1
100
AcDbSymbolTableRecord
100
AcDbBlockTableRecord
  2
*D6
340
0
  0
BLOCK_RECORD
  5
300
330
1
100
AcDbSymbolTableRecord
100
AcDbBlockTableRecord
  2
*D7
340
0
  0
ENDTAB
  0
ENDSEC
  0
SECTION
  2
BLOCKS
  0
BLOCK
  5
20
330
1F
100
AcDbEntity
  8
0
100
AcDbBlockBegin
  2
*Model_Space
 70
     0
 10
0.0
 20
0.0
 30
0.0
  3
*Model_Space
  1
*Model_Space
  0
ENDBLK
  5
21
330
1F
100
AcDbEntity
  8
0
100
AcDbBlockEnd
  0
BLOCK
  5
1C
330
1B
100
AcDbEntity
 67
     1
  8
0
100
AcDbBlockBegin
  2
*Paper_Space
 70
     0
 10
0.0
 20
0.0
 30
0.0
  3
*Paper_Space
  1
*Paper_Space
  0
ENDBLK
  5
1D
330
1B
100
AcDbEntity
 67
     1
  8
0
100
AcDbBlockEnd
  0
BLOCK
  5
24
330
23
100
AcDbEntity
  8
0
100
AcDbBlockBegin
  2
*Paper_Space0
 70
     0
 10
0.0
 20
0.0
 30
0.0
  3
*Paper_Space0
  1
*Paper_Space0
  0
ENDBLK
  5
25
330
23
100
AcDbEntity
  8
0
100
AcDbBlockEnd
  0
BLOCK
  5
7F
330
7E
100
AcDbEntity
  8
0
100
AcDbBlockBegin
  2
블럭10
 70
     2
 10
0.0
 20
0.0
 30
0.0
  3
블럭10
  1
블럭10
  0
ELLIPSE
  5
81
330
7E
100
AcDbEntity
  8
중심선
100
AcDbEllipse
 10
20.54032771741204
 20
12.0471743016438
 30
0.0
 11
6.600054785286829
 21
-1.261213355974178E-13
 31
0.0
210
0.0
220
0.0
230
1.0
 40
0.636358354079598
 41
0.9219305317359503
 42
6.513795318482858
  0
ELLIPSE
  5
82
330
7E
100
AcDbEntity
  8
중심선
100
AcDbEllipse
 10
20.54032771746488
 20
12.04717430159265
 30
0.0
 11
3.960054785062283
 21
1.540847449632565E-10
 31
0.0
210
0.0
220
0.0
230
1.0
 40
0.3939339440162632
 41
1.131841032648279
 42
5.62031148352944
  0
LINE
  5
83
330
7E
100
AcDbEntity
  8
중심선
100
AcDbLine
 10
2.268634060543552
 20
16.24717430164393
 30
0.0
 11
5.714909304380834
 21
16.24717430164393
 31
0.0
  0
LINE
  5
84
330
7E
100
AcDbEntity
  8
중심선
100
AcDbLine
 10
5.245725140726316
 20
7.84717430164391
 30
0.0
 11
8.692000384563599
 21
7.84717430164391
 31
0.0
  0
LINE
  5
85
330
7E
100
AcDbEntity
  8
중심선
100
AcDbLine
 10
15.74043728645272
 20
16.24717430164393
 30
0.0
 11
8.692000384563599
 21
7.84717430164391
 31
0.0
  0
LINE
  5
86
330
7E
100
AcDbEntity
  8
중심선
100
AcDbLine
 10
0.1404042013395286
 20
13.71084872107135
 30
0.0
 11
3.58671253028996
 21
13.71088815037384
 31
0.0
  0
LINE
  5
87
330
7E
100
AcDbEntity
  8
중심선
100
AcDbLine
 10
2.750260043222114
 20
10.84717430164391
 30
0.0
 11
6.196535287059397
 21
10.84717430164391
 31
0.0
  0
LINE
  5
88
330
7E
100
AcDbEntity
  8
중심선
100
AcDbLine
 10
12.29416204261559
 20
16.24717430164393
 30
0.0
 11
5.245725140726316
 21
7.84717430164391
 31
0.0
  0
LINE
  5
89
330
7E
100
AcDbEntity
  8
중심선
100
AcDbLine
 10
10.72767329541681
 20
16.24717430164393
 30
0.0
 11
6.196535287059397
 21
10.84717430164391
 31
0.0
  0
LINE
  5
8A
330
7E
100
AcDbEntity
  8
중심선
100
AcDbLine
 10
7.28139805157953
 20
16.24717430164393
 30
0.0
 11
2.750260043222114
 21
10.84717430164391
 31
0.0
  0
LINE
  5
8B
330
7E
100
AcDbEntity
  8
중심선
100
AcDbLine
 10
5.714909304380834
 20
16.24717430164393
 30
0.0
 11
3.58671253028996
 21
13.71088815037384
 31
0.0
  0
LINE
  5
8C
330
7E
100
AcDbEntity
  8
중심선
100
AcDbLine
 10
2.268634060543552
 20
16.24717430164393
 30
0.0
 11
0.1404042013395286
 21
13.71084872107135
 31
0.0
  0
LINE
  5
8D
330
7E
100
AcDbEntity
  8
중심선
100
AcDbLine
 10
7.28139805157953
 20
16.24717430164393
 30
0.0
 11
10.72767329541681
 21
16.24717430164393
 31
0.0
  0
LINE
  5
8E
330
7E
100
AcDbEntity
  8
중심선
100
AcDbLine
 10
12.29416204261559
 20
16.24717430164393
 30
0.0
 11
15.74043728645272
 21
16.24717430164393
 31
0.0
  0
LINE
  5
8F
330
7E
100
AcDbEntity
  8
중심선
100
AcDbLine
 10
19.22036997980202
 20
11.08717430171403
 30
0.0
 11
23.66174974927406
 21
11.08717430171406
 31
0.0
  0
LINE
  5
90
330
7E
100
AcDbEntity
  8
중심선
100
AcDbLine
 10
19.22039502424796
 20
13.00717430171391
 30
0.0
 11
19.22036997980202
 21
11.08717430171403
 31
0.0
  0
LINE
  5
91
330
7E
100
AcDbEntity
  8
중심선
100
AcDbLine
 10
19.22039502424796
 20
13.00717430171391
 30
0.0
 11
26.96566020931264
 21
13.00717430171391
 31
0.0
  0
LINE
  5
92
330
7E
100
AcDbEntity
  8
중심선
100
AcDbLine
 10
22.22332737316547
 20
13.45928029700563
 30
0.0
 11
24.52862924686651
 21
15.39360700705356
 31
0.0
  0
ATTDEF
  5
94
330
7E
100
AcDbEntity
  8
FORMAT
 62
     2
100
AcDbText
 10
-9.067621780574013
 20
2.075366912832191
 30
0.0
 40
4.233333333333333
  1
E5E44024 [ 3 FLUTE ]
 41
0.75
  7
SLDTEXTSTYLE0
 11
-9.067621780574013
 21
-0.0412997538344756
 31
0.0
100
AcDbAttributeDefinition
  3

  2
AUTOATTR0
 70
     0
 74
     1
  0
ENDBLK
  5
80
330
7E
100
AcDbEntity
  8
0
100
AcDbBlockEnd
  0
BLOCK
  5
21D
330
21C
100
AcDbEntity
  8
0
100
AcDbBlockBegin
  2
_D
 70
     0
 10
0.0
 20
0.0
 30
0.0
  3
_D
  1
_D
  0
LINE
  5
21F
330
21C
100
AcDbEntity
  8
치수문자_일반주서
 62
     0
370
    -2
100
AcDbLine
 10
32.13715701540224
 20
4.807028192511457
 30
0.0
 11
32.13715701540224
 21
12.60433160867749
 31
0.0
  0
LINE
  5
220
330
21C
100
AcDbEntity
  8
치수문자_일반주서
 62
     0
370
    -2
100
AcDbLine
 10
9.912157015402233
 20
-0.4737781789878451
 30
0.0
 11
9.912157015402233
 21
12.60433160867749
 31
0.0
  0
LINE
  5
221
330
21C
100
AcDbEntity
  8
치수문자_일반주서
 62
     0
370
    -2
100
AcDbLine
 10
28.83515701540224
 20
12.60433160867749
 30
0.0
 11
13.21415701540223
 21
12.60433160867749
 31
0.0
  0
SOLID
  5
222
330
21C
100
AcDbEntity
  8
치수문자_일반주서
 62
     0
100
AcDbTrace
 10
28.83515701540224
 20
12.05399827534415
 30
0.0
 11
28.83515701540224
 21
13.15466494201082
 31
0.0
 12
32.13715701540224
 22
12.60433160867749
 32
0.0
 13
32.13715701540224
 23
12.60433160867749
 33
0.0
  0
SOLID
  5
223
330
21C
100
AcDbEntity
  8
치수문자_일반주서
 62
     0
100
AcDbTrace
 10
13.21415701540223
 20
13.15466494201082
 30
0.0
 11
13.21415701540223
 21
12.05399827534415
 31
0.0
 12
9.912157015402233
 22
12.60433160867749
 32
0.0
 13
9.912157015402233
 23
12.60433160867749
 33
0.0
  0
MTEXT
  5
224
330
21C
100
AcDbEntity
  8
치수문자_일반주서
 62
     0
100
AcDbMText
 10
19.43715701540222
 20
16.97933160867749
 30
0.0
 40
3.5
 41
0.0
 71
     2
 72
     1
  1
\A1;22.23 [7/8]
  7
SLDTEXTSTYLE0
 73
     1
 44
1.0
  0
POINT
  5
225
330
21C
100
AcDbEntity
  8
Defpoints
 62
     0
100
AcDbPoint
 10
32.13715701540224
 20
4.744528192511457
 30
0.0
  0
POINT
  5
226
330
21C
100
AcDbEntity
  8
Defpoints
 62
     0
100
AcDbPoint
 10
9.912157015402233
 20
-0.5362781789878451
 30
0.0
  0
POINT
  5
227
330
21C
100
AcDbEntity
  8
Defpoints
 62
     0
100
AcDbPoint
 10
9.912157015402233
 20
12.60433160867749
 30
0.0
  0
ENDBLK
  5
21E
330
21C
100
AcDbEntity
  8
0
100
AcDbBlockEnd
  0
BLOCK
  5
233
330
232
100
AcDbEntity
  8
0
100
AcDbBlockBegin
  2
_D_1
 70
     0
 10
0.0
 20
0.0
 30
0.0
  3
_D_1
  1
_D_1
  0
LINE
  5
235
330
232
100
AcDbEntity
  8
치수문자_일반주서
 62
     0
370
    -2
100
AcDbLine
 10
32.13715701540224
 20
4.586029107165221
 30
0.0
 11
32.13715701540224
 21
25.92406067554435
 31
0.0
  0
LINE
  5
236
330
232
100
AcDbEntity
  8
치수문자_일반주서
 62
     0
370
    -2
100
AcDbLine
 10
-44.06284298459776
 20
4.307028192511453
 30
0.0
 11
-44.06284298459776
 21
25.92406067554435
 31
0.0
  0
LINE
  5
237
330
232
100
AcDbEntity
  8
치수문자_일반주서
 62
     0
370
    -2
100
AcDbLine
 10
28.83515701540224
 20
25.92406067554435
 30
0.0
 11
-40.76084298459777
 21
25.92406067554435
 31
0.0
  0
SOLID
  5
238
330
232
100
AcDbEntity
  8
치수문자_일반주서
 62
     0
100
AcDbTrace
 10
28.83515701540224
 20
25.37372734221102
 30
0.0
 11
28.83515701540224
 21
26.47439400887768
 31
0.0
 12
32.13715701540224
 22
25.92406067554435
 32
0.0
 13
32.13715701540224
 23
25.92406067554435
 33
0.0
  0
SOLID
  5
239
330
232
100
AcDbEntity
  8
치수문자_일반주서
 62
     0
100
AcDbTrace
 10
-40.76084298459777
 20
26.47439400887768
 30
0.0
 11
-40.76084298459777
 21
25.37372734221102
 31
0.0
 12
-44.06284298459776
 22
25.92406067554435
 32
0.0
 13
-44.06284298459776
 23
25.92406067554435
 33
0.0
  0
MTEXT
  5
23A
330
232
100
AcDbEntity
  8
치수문자_일반주서
 62
     0
100
AcDbMText
 10
-10.63654905626058
 20
30.29906067554435
 30
0.0
 40
3.5
 41
0.0
 71
     2
 72
     1
  1
\A1;76.20 [3]
  7
SLDTEXTSTYLE0
 73
     1
 44
1.0
  0
POINT
  5
23B
330
232
100
AcDbEntity
  8
Defpoints
 62
     0
100
AcDbPoint
 10
32.13715701540224
 20
4.523529107165221
 30
0.0
  0
POINT
  5
23C
330
232
100
AcDbEntity
  8
Defpoints
 62
     0
100
AcDbPoint
 10
-44.06284298459776
 20
4.244528192511453
 30
0.0
  0
POINT
  5
23D
330
232
100
AcDbEntity
  8
Defpoints
 62
     0
100
AcDbPoint
 10
-44.06284298459776
 20
25.92406067554435
 30
0.0
  0
ENDBLK
  5
234
330
232
100
AcDbEntity
  8
0
100
AcDbBlockEnd
  0
BLOCK
  5
246
330
245
100
AcDbEntity
  8
0
100
AcDbBlockBegin
  2
_D_2
 70
     0
 10
0.0
 20
0.0
 30
0.0
  3
_D_2
  1
_D_2
  0
LINE
  5
248
330
245
100
AcDbEntity
  8
치수문자_일반주서
 62
     0
370
    -2
100
AcDbLine
 10
-43.62534298459776
 20
4.744528192511453
 30
0.0
 11
-49.96284298459776
 21
4.744528192511428
 31
0.0
  0
LINE
  5
249
330
245
100
AcDbEntity
  8
치수문자_일반주서
 62
     0
370
    -2
100
AcDbLine
 10
-43.62534298459776
 20
-4.78047180748855
 30
0.0
 11
-49.96284298459772
 21
-4.780471807488574
 31
0.0
  0
LINE
  5
24A
330
245
100
AcDbEntity
  8
치수문자_일반주서
 62
     0
370
    -2
100
AcDbLine
 10
-49.96284298459776
 20
4.744528192511428
 30
0.0
 11
-49.96284298459788
 21
37.59852819251144
 31
0.0
  0
LINE
  5
24B
330
245
100
AcDbEntity
  8
치수문자_일반주서
 62
     0
370
    -2
100
AcDbLine
 10
-49.96284298459776
 20
4.744528192511428
 30
0.0
 11
-49.96284298459772
 21
-4.780471807488574
 31
0.0
  0
LINE
  5
24C
330
245
100
AcDbEntity
  8
치수문자_일반주서
 62
     0
370
    -2
100
AcDbLine
 10
-49.96284298459777
 20
8.046528192511428
 30
0.0
 11
-49.96284298459778
 21
11.34852819251143
 31
0.0
  0
LINE
  5
24D
330
245
100
AcDbEntity
  8
치수문자_일반주서
 62
     0
370
    -2
100
AcDbLine
 10
-49.96284298459771
 20
-8.082471807488574
 30
0.0
 11
-49.96284298459769
 21
-11.38447180748857
 31
0.0
  0
SOLID
  5
24E
330
245
100
AcDbEntity
  8
치수문자_일반주서
 62
     0
100
AcDbTrace
 10
-50.51317631793111
 20
8.046528192511426
 30
0.0
 11
-49.41250965126444
 21
8.04652819251143
 31
0.0
 12
-49.96284298459776
 22
4.744528192511428
 32
0.0
 13
-49.96284298459776
 23
4.744528192511428
 33
0.0
  0
SOLID
  5
24F
330
245
100
AcDbEntity
  8
치수문자_일반주서
 62
     0
100
AcDbTrace
 10
-49.41250965126437
 20
-8.082471807488572
 30
0.0
 11
-50.51317631793104
 21
-8.082471807488576
 31
0.0
 12
-49.96284298459772
 22
-4.780471807488574
 32
0.0
 13
-49.96284298459772
 23
-4.780471807488574
 33
0.0
  0
MTEXT
  5
250
330
245
100
AcDbEntity
  8
치수문자_일반주서
 62
     0
100
AcDbMText
 10
-54.33784298459783
 20
24.47352819251142
 30
0.0
 40
3.5
 41
0.0
 71
     2
 72
     1
  1
\A1;%%c9.53 [3/8]
  7
SLDTEXTSTYLE0
 11
-3.729883127349606E-15
 21
1.0
 31
0.0
 73
     1
 44
1.0
  0
POINT
  5
29E
330
245
100
AcDbEntity
  8
Defpoints
 62
     0
100
AcDbPoint
 10
-43.56284298459776
 20
4.744528192511453
 30
0.0
  0
POINT
  5
29F
330
245
100
AcDbEntity
  8
Defpoints
 62
     0
100
AcDbPoint
 10
-43.56284298459776
 20
-4.78047180748855
 30
0.0
  0
POINT
  5
2A0
330
245
100
AcDbEntity
  8
Defpoints
 62
     0
100
AcDbPoint
 10
-49.96284298459772
 20
-4.780471807488572
 30
0.0
  0
ENDBLK
  5
247
330
245
100
AcDbEntity
  8
0
100
AcDbBlockEnd
  0
BLOCK
  5
259
330
258
100
AcDbEntity
  8
0
100
AcDbBlockBegin
  2
SW_DOWELSYMBOL_0
 70
     0
 10
0.0
 20
0.0
 30
0.0
  3
SW_DOWELSYMBOL_0
  1
SW_DOWELSYMBOL_0
  0
CIRCLE
  5
25B
330
258
100
AcDbEntity
  8
외형선
 62
     0
100
AcDbCircle
 10
0.0
 20
0.0
 30
0.0
 40
3.000000000000004
  0
HATCH
  5
25C
330
258
100
AcDbEntity
  8
0
  6
Continuous
 62
     0
370
    30
100
AcDbHatch
 10
0.0
 20
0.0
 30
0.0
210
0.0
220
0.0
230
1.0
  2
SOLID
 70
     1
 71
     0
 91
        1
 92
        0
 93
        3
 72
     2
 10
-0.0000000000000013
 20
-0.0000000000000039
 40
3.000000000000004
 50
0.0
 51
90.0
 73
     1
 72
     1
 10
-0.0000000000000013
 20
3.0
 11
-0.0000000000000013
 21
-0.000000000000004
 72
     1
 10
-0.0000000000000013
 20
-0.0000000000000039
 11
3.000000000000003
 21
-0.0000000000000039
 97
        0
 75
     0
 76
     1
 98
        1
 10
0.0
 20
0.0
  0
HATCH
  5
25D
330
258
100
AcDbEntity
  8
0
  6
Continuous
 62
     0
370
    30
100
AcDbHatch
 10
0.0
 20
0.0
 30
0.0
210
0.0
220
0.0
230
1.0
  2
SOLID
 70
     1
 71
     0
 91
        1
 92
        0
 93
        3
 72
     2
 10
-0.0000000000000013
 20
-0.0000000000000039
 40
3.000000000000004
 50
180.0
 51
270.0000000000007
 73
     1
 72
     1
 10
-0.0000000000000013
 20
-3.000000000000008
 11
-0.0000000000000013
 21
-0.000000000000004
 72
     1
 10
-0.0000000000000013
 20
-0.0000000000000039
 11
-3.000000000000006
 21
-0.0000000000000039
 97
        0
 75
     0
 76
     1
 98
        1
 10
0.0
 20
0.0
  0
ENDBLK
  5
25A
330
258
100
AcDbEntity
  8
0
100
AcDbBlockEnd
  0
BLOCK
  5
28D
330
28C
100
AcDbEntity
  8
0
100
AcDbBlockBegin
  2
*D6
 70
     1
 10
0.0
 20
0.0
 30
0.0
  3
*D6
  1
*D6
  0
LINE
  5
28F
330
28C
100
AcDbEntity
  8
치수문자_일반주서
 62
     0
370
    -2
100
AcDbLine
 10
32.19965701540224
 20
4.744528192511457
 30
0.0
 11
52.00415859755584
 21
4.744528192511453
 31
0.0
  0
LINE
  5
290
330
28C
100
AcDbEntity
  8
치수문자_일반주서
 62
     0
370
    -2
100
AcDbLine
 10
32.19965701540225
 20
-4.780471807488545
 30
0.0
 11
52.00415859755584
 21
-4.780471807488549
 31
0.0
  0
LINE
  5
291
330
28C
100
AcDbEntity
  8
치수문자_일반주서
 62
     0
370
    -2
100
AcDbLine
 10
52.00415859755584
 20
4.744528192511453
 30
0.0
 11
52.00415859755584
 21
37.81727819251145
 31
0.0
  0
LINE
  5
292
330
28C
100
AcDbEntity
  8
치수문자_일반주서
 62
     0
370
    -2
100
AcDbLine
 10
52.00415859755584
 20
4.744528192511453
 30
0.0
 11
52.00415859755584
 21
-4.780471807488549
 31
0.0
  0
LINE
  5
293
330
28C
100
AcDbEntity
  8
치수문자_일반주서
 62
     0
370
    -2
100
AcDbLine
 10
52.00415859755584
 20
8.046528192511452
 30
0.0
 11
52.00415859755584
 21
11.34852819251145
 31
0.0
  0
LINE
  5
294
330
28C
100
AcDbEntity
  8
치수문자_일반주서
 62
     0
370
    -2
100
AcDbLine
 10
52.00415859755584
 20
-8.082471807488549
 30
0.0
 11
52.00415859755584
 21
-11.38447180748855
 31
0.0
  0
SOLID
  5
295
330
28C
100
AcDbEntity
  8
치수문자_일반주서
 62
     0
100
AcDbTrace
 10
51.45382526422251
 20
8.046528192511452
 30
0.0
 11
52.55449193088918
 21
8.046528192511452
 31
0.0
 12
52.00415859755584
 22
4.744528192511453
 32
0.0
 13
52.00415859755584
 23
4.744528192511453
 33
0.0
  0
SOLID
  5
296
330
28C
100
AcDbEntity
  8
치수문자_일반주서
 62
     0
100
AcDbTrace
 10
52.55449193088918
 20
-8.082471807488549
 30
0.0
 11
51.45382526422251
 21
-8.082471807488549
 31
0.0
 12
52.00415859755584
 22
-4.780471807488549
 32
0.0
 13
52.00415859755584
 23
-4.780471807488549
 33
0.0
  0
MTEXT
  5
297
330
28C
100
AcDbEntity
  8
치수문자_일반주서
 62
     0
100
AcDbMText
 10
49.37915859755584
 20
24.69227819251145
 30
0.0
 40
3.5
 41
0.0
 71
     5
 72
     1
  1
\A1;{%%c9.53 [3/8]}
  7
SLDTEXTSTYLE0
 11
0.0
 21
1.0
 31
0.0
 73
     1
 44
1.0
  0
POINT
  5
298
330
28C
100
AcDbEntity
  8
Defpoints
 62
     0
100
AcDbPoint
 10
32.13715701540224
 20
4.744528192511457
 30
0.0
  0
POINT
  5
299
330
28C
100
AcDbEntity
  8
Defpoints
 62
     0
100
AcDbPoint
 10
32.13715701540225
 20
-4.780471807488545
 30
0.0
  0
POINT
  5
29D
330
28C
100
AcDbEntity
  8
Defpoints
 62
     0
100
AcDbPoint
 10
52.00415859755584
 20
-4.780471807488546
 30
0.0
  0
ENDBLK
  5
28E
330
28C
100
AcDbEntity
  8
0
100
AcDbBlockEnd
  0
BLOCK
  5
301
330
300
100
AcDbEntity
  8
0
100
AcDbBlockBegin
  2
*D7
 70
     1
 10
0.0
 20
0.0
 30
0.0
  3
*D7
  1

  0
LINE
  5
303
330
300
100
AcDbEntity
  8
치수문자_일반주서
 62
     0
370
    -2
100
AcDbLine
 10
32.13715701540224
 20
4.586029107165221
 30
0.0
 11
32.13715701540224
 21
18.89452819251146
 31
0.0
  0
LINE
  5
304
330
300
100
AcDbEntity
  8
치수문자_일반주서
 62
     0
370
    -2
100
AcDbLine
 10
0.3871570154022379
 20
4.211528192511454
 30
0.0
 11
0.3871570154022379
 21
18.89452819251146
 31
0.0
  0
LINE
  5
305
330
300
100
AcDbEntity
  8
치수문자_일반주서
 62
     0
370
    -2
100
AcDbLine
 10
28.83515701540224
 20
18.89452819251146
 30
0.0
 11
3.689157015402238
 21
18.89452819251146
 31
0.0
  0
SOLID
  5
306
330
300
100
AcDbEntity
  8
치수문자_일반주서
 62
     0
100
AcDbTrace
 10
28.83515701540224
 20
18.34419485917812
 30
0.0
 11
28.83515701540224
 21
19.44486152584479
 31
0.0
 12
32.13715701540224
 22
18.89452819251146
 32
0.0
 13
32.13715701540224
 23
18.89452819251146
 33
0.0
  0
SOLID
  5
307
330
300
100
AcDbEntity
  8
치수문자_일반주서
 62
     0
100
AcDbTrace
 10
3.689157015402238
 20
19.44486152584479
 30
0.0
 11
3.689157015402238
 21
18.34419485917812
 31
0.0
 12
0.3871570154022379
 22
18.89452819251146
 32
0.0
 13
0.3871570154022379
 23
18.89452819251146
 33
0.0
  0
MTEXT
  5
308
330
300
100
AcDbEntity
  8
치수문자_일반주서
 62
     0
100
AcDbMText
 10
16.26215701540224
 20
21.51952819251146
 30
0.0
 40
3.5
 41
0.0
 71
     5
 72
     1
  1
\A1;31.75 [1 1/4]
  7
SLDTEXTSTYLE0
 73
     1
 44
1.0
  0
POINT
  5
309
330
300
100
AcDbEntity
  8
Defpoints
 62
     0
100
AcDbPoint
 10
32.13715701540224
 20
4.523529107165221
 30
0.0
  0
POINT
  5
30A
330
300
100
AcDbEntity
  8
Defpoints
 62
     0
100
AcDbPoint
 10
0.3871570154022379
 20
4.149028192511454
 30
0.0
  0
POINT
  5
30B
330
300
100
AcDbEntity
  8
Defpoints
 62
     0
100
AcDbPoint
 10
0.3871570154022379
 20
18.89452819251146
 30
0.0
  0
ENDBLK
  5
302
330
300
100
AcDbEntity
  8
0
100
AcDbBlockEnd
  0
ENDSEC
  0
SECTION
  2
ENTITIES
  0
LINE
  5
95
330
1F
100
AcDbEntity
  8
0
  6
Continuous
 62
     1
370
    15
100
AcDbLine
 10
10.12776885387775
 20
0.131988370376658
 30
0.0
 11
10.12776885855206
 21
0.1351708988683605
 31
0.0
  0
LINE
  5
96
330
1F
100
AcDbEntity
  8
0
  6
Continuous
 62
     4
370
    15
100
AcDbLine
 10
-43.56284298459776
 20
4.744528192511452
 30
0.0
 11
-44.06284298459776
 21
4.244528192511452
 31
0.0
  0
LINE
  5
97
102
{ACAD_REACTORS
330
312
102
}
330
1F
100
AcDbEntity
  8
0
  6
Continuous
 62
     4
370
    15
100
AcDbLine
 10
-44.06284298459776
 20
-4.280471807488551
 30
0.0
 11
-43.56284298459776
 21
-4.78047180748855
 31
0.0
  0
LINE
  5
98
330
1F
100
AcDbEntity
  8
0
  6
Continuous
 62
     4
370
    15
100
AcDbLine
 10
-0.0333429845977654
 20
4.744528192511456
 30
0.0
 11
-43.56284298459776
 21
4.74452819251145
 31
0.0
  0
LINE
  5
99
330
1F
100
AcDbEntity
  8
0
  6
Continuous
 62
     4
370
    15
100
AcDbLine
 10
-43.56284298459776
 20
-4.78047180748855
 30
0.0
 11
-0.0333429845977662
 21
-4.780471807488545
 31
0.0
  0
SPLINE
  5
9A
330
1F
100
AcDbEntity
  8
0
  6
Continuous
 62
     1
370
    15
100
AcDbSpline
210
0.0
220
0.0
230
1.0
 70
     8
 71
     3
 72
     9
 73
     5
 74
     0
 42
0.000000001
 43
0.00000001
 40
0.0
 40
0.0
 40
0.0
 40
0.0
 40
0.4021872790651855
 40
0.9999999999999999
 40
0.9999999999999999
 40
0.9999999999999999
 40
0.9999999999999999
 10
20.02539500939679
 20
4.562150285463664
 30
0.0
 10
20.00968236654731
 20
4.566669763317399
 30
0.0
 10
19.97061439083708
 20
4.577907010463155
 30
0.0
 10
19.94205707641446
 20
4.590119949779438
 30
0.0
 10
19.92498515057688
 20
4.597421000262716
 30
0.0
  0
SPLINE
  5
9B
330
1F
100
AcDbEntity
  8
0
  6
Continuous
 62
     1
370
    15
100
AcDbSpline
210
0.0
220
0.0
230
1.0
 70
     8
 71
     3
 72
     9
 73
     5
 74
     0
 42
0.000000001
 43
0.00000001
 40
0.0
 40
0.0
 40
0.0
 40
0.0
 40
0.498951587319901
 40
1.0
 40
1.0
 40
1.0
 40
1.0
 10
19.91871907065919
 20
4.608236961188897
 30
0.0
 10
19.88005151988043
 20
4.635437736551121
 30
0.0
 10
19.80255391938884
 20
4.689953597515371
 30
0.0
 10
19.71035773966318
 20
4.70211014623333
 30
0.0
 10
19.66416299015647
 20
4.708201165672131
 30
0.0
  0
SPLINE
  5
9C
330
1F
100
AcDbEntity
  8
0
  6
Continuous
 62
     1
370
    15
100
AcDbSpline
210
0.0
220
0.0
230
1.0
 70
     8
 71
     3
 72
    11
 73
     7
 74
     0
 42
0.000000001
 43
0.00000001
 40
0.0
 40
0.0
 40
0.0
 40
0.0
 40
0.2442192619354392
 40
0.5000074083343713
 40
0.7557894243545906
 40
1.0
 40
1.0
 40
1.0
 40
1.0
 10
22.873142688775
 20
-4.667353288646061
 30
0.0
 10
22.90841510471009
 20
-4.64208050139522
 30
0.0
 10
22.98063082241242
 20
-4.590337732399302
 30
0.0
 10
23.11606451787297
 20
-4.564374990289805
 30
0.0
 10
23.25169788289508
 20
-4.582259418585885
 30
0.0
 10
23.32435008200163
 20
-4.628281188275425
 30
0.0
 10
23.35983547850843
 20
-4.650759527065731
 30
0.0
  0
SPLINE
  5
9D
330
1F
100
AcDbEntity
  8
0
  6
Continuous
 62
     1
370
    15
100
AcDbSpline
210
0.0
220
0.0
230
1.0
 70
     8
 71
     3
 72
     9
 73
     5
 74
     0
 42
0.000000001
 43
0.00000001
 40
0.0
 40
0.0
 40
0.0
 40
0.0
 40
0.8745589025149061
 40
1.0
 40
1.0
 40
1.0
 40
1.0
 10
19.63744586269986
 20
4.724526057479803
 30
0.0
 10
19.59499603936555
 20
4.722530268888835
 30
0.0
 10
19.54645748671664
 20
4.720248217233732
 30
0.0
 10
19.5078802870197
 20
4.700842760659804
 30
0.0
 10
19.50304112075181
 20
4.698408518889971
 30
0.0
  0
SPLINE
  5
9E
330
1F
100
AcDbEntity
  8
0
  6
Continuous
 62
     1
370
    15
100
AcDbSpline
210
0.0
220
0.0
230
1.0
 70
     8
 71
     3
 72
    11
 73
     7
 74
     0
 42
0.000000001
 43
0.00000001
 40
0.0
 40
0.0
 40
0.0
 40
0.0
 40
0.2438363674233333
 40
0.5001098488471462
 40
0.7563279074240135
 40
1.0
 40
1.0
 40
1.0
 40
1.0
 10
23.36869189741073
 20
-4.66005918557903
 30
0.0
 10
23.406934583687
 20
-4.685344640400492
 30
0.0
 10
23.48537056210661
 20
-4.737205259562518
 30
0.0
 10
23.62811945988276
 20
-4.761336037590062
 30
0.0
 10
23.77085868319904
 20
-4.741262482950262
 30
0.0
 10
23.84929551872092
 20
-4.692157228009878
 30
0.0
 10
23.88752965436567
 20
-4.668220808778162
 30
0.0
  0
SPLINE
  5
9F
330
1F
100
AcDbEntity
  8
0
  6
Continuous
 62
     1
370
    15
100
AcDbSpline
210
0.0
220
0.0
230
1.0
 70
     8
 71
     3
 72
    11
 73
     7
 74
     0
 42
0.000000001
 43
0.00000001
 40
0.0
 40
0.0
 40
0.0
 40
0.0
 40
0.2446161416208609
 40
0.5001107703894849
 40
0.7555547955243203
 40
1.0
 40
1.0
 40
1.0
 40
1.0
 10
19.39289325596846
 20
4.634424319974531
 30
0.0
 10
19.35781454348858
 20
4.609673366121926
 30
0.0
 10
19.28609710977246
 20
4.559070742284103
 30
0.0
 10
19.15092391912437
 20
4.534234379738526
 30
0.0
 10
19.0155437072093
 20
4.553382404072851
 30
0.0
 10
18.94330956858808
 20
4.60007848167023
 30
0.0
 10
18.90798716566465
 20
4.622912804876989
 30
0.0
  0
SPLINE
  5
A0
330
1F
100
AcDbEntity
  8
0
  6
Continuous
 62
     1
370
    15
100
AcDbSpline
210
0.0
220
0.0
230
1.0
 70
     8
 71
     3
 72
    11
 73
     7
 74
     0
 42
0.000000001
 43
0.00000001
 40
0.0
 40
0.0
 40
0.0
 40
0.0
 40
0.2439470837856995
 40
0.4997737374540103
 40
0.7557143255881621
 40
0.9999999999999999
 40
0.9999999999999999
 40
0.9999999999999999
 40
0.9999999999999999
 10
18.90213700201815
 20
4.627559559197526
 30
0.0
 10
18.86363007232037
 20
4.65269087105416
 30
0.0
 10
18.78474102853968
 20
4.704177322373028
 30
0.0
 10
18.64089144357169
 20
4.727384832936847
 30
0.0
 10
18.49702272081625
 20
4.705759123141876
 30
0.0
 10
18.41813838373294
 20
4.65538520218862
 30
0.0
 10
18.37961518947511
 20
4.630785079855573
 30
0.0
  0
SPLINE
  5
A1
330
1F
100
AcDbEntity
  8
0
  6
Continuous
 62
     1
370
    15
100
AcDbSpline
210
0.0
220
0.0
230
1.0
 70
     8
 71
     3
 72
    11
 73
     7
 74
     0
 42
0.000000001
 43
0.00000001
 40
0.0
 40
0.0
 40
0.0
 40
0.0
 40
0.245473858195737
 40
0.4998028619336372
 40
0.7542238343715753
 40
1.0
 40
1.0
 40
1.0
 40
1.0
 10
23.89791310371807
 20
-4.665872189029676
 30
0.0
 10
23.93257397412543
 20
-4.642506408265641
 30
0.0
 10
24.00314606010656
 20
-4.594931957026656
 30
0.0
 10
24.13748458432486
 20
-4.57293067796613
 30
0.0
 10
24.27160808601046
 20
-4.595082946089395
 30
0.0
 10
24.34162948950055
 20
-4.642461345160163
 30
0.0
 10
24.37603510830967
 20
-4.665741129011469
 30
0.0
  0
SPLINE
  5
A2
330
1F
100
AcDbEntity
  8
0
  6
Continuous
 62
     1
370
    15
100
AcDbSpline
210
0.0
220
0.0
230
1.0
 70
     8
 71
     3
 72
    11
 73
     7
 74
     0
 42
0.000000001
 43
0.00000001
 40
0.0
 40
0.0
 40
0.0
 40
0.0
 40
0.2691258708455118
 40
0.5293525042724837
 40
0.773089927407823
 40
0.9999999999999999
 40
0.9999999999999999
 40
0.9999999999999999
 40
0.9999999999999999
 10
18.3708919032901
 20
4.625886467079305
 30
0.0
 10
18.32880909602297
 20
4.599578521819643
 30
0.0
 10
18.24603504184642
 20
4.547832561233566
 30
0.0
 10
18.10155179632398
 20
4.538724694116188
 30
0.0
 10
17.98080778424305
 20
4.572045173946037
 30
0.0
 10
17.92873555053889
 20
4.608829015912244
 30
0.0
 10
17.90363031905012
 20
4.626563359187285
 30
0.0
  0
SPLINE
  5
A3
330
1F
100
AcDbEntity
  8
0
  6
Continuous
 62
     1
370
    15
100
AcDbSpline
210
0.0
220
0.0
230
1.0
 70
     8
 71
     3
 72
     9
 73
     5
 74
     0
 42
0.000000001
 43
0.00000001
 40
0.0
 40
0.0
 40
0.0
 40
0.0
 40
0.4729252864016484
 40
1.0
 40
1.0
 40
1.0
 40
1.0
 10
24.3725308742094
 20
-4.663181359773028
 30
0.0
 10
24.40702490154077
 20
-4.688069136416866
 30
0.0
 10
24.47996248454426
 20
-4.740694312865354
 30
0.0
 10
24.58500585188395
 20
-4.753541498300041
 30
0.0
 10
24.64037155463992
 20
-4.760312924883576
 30
0.0
  0
SPLINE
  5
A4
330
1F
100
AcDbEntity
  8
0
  6
Continuous
 62
     1
370
    15
100
AcDbSpline
210
0.0
220
0.0
230
1.0
 70
     8
 71
     3
 72
     9
 73
     5
 74
     0
 42
0.000000001
 43
0.00000001
 40
0.0
 40
0.0
 40
0.0
 40
0.0
 40
0.5021189218111807
 40
0.9999999999999999
 40
0.9999999999999999
 40
0.9999999999999999
 40
0.9999999999999999
 10
24.64124456199148
 20
-4.760189376089201
 30
0.0
 10
24.68876815118731
 20
-4.75504584028995
 30
0.0
 10
24.78341423427934
 20
-4.744802179723057
 30
0.0
 10
24.86390643414935
 20
-4.689657560484636
 30
0.0
 10
24.90398197740641
 20
-4.662202098001899
 30
0.0
  0
SPLINE
  5
A5
330
1F
100
AcDbEntity
  8
0
  6
Continuous
 62
     1
370
    15
100
AcDbSpline
210
0.0
220
0.0
230
1.0
 70
     8
 71
     3
 72
     9
 73
     5
 74
     0
 42
0.000000001
 43
0.00000001
 40
0.0
 40
0.0
 40
0.0
 40
0.0
 40
0.5558747540958752
 40
1.0
 40
1.0
 40
1.0
 40
1.0
 10
17.90259419169293
 20
4.627428097355057
 30
0.0
 10
17.85631621756711
 20
4.65800833120733
 30
0.0
 10
17.77306369748982
 20
4.713021144124172
 30
0.0
 10
17.67871465562833
 20
4.720975257758218
 30
0.0
 10
17.63681186421078
 20
4.724507880431888
 30
0.0
  0
SPLINE
  5
A6
330
1F
100
AcDbEntity
  8
0
  6
Continuous
 62
     1
370
    15
100
AcDbSpline
210
0.0
220
0.0
230
1.0
 70
     8
 71
     3
 72
    10
 73
     6
 74
     0
 42
0.000000001
 43
0.00000001
 40
0.0
 40
0.0
 40
0.0
 40
0.0
 40
0.450175001583015
 40
0.7156137629214133
 40
1.0
 40
1.0
 40
1.0
 40
1.0
 10
24.90597616301523
 20
-4.660363819985427
 30
0.0
 10
24.96703427599963
 20
-4.625430733934528
 30
0.0
 10
25.06409436560034
 20
-4.569899891325683
 30
0.0
 10
25.25019462718124
 20
-4.585729674432138
 30
0.0
 10
25.32866600192107
 20
-4.635031514886675
 30
0.0
 10
25.3692537872071
 20
-4.660531928524254
 30
0.0
  0
SPLINE
  5
A7
330
1F
100
AcDbEntity
  8
0
  6
Continuous
 62
     1
370
    15
100
AcDbSpline
210
0.0
220
0.0
230
1.0
 70
     8
 71
     3
 72
     9
 73
     5
 74
     0
 42
0.000000001
 43
0.00000001
 40
0.0
 40
0.0
 40
0.0
 40
0.0
 40
0.4855392395047241
 40
1.0
 40
1.0
 40
1.0
 40
1.0
 10
17.6374631892944
 20
4.724526293830545
 30
0.0
 10
17.58541548153809
 20
4.717984968887146
 30
0.0
 10
17.47821980398709
 20
4.704512679911959
 30
0.0
 10
17.40606265610717
 20
4.651382389738203
 30
0.0
 10
17.36894063493371
 20
4.624048940250079
 30
0.0
  0
SPLINE
  5
A8
330
1F
100
AcDbEntity
  8
0
  6
Continuous
 62
     1
370
    15
100
AcDbSpline
210
0.0
220
0.0
230
1.0
 70
     8
 71
     3
 72
    11
 73
     7
 74
     0
 42
0.000000001
 43
0.00000001
 40
0.0
 40
0.0
 40
0.0
 40
0.0
 40
0.2469498462557707
 40
0.5003572574039057
 40
0.7535963685224121
 40
1.0
 40
1.0
 40
1.0
 40
1.0
 10
17.37445281027055
 20
4.628709379437923
 30
0.0
 10
17.34072948394071
 20
4.605909080737663
 30
0.0
 10
17.27240099000246
 20
4.559712271553033
 30
0.0
 10
17.13939323617428
 20
4.537130583125535
 30
0.0
 10
17.00615525579644
 20
4.558563702657169
 30
0.0
 10
16.93720351378347
 20
4.604285743759314
 30
0.0
 10
16.90319929801036
 20
4.626834008760819
 30
0.0
  0
SPLINE
  5
A9
330
1F
100
AcDbEntity
  8
0
  6
Continuous
 62
     1
370
    15
100
AcDbSpline
210
0.0
220
0.0
230
1.0
 70
     8
 71
     3
 72
    11
 73
     7
 74
     0
 42
0.000000001
 43
0.00000001
 40
0.0
 40
0.0
 40
0.0
 40
0.0
 40
0.2454088133914641
 40
0.5004526375898519
 40
0.7552688260515024
 40
1.0
 40
1.0
 40
1.0
 40
1.0
 10
25.3699016300958
 20
-4.661059580383107
 30
0.0
 10
25.40922944909324
 20
-4.687010241692092
 30
0.0
 10
25.48942913905519
 20
-4.739930414850527
 30
0.0
 10
25.63646977055591
 20
-4.76385204954476
 30
0.0
 10
25.78347409254984
 20
-4.740898577585805
 30
0.0
 10
25.86368726061345
 20
-4.688566551953646
 30
0.0
 10
25.9029841606944
 20
-4.662928786584871
 30
0.0
  0
SPLINE
  5
AA
330
1F
100
AcDbEntity
  8
0
  6
Continuous
 62
     1
370
    15
100
AcDbSpline
210
0.0
220
0.0
230
1.0
 70
     8
 71
     3
 72
    11
 73
     7
 74
     0
 42
0.000000001
 43
0.00000001
 40
0.0
 40
0.0
 40
0.0
 40
0.0
 40
0.2054844949426463
 40
0.4453006135075388
 40
0.7143095424794547
 40
1.0
 40
1.0
 40
1.0
 40
1.0
 10
16.90675879611348
 20
4.624020749517731
 30
0.0
 10
16.8752177338925
 20
4.645846631409013
 30
0.0
 10
16.80686584018098
 20
4.693144986446671
 30
0.0
 10
16.67070564638011
 20
4.726850658844077
 30
0.0
 10
16.51089473408542
 20
4.714406366890667
 30
0.0
 10
16.4178319483357
 20
4.655470009353077
 30
0.0
 10
16.36990121236158
 20
4.625115631180824
 30
0.0
  0
SPLINE
  5
AB
330
1F
100
AcDbEntity
  8
0
  6
Continuous
 62
     1
370
    15
100
AcDbSpline
210
0.0
220
0.0
230
1.0
 70
     8
 71
     3
 72
    11
 73
     7
 74
     0
 42
0.000000001
 43
0.00000001
 40
0.0
 40
0.0
 40
0.0
 40
0.0
 40
0.2809733532801657
 40
0.5449326677234355
 40
0.7851600407505349
 40
1.0
 40
1.0
 40
1.0
 40
1.0
 10
25.90570559667246
 20
-4.660858208458747
 30
0.0
 10
25.94677679104534
 20
-4.635124546483167
 30
0.0
 10
26.02643215784407
 20
-4.585215496721204
 30
0.0
 10
26.1698813801345
 20
-4.574470123175342
 30
0.0
 10
26.28964512995668
 20
-4.605574980442619
 30
0.0
 10
26.34356360589235
 20
-4.64259210438718
 30
0.0
 10
26.36901883493476
 20
-4.66006810592743
 30
0.0
  0
SPLINE
  5
AC
330
1F
100
AcDbEntity
  8
0
  6
Continuous
 62
     1
370
    15
100
AcDbSpline
210
0.0
220
0.0
230
1.0
 70
     8
 71
     3
 72
    10
 73
     6
 74
     0
 42
0.000000001
 43
0.00000001
 40
0.0
 40
0.0
 40
0.0
 40
0.0
 40
0.4519347780051736
 40
0.7169244848900493
 40
0.9999999999999999
 40
0.9999999999999999
 40
0.9999999999999999
 40
0.9999999999999999
 10
16.3676445308502
 20
4.623196959155151
 30
0.0
 10
16.30657682763979
 20
4.588582041243074
 30
0.0
 10
16.20970238071011
 20
4.533670838562093
 30
0.0
 10
16.0234224886408
 20
4.550231503894151
 30
0.0
 10
15.94514914595143
 20
4.599929798989162
 30
0.0
 10
15.90472098902419
 20
4.625598952804287
 30
0.0
  0
SPLINE
  5
AD
330
1F
100
AcDbEntity
  8
0
  6
Continuous
 62
     1
370
    15
100
AcDbSpline
210
0.0
220
0.0
230
1.0
 70
     8
 71
     3
 72
     9
 73
     5
 74
     0
 42
0.000000001
 43
0.00000001
 40
0.0
 40
0.0
 40
0.0
 40
0.0
 40
0.4982549375002203
 40
1.0
 40
1.0
 40
1.0
 40
1.0
 10
26.37087330646983
 20
-4.661780249135092
 30
0.0
 10
26.41109518505905
 20
-4.689377697036182
 30
0.0
 10
26.49182068432058
 20
-4.744765904606282
 30
0.0
 10
26.58681059719434
 20
-4.755059288696114
 30
0.0
 10
26.63447131696604
 20
-4.760223943339601
 30
0.0
  0
SPLINE
  5
AE
330
1F
100
AcDbEntity
  8
0
  6
Continuous
 62
     1
370
    15
100
AcDbSpline
210
0.0
220
0.0
230
1.0
 70
     8
 71
     3
 72
     9
 73
     5
 74
     0
 42
0.000000001
 43
0.00000001
 40
0.0
 40
0.0
 40
0.0
 40
0.0
 40
0.5312499949419808
 40
1.0
 40
1.0
 40
1.0
 40
1.0
 10
26.63496137083883
 20
-4.760292464448205
 30
0.0
 10
26.69025568602808
 20
-4.753656679210749
 30
0.0
 10
26.7943391038459
 20
-4.741165789233087
 30
0.0
 10
26.86812372929818
 20
-4.688135343931052
 30
0.0
 10
26.90271027285213
 20
-4.663277322427494
 30
0.0
  0
SPLINE
  5
AF
330
1F
100
AcDbEntity
  8
0
  6
Continuous
 62
     1
370
    15
100
AcDbSpline
210
0.0
220
0.0
230
1.0
 70
     8
 71
     3
 72
     9
 73
     5
 74
     0
 42
0.000000001
 43
0.00000001
 40
0.0
 40
0.0
 40
0.0
 40
0.0
 40
0.4983796789780786
 40
1.0
 40
1.0
 40
1.0
 40
1.0
 10
15.89885972484879
 20
4.63013046947958
 30
0.0
 10
15.8594666044696
 20
4.656665761734989
 30
0.0
 10
15.78042421562266
 20
4.709908888159847
 30
0.0
 10
15.68697716898579
 20
4.719559400402018
 30
0.0
 10
15.64010223145326
 20
4.724400293450965
 30
0.0
  0
SPLINE
  5
B0
330
1F
100
AcDbEntity
  8
0
  6
Continuous
 62
     1
370
    15
100
AcDbSpline
210
0.0
220
0.0
230
1.0
 70
     8
 71
     3
 72
    11
 73
     7
 74
     0
 42
0.000000001
 43
0.00000001
 40
0.0
 40
0.0
 40
0.0
 40
0.0
 40
0.2455794806511742
 40
0.4998753393151509
 40
0.7542242381328346
 40
1.0
 40
1.0
 40
1.0
 40
1.0
 10
26.89911283349663
 20
-4.665911365941806
 30
0.0
 10
26.93352552209507
 20
-4.642614985188624
 30
0.0
 10
27.00357231242253
 20
-4.595195362820609
 30
0.0
 10
27.13766291957744
 20
-4.572965284317157
 30
0.0
 10
27.27195077195095
 20
-4.594890464687959
 30
0.0
 10
27.34234898459772
 20
-4.642294445175412
 30
0.0
 10
27.37694470783929
 20
-4.66559013590157
 30
0.0
  0
SPLINE
  5
B1
330
1F
100
AcDbEntity
  8
0
  6
Continuous
 62
     1
370
    15
100
AcDbSpline
210
0.0
220
0.0
230
1.0
 70
     8
 71
     3
 72
     9
 73
     5
 74
     0
 42
0.000000001
 43
0.00000001
 40
0.0
 40
0.0
 40
0.0
 40
0.0
 40
0.5015418585958995
 40
1.0
 40
1.0
 40
1.0
 40
1.0
 10
15.63632059702371
 20
4.724481045636328
 30
0.0
 10
15.58914877054274
 20
4.719660033536152
 30
0.0
 10
15.49509515234021
 20
4.710047651204451
 30
0.0
 10
15.41543092135632
 20
4.656354561989279
 30
0.0
 10
15.37572163684371
 20
4.629590804532842
 30
0.0
  0
LINE
  5
B2
330
1F
100
AcDbEntity
  8
0
  6
Continuous
 62
     1
370
    15
100
AcDbLine
 10
9.912157015402231
 20
-4.88047180748854
 30
0.0
 11
10.63675498069245
 21
-4.88047180748854
 31
0.0
  0
SPLINE
  5
B3
330
1F
100
AcDbEntity
  8
0
  6
Continuous
 62
     1
370
    15
100
AcDbSpline
210
0.0
220
0.0
230
1.0
 70
     8
 71
     3
 72
    11
 73
     7
 74
     0
 42
0.000000001
 43
0.00000001
 40
0.0
 40
0.0
 40
0.0
 40
0.0
 40
0.2449712497710066
 40
0.5001115111331373
 40
0.7551998456430735
 40
0.9999999999999999
 40
0.9999999999999999
 40
0.9999999999999999
 40
0.9999999999999999
 10
15.37318446470464
 20
4.627756642209734
 30
0.0
 10
15.33832983421335
 20
4.604500749292752
 30
0.0
 10
15.26717372123566
 20
4.557023587134605
 30
0.0
 10
15.13236456107412
 20
4.535926851450402
 30
0.0
 10
14.99734750795852
 20
4.558898783638151
 30
0.0
 10
14.92568228413215
 20
4.608033880912385
 30
0.0
 10
14.89058714142445
 20
4.63209580605161
 30
0.0
  0
SPLINE
  5
B4
330
1F
100
AcDbEntity
  8
0
  6
Continuous
 62
     1
370
    15
100
AcDbSpline
210
0.0
220
0.0
230
1.0
 70
     8
 71
     3
 72
    11
 73
     7
 74
     0
 42
0.000000001
 43
0.00000001
 40
0.0
 40
0.0
 40
0.0
 40
0.0
 40
0.2438907224407117
 40
0.5001692888901653
 40
0.7563624569816444
 40
0.9999999999999999
 40
0.9999999999999999
 40
0.9999999999999999
 40
0.9999999999999999
 10
27.38716653999669
 20
-4.668214202821899
 30
0.0
 10
27.4254049917954
 20
-4.692206318226079
 30
0.0
 10
27.50382412579536
 20
-4.741409170965164
 30
0.0
 10
27.64656549657729
 20
-4.761654581851429
 30
0.0
 10
27.78929201949245
 20
-4.73768189837478
 30
0.0
 10
27.86771270022506
 20
-4.685903979868259
 30
0.0
 10
27.90593808644251
 20
-4.660665344932198
 30
0.0
  0
SPLINE
  5
B5
330
1F
100
AcDbEntity
  8
0
  6
Continuous
 62
     1
370
    15
100
AcDbSpline
210
0.0
220
0.0
230
1.0
 70
     8
 71
     3
 72
    11
 73
     7
 74
     0
 42
0.000000001
 43
0.00000001
 40
0.0
 40
0.0
 40
0.0
 40
0.0
 40
0.2434986215230101
 40
0.4999350178763683
 40
0.7564042603363673
 40
1.0
 40
1.0
 40
1.0
 40
1.0
 10
14.87915498051707
 20
4.630611653223247
 30
0.0
 10
14.8410864766708
 20
4.654034089197935
 30
0.0
 10
14.76292678101472
 20
4.7021234618378
 30
0.0
 10
14.6208468128412
 20
4.720918405244079
 30
0.0
 10
14.47876095178225
 20
4.695874933440055
 30
0.0
 10
14.40060101432315
 20
4.643515277623283
 30
0.0
 10
14.36252710701503
 20
4.618009414299172
 30
0.0
  0
SPLINE
  5
B6
330
1F
100
AcDbEntity
  8
0
  6
Continuous
 62
     1
370
    15
100
AcDbSpline
210
0.0
220
0.0
230
1.0
 70
     8
 71
     3
 72
     9
 73
     5
 74
     0
 42
0.000000001
 43
0.00000001
 40
0.0
 40
0.0
 40
0.0
 40
0.0
 40
0.5011709021473922
 40
1.0
 40
1.0
 40
1.0
 40
1.0
 10
10.65595875724453
 20
-4.752747728468837
 30
0.0
 10
10.70229255859467
 20
-4.747001469882481
 30
0.0
 10
10.79474365891117
 20
-4.73553580305758
 30
0.0
 10
10.87255889759426
 20
-4.68143536534286
 30
0.0
 10
10.91137540290573
 20
-4.654448492804195
 30
0.0
  0
LINE
  5
B7
330
1F
100
AcDbEntity
  8
0
  6
Continuous
 62
     1
370
    15
100
AcDbLine
 10
31.67302594796324
 20
4.719393599735721
 30
0.0
 11
31.63805381797591
 21
4.7245260602602
 31
0.0
  0
LINE
  5
B8
330
1F
100
AcDbEntity
  8
0
  6
Continuous
 62
     1
370
    15
100
AcDbLine
 10
11.11050957010197
 20
-4.586028204315238
 30
0.0
 11
11.16897826002893
 21
-4.593481008713475
 31
0.0
  0
LINE
  5
B9
330
1F
100
AcDbEntity
  8
0
  6
Continuous
 62
     1
370
    15
100
AcDbLine
 10
14.17361713261709
 20
4.5517303618778
 30
0.0
 11
14.14317397110185
 21
4.5518090886092
 31
0.0
  0
SPLINE
  5
BA
330
1F
100
AcDbEntity
  8
0
  6
Continuous
 62
     1
370
    15
100
AcDbSpline
210
0.0
220
0.0
230
1.0
 70
     8
 71
     3
 72
     9
 73
     5
 74
     0
 42
0.000000001
 43
0.00000001
 40
0.0
 40
0.0
 40
0.0
 40
0.0
 40
0.9756452765881168
 40
1.0
 40
1.0
 40
1.0
 40
1.0
 10
31.63744576490658
 20
4.724526056106481
 30
0.0
 10
31.58662305185354
 20
4.722139197520314
 30
0.0
 10
31.5345316675435
 20
4.719692756540748
 30
0.0
 10
31.49671278299
 20
4.697932338707303
 30
0.0
 10
31.49579171451695
 20
4.697402369749643
 30
0.0
  0
SPLINE
  5
BC
330
1F
100
AcDbEntity
  8
0
  6
Continuous
 62
     4
370
    15
100
AcDbSpline
210
0.0
220
0.0
230
1.0
 70
     8
 71
     3
 72
    10
 73
     6
 74
     0
 42
0.000000001
 43
0.00000001
 40
0.0
 40
0.0
 40
0.0
 40
0.0
 40
0.5
 40
0.5
 40
1.0
 40
1.0
 40
1.0
 40
1.0
 10
8.679683162871031
 20
-4.583902503802649
 30
0.0
 10
8.590937034609443
 20
-4.56935365047364
 30
0.0
 10
8.517795981462916
 20
-4.547341057904
 30
0.0
 10
8.418258673255586
 20
-4.489828557381862
 30
0.0
 10
8.391958181813617
 20
-4.454167857582472
 30
0.0
 10
8.391958181813616
 20
-4.414824243651717
 30
0.0
  0
SPLINE
  5
BD
330
1F
100
AcDbEntity
  8
0
  6
Continuous
 62
     4
370
    15
100
AcDbSpline
210
0.0
220
0.0
230
1.0
 70
     8
 71
     3
 72
    14
 73
    10
 74
     0
 42
0.000000001
 43
0.00000001
 40
0.0
 40
0.0
 40
0.0
 40
0.0
 40
0.25
 40
0.25
 40
0.5
 40
0.5
 40
0.75
 40
0.75
 40
1.0
 40
1.0
 40
1.0
 40
1.0
 10
8.391958181813617
 20
-0.0741179998560323
 30
0.0
 10
8.391958181813617
 20
0.0270418748318538
 30
0.0
 10
8.41751975457047
 20
0.1268462614806153
 30
0.0
 10
8.514515128551022
 20
0.3008852561383631
 30
0.0
 10
8.586324644385044
 20
0.3753007685050481
 30
0.0
 10
8.759851493287803
 20
0.4780346253358789
 30
0.0
 10
8.859419842814034
 20
0.5053174735090763
 30
0.0
 10
9.059157498548048
 20
0.5067743055845392
 30
0.0
 10
9.159467356005203
 20
0.4808758817186793
 30
0.0
 10
9.247169837197848
 20
0.4305489095222128
 30
0.0
  0
SPLINE
  5
BE
330
1F
100
AcDbEntity
  8
0
  6
Continuous
 62
     1
370
    15
100
AcDbSpline
210
0.0
220
0.0
230
1.0
 70
     8
 71
     3
 72
    10
 73
     6
 74
     0
 42
0.000000001
 43
0.00000001
 40
0.0
 40
0.0
 40
0.0
 40
0.0
 40
0.5
 40
0.5
 40
1.0
 40
1.0
 40
1.0
 40
1.0
 10
31.5519539047102
 20
-2.322850901737093
 30
0.0
 10
31.47749189436329
 20
-2.307049672411927
 30
0.0
 10
31.38853778206986
 20
-2.273051651105636
 30
0.0
 10
31.20638953021705
 20
-2.181587364962812
 30
0.0
 10
31.11209753987632
 20
-2.123508064694865
 30
0.0
 10
31.03251422677619
 20
-2.064616167772416
 30
0.0
  0
SPLINE
  5
BF
330
1F
100
AcDbEntity
  8
0
  6
Continuous
 62
     1
370
    15
100
AcDbSpline
210
0.0
220
0.0
230
1.0
 70
     8
 71
     3
 72
    12
 73
     8
 74
     0
 42
0.000000001
 43
0.00000001
 40
0.0
 40
0.0
 40
0.0
 40
0.0
 40
0.5
 40
0.5
 40
0.75
 40
0.75
 40
1.0
 40
1.0
 40
1.0
 40
1.0
 10
31.03251422677621
 20
-2.064616167772416
 30
0.0
 10
30.99756840550289
 20
-1.595257862948714
 30
0.0
 10
30.96002201585685
 20
-1.074569071845835
 30
0.0
 10
30.90452167458036
 20
-0.2807001449747664
 30
0.0
 10
30.88617051157969
 20
-0.0141991979757371
 30
0.0
 10
30.85054290158729
 20
0.5109812122252432
 30
0.0
 10
30.83359551126688
 20
0.7680969659577265
 30
0.0
 10
30.81575592979585
 20
1.02454664311127
 30
0.0
  0
SPLINE
  5
C0
330
1F
100
AcDbEntity
  8
0
  6
Continuous
 62
     1
370
    15
100
AcDbSpline
210
0.0
220
0.0
230
1.0
 70
     8
 71
     3
 72
    10
 73
     6
 74
     0
 42
0.000000001
 43
0.00000001
 40
0.0
 40
0.0
 40
0.0
 40
0.0
 40
0.5
 40
0.5
 40
1.0
 40
1.0
 40
1.0
 40
1.0
 10
30.81575592979584
 20
1.024546643111271
 30
0.0
 10
30.89026199119593
 20
0.9878882554195862
 30
0.0
 10
30.97925230621818
 20
0.9402081523994098
 30
0.0
 10
31.1614711332201
 20
0.8378426391882828
 30
0.0
 10
31.25580577439291
 20
0.7825578993213509
 30
0.0
 10
31.33542333738896
 20
0.73768510049175
 30
0.0
  0
SPLINE
  5
C1
330
1F
100
AcDbEntity
  8
0
  6
Continuous
 62
     1
370
    15
100
AcDbSpline
210
0.0
220
0.0
230
1.0
 70
     8
 71
     3
 72
    14
 73
    10
 74
     0
 42
0.000000001
 43
0.00000001
 40
0.0
 40
0.0
 40
0.0
 40
0.0
 40
0.25
 40
0.25
 40
0.5
 40
0.5
 40
0.75
 40
0.75
 40
1.0
 40
1.0
 40
1.0
 40
1.0
 10
31.5519539047102
 20
-2.322850901737092
 30
0.0
 10
31.53449607261763
 20
-2.095854542705936
 30
0.0
 10
31.51713779379749
 20
-1.858423503198979
 30
0.0
 10
31.48086209656545
 20
-1.361046360143638
 30
0.0
 10
31.46231192995688
 20
-1.102690639332245
 30
0.0
 10
31.42519196000179
 20
-0.5776755851127668
 30
0.0
 10
31.40662616376311
 20
-0.3110728631755593
 30
0.0
 10
31.37029018753758
 20
0.2185632710199908
 30
0.0
 10
31.35283268434517
 20
0.4800358400649222
 30
0.0
 10
31.33542333738896
 20
0.7376851004917547
 30
0.0
  0
SPLINE
  5
C2
330
1F
100
AcDbEntity
  8
0
  6
Continuous
 62
     1
370
    15
100
AcDbSpline
210
0.0
220
0.0
230
1.0
 70
     8
 71
     3
 72
    10
 73
     6
 74
     0
 42
0.000000001
 43
0.00000001
 40
0.0
 40
0.0
 40
0.0
 40
0.0
 40
0.5
 40
0.5
 40
1.0
 40
1.0
 40
1.0
 40
1.0
 10
13.5236938673315
 20
-1.945814106142467
 30
0.0
 10
13.44917778760619
 20
-1.923113219951621
 30
0.0
 10
13.36017011212699
 20
-1.884296161789403
 30
0.0
 10
13.17788356027773
 20
-1.788264120861562
 30
0.0
 10
13.08349367535256
 20
-1.730428876030333
 30
0.0
 10
13.00379139019695
 20
-1.675337638980148
 30
0.0
  0
SPLINE
  5
C3
330
1F
100
AcDbEntity
  8
0
  6
Continuous
 62
     1
370
    15
100
AcDbSpline
210
0.0
220
0.0
230
1.0
 70
     8
 71
     3
 72
    12
 73
     8
 74
     0
 42
0.000000001
 43
0.00000001
 40
0.0
 40
0.0
 40
0.0
 40
0.0
 40
0.5
 40
0.5
 40
0.75
 40
0.75
 40
1.0
 40
1.0
 40
1.0
 40
1.0
 10
13.00379139019695
 20
-1.675337638980163
 30
0.0
 10
12.9677080971664
 20
-1.182000247914395
 30
0.0
 10
12.92983400433111
 20
-0.6478097353438695
 30
0.0
 10
12.87518860317447
 20
0.1465395615210702
 30
0.0
 10
12.85746406795373
 20
0.4094027359289959
 30
0.0
 10
12.82293074222402
 20
0.9241531637459058
 30
0.0
 10
12.80497637186513
 20
1.181666604389485
 30
0.0
 10
12.78669513230741
 20
1.433581107898469
 30
0.0
  0
SPLINE
  5
C4
330
1F
100
AcDbEntity
  8
0
  6
Continuous
 62
     1
370
    15
100
AcDbSpline
210
0.0
220
0.0
230
1.0
 70
     8
 71
     3
 72
    10
 73
     6
 74
     0
 42
0.000000001
 43
0.00000001
 40
0.0
 40
0.0
 40
0.0
 40
0.0
 40
0.5
 40
0.5
 40
1.0
 40
1.0
 40
1.0
 40
1.0
 10
12.78669513230742
 20
1.433581107898384
 30
0.0
 10
12.8613002443799
 20
1.40316650725777
 30
0.0
 10
12.95038854461191
 20
1.35932449662928
 30
0.0
 10
13.13274238482654
 20
1.259297741233943
 30
0.0
 10
13.22711036183717
 20
1.202502653568865
 30
0.0
 10
13.30678721167359
 20
1.152633371848112
 30
0.0
  0
SPLINE
  5
C5
330
1F
100
AcDbEntity
  8
0
  6
Continuous
 62
     1
370
    15
100
AcDbSpline
210
0.0
220
0.0
230
1.0
 70
     8
 71
     3
 72
    12
 73
     8
 74
     0
 42
0.000000001
 43
0.00000001
 40
0.0
 40
0.0
 40
0.0
 40
0.0
 40
0.5
 40
0.5
 40
0.75
 40
0.75
 40
1.0
 40
1.0
 40
1.0
 40
1.0
 10
13.5236938673315
 20
-1.945814106142481
 30
0.0
 10
13.48834712834332
 20
-1.468391919930994
 30
0.0
 10
13.45064114133423
 20
-0.9427082360466301
 30
0.0
 10
13.39532713851763
 20
-0.1475226498452721
 30
0.0
 10
13.37710655079426
 20
0.1184208568648171
 30
0.0
 10
13.3418586731269
 20
0.6406473393438146
 30
0.0
 10
13.32478927458599
 20
0.8972155712715627
 30
0.0
 10
13.30678721167358
 20
1.15263337184817
 30
0.0
  0
SPLINE
  5
C6
330
1F
100
AcDbEntity
  8
0
  6
Continuous
 62
     1
370
    15
100
AcDbSpline
210
0.0
220
0.0
230
1.0
 70
     8
 71
     3
 72
     8
 73
     4
 74
     0
 42
0.000000001
 43
0.00000001
 40
0.0
 40
0.0
 40
0.0
 40
0.0
 40
1.0
 40
1.0
 40
1.0
 40
1.0
 10
14.55990544059272
 20
-2.461882672524399
 30
0.0
 10
14.48537634113104
 20
-2.449095758504304
 30
0.0
 10
14.39504939153326
 20
-2.416734040299226
 30
0.0
 10
14.30212989404399
 20
-2.370907354725698
 30
0.0
  0
SPLINE
  5
C7
330
1F
100
AcDbEntity
  8
0
  6
Continuous
 62
     1
370
    15
100
AcDbSpline
210
0.0
220
0.0
230
1.0
 70
     8
 71
     3
 72
    14
 73
    10
 74
     0
 42
0.000000001
 43
0.00000001
 40
0.0
 40
0.0
 40
0.0
 40
0.0
 40
0.25
 40
0.25
 40
0.5
 40
0.5
 40
0.75
 40
0.75
 40
1.0
 40
1.0
 40
1.0
 40
1.0
 10
14.3021298940425
 20
-2.370907354724946
 30
0.0
 10
14.28481791320914
 20
-2.141454186425595
 30
0.0
 10
14.26762260657723
 20
-1.901614768707903
 30
0.0
 10
14.23167835052157
 20
-1.399198043007722
 30
0.0
 10
14.21329646801909
 20
-1.138239398804226
 30
0.0
 10
14.17649665771067
 20
-0.6077586115631477
 30
0.0
 10
14.15808256793096
 20
-0.3382916637338467
 30
0.0
 10
14.12201402098237
 20
0.197405688728775
 30
0.0
 10
14.10460268220547
 20
0.4623893771575769
 30
0.0
 10
14.08739238632666
 20
0.7229127054742835
 30
0.0
  0
SPLINE
  5
C8
330
1F
100
AcDbEntity
  8
0
  6
Continuous
 62
     1
370
    15
100
AcDbSpline
210
0.0
220
0.0
230
1.0
 70
     8
 71
     3
 72
     8
 73
     4
 74
     0
 42
0.000000001
 43
0.00000001
 40
0.0
 40
0.0
 40
0.0
 40
0.0
 40
1.0
 40
1.0
 40
1.0
 40
1.0
 10
14.08739238632852
 20
0.7229127054737301
 30
0.0
 10
14.1765901870227
 20
0.6722538052179398
 30
0.0
 10
14.2670021634366
 20
0.6198661149855745
 30
0.0
 10
14.34330391519056
 20
0.5786858829952675
 30
0.0
  0
SPLINE
  5
C9
330
1F
100
AcDbEntity
  8
0
  6
Continuous
 62
     1
370
    15
100
AcDbSpline
210
0.0
220
0.0
230
1.0
 70
     8
 71
     3
 72
    12
 73
     8
 74
     0
 42
0.000000001
 43
0.00000001
 40
0.0
 40
0.0
 40
0.0
 40
0.0
 40
0.2499999999999999
 40
0.2499999999999999
 40
0.4999999999999998
 40
0.4999999999999998
 40
1.0
 40
1.0
 40
1.0
 40
1.0
 10
14.55990544059289
 20
-2.46188267252432
 30
0.0
 10
14.54220916730602
 20
-2.238455857345436
 30
0.0
 10
14.52520875587891
 20
-2.006446345187649
 30
0.0
 10
14.48931713872148
 20
-1.517337065718457
 30
0.0
 10
14.47088188914887
 20
-1.262100716999465
 30
0.0
 10
14.41529093353927
 20
-0.4803494731174892
 30
0.0
 10
14.37790711880499
 20
0.0617332240853525
 30
0.0
 10
14.34330391519117
 20
0.578685882994824
 30
0.0
  0
SPLINE
  5
CA
330
1F
100
AcDbEntity
  8
0
  6
Continuous
 62
     1
370
    15
100
AcDbSpline
210
0.0
220
0.0
230
1.0
 70
     8
 71
     3
 72
     8
 73
     4
 74
     0
 42
0.000000001
 43
0.00000001
 40
0.0
 40
0.0
 40
0.0
 40
0.0
 40
1.0
 40
1.0
 40
1.0
 40
1.0
 10
14.30212989404251
 20
-2.37090735472496
 30
0.0
 10
14.21289667685826
 20
-2.325975912360526
 30
0.0
 10
14.12248472654869
 20
-2.269391510349334
 30
0.0
 10
14.04619117712793
 20
-2.211132771529115
 30
0.0
  0
SPLINE
  5
CB
330
1F
100
AcDbEntity
  8
0
  6
Continuous
 62
     1
370
    15
100
AcDbSpline
210
0.0
220
0.0
230
1.0
 70
     8
 71
     3
 72
    12
 73
     8
 74
     0
 42
0.000000001
 43
0.00000001
 40
0.0
 40
0.0
 40
0.0
 40
0.0
 40
0.5
 40
0.5
 40
0.75
 40
0.75
 40
1.0
 40
1.0
 40
1.0
 40
1.0
 10
14.04619117712742
 20
-2.211132771528728
 30
0.0
 10
14.01172399403549
 20
-1.75194179363388
 30
0.0
 10
13.97451380041072
 20
-1.238433652227548
 30
0.0
 10
13.91887354546349
 20
-0.4471641768380523
 30
0.0
 10
13.90038937970318
 20
-0.1802851025922635
 30
0.0
 10
13.86434185770447
 20
0.34800587946671
 30
0.0
 10
13.84724218352527
 20
0.6071445634149912
 30
0.0
 10
13.82963245789896
 20
0.8645726741111683
 30
0.0
  0
SPLINE
  5
CC
330
1F
100
AcDbEntity
  8
0
  6
Continuous
 62
     1
370
    15
100
AcDbSpline
210
0.0
220
0.0
230
1.0
 70
     8
 71
     3
 72
     8
 73
     4
 74
     0
 42
0.000000001
 43
0.00000001
 40
0.0
 40
0.0
 40
0.0
 40
0.0
 40
1.0
 40
1.0
 40
1.0
 40
1.0
 10
13.82963245789983
 20
0.8645726741112199
 30
0.0
 10
13.90414554802433
 20
0.825520939312451
 30
0.0
 10
13.99445163497483
 20
0.7756295591853114
 30
0.0
 10
14.08739238632536
 20
0.7229127054750029
 30
0.0
  0
SPLINE
  5
CD
330
1F
100
AcDbEntity
  8
0
  6
Continuous
 62
     1
370
    15
100
AcDbSpline
210
0.0
220
0.0
230
1.0
 70
     8
 71
     3
 72
     8
 73
     4
 74
     0
 42
0.000000001
 43
0.00000001
 40
0.0
 40
0.0
 40
0.0
 40
0.0
 40
0.0001208805834613
 40
0.0001208805834613
 40
0.0001208805834613
 40
0.0001208805834613
 10
10.14245020207486
 20
-0.0885849502813865
 30
0.0
 10
10.14208961052823
 20
-0.0837486319352127
 30
0.0
 10
10.14177282301504
 20
-0.0794384898872825
 30
0.0
 10
10.14149698987786
 20
-0.0756573260527212
 30
0.0
  0
SPLINE
  5
CE
330
1F
100
AcDbEntity
  8
0
  6
Continuous
 62
     1
370
    15
100
AcDbSpline
210
0.0
220
0.0
230
1.0
 70
     8
 71
     3
 72
    12
 73
     8
 74
     0
 42
0.000000001
 43
0.00000001
 40
0.0
 40
0.0
 40
0.0
 40
0.0
 40
0.5000000000000002
 40
0.5000000000000002
 40
0.7500000000000001
 40
0.7500000000000001
 40
1.0
 40
1.0
 40
1.0
 40
1.0
 10
10.14149698987798
 20
-0.075657326054366
 30
0.0
 10
10.10647624866895
 20
0.4647620125763001
 30
0.0
 10
10.06937302882119
 20
1.016711675337166
 30
0.0
 10
10.01516628117538
 20
1.793021653892203
 30
0.0
 10
9.997346245219525
 20
2.043187135287372
 30
0.0
 10
9.962912772194278
 20
2.516833503526913
 30
0.0
 10
9.946013241559017
 20
2.741852967297986
 30
0.0
 10
9.928269180180587
 20
2.956561726829941
 30
0.0
  0
SPLINE
  5
CF
330
1F
100
AcDbEntity
  8
0
  6
Continuous
 62
     1
370
    15
100
AcDbSpline
210
0.0
220
0.0
230
1.0
 70
     8
 71
     3
 72
     8
 73
     4
 74
     0
 42
0.000000001
 43
0.00000001
 40
0.0
 40
0.0
 40
0.0
 40
0.0
 40
1.0
 40
1.0
 40
1.0
 40
1.0
 10
30.50982519201453
 20
-1.796781319527423
 30
0.0
 10
30.43519174197655
 20
-1.771806729363049
 30
0.0
 10
30.34479512134269
 20
-1.73073639106486
 30
0.0
 10
30.25182465087032
 20
-1.680776748396861
 30
0.0
  0
SPLINE
  5
D0
330
1F
100
AcDbEntity
  8
0
  6
Continuous
 62
     1
370
    15
100
AcDbSpline
210
0.0
220
0.0
230
1.0
 70
     8
 71
     3
 72
    12
 73
     8
 74
     0
 42
0.000000001
 43
0.00000001
 40
0.0
 40
0.0
 40
0.0
 40
0.0
 40
0.5
 40
0.5
 40
0.75
 40
0.75
 40
1.0
 40
1.0
 40
1.0
 40
1.0
 10
30.25182465086871
 20
-1.680776748395983
 30
0.0
 10
30.2159804439965
 20
-1.180402080449883
 30
0.0
 10
30.17843153194251
 20
-0.6398229432567119
 30
0.0
 10
30.1242853207062
 20
0.1633561030553582
 30
0.0
 10
30.1067533027797
 20
0.4289097248698251
 30
0.0
 10
30.07247847259122
 20
0.9494860401412148
 30
0.0
 10
30.05466847750972
 20
1.209849315139819
 30
0.0
 10
30.03653827332056
 20
1.464580601255811
 30
0.0
  0
SPLINE
  5
D1
330
1F
100
AcDbEntity
  8
0
  6
Continuous
 62
     1
370
    15
100
AcDbSpline
210
0.0
220
0.0
230
1.0
 70
     8
 71
     3
 72
     8
 73
     4
 74
     0
 42
0.000000001
 43
0.00000001
 40
0.0
 40
0.0
 40
0.0
 40
0.0
 40
1.0
 40
1.0
 40
1.0
 40
1.0
 10
30.03653827332308
 20
1.464580601255621
 30
0.0
 10
30.12588291396834
 20
1.415500029328638
 30
0.0
 10
30.21639777351512
 20
1.360089098650619
 30
0.0
 10
30.29282742328856
 20
1.310219557668193
 30
0.0
  0
SPLINE
  5
D2
330
1F
100
AcDbEntity
  8
0
  6
Continuous
 62
     1
370
    15
100
AcDbSpline
210
0.0
220
0.0
230
1.0
 70
     8
 71
     3
 72
    12
 73
     8
 74
     0
 42
0.000000001
 43
0.00000001
 40
0.0
 40
0.0
 40
0.0
 40
0.0
 40
0.5
 40
0.5
 40
0.75
 40
0.75
 40
1.0
 40
1.0
 40
1.0
 40
1.0
 10
30.50982519201525
 20
-1.796781319527192
 30
0.0
 10
30.47404691833866
 20
-1.309974371099603
 30
0.0
 10
30.43622238266749
 20
-0.7789407665977237
 30
0.0
 10
30.38124808116319
 20
0.0166596197916679
 30
0.0
 10
30.36322377879511
 20
0.2815162602807259
 30
0.0
 10
30.32850738699687
 20
0.7993737963815679
 30
0.0
 10
30.31099559801784
 20
1.05646731596799
 30
0.0
 10
30.29282742328859
 20
1.31021955766818
 30
0.0
  0
SPLINE
  5
D3
330
1F
100
AcDbEntity
  8
0
  6
Continuous
 62
     1
370
    15
100
AcDbSpline
210
0.0
220
0.0
230
1.0
 70
     8
 71
     3
 72
     9
 73
     5
 74
     0
 42
0.000000001
 43
0.00000001
 40
0.0
 40
0.0
 40
0.0
 40
0.0
 40
0.2564448294316092
 40
0.9999999999999999
 40
0.9999999999999999
 40
0.9999999999999999
 40
0.9999999999999999
 10
31.21674872817848
 20
-2.18302411964983
 30
0.0
 10
31.16718600035202
 20
-2.19592908600704
 30
0.0
 10
30.97391742115578
 20
-2.24625166956551
 30
0.0
 10
30.75693438922911
 20
-2.345104620799291
 30
0.0
 10
30.59559553391443
 20
-2.418607243815114
 30
0.0
  0
SPLINE
  5
D4
330
1F
100
AcDbEntity
  8
0
  6
Continuous
 62
     1
370
    15
100
AcDbSpline
210
0.0
220
0.0
230
1.0
 70
     8
 71
     3
 72
     8
 73
     4
 74
     0
 42
0.000000001
 43
0.00000001
 40
0.0
 40
0.0
 40
0.0
 40
0.0
 40
1.0
 40
1.0
 40
1.0
 40
1.0
 10
32.13715701540224
 20
-2.802168238675408
 30
0.0
 10
31.61008541575844
 20
-2.72149765564584
 30
0.0
 10
31.0967002496818
 20
-2.591971025414557
 30
0.0
 10
30.59559553391376
 20
-2.418607243817846
 30
0.0
  0
LINE
  5
D5
330
1F
100
AcDbEntity
  8
0
  6
Continuous
 62
     1
370
    15
100
AcDbLine
 10
32.13715701540224
 20
-4.109161164059472
 30
0.0
 11
32.13715701540224
 21
-2.802168238675409
 31
0.0
  0
SPLINE
  5
D6
330
1F
100
AcDbEntity
  8
0
  6
Continuous
 62
     1
370
    15
100
AcDbSpline
210
0.0
220
0.0
230
1.0
 70
     8
 71
     3
 72
     8
 73
     4
 74
     0
 42
0.000000001
 43
0.00000001
 40
0.0
 40
0.0
 40
0.0
 40
0.0
 40
1.0
 40
1.0
 40
1.0
 40
1.0
 10
32.06436905653215
 20
-4.187014969799783
 30
0.0
 10
32.088563504333
 20
-4.160988794378072
 30
0.0
 10
32.11282469684162
 20
-4.135036120046112
 30
0.0
 10
32.13715701540204
 20
-4.109161164059921
 30
0.0
  0
SPLINE
  5
D7
330
1F
100
AcDbEntity
  8
0
  6
Continuous
 62
     1
370
    15
100
AcDbSpline
210
0.0
220
0.0
230
1.0
 70
     8
 71
     3
 72
     8
 73
     4
 74
     0
 42
0.000000001
 43
0.00000001
 40
0.0
 40
0.0
 40
0.0
 40
0.0
 40
1.0
 40
1.0
 40
1.0
 40
1.0
 10
32.02837335443864
 20
-4.216603668779642
 30
0.0
 10
32.04006557668744
 20
-4.206171329275799
 30
0.0
 10
32.05207434848176
 20
-4.196325674237825
 30
0.0
 10
32.06436905653603
 20
-4.187014969802783
 30
0.0
  0
SPLINE
  5
D8
330
1F
100
AcDbEntity
  8
0
  6
Continuous
 62
     1
370
    15
100
AcDbSpline
210
0.0
220
0.0
230
1.0
 70
     8
 71
     3
 72
    10
 73
     6
 74
     0
 42
0.000000001
 43
0.00000001
 40
0.0
 40
0.0
 40
0.0
 40
0.0
 40
0.4999999999999998
 40
0.4999999999999998
 40
1.0
 40
1.0
 40
1.0
 40
1.0
 10
31.50801466231812
 20
-4.334312488327574
 30
0.0
 10
31.58267298283483
 20
-4.368289387853559
 30
0.0
 10
31.67181822026695
 20
-4.374115538185361
 30
0.0
 10
31.85425467941276
 20
-4.334066464797533
 30
0.0
 10
31.94864525439052
 20
-4.287740753757988
 30
0.0
 10
32.02837335443863
 20
-4.216603668779647
 30
0.0
  0
SPLINE
  5
D9
330
1F
100
AcDbEntity
  8
0
  6
Continuous
 62
     1
370
    15
100
AcDbSpline
210
0.0
220
0.0
230
1.0
 70
     8
 71
     3
 72
    10
 73
     6
 74
     0
 42
0.000000001
 43
0.00000001
 40
0.0
 40
0.0
 40
0.0
 40
0.0
 40
0.5
 40
0.5
 40
1.0
 40
1.0
 40
1.0
 40
1.0
 10
30.98495038026391
 20
-4.437154483920182
 30
0.0
 10
31.06401491090652
 20
-4.366834048520162
 30
0.0
 10
31.15869552626907
 20
-4.324951997334617
 30
0.0
 10
31.34455083511622
 20
-4.291856058315354
 30
0.0
 10
31.43358869422843
 20
-4.300441332073232
 30
0.0
 10
31.50801466231812
 20
-4.33431248832757
 30
0.0
  0
SPLINE
  5
DA
330
1F
100
AcDbEntity
  8
0
  6
Continuous
 62
     1
370
    15
100
AcDbSpline
210
0.0
220
0.0
230
1.0
 70
     8
 71
     3
 72
     8
 73
     4
 74
     0
 42
0.000000001
 43
0.00000001
 40
0.0
 40
0.0
 40
0.0
 40
0.0
 40
1.0
 40
1.0
 40
1.0
 40
1.0
 10
30.72875597892319
 20
-4.562788082429746
 30
0.0
 10
30.81804045142567
 20
-4.547017249922879
 30
0.0
 10
30.90854850920119
 20
-4.505106735009506
 30
0.0
 10
30.98495038026328
 20
-4.437154483920699
 30
0.0
  0
SPLINE
  5
DB
330
1F
100
AcDbEntity
  8
0
  6
Continuous
 62
     1
370
    15
100
AcDbSpline
210
0.0
220
0.0
230
1.0
 70
     8
 71
     3
 72
     8
 73
     4
 74
     0
 42
0.000000001
 43
0.00000001
 40
0.0
 40
0.0
 40
0.0
 40
0.0
 40
1.0
 40
1.0
 40
1.0
 40
1.0
 10
30.4708148172098
 20
-4.519180091784007
 30
0.0
 10
30.54538377666032
 20
-4.562388138346876
 30
0.0
 10
30.63575709451673
 20
-4.576901740876983
 30
0.0
 10
30.72875597892002
 20
-4.562788082430076
 30
0.0
  0
SPLINE
  5
DC
330
1F
100
AcDbEntity
  8
0
  6
Continuous
 62
     1
370
    15
100
AcDbSpline
210
0.0
220
0.0
230
1.0
 70
     8
 71
     3
 72
    10
 73
     6
 74
     0
 42
0.000000001
 43
0.00000001
 40
0.0
 40
0.0
 40
0.0
 40
0.0
 40
0.5000000000000001
 40
0.5000000000000001
 40
1.0
 40
1.0
 40
1.0
 40
1.0
 10
29.94814692455901
 20
-4.582646220094495
 30
0.0
 10
30.02769298662822
 20
-4.515226559590483
 30
0.0
 10
30.1225038861858
 20
-4.47876606853525
 30
0.0
 10
30.30808653627785
 20
-4.45950796839596
 30
0.0
 10
30.3968447963202
 20
-4.476319092643547
 30
0.0
 10
30.47081481720895
 20
-4.519180091783309
 30
0.0
  0
SPLINE
  5
DD
330
1F
100
AcDbEntity
  8
0
  6
Continuous
 62
     1
370
    15
100
AcDbSpline
210
0.0
220
0.0
230
1.0
 70
     8
 71
     3
 72
    10
 73
     6
 74
     0
 42
0.000000001
 43
0.00000001
 40
0.0
 40
0.0
 40
0.0
 40
0.0
 40
0.5
 40
0.5
 40
1.0
 40
1.0
 40
1.0
 40
1.0
 10
29.4286744890619
 20
-4.629440351919333
 30
0.0
 10
29.50316760537067
 20
-4.679358721770121
 30
0.0
 10
29.59214839802988
 20
-4.700577011712299
 30
0.0
 10
29.77430544049715
 20
-4.686122315927167
 30
0.0
 10
29.86857479245103
 20
-4.650087976389517
 30
0.0
 10
29.94814692455902
 20
-4.58264622009448
 30
0.0
  0
SPLINE
  5
DE
330
1F
100
AcDbEntity
  8
0
  6
Continuous
 62
     1
370
    15
100
AcDbSpline
210
0.0
220
0.0
230
1.0
 70
     8
 71
     3
 72
    10
 73
     6
 74
     0
 42
0.000000001
 43
0.00000001
 40
0.0
 40
0.0
 40
0.0
 40
0.0
 40
0.5
 40
0.5
 40
1.0
 40
1.0
 40
1.0
 40
1.0
 10
28.90599536244475
 20
-4.660345216329353
 30
0.0
 10
28.98499493601404
 20
-4.595686010188208
 30
0.0
 10
29.07959408269635
 20
-4.563769339477642
 30
0.0
 10
29.26531808983726
 20
-4.555990766554958
 30
0.0
 10
29.35432038662179
 20
-4.579615136255871
 30
0.0
 10
29.42867448906189
 20
-4.629440351919341
 30
0.0
  0
SPLINE
  5
DF
330
1F
100
AcDbEntity
  8
0
  6
Continuous
 62
     1
370
    15
100
AcDbSpline
210
0.0
220
0.0
230
1.0
 70
     8
 71
     3
 72
     8
 73
     4
 74
     0
 42
0.000000001
 43
0.00000001
 40
0.0
 40
0.0
 40
0.0
 40
0.0
 40
1.0
 40
1.0
 40
1.0
 40
1.0
 10
28.64979686477107
 20
-4.757101666362518
 30
0.0
 10
28.73906833640861
 20
-4.753965332910851
 30
0.0
 10
28.82958197113598
 20
-4.722887695957113
 30
0.0
 10
28.90599536244414
 20
-4.660345216329851
 30
0.0
  0
SPLINE
  5
E0
330
1F
100
AcDbEntity
  8
0
  6
Continuous
 62
     1
370
    15
100
AcDbSpline
210
0.0
220
0.0
230
1.0
 70
     8
 71
     3
 72
     8
 73
     4
 74
     0
 42
0.000000001
 43
0.00000001
 40
0.0
 40
0.0
 40
0.0
 40
0.0
 40
1.0
 40
1.0
 40
1.0
 40
1.0
 10
28.3917121784589
 20
-4.670461371891765
 30
0.0
 10
28.46635508718481
 20
-4.72828206389423
 30
0.0
 10
28.55675020098042
 20
-4.757872258386581
 30
0.0
 10
28.64979686476793
 20
-4.757101666362561
 30
0.0
  0
SPLINE
  5
E1
330
1F
100
AcDbEntity
  8
0
  6
Continuous
 62
     1
370
    15
100
AcDbSpline
210
0.0
220
0.0
230
1.0
 70
     8
 71
     3
 72
    10
 73
     6
 74
     0
 42
0.000000001
 43
0.00000001
 40
0.0
 40
0.0
 40
0.0
 40
0.0
 40
0.5
 40
0.5
 40
1.0
 40
1.0
 40
1.0
 40
1.0
 10
27.86846475476313
 20
-4.6598641010404
 30
0.0
 10
27.94811120439518
 20
-4.600288936384147
 30
0.0
 10
28.043024838313
 20
-4.575025674630111
 30
0.0
 10
28.228829827651
 20
-4.581783382738686
 30
0.0
 10
28.31769523280024
 20
-4.613125570125775
 30
0.0
 10
28.39171217845806
 20
-4.670461371891033
 30
0.0
  0
SPLINE
  5
E2
330
1F
100
AcDbEntity
  8
0
  6
Continuous
 62
     1
370
    15
100
AcDbSpline
210
0.0
220
0.0
230
1.0
 70
     8
 71
     3
 72
    10
 73
     6
 74
     0
 42
0.000000001
 43
0.00000001
 40
0.0
 40
0.0
 40
0.0
 40
0.0
 40
0.5
 40
0.5
 40
1.0
 40
1.0
 40
1.0
 40
1.0
 10
27.34811631250756
 20
-4.633130889548307
 30
0.0
 10
27.4227507088107
 20
-4.695851758618313
 30
0.0
 10
27.51187133771503
 20
-4.731038470809883
 30
0.0
 10
27.69430971181172
 20
-4.742966605958872
 30
0.0
 10
27.7887348216165
 20
-4.7195017109676
 30
0.0
 10
27.86846475476314
 20
-4.659864101040392
 30
0.0
  0
SPLINE
  5
E3
330
1F
100
AcDbEntity
  8
0
  6
Continuous
 62
     1
370
    15
100
AcDbSpline
210
0.0
220
0.0
230
1.0
 70
     8
 71
     3
 72
    10
 73
     6
 74
     0
 42
0.000000001
 43
0.00000001
 40
0.0
 40
0.0
 40
0.0
 40
0.0
 40
0.5
 40
0.5
 40
1.0
 40
1.0
 40
1.0
 40
1.0
 10
26.82482122201676
 20
-4.590027517083382
 30
0.0
 10
26.90391756214966
 20
-4.535089551310213
 30
0.0
 10
26.99861115188077
 20
-4.515232961179062
 30
0.0
 10
27.18451522356792
 20
-4.533355050959504
 30
0.0
 10
27.27362893888177
 20
-4.570533574637692
 30
0.0
 10
27.34811631250756
 20
-4.633130889548307
 30
0.0
  0
SPLINE
  5
E4
330
1F
100
AcDbEntity
  8
0
  6
Continuous
 62
     1
370
    15
100
AcDbSpline
210
0.0
220
0.0
230
1.0
 70
     8
 71
     3
 72
     8
 73
     4
 74
     0
 42
0.000000001
 43
0.00000001
 40
0.0
 40
0.0
 40
0.0
 40
0.0
 40
1.0
 40
1.0
 40
1.0
 40
1.0
 10
26.56844114590966
 20
-4.651585851067757
 30
0.0
 10
26.65775959631227
 20
-4.661359048148347
 30
0.0
 10
26.74832464711339
 20
-4.643159763236945
 30
0.0
 10
26.82482122201616
 20
-4.590027517083804
 30
0.0
  0
SPLINE
  5
E5
330
1F
100
AcDbEntity
  8
0
  6
Continuous
 62
     1
370
    15
100
AcDbSpline
210
0.0
220
0.0
230
1.0
 70
     8
 71
     3
 72
     8
 73
     4
 74
     0
 42
0.000000001
 43
0.00000001
 40
0.0
 40
0.0
 40
0.0
 40
0.0
 40
1.0
 40
1.0
 40
1.0
 40
1.0
 10
26.31026430066165
 20
-4.527241839891439
 30
0.0
 10
26.38496068360261
 20
-4.596067591468653
 30
0.0
 10
26.47543327508583
 20
-4.638886680878284
 30
0.0
 10
26.56844114590655
 20
-4.651585851067488
 30
0.0
  0
SPLINE
  5
E6
330
1F
100
AcDbEntity
  8
0
  6
Continuous
 62
     1
370
    15
100
AcDbSpline
210
0.0
220
0.0
230
1.0
 70
     8
 71
     3
 72
    10
 73
     6
 74
     0
 42
0.000000001
 43
0.00000001
 40
0.0
 40
0.0
 40
0.0
 40
0.0
 40
0.5
 40
0.5
 40
1.0
 40
1.0
 40
1.0
 40
1.0
 10
25.78713227357622
 20
-4.443379810712424
 30
0.0
 10
25.86673242294149
 20
-4.395414214084538
 30
0.0
 10
25.96161413322931
 20
-4.382907683135755
 30
0.0
 10
26.14739328715297
 20
-4.415194113631643
 30
0.0
 10
26.23625065554816
 20
-4.459045167557522
 30
0.0
 10
26.31026430066079
 20
-4.527241839890658
 30
0.0
  0
SPLINE
  5
E7
330
1F
100
AcDbEntity
  8
0
  6
Continuous
 62
     1
370
    15
100
AcDbSpline
210
0.0
220
0.0
230
1.0
 70
     8
 71
     3
 72
    10
 73
     6
 74
     0
 42
0.000000001
 43
0.00000001
 40
0.0
 40
0.0
 40
0.0
 40
0.0
 40
0.5
 40
0.5
 40
1.0
 40
1.0
 40
1.0
 40
1.0
 10
25.26719760514271
 20
-4.344806426099222
 30
0.0
 10
25.34173652441397
 20
-4.416364797953389
 30
0.0
 10
25.43077643826316
 20
-4.463317282714128
 30
0.0
 10
25.61308674580145
 20
-4.500860723598011
 30
0.0
 10
25.70745870971933
 20
-4.491389645572232
 30
0.0
 10
25.78713227357619
 20
-4.443379810712151
 30
0.0
  0
SPLINE
  5
E8
330
1F
100
AcDbEntity
  8
0
  6
Continuous
 62
     1
370
    15
100
AcDbSpline
210
0.0
220
0.0
230
1.0
 70
     8
 71
     3
 72
    10
 73
     6
 74
     0
 42
0.000000001
 43
0.00000001
 40
0.0
 40
0.0
 40
0.0
 40
0.0
 40
0.5
 40
0.5
 40
1.0
 40
1.0
 40
1.0
 40
1.0
 10
24.74461837378923
 20
-4.230306073306146
 30
0.0
 10
24.82358584356821
 20
-4.188647004795524
 30
0.0
 10
24.91814674351953
 20
-4.182092788533408
 30
0.0
 10
25.10381680620877
 20
-4.224990760194959
 30
0.0
 10
25.19281794316245
 20
-4.273400943400883
 30
0.0
 10
25.26719760514269
 20
-4.344806426099113
 30
0.0
  0
SPLINE
  5
E9
330
1F
100
AcDbEntity
  8
0
  6
Continuous
 62
     1
370
    15
100
AcDbSpline
210
0.0
220
0.0
230
1.0
 70
     8
 71
     3
 72
     8
 73
     4
 74
     0
 42
0.000000001
 43
0.00000001
 40
0.0
 40
0.0
 40
0.0
 40
0.0
 40
1.0
 40
1.0
 40
1.0
 40
1.0
 10
24.48866800719015
 20
-4.252873912840747
 30
0.0
 10
24.57790663207364
 20
-4.274849405893651
 30
0.0
 10
24.66830192963425
 20
-4.270566600639956
 30
0.0
 10
24.74461837378861
 20
-4.230306073306449
 30
0.0
  0
SPLINE
  5
EA
330
1F
100
AcDbEntity
  8
0
  6
Continuous
 62
     1
370
    15
100
AcDbSpline
210
0.0
220
0.0
230
1.0
 70
     8
 71
     3
 72
     8
 73
     4
 74
     0
 42
0.000000001
 43
0.00000001
 40
0.0
 40
0.0
 40
0.0
 40
0.0
 40
1.0
 40
1.0
 40
1.0
 40
1.0
 10
24.23092473255917
 20
-4.099000739662621
 30
0.0
 10
24.30546003408272
 20
-4.174314617951512
 30
0.0
 10
24.39578163127615
 20
-4.227609771999151
 30
0.0
 10
24.48866800718699
 20
-4.252873912840177
 30
0.0
  0
SPLINE
  5
EB
330
1F
100
AcDbEntity
  8
0
  6
Continuous
 62
     1
370
    15
100
AcDbSpline
210
0.0
220
0.0
230
1.0
 70
     8
 71
     3
 72
    10
 73
     6
 74
     0
 42
0.000000001
 43
0.00000001
 40
0.0
 40
0.0
 40
0.0
 40
0.0
 40
0.4999999999999998
 40
0.4999999999999998
 40
1.0
 40
1.0
 40
1.0
 40
1.0
 10
23.70818906319137
 20
-3.947498924737116
 30
0.0
 10
23.78771491043928
 20
-3.914172510542897
 30
0.0
 10
23.88251299515174
 20
-3.915153986102695
 30
0.0
 10
24.06816607015112
 20
-3.970774875071264
 30
0.0
 10
24.1569871218192
 20
-4.024290795482568
 30
0.0
 10
24.23092473255833
 20
-4.099000739662026
 30
0.0
  0
SPLINE
  5
EC
330
1F
100
AcDbEntity
  8
0
  6
Continuous
 62
     1
370
    15
100
AcDbSpline
210
0.0
220
0.0
230
1.0
 70
     8
 71
     3
 72
    10
 73
     6
 74
     0
 42
0.000000001
 43
0.00000001
 40
0.0
 40
0.0
 40
0.0
 40
0.0
 40
0.5
 40
0.5
 40
1.0
 40
1.0
 40
1.0
 40
1.0
 10
23.18811135765743
 20
-3.783183575215801
 30
0.0
 10
23.26268047636491
 20
-3.859073868708272
 30
0.0
 10
23.35172781768418
 20
-3.91486657168498
 30
0.0
 10
23.53407137033957
 20
-3.9757341958317
 30
0.0
 10
23.62848268311102
 20
-3.980900993729831
 30
0.0
 10
23.70818906319137
 20
-3.947498924737109
 30
0.0
  0
SPLINE
  5
ED
330
1F
100
AcDbEntity
  8
0
  6
Continuous
 62
     1
370
    15
100
AcDbSpline
210
0.0
220
0.0
230
1.0
 70
     8
 71
     3
 72
    10
 73
     6
 74
     0
 42
0.000000001
 43
0.00000001
 40
0.0
 40
0.0
 40
0.0
 40
0.0
 40
0.5
 40
0.5
 40
1.0
 40
1.0
 40
1.0
 40
1.0
 10
22.66487310971553
 20
-3.604108051739481
 30
0.0
 10
22.74401329193822
 20
-3.578270852799754
 30
0.0
 10
22.83870043526833
 20
-3.585577726570705
 30
0.0
 10
23.02453487615298
 20
-3.650753029171509
 30
0.0
 10
23.11362576098022
 20
-3.707378283551166
 30
0.0
 10
23.18811135765743
 20
-3.783183575215797
 30
0.0
  0
SPLINE
  5
EE
330
1F
100
AcDbEntity
  8
0
  6
Continuous
 62
     1
370
    15
100
AcDbSpline
210
0.0
220
0.0
230
1.0
 70
     8
 71
     3
 72
     8
 73
     4
 74
     0
 42
0.000000001
 43
0.00000001
 40
0.0
 40
0.0
 40
0.0
 40
0.0
 40
1.0
 40
1.0
 40
1.0
 40
1.0
 10
22.40851921981417
 20
-3.586284718303787
 30
0.0
 10
22.49788378293916
 20
-3.619095268876637
 30
0.0
 10
22.58842965767328
 20
-3.629064838830017
 30
0.0
 10
22.66487310971491
 20
-3.604108051739683
 30
0.0
  0
SPLINE
  5
EF
330
1F
100
AcDbEntity
  8
0
  6
Continuous
 62
     1
370
    15
100
AcDbSpline
210
0.0
220
0.0
230
1.0
 70
     8
 71
     3
 72
     8
 73
     4
 74
     0
 42
0.000000001
 43
0.00000001
 40
0.0
 40
0.0
 40
0.0
 40
0.0
 40
1.0
 40
1.0
 40
1.0
 40
1.0
 10
22.15033873855131
 20
-3.412455914539668
 30
0.0
 10
22.22501556090013
 20
-3.489609144273208
 30
0.0
 10
22.31548278721352
 20
-3.550020301053129
 30
0.0
 10
22.40851921981101
 20
-3.586284718302945
 30
0.0
  0
SPLINE
  5
F0
330
1F
100
AcDbEntity
  8
0
  6
Continuous
 62
     1
370
    15
100
AcDbSpline
210
0.0
220
0.0
230
1.0
 70
     8
 71
     3
 72
    10
 73
     6
 74
     0
 42
0.000000001
 43
0.00000001
 40
0.0
 40
0.0
 40
0.0
 40
0.0
 40
0.5
 40
0.5
 40
1.0
 40
1.0
 40
1.0
 40
1.0
 10
21.62702118537024
 20
-3.202510452614817
 30
0.0
 10
21.70663073121659
 20
-3.185953109072466
 30
0.0
 10
21.80151643655889
 20
-3.200480690569855
 30
0.0
 10
21.98734715999925
 20
-3.276094216159994
 30
0.0
 10
22.07627558335738
 20
-3.335936702182321
 30
0.0
 10
22.15033873855046
 20
-3.412455914539144
 30
0.0
  0
SPLINE
  5
F1
330
1F
100
AcDbEntity
  8
0
  6
Continuous
 62
     1
370
    15
100
AcDbSpline
210
0.0
220
0.0
230
1.0
 70
     8
 71
     3
 72
    10
 73
     6
 74
     0
 42
0.000000001
 43
0.00000001
 40
0.0
 40
0.0
 40
0.0
 40
0.0
 40
0.5
 40
0.5
 40
1.0
 40
1.0
 40
1.0
 40
1.0
 10
21.10666353378097
 20
-2.982409315923614
 30
0.0
 10
21.18126700028589
 20
-3.057933664808614
 30
0.0
 10
21.27034888674119
 20
-3.119101494811468
 30
0.0
 10
21.45277498009029
 20
-3.199560302548135
 30
0.0
 10
21.54723951478827
 20
-3.219103594984413
 30
0.0
 10
21.62702118537024
 20
-3.202510452614809
 30
0.0
  0
SPLINE
  5
F2
330
1F
100
AcDbEntity
  8
0
  6
Continuous
 62
     1
370
    15
100
AcDbSpline
210
0.0
220
0.0
230
1.0
 70
     8
 71
     3
 72
    10
 73
     6
 74
     0
 42
0.000000001
 43
0.00000001
 40
0.0
 40
0.0
 40
0.0
 40
0.0
 40
0.5
 40
0.5
 40
1.0
 40
1.0
 40
1.0
 40
1.0
 10
20.58353055670265
 20
-2.750532421422039
 30
0.0
 10
20.66265802281787
 20
-2.742131534271024
 30
0.0
 10
20.75739019522797
 20
-2.762602465603832
 30
0.0
 10
20.94325095954475
 20
-2.8457343946826
 30
0.0
 10
21.03222843352788
 20
-2.90705541155197
 30
0.0
 10
21.10666353378097
 20
-2.98240931592361
 30
0.0
  0
SPLINE
  5
F3
330
1F
100
AcDbEntity
  8
0
  6
Continuous
 62
     1
370
    15
100
AcDbSpline
210
0.0
220
0.0
230
1.0
 70
     8
 71
     3
 72
     8
 73
     4
 74
     0
 42
0.000000001
 43
0.00000001
 40
0.0
 40
0.0
 40
0.0
 40
0.0
 40
1.0
 40
1.0
 40
1.0
 40
1.0
 10
20.32734429041432
 20
-2.693646687077699
 30
0.0
 10
20.41665332531745
 20
-2.735155707011039
 30
0.0
 10
20.50714671327832
 20
-2.758642020784376
 30
0.0
 10
20.58353055670203
 20
-2.750532421422072
 30
0.0
  0
SPLINE
  5
F4
330
1F
100
AcDbEntity
  8
0
  6
Continuous
 62
     1
370
    15
100
AcDbSpline
210
0.0
220
0.0
230
1.0
 70
     8
 71
     3
 72
     8
 73
     4
 74
     0
 42
0.000000001
 43
0.00000001
 40
0.0
 40
0.0
 40
0.0
 40
0.0
 40
1.0
 40
1.0
 40
1.0
 40
1.0
 10
20.06944158189802
 20
-2.511090970294125
 30
0.0
 10
20.14400656604547
 20
-2.585107351452745
 30
0.0
 10
20.2343828045036
 20
-2.648752078186332
 30
0.0
 10
20.32734429041116
 20
-2.693646687076629
 30
0.0
  0
SPLINE
  5
F5
330
1F
100
AcDbEntity
  8
0
  6
Continuous
 62
     1
370
    15
100
AcDbSpline
210
0.0
220
0.0
230
1.0
 70
     8
 71
     3
 72
    10
 73
     6
 74
     0
 42
0.000000001
 43
0.00000001
 40
0.0
 40
0.0
 40
0.0
 40
0.0
 40
0.5
 40
0.5
 40
1.0
 40
1.0
 40
1.0
 40
1.0
 10
19.54687491539805
 20
-2.256342948903586
 30
0.0
 10
19.62634234808808
 20
-2.257581525492534
 30
0.0
 10
19.72108944405874
 20
-2.284650319766615
 30
0.0
 10
19.90668379973415
 20
-2.375353973056218
 30
0.0
 10
19.99549445258755
 20
-2.437687898178935
 30
0.0
 10
20.06944158189713
 20
-2.511090970293489
 30
0.0
  0
SPLINE
  5
F6
330
1F
100
AcDbEntity
  8
0
  6
Continuous
 62
     1
370
    15
100
AcDbSpline
210
0.0
220
0.0
230
1.0
 70
     8
 71
     3
 72
    10
 73
     6
 74
     0
 42
0.000000001
 43
0.00000001
 40
0.0
 40
0.0
 40
0.0
 40
0.0
 40
0.5
 40
0.5
 40
1.0
 40
1.0
 40
1.0
 40
1.0
 10
19.02731806529087
 20
-1.994709544671386
 30
0.0
 10
19.10182757830765
 20
-2.064929739968652
 30
0.0
 10
19.19075135148401
 20
-2.127572470166982
 30
0.0
 10
19.37288987842514
 20
-2.222480287172452
 30
0.0
 10
19.46722117136023
 20
-2.255101468472493
 30
0.0
 10
19.54687491539805
 20
-2.256342948903502
 30
0.0
  0
SPLINE
  5
F7
330
1F
100
AcDbEntity
  8
0
  6
Continuous
 62
     1
370
    15
100
AcDbSpline
210
0.0
220
0.0
230
1.0
 70
     8
 71
     3
 72
    10
 73
     6
 74
     0
 42
0.000000001
 43
0.00000001
 40
0.0
 40
0.0
 40
0.0
 40
0.0
 40
0.5
 40
0.5
 40
1.0
 40
1.0
 40
1.0
 40
1.0
 10
18.5045830109426
 20
-1.725341598922489
 30
0.0
 10
18.58363129131987
 20
-1.734897586905674
 30
0.0
 10
18.67828146393015
 20
-1.767194584960366
 30
0.0
 10
18.86402920293249
 20
-1.862750783389719
 30
0.0
 10
18.95298546734434
 20
-1.924656079906632
 30
0.0
 10
19.02731806529088
 20
-1.994709544671383
 30
0.0
  0
SPLINE
  5
F8
330
1F
100
AcDbEntity
  8
0
  6
Continuous
 62
     1
370
    15
100
AcDbSpline
210
0.0
220
0.0
230
1.0
 70
     8
 71
     3
 72
     8
 73
     4
 74
     0
 42
0.000000001
 43
0.00000001
 40
0.0
 40
0.0
 40
0.0
 40
0.0
 40
1.0
 40
1.0
 40
1.0
 40
1.0
 10
18.24840102444408
 20
-1.632935526494095
 30
0.0
 10
18.33770357564939
 20
-1.680549055310705
 30
0.0
 10
18.42820334988626
 20
-1.716108214973576
 30
0.0
 10
18.504583010942
 20
-1.725341598922419
 30
0.0
  0
SPLINE
  5
F9
330
1F
100
AcDbEntity
  8
0
  6
Continuous
 62
     1
370
    15
100
AcDbSpline
210
0.0
220
0.0
230
1.0
 70
     8
 71
     3
 72
     8
 73
     4
 74
     0
 42
0.000000001
 43
0.00000001
 40
0.0
 40
0.0
 40
0.0
 40
0.0
 40
1.0
 40
1.0
 40
1.0
 40
1.0
 10
17.99036015269902
 20
-1.452938669522906
 30
0.0
 10
18.06497579213575
 20
-1.519240234649613
 30
0.0
 10
18.15538737704613
 20
-1.58217892864999
 30
0.0
 10
18.24840102444093
 20
-1.632935526492903
 30
0.0
  0
SPLINE
  5
FA
330
1F
100
AcDbEntity
  8
0
  6
Continuous
 62
     1
370
    15
100
AcDbSpline
210
0.0
220
0.0
230
1.0
 70
     8
 71
     3
 72
    10
 73
     6
 74
     0
 42
0.000000001
 43
0.00000001
 40
0.0
 40
0.0
 40
0.0
 40
0.0
 40
0.5
 40
0.5
 40
1.0
 40
1.0
 40
1.0
 40
1.0
 10
17.46711995545436
 20
-1.168585604568818
 30
0.0
 10
17.54671148153265
 20
-1.187693557408277
 30
0.0
 10
17.64155776513902
 20
-1.225776991848697
 30
0.0
 10
17.82733869386389
 20
-1.326105976541688
 30
0.0
 10
17.91629076955024
 20
-1.387122493882083
 30
0.0
 10
17.99036015269817
 20
-1.452938669522633
 30
0.0
  0
SPLINE
  5
FB
330
1F
100
AcDbEntity
  8
0
  6
Continuous
 62
     1
370
    15
100
AcDbSpline
210
0.0
220
0.0
230
1.0
 70
     8
 71
     3
 72
    10
 73
     6
 74
     0
 42
0.000000001
 43
0.00000001
 40
0.0
 40
0.0
 40
0.0
 40
0.0
 40
0.5
 40
0.5
 40
1.0
 40
1.0
 40
1.0
 40
1.0
 10
16.94667864850987
 20
-0.8815446097420884
 30
0.0
 10
17.02136751325107
 20
-0.9420996717747071
 30
0.0
 10
17.11052676503686
 20
-1.002160097091987
 30
0.0
 10
17.29295973767494
 20
-1.105559634245334
 30
0.0
 10
17.38733888554204
 20
-1.149432146952375
 30
0.0
 10
17.46711995545436
 20
-1.168585604568788
 30
0.0
  0
SPLINE
  5
FC
330
1F
100
AcDbEntity
  8
0
  6
Continuous
 62
     1
370
    15
100
AcDbSpline
210
0.0
220
0.0
230
1.0
 70
     8
 71
     3
 72
    10
 73
     6
 74
     0
 42
0.000000001
 43
0.00000001
 40
0.0
 40
0.0
 40
0.0
 40
0.0
 40
0.5
 40
0.5
 40
1.0
 40
1.0
 40
1.0
 40
1.0
 10
16.42340076888899
 20
-0.5911591777671849
 30
0.0
 10
16.50251887896015
 20
-0.6181431911886233
 30
0.0
 10
16.59724962334105
 20
-0.6603600899293328
 30
0.0
 10
16.78317102886024
 20
-0.7625176563648205
 30
0.0
 10
16.87222916970736
 20
-0.8211836332725276
 30
0.0
 10
16.94667864850987
 20
-0.8815446097420913
 30
0.0
  0
SPLINE
  5
FD
330
1F
100
AcDbEntity
  8
0
  6
Continuous
 62
     1
370
    15
100
AcDbSpline
210
0.0
220
0.0
230
1.0
 70
     8
 71
     3
 72
     8
 73
     4
 74
     0
 42
0.000000001
 43
0.00000001
 40
0.0
 40
0.0
 40
0.0
 40
0.0
 40
1.0
 40
1.0
 40
1.0
 40
1.0
 10
16.16707305089268
 20
-0.4688665690318741
 30
0.0
 10
16.25641186565623
 20
-0.5196389875795325
 30
0.0
 10
16.34696333156324
 20
-0.565089434280524
 30
0.0
 10
16.42340076888838
 20
-0.5911591777669832
 30
0.0
  0
SPLINE
  5
FE
330
1F
100
AcDbEntity
  8
0
  6
Continuous
 62
     1
370
    15
100
AcDbSpline
210
0.0
220
0.0
230
1.0
 70
     8
 71
     3
 72
     8
 73
     4
 74
     0
 42
0.000000001
 43
0.00000001
 40
0.0
 40
0.0
 40
0.0
 40
0.0
 40
1.0
 40
1.0
 40
1.0
 40
1.0
 10
15.908937519187
 20
-0.3027171182833397
 30
0.0
 10
15.98357912987388
 20
-0.3571369037816164
 30
0.0
 10
16.0740209703789
 20
-0.4154178965067278
 30
0.0
 10
16.16707305088953
 20
-0.4688665690306146
 30
0.0
  0
SPLINE
  5
FF
330
1F
100
AcDbEntity
  8
0
  6
Continuous
 62
     1
370
    15
100
AcDbSpline
210
0.0
220
0.0
230
1.0
 70
     8
 71
     3
 72
    10
 73
     6
 74
     0
 42
0.000000001
 43
0.00000001
 40
0.0
 40
0.0
 40
0.0
 40
0.0
 40
0.5
 40
0.5
 40
1.0
 40
1.0
 40
1.0
 40
1.0
 10
15.38575778719678
 20
-0.0068643314248686
 30
0.0
 10
15.46535993868414
 20
-0.0425287913374563
 30
0.0
 10
15.56017035753095
 20
-0.0892543895866763
 30
0.0
 10
15.74592390403483
 20
-0.192885702652757
 30
0.0
 10
15.83485824717288
 20
-0.2487073232675908
 30
0.0
 10
15.90893751918614
 20
-0.3027171182833027
 30
0.0
  0
SPLINE
  5
100
330
1F
100
AcDbEntity
  8
0
  6
Continuous
 62
     1
370
    15
100
AcDbSpline
210
0.0
220
0.0
230
1.0
 70
     8
 71
     3
 72
    10
 73
     6
 74
     0
 42
0.000000001
 43
0.00000001
 40
0.0
 40
0.0
 40
0.0
 40
0.0
 40
0.5
 40
0.5
 40
1.0
 40
1.0
 40
1.0
 40
1.0
 10
14.86579467171723
 20
0.286185021866318
 30
0.0
 10
14.94037703545734
 20
0.2392791420018367
 30
0.0
 10
15.02945689441491
 20
0.1856800984395908
 30
0.0
 10
15.21177050136087
 20
0.0807360884394382
 30
0.0
 10
15.30609586493826
 20
0.0288269078175714
 30
0.0
 10
15.38575778719678
 20
-0.0068643314248701
 30
0.0
  0
SPLINE
  5
101
330
1F
100
AcDbEntity
  8
0
  6
Continuous
 62
     1
370
    15
100
AcDbSpline
210
0.0
220
0.0
230
1.0
 70
     8
 71
     3
 72
    10
 73
     6
 74
     0
 42
0.000000001
 43
0.00000001
 40
0.0
 40
0.0
 40
0.0
 40
0.0
 40
0.5
 40
0.5
 40
1.0
 40
1.0
 40
1.0
 40
1.0
 10
14.34330391519118
 20
0.57868588299486
 30
0.0
 10
14.42226688424943
 20
0.5360693858671645
 30
0.0
 10
14.51685143520175
 20
0.4866967401471311
 30
0.0
 10
14.70253302939239
 20
0.3845604816846473
 30
0.0
 10
14.79146925117916
 20
0.3329293065981002
 30
0.0
 10
14.86579467171722
 20
0.2861850218663402
 30
0.0
  0
SPLINE
  5
102
330
1F
100
AcDbEntity
  8
0
  6
Continuous
 62
     1
370
    15
100
AcDbSpline
210
0.0
220
0.0
230
1.0
 70
     8
 71
     3
 72
    10
 73
     6
 74
     0
 42
0.000000001
 43
0.00000001
 40
0.0
 40
0.0
 40
0.0
 40
0.0
 40
0.4999999999999999
 40
0.4999999999999999
 40
1.0
 40
1.0
 40
1.0
 40
1.0
 10
13.30678721167359
 20
1.152633371848108
 30
0.0
 10
13.38637519560133
 20
1.102819710788117
 30
0.0
 10
13.48120930720869
 20
1.050733168050965
 30
0.0
 10
13.66683015341026
 20
0.9504866740375254
 30
0.0
 10
13.75564467224058
 20
0.9033491008980048
 30
0.0
 10
13.82963245789904
 20
0.8645726741110844
 30
0.0
  0
SPLINE
  5
103
330
1F
100
AcDbEntity
  8
0
  6
Continuous
 62
     1
370
    15
100
AcDbSpline
210
0.0
220
0.0
230
1.0
 70
     8
 71
     3
 72
    10
 73
     6
 74
     0
 42
0.000000001
 43
0.00000001
 40
0.0
 40
0.0
 40
0.0
 40
0.0
 40
0.5
 40
0.5
 40
1.0
 40
1.0
 40
1.0
 40
1.0
 10
12.26353750055768
 20
1.710718796455535
 30
0.0
 10
12.34261689515167
 20
1.654995567730424
 30
0.0
 10
12.43729971363161
 20
1.601418738153153
 30
0.0
 10
12.62317329388262
 20
1.505443922458988
 30
0.0
 10
12.71225033189035
 20
1.463930353567462
 30
0.0
 10
12.78669513230742
 20
1.433581107898405
 30
0.0
  0
SPLINE
  5
104
330
1F
100
AcDbEntity
  8
0
  6
Continuous
 62
     1
370
    15
100
AcDbSpline
210
0.0
220
0.0
230
1.0
 70
     8
 71
     3
 72
     8
 73
     4
 74
     0
 42
0.000000001
 43
0.00000001
 40
0.0
 40
0.0
 40
0.0
 40
0.0
 40
1.0
 40
1.0
 40
1.0
 40
1.0
 10
12.00718247800519
 20
1.868328015582364
 30
0.0
 10
12.09650365162994
 20
1.820809259005016
 30
0.0
 10
12.18706955297541
 20
1.764601871245643
 30
0.0
 10
12.26353750055707
 20
1.710718796455987
 30
0.0
  0
SPLINE
  5
105
330
1F
100
AcDbEntity
  8
0
  6
Continuous
 62
     1
370
    15
100
AcDbSpline
210
0.0
220
0.0
230
1.0
 70
     8
 71
     3
 72
     8
 73
     4
 74
     0
 42
0.000000001
 43
0.00000001
 40
0.0
 40
0.0
 40
0.0
 40
0.0
 40
1.0
 40
1.0
 40
1.0
 40
1.0
 10
11.74895646576217
 20
1.977054570066271
 30
0.0
 10
11.82364220442441
 20
1.955705213749555
 30
0.0
 10
11.91409053552878
 20
1.917155162503383
 30
0.0
 10
12.00718247800203
 20
1.868328015583528
 30
0.0
  0
SPLINE
  5
106
330
1F
100
AcDbEntity
  8
0
  6
Continuous
 62
     1
370
    15
100
AcDbSpline
210
0.0
220
0.0
230
1.0
 70
     8
 71
     3
 72
    10
 73
     6
 74
     0
 42
0.000000001
 43
0.00000001
 40
0.0
 40
0.0
 40
0.0
 40
0.0
 40
0.5
 40
0.5
 40
1.0
 40
1.0
 40
1.0
 40
1.0
 10
11.22557772103199
 20
2.239013792337706
 30
0.0
 10
11.30524518623397
 20
2.178090011795069
 30
0.0
 10
11.40018318468513
 20
2.123834185424721
 30
0.0
 10
11.58602971217737
 20
2.033541233307898
 30
0.0
 10
11.67491144020982
 20
1.998220774782976
 30
0.0
 10
11.74895646576132
 20
1.977054570065977
 30
0.0
  0
SPLINE
  5
107
330
1F
100
AcDbEntity
  8
0
  6
Continuous
 62
     1
370
    15
100
AcDbSpline
210
0.0
220
0.0
230
1.0
 70
     8
 71
     3
 72
    10
 73
     6
 74
     0
 42
0.000000001
 43
0.00000001
 40
0.0
 40
0.0
 40
0.0
 40
0.0
 40
0.5
 40
0.5
 40
1.0
 40
1.0
 40
1.0
 40
1.0
 10
10.7052796501141
 20
2.490353299107744
 30
0.0
 10
10.77990096426046
 20
2.478344236015606
 30
0.0
 10
10.86901503466161
 20
2.446993605900328
 30
0.0
 10
11.05143970203823
 20
2.358117765458723
 30
0.0
 10
11.14585438295784
 20
2.299980300317371
 30
0.0
 10
11.22557772103199
 20
2.239013792337706
 30
0.0
  0
SPLINE
  5
108
330
1F
100
AcDbEntity
  8
0
  6
Continuous
 62
     1
370
    15
100
AcDbSpline
210
0.0
220
0.0
230
1.0
 70
     8
 71
     3
 72
    10
 73
     6
 74
     0
 42
0.000000001
 43
0.00000001
 40
0.0
 40
0.0
 40
0.0
 40
0.0
 40
0.5
 40
0.5
 40
1.0
 40
1.0
 40
1.0
 40
1.0
 10
10.18221597941661
 20
2.734335298725678
 30
0.0
 10
10.26126907377791
 20
2.669077896260695
 30
0.0
 10
10.35592503820989
 20
2.614723223021511
 30
0.0
 10
10.54176116077018
 20
2.531048597672344
 30
0.0
 10
10.63083065386599
 20
2.502334630491642
 30
0.0
 10
10.70527965011416
 20
2.490353299107732
 30
0.0
  0
SPLINE
  5
109
330
1F
100
AcDbEntity
  8
0
  6
Continuous
 62
     1
370
    15
100
AcDbSpline
210
0.0
220
0.0
230
1.0
 70
     8
 71
     3
 72
     8
 73
     4
 74
     0
 42
0.000000001
 43
0.00000001
 40
0.0
 40
0.0
 40
0.0
 40
0.0
 40
1.0
 40
1.0
 40
1.0
 40
1.0
 10
9.925998683343416
 20
2.895096005011138
 30
0.0
 10
10.01525864929168
 20
2.853814399552341
 30
0.0
 10
10.10577613863992
 20
2.79743549099796
 30
0.0
 10
10.18221597941601
 20
2.734335298726182
 30
0.0
  0
SPLINE
  5
10A
330
1F
100
AcDbEntity
  8
0
  6
Continuous
 62
     1
370
    15
100
AcDbSpline
210
0.0
220
0.0
230
1.0
 70
     8
 71
     3
 72
     8
 73
     4
 74
     0
 42
0.000000001
 43
0.00000001
 40
0.0
 40
0.0
 40
0.0
 40
0.0
 40
1.0
 40
1.0
 40
1.0
 40
1.0
 10
9.928269180180587
 20
2.956561726829944
 30
0.0
 10
9.922898627117112
 20
2.959076520245012
 30
0.0
 10
9.917528526806777
 20
2.961589336208709
 30
0.0
 10
9.912157015401835
 20
2.964100459628649
 30
0.0
  0
SPLINE
  5
10B
330
1F
100
AcDbEntity
  8
0
  6
Continuous
 62
     4
370
    15
100
AcDbSpline
210
0.0
220
0.0
230
1.0
 70
     8
 71
     3
 72
     8
 73
     4
 74
     0
 42
0.000000001
 43
0.00000001
 40
0.0
 40
0.0
 40
0.0
 40
0.0
 40
1.0
 40
1.0
 40
1.0
 40
1.0
 10
9.91215701540223
 20
2.911680406548879
 30
0.0
 10
9.50413076598481
 20
3.098161083093216
 30
0.0
 10
9.09102054186864
 20
3.274512804623884
 30
0.0
 10
8.67968316287103
 20
3.437709339505743
 30
0.0
  0
SPLINE
  5
110
330
1F
100
AcDbEntity
  8
0
  6
Continuous
 62
     1
370
    15
100
AcDbSpline
210
0.0
220
0.0
230
1.0
 70
     8
 71
     3
 72
    10
 73
     6
 74
     0
 42
0.000000001
 43
0.00000001
 40
0.0
 40
0.0
 40
0.0
 40
0.0
 40
0.5
 40
0.5
 40
0.7953905309357917
 40
0.7953905309357917
 40
0.7953905309357917
 40
0.7953905309357917
 10
10.74931818338165
 20
4.204291263263416
 30
0.0
 10
10.67483139395625
 20
4.234759531180802
 30
0.0
 10
10.58584935054704
 20
4.237482563414691
 30
0.0
 10
10.44096279610699
 20
4.201826651326306
 30
0.0
 10
10.3860430361066
 20
4.179646440974595
 30
0.0
 10
10.33369711961205
 20
4.149028192511454
 30
0.0
  0
SPLINE
  5
111
330
1F
100
AcDbEntity
  8
0
  6
Continuous
 62
     1
370
    15
100
AcDbSpline
210
0.0
220
0.0
230
1.0
 70
     8
 71
     3
 72
    10
 73
     6
 74
     0
 42
0.000000001
 43
0.00000001
 40
0.0
 40
0.0
 40
0.0
 40
0.0
 40
0.5
 40
0.5
 40
1.0
 40
1.0
 40
1.0
 40
1.0
 10
11.27187037119983
 20
4.320990284551334
 30
0.0
 10
11.19289130108312
 20
4.250107437980094
 30
0.0
 10
11.09831218857437
 20
4.206489394210667
 30
0.0
 10
10.91262609498538
 20
4.168440858601783
 30
0.0
 10
10.82364670748231
 20
4.173887732601496
 30
0.0
 10
10.74931818338165
 20
4.204291263263415
 30
0.0
  0
SPLINE
  5
112
330
1F
100
AcDbEntity
  8
0
  6
Continuous
 62
     1
370
    15
100
AcDbSpline
210
0.0
220
0.0
230
1.0
 70
     8
 71
     3
 72
     8
 73
     4
 74
     0
 42
0.000000001
 43
0.00000001
 40
0.0
 40
0.0
 40
0.0
 40
0.0
 40
1.0
 40
1.0
 40
1.0
 40
1.0
 10
11.52801998638892
 20
4.451627347533462
 30
0.0
 10
11.43876135293931
 20
4.433365241797649
 30
0.0
 10
11.34826432819378
 20
4.389553020534052
 30
0.0
 10
11.27187037119983
 20
4.320990284551332
 30
0.0
  0
SPLINE
  5
113
330
1F
100
AcDbEntity
  8
0
  6
Continuous
 62
     1
370
    15
100
AcDbSpline
210
0.0
220
0.0
230
1.0
 70
     8
 71
     3
 72
     8
 73
     4
 74
     0
 42
0.000000001
 43
0.00000001
 40
0.0
 40
0.0
 40
0.0
 40
0.0
 40
1.0
 40
1.0
 40
1.0
 40
1.0
 10
11.78605442736599
 20
4.417286617058845
 30
0.0
 10
11.71143999164502
 20
4.457128088959131
 30
0.0
 10
11.62105189621453
 20
4.468403309294296
 30
0.0
 10
11.52801998639229
 20
4.451627347533782
 30
0.0
  0
SPLINE
  5
114
330
1F
100
AcDbEntity
  8
0
  6
Continuous
 62
     1
370
    15
100
AcDbSpline
210
0.0
220
0.0
230
1.0
 70
     8
 71
     3
 72
    10
 73
     6
 74
     0
 42
0.000000001
 43
0.00000001
 40
0.0
 40
0.0
 40
0.0
 40
0.0
 40
0.5
 40
0.5
 40
1.0
 40
1.0
 40
1.0
 40
1.0
 10
12.30924538585254
 20
4.495397645503537
 30
0.0
 10
12.22960483577506
 20
4.42689746750394
 30
0.0
 10
12.13469891181752
 20
4.388440094234951
 30
0.0
 10
11.94891287795926
 20
4.364033442392686
 30
0.0
 10
11.86005908119431
 20
4.377770747139685
 30
0.0
 10
11.78605442736671
 20
4.417286617058284
 30
0.0
  0
SPLINE
  5
115
330
1F
100
AcDbEntity
  8
0
  6
Continuous
 62
     1
370
    15
100
AcDbSpline
210
0.0
220
0.0
230
1.0
 70
     8
 71
     3
 72
    10
 73
     6
 74
     0
 42
0.000000001
 43
0.00000001
 40
0.0
 40
0.0
 40
0.0
 40
0.0
 40
0.5000000000000001
 40
0.5000000000000001
 40
1.0
 40
1.0
 40
1.0
 40
1.0
 10
12.82956452681958
 20
4.556924628755999
 30
0.0
 10
12.75493296082409
 20
4.603833900652211
 30
0.0
 10
12.66581580343714
 20
4.622003316607732
 30
0.0
 10
12.4833870461479
 20
4.602256415716255
 30
0.0
 10
12.38896858800493
 20
4.563968913944347
 30
0.0
 10
12.30924538585254
 20
4.495397645503539
 30
0.0
  0
SPLINE
  5
116
330
1F
100
AcDbEntity
  8
0
  6
Continuous
 62
     1
370
    15
100
AcDbSpline
210
0.0
220
0.0
230
1.0
 70
     8
 71
     3
 72
    10
 73
     6
 74
     0
 42
0.000000001
 43
0.00000001
 40
0.0
 40
0.0
 40
0.0
 40
0.0
 40
0.5
 40
0.5
 40
1.0
 40
1.0
 40
1.0
 40
1.0
 10
13.35285693328484
 20
4.602763896466407
 30
0.0
 10
13.27376024767507
 20
4.536578185452703
 30
0.0
 10
13.17906549734689
 20
4.502466933196453
 30
0.0
 10
12.99316045165654
 20
4.489456851169952
 30
0.0
 10
12.90404870332759
 20
4.510107997734338
 30
0.0
 10
12.82956452681959
 20
4.556924628755999
 30
0.0
  0
SPLINE
  5
117
330
1F
100
AcDbEntity
  8
0
  6
Continuous
 62
     1
370
    15
100
AcDbSpline
210
0.0
220
0.0
230
1.0
 70
     8
 71
     3
 72
     8
 73
     4
 74
     0
 42
0.000000001
 43
0.00000001
 40
0.0
 40
0.0
 40
0.0
 40
0.0
 40
1.0
 40
1.0
 40
1.0
 40
1.0
 10
13.60924427355193
 20
4.705960327218452
 30
0.0
 10
13.51992980102974
 20
4.700216290483218
 30
0.0
 10
13.42935324469926
 20
4.666773693107521
 30
0.0
 10
13.35285693328557
 20
4.602763896467018
 30
0.0
  0
SPLINE
  5
118
330
1F
100
AcDbEntity
  8
0
  6
Continuous
 62
     1
370
    15
100
AcDbSpline
210
0.0
220
0.0
230
1.0
 70
     8
 71
     3
 72
     8
 73
     4
 74
     0
 42
0.000000001
 43
0.00000001
 40
0.0
 40
0.0
 40
0.0
 40
0.0
 40
1.0
 40
1.0
 40
1.0
 40
1.0
 10
13.86744704871548
 20
4.627662748714569
 30
0.0
 10
13.79273916771594
 20
4.682841067413454
 30
0.0
 10
13.70226891809062
 20
4.709471600525232
 30
0.0
 10
13.60924427355529
 20
4.705960327218547
 30
0.0
  0
SPLINE
  5
119
330
1F
100
AcDbEntity
  8
0
  6
Continuous
 62
     1
370
    15
100
AcDbSpline
210
0.0
220
0.0
230
1.0
 70
     8
 71
     3
 72
    10
 73
     6
 74
     0
 42
0.000000001
 43
0.00000001
 40
0.0
 40
0.0
 40
0.0
 40
0.0
 40
0.5
 40
0.5
 40
1.0
 40
1.0
 40
1.0
 40
1.0
 10
14.3906489113852
 20
4.632087768171627
 30
0.0
 10
14.31103352573595
 20
4.57061167968925
 30
0.0
 10
14.21613812029232
 20
4.542929166692667
 30
0.0
 10
14.03033841340076
 20
4.544430185858353
 30
0.0
 10
13.94147125854048
 20
4.572989381105253
 30
0.0
 10
13.8674470487162
 20
4.627662748713988
 30
0.0
  0
SPLINE
  5
11A
330
1F
100
AcDbEntity
  8
0
  6
Continuous
 62
     1
370
    15
100
AcDbSpline
210
0.0
220
0.0
230
1.0
 70
     8
 71
     3
 72
    10
 73
     6
 74
     0
 42
0.000000001
 43
0.00000001
 40
0.0
 40
0.0
 40
0.0
 40
0.0
 40
0.5
 40
0.5
 40
1.0
 40
1.0
 40
1.0
 40
1.0
 10
14.91067903943684
 20
4.620237652592564
 30
0.0
 10
14.83612036301527
 20
4.68066981506014
 30
0.0
 10
14.74706256611379
 20
4.713181884535292
 30
0.0
 10
14.56472210829357
 20
4.719777037191046
 30
0.0
 10
14.47033682378076
 20
4.693619859154492
 30
0.0
 10
14.3906489113852
 20
4.632087768171628
 30
0.0
  0
SPLINE
  5
11B
330
1F
100
AcDbEntity
  8
0
  6
Continuous
 62
     1
370
    15
100
AcDbSpline
210
0.0
220
0.0
230
1.0
 70
     8
 71
     3
 72
    10
 73
     6
 74
     0
 42
0.000000001
 43
0.00000001
 40
0.0
 40
0.0
 40
0.0
 40
0.0
 40
0.5
 40
0.5
 40
1.0
 40
1.0
 40
1.0
 40
1.0
 10
15.43338048962195
 20
4.592012329596292
 30
0.0
 10
15.35439175098817
 20
4.534823553358108
 30
0.0
 10
15.25980841487082
 20
4.512396142472455
 30
0.0
 10
15.07409829041087
 20
4.525326173170102
 30
0.0
 10
14.98507807902577
 20
4.559934880820608
 30
0.0
 10
14.91067903943684
 20
4.620237652592561
 30
0.0
  0
SPLINE
  5
11C
330
1F
100
AcDbEntity
  8
0
  6
Continuous
 62
     1
370
    15
100
AcDbSpline
210
0.0
220
0.0
230
1.0
 70
     8
 71
     3
 72
     8
 73
     4
 74
     0
 42
0.000000001
 43
0.00000001
 40
0.0
 40
0.0
 40
0.0
 40
0.0
 40
1.0
 40
1.0
 40
1.0
 40
1.0
 10
15.68938369958224
 20
4.661098208388702
 30
0.0
 10
15.6001305004307
 20
4.668260141841457
 30
0.0
 10
15.50972629357682
 20
4.647287590027008
 30
0.0
 10
15.43338048962268
 20
4.592012329596823
 30
0.0
  0
SPLINE
  5
11D
330
1F
100
AcDbEntity
  8
0
  6
Continuous
 62
     1
370
    15
100
AcDbSpline
210
0.0
220
0.0
230
1.0
 70
     8
 71
     3
 72
     8
 73
     4
 74
     0
 42
0.000000001
 43
0.00000001
 40
0.0
 40
0.0
 40
0.0
 40
0.0
 40
1.0
 40
1.0
 40
1.0
 40
1.0
 10
15.94706222880737
 20
4.543914790087274
 30
0.0
 10
15.87254903839744
 20
4.610784397831902
 30
0.0
 10
15.7822478820476
 20
4.651115858935154
 30
0.0
 10
15.68938369958562
 20
4.661098208388564
 30
0.0
  0
SPLINE
  5
11E
330
1F
100
AcDbEntity
  8
0
  6
Continuous
 62
     1
370
    15
100
AcDbSpline
210
0.0
220
0.0
230
1.0
 70
     8
 71
     3
 72
    10
 73
     6
 74
     0
 42
0.000000001
 43
0.00000001
 40
0.0
 40
0.0
 40
0.0
 40
0.0
 40
0.5
 40
0.5
 40
1.0
 40
1.0
 40
1.0
 40
1.0
 10
16.4696750831439
 20
4.474746436436344
 30
0.0
 10
16.39016799843319
 20
4.424189474678305
 30
0.0
 10
16.29538906544641
 20
4.408951505859311
 30
0.0
 10
16.10977378741106
 20
4.436087870884818
 30
0.0
 10
16.0209752240561
 20
4.477583809325922
 30
0.0
 10
15.94706222880809
 20
4.543914790086697
 30
0.0
  0
SPLINE
  5
11F
330
1F
100
AcDbEntity
  8
0
  6
Continuous
 62
     1
370
    15
100
AcDbSpline
210
0.0
220
0.0
230
1.0
 70
     8
 71
     3
 72
    10
 73
     6
 74
     0
 42
0.000000001
 43
0.00000001
 40
0.0
 40
0.0
 40
0.0
 40
0.0
 40
0.5
 40
0.5
 40
1.0
 40
1.0
 40
1.0
 40
1.0
 10
16.98965654918645
 20
4.390328940568319
 30
0.0
 10
16.91510296451571
 20
4.460436907295395
 30
0.0
 10
16.82607011687348
 20
4.505248899660039
 30
0.0
 10
16.64375614728156
 20
4.537788644316288
 30
0.0
 10
16.54936158231947
 20
4.525417484256924
 30
0.0
 10
16.4696750831439
 20
4.474746436436344
 30
0.0
  0
SPLINE
  5
120
330
1F
100
AcDbEntity
  8
0
  6
Continuous
 62
     1
370
    15
100
AcDbSpline
210
0.0
220
0.0
230
1.0
 70
     8
 71
     3
 72
    10
 73
     6
 74
     0
 42
0.000000001
 43
0.00000001
 40
0.0
 40
0.0
 40
0.0
 40
0.0
 40
0.5
 40
0.5
 40
1.0
 40
1.0
 40
1.0
 40
1.0
 10
17.51283147417121
 20
4.289590088915198
 30
0.0
 10
17.43370686815782
 20
4.244957975487597
 30
0.0
 10
17.33904773922344
 20
4.23575884823163
 30
0.0
 10
17.15321982965105
 20
4.273917658590944
 30
0.0
 10
17.0641321579551
 20
4.320294300053162
 30
0.0
 10
16.98965654918645
 20
4.390328940568318
 30
0.0
  0
SPLINE
  5
121
330
1F
100
AcDbEntity
  8
0
  6
Continuous
 62
     1
370
    15
100
AcDbSpline
210
0.0
220
0.0
230
1.0
 70
     8
 71
     3
 72
     8
 73
     4
 74
     0
 42
0.000000001
 43
0.00000001
 40
0.0
 40
0.0
 40
0.0
 40
0.0
 40
1.0
 40
1.0
 40
1.0
 40
1.0
 10
17.76917125420475
 20
4.320281015102013
 30
0.0
 10
17.6798108596293
 20
4.339861733066972
 30
0.0
 10
17.58927063654724
 20
4.332707414072904
 30
0.0
 10
17.51283147417194
 20
4.289590088915605
 30
0.0
  0
SPLINE
  5
122
330
1F
100
AcDbEntity
  8
0
  6
Continuous
 62
     1
370
    15
100
AcDbSpline
210
0.0
220
0.0
230
1.0
 70
     8
 71
     3
 72
     8
 73
     4
 74
     0
 42
0.000000001
 43
0.00000001
 40
0.0
 40
0.0
 40
0.0
 40
0.0
 40
1.0
 40
1.0
 40
1.0
 40
1.0
 10
18.02734146636633
 20
4.171654913457376
 30
0.0
 10
17.95266654352493
 20
4.246043265243606
 30
0.0
 10
17.86220266495197
 20
4.297466204212973
 30
0.0
 10
17.76917125420811
 20
4.320281015101656
 30
0.0
  0
SPLINE
  5
123
330
1F
100
AcDbEntity
  8
0
  6
Continuous
 62
     1
370
    15
100
AcDbSpline
210
0.0
220
0.0
230
1.0
 70
     8
 71
     3
 72
    10
 73
     6
 74
     0
 42
0.000000001
 43
0.00000001
 40
0.0
 40
0.0
 40
0.0
 40
0.0
 40
0.5
 40
0.5
 40
1.0
 40
1.0
 40
1.0
 40
1.0
 10
18.5506609619483
 20
4.033094561454247
 30
0.0
 10
18.47104923345866
 20
3.996625545292782
 30
0.0
 10
18.37616150419125
 20
3.994893723969914
 30
0.0
 10
18.19032957256418
 20
4.046061867473457
 30
0.0
 10
18.10140251770631
 20
4.09787807739071
 30
0.0
 10
18.02734146636705
 20
4.171654913456851
 30
0.0
  0
SPLINE
  5
124
330
1F
100
AcDbEntity
  8
0
  6
Continuous
 62
     1
370
    15
100
AcDbSpline
210
0.0
220
0.0
230
1.0
 70
     8
 71
     3
 72
    10
 73
     6
 74
     0
 42
0.000000001
 43
0.00000001
 40
0.0
 40
0.0
 40
0.0
 40
0.0
 40
0.5
 40
0.5
 40
1.0
 40
1.0
 40
1.0
 40
1.0
 10
19.07104730772904
 20
3.881030529514008
 30
0.0
 10
18.99643668720137
 20
3.956499038999375
 30
0.0
 10
18.90734787952029
 20
4.010836436579818
 30
0.0
 10
18.72491154679473
 20
4.067372957714563
 30
0.0
 10
18.63044378882543
 20
4.069641955387141
 30
0.0
 10
18.55066096194831
 20
4.033094561454247
 30
0.0
  0
SPLINE
  5
125
330
1F
100
AcDbEntity
  8
0
  6
Continuous
 62
     1
370
    15
100
AcDbSpline
210
0.0
220
0.0
230
1.0
 70
     8
 71
     3
 72
    10
 73
     6
 74
     0
 42
0.000000001
 43
0.00000001
 40
0.0
 40
0.0
 40
0.0
 40
0.0
 40
0.5
 40
0.5
 40
1.0
 40
1.0
 40
1.0
 40
1.0
 10
19.59425168039502
 20
3.714204477201106
 30
0.0
 10
19.51511032687721
 20
3.684931369864891
 30
0.0
 10
19.42036771652247
 20
3.689391781777204
 30
0.0
 10
19.23449385999552
 20
3.750399695162322
 30
0.0
 10
19.14550276540598
 20
3.805718966975183
 30
0.0
 10
19.07104730772904
 20
3.88103052951401
 30
0.0
  0
SPLINE
  5
126
330
1F
100
AcDbEntity
  8
0
  6
Continuous
 62
     1
370
    15
100
AcDbSpline
210
0.0
220
0.0
230
1.0
 70
     8
 71
     3
 72
     8
 73
     4
 74
     0
 42
0.000000001
 43
0.00000001
 40
0.0
 40
0.0
 40
0.0
 40
0.0
 40
1.0
 40
1.0
 40
1.0
 40
1.0
 10
19.85047993115099
 20
3.704700062733412
 30
0.0
 10
19.76115719308614
 20
3.735419914751286
 30
0.0
 10
19.67065017871861
 20
3.742463046739314
 30
0.0
 10
19.59425168039576
 20
3.714204477201379
 30
0.0
  0
SPLINE
  5
127
330
1F
100
AcDbEntity
  8
0
  6
Continuous
 62
     1
370
    15
100
AcDbSpline
210
0.0
220
0.0
230
1.0
 70
     8
 71
     3
 72
     8
 73
     4
 74
     0
 42
0.000000001
 43
0.00000001
 40
0.0
 40
0.0
 40
0.0
 40
0.0
 40
1.0
 40
1.0
 40
1.0
 40
1.0
 10
20.10843961642572
 20
3.534183393657029
 30
0.0
 10
20.03385284317445
 20
3.611320602693737
 30
0.0
 10
19.94345765224562
 20
3.670548561869478
 30
0.0
 10
19.85047993115436
 20
3.704700062732842
 30
0.0
  0
SPLINE
  5
128
330
1F
100
AcDbEntity
  8
0
  6
Continuous
 62
     1
370
    15
100
AcDbSpline
210
0.0
220
0.0
230
1.0
 70
     8
 71
     3
 72
    10
 73
     6
 74
     0
 42
0.000000001
 43
0.00000001
 40
0.0
 40
0.0
 40
0.0
 40
0.0
 40
0.5
 40
0.5
 40
1.0
 40
1.0
 40
1.0
 40
1.0
 10
20.63113287258941
 20
3.335201236331655
 30
0.0
 10
20.55164238648972
 20
3.315147020575865
 30
0.0
 10
20.45687213542993
 20
3.326964603391589
 30
0.0
 10
20.271237599648
 20
3.398850752375659
 30
0.0
 10
20.18240721627864
 20
3.457686530163689
 30
0.0
 10
20.10843961642644
 20
3.53418339365658
 30
0.0
  0
SPLINE
  5
129
330
1F
100
AcDbEntity
  8
0
  6
Continuous
 62
     1
370
    15
100
AcDbSpline
210
0.0
220
0.0
230
1.0
 70
     8
 71
     3
 72
    10
 73
     6
 74
     0
 42
0.000000001
 43
0.00000001
 40
0.0
 40
0.0
 40
0.0
 40
0.0
 40
0.5
 40
0.5
 40
1.0
 40
1.0
 40
1.0
 40
1.0
 10
21.15065921982852
 20
3.125282038387608
 30
0.0
 10
21.07616880626997
 20
3.201235061274718
 30
0.0
 10
20.98725735659861
 20
3.261667718190025
 30
0.0
 10
20.80511746754318
 20
3.338590842997485
 30
0.0
 10
20.71078666220907
 20
3.35529665103066
 30
0.0
 10
20.63113287258941
 20
3.33520123633165
 30
0.0
  0
SPLINE
  5
12A
330
1F
100
AcDbEntity
  8
0
  6
Continuous
 62
     1
370
    15
100
AcDbSpline
210
0.0
220
0.0
230
1.0
 70
     8
 71
     3
 72
    10
 73
     6
 74
     0
 42
0.000000001
 43
0.00000001
 40
0.0
 40
0.0
 40
0.0
 40
0.0
 40
0.5
 40
0.5
 40
1.0
 40
1.0
 40
1.0
 40
1.0
 10
21.67327621896599
 20
2.903635702202719
 30
0.0
 10
21.59424484264752
 20
2.891562474898394
 30
0.0
 10
21.4996129692526
 20
2.909299277078601
 30
0.0
 10
21.31390271337166
 20
2.988940031509051
 30
0.0
 10
21.2249682760367
 20
3.049513933778218
 30
0.0
 10
21.15065921982851
 20
3.125282038387607
 30
0.0
  0
SPLINE
  5
12B
330
1F
100
AcDbEntity
  8
0
  6
Continuous
 62
     1
370
    15
100
AcDbSpline
210
0.0
220
0.0
230
1.0
 70
     8
 71
     3
 72
     8
 73
     4
 74
     0
 42
0.000000001
 43
0.00000001
 40
0.0
 40
0.0
 40
0.0
 40
0.0
 40
1.0
 40
1.0
 40
1.0
 40
1.0
 10
21.92941392491469
 20
2.854610000477135
 30
0.0
 10
21.84012411944066
 20
2.894514987956144
 30
0.0
 10
21.74963990833504
 20
2.915301400340335
 30
0.0
 10
21.67327621896672
 20
2.903635702202834
 30
0.0
  0
SPLINE
  5
12C
330
1F
100
AcDbEntity
  8
0
  6
Continuous
 62
     1
370
    15
100
AcDbSpline
210
0.0
220
0.0
230
1.0
 70
     8
 71
     3
 72
     8
 73
     4
 74
     0
 42
0.000000001
 43
0.00000001
 40
0.0
 40
0.0
 40
0.0
 40
0.0
 40
1.0
 40
1.0
 40
1.0
 40
1.0
 10
22.18740856665965
 20
2.672890787958643
 30
0.0
 10
22.11280837257191
 20
2.747940244139557
 30
0.0
 10
22.02241176406528
 20
2.811264787045969
 30
0.0
 10
21.92941392491806
 20
2.854610000476412
 30
0.0
  0
SPLINE
  5
12D
330
1F
100
AcDbEntity
  8
0
  6
Continuous
 62
     1
370
    15
100
AcDbSpline
210
0.0
220
0.0
230
1.0
 70
     8
 71
     3
 72
    10
 73
     6
 74
     0
 42
0.000000001
 43
0.00000001
 40
0.0
 40
0.0
 40
0.0
 40
0.0
 40
0.5
 40
0.5
 40
1.0
 40
1.0
 40
1.0
 40
1.0
 10
22.71058271287721
 20
2.425472039552032
 30
0.0
 10
22.63100204025658
 20
2.423203924653649
 30
0.0
 10
22.53616534980625
 20
2.447959692948915
 30
0.0
 10
22.35040257004001
 20
2.536183278339253
 30
0.0
 10
22.26146311729843
 20
2.598390261235791
 30
0.0
 10
22.18740856666036
 20
2.672890787958303
 30
0.0
  0
SPLINE
  5
12E
330
1F
100
AcDbEntity
  8
0
  6
Continuous
 62
     1
370
    15
100
AcDbSpline
210
0.0
220
0.0
230
1.0
 70
     8
 71
     3
 72
    10
 73
     6
 74
     0
 42
0.000000001
 43
0.00000001
 40
0.0
 40
0.0
 40
0.0
 40
0.0
 40
0.5
 40
0.5
 40
1.0
 40
1.0
 40
1.0
 40
1.0
 10
23.23099835549856
 20
2.170526040699155
 30
0.0
 10
23.15631402387067
 20
2.2422179434102
 30
0.0
 10
23.06716283887614
 20
2.30483884938942
 30
0.0
 10
22.88474912270179
 20
2.397413594156469
 30
0.0
 10
22.79036554167897
 20
2.427745916068547
 30
0.0
 10
22.71058271287721
 20
2.425472039552032
 30
0.0
  0
SPLINE
  5
12F
330
1F
100
AcDbEntity
  8
0
  6
Continuous
 62
     1
370
    15
100
AcDbSpline
210
0.0
220
0.0
230
1.0
 70
     8
 71
     3
 72
    10
 73
     6
 74
     0
 42
0.000000001
 43
0.00000001
 40
0.0
 40
0.0
 40
0.0
 40
0.0
 40
0.5
 40
0.5
 40
1.0
 40
1.0
 40
1.0
 40
1.0
 10
23.75428309391143
 20
1.907590910088368
 30
0.0
 10
23.67516095248811
 20
1.913528458377121
 30
0.0
 10
23.58042722430882
 20
1.943564083160881
 30
0.0
 10
23.39450421752343
 20
2.037006624783972
 30
0.0
 10
23.3054468312997
 20
2.099060543615856
 30
0.0
 10
23.23099835549856
 20
2.170526040699157
 30
0.0
  0
SPLINE
  5
130
330
1F
100
AcDbEntity
  8
0
  6
Continuous
 62
     1
370
    15
100
AcDbSpline
210
0.0
220
0.0
230
1.0
 70
     8
 71
     3
 72
     8
 73
     4
 74
     0
 42
0.000000001
 43
0.00000001
 40
0.0
 40
0.0
 40
0.0
 40
0.0
 40
1.0
 40
1.0
 40
1.0
 40
1.0
 10
24.01062246686323
 20
1.821909602319768
 30
0.0
 10
23.92127855544621
 20
1.868554357556014
 30
0.0
 10
23.8307234333941
 20
1.901854611768624
 30
0.0
 10
23.75428309391216
 20
1.907590910088308
 30
0.0
  0
SPLINE
  5
131
330
1F
100
AcDbEntity
  8
0
  6
Continuous
 62
     1
370
    15
100
AcDbSpline
210
0.0
220
0.0
230
1.0
 70
     8
 71
     3
 72
     8
 73
     4
 74
     0
 42
0.000000001
 43
0.00000001
 40
0.0
 40
0.0
 40
0.0
 40
0.0
 40
1.0
 40
1.0
 40
1.0
 40
1.0
 10
24.26877927783391
 20
1.640295106089606
 30
0.0
 10
24.19412929147821
 20
1.708582159389702
 30
0.0
 10
24.10368004675847
 20
1.772048666977656
 30
0.0
 10
24.0106224668666
 20
1.821909602318914
 30
0.0
  0
SPLINE
  5
132
330
1F
100
AcDbEntity
  8
0
  6
Continuous
 62
     1
370
    15
100
AcDbSpline
210
0.0
220
0.0
230
1.0
 70
     8
 71
     3
 72
    10
 73
     6
 74
     0
 42
0.000000001
 43
0.00000001
 40
0.0
 40
0.0
 40
0.0
 40
0.0
 40
0.4999999999999964
 40
0.4999999999999964
 40
1.0
 40
1.0
 40
1.0
 40
1.0
 10
24.79202216563476
 20
1.359890161704939
 30
0.0
 10
24.71241660513034
 20
1.375527941694187
 30
0.0
 10
24.61759273024676
 20
1.411746735856763
 30
0.0
 10
24.43181849527089
 20
1.510844989828317
 30
0.0
 10
24.34286850029831
 20
1.572521018908023
 30
0.0
 10
24.26877927783463
 20
1.6402951060894
 30
0.0
  0
SPLINE
  5
133
330
1F
100
AcDbEntity
  8
0
  6
Continuous
 62
     1
370
    15
100
AcDbSpline
210
0.0
220
0.0
230
1.0
 70
     8
 71
     3
 72
    10
 73
     6
 74
     0
 42
0.000000001
 43
0.00000001
 40
0.0
 40
0.0
 40
0.0
 40
0.0
 40
0.5
 40
0.5
 40
1.0
 40
1.0
 40
1.0
 40
1.0
 10
25.31209030588142
 20
1.077100073431972
 30
0.0
 10
25.23748570113765
 20
1.139848049922001
 30
0.0
 10
25.14838678572625
 20
1.200621537894742
 30
0.0
 10
24.96604165158366
 20
1.302580308227192
 30
0.0
 10
24.87170230130261
 20
1.344237732110932
 30
0.0
 10
24.79202216563476
 20
1.359890161704944
 30
0.0
  0
SPLINE
  5
134
330
1F
100
AcDbEntity
  8
0
  6
Continuous
 62
     1
370
    15
100
AcDbSpline
210
0.0
220
0.0
230
1.0
 70
     8
 71
     3
 72
    10
 73
     6
 74
     0
 42
0.000000001
 43
0.00000001
 40
0.0
 40
0.0
 40
0.0
 40
0.0
 40
0.5
 40
0.5
 40
1.0
 40
1.0
 40
1.0
 40
1.0
 10
25.83471194954076
 20
0.7900377281856985
 30
0.0
 10
25.75572423896766
 20
0.8135469565677864
 30
0.0
 10
25.66111559469237
 20
0.8538770563985549
 30
0.0
 10
25.4753935864274
 20
0.9550420882014005
 30
0.0
 10
25.38643718975493
 20
1.014568859206999
 30
0.0
 10
25.31209030588142
 20
1.077100073431972
 30
0.0
  0
SPLINE
  5
135
330
1F
100
AcDbEntity
  8
0
  6
Continuous
 62
     1
370
    15
100
AcDbSpline
210
0.0
220
0.0
230
1.0
 70
     8
 71
     3
 72
     8
 73
     4
 74
     0
 42
0.000000001
 43
0.00000001
 40
0.0
 40
0.0
 40
0.0
 40
0.0
 40
1.0
 40
1.0
 40
1.0
 40
1.0
 10
26.09065932521948
 20
0.673337386341937
 30
0.0
 10
26.0014489973393
 20
0.7237098251044147
 30
0.0
 10
25.91102631301199
 20
0.7673241720303053
 30
0.0
 10
25.8347119495415
 20
0.7900377281854716
 30
0.0
  0
SPLINE
  5
136
330
1F
100
AcDbEntity
  8
0
  6
Continuous
 62
     1
370
    15
100
AcDbSpline
210
0.0
220
0.0
230
1.0
 70
     8
 71
     3
 72
     8
 73
     4
 74
     0
 42
0.000000001
 43
0.00000001
 40
0.0
 40
0.0
 40
0.0
 40
0.0
 40
1.0
 40
1.0
 40
1.0
 40
1.0
 10
26.34834254275592
 20
0.5035236567137349
 30
0.0
 10
26.27385685973752
 20
0.560646132213988
 30
0.0
 10
26.18357518788389
 20
0.6201811667386321
 30
0.0
 10
26.09065932522284
 20
0.6733373863410229
 30
0.0
  0
SPLINE
  5
137
330
1F
100
AcDbEntity
  8
0
  6
Continuous
 62
     1
370
    15
100
AcDbSpline
210
0.0
220
0.0
230
1.0
 70
     8
 71
     3
 72
    10
 73
     6
 74
     0
 42
0.000000001
 43
0.00000001
 40
0.0
 40
0.0
 40
0.0
 40
0.0
 40
0.5
 40
0.5
 40
1.0
 40
1.0
 40
1.0
 40
1.0
 10
26.87106576174241
 20
0.2084879253635648
 30
0.0
 10
26.79150095750529
 20
0.2408388643598338
 30
0.0
 10
26.69669484707009
 20
0.2859289540786751
 30
0.0
 10
26.5111304386463
 20
0.3895556450040473
 30
0.0
 10
26.42231236711634
 20
0.4467967890992355
 30
0.0
 10
26.34834254275664
 20
0.5035236567136709
 30
0.0
  0
SPLINE
  5
138
330
1F
100
AcDbEntity
  8
0
  6
Continuous
 62
     1
370
    15
100
AcDbSpline
210
0.0
220
0.0
230
1.0
 70
     8
 71
     3
 72
    10
 73
     6
 74
     0
 42
0.000000001
 43
0.00000001
 40
0.0
 40
0.0
 40
0.0
 40
0.0
 40
0.5
 40
0.5
 40
1.0
 40
1.0
 40
1.0
 40
1.0
 10
27.39107087493879
 20
-0.0843102841177368
 30
0.0
 10
27.31647891339762
 20
-0.0344130193034833
 30
0.0
 10
27.22740405449323
 20
0.0207130255699271
 30
0.0
 10
27.04507853239086
 20
0.1256912486049709
 30
0.0
 10
26.9507265900872
 20
0.1760979430983671
 30
0.0
 10
26.87106576174242
 20
0.2084879253635668
 30
0.0
  0
SPLINE
  5
139
330
1F
100
AcDbEntity
  8
0
  6
Continuous
 62
     1
370
    15
100
AcDbSpline
210
0.0
220
0.0
230
1.0
 70
     8
 71
     3
 72
    10
 73
     6
 74
     0
 42
0.000000001
 43
0.00000001
 40
0.0
 40
0.0
 40
0.0
 40
0.0
 40
0.5
 40
0.5
 40
1.0
 40
1.0
 40
1.0
 40
1.0
 10
27.91416761657944
 20
-0.3781464348453861
 30
0.0
 10
27.83509724115673
 20
-0.3384246164446241
 30
0.0
 10
27.74042315736856
 20
-0.2902025740623086
 30
0.0
 10
27.55456728199617
 20
-0.1874687552838821
 30
0.0
 10
27.46550208363398
 20
-0.1341000155307995
 30
0.0
 10
27.39107087493879
 20
-0.0843102841177342
 30
0.0
  0
SPLINE
  5
13A
330
1F
100
AcDbEntity
  8
0
  6
Continuous
 62
     1
370
    15
100
AcDbSpline
210
0.0
220
0.0
230
1.0
 70
     8
 71
     3
 72
     8
 73
     4
 74
     0
 42
0.000000001
 43
0.00000001
 40
0.0
 40
0.0
 40
0.0
 40
0.0
 40
1.0
 40
1.0
 40
1.0
 40
1.0
 10
28.17050367117666
 20
-0.5190261202175109
 30
0.0
 10
28.08118605086809
 20
-0.4679353980895323
 30
0.0
 10
27.99062657948292
 20
-0.4165563832404552
 30
0.0
 10
27.91416761658018
 20
-0.3781464348457511
 30
0.0
  0
SPLINE
  5
13B
330
1F
100
AcDbEntity
  8
0
  6
Continuous
 62
     1
370
    15
100
AcDbSpline
210
0.0
220
0.0
230
1.0
 70
     8
 71
     3
 72
     8
 73
     4
 74
     0
 42
0.000000001
 43
0.00000001
 40
0.0
 40
0.0
 40
0.0
 40
0.0
 40
1.0
 40
1.0
 40
1.0
 40
1.0
 10
28.42871502452743
 20
-0.666970061094695
 30
0.0
 10
28.35404371285058
 20
-0.6243922785354493
 30
0.0
 10
28.26359088609069
 20
-0.5723345385682378
 30
0.0
 10
28.17050367118002
 20
-0.5190261202184291
 30
0.0
  0
SPLINE
  5
13C
330
1F
100
AcDbEntity
  8
0
  6
Continuous
 62
     1
370
    15
100
AcDbSpline
210
0.0
220
0.0
230
1.0
 70
     8
 71
     3
 72
    10
 73
     6
 74
     0
 42
0.000000001
 43
0.00000001
 40
0.0
 40
0.0
 40
0.0
 40
0.0
 40
0.5
 40
0.5
 40
1.0
 40
1.0
 40
1.0
 40
1.0
 10
28.95210527063164
 20
-0.9580612629479858
 30
0.0
 10
28.87243190635545
 20
-0.9109172331952132
 30
0.0
 10
28.77749006748241
 20
-0.8597218736167465
 30
0.0
 10
28.59164174050711
 20
-0.7583561059034272
 30
0.0
 10
28.50276245388162
 20
-0.7091921042767138
 30
0.0
 10
28.42871502452815
 20
-0.6669700610946164
 30
0.0
  0
SPLINE
  5
13D
330
1F
100
AcDbEntity
  8
0
  6
Continuous
 62
     1
370
    15
100
AcDbSpline
210
0.0
220
0.0
230
1.0
 70
     8
 71
     3
 72
    10
 73
     6
 74
     0
 42
0.000000001
 43
0.00000001
 40
0.0
 40
0.0
 40
0.0
 40
0.0
 40
0.5
 40
0.5
 40
1.0
 40
1.0
 40
1.0
 40
1.0
 10
29.47244140647128
 20
-1.242778876822139
 30
0.0
 10
29.39781057694711
 20
-1.208830019621448
 30
0.0
 10
29.30868854507898
 20
-1.162773055116447
 30
0.0
 10
29.12625234949068
 20
-1.061279267186913
 30
0.0
 10
29.03183369808944
 20
-1.005237874483832
 30
0.0
 10
28.95210527063165
 20
-0.9580612629479872
 30
0.0
  0
SPLINE
  5
13E
330
1F
100
AcDbEntity
  8
0
  6
Continuous
 62
     1
370
    15
100
AcDbSpline
210
0.0
220
0.0
230
1.0
 70
     8
 71
     3
 72
    10
 73
     6
 74
     0
 42
0.000000001
 43
0.00000001
 40
0.0
 40
0.0
 40
0.0
 40
0.0
 40
0.5
 40
0.5
 40
1.0
 40
1.0
 40
1.0
 40
1.0
 10
29.99556996575474
 20
-1.524774976666392
 30
0.0
 10
29.91650480870964
 20
-1.47135518325708
 30
0.0
 10
29.82183614566697
 20
-1.418289198090785
 30
0.0
 10
29.63597836422366
 20
-1.320470163933457
 30
0.0
 10
29.54689951800184
 20
-1.276649166244099
 30
0.0
 10
29.47244140647128
 20
-1.242778876822142
 30
0.0
  0
SPLINE
  5
13F
330
1F
100
AcDbEntity
  8
0
  6
Continuous
 62
     1
370
    15
100
AcDbSpline
210
0.0
220
0.0
230
1.0
 70
     8
 71
     3
 72
     8
 73
     4
 74
     0
 42
0.000000001
 43
0.00000001
 40
0.0
 40
0.0
 40
0.0
 40
0.0
 40
1.0
 40
1.0
 40
1.0
 40
1.0
 10
30.25182465086695
 20
-1.680776748395988
 30
0.0
 10
30.16255024880358
 20
-1.632253451878263
 30
0.0
 10
30.07201982957532
 20
-1.576427766391864
 30
0.0
 10
29.99556996575548
 20
-1.52477497666689
 30
0.0
  0
SPLINE
  5
140
330
1F
100
AcDbEntity
  8
0
  6
Continuous
 62
     1
370
    15
100
AcDbSpline
210
0.0
220
0.0
230
1.0
 70
     8
 71
     3
 72
    10
 73
     6
 74
     0
 42
0.000000001
 43
0.00000001
 40
0.0
 40
0.0
 40
0.0
 40
0.0
 40
0.5
 40
0.5
 40
1.0
 40
1.0
 40
1.0
 40
1.0
 10
31.03251422677621
 20
-2.064616167772423
 30
0.0
 10
30.95298936368682
 20
-2.005767524038022
 30
0.0
 10
30.8581792058758
 20
-1.951791270995417
 30
0.0
 10
30.67253530467322
 20
-1.859277641221755
 30
0.0
 10
30.58376007235195
 20
-1.821522147323738
 30
0.0
 10
30.50982519201524
 20
-1.796781319527192
 30
0.0
  0
SPLINE
  5
141
330
1F
100
AcDbEntity
  8
0
  6
Continuous
 62
     1
370
    15
100
AcDbSpline
210
0.0
220
0.0
230
1.0
 70
     8
 71
     3
 72
    10
 73
     6
 74
     0
 42
0.000000001
 43
0.00000001
 40
0.0
 40
0.0
 40
0.0
 40
0.0
 40
0.5
 40
0.5
 40
1.0
 40
1.0
 40
1.0
 40
1.0
 10
32.05305837105653
 20
-2.558245522608393
 30
0.0
 10
31.97525428343671
 20
-2.499203007337292
 30
0.0
 10
31.88418520892239
 20
-2.448136981420777
 30
0.0
 10
31.70728510532129
 20
-2.36735741331352
 30
0.0
 10
31.62299668082588
 20
-2.337926551616411
 30
0.0
 10
31.5519539047102
 20
-2.322850901737094
 30
0.0
  0
SPLINE
  5
142
330
1F
100
AcDbEntity
  8
0
  6
Continuous
 62
     1
370
    15
100
AcDbSpline
210
0.0
220
0.0
230
1.0
 70
     8
 71
     3
 72
     8
 73
     4
 74
     0
 42
0.000000001
 43
0.00000001
 40
0.0
 40
0.0
 40
0.0
 40
0.0
 40
0.0001337194648195
 40
0.0001337194648195
 40
0.0001337194648195
 40
0.0001337194648195
 10
32.13715701540223
 20
-2.562618721800634
 30
0.0
 10
32.10917283224037
 20
-2.561254541812767
 30
0.0
 10
32.08113888177429
 20
-2.559796328104135
 30
0.0
 10
32.05305837105689
 20
-2.558245522608709
 30
0.0
  0
SPLINE
  5
143
330
1F
100
AcDbEntity
  8
0
  6
Continuous
 62
     1
370
    15
100
AcDbSpline
210
0.0
220
0.0
230
1.0
 70
     8
 71
     3
 72
    13
 73
     9
 74
     0
 42
0.000000001
 43
0.00000001
 40
0.0
 40
0.0
 40
0.0
 40
0.0
 40
0.1685024967303871
 40
0.3381179926132734
 40
0.4982787275339884
 40
0.6595299415940744
 40
0.9163748927990842
 40
1.0
 40
1.0
 40
1.0
 40
1.0
 10
16.86148904509932
 20
-3.636493371487661
 30
0.0
 10
16.87420677007974
 20
-3.631427097012861
 30
0.0
 10
16.89972622364529
 20
-3.621261084112839
 30
0.0
 10
16.93730039544527
 20
-3.603317775954109
 30
0.0
 10
16.97406403885776
 20
-3.583699934583154
 30
0.0
 10
17.01658650680875
 20
-3.558030555043806
 30
0.0
 10
17.05317561641633
 20
-3.533915179826697
 30
0.0
 10
17.07589548617766
 20
-3.515131838814448
 30
0.0
 10
17.08147586394503
 20
-3.510518337958911
 30
0.0
  0
SPLINE
  5
144
330
1F
100
AcDbEntity
  8
0
  6
Continuous
 62
     1
370
    15
100
AcDbSpline
210
0.0
220
0.0
230
1.0
 70
     8
 71
     3
 72
     8
 73
     4
 74
     0
 42
0.000000001
 43
0.00000001
 40
0.0
 40
0.0
 40
0.0
 40
0.0
 40
1.0
 40
1.0
 40
1.0
 40
1.0
 10
16.60352404938916
 20
-3.667880266200934
 30
0.0
 10
16.67812703160401
 20
-3.681831789759128
 30
0.0
 10
16.76852059724374
 20
-3.67017228043939
 30
0.0
 10
16.86148904509932
 20
-3.636493371487679
 30
0.0
  0
SPLINE
  5
145
330
1F
100
AcDbEntity
  8
0
  6
Continuous
 62
     1
370
    15
100
AcDbSpline
210
0.0
220
0.0
230
1.0
 70
     8
 71
     3
 72
    10
 73
     6
 74
     0
 42
0.000000001
 43
0.00000001
 40
0.0
 40
0.0
 40
0.0
 40
0.0
 40
0.5
 40
0.5
 40
1.0
 40
1.0
 40
1.0
 40
1.0
 10
16.08043858786939
 20
-3.841389903857626
 30
0.0
 10
16.16001237506483
 20
-3.770515571418799
 30
0.0
 10
16.2548577803877
 20
-3.72101985566733
 30
0.0
 10
16.44061516948069
 20
-3.662701230453272
 30
0.0
 10
16.52950937049116
 20
-3.65403876140202
 30
0.0
 10
16.60352404938857
 20
-3.66788026620056
 30
0.0
  0
SPLINE
  5
146
330
1F
100
AcDbEntity
  8
0
  6
Continuous
 62
     1
370
    15
100
AcDbSpline
210
0.0
220
0.0
230
1.0
 70
     8
 71
     3
 72
    10
 73
     6
 74
     0
 42
0.000000001
 43
0.00000001
 40
0.0
 40
0.0
 40
0.0
 40
0.0
 40
0.5
 40
0.5
 40
1.0
 40
1.0
 40
1.0
 40
1.0
 10
15.56009133992325
 20
-4.00073125448835
 30
0.0
 10
15.63469900361729
 20
-4.023171213204871
 30
0.0
 10
15.72377815136204
 20
-4.018888335511134
 30
0.0
 10
15.90619862030622
 20
-3.963790854272626
 30
0.0
 10
16.00066287555407
 20
-3.912444085824525
 30
0.0
 10
16.08043858786939
 20
-3.841389903857631
 30
0.0
  0
SPLINE
  5
147
330
1F
100
AcDbEntity
  8
0
  6
Continuous
 62
     1
370
    15
100
AcDbSpline
210
0.0
220
0.0
230
1.0
 70
     8
 71
     3
 72
    10
 73
     6
 74
     0
 42
0.000000001
 43
0.00000001
 40
0.0
 40
0.0
 40
0.0
 40
0.0
 40
0.5
 40
0.5
 40
1.0
 40
1.0
 40
1.0
 40
1.0
 10
15.03674335451265
 20
-4.14703987533605
 30
0.0
 10
15.11591243677481
 20
-4.075346937800321
 30
0.0
 10
15.21067994122368
 20
-4.028384831197028
 30
0.0
 10
15.39660279248736
 20
-3.97988832734397
 30
0.0
 10
15.48562132111
 20
-3.978332695613192
 30
0.0
 10
15.56009133992324
 20
-4.000731254488335
 30
0.0
  0
SPLINE
  5
148
330
1F
100
AcDbEntity
  8
0
  6
Continuous
 62
     1
370
    15
100
AcDbSpline
210
0.0
220
0.0
230
1.0
 70
     8
 71
     3
 72
     8
 73
     4
 74
     0
 42
0.000000001
 43
0.00000001
 40
0.0
 40
0.0
 40
0.0
 40
0.0
 40
1.0
 40
1.0
 40
1.0
 40
1.0
 10
14.78038931663999
 20
-4.287099942173586
 30
0.0
 10
14.86975096438699
 20
-4.26374659940296
 30
0.0
 10
14.96030250979442
 20
-4.21626220997686
 30
0.0
 10
15.0367433545125
 20
-4.147039875336167
 30
0.0
  0
SPLINE
  5
149
330
1F
100
AcDbEntity
  8
0
  6
Continuous
 62
     1
370
    15
100
AcDbSpline
210
0.0
220
0.0
230
1.0
 70
     8
 71
     3
 72
     8
 73
     4
 74
     0
 42
0.000000001
 43
0.00000001
 40
0.0
 40
0.0
 40
0.0
 40
0.0
 40
1.0
 40
1.0
 40
1.0
 40
1.0
 10
14.5222276295629
 20
-4.272470474884618
 30
0.0
 10
14.59688838017194
 20
-4.30491815832189
 30
0.0
 10
14.68734749481478
 20
-4.309297572324983
 30
0.0
 10
14.7803893166383
 20
-4.287099942173817
 30
0.0
  0
SPLINE
  5
14A
330
1F
100
AcDbEntity
  8
0
  6
Continuous
 62
     1
370
    15
100
AcDbSpline
210
0.0
220
0.0
230
1.0
 70
     8
 71
     3
 72
    10
 73
     6
 74
     0
 42
0.000000001
 43
0.00000001
 40
0.0
 40
0.0
 40
0.0
 40
0.0
 40
0.5
 40
0.5
 40
1.0
 40
1.0
 40
1.0
 40
1.0
 10
13.99900930894189
 20
-4.381120410708148
 30
0.0
 10
14.07859351868014
 20
-4.310929287991142
 30
0.0
 10
14.17345048680981
 20
-4.268496387348129
 30
0.0
 10
14.35924271272248
 20
-4.233256479698131
 30
0.0
 10
14.44816794442363
 20
-4.240284015475847
 30
0.0
 10
14.5222276295623
 20
-4.272470474884154
 30
0.0
  0
SPLINE
  5
14B
330
1F
100
AcDbEntity
  8
0
  6
Continuous
 62
     1
370
    15
100
AcDbSpline
210
0.0
220
0.0
230
1.0
 70
     8
 71
     3
 72
    10
 73
     6
 74
     0
 42
0.000000001
 43
0.00000001
 40
0.0
 40
0.0
 40
0.0
 40
0.0
 40
0.5
 40
0.5
 40
1.0
 40
1.0
 40
1.0
 40
1.0
 10
13.4788429324269
 20
-4.474019135415513
 30
0.0
 10
13.5534478889077
 20
-4.514033862126229
 30
0.0
 10
13.64247776241607
 20
-4.525420901242261
 30
0.0
 10
13.82481695564547
 20
-4.494361664393762
 30
0.0
 10
13.91924407344183
 20
-4.451471193255919
 30
0.0
 10
13.99900930894189
 20
-4.38112041070811
 30
0.0
  0
SPLINE
  5
14C
330
1F
100
AcDbEntity
  8
0
  6
Continuous
 62
     1
370
    15
100
AcDbSpline
210
0.0
220
0.0
230
1.0
 70
     8
 71
     3
 72
    10
 73
     6
 74
     0
 42
0.000000001
 43
0.00000001
 40
0.0
 40
0.0
 40
0.0
 40
0.0
 40
0.5
 40
0.5
 40
1.0
 40
1.0
 40
1.0
 40
1.0
 10
12.95609455883425
 20
-4.551427351500859
 30
0.0
 10
13.0351339419327
 20
-4.482628154340786
 30
0.0
 10
13.12979009497531
 20
-4.444086795884933
 30
0.0
 10
13.31554870922077
 20
-4.420008636745887
 30
0.0
 10
13.40449190021473
 20
-4.434140602205793
 30
0.0
 10
13.47884293242703
 20
-4.474019135415582
 30
0.0
  0
SPLINE
  5
14D
330
1F
100
AcDbEntity
  8
0
  6
Continuous
 62
     1
370
    15
100
AcDbSpline
210
0.0
220
0.0
230
1.0
 70
     8
 71
     3
 72
     8
 73
     4
 74
     0
 42
0.000000001
 43
0.00000001
 40
0.0
 40
0.0
 40
0.0
 40
0.0
 40
1.0
 40
1.0
 40
1.0
 40
1.0
 10
12.70010663207701
 20
-4.66737623467356
 30
0.0
 10
12.7893482144994
 20
-4.656129650311266
 30
0.0
 10
12.87977845239696
 20
-4.617856094330559
 30
0.0
 10
12.95609455883413
 20
-4.551427351500963
 30
0.0
  0
SPLINE
  5
14E
330
1F
100
AcDbEntity
  8
0
  6
Continuous
 62
     1
370
    15
100
AcDbSpline
210
0.0
220
0.0
230
1.0
 70
     8
 71
     3
 72
     8
 73
     4
 74
     0
 42
0.000000001
 43
0.00000001
 40
0.0
 40
0.0
 40
0.0
 40
0.0
 40
1.0
 40
1.0
 40
1.0
 40
1.0
 10
12.44245102657388
 20
-4.607628161092088
 30
0.0
 10
12.51692650697041
 20
-4.6565087860982
 30
0.0
 10
12.60721326287302
 20
-4.676685667166484
 30
0.0
 10
12.70010663207533
 20
-4.667376234673669
 30
0.0
  0
SPLINE
  5
14F
330
1F
100
AcDbEntity
  8
0
  6
Continuous
 62
     1
370
    15
100
AcDbSpline
210
0.0
220
0.0
230
1.0
 70
     8
 71
     3
 72
    10
 73
     6
 74
     0
 42
0.000000001
 43
0.00000001
 40
0.0
 40
0.0
 40
0.0
 40
0.0
 40
0.5
 40
0.5
 40
1.0
 40
1.0
 40
1.0
 40
1.0
 10
11.91987698710484
 20
-4.644455654483822
 30
0.0
 10
11.99935741186795
 20
-4.579475417805085
 30
0.0
 10
12.09408964958568
 20
-4.54678550316694
 30
0.0
 10
12.27966436956416
 20
-4.536828605949389
 30
0.0
 10
12.36850909029802
 20
-4.559097718050692
 30
0.0
 10
12.44245102657329
 20
-4.607628161091611
 30
0.0
  0
SPLINE
  5
150
330
1F
100
AcDbEntity
  8
0
  6
Continuous
 62
     1
370
    15
100
AcDbSpline
210
0.0
220
0.0
230
1.0
 70
     8
 71
     3
 72
    10
 73
     6
 74
     0
 42
0.000000001
 43
0.00000001
 40
0.0
 40
0.0
 40
0.0
 40
0.0
 40
0.5
 40
0.5
 40
1.0
 40
1.0
 40
1.0
 40
1.0
 10
11.39987849878784
 20
-4.664872246512521
 30
0.0
 10
11.47449207388192
 20
-4.719854512877789
 30
0.0
 10
11.56357408627136
 20
-4.746294903458066
 30
0.0
 10
11.7458633232499
 20
-4.741312107327642
 30
0.0
 10
11.84017541556456
 20
-4.709616692535516
 30
0.0
 10
11.91987698710484
 20
-4.644455654483822
 30
0.0
  0
SPLINE
  5
151
330
1F
100
AcDbEntity
  8
0
  6
Continuous
 62
     1
370
    15
100
AcDbSpline
210
0.0
220
0.0
230
1.0
 70
     8
 71
     3
 72
    10
 73
     6
 74
     0
 42
0.000000001
 43
0.00000001
 40
0.0
 40
0.0
 40
0.0
 40
0.0
 40
0.5
 40
0.5
 40
1.0
 40
1.0
 40
1.0
 40
1.0
 10
10.87682256353939
 20
-4.669003469193595
 30
0.0
 10
10.95590691425243
 20
-4.607377809081021
 30
0.0
 10
11.05059887990272
 20
-4.579639454585991
 30
0.0
 10
11.23644965200807
 20
-4.581291656948265
 30
0.0
 10
11.32547544170132
 20
-4.610045109520848
 30
0.0
 10
11.39987849878784
 20
-4.664872246512521
 30
0.0
  0
SPLINE
  5
152
330
1F
100
AcDbEntity
  8
0
  6
Continuous
 62
     1
370
    15
100
AcDbSpline
210
0.0
220
0.0
230
1.0
 70
     8
 71
     3
 72
     8
 73
     4
 74
     0
 42
0.000000001
 43
0.00000001
 40
0.0
 40
0.0
 40
0.0
 40
0.0
 40
1.0
 40
1.0
 40
1.0
 40
1.0
 10
10.62052252289795
 20
-4.753665278016616
 30
0.0
 10
10.70985326963916
 20
-4.755198645807754
 30
0.0
 10
10.80039643139638
 20
-4.72855774005368
 30
0.0
 10
10.87682256353925
 20
-4.669003469193695
 30
0.0
  0
SPLINE
  5
153
330
1F
100
AcDbEntity
  8
0
  6
Continuous
 62
     1
370
    15
100
AcDbSpline
210
0.0
220
0.0
230
1.0
 70
     8
 71
     3
 72
     8
 73
     4
 74
     0
 42
0.000000001
 43
0.00000001
 40
0.0
 40
0.0
 40
0.0
 40
0.0
 40
0.0001208816012171
 40
0.0001208816012171
 40
0.0001208816012171
 40
0.0001208816012171
 10
10.62041654823987
 20
-4.874227314414244
 30
0.0
 10
10.62013615166029
 20
-4.833995822210836
 30
0.0
 10
10.61981409143895
 20
-4.793790425643692
 30
0.0
 10
10.61944743595132
 20
-4.753632191058218
 30
0.0
  0
SPLINE
  5
154
330
1F
100
AcDbEntity
  8
0
  6
Continuous
 62
     1
370
    15
100
AcDbSpline
210
0.0
220
0.0
230
1.0
 70
     8
 71
     3
 72
     8
 73
     4
 74
     0
 42
0.000000001
 43
0.00000001
 40
0.0
 40
0.0
 40
0.0
 40
0.0
 40
1.0
 40
1.0
 40
1.0
 40
1.0
 10
10.62041654824343
 20
-4.87422731441435
 30
0.0
 10
10.38347030366484
 20
-4.867163093306863
 30
0.0
 10
10.14706877992838
 20
-4.854105539387314
 30
0.0
 10
9.912157015402231
 20
-4.835171411589158
 30
0.0
  0
SPLINE
  5
155
330
1F
100
AcDbEntity
  8
0
  6
Continuous
 62
     1
370
    15
100
AcDbSpline
210
0.0
220
0.0
230
1.0
 70
    24
 71
     3
 72
     9
 73
     5
 74
     0
 42
0.000000001
 43
0.00000001
 40
0.0
 40
0.0
 40
0.0
 40
0.0
 40
0.5
 40
1.0
 40
1.0
 40
1.0
 40
1.0
 10
9.912157015402233
 20
-4.734552535644773
 30
0.0
 10
9.912157015402233
 20
-4.751321086819906
 30
0.0
 10
9.912157015402233
 20
-4.784861323427042
 30
0.0
 10
9.912157015402233
 20
-4.818402211051182
 30
0.0
 10
9.912157015402233
 20
-4.835171411589158
 30
0.0
  0
SPLINE
  5
156
330
1F
100
AcDbEntity
  8
0
  6
Continuous
 62
     4
370
    15
100
AcDbSpline
210
0.0
220
0.0
230
1.0
 70
     8
 71
     3
 72
     8
 73
     4
 74
     0
 42
0.000000001
 43
0.00000001
 40
0.0
 40
0.0
 40
0.0
 40
0.0
 40
1.0
 40
1.0
 40
1.0
 40
1.0
 10
9.91215701540223
 20
-4.734552535644772
 30
0.0
 10
9.50413076598481
 20
-4.701786242751874
 30
0.0
 10
9.09102054186864
 20
-4.651336287258929
 30
0.0
 10
8.679683162871031
 20
-4.583902503802649
 30
0.0
  0
SPLINE
  5
157
330
1F
100
AcDbEntity
  8
0
  6
Continuous
 62
     4
370
    15
100
AcDbSpline
210
0.0
220
0.0
230
1.0
 70
     8
 71
     3
 72
     8
 73
     4
 74
     0
 42
0.000000001
 43
0.00000001
 40
0.0
 40
0.0
 40
0.0
 40
0.0
 40
1.0
 40
1.0
 40
1.0
 40
1.0
 10
9.912157015402233
 20
0.0470328331540381
 30
0.0
 10
9.691618043443787
 20
0.1748645065131273
 30
0.0
 10
9.46959732979598
 20
0.3029116741385632
 30
0.0
 10
9.247169837197841
 20
0.4305489095222167
 30
0.0
  0
SPLINE
  5
158
330
1F
100
AcDbEntity
  8
0
  6
Continuous
 62
     1
370
    15
100
AcDbSpline
210
0.0
220
0.0
230
1.0
 70
    24
 71
     3
 72
     9
 73
     5
 74
     0
 42
0.000000001
 43
0.00000001
 40
0.0
 40
0.0
 40
0.0
 40
0.0
 40
0.5
 40
1.0
 40
1.0
 40
1.0
 40
1.0
 10
9.912157015402233
 20
0.0599216600917866
 30
0.0
 10
9.912157015402233
 20
0.0579691208292131
 30
0.0
 10
9.912157015402233
 20
0.0538719253712765
 30
0.0
 10
9.912157015402233
 20
0.0493800724729647
 30
0.0
 10
9.912157015402233
 20
0.0470328331536777
 30
0.0
  0
SPLINE
  5
159
330
1F
100
AcDbEntity
  8
0
  6
Continuous
 62
     1
370
    15
100
AcDbSpline
210
0.0
220
0.0
230
1.0
 70
     8
 71
     3
 72
     8
 73
     4
 74
     0
 42
0.000000001
 43
0.00000001
 40
0.0
 40
0.0
 40
0.0
 40
0.0
 40
1.0
 40
1.0
 40
1.0
 40
1.0
 10
10.14149698987798
 20
-0.0756573260543677
 30
0.0
 10
10.0648988345324
 20
-0.0304361552378961
 30
0.0
 10
9.988474382833763
 20
0.0147583397409533
 30
0.0
 10
9.912157015401453
 20
0.0599216600909697
 30
0.0
  0
SPLINE
  5
15A
330
1F
100
AcDbEntity
  8
0
  6
Continuous
 62
     1
370
    15
100
AcDbSpline
210
0.0
220
0.0
230
1.0
 70
     8
 71
     3
 72
     8
 73
     4
 74
     0
 42
0.000000001
 43
0.00000001
 40
0.0
 40
0.0
 40
0.0
 40
0.0
 40
1.0
 40
1.0
 40
1.0
 40
1.0
 10
10.39931024577637
 20
-0.2447397937673803
 30
0.0
 10
10.32465286361573
 20
-0.1966640342816675
 30
0.0
 10
10.2342151411179
 20
-0.14156699904958
 30
0.0
 10
10.14122258305954
 20
-0.0878781183150776
 30
0.0
  0
SPLINE
  5
15B
330
1F
100
AcDbEntity
  8
0
  6
Continuous
 62
     1
370
    15
100
AcDbSpline
210
0.0
220
0.0
230
1.0
 70
     8
 71
     3
 72
    10
 73
     6
 74
     0
 42
0.000000001
 43
0.00000001
 40
0.0
 40
0.0
 40
0.0
 40
0.0
 40
0.5
 40
0.5
 40
1.0
 40
1.0
 40
1.0
 40
1.0
 10
10.92254131505504
 20
-0.5384496045640027
 30
0.0
 10
10.84293175281266
 20
-0.4964623199676386
 30
0.0
 10
10.74804682346446
 20
-0.4472676839731177
 30
0.0
 10
10.56223963578183
 20
-0.3447052394099299
 30
0.0
 10
10.47334184333391
 20
-0.2924125780990619
 30
0.0
 10
10.39931024577653
 20
-0.2447397937673775
 30
0.0
  0
SPLINE
  5
15C
330
1F
100
AcDbEntity
  8
0
  6
Continuous
 62
     1
370
    15
100
AcDbSpline
210
0.0
220
0.0
230
1.0
 70
     8
 71
     3
 72
    10
 73
     6
 74
     0
 42
0.000000001
 43
0.00000001
 40
0.0
 40
0.0
 40
0.0
 40
0.0
 40
0.5
 40
0.5
 40
1.0
 40
1.0
 40
1.0
 40
1.0
 10
11.44291996301044
 20
-0.8284131103329245
 30
0.0
 10
11.36829975934375
 20
-0.7882781213107297
 30
0.0
 10
11.27919845102766
 20
-0.7384841473552712
 30
0.0
 10
11.09675714849923
 20
-0.6349016472821026
 30
0.0
 10
11.00230112175082
 20
-0.5805161303525813
 30
0.0
 10
10.92254131505504
 20
-0.5384496045639988
 30
0.0
  0
SPLINE
  5
15D
330
1F
100
AcDbEntity
  8
0
  6
Continuous
 62
     1
370
    15
100
AcDbSpline
210
0.0
220
0.0
230
1.0
 70
     8
 71
     3
 72
    10
 73
     6
 74
     0
 42
0.000000001
 43
0.00000001
 40
0.0
 40
0.0
 40
0.0
 40
0.0
 40
0.5
 40
0.5
 40
1.0
 40
1.0
 40
1.0
 40
1.0
 10
11.9662727139108
 20
-1.118022632691144
 30
0.0
 10
11.88712044712974
 20
-1.069077278953428
 30
0.0
 10
11.79242674811848
 20
-1.017121153665077
 30
0.0
 10
11.60654419429476
 20
-0.9163046017033973
 30
0.0
 10
11.51743332402074
 20
-0.868490633298592
 30
0.0
 10
11.44291996301044
 20
-0.8284131103329188
 30
0.0
  0
SPLINE
  5
15E
330
1F
100
AcDbEntity
  8
0
  6
Continuous
 62
     1
370
    15
100
AcDbSpline
210
0.0
220
0.0
230
1.0
 70
     8
 71
     3
 72
     8
 73
     4
 74
     0
 42
0.000000001
 43
0.00000001
 40
0.0
 40
0.0
 40
0.0
 40
0.0
 40
1.0
 40
1.0
 40
1.0
 40
1.0
 10
12.22261867787174
 20
-1.26959286073355
 30
0.0
 10
12.13325664776954
 20
-1.219892572232988
 30
0.0
 10
12.04271533723213
 20
-1.165292425348507
 30
0.0
 10
11.96627271391081
 20
-1.118022632691138
 30
0.0
  0
SPLINE
  5
15F
330
1F
100
AcDbEntity
  8
0
  6
Continuous
 62
     1
370
    15
100
AcDbSpline
210
0.0
220
0.0
230
1.0
 70
     8
 71
     3
 72
     8
 73
     4
 74
     0
 42
0.000000001
 43
0.00000001
 40
0.0
 40
0.0
 40
0.0
 40
0.0
 40
1.0
 40
1.0
 40
1.0
 40
1.0
 10
12.48073776420936
 20
-1.397568027041509
 30
0.0
 10
12.40608440182598
 20
-1.366147947480537
 30
0.0
 10
12.31563479221825
 20
-1.320979667578079
 30
0.0
 10
12.22261867787323
 20
-1.269592860734375
 30
0.0
  0
SPLINE
  5
160
330
1F
100
AcDbEntity
  8
0
  6
Continuous
 62
     1
370
    15
100
AcDbSpline
210
0.0
220
0.0
230
1.0
 70
     8
 71
     3
 72
    10
 73
     6
 74
     0
 42
0.000000001
 43
0.00000001
 40
0.0
 40
0.0
 40
0.0
 40
0.0
 40
0.5
 40
0.5
 40
1.0
 40
1.0
 40
1.0
 40
1.0
 10
13.00379139019695
 20
-1.675337638980146
 30
0.0
 10
12.92422998631838
 20
-1.620343780867266
 30
0.0
 10
12.82938661271802
 20
-1.567035808302412
 30
0.0
 10
12.64363408900924
 20
-1.470793874692073
 30
0.0
 10
12.55475662182838
 20
-1.428721056471705
 30
0.0
 10
12.48073776420953
 20
-1.397568027041473
 30
0.0
  0
SPLINE
  5
161
330
1F
100
AcDbEntity
  8
0
  6
Continuous
 62
     1
370
    15
100
AcDbSpline
210
0.0
220
0.0
230
1.0
 70
     8
 71
     3
 72
    10
 73
     6
 74
     0
 42
0.000000001
 43
0.00000001
 40
0.0
 40
0.0
 40
0.0
 40
0.0
 40
0.5
 40
0.5
 40
1.0
 40
1.0
 40
1.0
 40
1.0
 10
14.04619117712742
 20
-2.211132771528733
 30
0.0
 10
13.96717538182489
 20
-2.150795290625603
 30
0.0
 10
13.87255274709766
 20
-2.096415326670504
 30
0.0
 10
13.68689260208991
 20
-2.004868434638998
 30
0.0
 10
13.59802513463784
 20
-1.968458690314947
 30
0.0
 10
13.52369386733151
 20
-1.945814106142478
 30
0.0
  0
SPLINE
  5
162
330
1F
100
AcDbEntity
  8
0
  6
Continuous
 62
     1
370
    15
100
AcDbSpline
210
0.0
220
0.0
230
1.0
 70
     8
 71
     3
 72
    10
 73
     6
 74
     0
 42
0.000000001
 43
0.00000001
 40
0.0
 40
0.0
 40
0.0
 40
0.0
 40
0.5
 40
0.5
 40
1.0
 40
1.0
 40
1.0
 40
1.0
 10
15.08273109704091
 20
-2.706365665897874
 30
0.0
 10
15.00320633466158
 20
-2.641836123159704
 30
0.0
 10
14.90841720241083
 20
-2.587751690760773
 30
0.0
 10
14.72274879088501
 20
-2.503827808565303
 30
0.0
 10
14.63388095380097
 20
-2.474574608074517
 30
0.0
 10
14.55990544059288
 20
-2.461882672524335
 30
0.0
  0
SPLINE
  5
163
330
1F
100
AcDbEntity
  8
0
  6
Continuous
 62
     1
370
    15
100
AcDbSpline
210
0.0
220
0.0
230
1.0
 70
     8
 71
     3
 72
    10
 73
     6
 74
     0
 42
0.000000001
 43
0.00000001
 40
0.0
 40
0.0
 40
0.0
 40
0.0
 40
0.5
 40
0.5
 40
1.0
 40
1.0
 40
1.0
 40
1.0
 10
15.60293698966872
 20
-2.940665616900248
 30
0.0
 10
15.52831825410024
 20
-2.936836356070694
 30
0.0
 10
15.43928945291217
 20
-2.91134172428817
 30
0.0
 10
15.25693660415046
 20
-2.828788803548547
 30
0.0
 10
15.16249653507981
 20
-2.771090502401103
 30
0.0
 10
15.08273109704091
 20
-2.706365665897876
 30
0.0
  0
SPLINE
  5
164
330
1F
100
AcDbEntity
  8
0
  6
Continuous
 62
     1
370
    15
100
AcDbSpline
210
0.0
220
0.0
230
1.0
 70
     8
 71
     3
 72
    10
 73
     6
 74
     0
 42
0.000000001
 43
0.00000001
 40
0.0
 40
0.0
 40
0.0
 40
0.0
 40
0.5
 40
0.5
 40
1.0
 40
1.0
 40
1.0
 40
1.0
 10
16.12616259828641
 20
-3.165382190179694
 30
0.0
 10
16.04703065163199
 20
-3.097297282707882
 30
0.0
 10
15.95229385208127
 20
-3.043735118584481
 30
0.0
 10
15.76639413420785
 20
-2.967089879947661
 30
0.0
 10
15.6773625900319
 20
-2.94448496647802
 30
0.0
 10
15.60293698966872
 20
-2.940665616900257
 30
0.0
  0
SPLINE
  5
165
330
1F
100
AcDbEntity
  8
0
  6
Continuous
 62
     1
370
    15
100
AcDbSpline
210
0.0
220
0.0
230
1.0
 70
     8
 71
     3
 72
     8
 73
     4
 74
     0
 42
0.000000001
 43
0.00000001
 40
0.0
 40
0.0
 40
0.0
 40
0.0
 40
1.0
 40
1.0
 40
1.0
 40
1.0
 10
16.38250138993818
 20
-3.323788369617272
 30
0.0
 10
16.29314942142476
 20
-3.286304604401113
 30
0.0
 10
16.20259782843593
 20
-3.231146850248464
 30
0.0
 10
16.12616259828692
 20
-3.16538219018013
 30
0.0
  0
SPLINE
  5
166
330
1F
100
AcDbEntity
  8
0
  6
Continuous
 62
     1
370
    15
100
AcDbSpline
210
0.0
220
0.0
230
1.0
 70
     8
 71
     3
 72
     8
 73
     4
 74
     0
 42
0.000000001
 43
0.00000001
 40
0.0
 40
0.0
 40
0.0
 40
0.0
 40
1.0
 40
1.0
 40
1.0
 40
1.0
 10
16.64067933569825
 20
-3.372448608258018
 30
0.0
 10
16.56601670661467
 20
-3.378985584473513
 30
0.0
 10
16.47555710606814
 20
-3.361310757269111
 30
0.0
 10
16.38250138993967
 20
-3.323788369617877
 30
0.0
  0
SPLINE
  5
167
330
1F
100
AcDbEntity
  8
0
  6
Continuous
 62
     1
370
    15
100
AcDbSpline
210
0.0
220
0.0
230
1.0
 70
     8
 71
     3
 72
    10
 73
     6
 74
     0
 42
0.000000001
 43
0.00000001
 40
0.0
 40
0.0
 40
0.0
 40
0.0
 40
0.5
 40
0.5
 40
1.0
 40
1.0
 40
1.0
 40
1.0
 10
17.16402571515141
 20
-3.568572186451126
 30
0.0
 10
17.08441941864466
 20
-3.498499439159654
 30
0.0
 10
16.98955260965231
 20
-3.447011235062397
 30
0.0
 10
16.80373513159966
 20
-3.380603486341934
 30
0.0
 10
16.71477155683017
 20
-3.365961573268105
 30
0.0
 10
16.64067933569842
 20
-3.372448608257924
 30
0.0
  0
SPLINE
  5
168
330
1F
100
AcDbEntity
  8
0
  6
Continuous
 62
     1
370
    15
100
AcDbSpline
210
0.0
220
0.0
230
1.0
 70
     8
 71
     3
 72
    10
 73
     6
 74
     0
 42
0.000000001
 43
0.00000001
 40
0.0
 40
0.0
 40
0.0
 40
0.0
 40
0.5
 40
0.5
 40
1.0
 40
1.0
 40
1.0
 40
1.0
 10
17.68438860719399
 20
-3.751246833290691
 30
0.0
 10
17.60971964950983
 20
-3.766660898886903
 30
0.0
 10
17.52057522697363
 20
-3.756360325607921
 30
0.0
 10
17.33817313579892
 20
-3.692691024037858
 30
0.0
 10
17.24380157347805
 20
-3.63879418905377
 30
0.0
 10
17.16402571515141
 20
-3.568572186451124
 30
0.0
  0
SPLINE
  5
169
330
1F
100
AcDbEntity
  8
0
  6
Continuous
 62
     1
370
    15
100
AcDbSpline
210
0.0
220
0.0
230
1.0
 70
     8
 71
     3
 72
    10
 73
     6
 74
     0
 42
0.000000001
 43
0.00000001
 40
0.0
 40
0.0
 40
0.0
 40
0.0
 40
0.5
 40
0.5
 40
1.0
 40
1.0
 40
1.0
 40
1.0
 10
18.20739823087003
 20
-3.920939096483692
 30
0.0
 10
18.12832823482543
 20
-3.849461028222072
 30
0.0
 10
18.03364070411175
 20
-3.800111462540741
 30
0.0
 10
17.8477996492525
 20
-3.74325169209964
 30
0.0
 10
17.75879314985094
 20
-3.735887351429148
 30
0.0
 10
17.68438860719399
 20
-3.751246833290693
 30
0.0
  0
SPLINE
  5
16A
330
1F
100
AcDbEntity
  8
0
  6
Continuous
 62
     1
370
    15
100
AcDbSpline
210
0.0
220
0.0
230
1.0
 70
     8
 71
     3
 72
     8
 73
     4
 74
     0
 42
0.000000001
 43
0.00000001
 40
0.0
 40
0.0
 40
0.0
 40
0.0
 40
1.0
 40
1.0
 40
1.0
 40
1.0
 10
18.46354341497164
 20
-4.067799435566
 30
0.0
 10
18.37426046005243
 20
-4.040188086863846
 30
0.0
 10
18.28377256937804
 20
-3.98998033152083
 30
0.0
 10
18.20739823087053
 20
-3.920939096484147
 30
0.0
  0
SPLINE
  5
16B
330
1F
100
AcDbEntity
  8
0
  6
Continuous
 62
     1
370
    15
100
AcDbSpline
210
0.0
220
0.0
230
1.0
 70
     8
 71
     3
 72
     8
 73
     4
 74
     0
 42
0.000000001
 43
0.00000001
 40
0.0
 40
0.0
 40
0.0
 40
0.0
 40
1.0
 40
1.0
 40
1.0
 40
1.0
 10
18.72140920665865
 20
-4.070829965346868
 30
0.0
 10
18.64686630759593
 20
-4.09635745909515
 30
0.0
 10
18.55651052818556
 20
-4.094576357130808
 30
0.0
 10
18.46354341497312
 20
-4.067799435566435
 30
0.0
  0
SPLINE
  5
16C
330
1F
100
AcDbEntity
  8
0
  6
Continuous
 62
     1
370
    15
100
AcDbSpline
210
0.0
220
0.0
230
1.0
 70
     8
 71
     3
 72
    10
 73
     6
 74
     0
 42
0.000000001
 43
0.00000001
 40
0.0
 40
0.0
 40
0.0
 40
0.0
 40
0.5
 40
0.5
 40
1.0
 40
1.0
 40
1.0
 40
1.0
 10
19.24394018364937
 20
-4.205682503226232
 30
0.0
 10
19.164458902778
 20
-4.1346494462251
 30
0.0
 10
19.06975656171018
 20
-4.089070096694503
 30
0.0
 10
18.88419996180209
 20
-4.044517726527037
 30
0.0
 10
18.79537467232084
 20
-4.045500215819649
 30
0.0
 10
18.72140920665881
 20
-4.070829965346757
 30
0.0
  0
SPLINE
  5
16D
330
1F
100
AcDbEntity
  8
0
  6
Continuous
 62
     1
370
    15
100
AcDbSpline
210
0.0
220
0.0
230
1.0
 70
     8
 71
     3
 72
    10
 73
     6
 74
     0
 42
0.000000001
 43
0.00000001
 40
0.0
 40
0.0
 40
0.0
 40
0.0
 40
0.5000000000000002
 40
0.5000000000000002
 40
1.0
 40
1.0
 40
1.0
 40
1.0
 10
19.76354935698429
 20
-4.324732472179726
 30
0.0
 10
19.68901279028312
 20
-4.358334429066886
 30
0.0
 10
19.59999605209244
 20
-4.36385812706099
 30
0.0
 10
19.41780245832406
 20
-4.323330390438291
 30
0.0
 10
19.32353045982178
 20
-4.276812970200473
 30
0.0
 10
19.24394018364937
 20
-4.20568250322623
 30
0.0
  0
SPLINE
  5
16E
330
1F
100
AcDbEntity
  8
0
  6
Continuous
 62
     1
370
    15
100
AcDbSpline
210
0.0
220
0.0
230
1.0
 70
     8
 71
     3
 72
    10
 73
     6
 74
     0
 42
0.000000001
 43
0.00000001
 40
0.0
 40
0.0
 40
0.0
 40
0.0
 40
0.5
 40
0.5
 40
1.0
 40
1.0
 40
1.0
 40
1.0
 10
20.28632757603384
 20
-4.429039759581398
 30
0.0
 10
20.207301466244
 20
-4.358676575112761
 30
0.0
 10
20.11266972532355
 20
-4.316601000334294
 30
0.0
 10
19.92690663620363
 20
-4.282961573811845
 30
0.0
 10
19.83790879238976
 20
-4.291210368154385
 30
0.0
 10
19.76354935698429
 20
-4.324732472179723
 30
0.0
  0
SPLINE
  5
16F
330
1F
100
AcDbEntity
  8
0
  6
Continuous
 62
     1
370
    15
100
AcDbSpline
210
0.0
220
0.0
230
1.0
 70
     8
 71
     3
 72
     8
 73
     4
 74
     0
 42
0.000000001
 43
0.00000001
 40
0.0
 40
0.0
 40
0.0
 40
0.0
 40
1.0
 40
1.0
 40
1.0
 40
1.0
 10
20.54254487435021
 20
-4.555218497153867
 30
0.0
 10
20.45325011858688
 20
-4.53918156001731
 30
0.0
 10
20.36273209473242
 20
-4.497068734532958
 30
0.0
 10
20.28632757603435
 20
-4.429039759581849
 30
0.0
  0
SPLINE
  5
170
330
1F
100
AcDbEntity
  8
0
  6
Continuous
 62
     1
370
    15
100
AcDbSpline
210
0.0
220
0.0
230
1.0
 70
     8
 71
     3
 72
     8
 73
     4
 74
     0
 42
0.000000001
 43
0.00000001
 40
0.0
 40
0.0
 40
0.0
 40
0.0
 40
1.0
 40
1.0
 40
1.0
 40
1.0
 10
20.80063798313904
 20
-4.512604185320027
 30
0.0
 10
20.72600828040306
 20
-4.55544654367171
 30
0.0
 10
20.63558934300931
 20
-4.569620903982259
 30
0.0
 10
20.54254487435169
 20
-4.555218497154105
 30
0.0
  0
SPLINE
  5
171
330
1F
100
AcDbEntity
  8
0
  6
Continuous
 62
     1
370
    15
100
AcDbSpline
210
0.0
220
0.0
230
1.0
 70
     8
 71
     3
 72
    10
 73
     6
 74
     0
 42
0.000000001
 43
0.00000001
 40
0.0
 40
0.0
 40
0.0
 40
0.0
 40
0.5
 40
0.5
 40
1.0
 40
1.0
 40
1.0
 40
1.0
 10
21.32396760145746
 20
-4.577745156571711
 30
0.0
 10
21.24430149439257
 20
-4.510176647323215
 30
0.0
 10
21.14938972498551
 20
-4.473500006435542
 30
0.0
 10
20.96363359100499
 20
-4.453621122142665
 30
0.0
 10
20.87472323119287
 20
-4.470074379768805
 30
0.0
 10
20.8006379831392
 20
-4.512604185319899
 30
0.0
  0
SPLINE
  5
172
330
1F
100
AcDbEntity
  8
0
  6
Continuous
 62
     1
370
    15
100
AcDbSpline
210
0.0
220
0.0
230
1.0
 70
     8
 71
     3
 72
    10
 73
     6
 74
     0
 42
0.000000001
 43
0.00000001
 40
0.0
 40
0.0
 40
0.0
 40
0.0
 40
0.5
 40
0.5
 40
1.0
 40
1.0
 40
1.0
 40
1.0
 10
21.84435328458586
 20
-4.626187982746
 30
0.0
 10
21.76969785419415
 20
-4.675809404386108
 30
0.0
 10
21.6805572020407
 20
-4.69667863575591
 30
0.0
 10
21.49810924518965
 20
-4.681628886996923
 30
0.0
 10
21.40369839620944
 20
-4.645368530438856
 30
0.0
 10
21.32396760145746
 20
-4.577745156571712
 30
0.0
  0
SPLINE
  5
173
330
1F
100
AcDbEntity
  8
0
  6
Continuous
 62
     1
370
    15
100
AcDbSpline
210
0.0
220
0.0
230
1.0
 70
     8
 71
     3
 72
    10
 73
     6
 74
     0
 42
0.000000001
 43
0.00000001
 40
0.0
 40
0.0
 40
0.0
 40
0.0
 40
0.5
 40
0.5
 40
1.0
 40
1.0
 40
1.0
 40
1.0
 10
22.36761189978013
 20
-4.658667398584948
 30
0.0
 10
22.28851791112411
 20
-4.593807188860414
 30
0.0
 10
22.19381531126254
 20
-4.561678581186428
 30
0.0
 10
22.00790752565534
 20
-4.553377915670097
 30
0.0
 10
21.91882005834587
 20
-4.576691956006423
 30
0.0
 10
21.84435328458586
 20
-4.62618798274601
 30
0.0
  0
SPLINE
  5
174
330
1F
100
AcDbEntity
  8
0
  6
Continuous
 62
     1
370
    15
100
AcDbSpline
210
0.0
220
0.0
230
1.0
 70
     8
 71
     3
 72
     8
 73
     4
 74
     0
 42
0.000000001
 43
0.00000001
 40
0.0
 40
0.0
 40
0.0
 40
0.0
 40
1.0
 40
1.0
 40
1.0
 40
1.0
 10
22.62394876422454
 20
-4.756098061685946
 30
0.0
 10
22.5346316052015
 20
-4.752692931461957
 30
0.0
 10
22.44407304629583
 20
-4.72136857326384
 30
0.0
 10
22.36761189978063
 20
-4.658667398585361
 30
0.0
  0
SPLINE
  5
175
330
1F
100
AcDbEntity
  8
0
  6
Continuous
 62
     1
370
    15
100
AcDbSpline
210
0.0
220
0.0
230
1.0
 70
     8
 71
     3
 72
     8
 73
     4
 74
     0
 42
0.000000001
 43
0.00000001
 40
0.0
 40
0.0
 40
0.0
 40
0.0
 40
1.0
 40
1.0
 40
1.0
 40
1.0
 10
22.8821020263176
 20
-4.670309142238951
 30
0.0
 10
22.80745437928324
 20
-4.727856480624368
 30
0.0
 10
22.71701827815862
 20
-4.757150595535682
 30
0.0
 10
22.62394876422602
 20
-4.756098061685973
 30
0.0
  0
SPLINE
  5
176
330
1F
100
AcDbEntity
  8
0
  6
Continuous
 62
     1
370
    15
100
AcDbSpline
210
0.0
220
0.0
230
1.0
 70
     8
 71
     3
 72
    10
 73
     6
 74
     0
 42
0.000000001
 43
0.00000001
 40
0.0
 40
0.0
 40
0.0
 40
0.0
 40
0.5000000000000001
 40
0.5000000000000001
 40
1.0
 40
1.0
 40
1.0
 40
1.0
 10
23.40520872809881
 20
-4.661261947356372
 30
0.0
 10
23.32558916865286
 20
-4.601473160848554
 30
0.0
 10
23.23069474201177
 20
-4.575959441666242
 30
0.0
 10
23.04493078194663
 20
-4.582194931652799
 30
0.0
 10
22.95610170025107
 20
-4.613261339053553
 30
0.0
 10
22.88210202631777
 20
-4.670309142238817
 30
0.0
  0
SPLINE
  5
177
330
1F
100
AcDbEntity
  8
0
  6
Continuous
 62
     1
370
    15
100
AcDbSpline
210
0.0
220
0.0
230
1.0
 70
     8
 71
     3
 72
    12
 73
     8
 74
     0
 42
0.000000001
 43
0.00000001
 40
0.0
 40
0.0
 40
0.0
 40
0.0
 40
0.5
 40
0.5
 40
0.75
 40
0.75
 40
1.0
 40
1.0
 40
1.0
 40
1.0
 10
29.99556996575474
 20
-1.524774976666398
 30
0.0
 10
29.95917185342341
 20
-1.023650605851189
 30
0.0
 10
29.92130863927825
 20
-0.4859942027942357
 30
0.0
 10
29.86716421933125
 20
0.3062570963189807
 30
0.0
 10
29.8499934710081
 20
0.5657575464989765
 30
0.0
 10
29.8149485851977
 20
1.080221693314196
 30
0.0
 10
29.7968061809828
 20
1.336445387801816
 30
0.0
 10
29.77841773217089
 20
1.585904343727142
 30
0.0
  0
SPLINE
  5
178
330
1F
100
AcDbEntity
  8
0
  6
Continuous
 62
     1
370
    15
100
AcDbSpline
210
0.0
220
0.0
230
1.0
 70
     8
 71
     3
 72
     8
 73
     4
 74
     0
 42
0.000000001
 43
0.00000001
 40
0.0
 40
0.0
 40
0.0
 40
0.0
 40
1.0
 40
1.0
 40
1.0
 40
1.0
 10
29.77841773217094
 20
1.585904343726671
 30
0.0
 10
29.85308476093584
 20
1.558068664117403
 30
0.0
 10
29.94353339551149
 20
1.515199039071163
 30
0.0
 10
30.03653827332053
 20
1.464580601256122
 30
0.0
  0
SPLINE
  5
179
330
1F
100
AcDbEntity
  8
0
  6
Continuous
 62
     1
370
    15
100
AcDbSpline
210
0.0
220
0.0
230
1.0
 70
     8
 71
     3
 72
    10
 73
     6
 74
     0
 42
0.000000001
 43
0.00000001
 40
0.0
 40
0.0
 40
0.0
 40
0.0
 40
0.5
 40
0.5
 40
1.0
 40
1.0
 40
1.0
 40
1.0
 10
28.95210527063164
 20
-0.958061262947982
 30
0.0
 10
28.91506690343396
 20
-0.436587072811013
 30
0.0
 10
28.87779997005781
 20
0.1044290122992516
 30
0.0
 10
28.80895726709998
 20
1.134075377012864
 30
0.0
 10
28.77179975704786
 20
1.650006424634928
 30
0.0
 10
28.73475474386332
 20
2.122729159775957
 30
0.0
  0
SPLINE
  5
17A
330
1F
100
AcDbEntity
  8
0
  6
Continuous
 62
     1
370
    15
100
AcDbSpline
210
0.0
220
0.0
230
1.0
 70
     8
 71
     3
 72
    10
 73
     6
 74
     0
 42
0.000000001
 43
0.00000001
 40
0.0
 40
0.0
 40
0.0
 40
0.0
 40
0.5
 40
0.5
 40
1.0
 40
1.0
 40
1.0
 40
1.0
 10
28.73475474386253
 20
2.122729159786001
 30
0.0
 10
28.80937526057604
 20
2.103791714762749
 30
0.0
 10
28.89847694676467
 20
2.067558477316504
 30
0.0
 10
29.08092170961379
 20
1.973874003316566
 30
0.0
 10
29.17538135196052
 20
1.915799228623431
 30
0.0
 10
29.25514657165751
 20
1.85846500049943
 30
0.0
  0
SPLINE
  5
17B
330
1F
100
AcDbEntity
  8
0
  6
Continuous
 62
     1
370
    15
100
AcDbSpline
210
0.0
220
0.0
230
1.0
 70
     8
 71
     3
 72
    12
 73
     8
 74
     0
 42
0.000000001
 43
0.00000001
 40
0.0
 40
0.0
 40
0.0
 40
0.0
 40
0.5
 40
0.5
 40
0.75
 40
0.75
 40
1.0
 40
1.0
 40
1.0
 40
1.0
 10
29.47244140647128
 20
-1.242778876822143
 30
0.0
 10
29.43561449459183
 20
-0.7300910599558998
 30
0.0
 10
29.39793507268827
 20
-0.1891961770343257
 30
0.0
 10
29.34491188337219
 20
0.5949856889185982
 30
0.0
 10
29.32792786821255
 20
0.8513831300732397
 30
0.0
 10
29.29207248023477
 20
1.362497142985481
 30
0.0
 10
29.27365690247984
 20
1.614906901897557
 30
0.0
 10
29.25514657165748
 20
1.858465000499797
 30
0.0
  0
LINE
  5
17C
330
1F
100
AcDbEntity
  8
0
  6
Continuous
 62
     1
370
    15
100
AcDbLine
 10
9.912157015402233
 20
0.0599216600925719
 30
0.0
 11
9.912157015402233
 21
2.964100459628463
 31
0.0
  0
SPLINE
  5
17D
330
1F
100
AcDbEntity
  8
0
  6
Continuous
 62
     1
370
    15
100
AcDbSpline
210
0.0
220
0.0
230
1.0
 70
     8
 71
     3
 72
    12
 73
     8
 74
     0
 42
0.000000001
 43
0.00000001
 40
0.0
 40
0.0
 40
0.0
 40
0.0
 40
0.5
 40
0.5
 40
0.75
 40
0.75
 40
1.0
 40
1.0
 40
1.0
 40
1.0
 10
32.03713729274997
 20
-2.089981708457368
 30
0.0
 10
32.02429268205953
 20
-1.711920657177973
 30
0.0
 10
32.01214352087882
 20
-1.3065143716448
 30
0.0
 10
31.99604391693164
 20
-0.6866314440160414
 30
0.0
 10
31.9909970970543
 20
-0.4770874420728892
 30
0.0
 10
31.98157935061639
 20
-0.0520177261906517
 30
0.0
 10
31.97721831681521
 20
0.1633117905076309
 30
0.0
 10
31.97329906419774
 20
0.3771357683847614
 30
0.0
  0
SPLINE
  5
17E
330
1F
100
AcDbEntity
  8
0
  6
Continuous
 62
     1
370
    15
100
AcDbSpline
210
0.0
220
0.0
230
1.0
 70
     8
 71
     3
 72
     8
 73
     4
 74
     0
 42
0.000000001
 43
0.00000001
 40
0.0
 40
0.0
 40
0.0
 40
0.0
 40
1.0
 40
1.0
 40
1.0
 40
1.0
 10
31.97329906419773
 20
0.3771357683847664
 30
0.0
 10
32.02758856498498
 20
0.3490135832351172
 30
0.0
 10
32.08219146763405
 20
0.3227079530934325
 30
0.0
 10
32.13715701540204
 20
0.2982965788525361
 30
0.0
  0
LINE
  5
17F
330
1F
100
AcDbEntity
  8
0
  6
Continuous
 62
     1
370
    15
100
AcDbLine
 10
32.13715701540224
 20
-2.562618721800621
 30
0.0
 11
32.13715701540224
 21
0.2982965788524234
 31
0.0
  0
SPLINE
  5
180
330
1F
100
AcDbEntity
  8
0
  6
Continuous
 62
     1
370
    15
100
AcDbSpline
210
0.0
220
0.0
230
1.0
 70
     8
 71
     3
 72
     8
 73
     4
 74
     0
 42
0.000000001
 43
0.00000001
 40
0.0
 40
0.0
 40
0.0
 40
0.0
 40
1.0
 40
1.0
 40
1.0
 40
1.0
 10
32.05305837105693
 20
-2.558245522608664
 30
0.0
 10
32.04787396711444
 20
-2.407828104955795
 30
0.0
 10
32.042631978905
 20
-2.251709212255589
 30
0.0
 10
32.03713729274995
 20
-2.089981708457255
 30
0.0
  0
SPLINE
  5
181
330
1F
100
AcDbEntity
  8
0
  6
Continuous
 62
     1
370
    15
100
AcDbSpline
210
0.0
220
0.0
230
1.0
 70
     8
 71
     3
 72
    12
 73
     8
 74
     0
 42
0.000000001
 43
0.00000001
 40
0.0
 40
0.0
 40
0.0
 40
0.0
 40
0.2500000000000001
 40
0.2500000000000001
 40
0.5000000000000001
 40
0.5000000000000001
 40
1.0
 40
1.0
 40
1.0
 40
1.0
 10
15.08273109704145
 20
-2.706365665904297
 30
0.0
 10
15.0646646634166
 20
-2.490796485930325
 30
0.0
 10
15.04747071202872
 20
-2.265859084814994
 30
0.0
 10
15.01241363475954
 20
-1.794225220880468
 30
0.0
 10
14.9942624089771
 20
-1.546023002940692
 30
0.0
 10
14.93906392299226
 20
-0.7790514409715732
 30
0.0
 10
14.90130682951792
 20
-0.2380567308832651
 30
0.0
 10
14.86579467171729
 20
0.2861850218653723
 30
0.0
  0
SPLINE
  5
182
330
1F
100
AcDbEntity
  8
0
  6
Continuous
 62
     1
370
    15
100
AcDbSpline
210
0.0
220
0.0
230
1.0
 70
     8
 71
     3
 72
    12
 73
     8
 74
     0
 42
0.000000001
 43
0.00000001
 40
0.0
 40
0.0
 40
0.0
 40
0.0
 40
0.25
 40
0.25
 40
0.5
 40
0.5
 40
1.0
 40
1.0
 40
1.0
 40
1.0
 10
15.60293698966872
 20
-2.94066561690024
 30
0.0
 10
15.58460622074895
 20
-2.734214863808204
 30
0.0
 10
15.56657188537548
 20
-2.514519177936853
 30
0.0
 10
15.53182875199751
 20
-2.059300759622431
 30
0.0
 10
15.514346588916
 20
-1.820532938157031
 30
0.0
 10
15.45986525381091
 20
-1.072302840719503
 30
0.0
 10
15.42197631304755
 20
-0.5355772906536733
 30
0.0
 10
15.38575778719697
 20
-0.0068643314277913
 30
0.0
  0
SPLINE
  5
183
330
1F
100
AcDbEntity
  8
0
  6
Continuous
 62
     1
370
    15
100
AcDbSpline
210
0.0
220
0.0
230
1.0
 70
     8
 71
     3
 72
    12
 73
     8
 74
     0
 42
0.000000001
 43
0.00000001
 40
0.0
 40
0.0
 40
0.0
 40
0.0
 40
0.5
 40
0.5
 40
0.75
 40
0.75
 40
1.0
 40
1.0
 40
1.0
 40
1.0
 10
12.22261867787173
 20
-1.269592860733382
 30
0.0
 10
12.18610261306946
 20
-0.7511994153571171
 30
0.0
 10
12.14874209858283
 20
-0.2044396105410398
 30
0.0
 10
12.09609526014481
 20
0.5891411930557399
 30
0.0
 10
12.07927157721526
 20
0.8484964449886889
 30
0.0
 10
12.04377103122973
 20
1.365738516520614
 30
0.0
 10
12.02553075558793
 20
1.621369346377459
 30
0.0
 10
12.00718247800329
 20
1.868328015583363
 30
0.0
  0
SPLINE
  5
184
330
1F
100
AcDbEntity
  8
0
  6
Continuous
 62
     1
370
    15
100
AcDbSpline
210
0.0
220
0.0
230
1.0
 70
     8
 71
     3
 72
    12
 73
     8
 74
     0
 42
0.000000001
 43
0.00000001
 40
0.0
 40
0.0
 40
0.0
 40
0.0
 40
0.5
 40
0.5
 40
0.75
 40
0.75
 40
1.0
 40
1.0
 40
1.0
 40
1.0
 10
12.48073776420953
 20
-1.397568027041485
 30
0.0
 10
12.44412270436597
 20
-0.8907747122507212
 30
0.0
 10
12.40631870918479
 20
-0.3511748815206954
 30
0.0
 10
12.35265389699742
 20
0.4380444129773198
 30
0.0
 10
12.33570151163111
 20
0.6956366450704391
 30
0.0
 10
12.30026960356966
 20
1.209012303107909
 30
0.0
 10
12.28199246076553
 20
1.463725774026941
 30
0.0
 10
12.26353750055762
 20
1.710718796456328
 30
0.0
  0
SPLINE
  5
185
330
1F
100
AcDbEntity
  8
0
  6
Continuous
 62
     1
370
    15
100
AcDbSpline
210
0.0
220
0.0
230
1.0
 70
     8
 71
     3
 72
    12
 73
     8
 74
     0
 42
0.000000001
 43
0.00000001
 40
0.0
 40
0.0
 40
0.0
 40
0.0
 40
0.5
 40
0.5
 40
0.75
 40
0.75
 40
1.0
 40
1.0
 40
1.0
 40
1.0
 10
11.96627271391079
 20
-1.118022632690989
 30
0.0
 10
11.92932797911257
 20
-0.6008611722316999
 30
0.0
 10
11.89180543306023
 20
-0.0592731415233205
 30
0.0
 10
11.83936731431131
 20
0.720478178656889
 30
0.0
 10
11.8221317860641
 20
0.9769986655252516
 30
0.0
 10
11.78598477946814
 20
1.485993360876752
 30
0.0
 10
11.76748445159896
 20
1.736395699463638
 30
0.0
 10
11.74895646576131
 20
1.977054570066004
 30
0.0
  0
SPLINE
  5
186
330
1F
100
AcDbEntity
  8
0
  6
Continuous
 62
     1
370
    15
100
AcDbSpline
210
0.0
220
0.0
230
1.0
 70
     8
 71
     3
 72
     8
 73
     4
 74
     0
 42
0.000000001
 43
0.00000001
 40
0.0
 40
0.0
 40
0.0
 40
0.0
 40
1.0
 40
1.0
 40
1.0
 40
1.0
 10
31.85783279057143
 20
0.4459019938238081
 30
0.0
 10
31.89316461150631
 20
0.4246075887671309
 30
0.0
 10
31.93217703758376
 20
0.401410882941693
 30
0.0
 10
31.97329906419773
 20
0.3771357683847695
 30
0.0
  0
SPLINE
  5
187
330
1F
100
AcDbEntity
  8
0
  6
Continuous
 62
     1
370
    15
100
AcDbSpline
210
0.0
220
0.0
230
1.0
 70
     8
 71
     3
 72
    10
 73
     6
 74
     0
 42
0.000000001
 43
0.00000001
 40
0.0
 40
0.0
 40
0.0
 40
0.0
 40
0.5
 40
0.5
 40
1.0
 40
1.0
 40
1.0
 40
1.0
 10
32.03713729274997
 20
-2.089981708457258
 30
0.0
 10
32.00850098851934
 20
-1.705632149580429
 30
0.0
 10
31.97808669985248
 20
-1.286448489055148
 30
0.0
 10
31.91712547776627
 20
-0.4242999081029281
 30
0.0
 10
31.88662524034269
 20
0.0180060864899891
 30
0.0
 10
31.85783279057146
 20
0.4459019938233402
 30
0.0
  0
SPLINE
  5
188
330
1F
100
AcDbEntity
  8
0
  6
Continuous
 62
     1
370
    15
100
AcDbSpline
210
0.0
220
0.0
230
1.0
 70
     8
 71
     3
 72
    12
 73
     8
 74
     0
 42
0.000000001
 43
0.00000001
 40
0.0
 40
0.0
 40
0.0
 40
0.0
 40
0.2500000000000001
 40
0.2500000000000001
 40
0.5000000000000001
 40
0.5000000000000001
 40
1.0
 40
1.0
 40
1.0
 40
1.0
 10
10.92254131505504
 20
-0.538449604563976
 30
0.0
 10
10.90406321440228
 20
-0.2740726547836301
 30
0.0
 10
10.88573730307823
 20
-0.0078731350929039
 30
0.0
 10
10.85016342025417
 20
0.5166362504683545
 30
0.0
 10
10.83323281269312
 20
0.773441195182779
 30
0.0
 10
10.77974985831958
 20
1.541880884052875
 30
0.0
 10
10.74197155861086
 20
2.043368648794286
 30
0.0
 10
10.7052796501141
 20
2.490353299107717
 30
0.0
  0
SPLINE
  5
189
330
1F
100
AcDbEntity
  8
0
  6
Continuous
 62
     1
370
    15
100
AcDbSpline
210
0.0
220
0.0
230
1.0
 70
     8
 71
     3
 72
    12
 73
     8
 74
     0
 42
0.000000001
 43
0.00000001
 40
0.0
 40
0.0
 40
0.0
 40
0.0
 40
0.25
 40
0.25
 40
0.5
 40
0.5
 40
1.0
 40
1.0
 40
1.0
 40
1.0
 10
11.44291996301044
 20
-0.8284131103329361
 30
0.0
 10
11.42438902005487
 20
-0.5661974698602403
 30
0.0
 10
11.40585848671724
 20
-0.2999873459299938
 30
0.0
 10
11.36960086288521
 20
0.228719401085797
 30
0.0
 10
11.35220420944554
 20
0.4895699181024609
 30
0.0
 10
11.30001226649727
 20
1.261271927826104
 30
0.0
 10
11.26256170546203
 20
1.773692501144052
 30
0.0
 10
11.22557772103199
 20
2.239013792337712
 30
0.0
  0
SPLINE
  5
18A
330
1F
100
AcDbEntity
  8
0
  6
Continuous
 62
     1
370
    15
100
AcDbSpline
210
0.0
220
0.0
230
1.0
 70
     8
 71
     3
 72
    10
 73
     6
 74
     0
 42
0.000000001
 43
0.00000001
 40
0.0
 40
0.0
 40
0.0
 40
0.0
 40
0.5
 40
0.5
 40
1.0
 40
1.0
 40
1.0
 40
1.0
 10
31.33542333738898
 20
0.7376851004917422
 30
0.0
 10
31.4149028870178
 20
0.6928900865858592
 30
0.0
 10
31.5096586491694
 20
0.6426469282603275
 30
0.0
 10
31.6952107598551
 20
0.540889795773232
 30
0.0
 10
31.78394802962693
 20
0.4904321647982312
 30
0.0
 10
31.85783279057144
 20
0.4459019938237995
 30
0.0
  0
SPLINE
  5
18B
330
1F
100
AcDbEntity
  8
0
  6
Continuous
 62
     1
370
    15
100
AcDbSpline
210
0.0
220
0.0
230
1.0
 70
     8
 71
     3
 72
    10
 73
     6
 74
     0
 42
0.000000001
 43
0.00000001
 40
0.0
 40
0.0
 40
0.0
 40
0.0
 40
0.5
 40
0.5
 40
1.0
 40
1.0
 40
1.0
 40
1.0
 10
30.29282742328861
 20
1.310219557668111
 30
0.0
 10
30.37186698328651
 20
1.258647077770157
 30
0.0
 10
30.46648381992185
 20
1.206011918125115
 30
0.0
 10
30.65225374270994
 20
1.106794594177994
 30
0.0
 10
30.74132863068524
 20
1.061166278270803
 30
0.0
 10
30.81575592979584
 20
1.024546643111315
 30
0.0
  0
SPLINE
  5
18C
330
1F
100
AcDbEntity
  8
0
  6
Continuous
 62
     1
370
    15
100
AcDbSpline
210
0.0
220
0.0
230
1.0
 70
     8
 71
     3
 72
    12
 73
     8
 74
     0
 42
0.000000001
 43
0.00000001
 40
0.0
 40
0.0
 40
0.0
 40
0.0
 40
0.25
 40
0.25
 40
0.5
 40
0.5
 40
1.0
 40
1.0
 40
1.0
 40
1.0
 10
28.17050367117841
 20
-0.519026120217504
 30
0.0
 10
28.15219179455518
 20
-0.2515346975004633
 30
0.0
 10
28.13404432754421
 20
0.0175658628122947
 30
0.0
 10
28.09882930566957
 20
0.5475400161268208
 30
0.0
 10
28.08203319448674
 20
0.8071127557741973
 30
0.0
 10
28.0289369053464
 20
1.583912251894328
 30
0.0
 10
27.99148179083562
 20
2.090476922493838
 30
0.0
 10
27.95510091097342
 20
2.542332792405309
 30
0.0
  0
SPLINE
  5
18D
330
1F
100
AcDbEntity
  8
0
  6
Continuous
 62
     1
370
    15
100
AcDbSpline
210
0.0
220
0.0
230
1.0
 70
     8
 71
     3
 72
     8
 73
     4
 74
     0
 42
0.000000001
 43
0.00000001
 40
0.0
 40
0.0
 40
0.0
 40
0.0
 40
1.0
 40
1.0
 40
1.0
 40
1.0
 10
27.95510091097598
 20
2.542332792404844
 30
0.0
 10
28.04445535093409
 20
2.498599645503193
 30
0.0
 10
28.13498947468452
 20
2.441900828806709
 30
0.0
 10
28.21142326817353
 20
2.381672536624343
 30
0.0
  0
SPLINE
  5
18E
330
1F
100
AcDbEntity
  8
0
  6
Continuous
 62
     1
370
    15
100
AcDbSpline
210
0.0
220
0.0
230
1.0
 70
     8
 71
     3
 72
    12
 73
     8
 74
     0
 42
0.000000001
 43
0.00000001
 40
0.0
 40
0.0
 40
0.0
 40
0.0
 40
0.2500000000000001
 40
0.2500000000000001
 40
0.5000000000000001
 40
0.5000000000000001
 40
1.0
 40
1.0
 40
1.0
 40
1.0
 10
28.42871502452815
 20
-0.6669700610946103
 30
0.0
 10
28.41020155476233
 20
-0.4032452767944028
 30
0.0
 10
28.39177349939674
 20
-0.1367357586212202
 30
0.0
 10
28.35587626137561
 20
0.3902132431761779
 30
0.0
 10
28.33886989065242
 20
0.6483958490464158
 30
0.0
 10
28.28592694320127
 20
1.419156293013081
 30
0.0
 10
28.2482680424942
 20
1.926080534689334
 30
0.0
 10
28.21142326817355
 20
2.381672536624329
 30
0.0
  0
SPLINE
  5
18F
330
1F
100
AcDbEntity
  8
0
  6
Continuous
 62
     1
370
    15
100
AcDbSpline
210
0.0
220
0.0
230
1.0
 70
     8
 71
     3
 72
    12
 73
     8
 74
     0
 42
0.000000001
 43
0.00000001
 40
0.0
 40
0.0
 40
0.0
 40
0.0
 40
0.2500000000000001
 40
0.2500000000000001
 40
0.5000000000000001
 40
0.5000000000000001
 40
1.0
 40
1.0
 40
1.0
 40
1.0
 10
27.91416761657945
 20
-0.3781464348453765
 30
0.0
 10
27.89576734674618
 20
-0.1131518442805254
 30
0.0
 10
27.8776017168899
 20
0.152464452723045
 30
0.0
 10
27.84249083388998
 20
0.6735908919939468
 30
0.0
 10
27.82537288139935
 20
0.9300303636473309
 30
0.0
 10
27.77130746464537
 20
1.694993867752066
 30
0.0
 10
27.73345270706782
 20
2.189282473922858
 30
0.0
 10
27.69701665308881
 20
2.625296292296056
 30
0.0
  0
SPLINE
  5
190
330
1F
100
AcDbEntity
  8
0
  6
Continuous
 62
     1
370
    15
100
AcDbSpline
210
0.0
220
0.0
230
1.0
 70
     8
 71
     3
 72
     8
 73
     4
 74
     0
 42
0.000000001
 43
0.00000001
 40
0.0
 40
0.0
 40
0.0
 40
0.0
 40
1.0
 40
1.0
 40
1.0
 40
1.0
 10
27.69701665308882
 20
2.625296292296004
 30
0.0
 10
27.77165580199445
 20
2.616369571600243
 30
0.0
 10
27.86209387701803
 20
2.586774685815152
 30
0.0
 10
27.95510091097343
 20
2.542332792405293
 30
0.0
  0
SPLINE
  5
191
330
1F
100
AcDbEntity
  8
0
  6
Continuous
 62
     1
370
    15
100
AcDbSpline
210
0.0
220
0.0
230
1.0
 70
     8
 71
     3
 72
    12
 73
     8
 74
     0
 42
0.000000001
 43
0.00000001
 40
0.0
 40
0.0
 40
0.0
 40
0.0
 40
0.25
 40
0.25
 40
0.5
 40
0.5
 40
1.0
 40
1.0
 40
1.0
 40
1.0
 10
26.87106576174241
 20
0.2084879253635556
 30
0.0
 10
26.85319715037885
 20
0.4714823625413151
 30
0.0
 10
26.83624292930489
 20
0.7289485385251487
 30
0.0
 10
26.80066790892179
 20
1.242378963077629
 30
0.0
 10
26.78233348180337
 20
1.496860290805886
 30
0.0
 10
26.72685107966697
 20
2.236322869933764
 30
0.0
 10
26.6892721267917
 20
2.69583110297449
 30
0.0
 10
26.65425775154612
 20
3.085388179256164
 30
0.0
  0
SPLINE
  5
192
330
1F
100
AcDbEntity
  8
0
  6
Continuous
 62
     1
370
    15
100
AcDbSpline
210
0.0
220
0.0
230
1.0
 70
     8
 71
     3
 72
    10
 73
     6
 74
     0
 42
0.000000001
 43
0.00000001
 40
0.0
 40
0.0
 40
0.0
 40
0.0
 40
0.5
 40
0.5
 40
1.0
 40
1.0
 40
1.0
 40
1.0
 10
26.65425775154613
 20
3.085388179256169
 30
0.0
 10
26.72875157019005
 20
3.085479745336512
 30
0.0
 10
26.81773827860342
 20
3.06308810009012
 30
0.0
 10
26.99998855258282
 20
2.984180406695146
 30
0.0
 10
27.09436211143284
 20
2.927063029678608
 30
0.0
 10
27.17404875690024
 20
2.860988956100972
 30
0.0
  0
SPLINE
  5
193
330
1F
100
AcDbEntity
  8
0
  6
Continuous
 62
     1
370
    15
100
AcDbSpline
210
0.0
220
0.0
230
1.0
 70
     8
 71
     3
 72
    12
 73
     8
 74
     0
 42
0.000000001
 43
0.00000001
 40
0.0
 40
0.0
 40
0.0
 40
0.0
 40
0.25
 40
0.25
 40
0.5
 40
0.5
 40
1.0
 40
1.0
 40
1.0
 40
1.0
 10
27.39107087493879
 20
-0.0843102841177255
 30
0.0
 10
27.37288430918158
 20
0.1803969803605247
 30
0.0
 10
27.35529953935871
 20
0.4424742657824205
 30
0.0
 10
27.32064513550812
 20
0.9573040104700695
 30
0.0
 10
27.30264400921281
 20
1.214615240660726
 30
0.0
 10
27.24771096590052
 20
1.968995845894185
 30
0.0
 10
27.20987476799759
 20
2.447272951241425
 30
0.0
 10
27.17404875690073
 20
2.860988956095404
 30
0.0
  0
SPLINE
  5
194
330
1F
100
AcDbEntity
  8
0
  6
Continuous
 62
     1
370
    15
100
AcDbSpline
210
0.0
220
0.0
230
1.0
 70
     8
 71
     3
 72
    10
 73
     6
 74
     0
 42
0.000000001
 43
0.00000001
 40
0.0
 40
0.0
 40
0.0
 40
0.0
 40
0.5
 40
0.5
 40
1.0
 40
1.0
 40
1.0
 40
1.0
 10
29.25514657165751
 20
1.858465000499427
 30
0.0
 10
29.334760580611
 20
1.801239460739794
 30
0.0
 10
29.42965058183718
 20
1.747494663831389
 30
0.0
 10
29.61547018397047
 20
1.653224217949999
 30
0.0
 10
29.70437653637986
 20
1.613506714385052
 30
0.0
 10
29.77841773217094
 20
1.585904343726692
 30
0.0
  0
SPLINE
  5
195
330
1F
100
AcDbEntity
  8
0
  6
Continuous
 62
     1
370
    15
100
AcDbSpline
210
0.0
220
0.0
230
1.0
 70
     8
 71
     3
 72
    12
 73
     8
 74
     0
 42
0.000000001
 43
0.00000001
 40
0.0
 40
0.0
 40
0.0
 40
0.0
 40
0.25
 40
0.25
 40
0.5
 40
0.5
 40
1.0
 40
1.0
 40
1.0
 40
1.0
 10
10.39931024577653
 20
-0.2447397937673852
 30
0.0
 10
10.38099455398471
 20
0.0203669848560584
 30
0.0
 10
10.36298102262329
 20
0.2851023479433546
 30
0.0
 10
10.32828818718208
 20
0.8026790845126173
 30
0.0
 10
10.31076931400872
 20
1.059709528335748
 30
0.0
 10
10.25627393852698
 20
1.820591748648401
 30
0.0
 10
10.21839957109052
 20
2.308085437095997
 30
0.0
 10
10.18221597941661
 20
2.734335298725663
 30
0.0
  0
LINE
  5
196
102
{ACAD_REACTORS
330
312
102
}
330
1F
100
AcDbEntity
  8
0
  6
Continuous
 62
     4
370
    15
100
AcDbLine
 10
-43.56284298459776
 20
4.744528192511453
 30
0.0
 11
-43.56284298459776
 21
-4.780471807488543
 31
0.0
  0
LINE
  5
197
330
1F
100
AcDbEntity
  8
0
  6
Continuous
 62
     4
370
    15
100
AcDbLine
 10
-44.06284298459776
 20
4.244528192511453
 30
0.0
 11
-44.06284298459776
 21
-4.280471807488551
 31
0.0
  0
LINE
  5
199
330
1F
100
AcDbEntity
  8
0
  6
Continuous
 62
     4
370
    15
100
AcDbLine
 10
8.391958181813617
 20
4.149028192511455
 30
0.0
 11
8.391958181813617
 21
3.765327016973292
 31
0.0
  0
SPLINE
  5
19A
330
1F
100
AcDbEntity
  8
0
  6
Continuous
 62
     4
370
    15
100
AcDbSpline
210
0.0
220
0.0
230
1.0
 70
     8
 71
     3
 72
    10
 73
     6
 74
     0
 42
0.000000001
 43
0.00000001
 40
0.0
 40
0.0
 40
0.0
 40
0.0
 40
0.5
 40
0.5
 40
1.0
 40
1.0
 40
1.0
 40
1.0
 10
8.679683162871031
 20
3.437709339505744
 30
0.0
 10
8.590937034609441
 20
3.472919027114894
 30
0.0
 10
8.517795981462916
 20
3.523609037148928
 30
0.0
 10
8.418258673255584
 20
3.638775421667177
 30
0.0
 10
8.391958181813616
 20
3.703136693161169
 30
0.0
 10
8.391958181813616
 20
3.765327016973291
 30
0.0
  0
LINE
  5
19B
330
1F
100
AcDbEntity
  8
0
  6
Continuous
 62
     4
370
    15
100
AcDbLine
 10
8.391958181813617
 20
-0.0741179998560323
 30
0.0
 11
8.391958181813617
 21
-4.414824243651716
 31
0.0
  0
LINE
  5
19C
102
{ACAD_REACTORS
102
}
330
1F
100
AcDbEntity
  8
0
  6
Continuous
 62
     1
370
    15
100
AcDbLine
 10
32.13715701540224
 20
3.06576582390321
 30
0.0
 11
32.13715701540224
 21
4.523529107165221
 31
0.0
  0
SPLINE
  5
19D
330
1F
100
AcDbEntity
  8
0
  6
Continuous
 62
     1
370
    15
100
AcDbSpline
210
0.0
220
0.0
230
1.0
 70
     8
 71
     3
 72
    12
 73
     8
 74
     0
 42
0.000000001
 43
0.00000001
 40
0.0
 40
0.0
 40
0.0
 40
0.0
 40
0.2499999999999993
 40
0.2499999999999993
 40
0.4999999999999986
 40
0.4999999999999986
 40
1.0
 40
1.0
 40
1.0
 40
1.0
 10
32.13715701540224
 20
3.065765823903207
 30
0.0
 10
32.05868794261984
 20
2.886552917475504
 30
0.0
 10
31.96618329567047
 20
2.72051781423536
 30
0.0
 10
31.75159704534972
 20
2.416216996166264
 30
0.0
 10
31.6279279188627
 20
2.277054700516386
 30
0.0
 10
31.22922946085786
 20
1.922254854120256
 30
0.0
 10
30.91782240629139
 20
1.76105667896795
 30
0.0
 10
30.59559553391418
 20
1.676367163202712
 30
0.0
  0
SPLINE
  5
19E
330
1F
100
AcDbEntity
  8
0
  6
Continuous
 62
     1
370
    15
100
AcDbSpline
210
0.0
220
0.0
230
1.0
 70
     8
 71
     3
 72
     8
 73
     4
 74
     0
 42
0.000000001
 43
0.00000001
 40
0.0
 40
0.0
 40
0.0
 40
0.0
 40
1.0
 40
1.0
 40
1.0
 40
1.0
 10
32.13715701540224
 20
0.9007164056580885
 30
0.0
 10
31.61008541575842
 20
1.187329100703847
 30
0.0
 10
31.09670024968176
 20
1.444884346319764
 30
0.0
 10
30.59559553391371
 20
1.676367163200498
 30
0.0
  0
LINE
  5
19F
330
1F
100
AcDbEntity
  8
0
  6
Continuous
 62
     1
370
    15
100
AcDbLine
 10
32.13715701540224
 20
0.2982965788524234
 30
0.0
 11
32.13715701540224
 21
0.9007164056580876
 31
0.0
  0
SPLINE
  5
1A0
330
1F
100
AcDbEntity
  8
0
  6
Continuous
 62
     1
370
    15
100
AcDbSpline
210
0.0
220
0.0
230
1.0
 70
     8
 71
     3
 72
    10
 73
     6
 74
     0
 42
0.000000001
 43
0.00000001
 40
0.0
 40
0.0
 40
0.0
 40
0.0
 40
0.5
 40
0.5
 40
1.0
 40
1.0
 40
1.0
 40
1.0
 10
28.21142326817355
 20
2.381672536624317
 30
0.0
 10
28.29057626616196
 20
2.319301565979754
 30
0.0
 10
28.38528454802175
 20
2.264642905575811
 30
0.0
 10
28.57114716000631
 20
2.175417115160191
 30
0.0
 10
28.66024690083628
 20
2.14163801010297
 30
0.0
 10
28.73475474386259
 20
2.122729159785984
 30
0.0
  0
SPLINE
  5
1A1
330
1F
100
AcDbEntity
  8
0
  6
Continuous
 62
     1
370
    15
100
AcDbSpline
210
0.0
220
0.0
230
1.0
 70
     8
 71
     3
 72
    10
 73
     6
 74
     0
 42
0.000000001
 43
0.00000001
 40
0.0
 40
0.0
 40
0.0
 40
0.0
 40
0.5
 40
0.5
 40
1.0
 40
1.0
 40
1.0
 40
1.0
 10
27.17404875690025
 20
2.860988956100967
 30
0.0
 10
27.25359352920922
 20
2.79503252002023
 30
0.0
 10
27.34842064118319
 20
2.741242522611344
 30
0.0
 10
27.53414623483532
 20
2.660534419578074
 30
0.0
 10
27.62301096379423
 20
2.634147252253566
 30
0.0
 10
27.69701665308881
 20
2.625296292296006
 30
0.0
  0
SPLINE
  5
1A2
330
1F
100
AcDbEntity
  8
0
  6
Continuous
 62
     1
370
    15
100
AcDbSpline
210
0.0
220
0.0
230
1.0
 70
     8
 71
     3
 72
    10
 73
     6
 74
     0
 42
0.000000001
 43
0.00000001
 40
0.0
 40
0.0
 40
0.0
 40
0.0
 40
0.5
 40
0.5
 40
1.0
 40
1.0
 40
1.0
 40
1.0
 10
26.13184349353783
 20
3.300120392792176
 30
0.0
 10
26.2108520645027
 20
3.231009416225037
 30
0.0
 10
26.30545847565484
 20
3.178009209565123
 30
0.0
 10
26.49109387787704
 20
3.10496226490699
 30
0.0
 10
26.57995304173014
 20
3.08529684562404
 30
0.0
 10
26.65425775154614
 20
3.085388179256184
 30
0.0
  0
SPLINE
  5
1A3
330
1F
100
AcDbEntity
  8
0
  6
Continuous
 62
     1
370
    15
100
AcDbSpline
210
0.0
220
0.0
230
1.0
 70
     8
 71
     3
 72
     8
 73
     4
 74
     0
 42
0.000000001
 43
0.00000001
 40
0.0
 40
0.0
 40
0.0
 40
0.0
 40
1.0
 40
1.0
 40
1.0
 40
1.0
 10
25.87584247748574
 20
3.456938012201254
 30
0.0
 10
25.96509445801476
 20
3.421302367402803
 30
0.0
 10
26.05552827511709
 20
3.366875419589661
 30
0.0
 10
26.13184349353779
 20
3.300120392792214
 30
0.0
  0
SPLINE
  5
1A4
330
1F
100
AcDbEntity
  8
0
  6
Continuous
 62
     1
370
    15
100
AcDbSpline
210
0.0
220
0.0
230
1.0
 70
     8
 71
     3
 72
     8
 73
     4
 74
     0
 42
0.000000001
 43
0.00000001
 40
0.0
 40
0.0
 40
0.0
 40
0.0
 40
1.0
 40
1.0
 40
1.0
 40
1.0
 10
25.61799877799444
 20
3.496406798300615
 30
0.0
 10
25.69255085535203
 20
3.506897418782938
 30
0.0
 10
25.78290012338169
 20
3.492430265062243
 30
0.0
 10
25.8758424774832
 20
3.456938012201621
 30
0.0
  0
SPLINE
  5
1A5
330
1F
100
AcDbEntity
  8
0
  6
Continuous
 62
     1
370
    15
100
AcDbSpline
210
0.0
220
0.0
230
1.0
 70
     8
 71
     3
 72
    10
 73
     6
 74
     0
 42
0.000000001
 43
0.00000001
 40
0.0
 40
0.0
 40
0.0
 40
0.0
 40
0.5
 40
0.5
 40
1.0
 40
1.0
 40
1.0
 40
1.0
 10
25.09506593590051
 20
3.680673520897108
 30
0.0
 10
25.17460805610791
 20
3.610131724703725
 30
0.0
 10
25.26941375959442
 20
3.559650218319449
 30
0.0
 10
25.45511367126228
 20
3.497471909089566
 30
0.0
 10
25.54400114738546
 20
3.485994196977836
 30
0.0
 10
25.61799877799445
 20
3.496406798300622
 30
0.0
  0
SPLINE
  5
1A6
330
1F
100
AcDbEntity
  8
0
  6
Continuous
 62
     1
370
    15
100
AcDbSpline
210
0.0
220
0.0
230
1.0
 70
     8
 71
     3
 72
    10
 73
     6
 74
     0
 42
0.000000001
 43
0.00000001
 40
0.0
 40
0.0
 40
0.0
 40
0.0
 40
0.5
 40
0.5
 40
1.0
 40
1.0
 40
1.0
 40
1.0
 10
24.57478448219674
 20
3.851373169171226
 30
0.0
 10
24.64942315445239
 20
3.870504604643751
 30
0.0
 10
24.7384731330507
 20
3.863283588955849
 30
0.0
 10
24.92084046538676
 20
3.804020996412851
 30
0.0
 10
25.01528697300362
 20
3.75142536063333
 30
0.0
 10
25.09506593590051
 20
3.680673520897106
 30
0.0
  0
SPLINE
  5
1A7
330
1F
100
AcDbEntity
  8
0
  6
Continuous
 62
     1
370
    15
100
AcDbSpline
210
0.0
220
0.0
230
1.0
 70
     8
 71
     3
 72
    10
 73
     6
 74
     0
 42
0.000000001
 43
0.00000001
 40
0.0
 40
0.0
 40
0.0
 40
0.0
 40
0.5000000000000002
 40
0.5000000000000002
 40
1.0
 40
1.0
 40
1.0
 40
1.0
 10
24.05152370236811
 20
4.008881262452102
 30
0.0
 10
24.13065820584249
 20
3.937215763062143
 30
0.0
 10
24.22539912005858
 20
3.889074592459263
 30
0.0
 10
24.41131087228165
 20
3.836575440804275
 30
0.0
 10
24.5003503628137
 20
3.832294164830778
 30
0.0
 10
24.57478448219674
 20
3.851373169171227
 30
0.0
  0
SPLINE
  5
1A8
330
1F
100
AcDbEntity
  8
0
  6
Continuous
 62
     1
370
    15
100
AcDbSpline
210
0.0
220
0.0
230
1.0
 70
     8
 71
     3
 72
     8
 73
     4
 74
     0
 42
0.000000001
 43
0.00000001
 40
0.0
 40
0.0
 40
0.0
 40
0.0
 40
1.0
 40
1.0
 40
1.0
 40
1.0
 10
23.79517789115418
 20
4.152324287775162
 30
0.0
 10
23.88453098803752
 20
4.126927979004643
 30
0.0
 10
23.97508545322755
 20
4.078104989861033
 30
0.0
 10
24.05152370236808
 20
4.008881262452128
 30
0.0
  0
SPLINE
  5
1A9
330
1F
100
AcDbEntity
  8
0
  6
Continuous
 62
     1
370
    15
100
AcDbSpline
210
0.0
220
0.0
230
1.0
 70
     8
 71
     3
 72
     8
 73
     4
 74
     0
 42
0.000000001
 43
0.00000001
 40
0.0
 40
0.0
 40
0.0
 40
0.0
 40
1.0
 40
1.0
 40
1.0
 40
1.0
 10
23.53699859638731
 20
4.146059547538557
 30
0.0
 10
23.61166061908296
 20
4.175258290985371
 30
0.0
 10
23.70212039468524
 20
4.176721383883982
 30
0.0
 10
23.79517789115165
 20
4.152324287775424
 30
0.0
  0
SPLINE
  5
1AA
330
1F
100
AcDbEntity
  8
0
  6
Continuous
 62
     1
370
    15
100
AcDbSpline
210
0.0
220
0.0
230
1.0
 70
     8
 71
     3
 72
    10
 73
     6
 74
     0
 42
0.000000001
 43
0.00000001
 40
0.0
 40
0.0
 40
0.0
 40
0.0
 40
0.5
 40
0.5
 40
1.0
 40
1.0
 40
1.0
 40
1.0
 10
23.01367047157151
 20
4.267315022931281
 30
0.0
 10
23.09327305907926
 20
4.196613578785459
 30
0.0
 10
23.18813513976101
 20
4.152644502887926
 30
0.0
 10
23.37394488068009
 20
4.112931812670443
 30
0.0
 10
23.4629068773314
 20
4.117083837825112
 30
0.0
 10
23.53699859638733
 20
4.146059547538556
 30
0.0
  0
SPLINE
  5
1AB
330
1F
100
AcDbEntity
  8
0
  6
Continuous
 62
     1
370
    15
100
AcDbSpline
210
0.0
220
0.0
230
1.0
 70
     8
 71
     3
 72
    10
 73
     6
 74
     0
 42
0.000000001
 43
0.00000001
 40
0.0
 40
0.0
 40
0.0
 40
0.0
 40
0.5
 40
0.5
 40
1.0
 40
1.0
 40
1.0
 40
1.0
 10
22.49336617430374
 20
4.372844815961789
 30
0.0
 10
22.56802413411596
 20
4.409896163942045
 30
0.0
 10
22.65716210768121
 20
4.418516254801856
 30
0.0
 10
22.83955656869774
 20
4.382856162309279
 30
0.0
 10
22.9339113728662
 20
4.338155477227889
 30
0.0
 10
23.01367047157154
 20
4.267315022931261
 30
0.0
  0
SPLINE
  5
1AC
330
1F
100
AcDbEntity
  8
0
  6
Continuous
 62
     1
370
    15
100
AcDbSpline
210
0.0
220
0.0
230
1.0
 70
     8
 71
     3
 72
    10
 73
     6
 74
     0
 42
0.000000001
 43
0.00000001
 40
0.0
 40
0.0
 40
0.0
 40
0.0
 40
0.5
 40
0.5
 40
1.0
 40
1.0
 40
1.0
 40
1.0
 10
21.97044695651123
 20
4.46303075529296
 30
0.0
 10
22.04949852468725
 20
4.393405233731795
 30
0.0
 10
22.1441687953783
 20
4.353156115805731
 30
0.0
 10
22.32998257762284
 20
4.324549608639336
 30
0.0
 10
22.41897583456531
 20
4.335926282814747
 30
0.0
 10
22.49336617430383
 20
4.372844815961838
 30
0.0
  0
SPLINE
  5
1AD
330
1F
100
AcDbEntity
  8
0
  6
Continuous
 62
     1
370
    15
100
AcDbSpline
210
0.0
220
0.0
230
1.0
 70
     8
 71
     3
 72
     8
 73
     4
 74
     0
 42
0.000000001
 43
0.00000001
 40
0.0
 40
0.0
 40
0.0
 40
0.0
 40
1.0
 40
1.0
 40
1.0
 40
1.0
 10
21.71435055342577
 20
4.583927379747204
 30
0.0
 10
21.80361685715472
 20
4.570411759769752
 30
0.0
 10
21.89408844525915
 20
4.530284337912825
 30
0.0
 10
21.9704469565112
 20
4.463030755292951
 30
0.0
  0
SPLINE
  5
1AE
330
1F
100
AcDbEntity
  8
0
  6
Continuous
 62
     1
370
    15
100
AcDbSpline
210
0.0
220
0.0
230
1.0
 70
     8
 71
     3
 72
     8
 73
     4
 74
     0
 42
0.000000001
 43
0.00000001
 40
0.0
 40
0.0
 40
0.0
 40
0.0
 40
1.0
 40
1.0
 40
1.0
 40
1.0
 10
21.45655039533574
 20
4.532171054002739
 30
0.0
 10
21.53106908452047
 20
4.578275060908722
 30
0.0
 10
21.62140282277154
 20
4.595642637219479
 30
0.0
 10
21.71435055342322
 20
4.583927379747336
 30
0.0
  0
SPLINE
  5
1AF
330
1F
100
AcDbEntity
  8
0
  6
Continuous
 62
     1
370
    15
100
AcDbSpline
210
0.0
220
0.0
230
1.0
 70
     8
 71
     3
 72
    10
 73
     6
 74
     0
 42
0.000000001
 43
0.00000001
 40
0.0
 40
0.0
 40
0.0
 40
0.0
 40
0.5
 40
0.5
 40
1.0
 40
1.0
 40
1.0
 40
1.0
 10
20.93408573073353
 20
4.582379605396847
 30
0.0
 10
21.01357133002101
 20
4.516117773273407
 30
0.0
 10
21.10825729183955
 20
4.481483136163741
 30
0.0
 10
21.29378508214814
 20
4.466833785974362
 30
0.0
 10
21.38260007268535
 20
4.486418690086073
 30
0.0
 10
21.45655039533574
 20
4.532171054002746
 30
0.0
  0
SPLINE
  5
1B0
330
1F
100
AcDbEntity
  8
0
  6
Continuous
 62
     1
370
    15
100
AcDbSpline
210
0.0
220
0.0
230
1.0
 70
     8
 71
     3
 72
    10
 73
     6
 74
     0
 42
0.000000001
 43
0.00000001
 40
0.0
 40
0.0
 40
0.0
 40
0.0
 40
0.5
 40
0.5
 40
1.0
 40
1.0
 40
1.0
 40
1.0
 10
20.41434884243372
 20
4.616041012499905
 30
0.0
 10
20.48890579799818
 20
4.668544839739159
 30
0.0
 10
20.57794305012976
 20
4.692397898262252
 30
0.0
 10
20.76017828713397
 20
4.682660849955709
 30
0.0
 10
20.85447301356224
 20
4.648747407204735
 30
0.0
 10
20.93408573073353
 20
4.582379605396825
 30
0.0
  0
SPLINE
  5
1B1
330
1F
100
AcDbEntity
  8
0
  6
Continuous
 62
     1
370
    15
100
AcDbSpline
210
0.0
220
0.0
230
1.0
 70
     8
 71
     3
 72
    10
 73
     6
 74
     0
 42
0.000000001
 43
0.00000001
 40
0.0
 40
0.0
 40
0.0
 40
0.0
 40
0.3385246492874533
 40
0.7305136832465737
 40
1.0
 40
1.0
 40
1.0
 40
1.0
 10
20.02531822924067
 20
4.561726084843106
 30
0.0
 10
20.07161872451601
 20
4.551197356546799
 30
0.0
 10
20.17153211460715
 20
4.528477060982422
 30
0.0
 10
20.30761870717978
 20
4.553343446221585
 30
0.0
 10
20.38345357355065
 20
4.597891891224311
 30
0.0
 10
20.41434884243371
 20
4.616041012499875
 30
0.0
  0
SPLINE
  5
1B2
330
1F
100
AcDbEntity
  8
0
  6
Continuous
 62
     1
370
    15
100
AcDbSpline
210
0.0
220
0.0
230
1.0
 70
     8
 71
     3
 72
     8
 73
     4
 74
     0
 42
0.000000001
 43
0.00000001
 40
0.0
 40
0.0
 40
0.0
 40
0.0
 40
1.0
 40
1.0
 40
1.0
 40
1.0
 10
19.63521382606961
 20
4.724379836071092
 30
0.0
 10
19.72451832220995
 20
4.72357888790078
 30
0.0
 10
19.81504922920943
 20
4.69468966955194
 30
0.0
 10
19.89146854908944
 20
4.633579920227459
 30
0.0
  0
SPLINE
  5
1B3
330
1F
100
AcDbEntity
  8
0
  6
Continuous
 62
     1
370
    15
100
AcDbSpline
210
0.0
220
0.0
230
1.0
 70
     8
 71
     3
 72
    11
 73
     7
 74
     0
 42
0.000000001
 43
0.00000001
 40
0.0
 40
0.0
 40
0.0
 40
0.0
 40
0.2726658090815668
 40
0.5472867195159508
 40
0.8199302992560901
 40
1.0
 40
1.0
 40
1.0
 40
1.0
 10
19.37708314674092
 20
4.630456792977643
 30
0.0
 10
19.387664072798
 20
4.638519858116268
 30
0.0
 10
19.40890179354753
 20
4.654703803158097
 30
0.0
 10
19.44302793283759
 20
4.674676240000361
 30
0.0
 10
19.47431893836837
 20
4.690074179399303
 30
0.0
 10
19.49462751588912
 20
4.697197454420105
 30
0.0
 10
19.5027053868824
 20
4.700030784160159
 30
0.0
  0
SPLINE
  5
1B4
330
1F
100
AcDbEntity
  8
0
  6
Continuous
 62
     1
370
    15
100
AcDbSpline
210
0.0
220
0.0
230
1.0
 70
     8
 71
     3
 72
     9
 73
     5
 74
     0
 42
0.000000001
 43
0.00000001
 40
0.0
 40
0.0
 40
0.0
 40
0.0
 40
0.3962173218710288
 40
1.0
 40
1.0
 40
1.0
 40
1.0
 10
19.2149322731717
 20
4.554563114659094
 30
0.0
 10
19.23839213662536
 20
4.559260216496234
 30
0.0
 10
19.29760172227116
 20
4.57111507891103
 30
0.0
 10
19.34716044712439
 20
4.608116173183886
 30
0.0
 10
19.37708314674094
 20
4.630456792977654
 30
0.0
  0
SPLINE
  5
1B5
330
1F
100
AcDbEntity
  8
0
  6
Continuous
 62
     1
370
    15
100
AcDbSpline
210
0.0
220
0.0
230
1.0
 70
     8
 71
     3
 72
    10
 73
     6
 74
     0
 42
0.000000001
 43
0.00000001
 40
0.0
 40
0.0
 40
0.0
 40
0.0
 40
0.3453227721660797
 40
0.6891230213040136
 40
0.9999999999999999
 40
0.9999999999999999
 40
0.9999999999999999
 40
0.9999999999999999
 10
26.17872693130886
 20
3.665863302065428
 30
0.0
 10
26.13546064004507
 20
3.632858596853311
 30
0.0
 10
26.04911881795988
 20
3.566994703689372
 30
0.0
 10
25.90674258606855
 20
3.505899164475426
 30
0.0
 10
25.82134737487288
 20
3.491967134678927
 30
0.0
 10
25.78079700268497
 20
3.48535143590998
 30
0.0
  0
SPLINE
  5
1B6
330
1F
100
AcDbEntity
  8
0
  6
Continuous
 62
     1
370
    15
100
AcDbSpline
210
0.0
220
0.0
230
1.0
 70
     8
 71
     3
 72
    10
 73
     6
 74
     0
 42
0.000000001
 43
0.00000001
 40
0.0
 40
0.0
 40
0.0
 40
0.0
 40
0.5
 40
0.5
 40
1.0
 40
1.0
 40
1.0
 40
1.0
 10
26.69896856378682
 20
3.83776817834305
 30
0.0
 10
26.62435629701303
 20
3.856513003264433
 30
0.0
 10
26.53532026370524
 20
3.848961176809769
 30
0.0
 10
26.35294877799738
 20
3.789264030975783
 30
0.0
 10
26.2585047387808
 20
3.736545803351312
 30
0.0
 10
26.17872693130887
 20
3.665863302065424
 30
0.0
  0
SPLINE
  5
1B7
330
1F
100
AcDbEntity
  8
0
  6
Continuous
 62
     1
370
    15
100
AcDbSpline
210
0.0
220
0.0
230
1.0
 70
     8
 71
     3
 72
    10
 73
     6
 74
     0
 42
0.000000001
 43
0.00000001
 40
0.0
 40
0.0
 40
0.0
 40
0.0
 40
0.5
 40
0.5
 40
1.0
 40
1.0
 40
1.0
 40
1.0
 10
27.22183259192922
 20
3.996519531007689
 30
0.0
 10
27.14276970215831
 20
3.924878667099895
 30
0.0
 10
27.048091871744
 20
3.876608218893878
 30
0.0
 10
26.86229901233708
 20
3.823669685393022
 30
0.0
 10
26.77333852517303
 20
3.819084227755921
 30
0.0
 10
26.69896856378682
 20
3.837768178343044
 30
0.0
  0
SPLINE
  5
1B8
330
1F
100
AcDbEntity
  8
0
  6
Continuous
 62
     1
370
    15
100
AcDbSpline
210
0.0
220
0.0
230
1.0
 70
     8
 71
     3
 72
     8
 73
     4
 74
     0
 42
0.000000001
 43
0.00000001
 40
0.0
 40
0.0
 40
0.0
 40
0.0
 40
1.0
 40
1.0
 40
1.0
 40
1.0
 10
27.47788046892185
 20
4.140264883425844
 30
0.0
 10
27.38861920166157
 20
4.114657962775376
 30
0.0
 10
27.29816904144485
 20
4.065689899138679
 30
0.0
 10
27.22183259192922
 20
3.996519531007691
 30
0.0
  0
SPLINE
  5
1B9
330
1F
100
AcDbEntity
  8
0
  6
Continuous
 62
     1
370
    15
100
AcDbSpline
210
0.0
220
0.0
230
1.0
 70
     8
 71
     3
 72
     8
 73
     4
 74
     0
 42
0.000000001
 43
0.00000001
 40
0.0
 40
0.0
 40
0.0
 40
0.0
 40
1.0
 40
1.0
 40
1.0
 40
1.0
 10
27.73560441085904
 20
4.134852200629759
 30
0.0
 10
27.66110924442575
 20
4.163710183293603
 30
0.0
 10
27.57079440849347
 20
4.164875720288069
 30
0.0
 10
27.47788046892396
 20
4.140264883426415
 30
0.0
  0
SPLINE
  5
1BA
330
1F
100
AcDbEntity
  8
0
  6
Continuous
 62
     1
370
    15
100
AcDbSpline
210
0.0
220
0.0
230
1.0
 70
     8
 71
     3
 72
    10
 73
     6
 74
     0
 42
0.000000001
 43
0.00000001
 40
0.0
 40
0.0
 40
0.0
 40
0.0
 40
0.5
 40
0.5
 40
1.0
 40
1.0
 40
1.0
 40
1.0
 10
28.25805073426792
 20
4.257318519766887
 30
0.0
 10
28.17859283842342
 20
4.186654115625233
 30
0.0
 10
28.08388084843966
 20
4.142522185447503
 30
0.0
 10
27.89834352012576
 20
4.102343423909718
 30
0.0
 10
27.80952907827837
 20
4.106215218219223
 30
0.0
 10
27.73560441085908
 20
4.134852200629732
 30
0.0
  0
SPLINE
  5
1BB
330
1F
100
AcDbEntity
  8
0
  6
Continuous
 62
     1
370
    15
100
AcDbSpline
210
0.0
220
0.0
230
1.0
 70
     8
 71
     3
 72
    10
 73
     6
 74
     0
 42
0.000000001
 43
0.00000001
 40
0.0
 40
0.0
 40
0.0
 40
0.0
 40
0.5
 40
0.5
 40
1.0
 40
1.0
 40
1.0
 40
1.0
 10
28.77794030503536
 20
4.364294995372865
 30
0.0
 10
28.70334662800895
 20
4.400959682247462
 30
0.0
 10
28.61428697979838
 20
4.40925592204809
 30
0.0
 10
28.43204343533388
 20
4.373081034316345
 30
0.0
 10
28.3377392394268
 20
4.328188012019883
 30
0.0
 10
28.25805073426793
 20
4.257318519766891
 30
0.0
  0
SPLINE
  5
1BC
330
1F
100
AcDbEntity
  8
0
  6
Continuous
 62
     1
370
    15
100
AcDbSpline
210
0.0
220
0.0
230
1.0
 70
     8
 71
     3
 72
    10
 73
     6
 74
     0
 42
0.000000001
 43
0.00000001
 40
0.0
 40
0.0
 40
0.0
 40
0.0
 40
0.5
 40
0.5
 40
1.0
 40
1.0
 40
1.0
 40
1.0
 10
29.30091929162809
 20
4.456055189459259
 30
0.0
 10
29.22184538989454
 20
4.386343318523273
 30
0.0
 10
29.12716477114845
 20
4.345889051713955
 30
0.0
 10
28.94133814349374
 20
4.316709482766724
 30
0.0
 10
28.8523271466547
 20
4.327731973354284
 30
0.0
 10
28.77794030503536
 20
4.364294995372862
 30
0.0
  0
SPLINE
  5
1BD
330
1F
100
AcDbEntity
  8
0
  6
Continuous
 62
     1
370
    15
100
AcDbSpline
210
0.0
220
0.0
230
1.0
 70
     8
 71
     3
 72
     8
 73
     4
 74
     0
 42
0.000000001
 43
0.00000001
 40
0.0
 40
0.0
 40
0.0
 40
0.0
 40
1.0
 40
1.0
 40
1.0
 40
1.0
 10
29.55719341847272
 20
4.57755461238187
 30
0.0
 10
29.46786928292662
 20
4.563762243274684
 30
0.0
 10
29.37733526204334
 20
4.52342381741676
 30
0.0
 10
29.30091929162809
 20
4.456055189459255
 30
0.0
  0
SPLINE
  5
1BE
330
1F
100
AcDbEntity
  8
0
  6
Continuous
 62
     1
370
    15
100
AcDbSpline
210
0.0
220
0.0
230
1.0
 70
     8
 71
     3
 72
     8
 73
     4
 74
     0
 42
0.000000001
 43
0.00000001
 40
0.0
 40
0.0
 40
0.0
 40
0.0
 40
1.0
 40
1.0
 40
1.0
 40
1.0
 10
29.8153304249119
 20
4.526798047631564
 30
0.0
 10
29.7406844408518
 20
4.572548404413151
 30
0.0
 10
29.65024425572943
 20
4.589569432879562
 30
0.0
 10
29.55719341847486
 20
4.577554612382154
 30
0.0
  0
SPLINE
  5
1BF
330
1F
100
AcDbEntity
  8
0
  6
Continuous
 62
     1
370
    15
100
AcDbSpline
210
0.0
220
0.0
230
1.0
 70
     8
 71
     3
 72
    10
 73
     6
 74
     0
 42
0.000000001
 43
0.00000001
 40
0.0
 40
0.0
 40
0.0
 40
0.0
 40
0.5
 40
0.5
 40
1.0
 40
1.0
 40
1.0
 40
1.0
 10
30.33870843542356
 20
4.578661726016985
 30
0.0
 10
30.2590771094472
 20
4.512214914083094
 30
0.0
 10
30.16423039323123
 20
4.477372964664524
 30
0.0
 10
29.97841687892891
 20
4.462152117501932
 30
0.0
 10
29.88943810152185
 20
4.481377618282901
 30
0.0
 10
29.81533042491194
 20
4.526798047631527
 30
0.0
  0
SPLINE
  5
1C0
330
1F
100
AcDbEntity
  8
0
  6
Continuous
 62
     1
370
    15
100
AcDbSpline
210
0.0
220
0.0
230
1.0
 70
     8
 71
     3
 72
    10
 73
     6
 74
     0
 42
0.000000001
 43
0.00000001
 40
0.0
 40
0.0
 40
0.0
 40
0.0
 40
0.5
 40
0.5
 40
1.0
 40
1.0
 40
1.0
 40
1.0
 10
30.85913460536639
 20
4.61393183931215
 30
0.0
 10
30.7844581939916
 20
4.666161229276677
 30
0.0
 10
30.69529957114834
 20
4.689682097836859
 30
0.0
 10
30.5128446974193
 20
4.679355673891752
 30
0.0
 10
30.41844772310605
 20
4.645198624497797
 30
0.0
 10
30.33870843542356
 20
4.578661726016981
 30
0.0
  0
SPLINE
  5
1C1
330
1F
100
AcDbEntity
  8
0
  6
Continuous
 62
     1
370
    15
100
AcDbSpline
210
0.0
220
0.0
230
1.0
 70
     8
 71
     3
 72
    10
 73
     6
 74
     0
 42
0.000000001
 43
0.00000001
 40
0.0
 40
0.0
 40
0.0
 40
0.0
 40
0.5
 40
0.5
 40
1.0
 40
1.0
 40
1.0
 40
1.0
 10
31.38233312000396
 20
4.633020511402292
 30
0.0
 10
31.303241349712
 20
4.569610962620917
 30
0.0
 10
31.20853497188722
 20
4.539527367489614
 30
0.0
 10
31.02263825022877
 20
4.535942385605082
 30
0.0
 10
30.9335803760528
 20
4.561863761631274
 30
0.0
 10
30.85913460536639
 20
4.613931839312142
 30
0.0
  0
SPLINE
  5
1C2
330
1F
100
AcDbEntity
  8
0
  6
Continuous
 62
     1
370
    15
100
AcDbSpline
210
0.0
220
0.0
230
1.0
 70
     8
 71
     3
 72
     8
 73
     4
 74
     0
 42
0.000000001
 43
0.00000001
 40
0.0
 40
0.0
 40
0.0
 40
0.0
 40
1.0
 40
1.0
 40
1.0
 40
1.0
 10
31.63860880736561
 20
4.724511153875057
 30
0.0
 10
31.54929577409528
 20
4.723442417510977
 30
0.0
 10
31.45876015269668
 20
4.694293683564879
 30
0.0
 10
31.38233312000398
 20
4.63302051140229
 30
0.0
  0
SPLINE
  5
1C3
330
1F
100
AcDbEntity
  8
0
  6
Continuous
 62
     1
370
    15
100
AcDbSpline
210
0.0
220
0.0
230
1.0
 70
     8
 71
     3
 72
     8
 73
     4
 74
     0
 42
0.000000001
 43
0.00000001
 40
0.0
 40
0.0
 40
0.0
 40
0.0
 40
1.0
 40
1.0
 40
1.0
 40
1.0
 10
31.89666587145018
 20
4.631416770122224
 30
0.0
 10
31.82205446249045
 20
4.691250318320525
 30
0.0
 10
31.73164230458074
 20
4.723111674450821
 30
0.0
 10
31.63860880736774
 20
4.724511153875035
 30
0.0
  0
SPLINE
  5
1C4
330
1F
100
AcDbEntity
  8
0
  6
Continuous
 62
     1
370
    15
100
AcDbSpline
210
0.0
220
0.0
230
1.0
 70
     8
 71
     3
 72
     8
 73
     4
 74
     0
 42
0.000000001
 43
0.00000001
 40
0.0
 40
0.0
 40
0.0
 40
0.0
 40
1.0
 40
1.0
 40
1.0
 40
1.0
 10
32.12574514648229
 20
4.535486851713064
 30
0.0
 10
32.04249254018885
 20
4.545416075272593
 30
0.0
 10
31.96365021338
 20
4.577699638824594
 30
0.0
 10
31.89666587145023
 20
4.631416770122192
 30
0.0
  0
SPLINE
  5
1C5
330
1F
100
AcDbEntity
  8
0
  6
Continuous
 62
     1
370
    15
100
AcDbSpline
210
0.0
220
0.0
230
1.0
 70
     8
 71
     3
 72
     8
 73
     4
 74
     0
 42
0.000000001
 43
0.00000001
 40
0.0
 40
0.0
 40
0.0
 40
0.0
 40
0.0000181721207099
 40
0.0000181721207099
 40
0.0000181721207099
 40
0.0000181721207099
 10
32.13715701540223
 20
4.523529107165256
 30
0.0
 10
32.13335397441772
 20
4.527516589133588
 30
0.0
 10
32.12955001532444
 20
4.531502502214789
 30
0.0
 10
32.12574514648227
 20
4.535486851713062
 30
0.0
  0
SPLINE
  5
1C6
330
1F
100
AcDbEntity
  8
0
  6
Continuous
 62
     1
370
    15
100
AcDbSpline
210
0.0
220
0.0
230
1.0
 70
     8
 71
     3
 72
    12
 73
     8
 74
     0
 42
0.000000001
 43
0.00000001
 40
0.0
 40
0.0
 40
0.0
 40
0.0
 40
0.25
 40
0.25
 40
0.5
 40
0.5
 40
1.0
 40
1.0
 40
1.0
 40
1.0
 10
16.12616259828641
 20
-3.165382190179689
 30
0.0
 10
16.10768378338383
 20
-2.969378604611477
 30
0.0
 10
16.08935107568642
 20
-2.758351784473875
 30
0.0
 10
16.05375245120441
 20
-2.316381969459867
 30
0.0
 10
16.03682643366895
 20
-2.087152264416381
 30
0.0
 10
15.98340096815854
 20
-1.36182299336719
 30
0.0
 10
15.94563909450398
 20
-0.8327866756819216
 30
0.0
 10
15.90893751918615
 20
-0.3027171182833862
 30
0.0
  0
SPLINE
  5
1C7
330
1F
100
AcDbEntity
  8
0
  6
Continuous
 62
     1
370
    15
100
AcDbSpline
210
0.0
220
0.0
230
1.0
 70
     8
 71
     3
 72
    12
 73
     8
 74
     0
 42
0.000000001
 43
0.00000001
 40
0.0
 40
0.0
 40
0.0
 40
0.0
 40
0.2499999999999998
 40
0.2499999999999998
 40
0.4999999999999999
 40
0.4999999999999999
 40
1.0
 40
1.0
 40
1.0
 40
1.0
 10
16.38250138993815
 20
-3.32378836961696
 30
0.0
 10
16.36414149494216
 20
-3.130768610368233
 30
0.0
 10
16.34585835522131
 20
-2.921944019927026
 30
0.0
 10
16.31021560269638
 20
-2.482448470608225
 30
0.0
 10
16.2933135476238
 20
-2.253966399233359
 30
0.0
 10
16.24093741071131
 20
-1.533480628373305
 30
0.0
 10
16.20364721665966
 20
-1.0041198586603
 30
0.0
 10
16.16707305089082
 20
-0.4688665690313447
 30
0.0
  0
SPLINE
  5
1C8
330
1F
100
AcDbEntity
  8
0
  6
Continuous
 62
     1
370
    15
100
AcDbSpline
210
0.0
220
0.0
230
1.0
 70
     8
 71
     3
 72
    12
 73
     8
 74
     0
 42
0.000000001
 43
0.00000001
 40
0.0
 40
0.0
 40
0.0
 40
0.0
 40
0.2500000000000001
 40
0.2500000000000001
 40
0.5000000000000001
 40
0.5000000000000001
 40
1.0
 40
1.0
 40
1.0
 40
1.0
 10
16.64067933569842
 20
-3.372448608257926
 30
0.0
 10
16.62215388044817
 20
-3.187891039754746
 30
0.0
 10
16.60362459425266
 20
-2.986724704579445
 30
0.0
 10
16.56736088533464
 20
-2.560584530133253
 30
0.0
 10
16.54994000012115
 20
-2.337048043974444
 30
0.0
 10
16.49780534755075
 20
-1.637784993537279
 30
0.0
 10
16.46037958999947
 20
-1.119443479532567
 30
0.0
 10
16.423400768889
 20
-0.591159177767237
 30
0.0
  0
SPLINE
  5
1C9
330
1F
100
AcDbEntity
  8
0
  6
Continuous
 62
     1
370
    15
100
AcDbSpline
210
0.0
220
0.0
230
1.0
 70
     8
 71
     3
 72
    12
 73
     8
 74
     0
 42
0.000000001
 43
0.00000001
 40
0.0
 40
0.0
 40
0.0
 40
0.0
 40
0.4999999999999999
 40
0.4999999999999999
 40
0.75
 40
0.75
 40
1.0
 40
1.0
 40
1.0
 40
1.0
 10
26.09065932522124
 20
0.6733373863419372
 30
0.0
 10
26.05641323641942
 20
1.194295262761854
 30
0.0
 10
26.01939834793855
 20
1.715854432802956
 30
0.0
 10
25.9642465754901
 20
2.431265965937689
 30
0.0
 10
25.945938666223
 20
2.658600386546849
 30
0.0
 10
25.91024800187799
 20
3.081987923530104
 30
0.0
 10
25.89332398517305
 20
3.276534943852243
 30
0.0
 10
25.8758424774832
 20
3.45693801220162
 30
0.0
  0
SPLINE
  5
1CA
330
1F
100
AcDbEntity
  8
0
  6
Continuous
 62
     1
370
    15
100
AcDbSpline
210
0.0
220
0.0
230
1.0
 70
     8
 71
     3
 72
    14
 73
    10
 74
     0
 42
0.000000001
 43
0.00000001
 40
0.0
 40
0.0
 40
0.0
 40
0.0
 40
0.2499999999999999
 40
0.2499999999999999
 40
0.4999999999999999
 40
0.4999999999999999
 40
0.75
 40
0.75
 40
1.0
 40
1.0
 40
1.0
 40
1.0
 10
26.34834254275665
 20
0.5035236567136667
 30
0.0
 10
26.33090695443863
 20
0.763227949399883
 30
0.0
 10
26.31351199468498
 20
1.020320007545507
 30
0.0
 10
26.27721684837294
 20
1.529120606018833
 30
0.0
 10
26.25866294625071
 20
1.779081159705121
 30
0.0
 10
26.22154805816643
 20
2.258826575850832
 30
0.0
 10
26.20299107664485
 20
2.488559645248963
 30
0.0
 10
26.16668405385466
 20
2.918205062708859
 30
0.0
 10
26.14926952634066
 20
3.116951597104272
 30
0.0
 10
26.13184349353782
 20
3.300120392792183
 30
0.0
  0
SPLINE
  5
1CB
330
1F
100
AcDbEntity
  8
0
  6
Continuous
 62
     1
370
    15
100
AcDbSpline
210
0.0
220
0.0
230
1.0
 70
     8
 71
     3
 72
    12
 73
     8
 74
     0
 42
0.000000001
 43
0.00000001
 40
0.0
 40
0.0
 40
0.0
 40
0.0
 40
0.5000000000000001
 40
0.5000000000000001
 40
0.75
 40
0.75
 40
1.0
 40
1.0
 40
1.0
 40
1.0
 10
25.83471194954076
 20
0.7900377281857005
 30
0.0
 10
25.79974612754762
 20
1.305054042027813
 30
0.0
 10
25.76219759486293
 20
1.816703712687019
 30
0.0
 10
25.70672208497188
 20
2.511575394291291
 30
0.0
 10
25.68838369332891
 20
2.731157447007332
 30
0.0
 10
25.65278889026462
 20
3.137714368539599
 30
0.0
 10
25.63584457142939
 20
3.323894019352211
 30
0.0
 10
25.61799877799444
 20
3.496406798300625
 30
0.0
  0
SPLINE
  5
1CC
330
1F
100
AcDbEntity
  8
0
  6
Continuous
 62
     1
370
    15
100
AcDbSpline
210
0.0
220
0.0
230
1.0
 70
     8
 71
     3
 72
    12
 73
     8
 74
     0
 42
0.000000001
 43
0.00000001
 40
0.0
 40
0.0
 40
0.0
 40
0.0
 40
0.5
 40
0.5
 40
0.75
 40
0.75
 40
1.0
 40
1.0
 40
1.0
 40
1.0
 10
17.16402571515141
 20
-3.568572186451132
 30
0.0
 10
17.12708184903583
 20
-3.224993936681599
 30
0.0
 10
17.0895427878203
 20
-2.80820604297979
 30
0.0
 10
17.03706015734809
 20
-2.130709563838547
 30
0.0
 10
17.01984316650045
 20
-1.895079979627229
 30
0.0
 10
16.98370737136294
 20
-1.400432686059666
 30
0.0
 10
16.96520882478286
 20
-1.143212332403004
 30
0.0
 10
16.94667864850987
 20
-0.8815446097421026
 30
0.0
  0
SPLINE
  5
1CD
330
1F
100
AcDbEntity
  8
0
  6
Continuous
 62
     1
370
    15
100
AcDbSpline
210
0.0
220
0.0
230
1.0
 70
     8
 71
     3
 72
    12
 73
     8
 74
     0
 42
0.000000001
 43
0.00000001
 40
0.0
 40
0.0
 40
0.0
 40
0.0
 40
0.4999999999999998
 40
0.4999999999999998
 40
0.7499999999999999
 40
0.7499999999999999
 40
1.0
 40
1.0
 40
1.0
 40
1.0
 10
17.68438860719399
 20
-3.751246833290696
 30
0.0
 10
17.64777960173953
 20
-3.434949977870181
 30
0.0
 10
17.60995551221718
 20
-3.040403358326203
 30
0.0
 10
17.5562288939347
 20
-2.383668791386212
 30
0.0
 10
17.53926081810707
 20
-2.156375699234087
 30
0.0
 10
17.50384888152846
 20
-1.677431041981594
 30
0.0
 10
17.48557624902829
 20
-1.426291203167535
 30
0.0
 10
17.46711995545435
 20
-1.168585604568771
 30
0.0
  0
SPLINE
  5
1CE
330
1F
100
AcDbEntity
  8
0
  6
Continuous
 62
     1
370
    15
100
AcDbSpline
210
0.0
220
0.0
230
1.0
 70
     8
 71
     3
 72
    12
 73
     8
 74
     0
 42
0.000000001
 43
0.00000001
 40
0.0
 40
0.0
 40
0.0
 40
0.0
 40
0.5000000000000002
 40
0.5000000000000002
 40
0.7500000000000001
 40
0.7500000000000001
 40
1.0
 40
1.0
 40
1.0
 40
1.0
 10
24.79202216563476
 20
1.359890161704937
 30
0.0
 10
24.75559163976147
 20
1.865799760034153
 30
0.0
 10
24.71771698809764
 20
2.350448742452922
 30
0.0
 10
24.66359096484958
 20
2.983990809959189
 30
0.0
 10
24.64644139196483
 20
3.178367727362875
 30
0.0
 10
24.61134842115747
 20
3.538141853431265
 30
0.0
 10
24.59318653992733
 20
3.703971859664225
 30
0.0
 10
24.57478448219673
 20
3.851373169171232
 30
0.0
  0
SPLINE
  5
1CF
330
1F
100
AcDbEntity
  8
0
  6
Continuous
 62
     1
370
    15
100
AcDbSpline
210
0.0
220
0.0
230
1.0
 70
     8
 71
     3
 72
    12
 73
     8
 74
     0
 42
0.000000001
 43
0.00000001
 40
0.0
 40
0.0
 40
0.0
 40
0.0
 40
0.4999999999999999
 40
0.4999999999999999
 40
0.7499999999999999
 40
0.7499999999999999
 40
1.0
 40
1.0
 40
1.0
 40
1.0
 10
25.31209030588143
 20
1.077100073431955
 30
0.0
 10
25.27628878048824
 20
1.589006158253669
 30
0.0
 10
25.23845617300451
 20
2.088600088701344
 30
0.0
 10
25.18349564755779
 20
2.754345985589355
 30
0.0
 10
25.16548009383827
 20
2.962463379300015
 30
0.0
 10
25.1307882752124
 20
3.343745261585826
 30
0.0
 10
25.11324363119234
 20
3.520229330373039
 30
0.0
 10
25.09506593590051
 20
3.680673520897104
 30
0.0
  0
SPLINE
  5
1D0
330
1F
100
AcDbEntity
  8
0
  6
Continuous
 62
     1
370
    15
100
AcDbSpline
210
0.0
220
0.0
230
1.0
 70
     8
 71
     3
 72
    10
 73
     6
 74
     0
 42
0.000000001
 43
0.00000001
 40
0.0
 40
0.0
 40
0.0
 40
0.0
 40
0.5
 40
0.5
 40
1.0
 40
1.0
 40
1.0
 40
1.0
 10
18.20739823087002
 20
-3.920939096483691
 30
0.0
 10
18.17134897162178
 20
-3.633536200416554
 30
0.0
 10
18.13348647392553
 20
-3.263860312356003
 30
0.0
 10
18.06059846166674
 20
-2.421702748984487
 30
0.0
 10
18.02689445202837
 20
-1.9574550544606
 30
0.0
 10
17.99036015269814
 20
-1.452938669522374
 30
0.0
  0
SPLINE
  5
1D1
330
1F
100
AcDbEntity
  8
0
  6
Continuous
 62
     1
370
    15
100
AcDbSpline
210
0.0
220
0.0
230
1.0
 70
     8
 71
     3
 72
    12
 73
     8
 74
     0
 42
0.000000001
 43
0.00000001
 40
0.0
 40
0.0
 40
0.0
 40
0.0
 40
0.5
 40
0.5
 40
0.75
 40
0.75
 40
1.0
 40
1.0
 40
1.0
 40
1.0
 10
18.46354341497163
 20
-4.067799435565984
 30
0.0
 10
18.42810170691699
 20
-3.790802672730405
 30
0.0
 10
18.39062283971597
 20
-3.429890033338447
 30
0.0
 10
18.33605533067601
 20
-2.805506633779593
 30
0.0
 10
18.31814815297557
 20
-2.583979534018944
 30
0.0
 10
18.28361572341688
 20
-2.124696930600701
 30
0.0
 10
18.2663758188994
 20
-1.88436609990536
 30
0.0
 10
18.24840102444217
 20
-1.632935526492921
 30
0.0
  0
SPLINE
  5
1D2
330
1F
100
AcDbEntity
  8
0
  6
Continuous
 62
     1
370
    15
100
AcDbSpline
210
0.0
220
0.0
230
1.0
 70
     8
 71
     3
 72
    12
 73
     8
 74
     0
 42
0.000000001
 43
0.00000001
 40
0.0
 40
0.0
 40
0.0
 40
0.0
 40
0.4999999999999998
 40
0.4999999999999998
 40
0.7499999999999999
 40
0.7499999999999999
 40
1.0
 40
1.0
 40
1.0
 40
1.0
 10
18.72140920665882
 20
-4.070829965346752
 30
0.0
 10
18.68609690457474
 20
-3.813204930081015
 30
0.0
 10
18.64841242965033
 20
-3.470362584923156
 30
0.0
 10
18.59310320283584
 20
-2.867650769283781
 30
0.0
 10
18.57487976585493
 20
-2.652469711930316
 30
0.0
 10
18.53961780780049
 20
-2.203963242688541
 30
0.0
 10
18.52256877391034
 20
-1.970837033923103
 30
0.0
 10
18.50458301094253
 20
-1.725341598921547
 30
0.0
  0
SPLINE
  5
1D3
330
1F
100
AcDbEntity
  8
0
  6
Continuous
 62
     1
370
    15
100
AcDbSpline
210
0.0
220
0.0
230
1.0
 70
     8
 71
     3
 72
    12
 73
     8
 74
     0
 42
0.000000001
 43
0.00000001
 40
0.0
 40
0.0
 40
0.0
 40
0.0
 40
0.5
 40
0.5
 40
0.75
 40
0.75
 40
1.0
 40
1.0
 40
1.0
 40
1.0
 10
24.26877927783463
 20
1.640295106089413
 30
0.0
 10
24.23194630993589
 20
2.137049118923572
 30
0.0
 10
24.19428716393105
 20
2.603692450610463
 30
0.0
 10
24.1413260931517
 20
3.201846284773431
 30
0.0
 10
24.12433056593029
 20
3.384663342505993
 30
0.0
 10
24.08845363410553
 20
3.722432476067142
 30
0.0
 10
24.07003299566362
 20
3.875508168783764
 30
0.0
 10
24.05152370236811
 20
4.008881262452108
 30
0.0
  0
SPLINE
  5
1D4
330
1F
100
AcDbEntity
  8
0
  6
Continuous
 62
     1
370
    15
100
AcDbSpline
210
0.0
220
0.0
230
1.0
 70
     8
 71
     3
 72
    12
 73
     8
 74
     0
 42
0.000000001
 43
0.00000001
 40
0.0
 40
0.0
 40
0.0
 40
0.0
 40
0.4999999999999998
 40
0.4999999999999998
 40
0.7499999999999999
 40
0.7499999999999999
 40
1.0
 40
1.0
 40
1.0
 40
1.0
 10
24.01062246686498
 20
1.821909602319778
 30
0.0
 10
23.97396103984972
 20
2.317867357868356
 30
0.0
 10
23.93681619829993
 20
2.779048171193719
 30
0.0
 10
23.88495021849069
 20
3.365195019125733
 30
0.0
 10
23.8677866814546
 20
3.545467154227705
 30
0.0
 10
23.83190216461572
 20
3.875644677250731
 30
0.0
 10
23.81355003969795
 20
4.024109726501631
 30
0.0
 10
23.79517789115163
 20
4.152324287775426
 30
0.0
  0
SPLINE
  5
1D5
330
1F
100
AcDbEntity
  8
0
  6
Continuous
 62
     1
370
    15
100
AcDbSpline
210
0.0
220
0.0
230
1.0
 70
     8
 71
     3
 72
    10
 73
     6
 74
     0
 42
0.000000001
 43
0.00000001
 40
0.0
 40
0.0
 40
0.0
 40
0.0
 40
0.5
 40
0.5
 40
1.0
 40
1.0
 40
1.0
 40
1.0
 10
23.75428309391143
 20
1.907590910088367
 30
0.0
 10
23.71725270020898
 20
2.392420243066712
 30
0.0
 10
23.68001325072132
 20
2.838779805003253
 30
0.0
 10
23.61125072808566
 20
3.586688518403652
 30
0.0
 10
23.57403012418078
 20
3.908495346723751
 30
0.0
 10
23.53699859638731
 20
4.146059547538553
 30
0.0
  0
SPLINE
  5
1D6
330
1F
100
AcDbEntity
  8
0
  6
Continuous
 62
     1
370
    15
100
AcDbSpline
210
0.0
220
0.0
230
1.0
 70
     8
 71
     3
 72
    12
 73
     8
 74
     0
 42
0.000000001
 43
0.00000001
 40
0.0
 40
0.0
 40
0.0
 40
0.0
 40
0.5000000000000001
 40
0.5000000000000001
 40
0.75
 40
0.75
 40
1.0
 40
1.0
 40
1.0
 40
1.0
 10
19.24394018364937
 20
-4.205682503226232
 30
0.0
 10
19.20943087413461
 20
-3.979269058412828
 30
0.0
 10
19.17228099955648
 20
-3.666274120095412
 30
0.0
 10
19.11661745891606
 20
-3.097213601528424
 30
0.0
 10
19.09812138579424
 20
-2.891496985892783
 30
0.0
 10
19.06204335641871
 20
-2.457788464795741
 30
0.0
 10
19.04492283557789
 20
-2.231949530364115
 30
0.0
 10
19.02731806529083
 20
-1.99470954467082
 30
0.0
  0
SPLINE
  5
1D7
330
1F
100
AcDbEntity
  8
0
  6
Continuous
 62
     1
370
    15
100
AcDbSpline
210
0.0
220
0.0
230
1.0
 70
     8
 71
     3
 72
    12
 73
     8
 74
     0
 42
0.000000001
 43
0.00000001
 40
0.0
 40
0.0
 40
0.0
 40
0.0
 40
0.2500000000000001
 40
0.2500000000000001
 40
0.5000000000000002
 40
0.5000000000000002
 40
1.0
 40
1.0
 40
1.0
 40
1.0
 10
19.76354935698429
 20
-4.324732472179715
 30
0.0
 10
19.74583060212028
 20
-4.22568300351334
 30
0.0
 10
19.72883917914981
 20
-4.107746572289564
 30
0.0
 10
19.69296838193347
 20
-3.829602889683806
 30
0.0
 10
19.67453753497488
 20
-3.670068279855486
 30
0.0
 10
19.6189407136837
 20
-3.138711384711263
 30
0.0
 10
19.58152677595879
 20
-2.713309110986364
 30
0.0
 10
19.54687491539805
 20
-2.256342948903523
 30
0.0
  0
SPLINE
  5
1D8
330
1F
100
AcDbEntity
  8
0
  6
Continuous
 62
     1
370
    15
100
AcDbSpline
210
0.0
220
0.0
230
1.0
 70
     8
 71
     3
 72
    12
 73
     8
 74
     0
 42
0.000000001
 43
0.00000001
 40
0.0
 40
0.0
 40
0.0
 40
0.0
 40
0.25
 40
0.25
 40
0.5
 40
0.5
 40
1.0
 40
1.0
 40
1.0
 40
1.0
 10
23.23099835549856
 20
2.170526040699164
 30
0.0
 10
23.21248323700812
 20
2.405437316117642
 30
0.0
 10
23.19405747756986
 20
2.629113661769956
 30
0.0
 10
23.15817234484661
 20
3.045055746995912
 30
0.0
 10
23.14117343651455
 20
3.235877590594663
 30
0.0
 10
23.08818729977564
 20
3.766690532401748
 30
0.0
 10
23.05051312099867
 20
4.060884621336843
 30
0.0
 10
23.01367047157152
 20
4.267315022931233
 30
0.0
  0
SPLINE
  5
1D9
330
1F
100
AcDbEntity
  8
0
  6
Continuous
 62
     1
370
    15
100
AcDbSpline
210
0.0
220
0.0
230
1.0
 70
     8
 71
     3
 72
    12
 73
     8
 74
     0
 42
0.000000001
 43
0.00000001
 40
0.0
 40
0.0
 40
0.0
 40
0.0
 40
0.2499999999999999
 40
0.2499999999999999
 40
0.4999999999999998
 40
0.4999999999999998
 40
1.0
 40
1.0
 40
1.0
 40
1.0
 10
22.71058271287721
 20
2.425472039552028
 30
0.0
 10
22.69218281869508
 20
2.651554411527655
 30
0.0
 10
22.67402342057338
 20
2.864578761103052
 30
0.0
 10
22.63893573828257
 20
3.256651364351871
 30
0.0
 10
22.62178635424127
 20
3.436849482000599
 30
0.0
 10
22.56766354770548
 20
3.933863090389841
 30
0.0
 10
22.52979250417764
 20
4.198411796209581
 30
0.0
 10
22.49336617430474
 20
4.372844815957012
 30
0.0
  0
SPLINE
  5
1DA
330
1F
100
AcDbEntity
  8
0
  6
Continuous
 62
     1
370
    15
100
AcDbSpline
210
0.0
220
0.0
230
1.0
 70
     8
 71
     3
 72
    12
 73
     8
 74
     0
 42
0.000000001
 43
0.00000001
 40
0.0
 40
0.0
 40
0.0
 40
0.0
 40
0.2499999999999999
 40
0.2499999999999999
 40
0.4999999999999999
 40
0.4999999999999999
 40
1.0
 40
1.0
 40
1.0
 40
1.0
 10
20.28632757603384
 20
-4.429039759581403
 30
0.0
 10
20.26825401651834
 20
-4.345000889769298
 30
0.0
 10
20.25103519181046
 20
-4.241189929767985
 30
0.0
 10
20.21602535892443
 20
-3.993867488347178
 30
0.0
 10
20.19789306480827
 20
-3.849171531703435
 30
0.0
 10
20.14273348597339
 20
-3.358526534780447
 30
0.0
 10
20.10497748890999
 20
-2.954885632072323
 30
0.0
 10
20.06944158189713
 20
-2.511090970293459
 30
0.0
  0
SPLINE
  5
1DB
330
1F
100
AcDbEntity
  8
0
  6
Continuous
 62
     1
370
    15
100
AcDbSpline
210
0.0
220
0.0
230
1.0
 70
     8
 71
     3
 72
    12
 73
     8
 74
     0
 42
0.000000001
 43
0.00000001
 40
0.0
 40
0.0
 40
0.0
 40
0.0
 40
0.2499999999999999
 40
0.2499999999999999
 40
0.5
 40
0.5
 40
1.0
 40
1.0
 40
1.0
 40
1.0
 10
20.54254487435021
 20
-4.555218497153871
 30
0.0
 10
20.52449406379861
 20
-4.477294027319977
 30
0.0
 10
20.50694956361868
 20
-4.378385856529547
 30
0.0
 10
20.4726866123725
 20
-4.143200181325519
 30
0.0
 10
20.45488136446717
 20
-4.004344933722501
 30
0.0
 10
20.40050047160665
 20
-3.529484650018974
 30
0.0
 10
20.3629809532638
 20
-3.133922565886913
 30
0.0
 10
20.32734429041246
 20
-2.69364668707721
 30
0.0
  0
SPLINE
  5
1DC
330
1F
100
AcDbEntity
  8
0
  6
Continuous
 62
     1
370
    15
100
AcDbSpline
210
0.0
220
0.0
230
1.0
 70
     8
 71
     3
 72
    12
 73
     8
 74
     0
 42
0.000000001
 43
0.00000001
 40
0.0
 40
0.0
 40
0.0
 40
0.0
 40
0.2499999999999999
 40
0.2499999999999999
 40
0.4999999999999999
 40
0.4999999999999999
 40
1.0
 40
1.0
 40
1.0
 40
1.0
 10
22.18740856666036
 20
2.672890787958313
 30
0.0
 10
22.16923788237606
 20
2.888865628967857
 30
0.0
 10
22.15170502748463
 20
3.089259613232111
 30
0.0
 10
22.11701725300414
 20
3.457771324437862
 30
0.0
 10
22.09900481936093
 20
3.628755083383701
 30
0.0
 10
22.04405644128825
 20
4.08825407839863
 30
0.0
 10
22.00623571736309
 20
4.321307227184803
 30
0.0
 10
21.97044695651122
 20
4.463030755292934
 30
0.0
  0
SPLINE
  5
1DD
330
1F
100
AcDbEntity
  8
0
  6
Continuous
 62
     1
370
    15
100
AcDbSpline
210
0.0
220
0.0
230
1.0
 70
     8
 71
     3
 72
    12
 73
     8
 74
     0
 42
0.000000001
 43
0.00000001
 40
0.0
 40
0.0
 40
0.0
 40
0.0
 40
0.2499999999999999
 40
0.2499999999999999
 40
0.5
 40
0.5
 40
1.0
 40
1.0
 40
1.0
 40
1.0
 10
20.8006379831392
 20
-4.512604185319902
 30
0.0
 10
20.78230842212989
 20
-4.444028335279354
 30
0.0
 10
20.76427137647163
 20
-4.353722358449869
 30
0.0
 10
20.72951547872722
 20
-4.135693065500862
 30
0.0
 10
20.71206739640621
 20
-4.006696211387002
 30
0.0
 10
20.65762897125875
 20
-3.558325382159194
 30
0.0
 10
20.61975368870153
 20
-3.178570854717521
 30
0.0
 10
20.58353055670265
 20
-2.750532421422021
 30
0.0
  0
SPLINE
  5
1DE
330
1F
100
AcDbEntity
  8
0
  6
Continuous
 62
     1
370
    15
100
AcDbSpline
210
0.0
220
0.0
230
1.0
 70
     8
 71
     3
 72
    12
 73
     8
 74
     0
 42
0.000000001
 43
0.00000001
 40
0.0
 40
0.0
 40
0.0
 40
0.0
 40
0.2499999999999999
 40
0.2499999999999999
 40
0.4999999999999998
 40
0.4999999999999998
 40
1.0
 40
1.0
 40
1.0
 40
1.0
 10
21.92941392491645
 20
2.854610000477152
 30
0.0
 10
21.91155597094033
 20
3.066950525537632
 30
0.0
 10
21.89460538571982
 20
3.262250664429353
 30
0.0
 10
21.85972048373696
 20
3.624294716575307
 30
0.0
 10
21.84168389056449
 20
3.791053674443825
 30
0.0
 10
21.7868951117654
 20
4.235590338312635
 30
0.0
 10
21.74949977161135
 20
4.45560930922383
 30
0.0
 10
21.71435055342322
 20
4.583927379747336
 30
0.0
  0
SPLINE
  5
1DF
330
1F
100
AcDbEntity
  8
0
  6
Continuous
 62
     1
370
    15
100
AcDbSpline
210
0.0
220
0.0
230
1.0
 70
     8
 71
     3
 72
    12
 73
     8
 74
     0
 42
0.000000001
 43
0.00000001
 40
0.0
 40
0.0
 40
0.0
 40
0.0
 40
0.25
 40
0.25
 40
0.5
 40
0.5
 40
1.0
 40
1.0
 40
1.0
 40
1.0
 10
21.67327621896599
 20
2.903635702202723
 30
0.0
 10
21.65542510069304
 20
3.108540458695482
 30
0.0
 10
21.63847928685936
 20
3.296239046996513
 30
0.0
 10
21.60289273960694
 20
3.644313684960342
 30
0.0
 10
21.5845568253545
 20
3.803265127343457
 30
0.0
 10
21.52908325484946
 20
4.222487840518437
 30
0.0
 10
21.49152844261386
 20
4.423051774914946
 30
0.0
 10
21.45655039533574
 20
4.532171054002741
 30
0.0
  0
SPLINE
  5
1E0
330
1F
100
AcDbEntity
  8
0
  6
Continuous
 62
     1
370
    15
100
AcDbSpline
210
0.0
220
0.0
230
1.0
 70
     8
 71
     3
 72
    12
 73
     8
 74
     0
 42
0.000000001
 43
0.00000001
 40
0.0
 40
0.0
 40
0.0
 40
0.0
 40
0.2500000000000001
 40
0.2500000000000001
 40
0.5000000000000002
 40
0.5000000000000002
 40
1.0
 40
1.0
 40
1.0
 40
1.0
 10
21.32396760145746
 20
-4.577745156571713
 30
0.0
 10
21.30547940787307
 20
-4.525504909709841
 30
0.0
 10
21.28713287069592
 20
-4.450845136741609
 30
0.0
 10
21.25149953757403
 20
-4.261497256997677
 30
0.0
 10
21.23456775754861
 20
-4.147986693554606
 30
0.0
 10
21.18115705637727
 20
-3.744607576532678
 30
0.0
 10
21.14338790046014
 20
-3.391555303651054
 30
0.0
 10
21.10666353378099
 20
-2.982409315923884
 30
0.0
  0
SPLINE
  5
1E1
330
1F
100
AcDbEntity
  8
0
  6
Continuous
 62
     1
370
    15
100
AcDbSpline
210
0.0
220
0.0
230
1.0
 70
     8
 71
     3
 72
    12
 73
     8
 74
     0
 42
0.000000001
 43
0.00000001
 40
0.0
 40
0.0
 40
0.0
 40
0.0
 40
0.2500000000000001
 40
0.2500000000000001
 40
0.5000000000000001
 40
0.5000000000000001
 40
1.0
 40
1.0
 40
1.0
 40
1.0
 10
21.84435328458586
 20
-4.626187982746002
 30
0.0
 10
21.82582377165675
 20
-4.590467158373658
 30
0.0
 10
21.80728396792523
 20
-4.531914826764376
 30
0.0
 10
21.77098774313946
 20
-4.372615897933111
 30
0.0
 10
21.75351986712901
 20
-4.272564702071477
 30
0.0
 10
21.7014321702573
 20
-3.915003710289676
 30
0.0
 10
21.66401559911101
 20
-3.590363575426656
 30
0.0
 10
21.62702118537028
 20
-3.202510452615322
 30
0.0
  0
SPLINE
  5
1E2
330
1F
100
AcDbEntity
  8
0
  6
Continuous
 62
     1
370
    15
100
AcDbSpline
210
0.0
220
0.0
230
1.0
 70
     8
 71
     3
 72
    14
 73
    10
 74
     0
 42
0.000000001
 43
0.00000001
 40
0.0
 40
0.0
 40
0.0
 40
0.0
 40
0.25
 40
0.25
 40
0.5
 40
0.5
 40
0.75
 40
0.75
 40
1.0
 40
1.0
 40
1.0
 40
1.0
 10
21.15065921982851
 20
3.125282038387616
 30
0.0
 10
21.13322961738887
 20
3.317818708780802
 30
0.0
 10
21.11580323249363
 20
3.495589437340583
 30
0.0
 10
21.07947950174601
 20
3.820022885500089
 30
0.0
 10
21.06091479945137
 20
3.965418249828804
 30
0.0
 10
21.02378674499968
 20
4.215369799986664
 30
0.0
 10
21.0052274043443
 20
4.319899091512291
 30
0.0
 10
20.96892435157916
 20
4.484422460540886
 30
0.0
 10
20.9515319584752
 20
4.544197786196495
 30
0.0
 10
20.93408573073353
 20
4.58237960539682
 30
0.0
  0
SPLINE
  5
1E3
330
1F
100
AcDbEntity
  8
0
  6
Continuous
 62
     1
370
    15
100
AcDbSpline
210
0.0
220
0.0
230
1.0
 70
     8
 71
     3
 72
    12
 73
     8
 74
     0
 42
0.000000001
 43
0.00000001
 40
0.0
 40
0.0
 40
0.0
 40
0.0
 40
0.4999999999999999
 40
0.4999999999999999
 40
0.7499999999999999
 40
0.7499999999999999
 40
1.0
 40
1.0
 40
1.0
 40
1.0
 10
20.63113287258941
 20
3.335201236331639
 30
0.0
 10
20.59612124175221
 20
3.697582413569508
 30
0.0
 10
20.55854634255851
 20
4.003091973860468
 30
0.0
 10
20.50307054409734
 20
4.33124777844712
 30
0.0
 10
20.48473839393209
 20
4.419304978149833
 30
0.0
 10
20.44916779153744
 20
4.550597295591305
 30
0.0
 10
20.43221545779646
 20
4.594059027958679
 30
0.0
 10
20.41434884243371
 20
4.616041012499871
 30
0.0
  0
SPLINE
  5
1E4
330
1F
100
AcDbEntity
  8
0
  6
Continuous
 62
     1
370
    15
100
AcDbSpline
210
0.0
220
0.0
230
1.0
 70
     8
 71
     3
 72
    12
 73
     8
 74
     0
 42
0.000000001
 43
0.00000001
 40
0.0
 40
0.0
 40
0.0
 40
0.0
 40
0.4999999999999998
 40
0.4999999999999998
 40
0.7499999999999998
 40
0.7499999999999998
 40
1.0
 40
1.0
 40
1.0
 40
1.0
 10
22.36761189978012
 20
-4.658667398584948
 30
0.0
 10
22.33068885688456
 20
-4.620756672096324
 30
0.0
 10
22.29314713119316
 20
-4.489059627760942
 30
0.0
 10
22.24062681006637
 20
-4.174259931710449
 30
0.0
 10
22.22344565061914
 20
-4.05002840322983
 30
0.0
 10
22.18734724981755
 20
-3.759796122582446
 30
0.0
 10
22.16886197313332
 20
-3.594598280120455
 30
0.0
 10
22.15033873855026
 20
-3.412455914537253
 30
0.0
  0
SPLINE
  5
1E5
330
1F
100
AcDbEntity
  8
0
  6
Continuous
 62
     1
370
    15
100
AcDbSpline
210
0.0
220
0.0
230
1.0
 70
     8
 71
     3
 72
    12
 73
     8
 74
     0
 42
0.000000001
 43
0.00000001
 40
0.0
 40
0.0
 40
0.0
 40
0.0
 40
0.5
 40
0.5
 40
0.75
 40
0.75
 40
1.0
 40
1.0
 40
1.0
 40
1.0
 10
22.62394876422454
 20
-4.756098061685948
 30
0.0
 10
22.58745412037588
 20
-4.733025810577354
 30
0.0
 10
22.55007521214624
 20
-4.615982246123517
 30
0.0
 10
22.49734828527978
 20
-4.318946390241661
 30
0.0
 10
22.48054029141635
 20
-4.201083357359044
 30
0.0
 10
22.44508736324802
 20
-3.923092587261692
 30
0.0
 10
22.42686217747407
 20
-3.763565270823969
 30
0.0
 10
22.40851921981231
 20
-3.586284718303477
 30
0.0
  0
SPLINE
  5
1E6
330
1F
100
AcDbEntity
  8
0
  6
Continuous
 62
     1
370
    15
100
AcDbSpline
210
0.0
220
0.0
230
1.0
 70
     8
 71
     3
 72
    12
 73
     8
 74
     0
 42
0.000000001
 43
0.00000001
 40
0.0
 40
0.0
 40
0.0
 40
0.0
 40
0.5000000000000003
 40
0.5000000000000003
 40
0.7500000000000001
 40
0.7500000000000001
 40
1.0
 40
1.0
 40
1.0
 40
1.0
 10
22.88210202631777
 20
-4.670309142238818
 30
0.0
 10
22.84551052711611
 20
-4.665610847302455
 30
0.0
 10
22.80768861550807
 20
-4.567467862002
 30
0.0
 10
22.75394162613601
 20
-4.295342645854004
 30
0.0
 10
22.73696844884781
 20
-4.18559106972408
 30
0.0
 10
22.70158467818781
 20
-3.924790879644211
 30
0.0
 10
22.68332276891519
 20
-3.773601406503536
 30
0.0
 10
22.66487310971553
 20
-3.60410805173948
 30
0.0
  0
SPLINE
  5
1E7
330
1F
100
AcDbEntity
  8
0
  6
Continuous
 62
     1
370
    15
100
AcDbSpline
210
0.0
220
0.0
230
1.0
 70
     8
 71
     3
 72
    11
 73
     7
 74
     0
 42
0.000000001
 43
0.00000001
 40
0.0
 40
0.0
 40
0.0
 40
0.0
 40
0.2467099829441738
 40
0.4937147314776028
 40
0.7376573624420122
 40
1.0
 40
1.0
 40
1.0
 40
1.0
 10
19.85047993115272
 20
3.704700062733662
 30
0.0
 10
19.83281799618081
 20
3.856755858893357
 30
0.0
 10
19.79747302400755
 20
4.161049125321838
 30
0.0
 10
19.74389099724227
 20
4.472678009572558
 30
0.0
 10
19.69154955217833
 20
4.685290282621795
 30
0.0
 10
19.65585617113479
 20
4.709269731447053
 30
0.0
 10
19.6373608754813
 20
4.72169520033412
 30
0.0
  0
LINE
  5
1E8
330
1F
100
AcDbEntity
  8
0
  6
Continuous
 62
     1
370
    15
100
AcDbLine
 10
23.36929133930156
 20
-4.646338133519439
 30
0.0
 11
23.35988440060189
 21
-4.642429514139511
 31
0.0
  0
SPLINE
  5
1E9
330
1F
100
AcDbEntity
  8
0
  6
Continuous
 62
     1
370
    15
100
AcDbSpline
210
0.0
220
0.0
230
1.0
 70
     8
 71
     3
 72
    12
 73
     8
 74
     0
 42
0.000000001
 43
0.00000001
 40
0.0
 40
0.0
 40
0.0
 40
0.0
 40
0.5
 40
0.5
 40
0.75
 40
0.75
 40
1.0
 40
1.0
 40
1.0
 40
1.0
 10
19.59425168039502
 20
3.714204477201116
 30
0.0
 10
19.55781839942168
 20
4.030563921538529
 30
0.0
 10
19.51995919701452
 20
4.276110410231382
 30
0.0
 10
19.46587794012124
 20
4.507986038189175
 30
0.0
 10
19.44875145866359
 20
4.562801052941689
 30
0.0
 10
19.41364711780949
 20
4.629781061561253
 30
0.0
 10
19.39548326727875
 20
4.641601377627284
 30
0.0
 10
19.3770831467409
 20
4.630456792977633
 30
0.0
  0
LINE
  5
1EA
330
1F
100
AcDbEntity
  8
0
  6
Continuous
 62
     1
370
    15
100
AcDbLine
 10
23.89737004687387
 20
-4.649141625814429
 30
0.0
 11
23.88660474243994
 21
-4.654218729267964
 31
0.0
  0
LINE
  5
1EB
330
1F
100
AcDbEntity
  8
0
  6
Continuous
 62
     1
370
    15
100
AcDbLine
 10
18.38058516911818
 20
4.622245502373278
 30
0.0
 11
18.37119940077296
 21
4.611136908653319
 31
0.0
  0
LINE
  5
1EC
330
1F
100
AcDbEntity
  8
0
  6
Continuous
 62
     1
370
    15
100
AcDbLine
 10
24.37627964294306
 20
-4.651901511277085
 30
0.0
 11
24.37418189149686
 21
-4.649528781138417
 31
0.0
  0
SPLINE
  5
1ED
330
1F
100
AcDbEntity
  8
0
  6
Continuous
 62
     1
370
    15
100
AcDbSpline
210
0.0
220
0.0
230
1.0
 70
     8
 71
     3
 72
    10
 73
     6
 74
     0
 42
0.000000001
 43
0.00000001
 40
0.0
 40
0.0
 40
0.0
 40
0.0
 40
0.325179202657376
 40
0.6648484944186327
 40
1.0
 40
1.0
 40
1.0
 40
1.0
 10
24.64033072831683
 20
-4.757766691655618
 30
0.0
 10
24.62375715982633
 20
-4.749487592577621
 30
0.0
 10
24.58987149934125
 20
-4.732560475123101
 30
0.0
 10
24.53845009731232
 20
-4.56152573982206
 30
0.0
 10
24.50518780917469
 20
-4.3552976369504
 30
0.0
 10
24.48866800718829
 20
-4.252873912840527
 30
0.0
  0
SPLINE
  5
1EE
330
1F
100
AcDbEntity
  8
0
  6
Continuous
 62
     1
370
    15
100
AcDbSpline
210
0.0
220
0.0
230
1.0
 70
     8
 71
     3
 72
    11
 73
     7
 74
     0
 42
0.000000001
 43
0.00000001
 40
0.0
 40
0.0
 40
0.0
 40
0.0
 40
0.2902051767433192
 40
0.5769971796900962
 40
0.9203005502711649
 40
1.0
 40
1.0
 40
1.0
 40
1.0
 10
17.76917125420648
 20
4.320281015102191
 30
0.0
 10
17.75612663388929
 20
4.391977570774115
 30
0.0
 10
17.73019081421298
 20
4.534527441456759
 30
0.0
 10
17.69024247071753
 20
4.667259390792195
 30
0.0
 10
17.65950262762576
 20
4.733636387620348
 30
0.0
 10
17.64047548749513
 20
4.718509237308782
 30
0.0
 10
17.63689051707528
 20
4.715659077693027
 30
0.0
  0
LINE
  5
1EF
330
1F
100
AcDbEntity
  8
0
  6
Continuous
 62
     1
370
    15
100
AcDbLine
 10
32.13715701540224
 20
0.9007164056580885
 30
0.0
 11
32.13715701540224
 21
3.06576582390321
 31
0.0
  0
LINE
  5
1F0
330
1F
100
AcDbEntity
  8
0
  6
Continuous
 62
     1
370
    15
100
AcDbLine
 10
16.90508935130182
 20
4.609506934683655
 30
0.0
 11
16.90258317289248
 21
4.612695764040617
 31
0.0
  0
LINE
  5
1F1
330
1F
100
AcDbEntity
  8
0
  6
Continuous
 62
     1
370
    15
100
AcDbLine
 10
25.90517576301577
 20
-4.649646339926042
 30
0.0
 11
25.90144251742995
 21
-4.654824749644686
 31
0.0
  0
LINE
  5
1F2
330
1F
100
AcDbEntity
  8
0
  6
Continuous
 62
     1
370
    15
100
AcDbLine
 10
26.37205865978805
 20
-4.652257562895598
 30
0.0
 11
26.36935272185119
 21
-4.65084555345496
 31
0.0
  0
SPLINE
  5
1F3
330
1F
100
AcDbEntity
  8
0
  6
Continuous
 62
     1
370
    15
100
AcDbSpline
210
0.0
220
0.0
230
1.0
 70
     8
 71
     3
 72
     9
 73
     5
 74
     0
 42
0.000000001
 43
0.00000001
 40
0.0
 40
0.0
 40
0.0
 40
0.0
 40
0.3602332503889246
 40
1.0
 40
1.0
 40
1.0
 40
1.0
 10
26.63426642810839
 20
-4.75034604426524
 30
0.0
 10
26.626408915757
 20
-4.750845374510481
 30
0.0
 10
26.60459662512893
 20
-4.752231504871026
 30
0.0
 10
26.58254746525318
 20
-4.690853474229063
 30
0.0
 10
26.56844114590782
 20
-4.651585851067725
 30
0.0
  0
LINE
  5
1F4
330
1F
100
AcDbEntity
  8
0
  6
Continuous
 62
     1
370
    15
100
AcDbLine
 10
15.689383699584
 20
4.66109820838873
 30
0.0
 11
15.64006353104476
 21
4.719921325889689
 31
0.0
  0
LINE
  5
1F5
330
1F
100
AcDbEntity
  8
0
  6
Continuous
 62
     1
370
    15
100
AcDbLine
 10
15.37699016966566
 20
4.62765645089247
 30
0.0
 11
15.37328719910455
 21
4.62123430222005
 31
0.0
  0
LINE
  5
1F6
330
1F
100
AcDbEntity
  8
0
  6
Continuous
 62
     1
370
    15
100
AcDbLine
 10
10.71239151317215
 20
-4.741093206122649
 30
0.0
 11
10.66956205535317
 21
-4.855343296668901
 31
0.0
  0
LINE
  5
1F7
330
1F
100
AcDbEntity
  8
0
  6
Continuous
 62
     1
370
    15
100
AcDbLine
 10
10.63675498069245
 20
-4.86794931940538
 30
0.0
 11
10.62041654823987
 21
-4.874227314414247
 31
0.0
  0
LINE
  5
1F8
330
1F
100
AcDbEntity
  8
0
  6
Continuous
 62
     1
370
    15
100
AcDbLine
 10
32.13715701540224
 20
-2.562618721800622
 30
0.0
 11
32.13715701540224
 21
-2.802168238675411
 31
0.0
  0
SPLINE
  5
1FA
330
1F
100
AcDbEntity
  8
0
  6
Continuous
 62
     1
370
    15
100
AcDbSpline
210
0.0
220
0.0
230
1.0
 70
     8
 71
     3
 72
    11
 73
     7
 74
     0
 42
0.000000001
 43
0.00000001
 40
0.0
 40
0.0
 40
0.0
 40
0.0
 40
0.2948689945855361
 40
0.5907125019555072
 40
0.8829305560992189
 40
1.0
 40
1.0
 40
1.0
 40
1.0
 10
20.10843961642644
 20
3.53418339365658
 30
0.0
 10
20.08967352256471
 20
3.700397517055829
 30
0.0
 10
20.05207931476209
 20
4.03337508504842
 30
0.0
 10
19.9947016303217
 20
4.369270255922466
 30
0.0
 10
19.95088399700094
 20
4.557949603253037
 30
0.0
 10
19.92525385361424
 20
4.587152945986804
 30
0.0
 10
19.91792280478496
 20
4.595506045239091
 30
0.0
  0
SPLINE
  5
1FB
330
1F
100
AcDbEntity
  8
0
  6
Continuous
 62
     1
370
    15
100
AcDbSpline
210
0.0
220
0.0
230
1.0
 70
     8
 71
     3
 72
    12
 73
     8
 74
     0
 42
0.000000001
 43
0.00000001
 40
0.0
 40
0.0
 40
0.0
 40
0.0
 40
0.0477601149399101
 40
0.3571135258781442
 40
0.6628665009934951
 40
0.9679980754713724
 40
1.0
 40
1.0
 40
1.0
 40
1.0
 10
23.35988440060189
 20
-4.642429514139511
 30
0.0
 10
23.35712060253038
 20
-4.641678241867809
 30
0.0
 10
23.3364550393219
 20
-4.63606080375696
 30
0.0
 10
23.29744967692447
 20
-4.501736655220427
 30
0.0
 10
23.24541556811026
 20
-4.236905759216498
 30
0.0
 10
23.20940097580432
 20
-3.963135377008292
 30
0.0
 10
23.1899570454721
 20
-3.79878436455376
 30
0.0
 10
23.18811135765743
 20
-3.783183575215789
 30
0.0
  0
SPLINE
  5
1FC
330
1F
100
AcDbEntity
  8
0
  6
Continuous
 62
     1
370
    15
100
AcDbSpline
210
0.0
220
0.0
230
1.0
 70
     8
 71
     3
 72
    11
 73
     7
 74
     0
 42
0.000000001
 43
0.00000001
 40
0.0
 40
0.0
 40
0.0
 40
0.0
 40
0.0888493343621057
 40
0.3951076478141499
 40
0.6991302884927713
 40
1.0
 40
1.0
 40
1.0
 40
1.0
 10
23.88660474243994
 20
-4.654218729267964
 30
0.0
 10
23.88132430940886
 20
-4.658037622079314
 30
0.0
 10
23.85784254120735
 20
-4.675020008799259
 30
0.0
 10
23.81507786833566
 20
-4.566177889123539
 30
0.0
 10
23.76081773836663
 20
-4.337811503737176
 30
0.0
 10
23.7256708886632
 20
-4.07715022914111
 30
0.0
 10
23.70818906319054
 20
-3.947498924730622
 30
0.0
  0
SPLINE
  5
1FD
330
1F
100
AcDbEntity
  8
0
  6
Continuous
 62
     1
370
    15
100
AcDbSpline
210
0.0
220
0.0
230
1.0
 70
     8
 71
     3
 72
    11
 73
     7
 74
     0
 42
0.000000001
 43
0.00000001
 40
0.0
 40
0.0
 40
0.0
 40
0.0
 40
0.262620217855
 40
0.5244041766004935
 40
0.7830074253007174
 40
0.9999999999999999
 40
0.9999999999999999
 40
0.9999999999999999
 40
0.9999999999999999
 10
19.07104730772904
 20
3.881030529513996
 30
0.0
 10
19.05652452624864
 20
3.988190312657418
 30
0.0
 10
19.02752520804541
 20
4.202168651046582
 30
0.0
 10
18.98420962757462
 20
4.424512349535086
 30
0.0
 10
18.9450052488237
 20
4.572819613085342
 30
0.0
 10
18.91943377994405
 20
4.602358673677923
 30
0.0
 10
18.90776669079391
 20
4.615835993067243
 30
0.0
  0
SPLINE
  5
1FE
330
1F
100
AcDbEntity
  8
0
  6
Continuous
 62
     1
370
    15
100
AcDbSpline
210
0.0
220
0.0
230
1.0
 70
     8
 71
     3
 72
    11
 73
     7
 74
     0
 42
0.000000001
 43
0.00000001
 40
0.0
 40
0.0
 40
0.0
 40
0.0
 40
0.3182932544449253
 40
0.6326549328259701
 40
0.9511158957619427
 40
1.0
 40
1.0
 40
1.0
 40
1.0
 10
18.55066096194831
 20
4.03309456145424
 30
0.0
 10
18.53222789583894
 20
4.152131487523192
 30
0.0
 10
18.49558944988276
 20
4.388734988898979
 30
0.0
 10
18.44241028591067
 20
4.574813498422263
 30
0.0
 10
18.40459590905689
 20
4.654181339036464
 30
0.0
 10
18.38340511446227
 20
4.625996212019784
 30
0.0
 10
18.38058516911818
 20
4.622245502373278
 30
0.0
  0
SPLINE
  5
1FF
330
1F
100
AcDbEntity
  8
0
  6
Continuous
 62
     1
370
    15
100
AcDbSpline
210
0.0
220
0.0
230
1.0
 70
     8
 71
     3
 72
    10
 73
     6
 74
     0
 42
0.000000001
 43
0.00000001
 40
0.0
 40
0.0
 40
0.0
 40
0.0
 40
0.2509541113466383
 40
0.6281645466727147
 40
1.0
 40
1.0
 40
1.0
 40
1.0
 10
24.37418189149686
 20
-4.649528781138417
 30
0.0
 10
24.36204208549423
 20
-4.640606246281613
 30
0.0
 10
24.33165487369119
 20
-4.618272202685273
 30
0.0
 10
24.28304161542846
 20
-4.438560126259633
 30
0.0
 10
24.24821372118023
 20
-4.211644436829746
 30
0.0
 10
24.23092473255831
 20
-4.099000739661972
 30
0.0
  0
SPLINE
  5
200
330
1F
100
AcDbEntity
  8
0
  6
Continuous
 62
     1
370
    15
100
AcDbSpline
210
0.0
220
0.0
230
1.0
 70
     8
 71
     3
 72
    10
 73
     6
 74
     0
 42
0.000000001
 43
0.00000001
 40
0.0
 40
0.0
 40
0.0
 40
0.0
 40
0.3534144938486981
 40
0.702503656148074
 40
1.0
 40
1.0
 40
1.0
 40
1.0
 10
18.02734146636705
 20
4.171654913456857
 30
0.0
 10
18.01240270152383
 20
4.25688144431786
 30
0.0
 10
17.98270800279654
 20
4.42629144467937
 30
0.0
 10
17.94206915951819
 20
4.574775403957966
 30
0.0
 10
17.91554354706298
 20
4.607108976700886
 30
0.0
 10
17.90333901626422
 20
4.621985771159124
 30
0.0
  0
SPLINE
  5
201
330
1F
100
AcDbEntity
  8
0
  6
Continuous
 62
     1
370
    15
100
AcDbSpline
210
0.0
220
0.0
230
1.0
 70
     8
 71
     3
 72
    11
 73
     7
 74
     0
 42
0.000000001
 43
0.00000001
 40
0.0
 40
0.0
 40
0.0
 40
0.0
 40
0.0674344600761116
 40
0.3793328418281541
 40
0.6914205672228436
 40
1.0
 40
1.0
 40
1.0
 40
1.0
 10
24.90254694075932
 20
-4.654115668474693
 30
0.0
 10
24.8990652188682
 20
-4.659817941793589
 30
0.0
 10
24.87947981019257
 20
-4.691894413385358
 30
0.0
 10
24.84237416627179
 20
-4.64145112166353
 30
0.0
 10
24.79262142761426
 20
-4.505636888685217
 30
0.0
 10
24.76055898122882
 20
-4.321736515627131
 30
0.0
 10
24.74461837378922
 20
-4.230306073306128
 30
0.0
  0
SPLINE
  5
202
330
1F
100
AcDbEntity
  8
0
  6
Continuous
 62
     1
370
    15
100
AcDbSpline
210
0.0
220
0.0
230
1.0
 70
     8
 71
     3
 72
     9
 73
     5
 74
     0
 42
0.000000001
 43
0.00000001
 40
0.0
 40
0.0
 40
0.0
 40
0.0
 40
0.4255404842481494
 40
1.0
 40
1.0
 40
1.0
 40
1.0
 10
25.36970404110268
 20
-4.645721754512962
 30
0.0
 10
25.35505463037106
 20
-4.632866634434752
 30
0.0
 10
25.3206292084103
 20
-4.602657710597754
 30
0.0
 10
25.28669273514246
 20
-4.43888640881518
 30
0.0
 10
25.26719760514269
 20
-4.344806426099114
 30
0.0
  0
SPLINE
  5
203
330
1F
100
AcDbEntity
  8
0
  6
Continuous
 62
     1
370
    15
100
AcDbSpline
210
0.0
220
0.0
230
1.0
 70
     8
 71
     3
 72
    11
 73
     7
 74
     0
 42
0.000000001
 43
0.00000001
 40
0.0
 40
0.0
 40
0.0
 40
0.0
 40
0.2384679304508041
 40
0.4742772481333468
 40
0.8192292509431133
 40
1.0
 40
1.0
 40
1.0
 40
1.0
 10
17.51283147417121
 20
4.289590088915197
 30
0.0
 10
17.50135810006526
 20
4.347748006753957
 30
0.0
 10
17.47853926531675
 20
4.463415455947602
 30
0.0
 10
17.44047382265848
 20
4.586373109797476
 30
0.0
 10
17.40486732556977
 20
4.65202639388742
 30
0.0
 10
17.37939634189732
 20
4.621815361987998
 30
0.0
 10
17.37063809664097
 20
4.611427242305429
 30
0.0
  0
SPLINE
  5
204
330
1F
100
AcDbEntity
  8
0
  6
Continuous
 62
     1
370
    15
100
AcDbSpline
210
0.0
220
0.0
230
1.0
 70
     8
 71
     3
 72
     9
 73
     5
 74
     0
 42
0.000000001
 43
0.00000001
 40
0.0
 40
0.0
 40
0.0
 40
0.0
 40
0.5559358303581797
 40
1.0
 40
1.0
 40
1.0
 40
1.0
 10
16.98965654918645
 20
4.390328940568326
 30
0.0
 10
16.9740209728861
 20
4.457753533911948
 30
0.0
 10
16.94589618681091
 20
4.579034785563207
 30
0.0
 10
16.91763786119979
 20
4.600136444174408
 30
0.0
 10
16.90508935130182
 20
4.609506934683655
 30
0.0
  0
SPLINE
  5
205
330
1F
100
AcDbEntity
  8
0
  6
Continuous
 62
     1
370
    15
100
AcDbSpline
210
0.0
220
0.0
230
1.0
 70
     8
 71
     3
 72
    10
 73
     6
 74
     0
 42
0.000000001
 43
0.00000001
 40
0.0
 40
0.0
 40
0.0
 40
0.0
 40
0.0836206690124461
 40
0.5419934043956173
 40
1.0
 40
1.0
 40
1.0
 40
1.0
 10
25.90144251742995
 20
-4.654824749644686
 30
0.0
 10
25.89833275504569
 20
-4.659630479499136
 30
0.0
 10
25.87817660559832
 20
-4.690779164569228
 30
0.0
 10
25.83938837957743
 20
-4.636024343509277
 30
0.0
 10
25.80454633519171
 20
-4.507577547985986
 30
0.0
 10
25.78713227357619
 20
-4.443379810712148
 30
0.0
  0
SPLINE
  5
206
330
1F
100
AcDbEntity
  8
0
  6
Continuous
 62
     1
370
    15
100
AcDbSpline
210
0.0
220
0.0
230
1.0
 70
     8
 71
     3
 72
    10
 73
     6
 74
     0
 42
0.000000001
 43
0.00000001
 40
0.0
 40
0.0
 40
0.0
 40
0.0
 40
0.2770853111251207
 40
0.749947107101112
 40
1.0
 40
1.0
 40
1.0
 40
1.0
 10
16.4696750831439
 20
4.474746436436342
 30
0.0
 10
16.46068569247107
 20
4.505561946835906
 30
0.0
 10
16.43635539685809
 20
4.588965873172374
 30
0.0
 10
16.40392870301335
 20
4.645945142256078
 30
0.0
 10
16.3795918149473
 20
4.621618105763647
 30
0.0
 10
16.37117379639168
 20
4.613203494822407
 30
0.0
  0
SPLINE
  5
207
330
1F
100
AcDbEntity
  8
0
  6
Continuous
 62
     1
370
    15
100
AcDbSpline
210
0.0
220
0.0
230
1.0
 70
     8
 71
     3
 72
     9
 73
     5
 74
     0
 42
0.000000001
 43
0.00000001
 40
0.0
 40
0.0
 40
0.0
 40
0.0
 40
0.2248900905029931
 40
1.0
 40
1.0
 40
1.0
 40
1.0
 10
26.36935272185119
 20
-4.65084555345496
 30
0.0
 10
26.36494138202046
 20
-4.649552502381519
 30
0.0
 10
26.34532584528937
 20
-4.643802800068937
 30
0.0
 10
26.32557408544565
 20
-4.578138719464867
 30
0.0
 10
26.31026430066078
 20
-4.527241839890642
 30
0.0
  0
SPLINE
  5
208
330
1F
100
AcDbEntity
  8
0
  6
Continuous
 62
     1
370
    15
100
AcDbSpline
210
0.0
220
0.0
230
1.0
 70
     8
 71
     3
 72
     9
 73
     5
 74
     0
 42
0.000000001
 43
0.00000001
 40
0.0
 40
0.0
 40
0.0
 40
0.0
 40
0.1694051562632428
 40
0.9999999999999999
 40
0.9999999999999999
 40
0.9999999999999999
 40
0.9999999999999999
 10
15.94706222880809
 20
4.543914790086699
 30
0.0
 10
15.94467869236009
 20
4.550850376307066
 30
0.0
 10
15.93060865753599
 20
4.591791197550961
 30
0.0
 10
15.91612920562737
 20
4.603264853231818
 30
0.0
 10
15.90410264753195
 20
4.61279481247915
 30
0.0
  0
SPLINE
  5
209
330
1F
100
AcDbEntity
  8
0
  6
Continuous
 62
     1
370
    15
100
AcDbSpline
210
0.0
220
0.0
230
1.0
 70
     8
 71
     3
 72
     9
 73
     5
 74
     0
 42
0.000000001
 43
0.00000001
 40
0.0
 40
0.0
 40
0.0
 40
0.0
 40
0.2332995983607475
 40
1.0
 40
1.0
 40
1.0
 40
1.0
 10
26.90081242658753
 20
-4.648685446085378
 30
0.0
 10
26.89502903359773
 20
-4.657733741535931
 30
0.0
 10
26.87023947960602
 20
-4.696517757942853
 30
0.0
 10
26.8445315228143
 20
-4.636241414109649
 30
0.0
 10
26.82482122201676
 20
-4.590027517083385
 30
0.0
  0
LINE
  5
20A
330
1F
100
AcDbEntity
  8
0
  6
Continuous
 62
     1
370
    15
100
AcDbLine
 10
27.37713507120066
 20
-4.653267407330587
 30
0.0
 11
27.34811631250756
 21
-4.633130889548309
 31
0.0
  0
SPLINE
  5
20B
330
1F
100
AcDbEntity
  8
0
  6
Continuous
 62
     1
370
    15
100
AcDbSpline
210
0.0
220
0.0
230
1.0
 70
     8
 71
     3
 72
     9
 73
     5
 74
     0
 42
0.000000001
 43
0.00000001
 40
0.0
 40
0.0
 40
0.0
 40
0.0
 40
0.9593466020191875
 40
1.0
 40
1.0
 40
1.0
 40
1.0
 10
15.43338048962195
 20
4.592012329596291
 30
0.0
 10
15.41551685334032
 20
4.626848440961107
 30
0.0
 10
15.39689622525446
 20
4.66316077197004
 30
0.0
 10
15.37776780494908
 20
4.629043436509011
 30
0.0
 10
15.37699016966566
 20
4.62765645089247
 30
0.0
  0
SPLINE
  5
20C
330
1F
100
AcDbEntity
  8
0
  6
Continuous
 62
     1
370
    15
100
AcDbSpline
210
0.0
220
0.0
230
1.0
 70
     8
 71
     3
 72
     8
 73
     4
 74
     0
 42
0.000000001
 43
0.00000001
 40
0.0
 40
0.0
 40
0.0
 40
0.0
 40
1.0
 40
1.0
 40
1.0
 40
1.0
 10
27.90623721764791
 20
-4.660413491704275
 30
0.0
 10
27.89382273946112
 20
-4.67095244082666
 30
0.0
 10
27.88118921873238
 20
-4.670856839398084
 30
0.0
 10
27.86846475476313
 20
-4.65986410104039
 30
0.0
  0
LINE
  5
20D
330
1F
100
AcDbEntity
  8
0
  6
Continuous
 62
     1
370
    15
100
AcDbLine
 10
14.3906489113852
 20
4.632087768171627
 30
0.0
 11
14.36311121957123
 21
4.604805415337542
 31
0.0
  0
SPLINE
  5
20E
330
1F
100
AcDbEntity
  8
0
  6
Continuous
 62
     1
370
    15
100
AcDbSpline
210
0.0
220
0.0
230
1.0
 70
     8
 71
     3
 72
     9
 73
     5
 74
     0
 42
0.000000001
 43
0.00000001
 40
0.0
 40
0.0
 40
0.0
 40
0.0
 40
0.0505856651868367
 40
1.0
 40
1.0
 40
1.0
 40
1.0
 10
10.91054539598561
 20
-4.654260361524553
 30
0.0
 10
10.90998866835913
 20
-4.655314341232386
 30
0.0
 10
10.89898302823512
 20
-4.676149882367204
 30
0.0
 10
10.88761527316117
 20
-4.672483954069654
 30
0.0
 10
10.87682256353932
 20
-4.669003469193562
 30
0.0
  0
LINE
  5
20F
330
1F
100
AcDbEntity
  8
0
  6
Continuous
 62
     8
370
    15
100
AcDbLine
 10
31.38233312000396
 20
4.633020511402292
 30
0.0
 11
31.37410733538747
 21
4.621295822144161
 31
0.0
  0
LINE
  5
210
330
1F
100
AcDbEntity
  8
중심선
100
AcDbLine
 10
-34.36284298459778
 20
-0.0179718074885491
 30
0.0
 11
35.13715701540224
 21
-0.0179718074885491
 31
0.0
  0
CIRCLE
  5
211
330
1F
100
AcDbEntity
  8
외형선
100
AcDbCircle
 10
-0.0000000000000013
 20
-0.0000000000000039
 30
0.0
 40
3.000000000000004
  0
INSERT
  5
212
330
1F
100
AcDbEntity
  8
0
  6
Continuous
 62
     7
100
AcDbBlockReference
 66
     1
  2
블럭10
 10
-16.63945112874702
 20
-52.04717430164393
 30
0.0
  0
ATTRIB
  5
213
330
212
100
AcDbEntity
  8
FORMAT
 62
     2
100
AcDbText
 10
-25.70707290932103
 20
-49.97180738881174
 30
0.0
 40
4.233333333333333
  1
E5E98024 [ 3 FLUTE ]
 41
0.75
  7
SLDTEXTSTYLE0
 11
-25.70707290932103
 21
-52.08847405547841
 31
0.0
100
AcDbAttribute
  2
AUTOATTR0
 70
     0
 74
     1
  0
SEQEND
  5
214
330
212
100
AcDbEntity
  8
0
  6
Continuous
 62
     7
  0
HATCH
  5
215
330
1F
100
AcDbEntity
  8
중심선
100
AcDbHatch
 10
0.0
 20
0.0
 30
0.0
210
0.0
220
0.0
230
1.0
  2
SOLID
 70
     1
 71
     0
 91
        1
 92
        0
 93
        4
 72
     1
 10
-10.92454182436617
 20
-35.8
 11
-14.37081706820345
 21
-35.8
 72
     1
 10
-14.37081706820345
 20
-35.8
 11
-16.49904692740747
 21
-38.33632558057259
 72
     1
 10
-16.49904692740747
 20
-38.33632558057259
 11
-13.05273859845704
 21
-38.3362861512701
 72
     1
 10
-13.05273859845704
 20
-38.3362861512701
 11
-10.92454182436617
 21
-35.8
 97
        0
 75
     0
 76
     1
 98
        1
 10
0.0
 20
0.0
  0
HATCH
  5
216
330
1F
100
AcDbEntity
  8
중심선
100
AcDbHatch
 10
0.0
 20
0.0
 30
0.0
210
0.0
220
0.0
230
1.0
  2
SOLID
 70
     1
 71
     0
 91
        1
 92
        0
 93
        4
 72
     1
 10
-5.911777833330217
 20
-35.8
 11
-9.358053077167499
 21
-35.8
 72
     1
 10
-9.358053077167499
 20
-35.8
 11
-13.88919108552489
 21
-41.20000000000002
 72
     1
 10
-13.88919108552489
 20
-41.20000000000002
 11
-10.44291584168761
 21
-41.20000000000002
 72
     1
 10
-10.44291584168761
 20
-41.20000000000002
 11
-5.911777833330217
 21
-35.8
 97
        0
 75
     0
 76
     1
 98
        1
 10
0.0
 20
0.0
  0
HATCH
  5
217
330
1F
100
AcDbEntity
  8
중심선
100
AcDbHatch
 10
0.0
 20
0.0
 30
0.0
210
0.0
220
0.0
230
1.0
  2
SOLID
 70
     1
 71
     0
 91
        1
 92
        0
 93
        4
 72
     1
 10
-0.8990138422943217
 20
-35.80000000000003
 11
-4.345289086131437
 21
-35.8
 72
     1
 10
-4.345289086131437
 20
-35.8
 11
-11.39372598802069
 21
-44.20000000000002
 72
     1
 10
-11.39372598802069
 20
-44.20000000000002
 11
-7.947450744183405
 21
-44.20000000000002
 72
     1
 10
-7.947450744183405
 20
-44.20000000000002
 11
-0.8990138422943215
 21
-35.80000000000003
 97
        0
 75
     0
 76
     1
 98
        1
 10
0.0
 20
0.0
  0
HATCH
  5
218
330
1F
100
AcDbEntity
  8
중심선
100
AcDbHatch
 10
0.0
 20
0.0
 30
0.0
210
0.0
220
0.0
230
1.0
  2
SOLID
 70
     1
 71
     0
 91
        1
 92
        0
 93
        6
 72
     3
 10
3.900876588717877
 20
-40.00000000005127
 11
3.960054785062284
 21
1.540850780301639E-10
 40
0.3939339440162633
 50
17.09539180608433
 51
320.0019657685079
 73
     0
 72
     1
 10
5.583876244418473
 20
-38.5878940046383
 11
7.889178118119511
 21
-36.65356729459038
 72
     3
 10
3.900876588665031
 20
-40.00000000000015
 11
6.600054785286829
 21
-1.249000902703301E-13
 40
0.6363583540795982
 50
39.99873849337408
 51
368.4976242363724
 73
     1
 72
     1
 10
10.32620908056564
 20
-39.03999999993002
 11
2.580943895500953
 21
-39.03999999992999
 72
     1
 10
2.580943895500953
 20
-39.03999999992999
 11
2.58091885105502
 21
-40.95999999992991
 72
     1
 10
2.58091885105502
 20
-40.95999999992991
 11
7.022298620527057
 21
-40.95999999992988
 97
        0
 75
     0
 76
     1
 98
        1
 10
0.0
 20
0.0
  0
POINT
  5
219
330
1F
100
AcDbEntity
  8
치수문자_일반주서
100
AcDbPoint
 10
-0.0000000000000013
 20
-0.0000000000000039
 30
0.0
  0
DIMENSION
  5
21A
330
1F
100
AcDbEntity
  8
치수문자_일반주서
100
AcDbDimension
  2
_D
 10
9.912157015402233
 20
12.60433160867749
 30
0.0
 11
19.43715701540222
 21
12.60433160867749
 31
0.0
 70
   160
  1
<>
 71
     2
 42
22.22500000000001
  3
SLDDIMSTYLE0
100
AcDbAlignedDimension
 13
32.13715701540224
 23
4.744528192511457
 33
0.0
 14
9.912157015402233
 24
-0.5362781789878451
 34
0.0
 50
0.0000000000000534
100
AcDbRotatedDimension
1001
ACAD
1000
DSTYLE
1002
{
1070
   171
1070
     6
1070
   273
1070
     7
1002
}
  0
DIMENSION
  5
230
102
{ACAD_XDICTIONARY
360
318
102
}
330
1F
100
AcDbEntity
  8
치수문자_일반주서
100
AcDbDimension
  2
_D_1
 10
-44.06284298459776
 20
25.92406067554435
 30
0.0
 11
-10.63654905626058
 21
25.92406067554435
 31
0.0
 70
   160
  1
<>
 71
     2
 42
76.2
  3
SLDDIMSTYLE1
100
AcDbAlignedDimension
 13
32.13715701540224
 23
4.523529107165221
 33
0.0
 14
-44.06284298459776
 24
4.244528192511453
 34
0.0
 50
0.0000000000000064
100
AcDbRotatedDimension
1001
ACAD
1000
DSTYLE
1002
{
1070
   171
1070
     6
1070
   273
1070
     7
1002
}
1001
ENABLE_CUSTOM_SPLIT
1070
     1
  0
DIMENSION
  5
244
102
{ACAD_XDICTIONARY
360
311
102
}
330
1F
100
AcDbEntity
  8
치수문자_일반주서
100
AcDbDimension
  2
_D_2
 10
-49.96284298459772
 20
-4.780471807488574
 30
0.0
 11
-49.96284298459783
 21
24.47352819251143
 31
0.0
 70
   160
  1
%%c<>
 71
     2
 42
9.525000000000002
  3
SLDDIMSTYLE0
100
AcDbAlignedDimension
 13
-43.56284298459776
 23
4.744528192511453
 33
0.0
 14
-43.56284298459776
 24
-4.78047180748855
 34
0.0
 50
90.0000000000002
100
AcDbRotatedDimension
1001
ACAD
1000
DSTYLE
1002
{
1070
   171
1070
     6
1070
   273
1070
     7
1002
}
1001
ENABLE_CUSTOM_SPLIT
1070
     1
  0
INSERT
  5
25E
330
1F
100
AcDbEntity
  8
외형선
100
AcDbBlockReference
  2
SW_DOWELSYMBOL_0
 10
-0.0000000000000013
 20
-0.0000000000000039
 30
0.0
  0
DIMENSION
  5
289
330
1F
100
AcDbEntity
  8
치수문자_일반주서
100
AcDbDimension
  2
*D6
 10
52.00415859755584
 20
-4.780471807488549
 30
0.0
 11
52.00415859755584
 21
24.69227819251145
 31
0.0
 70
   160
  1
{%%c<>}
 71
     5
 42
9.525000000000002
  3
SLDDIMSTYLE0
100
AcDbAlignedDimension
 13
32.13715701540224
 23
4.744528192511457
 33
0.0
 14
32.13715701540225
 24
-4.780471807488545
 34
0.0
 50
90.0
100
AcDbRotatedDimension
1001
ACAD
1000
DSTYLE
1002
{
1070
   171
1070
     6
1070
   273
1070
     7
1002
}
  0
LINE
  5
2CE
330
1F
100
AcDbEntity
  8
0
  6
Continuous
 62
     4
370
    15
100
AcDbLine
 10
0.3871570154022379
 20
4.149028192511454
 30
0.0
 11
0.3871570154022379
 21
-4.359971807488542
 31
0.0
  0
LINE
  5
2CF
330
1F
100
AcDbEntity
  8
0
  6
Continuous
 62
     4
370
    15
100
AcDbLine
 10
0.3871570154022379
 20
4.149028192511454
 30
0.0
 11
10.33369711961205
 21
4.149028192511455
 31
0.0
  0
LINE
  5
2D0
330
1F
100
AcDbEntity
  8
0
  6
Continuous
 62
     4
370
    15
100
AcDbLine
 10
0.3871570154022379
 20
-4.359971807488544
 30
0.0
 11
8.391958181813617
 21
-4.359971807488543
 31
0.0
  0
LINE
  5
2D5
330
1F
100
AcDbEntity
  8
0
  6
Continuous
 62
     4
370
    15
100
AcDbLine
 10
-0.0333429845977626
 20
-4.780471807488545
 30
0.0
 11
0.3871570154022379
 21
-4.359971807488544
 31
0.0
  0
LINE
  5
2D6
330
1F
100
AcDbEntity
  8
0
  6
Continuous
 62
     4
370
    15
100
AcDbLine
 10
-0.0333429845977662
 20
-4.780471807488545
 30
0.0
 11
-0.0333429845977662
 21
4.744528192511457
 31
0.0
  0
LINE
  5
2D8
102
{ACAD_REACTORS
102
}
330
1F
100
AcDbEntity
  8
0
  6
Continuous
 62
     4
370
    15
100
AcDbLine
 10
-0.0333429845977662
 20
4.744528192511457
 30
0.0
 11
0.3871570154022379
 21
4.149028192511454
 31
0.0
  0
DIMENSION
  5
2FD
102
{ACAD_REACTORS
102
}
102
{ACAD_XDICTIONARY
360
2FE
102
}
330
1F
100
AcDbEntity
  8
치수문자_일반주서
100
AcDbDimension
  2
*D7
 10
0.3871570154022379
 20
18.89452819251146
 30
0.0
 11
16.26215701540224
 21
21.51952819251146
 31
0.0
 70
    32
 71
     5
 42
31.75
  3
SLDDIMSTYLE0
100
AcDbAlignedDimension
 13
32.13715701540224
 23
4.523529107165221
 33
0.0
 14
0.3871570154022379
 24
4.149028192511454
 34
0.0
100
AcDbRotatedDimension
1001
ACAD
1000
DSTYLE
1002
{
1070
   171
1070
     6
1070
   273
1070
     7
1002
}
1001
ENABLE_CUSTOM_SPLIT
1070
     1
1001
PE_URL
1000

  0
ENDSEC
  0
SECTION
  2
OBJECTS
  0
DICTIONARY
  5
C
330
0
100
AcDbDictionary
281
     1
  3
ACAD_DETAILVIEWSTYLE
350
2A6
  3
ACAD_GROUP
350
D
  3
ACAD_IMAGE_VARS
350
282
  3
ACAD_LAYOUT
350
1A
  3
ACAD_MLINESTYLE
350
17
  3
ACAD_PLOTSETTINGS
350
19
  3
ACAD_PLOTSTYLENAME
350
E
  3
ACAD_SCALELIST
350
47
  3
ACAD_SECTIONVIEWSTYLE
350
2A7
  3
AcDbVariableDictionary
350
2A1
  3
APPDATA
350
280
  3
DWGPROPS
350
31C
  0
DICTIONARY
  5
31A
330
1F
100
AcDbDictionary
280
     1
281
     1
  3
DIM_BOUNDING_BOXES_V1
360
31B
  0
DICTIONARY
  5
318
330
230
100
AcDbDictionary
280
     1
281
     1
  3
ACAD_CUSTOM_BREAKDATA
360
319
  0
DICTIONARY
  5
311
330
244
100
AcDbDictionary
280
     1
281
     1
  3
ACAD_CUSTOM_BREAKDATA
360
317
  0
DICTIONARY
  5
2FE
330
2FD
100
AcDbDictionary
280
     1
281
     1
  3
ACAD_CUSTOM_BREAKDATA
360
30D
  0
DICTIONARY
  5
2A6
102
{ACAD_REACTORS
330
C
102
}
330
C
100
AcDbDictionary
281
     1
  0
DICTIONARY
  5
D
102
{ACAD_REACTORS
330
C
102
}
330
C
100
AcDbDictionary
281
     1
  0
RASTERVARIABLES
  5
282
102
{ACAD_REACTORS
330
C
102
}
330
C
100
AcDbRasterVariables
 90
        0
 70
     1
 71
     1
 72
     1
  0
DICTIONARY
  5
1A
102
{ACAD_REACTORS
330
C
102
}
330
C
100
AcDbDictionary
281
     1
  3
Layout1
350
1E
  3
Layout2
350
26
  3
Model
350
22
  0
DICTIONARY
  5
17
102
{ACAD_REACTORS
330
C
102
}
330
C
100
AcDbDictionary
281
     1
  3
Standard
350
18
  0
DICTIONARY
  5
19
102
{ACAD_REACTORS
330
C
102
}
330
C
100
AcDbDictionary
281
     1
  0
ACDBDICTIONARYWDFLT
  5
E
102
{ACAD_REACTORS
330
C
102
}
330
C
100
AcDbDictionary
281
     1
  3
Normal
350
F
100
AcDbDictionaryWithDefault
340
F
  0
DICTIONARY
  5
47
102
{ACAD_REACTORS
330
C
102
}
330
C
100
AcDbDictionary
281
     1
  3
A0
350
48
  3
A1
350
49
  3
A2
350
4A
  3
A3
350
4B
  3
A4
350
4C
  3
A5
350
4D
  3
A6
350
4E
  3
A7
350
4F
  3
A8
350
50
  3
A9
350
51
  3
B0
350
52
  3
B1
350
53
  3
B2
350
54
  3
B3
350
55
  3
B4
350
56
  3
B5
350
57
  3
B6
350
58
  3
B7
350
59
  3
B8
350
5A
  3
B9
350
5B
  3
C0
350
5C
  3
C1
350
5D
  3
C2
350
5E
  3
C3
350
5F
  3
C4
350
60
  3
C5
350
61
  3
C6
350
62
  3
C7
350
63
  3
C8
350
64
  3
C9
350
65
  3
D0
350
66
  3
D1
350
67
  3
D2
350
68
  0
DICTIONARY
  5
2A7
102
{ACAD_REACTORS
330
C
102
}
330
C
100
AcDbDictionary
281
     1
  0
DICTIONARY
  5
2A1
102
{ACAD_REACTORS
330
C
102
}
330
C
100
AcDbDictionary
281
     1
  0
DICTIONARY
  5
280
102
{ACAD_REACTORS
330
C
102
}
330
C
100
AcDbDictionary
281
     1
  0
XRECORD
  5
31C
102
{ACAD_REACTORS
330
C
102
}
330
C
100
AcDbXrecord
280
     1
  1
DWGPROPS COOKIE
  2

  3

  4

  6

  7

  8
12014102
  9

300
=
301
=
302
=
303
=
304
=
305
=
306
=
307
=
308
=
309
=
 40
0.0
 41
2458270.406574271
 42
2459722.91902456
  1

 90
        0
  0
DICTIONARY
  5
31B
102
{ACAD_REACTORS
330
31A
102
}
330
31A
100
AcDbDictionary
281
     1
  0
BREAKDATA
  5
319
102
{ACAD_REACTORS
330
318
102
}
330
318
100
AcDbBreakData
 70
     0
330
230
 90
        0
  0
BREAKDATA
  5
317
102
{ACAD_REACTORS
330
311
102
}
330
311
100
AcDbBreakData
 70
     0
330
244
 90
        0
  0
BREAKDATA
  5
30D
102
{ACAD_REACTORS
330
2FE
102
}
330
2FE
100
AcDbBreakData
 70
     0
330
2FD
 90
        0
  0
LAYOUT
  5
1E
102
{ACAD_REACTORS
330
1A
102
}
330
1A
100
AcDbPlotSettings
  1

  2
none_device
  4

  6

 40
0.0
 41
0.0
 42
0.0
 43
0.0
 44
0.0
 45
0.0
 46
0.0
 47
0.0
 48
0.0
 49
0.0
140
0.0
141
0.0
142
1.0
143
1.0
 70
   688
 72
     1
 73
     0
 74
     5
  7

 75
    16
147
1.0
148
0.0
149
0.0
100
AcDbLayout
  1
Layout1
 70
     1
 71
     1
 10
0.0
 20
0.0
 11
420.0
 21
297.0
 12
0.0
 22
0.0
 32
0.0
 14
1.000000000000000E+20
 24
1.000000000000000E+20
 34
1.000000000000000E+20
 15
-1.000000000000000E+20
 25
-1.000000000000000E+20
 35
-1.000000000000000E+20
146
0.0
 13
0.0
 23
0.0
 33
0.0
 16
1.0
 26
0.0
 36
0.0
 17
0.0
 27
1.0
 37
0.0
 76
     0
330
1B
  0
LAYOUT
  5
26
102
{ACAD_REACTORS
330
1A
102
}
330
1A
100
AcDbPlotSettings
  1

  2
none_device
  4

  6

 40
0.0
 41
0.0
 42
0.0
 43
0.0
 44
0.0
 45
0.0
 46
0.0
 47
0.0
 48
0.0
 49
0.0
140
0.0
141
0.0
142
1.0
143
1.0
 70
   688
 72
     1
 73
     0
 74
     5
  7

 75
    16
147
1.0
148
0.0
149
0.0
100
AcDbLayout
  1
Layout2
 70
     1
 71
     2
 10
0.0
 20
0.0
 11
0.0
 21
0.0
 12
0.0
 22
0.0
 32
0.0
 14
0.0
 24
0.0
 34
0.0
 15
0.0
 25
0.0
 35
0.0
146
0.0
 13
0.0
 23
0.0
 33
0.0
 16
1.0
 26
0.0
 36
0.0
 17
0.0
 27
1.0
 37
0.0
 76
     0
330
23
  0
LAYOUT
  5
22
102
{ACAD_REACTORS
330
1A
102
}
330
1A
100
AcDbPlotSettings
  1

  2
none_device
  4
ANSI_A_(11.00_x_8.50_Inches)
  6

 40
6.35
 41
19.05
 42
6.35000508
 43
19.05000254
 44
279.4
 45
215.9
 46
154.1920544397954
 47
103.135883194385
 48
0.0
 49
0.0
140
0.0
141
0.0
142
0.0800735294117647
143
1.0
 70
  1696
 72
     0
 73
     0
 74
     0
  7

 75
     0
147
0.0235690232323232
148
0.0
149
0.0
100
AcDbLayout
  1
Model
 70
     1
 71
     0
 10
0.0
 20
0.0
 11
420.0
 21
297.0
 12
0.0
 22
0.0
 32
0.0
 14
-54.33784298459787
 24
-49.97180738881174
 34
0.0
 15
52.55449193088917
 25
37.81727819251145
 35
0.0
146
0.0
 13
0.0
 23
0.0
 33
0.0
 16
1.0
 26
0.0
 36
0.0
 17
0.0
 27
1.0
 37
0.0
 76
     0
330
1F
331
29
  0
MLINESTYLE
  5
18
102
{ACAD_REACTORS
330
17
102
}
330
17
100
AcDbMlineStyle
  2
Standard
 70
     0
  3

 62
   256
 51
90.0
 52
90.0
 71
     2
 49
0.5
 62
   256
  6
BYLAYER
 49
-0.5
 62
   256
  6
BYLAYER
  0
ACDBPLACEHOLDER
  5
F
102
{ACAD_REACTORS
330
E
102
}
330
E
  0
SCALE
  5
48
102
{ACAD_REACTORS
330
47
102
}
330
47
100
AcDbScale
 70
     0
300
1:1
140
1.0
141
1.0
290
     1
  0
SCALE
  5
49
102
{ACAD_REACTORS
330
47
102
}
330
47
100
AcDbScale
 70
     0
300
1:2
140
1.0
141
2.0
290
     0
  0
SCALE
  5
4A
102
{ACAD_REACTORS
330
47
102
}
330
47
100
AcDbScale
 70
     0
300
1:4
140
1.0
141
4.0
290
     0
  0
SCALE
  5
4B
102
{ACAD_REACTORS
330
47
102
}
330
47
100
AcDbScale
 70
     0
300
1:5
140
1.0
141
5.0
290
     0
  0
SCALE
  5
4C
102
{ACAD_REACTORS
330
47
102
}
330
47
100
AcDbScale
 70
     0
300
1:8
140
1.0
141
8.0
290
     0
  0
SCALE
  5
4D
102
{ACAD_REACTORS
330
47
102
}
330
47
100
AcDbScale
 70
     0
300
1:10
140
1.0
141
10.0
290
     0
  0
SCALE
  5
4E
102
{ACAD_REACTORS
330
47
102
}
330
47
100
AcDbScale
 70
     0
300
1:16
140
1.0
141
16.0
290
     0
  0
SCALE
  5
4F
102
{ACAD_REACTORS
330
47
102
}
330
47
100
AcDbScale
 70
     0
300
1:20
140
1.0
141
20.0
290
     0
  0
SCALE
  5
50
102
{ACAD_REACTORS
330
47
102
}
330
47
100
AcDbScale
 70
     0
300
1:30
140
1.0
141
30.0
290
     0
  0
SCALE
  5
51
102
{ACAD_REACTORS
330
47
102
}
330
47
100
AcDbScale
 70
     0
300
1:40
140
1.0
141
40.0
290
     0
  0
SCALE
  5
52
102
{ACAD_REACTORS
330
47
102
}
330
47
100
AcDbScale
 70
     0
300
1:50
140
1.0
141
50.0
290
     0
  0
SCALE
  5
53
102
{ACAD_REACTORS
330
47
102
}
330
47
100
AcDbScale
 70
     0
300
1:100
140
1.0
141
100.0
290
     0
  0
SCALE
  5
54
102
{ACAD_REACTORS
330
47
102
}
330
47
100
AcDbScale
 70
     0
300
2:1
140
2.0
141
1.0
290
     0
  0
SCALE
  5
55
102
{ACAD_REACTORS
330
47
102
}
330
47
100
AcDbScale
 70
     0
300
4:1
140
4.0
141
1.0
290
     0
  0
SCALE
  5
56
102
{ACAD_REACTORS
330
47
102
}
330
47
100
AcDbScale
 70
     0
300
8:1
140
8.0
141
1.0
290
     0
  0
SCALE
  5
57
102
{ACAD_REACTORS
330
47
102
}
330
47
100
AcDbScale
 70
     0
300
10:1
140
10.0
141
1.0
290
     0
  0
SCALE
  5
58
102
{ACAD_REACTORS
330
47
102
}
330
47
100
AcDbScale
 70
     0
300
100:1
140
100.0
141
1.0
290
     0
  0
SCALE
  5
59
102
{ACAD_REACTORS
330
47
102
}
330
47
100
AcDbScale
 70
     0
300
1/128" = 1'-0"
140
0.0078125
141
12.0
290
     0
  0
SCALE
  5
5A
102
{ACAD_REACTORS
330
47
102
}
330
47
100
AcDbScale
 70
     0
300
1/64" = 1'-0"
140
0.015625
141
12.0
290
     0
  0
SCALE
  5
5B
102
{ACAD_REACTORS
330
47
102
}
330
47
100
AcDbScale
 70
     0
300
1/32" = 1'-0"
140
0.03125
141
12.0
290
     0
  0
SCALE
  5
5C
102
{ACAD_REACTORS
330
47
102
}
330
47
100
AcDbScale
 70
     0
300
1/16" = 1'-0"
140
0.0625
141
12.0
290
     0
  0
SCALE
  5
5D
102
{ACAD_REACTORS
330
47
102
}
330
47
100
AcDbScale
 70
     0
300
3/32" = 1'-0"
140
0.09375
141
12.0
290
     0
  0
SCALE
  5
5E
102
{ACAD_REACTORS
330
47
102
}
330
47
100
AcDbScale
 70
     0
300
1/8" = 1'-0"
140
0.125
141
12.0
290
     0
  0
SCALE
  5
5F
102
{ACAD_REACTORS
330
47
102
}
330
47
100
AcDbScale
 70
     0
300
3/16" = 1'-0"
140
0.1875
141
12.0
290
     0
  0
SCALE
  5
60
102
{ACAD_REACTORS
330
47
102
}
330
47
100
AcDbScale
 70
     0
300
1/4" = 1'-0"
140
0.25
141
12.0
290
     0
  0
SCALE
  5
61
102
{ACAD_REACTORS
330
47
102
}
330
47
100
AcDbScale
 70
     0
300
3/8" = 1'-0"
140
0.375
141
12.0
290
     0
  0
SCALE
  5
62
102
{ACAD_REACTORS
330
47
102
}
330
47
100
AcDbScale
 70
     0
300
1/2" = 1'-0"
140
0.5
141
12.0
290
     0
  0
SCALE
  5
63
102
{ACAD_REACTORS
330
47
102
}
330
47
100
AcDbScale
 70
     0
300
3/4" = 1'-0"
140
0.75
141
12.0
290
     0
  0
SCALE
  5
64
102
{ACAD_REACTORS
330
47
102
}
330
47
100
AcDbScale
 70
     0
300
1" = 1'-0"
140
1.0
141
12.0
290
     0
  0
SCALE
  5
65
102
{ACAD_REACTORS
330
47
102
}
330
47
100
AcDbScale
 70
     0
300
1-1/2" = 1'-0"
140
1.5
141
12.0
290
     0
  0
SCALE
  5
66
102
{ACAD_REACTORS
330
47
102
}
330
47
100
AcDbScale
 70
     0
300
3" = 1'-0"
140
3.0
141
12.0
290
     0
  0
SCALE
  5
67
102
{ACAD_REACTORS
330
47
102
}
330
47
100
AcDbScale
 70
     0
300
6" = 1'-0"
140
6.0
141
12.0
290
     0
  0
SCALE
  5
68
102
{ACAD_REACTORS
330
47
102
}
330
47
100
AcDbScale
 70
     0
300
1'-0" = 1'-0"
140
12.0
141
12.0
290
     0
  0
ENDSEC
  0
EOF
