  0
SECTION
  2
HEADER
  9
$ACADVER
  1
AC1015
  9
$ACADMAINTVER
 70
     6
  9
$DWGCODEPAGE
  3
ANSI_949
  9
$INSBASE
 10
0.0
 20
0.0
 30
0.0
  9
$EXTMIN
 10
-87.52247208812749
 20
-49.87471488395509
 30
0.0
  9
$EXTMAX
 10
105.8227028595371
 20
75.73475965011002
 30
0.0
  9
$LIMMIN
 10
0.0
 20
0.0
  9
$LIMMAX
 10
420.0
 20
297.0
  9
$ORTHOMODE
 70
     1
  9
$REGENMODE
 70
     1
  9
$FILLMODE
 70
     1
  9
$QTEXTMODE
 70
     0
  9
$MIRRTEXT
 70
     1
  9
$LTSCALE
 40
1.0
  9
$ATTMODE
 70
     1
  9
$TEXTSIZE
 40
3.5
  9
$TRACEWID
 40
1.0
  9
$TEXTSTYLE
  7
Standard
  9
$CLAYER
  8
0
  9
$CELTYPE
  6
ByLayer
  9
$CECOLOR
 62
   256
  9
$CELTSCALE
 40
1.0
  9
$DISPSILH
 70
     0
  9
$DIMSCALE
 40
1.0
  9
$DIMASZ
 40
3.302
  9
$DIMEXO
 40
1.0
  9
$DIMDLI
 40
3.75
  9
$DIMRND
 40
0.0
  9
$DIMDLE
 40
0.0
  9
$DIMEXE
 40
1.0
  9
$DIMTP
 40
0.0
  9
$DIMTM
 40
0.0
  9
$DIMTXT
 40
3.5
  9
$DIMCEN
 40
2.5
  9
$DIMTSZ
 40
0.0
  9
$DIMTOL
 70
     0
  9
$DIMLIM
 70
     0
  9
$DIMTIH
 70
     1
  9
$DIMTOH
 70
     1
  9
$DIMSE1
 70
     0
  9
$DIMSE2
 70
     0
  9
$DIMTAD
 70
     1
  9
$DIMZIN
 70
     0
  9
$DIMBLK
  1

  9
$DIMASO
 70
     1
  9
$DIMSHO
 70
     1
  9
$DIMPOST
  1

  9
$DIMAPOST
  1

  9
$DIMALT
 70
     0
  9
$DIMALTD
 70
     3
  9
$DIMALTF
 40
0.0393700787401575
  9
$DIMLFAC
 40
1.0
  9
$DIMTOFL
 70
     1
  9
$DIMTVP
 40
0.0
  9
$DIMTIX
 70
     0
  9
$DIMSOXD
 70
     0
  9
$DIMSAH
 70
     0
  9
$DIMBLK1
  1

  9
$DIMBLK2
  1

  9
$DIMSTYLE
  2
ISO-25
  9
$DIMCLRD
 70
     0
  9
$DIMCLRE
 70
     0
  9
$DIMCLRT
 70
     0
  9
$DIMTFAC
 40
1.0
  9
$DIMGAP
 40
1.524
  9
$DIMJUST
 70
     0
  9
$DIMSD1
 70
     0
  9
$DIMSD2
 70
     0
  9
$DIMTOLJ
 70
     0
  9
$DIMTZIN
 70
     0
  9
$DIMALTZ
 70
     0
  9
$DIMALTTZ
 70
     0
  9
$DIMUPT
 70
     0
  9
$DIMDEC
 70
     2
  9
$DIMTDEC
 70
     2
  9
$DIMALTU
 70
     2
  9
$DIMALTTD
 70
     3
  9
$DIMTXSTY
  7
Standard
  9
$DIMAUNIT
 70
     0
  9
$DIMADEC
 70
     2
  9
$DIMALTRND
 40
0.0
  9
$DIMAZIN
 70
     0
  9
$DIMDSEP
 70
    44
  9
$DIMATFIT
 70
     3
  9
$DIMFRAC
 70
     0
  9
$DIMLDRBLK
  1

  9
$DIMLUNIT
 70
     2
  9
$DIMLWD
 70
    -2
  9
$DIMLWE
 70
    -2
  9
$DIMTMOVE
 70
     0
  9
$LUNITS
 70
     2
  9
$LUPREC
 70
     2
  9
$SKETCHINC
 40
1.0
  9
$FILLETRAD
 40
10.0
  9
$AUNITS
 70
     0
  9
$AUPREC
 70
     2
  9
$MENU
  1
.
  9
$ELEVATION
 40
0.0
  9
$PELEVATION
 40
0.0
  9
$THICKNESS
 40
0.0
  9
$LIMCHECK
 70
     0
  9
$CHAMFERA
 40
0.0
  9
$CHAMFERB
 40
0.0
  9
$CHAMFERC
 40
0.0
  9
$CHAMFERD
 40
0.0
  9
$SKPOLY
 70
     0
  9
$TDCREATE
 40
2458269.416660718
  9
$TDUCREATE
 40
2458269.041660718
  9
$TDUPDATE
 40
2458270.514626273
  9
$TDUUPDATE
 40
2458270.139626273
  9
$TDINDWG
 40
0.0048700463
  9
$TDUSRTIMER
 40
2458270.137648785
  9
$USRTIMER
 70
     1
  9
$ANGBASE
 50
0.0
  9
$ANGDIR
 70
     0
  9
$PDMODE
 70
     0
  9
$PDSIZE
 40
-1.0
  9
$PLINEWID
 40
0.0
  9
$SPLFRAME
 70
     0
  9
$SPLINETYPE
 70
     6
  9
$SPLINESEGS
 70
     8
  9
$HANDSEED
  5
1AB
  9
$SURFTAB1
 70
     6
  9
$SURFTAB2
 70
     6
  9
$SURFTYPE
 70
     6
  9
$SURFU
 70
     6
  9
$SURFV
 70
     6
  9
$UCSBASE
  2

  9
$UCSNAME
  2

  9
$UCSORG
 10
0.0
 20
0.0
 30
0.0
  9
$UCSXDIR
 10
1.0
 20
0.0
 30
0.0
  9
$UCSYDIR
 10
0.0
 20
1.0
 30
0.0
  9
$UCSORTHOREF
  2

  9
$UCSORTHOVIEW
 70
     0
  9
$UCSORGTOP
 10
0.0
 20
0.0
 30
0.0
  9
$UCSORGBOTTOM
 10
0.0
 20
0.0
 30
0.0
  9
$UCSORGLEFT
 10
0.0
 20
0.0
 30
0.0
  9
$UCSORGRIGHT
 10
0.0
 20
0.0
 30
0.0
  9
$UCSORGFRONT
 10
0.0
 20
0.0
 30
0.0
  9
$UCSORGBACK
 10
0.0
 20
0.0
 30
0.0
  9
$PUCSBASE
  2

  9
$PUCSNAME
  2

  9
$PUCSORG
 10
0.0
 20
0.0
 30
0.0
  9
$PUCSXDIR
 10
1.0
 20
0.0
 30
0.0
  9
$PUCSYDIR
 10
0.0
 20
1.0
 30
0.0
  9
$PUCSORTHOREF
  2

  9
$PUCSORTHOVIEW
 70
     0
  9
$PUCSORGTOP
 10
0.0
 20
0.0
 30
0.0
  9
$PUCSORGBOTTOM
 10
0.0
 20
0.0
 30
0.0
  9
$PUCSORGLEFT
 10
0.0
 20
0.0
 30
0.0
  9
$PUCSORGRIGHT
 10
0.0
 20
0.0
 30
0.0
  9
$PUCSORGFRONT
 10
0.0
 20
0.0
 30
0.0
  9
$PUCSORGBACK
 10
0.0
 20
0.0
 30
0.0
  9
$USERI1
 70
     0
  9
$USERI2
 70
     0
  9
$USERI3
 70
     0
  9
$USERI4
 70
     0
  9
$USERI5
 70
     0
  9
$USERR1
 40
0.0
  9
$USERR2
 40
0.0
  9
$USERR3
 40
0.0
  9
$USERR4
 40
0.0
  9
$USERR5
 40
0.0
  9
$WORLDVIEW
 70
     1
  9
$SHADEDGE
 70
     3
  9
$SHADEDIF
 70
    70
  9
$TILEMODE
 70
     1
  9
$MAXACTVP
 70
    64
  9
$PINSBASE
 10
0.0
 20
0.0
 30
0.0
  9
$PLIMCHECK
 70
     0
  9
$PEXTMIN
 10
1.000000000000000E+20
 20
1.000000000000000E+20
 30
1.000000000000000E+20
  9
$PEXTMAX
 10
-1.000000000000000E+20
 20
-1.000000000000000E+20
 30
-1.000000000000000E+20
  9
$PLIMMIN
 10
0.0
 20
0.0
  9
$PLIMMAX
 10
0.0
 20
0.0
  9
$UNITMODE
 70
     0
  9
$VISRETAIN
 70
     1
  9
$PLINEGEN
 70
     0
  9
$PSLTSCALE
 70
     1
  9
$TREEDEPTH
 70
  3020
  9
$CMLSTYLE
  2
Standard
  9
$CMLJUST
 70
     0
  9
$CMLSCALE
 40
20.0
  9
$PROXYGRAPHICS
 70
     1
  9
$MEASUREMENT
 70
     1
  9
$CELWEIGHT
370
    -1
  9
$ENDCAPS
280
     0
  9
$JOINSTYLE
280
     0
  9
$LWDISPLAY
290
     1
  9
$INSUNITS
 70
     4
  9
$HYPERLINKBASE
  1

  9
$STYLESHEET
  1

  9
$XEDIT
290
     1
  9
$CEPSNTYPE
380
     0
  9
$PSTYLEMODE
290
     1
  9
$FINGERPRINTGUID
  2
{CF524E8B-6806-4D29-B9E8-0214A487CC23}
  9
$VERSIONGUID
  2
{FAEB1C32-E019-11D5-929B-00C0DF256EC4}
  9
$EXTNAMES
290
     1
  9
$PSVPSCALE
 40
0.0
  9
$OLESTARTUP
290
     0
  0
ENDSEC
  0
SECTION
  2
CLASSES
  0
CLASS
  1
ACDBDICTIONARYWDFLT
  2
AcDbDictionaryWithDefault
  3
ObjectDBX Classes
 90
        0
280
     0
281
     0
  0
CLASS
  1
VISUALSTYLE
  2
AcDbVisualStyle
  3
ObjectDBX Classes
 90
     4095
280
     0
281
     0
  0
CLASS
  1
MATERIAL
  2
AcDbMaterial
  3
ObjectDBX Classes
 90
     1153
280
     0
281
     0
  0
CLASS
  1
SCALE
  2
AcDbScale
  3
ObjectDBX Classes
 90
     1153
280
     0
281
     0
  0
CLASS
  1
SUN
  2
AcDbSun
  3
SCENEOE
 90
     1153
280
     0
281
     0
  0
CLASS
  1
ACDBPLACEHOLDER
  2
AcDbPlaceHolder
  3
ObjectDBX Classes
 90
        0
280
     0
281
     0
  0
CLASS
  1
LAYOUT
  2
AcDbLayout
  3
ObjectDBX Classes
 90
        0
280
     0
281
     0
  0
CLASS
  1
TABLESTYLE
  2
AcDbTableStyle
  3
ObjectDBX Classes
 90
     4095
280
     0
281
     0
  0
CLASS
  1
MLEADERSTYLE
  2
AcDbMLeaderStyle
  3
ACDB_MLEADERSTYLE_CLASS
 90
     4095
280
     0
281
     0
  0
CLASS
  1
RASTERVARIABLES
  2
AcDbRasterVariables
  3
ISM
 90
        0
280
     0
281
     0
  0
CLASS
  1
DIMASSOC
  2
AcDbDimAssoc
  3
"AcDbDimAssoc|Product Desc:     AcDim ARX App For Dimension|Company:          Autodesk, Inc.|WEB Address:      www.autodesk.com"
 90
        0
280
     0
281
     0
  0
ENDSEC
  0
SECTION
  2
TABLES
  0
TABLE
  2
VPORT
  5
8
330
0
100
AcDbSymbolTable
 70
     1
  0
VPORT
  5
29
330
8
100
AcDbSymbolTableRecord
100
AcDbViewportTableRecord
  2
*Active
 70
     0
 10
0.0
 20
0.0
 11
1.0
 21
1.0
 12
76.46869850103576
 22
8.719187762081692
 13
0.0
 23
0.0
 14
10.0
 24
10.0
 15
10.0
 25
10.0
 16
0.0
 26
0.0
 36
1.0
 17
0.0
 27
0.0
 37
0.0
 40
213.7920365236084
 41
1.970186335403727
 42
50.0
 43
0.0
 44
0.0
 50
0.0
 51
0.0
 71
    16
 72
  2000
 73
     1
 74
     3
 75
     0
 76
     0
 77
     0
 78
     0
281
     0
 65
     1
110
0.0
120
0.0
130
0.0
111
1.0
121
0.0
131
0.0
112
0.0
122
1.0
132
0.0
 79
     0
146
0.0
  0
ENDTAB
  0
TABLE
  2
LTYPE
  5
5
330
0
100
AcDbSymbolTable
 70
     6
  0
LTYPE
  5
14
330
5
100
AcDbSymbolTableRecord
100
AcDbLinetypeTableRecord
  2
ByBlock
 70
     0
  3

 72
    65
 73
     0
 40
0.0
  0
LTYPE
  5
15
330
5
100
AcDbSymbolTableRecord
100
AcDbLinetypeTableRecord
  2
ByLayer
 70
     0
  3

 72
    65
 73
     0
 40
0.0
  0
LTYPE
  5
16
330
5
100
AcDbSymbolTableRecord
100
AcDbLinetypeTableRecord
  2
Continuous
 70
     0
  3
Solid line
 72
    65
 73
     0
 40
0.0
  0
LTYPE
  5
6A
330
5
100
AcDbSymbolTableRecord
100
AcDbLinetypeTableRecord
  2
HIDDEN
 70
     0
  3
Hidden __ __ __ __ __ __ __ __ __ __ __ __ __ __
 72
    65
 73
     2
 40
1.905
 49
1.27
 74
     0
 49
-0.635
 74
     0
  0
LTYPE
  5
6B
330
5
100
AcDbSymbolTableRecord
100
AcDbLinetypeTableRecord
  2
PHANTOM
 70
     0
  3
Phantom ______  __  __  ______  __  __  ______
 72
    65
 73
     6
 40
12.7
 49
6.35
 74
     0
 49
-1.27
 74
     0
 49
1.27
 74
     0
 49
-1.27
 74
     0
 49
1.27
 74
     0
 49
-1.27
 74
     0
  0
LTYPE
  5
6C
330
5
100
AcDbSymbolTableRecord
100
AcDbLinetypeTableRecord
  2
CENTER
 70
     0
  3
Center ____ _ ____ _ ____ _ ____ _ ____ _ ____
 72
    65
 73
     4
 40
10.16
 49
6.35
 74
     0
 49
-1.27
 74
     0
 49
1.27
 74
     0
 49
-1.27
 74
     0
  0
LTYPE
  5
6D
330
5
100
AcDbSymbolTableRecord
100
AcDbLinetypeTableRecord
  2
CENTERX2
 70
     0
  3
Center (2x) ________  __  ________  __  _____
 72
    65
 73
     4
 40
20.32
 49
12.7
 74
     0
 49
-2.54
 74
     0
 49
2.54
 74
     0
 49
-2.54
 74
     0
  0
LTYPE
  5
6E
330
5
100
AcDbSymbolTableRecord
100
AcDbLinetypeTableRecord
  2
DOT2
 70
     0
  3
Dot (.5x) ........................................
 72
    65
 73
     2
 40
0.635
 49
0.0
 74
     0
 49
-0.635
 74
     0
  0
ENDTAB
  0
TABLE
  2
LAYER
  5
2
330
0
100
AcDbSymbolTable
 70
    17
  0
LAYER
  5
10
330
2
100
AcDbSymbolTableRecord
100
AcDbLayerTableRecord
  2
0
 70
     0
 62
     7
  6
Continuous
370
    -3
390
F
  0
LAYER
  5
6F
330
2
100
AcDbSymbolTableRecord
100
AcDbLayerTableRecord
  2
FORMAT
 70
     0
 62
     2
  6
Continuous
370
    -3
390
F
  0
LAYER
  5
70
330
2
100
AcDbSymbolTableRecord
100
AcDbLayerTableRecord
  2
외형선
 70
     0
 62
   100
  6
Continuous
370
    30
390
F
  0
LAYER
  5
71
330
2
100
AcDbSymbolTableRecord
100
AcDbLayerTableRecord
  2
숨은선
 70
     0
 62
     2
  6
HIDDEN
370
    15
390
F
  0
LAYER
  5
72
330
2
100
AcDbSymbolTableRecord
100
AcDbLayerTableRecord
  2
중심선
 70
     0
 62
     1
  6
CENTERX2
370
    -3
390
F
  0
LAYER
  5
73
330
2
100
AcDbSymbolTableRecord
100
AcDbLayerTableRecord
  2
파단선
 70
     0
 62
     4
  6
Continuous
370
    -3
390
F
  0
LAYER
  5
74
330
2
100
AcDbSymbolTableRecord
100
AcDbLayerTableRecord
  2
해칭선
 70
     0
 62
     4
  6
Continuous
370
    -3
390
F
  0
LAYER
  5
75
330
2
100
AcDbSymbolTableRecord
100
AcDbLayerTableRecord
  2
가는실선
 70
     0
 62
     4
  6
Continuous
370
    -3
390
F
  0
LAYER
  5
76
330
2
100
AcDbSymbolTableRecord
100
AcDbLayerTableRecord
  2
치수_보조선
 70
     0
 62
     4
  6
Continuous
370
    -3
390
F
  0
LAYER
  5
77
330
2
100
AcDbSymbolTableRecord
100
AcDbLayerTableRecord
  2
치수문자_일반주서
 70
     0
 62
     7
  6
Continuous
370
    15
390
F
  0
LAYER
  5
78
330
2
100
AcDbSymbolTableRecord
100
AcDbLayerTableRecord
  2
개별주서
 70
     0
 62
   100
  6
Continuous
370
    30
390
F
  0
LAYER
  5
79
330
2
100
AcDbSymbolTableRecord
100
AcDbLayerTableRecord
  2
중간선
 70
     0
 62
     2
  6
Continuous
370
    15
390
F
  0
LAYER
  5
7A
330
2
100
AcDbSymbolTableRecord
100
AcDbLayerTableRecord
  2
윤곽선
 70
     0
 62
     3
  6
Continuous
370
    40
390
F
  0
LAYER
  5
7B
330
2
100
AcDbSymbolTableRecord
100
AcDbLayerTableRecord
  2
중심마크
 70
     0
 62
   100
  6
Continuous
370
    30
390
F
  0
LAYER
  5
7C
330
2
100
AcDbSymbolTableRecord
100
AcDbLayerTableRecord
  2
가상선
 70
     0
 62
     4
  6
PHANTOM
370
    -3
390
F
  0
LAYER
  5
7D
330
2
100
AcDbSymbolTableRecord
100
AcDbLayerTableRecord
  2
특수지정선
 70
     0
 62
     5
  6
CENTERX2
370
    60
390
F
  0
LAYER
  5
15F
330
2
100
AcDbSymbolTableRecord
100
AcDbLayerTableRecord
  2
Defpoints
 70
     0
 62
     7
  6
Continuous
290
     0
370
    -3
390
F
  0
ENDTAB
  0
TABLE
  2
STYLE
  5
3
330
0
100
AcDbSymbolTable
 70
     2
  0
STYLE
  5
11
330
3
100
AcDbSymbolTableRecord
100
AcDbTextStyleTableRecord
  2
Standard
 70
     0
 40
0.0
 41
1.0
 50
0.0
 71
     0
 42
3.5
  3
txt
  4

  0
STYLE
  5
93
330
3
100
AcDbSymbolTableRecord
100
AcDbTextStyleTableRecord
  2
SLDTEXTSTYLE0
 70
     0
 40
0.0
 41
0.75
 50
0.0
 71
     0
 42
3.5
  3
TXT
  4

  0
ENDTAB
  0
TABLE
  2
VIEW
  5
6
330
0
100
AcDbSymbolTable
 70
     0
  0
ENDTAB
  0
TABLE
  2
UCS
  5
7
330
0
100
AcDbSymbolTable
 70
     0
  0
ENDTAB
  0
TABLE
  2
APPID
  5
9
330
0
100
AcDbSymbolTable
 70
     3
  0
APPID
  5
12
330
9
100
AcDbSymbolTableRecord
100
AcDbRegAppTableRecord
  2
ACAD
 70
     0
  0
APPID
  5
170
330
9
100
AcDbSymbolTableRecord
100
AcDbRegAppTableRecord
  2
ACAD_DSTYLE_DIMRADIAL_EXTENSION
 70
     0
  0
APPID
  5
17F
330
9
100
AcDbSymbolTableRecord
100
AcDbRegAppTableRecord
  2
PE_DIMMEASUREMENT
 70
     0
  0
ENDTAB
  0
TABLE
  2
DIMSTYLE
  5
A
330
0
100
AcDbSymbolTable
 70
     4
100
AcDbDimStyleTable
  0
DIMSTYLE
105
27
330
A
100
AcDbSymbolTableRecord
100
AcDbDimStyleTableRecord
  2
ISO-25
 70
     0
 41
2.5
 42
0.625
 43
3.75
 44
1.25
 73
     0
 74
     0
 77
     1
 78
     8
140
2.5
141
2.5
143
0.03937007874016
147
0.625
171
     3
172
     1
178
     0
271
     2
272
     2
274
     3
278
    44
283
     0
284
     8
340
11
  0
DIMSTYLE
105
DC
102
{ACAD_REACTORS
330
DB
102
}
330
A
100
AcDbSymbolTableRecord
100
AcDbDimStyleTableRecord
  2
SLDDIMSTYLE0
 70
     0
 41
3.302
 44
0.0
 45
0.000000001
 73
     0
 74
     0
 77
     1
 78
     4
 79
     1
140
3.5
143
0.0393700787401575
147
0.875
148
0.000000001
170
     1
172
     1
173
     1
178
     0
271
     2
272
     2
276
     2
284
    12
289
     0
340
93
  0
DIMSTYLE
105
F2
102
{ACAD_REACTORS
330
F1
330
11A
330
171
330
160
102
}
330
A
100
AcDbSymbolTableRecord
100
AcDbDimStyleTableRecord
  2
SLDDIMSTYLE1
 70
     0
 41
3.302
 44
0.0
 45
0.000000001
 73
     0
 74
     0
 77
     1
 78
    12
 79
     3
140
3.5
143
0.0393700787401575
147
0.875
148
0.000000001
170
     1
173
     1
178
     0
271
     2
272
     2
276
     2
284
    12
340
93
  0
DIMSTYLE
105
106
102
{ACAD_REACTORS
330
105
102
}
330
A
100
AcDbSymbolTableRecord
100
AcDbDimStyleTableRecord
  2
SLDDIMSTYLE2
 70
     0
 41
3.302
 44
0.0
 45
0.000000001
 73
     0
 74
     0
 77
     1
 78
    12
 79
     3
140
3.5
143
0.0393700787401575
147
0.875
148
0.000000001
170
     1
172
     1
173
     1
178
     0
271
     2
272
     2
276
     2
284
    12
289
     0
340
93
  0
ENDTAB
  0
TABLE
  2
BLOCK_RECORD
  5
1
330
0
100
AcDbSymbolTable
 70
     9
  0
BLOCK_RECORD
  5
1F
330
1
100
AcDbSymbolTableRecord
100
AcDbBlockTableRecord
  2
*Model_Space
340
22
  0
BLOCK_RECORD
  5
1B
330
1
100
AcDbSymbolTableRecord
100
AcDbBlockTableRecord
  2
*Paper_Space
340
1E
  0
BLOCK_RECORD
  5
23
330
1
100
AcDbSymbolTableRecord
100
AcDbBlockTableRecord
  2
*Paper_Space0
340
26
  0
BLOCK_RECORD
  5
7E
330
1
100
AcDbSymbolTableRecord
100
AcDbBlockTableRecord
  2
블럭10
340
0
102
{BLKREFS
331
D2
102
}
  0
BLOCK_RECORD
  5
DD
330
1
100
AcDbSymbolTableRecord
100
AcDbBlockTableRecord
  2
_D
340
0
  0
BLOCK_RECORD
  5
F3
330
1
100
AcDbSymbolTableRecord
100
AcDbBlockTableRecord
  2
_D_1
340
0
  0
BLOCK_RECORD
  5
107
330
1
100
AcDbSymbolTableRecord
100
AcDbBlockTableRecord
  2
_D_2
340
0
  0
BLOCK_RECORD
  5
11B
330
1
100
AcDbSymbolTableRecord
100
AcDbBlockTableRecord
  2
_D_3
340
0
  0
BLOCK_RECORD
  5
12D
330
1
100
AcDbSymbolTableRecord
100
AcDbBlockTableRecord
  2
SW_DOWELSYMBOL_0
340
0
102
{BLKREFS
331
133
102
}
  0
BLOCK_RECORD
  5
163
330
1
100
AcDbSymbolTableRecord
100
AcDbBlockTableRecord
  2
*D7
340
0
  0
BLOCK_RECORD
  5
174
330
1
100
AcDbSymbolTableRecord
100
AcDbBlockTableRecord
  2
*D8
340
0
  0
ENDTAB
  0
ENDSEC
  0
SECTION
  2
BLOCKS
  0
BLOCK
  5
20
330
1F
100
AcDbEntity
  8
0
100
AcDbBlockBegin
  2
*Model_Space
 70
     0
 10
0.0
 20
0.0
 30
0.0
  3
*Model_Space
  1
*Model_Space
  0
ENDBLK
  5
21
330
1F
100
AcDbEntity
  8
0
100
AcDbBlockEnd
  0
BLOCK
  5
1C
330
1B
100
AcDbEntity
 67
     1
  8
0
100
AcDbBlockBegin
  2
*Paper_Space
 70
     0
 10
0.0
 20
0.0
 30
0.0
  3
*Paper_Space
  1
*Paper_Space
  0
ENDBLK
  5
1D
330
1B
100
AcDbEntity
 67
     1
  8
0
100
AcDbBlockEnd
  0
BLOCK
  5
24
330
23
100
AcDbEntity
  8
0
100
AcDbBlockBegin
  2
*Paper_Space0
 70
     0
 10
0.0
 20
0.0
 30
0.0
  3
*Paper_Space0
  1
*Paper_Space0
  0
ENDBLK
  5
25
330
23
100
AcDbEntity
  8
0
100
AcDbBlockEnd
  0
BLOCK
  5
7F
330
7E
100
AcDbEntity
  8
0
100
AcDbBlockBegin
  2
블럭10
 70
     2
 10
0.0
 20
0.0
 30
0.0
  3
블럭10
  1
블럭10
  0
ELLIPSE
  5
81
330
7E
100
AcDbEntity
  8
중심선
100
AcDbEllipse
 10
20.54032771741204
 20
12.0471743016438
 30
0.0
 11
6.600054785286829
 21
-1.261213355974178E-13
 31
0.0
210
0.0
220
0.0
230
1.0
 40
0.636358354079598
 41
0.9219305317359503
 42
6.513795318482858
  0
ELLIPSE
  5
82
330
7E
100
AcDbEntity
  8
중심선
100
AcDbEllipse
 10
20.54032771746488
 20
12.04717430159265
 30
0.0
 11
3.960054785062283
 21
1.540847449632565E-10
 31
0.0
210
0.0
220
0.0
230
1.0
 40
0.3939339440162632
 41
1.131841032648279
 42
5.62031148352944
  0
LINE
  5
83
330
7E
100
AcDbEntity
  8
중심선
100
AcDbLine
 10
2.268634060543552
 20
16.24717430164393
 30
0.0
 11
5.714909304380834
 21
16.24717430164393
 31
0.0
  0
LINE
  5
84
330
7E
100
AcDbEntity
  8
중심선
100
AcDbLine
 10
5.245725140726316
 20
7.84717430164391
 30
0.0
 11
8.692000384563599
 21
7.84717430164391
 31
0.0
  0
LINE
  5
85
330
7E
100
AcDbEntity
  8
중심선
100
AcDbLine
 10
15.74043728645272
 20
16.24717430164393
 30
0.0
 11
8.692000384563599
 21
7.84717430164391
 31
0.0
  0
LINE
  5
86
330
7E
100
AcDbEntity
  8
중심선
100
AcDbLine
 10
0.1404042013395286
 20
13.71084872107135
 30
0.0
 11
3.58671253028996
 21
13.71088815037384
 31
0.0
  0
LINE
  5
87
330
7E
100
AcDbEntity
  8
중심선
100
AcDbLine
 10
2.750260043222114
 20
10.84717430164391
 30
0.0
 11
6.196535287059397
 21
10.84717430164391
 31
0.0
  0
LINE
  5
88
330
7E
100
AcDbEntity
  8
중심선
100
AcDbLine
 10
12.29416204261559
 20
16.24717430164393
 30
0.0
 11
5.245725140726316
 21
7.84717430164391
 31
0.0
  0
LINE
  5
89
330
7E
100
AcDbEntity
  8
중심선
100
AcDbLine
 10
10.72767329541681
 20
16.24717430164393
 30
0.0
 11
6.196535287059397
 21
10.84717430164391
 31
0.0
  0
LINE
  5
8A
330
7E
100
AcDbEntity
  8
중심선
100
AcDbLine
 10
7.28139805157953
 20
16.24717430164393
 30
0.0
 11
2.750260043222114
 21
10.84717430164391
 31
0.0
  0
LINE
  5
8B
330
7E
100
AcDbEntity
  8
중심선
100
AcDbLine
 10
5.714909304380834
 20
16.24717430164393
 30
0.0
 11
3.58671253028996
 21
13.71088815037384
 31
0.0
  0
LINE
  5
8C
330
7E
100
AcDbEntity
  8
중심선
100
AcDbLine
 10
2.268634060543552
 20
16.24717430164393
 30
0.0
 11
0.1404042013395286
 21
13.71084872107135
 31
0.0
  0
LINE
  5
8D
330
7E
100
AcDbEntity
  8
중심선
100
AcDbLine
 10
7.28139805157953
 20
16.24717430164393
 30
0.0
 11
10.72767329541681
 21
16.24717430164393
 31
0.0
  0
LINE
  5
8E
330
7E
100
AcDbEntity
  8
중심선
100
AcDbLine
 10
12.29416204261559
 20
16.24717430164393
 30
0.0
 11
15.74043728645272
 21
16.24717430164393
 31
0.0
  0
LINE
  5
8F
330
7E
100
AcDbEntity
  8
중심선
100
AcDbLine
 10
19.22036997980202
 20
11.08717430171403
 30
0.0
 11
23.66174974927406
 21
11.08717430171406
 31
0.0
  0
LINE
  5
90
330
7E
100
AcDbEntity
  8
중심선
100
AcDbLine
 10
19.22039502424796
 20
13.00717430171391
 30
0.0
 11
19.22036997980202
 21
11.08717430171403
 31
0.0
  0
LINE
  5
91
330
7E
100
AcDbEntity
  8
중심선
100
AcDbLine
 10
19.22039502424796
 20
13.00717430171391
 30
0.0
 11
26.96566020931264
 21
13.00717430171391
 31
0.0
  0
LINE
  5
92
330
7E
100
AcDbEntity
  8
중심선
100
AcDbLine
 10
22.22332737316547
 20
13.45928029700563
 30
0.0
 11
24.52862924686651
 21
15.39360700705356
 31
0.0
  0
ATTDEF
  5
94
330
7E
100
AcDbEntity
  8
FORMAT
 62
     2
100
AcDbText
 10
-9.18129528874128
 20
2.075366912832191
 30
0.0
 40
4.233333333333333
  1
E5985048 [ 3 FLUTE ]
 41
0.75
  7
SLDTEXTSTYLE0
 11
-9.18129528874128
 21
-0.0412997538344756
 31
0.0
100
AcDbAttributeDefinition
  3

  2
AUTOATTR0
 70
     0
 74
     1
  0
ENDBLK
  5
80
330
7E
100
AcDbEntity
  8
0
100
AcDbBlockEnd
  0
BLOCK
  5
DE
330
DD
100
AcDbEntity
  8
0
100
AcDbBlockBegin
  2
_D
 70
     0
 10
0.0
 20
0.0
 30
0.0
  3
_D
  1
_D
  0
LINE
  5
E0
330
DD
100
AcDbEntity
  8
치수문자_일반주서
 62
     0
370
    -2
100
AcDbLine
 10
83.0580000736853
 20
9.587500000000007
 30
0.0
 11
83.0580000736853
 21
31.72501421023316
 31
0.0
  0
LINE
  5
E1
330
DD
100
AcDbEntity
  8
치수문자_일반주서
 62
     0
370
    -2
100
AcDbLine
 10
57.65800007368529
 20
9.581720872049733
 30
0.0
 11
57.65800007368529
 21
31.72501421023316
 31
0.0
  0
LINE
  5
E2
330
DD
100
AcDbEntity
  8
치수문자_일반주서
 62
     0
370
    -2
100
AcDbLine
 10
79.7560000736853
 20
31.72501421023316
 30
0.0
 11
60.96000007368529
 21
31.72501421023316
 31
0.0
  0
SOLID
  5
E3
330
DD
100
AcDbEntity
  8
치수문자_일반주서
 62
     0
100
AcDbTrace
 10
79.7560000736853
 20
31.17468087689982
 30
0.0
 11
79.7560000736853
 21
32.27534754356649
 31
0.0
 12
83.0580000736853
 22
31.72501421023316
 32
0.0
 13
83.0580000736853
 23
31.72501421023316
 33
0.0
  0
SOLID
  5
E4
330
DD
100
AcDbEntity
  8
치수문자_일반주서
 62
     0
100
AcDbTrace
 10
60.96000007368529
 20
32.27534754356649
 30
0.0
 11
60.96000007368529
 21
31.17468087689982
 31
0.0
 12
57.65800007368529
 22
31.72501421023316
 32
0.0
 13
57.65800007368529
 23
31.72501421023316
 33
0.0
  0
MTEXT
  5
E5
330
DD
100
AcDbEntity
  8
치수문자_일반주서
 62
     0
100
AcDbMText
 10
70.3580000736853
 20
36.10001421023316
 30
0.0
 40
3.5
 41
0.0
 71
     2
 72
     1
  1
\A1;25.40 [1]
  7
SLDTEXTSTYLE0
 73
     1
 44
1.0
  0
POINT
  5
E6
330
DD
100
AcDbEntity
  8
Defpoints
 62
     0
100
AcDbPoint
 10
83.0580000736853
 20
9.525000000000007
 30
0.0
  0
POINT
  5
E7
330
DD
100
AcDbEntity
  8
Defpoints
 62
     0
100
AcDbPoint
 10
57.65800007368529
 20
9.519220872049733
 30
0.0
  0
POINT
  5
E8
330
DD
100
AcDbEntity
  8
Defpoints
 62
     0
100
AcDbPoint
 10
57.65800007368529
 20
31.72501421023316
 30
0.0
  0
ENDBLK
  5
DF
330
DD
100
AcDbEntity
  8
0
100
AcDbBlockEnd
  0
BLOCK
  5
F4
330
F3
100
AcDbEntity
  8
0
100
AcDbBlockBegin
  2
_D_1
 70
     0
 10
0.0
 20
0.0
 30
0.0
  3
_D_1
  1
_D_1
  0
LINE
  5
F6
330
F3
100
AcDbEntity
  8
치수문자_일반주서
 62
     0
370
    -2
100
AcDbLine
 10
83.0580000736853
 20
9.587500000000007
 30
0.0
 11
83.05800007368529
 21
71.35975965011002
 31
0.0
  0
LINE
  5
F7
330
F3
100
AcDbEntity
  8
치수문자_일반주서
 62
     0
370
    -2
100
AcDbLine
 10
-69.34199992631474
 20
9.087499999999999
 30
0.0
 11
-69.34199992631476
 21
71.35975965011002
 31
0.0
  0
LINE
  5
F8
330
F3
100
AcDbEntity
  8
치수문자_일반주서
 62
     0
370
    -2
100
AcDbLine
 10
79.75600007368529
 20
71.35975965011002
 30
0.0
 11
-66.03999992631475
 21
71.35975965011002
 31
0.0
  0
SOLID
  5
F9
330
F3
100
AcDbEntity
  8
치수문자_일반주서
 62
     0
100
AcDbTrace
 10
79.75600007368529
 20
70.8094263167767
 30
0.0
 11
79.75600007368529
 21
71.91009298344335
 31
0.0
 12
83.05800007368529
 22
71.35975965011002
 32
0.0
 13
83.05800007368529
 23
71.35975965011002
 33
0.0
  0
SOLID
  5
FA
330
F3
100
AcDbEntity
  8
치수문자_일반주서
 62
     0
100
AcDbTrace
 10
-66.03999992631475
 20
71.91009298344335
 30
0.0
 11
-66.03999992631475
 21
70.8094263167767
 31
0.0
 12
-69.34199992631476
 22
71.35975965011002
 32
0.0
 13
-69.34199992631476
 23
71.35975965011002
 33
0.0
  0
MTEXT
  5
FB
330
F3
100
AcDbEntity
  8
치수문자_일반주서
 62
     0
100
AcDbMText
 10
6.858000073685261
 20
75.73475965011002
 30
0.0
 40
3.5
 41
0.0
 71
     2
 72
     1
  1
\A1;152.4 [6]
  7
SLDTEXTSTYLE0
 73
     1
 44
1.0
  0
POINT
  5
FC
330
F3
100
AcDbEntity
  8
Defpoints
 62
     0
100
AcDbPoint
 10
83.0580000736853
 20
9.525000000000007
 30
0.0
  0
POINT
  5
FD
330
F3
100
AcDbEntity
  8
Defpoints
 62
     0
100
AcDbPoint
 10
-69.34199992631474
 20
9.024999999999999
 30
0.0
  0
POINT
  5
FE
330
F3
100
AcDbEntity
  8
Defpoints
 62
     0
100
AcDbPoint
 10
-69.34199992631474
 20
71.35975965011002
 30
0.0
  0
ENDBLK
  5
F5
330
F3
100
AcDbEntity
  8
0
100
AcDbBlockEnd
  0
BLOCK
  5
108
330
107
100
AcDbEntity
  8
0
100
AcDbBlockBegin
  2
_D_2
 70
     0
 10
0.0
 20
0.0
 30
0.0
  3
_D_2
  1
_D_2
  0
LINE
  5
10A
330
107
100
AcDbEntity
  8
치수문자_일반주서
 62
     0
370
    -2
100
AcDbLine
 10
-68.90449992631474
 20
9.525
 30
0.0
 11
-83.14747208812736
 21
9.524999999999945
 31
0.0
  0
LINE
  5
10B
330
107
100
AcDbEntity
  8
치수문자_일반주서
 62
     0
370
    -2
100
AcDbLine
 10
-68.90449992631474
 20
-9.524999999999999
 30
0.0
 11
-83.14747208812729
 21
-9.525000000000048
 31
0.0
  0
LINE
  5
10C
330
107
100
AcDbEntity
  8
치수문자_일반주서
 62
     0
370
    -2
100
AcDbLine
 10
-83.14747208812736
 20
9.524999999999945
 30
0.0
 11
-83.1474720881275
 21
44.56649999999995
 31
0.0
  0
LINE
  5
10D
330
107
100
AcDbEntity
  8
치수문자_일반주서
 62
     0
370
    -2
100
AcDbLine
 10
-83.14747208812736
 20
9.524999999999945
 30
0.0
 11
-83.14747208812729
 21
-9.525000000000048
 31
0.0
  0
LINE
  5
10E
330
107
100
AcDbEntity
  8
치수문자_일반주서
 62
     0
370
    -2
100
AcDbLine
 10
-83.14747208812737
 20
12.82699999999994
 30
0.0
 11
-83.14747208812739
 21
16.12899999999994
 31
0.0
  0
LINE
  5
10F
330
107
100
AcDbEntity
  8
치수문자_일반주서
 62
     0
370
    -2
100
AcDbLine
 10
-83.14747208812727
 20
-12.82700000000005
 30
0.0
 11
-83.14747208812726
 21
-16.12900000000005
 31
0.0
  0
SOLID
  5
110
330
107
100
AcDbEntity
  8
치수문자_일반주서
 62
     0
100
AcDbTrace
 10
-83.6978054214607
 20
12.82699999999994
 30
0.0
 11
-82.59713875479405
 21
12.82699999999995
 31
0.0
 12
-83.14747208812736
 22
9.524999999999945
 32
0.0
 13
-83.14747208812736
 23
9.524999999999945
 33
0.0
  0
SOLID
  5
111
330
107
100
AcDbEntity
  8
치수문자_일반주서
 62
     0
100
AcDbTrace
 10
-82.59713875479395
 20
-12.82700000000005
 30
0.0
 11
-83.6978054214606
 21
-12.82700000000005
 31
0.0
 12
-83.14747208812729
 22
-9.525000000000048
 32
0.0
 13
-83.14747208812729
 23
-9.525000000000048
 33
0.0
  0
MTEXT
  5
112
330
107
100
AcDbEntity
  8
치수문자_일반주서
 62
     0
100
AcDbMText
 10
-87.52247208812744
 20
30.78524999999993
 30
0.0
 40
3.5
 41
0.0
 71
     2
 72
     1
  1
\A1;%%c19.05 [3/4]
  7
SLDTEXTSTYLE0
 11
-3.729883127349607E-15
 21
1.0
 31
0.0
 73
     1
 44
1.0
  0
POINT
  5
113
330
107
100
AcDbEntity
  8
Defpoints
 62
     0
100
AcDbPoint
 10
-68.84199992631474
 20
9.525
 30
0.0
  0
POINT
  5
114
330
107
100
AcDbEntity
  8
Defpoints
 62
     0
100
AcDbPoint
 10
-68.84199992631474
 20
-9.524999999999999
 30
0.0
  0
POINT
  5
115
330
107
100
AcDbEntity
  8
Defpoints
 62
     0
100
AcDbPoint
 10
-83.1474720881273
 20
-9.525000000000052
 30
0.0
  0
ENDBLK
  5
109
330
107
100
AcDbEntity
  8
0
100
AcDbBlockEnd
  0
BLOCK
  5
11C
330
11B
100
AcDbEntity
  8
0
100
AcDbBlockBegin
  2
_D_3
 70
     0
 10
0.0
 20
0.0
 30
0.0
  3
_D_3
  1
_D_3
  0
LINE
  5
11E
330
11B
100
AcDbEntity
  8
치수문자_일반주서
 62
     0
370
    -2
100
AcDbLine
 10
0.5080000000000098
 20
9.0795
 30
0.0
 11
0.5080000000000098
 21
56.37259778227563
 31
0.0
  0
LINE
  5
11F
330
11B
100
AcDbEntity
  8
치수문자_일반주서
 62
     0
370
    -2
100
AcDbLine
 10
83.0580000736853
 20
9.587500000000007
 30
0.0
 11
83.0580000736853
 21
56.37259778227563
 31
0.0
  0
LINE
  5
120
330
11B
100
AcDbEntity
  8
치수문자_일반주서
 62
     0
370
    -2
100
AcDbLine
 10
3.81000000000001
 20
56.37259778227563
 30
0.0
 11
79.7560000736853
 21
56.37259778227563
 31
0.0
  0
SOLID
  5
121
330
11B
100
AcDbEntity
  8
치수문자_일반주서
 62
     0
100
AcDbTrace
 10
3.81000000000001
 20
56.92293111560897
 30
0.0
 11
3.81000000000001
 21
55.8222644489423
 31
0.0
 12
0.5080000000000098
 22
56.37259778227563
 32
0.0
 13
0.5080000000000098
 23
56.37259778227563
 33
0.0
  0
SOLID
  5
122
330
11B
100
AcDbEntity
  8
치수문자_일반주서
 62
     0
100
AcDbTrace
 10
79.7560000736853
 20
55.8222644489423
 30
0.0
 11
79.7560000736853
 21
56.92293111560897
 31
0.0
 12
83.0580000736853
 22
56.37259778227563
 32
0.0
 13
83.0580000736853
 23
56.37259778227563
 33
0.0
  0
MTEXT
  5
123
330
11B
100
AcDbEntity
  8
치수문자_일반주서
 62
     0
100
AcDbMText
 10
47.78661660662188
 20
60.74759778227563
 30
0.0
 40
3.5
 41
0.0
 71
     2
 72
     1
  1
\A1;82.55 [3 1/4]
  7
SLDTEXTSTYLE0
 73
     1
 44
1.0
  0
POINT
  5
124
330
11B
100
AcDbEntity
  8
Defpoints
 62
     0
100
AcDbPoint
 10
0.5080000000000098
 20
9.017
 30
0.0
  0
POINT
  5
125
330
11B
100
AcDbEntity
  8
Defpoints
 62
     0
100
AcDbPoint
 10
83.0580000736853
 20
9.525000000000007
 30
0.0
  0
POINT
  5
126
330
11B
100
AcDbEntity
  8
Defpoints
 62
     0
100
AcDbPoint
 10
83.0580000736853
 20
56.37259778227563
 30
0.0
  0
ENDBLK
  5
11D
330
11B
100
AcDbEntity
  8
0
100
AcDbBlockEnd
  0
BLOCK
  5
12E
330
12D
100
AcDbEntity
  8
0
100
AcDbBlockBegin
  2
SW_DOWELSYMBOL_0
 70
     0
 10
0.0
 20
0.0
 30
0.0
  3
SW_DOWELSYMBOL_0
  1
SW_DOWELSYMBOL_0
  0
CIRCLE
  5
130
330
12D
100
AcDbEntity
  8
외형선
 62
     0
100
AcDbCircle
 10
0.0
 20
0.0
 30
0.0
 40
3.000000000000008
  0
HATCH
  5
131
330
12D
100
AcDbEntity
  8
0
  6
Continuous
 62
     0
370
    30
100
AcDbHatch
 10
0.0
 20
0.0
 30
0.0
210
0.0
220
0.0
230
1.0
  2
SOLID
 70
     1
 71
     0
 91
        1
 92
        0
 93
        3
 72
     2
 10
0.0
 20
0.0
 40
3.000000000000008
 50
0.0
 51
90.0
 73
     1
 72
     1
 10
0.0
 20
3.000000000000008
 11
0.0
 21
0.0
 72
     1
 10
0.0
 20
0.0
 11
3.00000000000001
 21
0.0
 97
        0
 75
     0
 76
     1
 98
        1
 10
0.0
 20
0.0
  0
HATCH
  5
132
330
12D
100
AcDbEntity
  8
0
  6
Continuous
 62
     0
370
    30
100
AcDbHatch
 10
0.0
 20
0.0
 30
0.0
210
0.0
220
0.0
230
1.0
  2
SOLID
 70
     1
 71
     0
 91
        1
 92
        0
 93
        3
 72
     2
 10
0.0
 20
0.0
 40
3.000000000000008
 50
180.0
 51
270.0000000000007
 73
     1
 72
     1
 10
0.0
 20
-3.000000000000008
 11
0.0
 21
0.0
 72
     1
 10
0.0
 20
0.0
 11
-3.00000000000001
 21
0.0
 97
        0
 75
     0
 76
     1
 98
        1
 10
0.0
 20
0.0
  0
ENDBLK
  5
12F
330
12D
100
AcDbEntity
  8
0
100
AcDbBlockEnd
  0
BLOCK
  5
164
330
163
100
AcDbEntity
  8
0
100
AcDbBlockBegin
  2
*D7
 70
     1
 10
0.0
 20
0.0
 30
0.0
  3
*D7
  1
*D7
  0
LINE
  5
166
330
163
100
AcDbEntity
  8
치수문자_일반주서
 62
     0
370
    -2
100
AcDbLine
 10
83.12050007368529
 20
-9.525000000000007
 30
0.0
 11
98.42409375179616
 21
-9.525000000000006
 31
0.0
  0
LINE
  5
167
330
163
100
AcDbEntity
  8
치수문자_일반주서
 62
     0
370
    -2
100
AcDbLine
 10
83.1205000736853
 20
9.525000000000007
 30
0.0
 11
98.42409375179616
 21
9.525000000000006
 31
0.0
  0
LINE
  5
168
330
163
100
AcDbEntity
  8
치수문자_일반주서
 62
     0
370
    -2
100
AcDbLine
 10
98.42409375179616
 20
9.525000000000006
 30
0.0
 11
98.42409375179616
 21
40.38950000000001
 31
0.0
  0
LINE
  5
169
330
163
100
AcDbEntity
  8
치수문자_일반주서
 62
     0
370
    -2
100
AcDbLine
 10
98.42409375179616
 20
-6.223000000000006
 30
0.0
 11
98.42409375179616
 21
6.223000000000006
 31
0.0
  0
SOLID
  5
16A
330
163
100
AcDbEntity
  8
치수문자_일반주서
 62
     0
100
AcDbTrace
 10
97.87376041846284
 20
-6.223000000000006
 30
0.0
 11
98.97442708512949
 21
-6.223000000000006
 31
0.0
 12
98.42409375179616
 22
-9.525000000000006
 32
0.0
 13
98.42409375179616
 23
-9.525000000000006
 33
0.0
  0
SOLID
  5
16B
330
163
100
AcDbEntity
  8
치수문자_일반주서
 62
     0
100
AcDbTrace
 10
98.97442708512949
 20
6.223000000000006
 30
0.0
 11
97.87376041846284
 21
6.223000000000006
 31
0.0
 12
98.42409375179616
 22
9.525000000000006
 32
0.0
 13
98.42409375179616
 23
9.525000000000006
 33
0.0
  0
MTEXT
  5
16C
330
163
100
AcDbEntity
  8
치수문자_일반주서
 62
     0
100
AcDbMText
 10
95.79909375179616
 20
26.60825000000001
 30
0.0
 40
3.5
 41
0.0
 71
     5
 72
     1
  1
\A1;{Ø19.05 [3/4]}
  7
SLDTEXTSTYLE0
 11
0.0
 21
1.0
 31
0.0
 73
     1
 44
1.0
  0
POINT
  5
16D
330
163
100
AcDbEntity
  8
Defpoints
 62
     0
100
AcDbPoint
 10
83.05800007368529
 20
-9.525000000000007
 30
0.0
  0
POINT
  5
16E
330
163
100
AcDbEntity
  8
Defpoints
 62
     0
100
AcDbPoint
 10
83.0580000736853
 20
9.525000000000007
 30
0.0
  0
POINT
  5
16F
330
163
100
AcDbEntity
  8
Defpoints
 62
     0
100
AcDbPoint
 10
98.42409375179616
 20
9.525000000000006
 30
0.0
  0
ENDBLK
  5
165
330
163
100
AcDbEntity
  8
0
100
AcDbBlockEnd
  0
BLOCK
  5
175
330
174
100
AcDbEntity
  8
0
100
AcDbBlockBegin
  2
*D8
 70
     1
 10
0.0
 20
0.0
 30
0.0
  3
*D8
  1
*D8
  0
LINE
  5
177
330
174
100
AcDbEntity
  8
치수문자_일반주서
 62
     0
370
    -2
100
AcDbLine
 10
84.37487415363253
 20
-11.90224473237503
 30
0.0
 11
102.8011154405179
 21
-37.2061739932128
 31
0.0
  0
MTEXT
  5
178
330
174
100
AcDbEntity
  8
치수문자_일반주서
 62
     0
100
AcDbMText
 10
96.68187182328269
 20
-24.3436127182207
 30
0.0
 40
3.5
 41
0.0
 71
     5
 72
     1
  1
\A1;R1.52 [R0.06]
  7
SLDTEXTSTYLE0
 11
0.5886601906231339
 21
-0.8083805910433126
 31
0.0
 73
     1
 44
1.0
  0
SOLID
  5
179
330
174
100
AcDbEntity
  8
치수문자_일반주서
 62
     0
100
AcDbTrace
 10
84.81975293890336
 20
-11.57828540746877
 30
0.0
 11
83.9299953683617
 21
-12.2262040572813
 31
0.0
 12
82.43111820419495
 22
-9.232972020750013
 32
0.0
 13
82.43111820419495
 23
-9.232972020750013
 33
0.0
  0
LINE
  5
17A
330
174
100
AcDbEntity
  8
치수문자_일반주서
 62
     0
100
AcDbLine
 10
81.44400007368529
 20
-8.001000000000008
 30
0.0
 11
81.6240000736853
 21
-8.001000000000008
 31
0.0
  0
LINE
  5
17B
330
174
100
AcDbEntity
  8
치수문자_일반주서
 62
     0
100
AcDbLine
 10
81.53400007368529
 20
-8.091000000000008
 30
0.0
 11
81.53400007368529
 21
-7.911000000000008
 31
0.0
  0
POINT
  5
17C
330
174
100
AcDbEntity
  8
Defpoints
 62
     0
100
AcDbPoint
 10
82.43111820419495
 20
-9.232972020750013
 30
0.0
  0
POINT
  5
17D
330
174
100
AcDbEntity
  8
Defpoints
 62
     0
100
AcDbPoint
 10
81.53400007368529
 20
-8.001000000000008
 30
0.0
  0
ENDBLK
  5
176
330
174
100
AcDbEntity
  8
0
100
AcDbBlockEnd
  0
ENDSEC
  0
SECTION
  2
ENTITIES
  0
LINE
  5
95
330
1F
100
AcDbEntity
  8
0
  6
Continuous
 62
     4
370
    15
100
AcDbLine
 10
0.0
 20
-9.525000000000007
 30
0.0
 11
0.5080000000000098
 21
-9.016999999999998
 31
0.0
  0
LINE
  5
96
330
1F
100
AcDbEntity
  8
0
  6
Continuous
 62
     4
370
    15
100
AcDbLine
 10
0.5080000000000098
 20
9.017
 30
0.0
 11
0.0
 21
9.525000000000007
 31
0.0
  0
LINE
  5
97
330
1F
100
AcDbEntity
  8
0
  6
Continuous
 62
     4
370
    15
100
AcDbLine
 10
0.0000000000000071
 20
9.525000000000004
 30
0.0
 11
-68.84199992631474
 21
9.525000000000007
 31
0.0
  0
LINE
  5
98
330
1F
100
AcDbEntity
  8
0
  6
Continuous
 62
     4
370
    15
100
AcDbLine
 10
-68.84199992631474
 20
-9.524999999999997
 30
0.0
 11
0.0000000000000071
 21
-9.525
 31
0.0
  0
LINE
  5
99
330
1F
100
AcDbEntity
  8
0
  6
Continuous
 62
     4
370
    15
100
AcDbLine
 10
-68.84199992631474
 20
9.525
 30
0.0
 11
-69.34199992631474
 21
9.024999999999999
 31
0.0
  0
LINE
  5
9A
330
1F
100
AcDbEntity
  8
0
  6
Continuous
 62
     4
370
    15
100
AcDbLine
 10
-69.34199992631474
 20
-9.02499999999999
 30
0.0
 11
-68.84199992631474
 21
-9.524999999999991
 31
0.0
  0
LINE
  5
9B
330
1F
100
AcDbEntity
  8
0
  6
Continuous
 62
     4
370
    15
100
AcDbLine
 10
57.65800007368529
 20
9.017
 30
0.0
 11
0.5080000000000169
 21
9.017000000000003
 31
0.0
  0
LINE
  5
9C
330
1F
100
AcDbEntity
  8
0
  6
Continuous
 62
     4
370
    15
100
AcDbLine
 10
0.5080000000000133
 20
-9.016999999999998
 30
0.0
 11
54.60805718635358
 21
-9.017000000000003
 31
0.0
  0
LINE
  5
9D
330
1F
100
AcDbEntity
  8
0
  6
Continuous
 62
     1
370
    15
100
AcDbLine
 10
69.02807349615526
 20
-9.524999999999997
 30
0.0
 11
70.45390560602296
 21
-9.524999999999997
 31
0.0
  0
LINE
  5
A1
330
1F
100
AcDbEntity
  8
0
  6
Continuous
 62
     4
370
    15
100
AcDbLine
 10
0.0
 20
9.525000000000007
 30
0.0
 11
0.0
 21
-9.525000000000007
 31
0.0
  0
LINE
  5
A2
330
1F
100
AcDbEntity
  8
0
  6
Continuous
 62
     4
370
    15
100
AcDbLine
 10
-68.84199992631474
 20
9.525
 30
0.0
 11
-68.84199992631474
 21
-9.524999999999999
 31
0.0
  0
SPLINE
  5
A4
330
1F
100
AcDbEntity
  8
0
  6
Continuous
 62
     4
370
    15
100
AcDbSpline
210
0.0
220
0.0
230
1.0
 70
     8
 71
     3
 72
     8
 73
     4
 74
     0
 42
0.000000001
 43
0.00000001
 40
0.0
 40
0.0
 40
0.0
 40
0.0
 40
1.0
 40
1.0
 40
1.0
 40
1.0
 10
57.65800007368529
 20
-0.122075695442596
 30
0.0
 10
57.04646422764814
 20
0.3140243902981988
 30
0.0
 10
56.43145989872167
 20
0.751368923048356
 30
0.0
 10
55.82264164194647
 20
1.183097711230969
 30
0.0
  0
SPLINE
  5
A5
330
1F
100
AcDbEntity
  8
0
  6
Continuous
 62
     4
370
    15
100
AcDbSpline
210
0.0
220
0.0
230
1.0
 70
    24
 71
     3
 72
    14
 73
    10
 74
     0
 42
0.000000001
 43
0.00000001
 40
0.0
 40
0.0
 40
0.0
 40
0.0
 40
0.25
 40
0.25
 40
0.5
 40
0.5
 40
0.75
 40
0.75
 40
1.0
 40
1.0
 40
1.0
 40
1.0
 10
57.65800007368529
 20
3.515973338857469
 30
0.0
 10
57.65800007368529
 20
3.101789579929962
 30
0.0
 10
57.65800007368529
 20
2.697409934472429
 30
0.0
 10
57.65800007368529
 20
1.934637006271951
 30
0.0
 10
57.65800007368529
 20
1.576379916924074
 30
0.0
 10
57.65800007368529
 20
0.9344964681378405
 30
0.0
 10
57.65800007368529
 20
0.6510557288073574
 30
0.0
 10
57.65800007368529
 20
0.1846352686319094
 30
0.0
 10
57.65800007368529
 20
0.0018314862709537
 30
0.0
 10
57.65800007368529
 20
-0.1220756954425943
 30
0.0
  0
LINE
  5
A6
330
1F
100
AcDbEntity
  8
0
  6
Continuous
 62
     4
370
    15
100
AcDbLine
 10
57.65800007368529
 20
9.017
 30
0.0
 11
57.65800007368529
 21
8.812391101725527
 31
0.0
  0
SPLINE
  5
A7
330
1F
100
AcDbEntity
  8
0
  6
Continuous
 62
     4
370
    15
100
AcDbSpline
210
0.0
220
0.0
230
1.0
 70
     8
 71
     3
 72
    22
 73
    18
 74
     0
 42
0.000000001
 43
0.00000001
 40
0.0
 40
0.0
 40
0.0
 40
0.0
 40
0.1250000000000002
 40
0.1250000000000002
 40
0.2500000000000004
 40
0.2500000000000004
 40
0.3750000000000004
 40
0.3750000000000004
 40
0.5000000000000004
 40
0.5000000000000004
 40
0.6250000000000003
 40
0.6250000000000003
 40
0.7500000000000002
 40
0.7500000000000002
 40
0.8750000000000001
 40
0.8750000000000001
 40
1.0
 40
1.0
 40
1.0
 40
1.0
 10
54.60805718635357
 20
7.674788480686603
 30
0.0
 10
54.60805718635357
 20
7.782138374782757
 30
0.0
 10
54.62278443810078
 20
7.882227845605417
 30
0.0
 10
54.68746464535273
 20
8.068364841270611
 30
0.0
 10
54.73820117639794
 20
8.155292126689664
 30
0.0
 10
54.8779546986039
 20
8.311010692531502
 30
0.0
 10
54.96585910825497
 20
8.379362312547713
 30
0.0
 10
55.17941371328985
 20
8.499997684979439
 30
0.0
 10
55.3070188225264
 20
8.552682113282339
 30
0.0
 10
55.59016386458768
 20
8.640189993786953
 30
0.0
 10
55.74618664495821
 20
8.675720574160264
 30
0.0
 10
56.08792513139917
 20
8.734131630964571
 30
0.0
 10
56.27011404985292
 20
8.75632303404789
 30
0.0
 10
56.64838429912132
 20
8.789557615554317
 30
0.0
 10
56.84803471912265
 20
8.80083314920175
 30
0.0
 10
57.25047930869331
 20
8.813640868318961
 30
0.0
 10
57.45338022171046
 20
8.815338481347974
 30
0.0
 10
57.65800007368529
 20
8.812391101725526
 30
0.0
  0
LINE
  5
A8
330
1F
100
AcDbEntity
  8
0
  6
Continuous
 62
     4
370
    15
100
AcDbLine
 10
54.60805718635357
 20
7.674788480686601
 30
0.0
 11
54.60805718635357
 21
3.620210521063707
 31
0.0
  0
SPLINE
  5
A9
330
1F
100
AcDbEntity
  8
0
  6
Continuous
 62
     4
370
    15
100
AcDbSpline
210
0.0
220
0.0
230
1.0
 70
     8
 71
     3
 72
    16
 73
    12
 74
     0
 42
0.000000001
 43
0.00000001
 40
0.0
 40
0.0
 40
0.0
 40
0.0
 40
0.2499999999999998
 40
0.2499999999999998
 40
0.3749999999999997
 40
0.3749999999999997
 40
0.4999999999999998
 40
0.4999999999999998
 40
0.7499999999999999
 40
0.7499999999999999
 40
1.0
 40
1.0
 40
1.0
 40
1.0
 10
55.82264164194647
 20
1.18309771123097
 30
0.0
 10
55.62229791624864
 20
1.325166634021919
 30
0.0
 10
55.44503817025466
 20
1.489426539146955
 30
0.0
 10
55.21246364207155
 20
1.766881608243611
 30
0.0
 10
55.14015610434394
 20
1.8653432084846
 30
0.0
 10
55.01050975377348
 20
2.067523499050068
 30
0.0
 10
54.9527829742977
 20
2.171538326659
 30
0.0
 10
54.79982988087994
 20
2.49158838682179
 30
0.0
 10
54.72452675853577
 20
2.718435783273069
 30
0.0
 10
54.62929181570673
 20
3.169481214722545
 30
0.0
 10
54.60805718635357
 20
3.39522314964886
 30
0.0
 10
54.60805718635358
 20
3.620210521063708
 30
0.0
  0
LINE
  5
AA
330
1F
100
AcDbEntity
  8
0
  6
Continuous
 62
     4
370
    15
100
AcDbLine
 10
57.6580000736853
 20
-0.1220756954425982
 30
0.0
 11
57.65800007368529
 21
-5.046915573204193
 31
0.0
  0
LINE
  5
AB
330
1F
100
AcDbEntity
  8
0
  6
Continuous
 62
     4
370
    15
100
AcDbLine
 10
57.65800007368529
 20
-5.929272090212557
 30
0.0
 11
57.65800007368529
 21
-6.060293205982214
 31
0.0
  0
SPLINE
  5
AC
330
1F
100
AcDbEntity
  8
0
  6
Continuous
 62
     4
370
    15
100
AcDbSpline
210
0.0
220
0.0
230
1.0
 70
     8
 71
     3
 72
    22
 73
    18
 74
     0
 42
0.000000001
 43
0.00000001
 40
0.0
 40
0.0
 40
0.0
 40
0.0
 40
0.1249999999999999
 40
0.1249999999999999
 40
0.2499999999999999
 40
0.2499999999999999
 40
0.3749999999999999
 40
0.3749999999999999
 40
0.4999999999999999
 40
0.4999999999999999
 40
0.6249999999999999
 40
0.6249999999999999
 40
0.7499999999999999
 40
0.7499999999999999
 40
0.8749999999999999
 40
0.8749999999999999
 40
1.0
 40
1.0
 40
1.0
 40
1.0
 10
54.60805718635357
 20
-7.936532330544749
 30
0.0
 10
54.60805718635357
 20
-7.839464417908217
 30
0.0
 10
54.62278443810078
 20
-7.737483188181024
 30
0.0
 10
54.68746464535273
 20
-7.524980760234479
 30
0.0
 10
54.73820117639793
 20
-7.413131545373987
 30
0.0
 10
54.8779546986039
 20
-7.189048094610067
 30
0.0
 10
54.96585910825497
 20
-7.077837324359469
 30
0.0
 10
55.17941371328985
 20
-6.860412629893506
 30
0.0
 10
55.3070188225264
 20
-6.753072328842446
 30
0.0
 10
55.59016386458768
 20
-6.557462634608027
 30
0.0
 10
55.74618664495821
 20
-6.468124563532994
 30
0.0
 10
56.08792513139917
 20
-6.310086656325264
 30
0.0
 10
56.27011404985292
 20
-6.243288908988347
 30
0.0
 10
56.64838429912132
 20
-6.138726251894234
 30
0.0
 10
56.84803471912265
 20
-6.100236421125655
 30
0.0
 10
57.25047930869331
 20
-6.056119249998858
 30
0.0
 10
57.45338022171046
 20
-6.049990023727628
 30
0.0
 10
57.65800007368529
 20
-6.060293205982216
 30
0.0
  0
LINE
  5
AD
330
1F
100
AcDbEntity
  8
0
  6
Continuous
 62
     4
370
    15
100
AcDbLine
 10
54.60805718635357
 20
-7.936532330544747
 30
0.0
 11
54.60805718635357
 21
-9.017000000000001
 31
0.0
  0
SPLINE
  5
AE
330
1F
100
AcDbEntity
  8
0
  6
Continuous
 62
     4
370
    15
100
AcDbSpline
210
0.0
220
0.0
230
1.0
 70
     8
 71
     3
 72
    16
 73
    12
 74
     0
 42
0.000000001
 43
0.00000001
 40
0.0
 40
0.0
 40
0.0
 40
0.0
 40
0.2499999999999995
 40
0.2499999999999995
 40
0.3749999999999993
 40
0.3749999999999993
 40
0.4999999999999992
 40
0.4999999999999992
 40
0.7499999999999996
 40
0.7499999999999996
 40
1.0
 40
1.0
 40
1.0
 40
1.0
 10
55.82264164194648
 20
-8.332991008358066
 30
0.0
 10
55.62229791624864
 20
-8.387741544800539
 30
0.0
 10
55.44503817025466
 20
-8.4481216094141
 30
0.0
 10
55.21246364207155
 20
-8.54144041252662
 30
0.0
 10
55.14015610434394
 20
-8.573230151482125
 30
0.0
 10
55.01050975377348
 20
-8.635194102281723
 30
0.0
 10
54.9527829742977
 20
-8.665488867192904
 30
0.0
 10
54.79982988087994
 20
-8.753135900165626
 30
0.0
 10
54.72452675853577
 20
-8.807707239461156
 30
0.0
 10
54.62929181570673
 20
-8.898303693684666
 30
0.0
 10
54.60805718635357
 20
-8.934967557420858
 30
0.0
 10
54.60805718635357
 20
-8.962047205723012
 30
0.0
  0
SPLINE
  5
AF
330
1F
100
AcDbEntity
  8
0
  6
Continuous
 62
     4
370
    15
100
AcDbSpline
210
0.0
220
0.0
230
1.0
 70
     8
 71
     3
 72
     8
 73
     4
 74
     0
 42
0.000000001
 43
0.00000001
 40
0.0
 40
0.0
 40
0.0
 40
0.0
 40
1.0
 40
1.0
 40
1.0
 40
1.0
 10
57.65800007368529
 20
-7.747197541496691
 30
0.0
 10
57.04646422764814
 20
-7.97036114894945
 30
0.0
 10
56.43145989872168
 20
-8.16661132245421
 30
0.0
 10
55.82264164194648
 20
-8.332991008358064
 30
0.0
  0
SPLINE
  5
B0
330
1F
100
AcDbEntity
  8
0
  6
Continuous
 62
     4
370
    15
100
AcDbSpline
210
0.0
220
0.0
230
1.0
 70
    24
 71
     3
 72
    14
 73
    10
 74
     0
 42
0.000000001
 43
0.00000001
 40
0.0
 40
0.0
 40
0.0
 40
0.0
 40
0.2499999999999997
 40
0.2499999999999997
 40
0.4999999999999998
 40
0.4999999999999998
 40
0.7499999999999999
 40
0.7499999999999999
 40
1.0
 40
1.0
 40
1.0
 40
1.0
 10
57.65800007368529
 20
8.812391101725542
 30
0.0
 10
57.65800007368529
 20
8.343487302039634
 30
0.0
 10
57.65800007368529
 20
7.877530657322385
 30
0.0
 10
57.65800007368529
 20
6.951661299491007
 30
0.0
 10
57.65800007368529
 20
6.491740322608144
 30
0.0
 10
57.65800007368529
 20
5.578734014132665
 30
0.0
 10
57.65800007368529
 20
5.136385464953428
 30
0.0
 10
57.65800007368529
 20
4.295531825895237
 30
0.0
 10
57.65800007368529
 20
3.894761388525786
 30
0.0
 10
57.65800007368529
 20
3.515973338857909
 30
0.0
  0
SPLINE
  5
B1
330
1F
100
AcDbEntity
  8
0
  6
Continuous
 62
     4
370
    15
100
AcDbSpline
210
0.0
220
0.0
230
1.0
 70
    24
 71
     3
 72
    10
 73
     6
 74
     0
 42
0.000000001
 43
0.00000001
 40
0.0
 40
0.0
 40
0.0
 40
0.0
 40
0.0490215901463802
 40
0.7138887813533864
 40
1.0
 40
1.0
 40
1.0
 40
1.0
 10
57.65800007368528
 20
-6.149166654519892
 30
0.0
 10
57.65800007368528
 20
-6.168794692305087
 30
0.0
 10
57.65800007368528
 20
-6.454632747190502
 30
0.0
 10
57.65800007368528
 20
-7.012220220060446
 30
0.0
 10
57.65800007368529
 20
-7.577213692089845
 30
0.0
 10
57.65800007368529
 20
-7.747197541496685
 30
0.0
  0
SPLINE
  5
B2
330
1F
100
AcDbEntity
  8
0
  6
Continuous
 62
     1
370
    15
100
AcDbSpline
210
0.0
220
0.0
230
1.0
 70
     8
 71
     3
 72
    22
 73
    18
 74
     0
 42
0.000000001
 43
0.00000001
 40
0.0
 40
0.0
 40
0.0
 40
0.0
 40
0.2499999999999998
 40
0.2499999999999998
 40
0.4999999999999997
 40
0.4999999999999997
 40
0.6249999999999997
 40
0.6249999999999997
 40
0.7499999999999997
 40
0.7499999999999997
 40
0.8124999999999998
 40
0.8124999999999998
 40
0.8749999999999999
 40
0.8749999999999999
 40
0.9374999999999999
 40
0.9374999999999999
 40
1.0
 40
1.0
 40
1.0
 40
1.0
 10
82.73618261103965
 20
0.8794660783483264
 30
0.0
 10
82.78425195110998
 20
0.4598438406946547
 30
0.0
 10
82.80890864758925
 20
0.0392021756211401
 30
0.0
 10
82.82219112902072
 20
-0.8041656341890091
 30
0.0
 10
82.81173695976395
 20
-1.228303198285015
 30
0.0
 10
82.75262726233811
 20
-1.862100618770947
 30
0.0
 10
82.72548037517572
 20
-2.07309724846684
 30
0.0
 10
82.64432076291574
 20
-2.490220448492512
 30
0.0
 10
82.59202567570115
 20
-2.695078226086973
 30
0.0
 10
82.46772561396708
 20
-2.987858064938064
 30
0.0
 10
82.41760639161305
 20
-3.084175328182942
 30
0.0
 10
82.29168627810844
 20
-3.255451228055179
 30
0.0
 10
82.21393318948347
 20
-3.332195004063308
 30
0.0
 10
82.02585128552485
 20
-3.427381627323272
 30
0.0
 10
81.91931852137944
 20
-3.440707968876637
 30
0.0
 10
81.71490556155237
 20
-3.401986085944371
 30
0.0
 10
81.62028408092364
 20
-3.354243854116131
 30
0.0
 10
81.5340000736852
 20
-3.29331701915126
 30
0.0
  0
SPLINE
  5
B3
330
1F
100
AcDbEntity
  8
0
  6
Continuous
 62
     1
370
    15
100
AcDbSpline
210
0.0
220
0.0
230
1.0
 70
     8
 71
     3
 72
    38
 73
    34
 74
     0
 42
0.000000001
 43
0.00000001
 40
0.0
 40
0.0
 40
0.0
 40
0.0
 40
0.0156289842968058
 40
0.0312472025882363
 40
0.0468546590907828
 40
0.0624513580296652
 40
0.071951524305856
 40
0.0937449812647494
 40
0.1250310528508856
 40
0.1559217413650827
 40
0.1868902607225481
 40
0.2499900307518723
 40
0.3125145395528373
 40
0.3437598653248307
 40
0.3749624545968846
 40
0.4062562098226271
 40
0.4375407649145326
 40
0.4687270005382859
 40
0.4999968992330304
 40
0.5624981588902414
 40
0.6250258321897348
 40
0.6562705239134162
 40
0.6874728472268499
 40
0.7187677206849807
 40
0.7500507010397708
 40
0.7916478678928215
 40
0.8333764344181788
 40
0.8750111333822761
 40
0.8932338420445739
 40
0.9166814593420158
 40
0.9444752226515772
 40
0.9722480665540065
 40
0.9999999999999999
 40
0.9999999999999999
 40
0.9999999999999999
 40
0.9999999999999999
 10
81.53400007368528
 20
-3.293317019151315
 30
0.0
 10
81.40957368947329
 20
-3.205155977099544
 30
0.0
 10
81.1608066320012
 20
-3.028894622614422
 30
0.0
 10
80.78798662025449
 20
-2.760936199969869
 30
0.0
 10
80.41549045210792
 20
-2.490883078351557
 30
0.0
 10
80.09202003481718
 20
-2.253723628112382
 30
0.0
 10
79.71873369075931
 20
-1.979841206983829
 30
0.0
 10
79.22043864027802
 20
-1.612042413394523
 30
0.0
 10
78.55168202844517
 20
-1.114257779195057
 30
0.0
 10
77.81135951271042
 20
-0.5562638655908246
 30
0.0
 10
76.81639503141093
 20
0.1924271297327928
 30
0.0
 10
75.57005793868508
 20
1.131989370670716
 30
0.0
 10
74.32119339715746
 20
2.059448947067145
 30
0.0
 10
73.32622032915725
 20
2.782182708471392
 30
0.0
 10
72.58116460352618
 20
3.316277987809176
 30
0.0
 10
71.83421155239728
 20
3.837032468229933
 30
0.0
 10
71.08753178370144
 20
4.344552239978114
 30
0.0
 10
70.34247330817179
 20
4.838479025628458
 30
0.0
 10
69.34746183104369
 20
5.47223334068237
 30
0.0
 10
68.10355994644819
 20
6.219949024150504
 30
0.0
 10
66.85937316616037
 20
6.894754564458312
 30
0.0
 10
65.86439899281311
 20
7.385266610354837
 30
0.0
 10
65.11934877825456
 20
7.728536175346979
 30
0.0
 10
64.37236530886334
 20
8.043695500097188
 30
0.0
 10
63.54287934463528
 20
8.362967442668984
 30
0.0
 10
62.63189556898729
 20
8.673788540465567
 30
0.0
 10
61.63623888860785
 20
8.957639869966302
 30
0.0
 10
60.82812712460062
 20
9.144057218358
 30
0.0
 10
60.16556498151987
 20
9.26956563777534
 30
0.0
 10
59.61245147430594
 20
9.358199873364589
 30
0.0
 10
58.98337734527277
 20
9.436095956174743
 30
0.0
 10
58.32034864622822
 20
9.494234312072566
 30
0.0
 10
57.87872749348585
 20
9.510894110062441
 30
0.0
 10
57.65800007368293
 20
9.519220872043627
 30
0.0
  0
SPLINE
  5
B4
330
1F
100
AcDbEntity
  8
0
  6
Continuous
 62
     1
370
    15
100
AcDbSpline
210
0.0
220
0.0
230
1.0
 70
     8
 71
     3
 72
    19
 73
    15
 74
     0
 42
0.000000001
 43
0.00000001
 40
0.0
 40
0.0
 40
0.0
 40
0.0
 40
0.0262799765829383
 40
0.108098390628397
 40
0.1880484525927506
 40
0.267998368853639
 40
0.3498147400564623
 40
0.4316310178229045
 40
0.5203133917926742
 40
0.6089960622412732
 40
0.7002468491771382
 40
0.7914973086513728
 40
0.8952470146534123
 40
1.0
 40
1.0
 40
1.0
 40
1.0
 10
62.10226925337742
 20
8.806222625330522
 30
0.0
 10
62.28295486891219
 20
8.83136406940266
 30
0.0
 10
63.02617563196609
 20
8.93477929253633
 30
0.0
 10
64.32021146137308
 20
8.955961141310917
 30
0.0
 10
65.98293902772613
 20
8.868072363766244
 30
0.0
 10
67.64513958819703
 20
8.61840651667033
 30
0.0
 10
69.32034751016079
 20
8.217983897716627
 30
0.0
 10
71.0550982172569
 20
7.652751345893861
 30
0.0
 10
72.83745723142104
 20
6.920854340802195
 30
0.0
 10
74.68567102098565
 20
6.018322464840709
 30
0.0
 10
76.55115484031572
 20
4.975439708012784
 30
0.0
 10
78.51884348384925
 20
3.758296265764661
 30
0.0
 10
80.58133244290502
 20
2.387992724869835
 30
0.0
 10
82.01559874016418
 20
1.383918771321525
 30
0.0
 10
82.73618261103938
 20
0.8794660783485094
 30
0.0
  0
SPLINE
  5
B5
330
1F
100
AcDbEntity
  8
0
  6
Continuous
 62
     1
370
    15
100
AcDbSpline
210
0.0
220
0.0
230
1.0
 70
     8
 71
     3
 72
    38
 73
    34
 74
     0
 42
0.000000001
 43
0.00000001
 40
0.0
 40
0.0
 40
0.0
 40
0.0
 40
0.0625
 40
0.0625
 40
0.125
 40
0.125
 40
0.1875
 40
0.1875
 40
0.25
 40
0.25
 40
0.3125000000000001
 40
0.3125000000000001
 40
0.375
 40
0.375
 40
0.4375000000000001
 40
0.4375000000000001
 40
0.5000000000000001
 40
0.5000000000000001
 40
0.5625000000000001
 40
0.5625000000000001
 40
0.6250000000000001
 40
0.6250000000000001
 40
0.6875000000000001
 40
0.6875000000000001
 40
0.75
 40
0.75
 40
0.8125
 40
0.8125
 40
0.875
 40
0.875
 40
0.9375
 40
0.9375
 40
1.0
 40
1.0
 40
1.0
 40
1.0
 10
81.53400007368532
 20
-4.277425144714711
 30
0.0
 10
81.03553255180178
 20
-3.942263726451459
 30
0.0
 10
80.5409198950731
 20
-3.598034586472171
 30
0.0
 10
79.5459523868361
 20
-2.893169858284648
 30
0.0
 10
79.04599876638846
 20
-2.532590624686257
 30
0.0
 10
78.05157660080704
 20
-1.802664004056587
 30
0.0
 10
77.55659743157102
 20
-1.433217900846754
 30
0.0
 10
76.55948408443548
 20
-0.6876114398922866
 30
0.0
 10
76.06073953821726
 20
-0.3122919961374676
 30
0.0
 10
75.07008816764136
 20
0.4363395972674792
 30
0.0
 10
74.57060446937352
 20
0.8115558265947749
 30
0.0
 10
73.57371346982202
 20
1.555954392815859
 30
0.0
 10
73.07916243752405
 20
1.924434784104317
 30
0.0
 10
72.08408917207984
 20
2.652234645723693
 30
0.0
 10
71.58413915976627
 20
3.011383999170981
 30
0.0
 10
70.58983693513213
 20
3.712702863307825
 30
0.0
 10
70.09476770368424
 20
4.055077231239444
 30
0.0
 10
69.09762460727379
 20
4.720996215806528
 30
0.0
 10
68.59908804231682
 20
5.043708259033009
 30
0.0
 10
67.60825814019728
 20
5.662964303084745
 30
0.0
 10
67.10874085418067
 20
5.960998168815403
 30
0.0
 10
66.11189634869046
 20
6.527505884240343
 30
0.0
 10
65.61740206302485
 20
6.795517883153609
 30
0.0
 10
64.62222547533861
 20
7.299896753494571
 30
0.0
 10
64.12228030839353
 20
7.536048311818881
 30
0.0
 10
63.12810045336994
 20
7.97138595731747
 30
0.0
 10
62.63293628614732
 20
8.170791766159056
 30
0.0
 10
61.63576589237402
 20
8.531615572593381
 30
0.0
 10
61.13743246342089
 20
8.692518880388075
 30
0.0
 10
60.14642643011472
 20
8.9727640196338
 30
0.0
 10
59.64687679000403
 20
9.092728696905588
 30
0.0
 10
58.65008122803979
 20
9.289599646275379
 30
0.0
 10
58.15563881074437
 20
9.366437571277794
 30
0.0
 10
57.65800007368529
 20
9.421543673277554
 30
0.0
  0
LINE
  5
B6
330
1F
100
AcDbEntity
  8
0
  6
Continuous
 62
     4
370
    15
100
AcDbLine
 10
57.65800007368529
 20
9.421543673277549
 30
0.0
 11
57.65800007368529
 21
9.519220872049733
 31
0.0
  0
SPLINE
  5
B7
330
1F
100
AcDbEntity
  8
0
  6
Continuous
 62
     1
370
    15
100
AcDbSpline
210
0.0
220
0.0
230
1.0
 70
     8
 71
     3
 72
    18
 73
    14
 74
     0
 42
0.000000001
 43
0.00000001
 40
0.0
 40
0.0
 40
0.0
 40
0.0
 40
0.2499999999999988
 40
0.2499999999999988
 40
0.4999999999999976
 40
0.4999999999999976
 40
0.6249999999999981
 40
0.6249999999999981
 40
0.7499999999999988
 40
0.7499999999999988
 40
0.8749999999999993
 40
0.8749999999999993
 40
1.0
 40
1.0
 40
1.0
 40
1.0
 10
81.53400007368528
 20
-4.277425144714621
 30
0.0
 10
81.7233509859922
 20
-4.404741604728744
 30
0.0
 10
81.90546416498195
 20
-4.514072217920177
 30
0.0
 10
82.25828469052348
 20
-4.6932623114219
 30
0.0
 10
82.42268537635155
 20
-4.759457765918961
 30
0.0
 10
82.64002111549097
 20
-4.817460883856079
 30
0.0
 10
82.7076878788964
 20
-4.829806434216811
 30
0.0
 10
82.82637465923057
 20
-4.839533877161534
 30
0.0
 10
82.87829814472292
 20
-4.837191575079832
 30
0.0
 10
82.96516964025184
 20
-4.818066729613699
 30
0.0
 10
82.99960219671604
 20
-4.801117077101485
 30
0.0
 10
83.0456916587619
 20
-4.755211340255315
 30
0.0
 10
83.05800007368529
 20
-4.726174176532395
 30
0.0
 10
83.05800007368529
 20
-4.691414562931032
 30
0.0
  0
SPLINE
  5
B8
330
1F
100
AcDbEntity
  8
0
  6
Continuous
 62
     1
370
    15
100
AcDbSpline
210
0.0
220
0.0
230
1.0
 70
     8
 71
     3
 72
    11
 73
     7
 74
     0
 42
0.000000001
 43
0.00000001
 40
0.0
 40
0.0
 40
0.0
 40
0.0
 40
0.2079208658972734
 40
0.5700941951873008
 40
0.9411569667210458
 40
1.0
 40
1.0
 40
1.0
 40
1.0
 10
81.485591909296
 20
-4.243614224709018
 30
0.0
 10
81.38479828876143
 20
-4.267759633709074
 30
0.0
 10
81.10843421279098
 20
-4.33396346299745
 30
0.0
 10
80.59842437455637
 20
-4.542668187714253
 30
0.0
 10
80.15911549498884
 20
-4.755837250102295
 30
0.0
 10
79.91760222078017
 20
-4.887648435320322
 30
0.0
 10
79.88454527325243
 20
-4.905689992032269
 30
0.0
  0
SPLINE
  5
B9
330
1F
100
AcDbEntity
  8
0
  6
Continuous
 62
     1
370
    15
100
AcDbSpline
210
0.0
220
0.0
230
1.0
 70
     8
 71
     3
 72
     8
 73
     4
 74
     0
 42
0.000000001
 43
0.00000001
 40
0.0
 40
0.0
 40
0.0
 40
0.0
 40
1.0
 40
1.0
 40
1.0
 40
1.0
 10
83.05800007368529
 20
-5.568392862373727
 30
0.0
 10
81.96688239329296
 20
-5.493565819759731
 30
0.0
 10
80.90828611348941
 20
-5.276077758008841
 30
0.0
 10
79.88454527325243
 20
-4.905689992032237
 30
0.0
  0
LINE
  5
BA
330
1F
100
AcDbEntity
  8
0
  6
Continuous
 62
     1
370
    15
100
AcDbLine
 10
83.05800007368529
 20
-8.001000000000008
 30
0.0
 11
83.05800007368529
 21
-4.691414562931033
 31
0.0
  0
SPLINE
  5
BC
330
1F
100
AcDbEntity
  8
0
  6
Continuous
 62
     1
370
    15
100
AcDbSpline
210
0.0
220
0.0
230
1.0
 70
     8
 71
     3
 72
    36
 73
    32
 74
     0
 42
0.000000001
 43
0.00000001
 40
0.0
 40
0.0
 40
0.0
 40
0.0
 40
0.0625
 40
0.0625
 40
0.125
 40
0.125
 40
0.1875
 40
0.1875
 40
0.25
 40
0.25
 40
0.3125
 40
0.3125
 40
0.375
 40
0.375
 40
0.4375
 40
0.4375
 40
0.5
 40
0.5
 40
0.5625
 40
0.5625
 40
0.625
 40
0.625
 40
0.6875
 40
0.6875
 40
0.75
 40
0.75
 40
0.8125
 40
0.8125
 40
0.875
 40
0.875
 40
0.9252928907669323
 40
0.9252928907669323
 40
0.9252928907669323
 40
0.9252928907669323
 10
57.65800007368529
 20
-0.1055583857226712
 30
0.0
 10
58.18065924454468
 20
-0.4750070762709683
 30
0.0
 10
58.70009815903887
 20
-0.8434284280722433
 30
0.0
 10
59.74722766973675
 20
-1.575999906388023
 30
0.0
 10
60.27097294532133
 20
-1.939209466392818
 30
0.0
 10
61.31170291137496
 20
-2.652319357760563
 30
0.0
 10
61.83656629489929
 20
-3.004008184092737
 30
0.0
 10
62.88324234437019
 20
-3.689491434938682
 30
0.0
 10
63.40234121362467
 20
-4.0227401602093
 30
0.0
 10
64.44847533012477
 20
-4.668627844698354
 30
0.0
 10
64.97353413202757
 20
-4.980789033298633
 30
0.0
 10
66.01557286837382
 20
-5.576467987628728
 30
0.0
 10
66.5378719624355
 20
-5.861032007109936
 30
0.0
 10
67.58523359316914
 20
-6.399132313420605
 30
0.0
 10
68.10525296120535
 20
-6.651838959605153
 30
0.0
 10
69.14972071739305
 20
-7.122668280241097
 30
0.0
 10
69.67495562866415
 20
-7.340818335867058
 30
0.0
 10
70.7193517868878
 20
-7.737576253540696
 30
0.0
 10
71.23942710323864
 20
-7.916395221467607
 30
0.0
 10
72.28680071974233
 20
-8.233359457778134
 30
0.0
 10
72.80899916272027
 20
-8.370940397440453
 30
0.0
 10
73.85113315585393
 20
-8.782505892193297
 30
0.0
 10
74.37620405506776
 20
-8.88762894664063
 30
0.0
 10
75.4222903853779
 20
-9.261399806897815
 30
0.0
 10
75.9414003806067
 20
-9.308121164429963
 30
0.0
 10
76.98811236169527
 20
-9.525000000000007
 30
0.0
 10
77.5129576543143
 20
-9.525000000000007
 30
0.0
 10
78.55358069825911
 20
-9.525000000000007
 30
0.0
 10
79.07744872892681
 20
-9.525000000000007
 30
0.0
 10
80.02229730422408
 20
-9.525000000000007
 30
0.0
 10
80.44090739027999
 20
-9.525000000000007
 30
0.0
 10
81.53400007368529
 20
-9.525000000000007
 30
0.0
  0
LINE
  5
BD
330
1F
100
AcDbEntity
  8
0
  6
Continuous
 62
     4
370
    15
100
AcDbLine
 10
57.6580000736853
 20
9.421543673277421
 30
0.0
 11
57.6580000736853
 21
8.90125455026322
 31
0.0
  0
SPLINE
  5
BE
330
1F
100
AcDbEntity
  8
0
  6
Continuous
 62
     4
370
    15
100
AcDbSpline
210
0.0
220
0.0
230
1.0
 70
    24
 71
     3
 72
    16
 73
    12
 74
     0
 42
0.000000001
 43
0.00000001
 40
0.0
 40
0.0
 40
0.0
 40
0.0
 40
0.0379547612219923
 40
0.1319733547180334
 40
0.2607629059245364
 40
0.3895524571310395
 40
0.5183420083375424
 40
0.6471315595440452
 40
0.7759211107505479
 40
0.9047106619570507
 40
1.0
 40
1.0
 40
1.0
 40
1.0
 10
57.6580000736853
 20
8.723527653187848
 30
0.0
 10
57.6580000736853
 20
8.56582982285382
 30
0.0
 10
57.6580000736853
 20
8.017495146758481
 30
0.0
 10
57.6580000736853
 20
6.947008916654681
 30
0.0
 10
57.6580000736853
 20
5.548945268752613
 30
0.0
 10
57.6580000736853
 20
4.115405977408963
 30
0.0
 10
57.6580000736853
 20
2.829483766355204
 30
0.0
 10
57.6580000736853
 20
1.719911472154606
 30
0.0
 10
57.6580000736853
 20
0.8315206623347697
 30
0.0
 10
57.6580000736853
 20
0.2186031802811596
 30
0.0
 10
57.65800007368529
 20
-0.0088388676122568
 30
0.0
 10
57.65800007368529
 20
-0.1055583857225484
 30
0.0
  0
LINE
  5
BF
330
1F
100
AcDbEntity
  8
0
  6
Continuous
 62
     1
370
    15
100
AcDbLine
 10
83.05800007368529
 20
-4.691414562931032
 30
0.0
 11
83.05800007368529
 21
0.8222580788888567
 31
0.0
  0
SPLINE
  5
C0
330
1F
100
AcDbEntity
  8
0
  6
Continuous
 62
     1
370
    15
100
AcDbSpline
210
0.0
220
0.0
230
1.0
 70
     8
 71
     3
 72
    12
 73
     8
 74
     0
 42
0.000000001
 43
0.00000001
 40
0.0
 40
0.0
 40
0.0
 40
0.0
 40
0.2500000000000004
 40
0.2500000000000004
 40
0.5000000000000008
 40
0.5000000000000008
 40
1.0
 40
1.0
 40
1.0
 40
1.0
 10
83.05800007368529
 20
0.8222580788888558
 30
0.0
 10
83.05800007368529
 20
0.802861561064348
 30
0.0
 10
83.05150409254819
 20
0.7886964010482265
 30
0.0
 10
83.02446752269933
 20
0.7723195710246178
 30
0.0
 10
83.00350500437087
 20
0.7702647666101597
 30
0.0
 10
82.92087275874744
 20
0.7843228001064136
 30
0.0
 10
82.83725308547776
 20
0.8214351690618666
 30
0.0
 10
82.73618261103962
 20
0.8794660783484596
 30
0.0
  0
SPLINE
  5
C1
330
1F
100
AcDbEntity
  8
0
  6
Continuous
 62
     1
370
    15
100
AcDbSpline
210
0.0
220
0.0
230
1.0
 70
     8
 71
     3
 72
    35
 73
    31
 74
     0
 42
0.000000001
 43
0.00000001
 40
0.0371054114492786
 40
0.0371054114492786
 40
0.0371054114492786
 40
0.0371054114492786
 40
0.0439231329086848
 40
0.0753229750964824
 40
0.0984939682130112
 40
0.1216475679419584
 40
0.1398275952850961
 40
0.1561653189608505
 40
0.1677646810258263
 40
0.1919720653913925
 40
0.215897093063296
 40
0.2336295019691518
 40
0.25023622997013
 40
0.2687766775819432
 40
0.2847348865428155
 40
0.2998759474367152
 40
0.3244981604856994
 40
0.3736490740050243
 40
0.4089499738030523
 40
0.4389962220147343
 40
0.4934367201036388
 40
0.5356481181421189
 40
0.577802276703089
 40
0.6200814699749434
 40
0.6623445957328828
 40
0.7208859619263396
 40
0.7970678323252138
 40
0.8615444977992417
 40
0.9324990873691668
 40
1.0
 40
1.0
 40
1.0
 40
1.0
 10
74.67494172763733
 20
-8.998882633903376
 30
0.0
 10
74.63476662990237
 20
-9.008768394540835
 30
0.0
 10
74.40955242995624
 20
-9.063405466576269
 30
0.0
 10
74.04773910419037
 20
-9.1446783951325
 30
0.0
 10
73.58978555114868
 20
-9.234763667747227
 30
0.0
 10
73.20992102123762
 20
-9.30064564153042
 30
0.0
 10
72.87036323875374
 20
-9.352322112585545
 30
0.0
 10
72.59910009126284
 20
-9.38884304766347
 30
0.0
 10
72.29179805618199
 20
-9.425539602560963
 30
0.0
 10
71.93976204426673
 20
-9.461028164222016
 30
0.0
 10
71.55155062247428
 20
-9.490402422270861
 30
0.0
 10
71.2082308866029
 20
-9.508905677994559
 30
0.0
 10
70.89680568937146
 20
-9.520087320828416
 30
0.0
 10
70.59592521939797
 20
-9.5253234434923
 30
0.0
 10
70.30393702600884
 20
-9.525076291381371
 30
0.0
 10
69.97565221661844
 20
-9.519416284872918
 30
0.0
 10
69.45165025094303
 20
-9.499443546205777
 30
0.0
 10
68.80870421612292
 20
-9.450088858467748
 30
0.0
 10
68.13465194739035
 20
-9.368391182079613
 30
0.0
 10
67.42917949694152
 20
-9.259066853343596
 30
0.0
 10
66.68234485192515
 20
-9.111239222854936
 30
0.0
 10
65.86440773144852
 20
-8.909594284701562
 30
0.0
 10
65.11934752384863
 20
-8.693941019257721
 30
0.0
 10
64.37236154948606
 20
-8.448735774600864
 30
0.0
 10
63.52908421927855
 20
-8.138504746259688
 30
0.0
 10
62.48768428349437
 20
-7.705852931707373
 30
0.0
 10
61.31254310354193
 20
-7.15362768767849
 30
0.0
 10
60.06733172704431
 20
-6.494570102575522
 30
0.0
 10
58.87062396715819
 20
-5.809843414045266
 30
0.0
 10
58.05542988694931
 20
-5.296960348895856
 30
0.0
 10
57.65800007368293
 20
-5.046915573352837
 30
0.0
  0
LINE
  5
C2
330
1F
100
AcDbEntity
  8
0
  6
Continuous
 62
     4
370
    15
100
AcDbLine
 10
57.6580000736853
 20
-0.1055583857226721
 30
0.0
 11
57.6580000736853
 21
-5.046915573354343
 31
0.0
  0
SPLINE
  5
C3
330
1F
100
AcDbEntity
  8
0
  6
Continuous
 62
     1
370
    15
100
AcDbSpline
210
0.0
220
0.0
230
1.0
 70
     8
 71
     3
 72
    12
 73
     8
 74
     0
 42
0.000000001
 43
0.00000001
 40
0.0
 40
0.0
 40
0.0
 40
0.0
 40
0.0437113118948375
 40
0.2828902224100788
 40
0.5219682378358154
 40
0.7609899039495194
 40
0.9999999999999999
 40
0.9999999999999999
 40
0.9999999999999999
 40
0.9999999999999999
 10
72.74545800586327
 20
6.934768372598064
 30
0.0
 10
72.87352804779118
 20
7.005089140415415
 30
0.0
 10
73.70236985268184
 20
7.460190046463664
 30
0.0
 10
75.23176581978552
 20
8.115224495774408
 30
0.0
 10
77.33299436821582
 20
8.848892049315992
 30
0.0
 10
79.43360566182778
 20
9.340779714478938
 30
0.0
 10
80.83387990026628
 20
9.452964000683664
 30
0.0
 10
81.53400007368529
 20
9.52500000000002
 30
0.0
  0
LINE
  5
C5
330
1F
100
AcDbEntity
  8
0
  6
Continuous
 62
     1
370
    15
100
AcDbLine
 10
83.05800007368529
 20
6.167475262783499
 30
0.0
 11
83.05800007368529
 21
7.958636356292586
 31
0.0
  0
SPLINE
  5
C6
330
1F
100
AcDbEntity
  8
0
  6
Continuous
 62
     1
370
    15
100
AcDbSpline
210
0.0
220
0.0
230
1.0
 70
     8
 71
     3
 72
    18
 73
    14
 74
     0
 42
0.000000001
 43
0.00000001
 40
0.0
 40
0.0
 40
0.0
 40
0.0
 40
0.2500000000000004
 40
0.2500000000000004
 40
0.3750000000000007
 40
0.3750000000000007
 40
0.5000000000000009
 40
0.5000000000000009
 40
0.6250000000000011
 40
0.6250000000000011
 40
0.7500000000000013
 40
0.7500000000000013
 40
1.0
 40
1.0
 40
1.0
 40
1.0
 10
83.05800007368529
 20
6.167475262783507
 30
0.0
 10
82.90937969492579
 20
5.794600386384984
 30
0.0
 10
82.72986816847163
 20
5.448209991890967
 30
0.0
 10
82.40688478830315
 20
4.974677814563439
 30
0.0
 10
82.28915241715106
 20
4.823443571571227
 30
0.0
 10
82.04009119205861
 20
4.544823148091176
 30
0.0
 10
81.90893995177515
 20
4.417230060198693
 30
0.0
 10
81.63363933559815
 20
4.185047860890331
 30
0.0
 10
81.4894917167955
 20
4.08045563979181
 30
0.0
 10
81.1881061054024
 20
3.894438416319182
 30
0.0
 10
81.03068112989243
 20
3.813209580290871
 30
0.0
 10
80.55335542563373
 20
3.610426227940124
 30
0.0
 10
80.2219424847408
 20
3.526080230646891
 30
0.0
 10
79.8845452732524
 20
3.487962176439312
 30
0.0
  0
SPLINE
  5
C7
330
1F
100
AcDbEntity
  8
0
  6
Continuous
 62
     1
370
    15
100
AcDbSpline
210
0.0
220
0.0
230
1.0
 70
     8
 71
     3
 72
     8
 73
     4
 74
     0
 42
0.000000001
 43
0.00000001
 40
0.0
 40
0.0
 40
0.0
 40
0.0
 40
1.0
 40
1.0
 40
1.0
 40
1.0
 10
83.05800007368529
 20
1.837376426293268
 30
0.0
 10
81.96688239329296
 20
2.469810806431688
 30
0.0
 10
80.90828611348941
 20
3.021927505083462
 30
0.0
 10
79.88454527325243
 20
3.487962176439331
 30
0.0
  0
LINE
  5
C8
330
1F
100
AcDbEntity
  8
0
  6
Continuous
 62
     1
370
    15
100
AcDbLine
 10
83.05800007368529
 20
0.8222580788888567
 30
0.0
 11
83.05800007368529
 21
1.83737642629327
 31
0.0
  0
SPLINE
  5
C9
330
1F
100
AcDbEntity
  8
0
  6
Continuous
 62
     1
370
    15
100
AcDbSpline
210
0.0
220
0.0
230
1.0
 70
     8
 71
     3
 72
    13
 73
     9
 74
     0
 42
0.000000001
 43
0.00000001
 40
0.0
 40
0.0
 40
0.0
 40
0.0
 40
0.1959779853287858
 40
0.3919396388533773
 40
0.5878951627784191
 40
0.7838547706755516
 40
0.9798286685423858
 40
1.0
 40
1.0
 40
1.0
 40
1.0
 10
57.65800007368529
 20
-5.923250644450675
 30
0.0
 10
58.40078010715157
 20
-6.343962828030619
 30
0.0
 10
59.88627827459045
 20
-7.185352135186221
 30
0.0
 10
62.11438716380864
 20
-8.173499388570386
 30
0.0
 10
64.34240827250628
 20
-8.929535277853343
 30
0.0
 10
66.57049925886321
 20
-9.374792342965469
 30
0.0
 10
68.13237979833661
 20
-9.563475445029615
 30
0.0
 10
68.95161954640494
 20
-9.515805881654666
 30
0.0
 10
69.02807349615526
 20
-9.511357212737563
 30
0.0
  0
LINE
  5
CA
330
1F
100
AcDbEntity
  8
0
  6
Continuous
 62
     4
370
    15
100
AcDbLine
 10
57.65800007368529
 20
-5.923250644450677
 30
0.0
 11
57.65800007368529
 21
-5.046915573204193
 31
0.0
  0
SPLINE
  5
CB
330
1F
100
AcDbEntity
  8
0
  6
Continuous
 62
     1
370
    15
100
AcDbSpline
210
0.0
220
0.0
230
1.0
 70
     8
 71
     3
 72
     9
 73
     5
 74
     0
 42
0.000000001
 43
0.00000001
 40
0.0
 40
0.0
 40
0.0
 40
0.0
 40
0.8890560184179587
 40
1.0
 40
1.0
 40
1.0
 40
1.0
 10
57.65800007368529
 20
-7.686922112909168
 30
0.0
 10
58.20613460937025
 20
-7.485556785394357
 30
0.0
 10
58.82267004058004
 20
-7.259063377393891
 30
0.0
 10
59.43935111183695
 20
-6.965625306393807
 30
0.0
 10
59.50776816524847
 20
-6.933070118449304
 30
0.0
  0
SPLINE
  5
CC
330
1F
100
AcDbEntity
  8
0
  6
Continuous
 62
     4
370
    15
100
AcDbSpline
210
0.0
220
0.0
230
1.0
 70
    24
 71
     3
 72
    10
 73
     6
 74
     0
 42
0.000000001
 43
0.00000001
 40
0.0
 40
0.0
 40
0.0
 40
0.0
 40
0.5036517382621438
 40
0.7513429057227422
 40
1.0
 40
1.0
 40
1.0
 40
1.0
 10
57.65800007368529
 20
-6.149166654519894
 30
0.0
 10
57.65800007368529
 20
-6.373755296627063
 30
0.0
 10
57.6580000736853
 20
-6.708794511492825
 30
0.0
 10
57.6580000736853
 20
-7.253512214244045
 30
0.0
 10
57.65800007368529
 20
-7.542264836068214
 30
0.0
 10
57.65800007368529
 20
-7.686922112909165
 30
0.0
  0
LINE
  5
CD
330
1F
100
AcDbEntity
  8
0
  6
Continuous
 62
     1
370
    15
100
AcDbLine
 10
83.05800007368529
 20
1.837376426293268
 30
0.0
 11
83.05800007368529
 21
6.167475262783499
 31
0.0
  0
LINE
  5
CE
330
1F
100
AcDbEntity
  8
0
  6
Continuous
 62
     1
370
    15
100
AcDbLine
 10
83.05800007368529
 20
-4.691414562931032
 30
0.0
 11
83.05800007368529
 21
-5.568392862373727
 31
0.0
  0
LINE
  5
CF
330
1F
100
AcDbEntity
  8
0
  6
Continuous
 62
     1
370
    15
100
AcDbLine
 10
83.05800007368529
 20
7.958636356292586
 30
0.0
 11
83.05800007368529
 21
8.001000000000005
 31
0.0
  0
LINE
  5
D0
330
1F
100
AcDbEntity
  8
중심선
100
AcDbLine
 10
-72.34199992631474
 20
0.0000000000000059
 30
0.0
 11
86.0580000736853
 21
0.0000000000000065
 31
0.0
  0
CIRCLE
  5
D1
330
1F
100
AcDbEntity
  8
외형선
100
AcDbCircle
 10
0.0
 20
0.0
 30
0.0
 40
3.000000000000012
  0
INSERT
  5
D2
330
1F
100
AcDbEntity
  8
0
  6
Continuous
 62
     7
100
AcDbBlockReference
 66
     1
  2
블럭10
 10
-17.11527294925987
 20
-51.95008179678728
 30
0.0
  0
ATTRIB
  5
D3
330
D2
100
AcDbEntity
  8
FORMAT
 62
     2
100
AcDbText
 10
-26.29656823800115
 20
-49.87471488395509
 30
0.0
 40
4.233333333333333
  1
E5985909 [ 3 FLUTE ]
 41
0.75
  7
SLDTEXTSTYLE0
 11
-26.29656823800115
 21
-51.99138155062175
 31
0.0
100
AcDbAttribute
  2
AUTOATTR0
 70
     0
 74
     1
  0
SEQEND
  5
D4
330
D2
100
AcDbEntity
  8
0
  6
Continuous
 62
     7
  0
HATCH
  5
D5
330
1F
100
AcDbEntity
  8
중심선
100
AcDbHatch
 10
0.0
 20
0.0
 30
0.0
210
0.0
220
0.0
230
1.0
  2
SOLID
 70
     1
 71
     0
 91
        1
 92
        0
 93
        4
 72
     1
 10
-11.40036364487904
 20
-35.70290749514335
 11
-14.84663888871632
 21
-35.70290749514335
 72
     1
 10
-14.84663888871632
 20
-35.70290749514335
 11
-16.97486874792034
 21
-38.23923307571594
 72
     1
 10
-16.97486874792034
 20
-38.23923307571594
 11
-13.52856041896991
 21
-38.23919364641345
 72
     1
 10
-13.52856041896991
 20
-38.23919364641345
 11
-11.40036364487904
 21
-35.70290749514335
 97
        0
 75
     0
 76
     1
 98
        1
 10
0.0
 20
0.0
  0
HATCH
  5
D6
330
1F
100
AcDbEntity
  8
중심선
100
AcDbHatch
 10
0.0
 20
0.0
 30
0.0
210
0.0
220
0.0
230
1.0
  2
SOLID
 70
     1
 71
     0
 91
        1
 92
        0
 93
        4
 72
     1
 10
-6.387599653843084
 20
-35.70290749514338
 11
-9.833874897680339
 21
-35.70290749514332
 72
     1
 10
-9.833874897680339
 20
-35.70290749514332
 11
-14.36501290603776
 21
-41.10290749514336
 72
     1
 10
-14.36501290603776
 20
-41.10290749514336
 11
-10.91873766220047
 21
-41.10290749514336
 72
     1
 10
-10.91873766220047
 20
-41.10290749514336
 11
-6.387599653843084
 21
-35.70290749514338
 97
        0
 75
     0
 76
     1
 98
        1
 10
0.0
 20
0.0
  0
HATCH
  5
D7
330
1F
100
AcDbEntity
  8
중심선
100
AcDbHatch
 10
0.0
 20
0.0
 30
0.0
210
0.0
220
0.0
230
1.0
  2
SOLID
 70
     1
 71
     0
 91
        1
 92
        0
 93
        4
 72
     1
 10
-1.374835662807161
 20
-35.70290749514338
 11
-4.821110906644277
 21
-35.70290749514335
 72
     1
 10
-4.821110906644277
 20
-35.70290749514335
 11
-11.86954780853355
 21
-44.10290749514337
 72
     1
 10
-11.86954780853355
 20
-44.10290749514337
 11
-8.423272564696271
 21
-44.10290749514337
 72
     1
 10
-8.423272564696271
 20
-44.10290749514337
 11
-1.374835662807161
 21
-35.70290749514338
 97
        0
 75
     0
 76
     1
 98
        1
 10
0.0
 20
0.0
  0
HATCH
  5
D8
330
1F
100
AcDbEntity
  8
중심선
100
AcDbHatch
 10
0.0
 20
0.0
 30
0.0
210
0.0
220
0.0
230
1.0
  2
SOLID
 70
     1
 71
     0
 91
        1
 92
        0
 93
        6
 72
     3
 10
3.42505476820501
 20
-39.90290749519463
 11
3.960054785062284
 21
1.540850780301639E-10
 40
0.3939339440162633
 50
17.09539180608433
 51
320.0019657685081
 73
     0
 72
     1
 10
5.108054423905578
 20
-38.49080149978168
 11
7.413356297606671
 21
-36.55647478973373
 72
     3
 10
3.425054768152163
 20
-39.90290749514349
 11
6.600054785286829
 21
-1.249000902703301E-13
 40
0.6363583540795982
 50
39.99873849337386
 51
368.4976242363724
 73
     1
 72
     1
 10
9.850387260052774
 20
-38.94290749507337
 11
2.105122074988087
 21
-38.94290749507337
 72
     1
 10
2.105122074988086
 20
-38.94290749507337
 11
2.105097030542153
 21
-40.86290749507327
 72
     1
 10
2.105097030542153
 20
-40.86290749507327
 11
6.546476800014188
 21
-40.86290749507324
 97
        0
 75
     0
 76
     1
 98
        1
 10
0.0
 20
0.0
  0
POINT
  5
D9
330
1F
100
AcDbEntity
  8
치수문자_일반주서
100
AcDbPoint
 10
25.40000000000001
 20
0.0000000000000285
 30
0.0
  0
POINT
  5
DA
330
1F
100
AcDbEntity
  8
치수문자_일반주서
100
AcDbPoint
 10
-43.94199992631473
 20
0.0000000000000074
 30
0.0
  0
DIMENSION
  5
DB
330
1F
100
AcDbEntity
  8
치수문자_일반주서
100
AcDbDimension
  2
_D
 10
57.65800007368529
 20
31.72501421023316
 30
0.0
 11
70.3580000736853
 21
31.72501421023316
 31
0.0
 70
   160
  1
<>
 71
     2
 42
25.40000000000002
  3
SLDDIMSTYLE0
100
AcDbAlignedDimension
 13
83.0580000736853
 23
9.525000000000007
 33
0.0
 14
57.65800007368529
 24
9.519220872049733
 34
0.0
 50
-0.000000000000024
100
AcDbRotatedDimension
1001
ACAD
1000
DSTYLE
1002
{
1070
   171
1070
     6
1070
   273
1070
     5
1002
}
  0
DIMENSION
  5
F1
330
1F
100
AcDbEntity
  8
치수문자_일반주서
100
AcDbDimension
  2
_D_1
 10
-69.34199992631476
 20
71.35975965011002
 30
0.0
 11
6.858000073685261
 21
71.35975965011002
 31
0.0
 70
   160
  1
<>
 71
     2
 42
152.4
  3
SLDDIMSTYLE1
100
AcDbAlignedDimension
 13
83.0580000736853
 23
9.525000000000007
 33
0.0
 14
-69.34199992631474
 24
9.024999999999999
 34
0.0
 50
0.0000000000000064
100
AcDbRotatedDimension
1001
ACAD
1000
DSTYLE
1002
{
1070
   171
1070
     6
1070
   273
1070
     5
1002
}
  0
DIMENSION
  5
105
330
1F
100
AcDbEntity
  8
치수문자_일반주서
100
AcDbDimension
  2
_D_2
 10
-83.14747208812729
 20
-9.525000000000048
 30
0.0
 11
-83.14747208812744
 21
30.78524999999995
 31
0.0
 70
   160
  1
%%c<>
 71
     2
 42
19.05
 52
-270.0
  3
SLDDIMSTYLE2
100
AcDbAlignedDimension
 13
-68.84199992631474
 23
9.525
 33
0.0
 14
-68.84199992631474
 24
-9.524999999999999
 34
0.0
 50
90.0000000000002
100
AcDbRotatedDimension
1001
ACAD
1000
DSTYLE
1002
{
1070
   171
1070
     6
1070
   273
1070
     5
1002
}
  0
DIMENSION
  5
11A
330
1F
100
AcDbEntity
  8
치수문자_일반주서
100
AcDbDimension
  2
_D_3
 10
83.0580000736853
 20
56.37259778227563
 30
0.0
 11
47.78661660662188
 21
56.37259778227563
 31
0.0
 70
   160
  1
<>
 71
     2
 42
82.5500000736853
  3
SLDDIMSTYLE1
100
AcDbAlignedDimension
 13
0.5080000000000098
 23
9.017
 33
0.0
 14
83.0580000736853
 24
9.525000000000007
 34
0.0
100
AcDbRotatedDimension
1001
ACAD
1000
DSTYLE
1002
{
1070
   171
1070
     6
1070
   273
1070
     5
1002
}
  0
INSERT
  5
133
330
1F
100
AcDbEntity
  8
외형선
100
AcDbBlockReference
  2
SW_DOWELSYMBOL_0
 10
0.0
 20
0.0
 30
0.0
  0
ARC
  5
15C
330
1F
100
AcDbEntity
  8
0
  6
Continuous
 62
     1
370
    15
100
AcDbCircle
 10
81.53400007368529
 20
-8.001000000000008
 30
0.0
 40
1.524
100
AcDbArc
 50
270.0
 51
0.0
  0
DIMENSION
  5
160
330
1F
100
AcDbEntity
  8
치수문자_일반주서
100
AcDbDimension
  2
*D7
 10
98.42409375179616
 20
9.525000000000006
 30
0.0
 11
95.79909375179616
 21
26.60825000000001
 31
0.0
 70
    32
  1
{Ø<>[]}
 71
     5
 42
19.05000000000001
  3
SLDDIMSTYLE1
100
AcDbAlignedDimension
 13
83.05800007368529
 23
-9.525000000000007
 33
0.0
 14
83.0580000736853
 24
9.525000000000007
 34
0.0
 50
90.0
100
AcDbRotatedDimension
1001
ACAD
1000
DSTYLE
1002
{
1070
   171
1070
     6
1070
   273
1070
     5
1070
   283
1070
     1
1070
   170
1070
     1
1002
}
  0
DIMENSION
  5
171
330
1F
100
AcDbEntity
  8
치수문자_일반주서
100
AcDbDimension
  2
*D8
 10
81.53400007368529
 20
-8.001000000000008
 30
0.0
 11
94.55987277179399
 21
-25.88884571860643
 31
0.0
 70
   164
  1
<>
 71
     5
 42
1.523999999999996
  3
SLDDIMSTYLE1
100
AcDbRadialDimension
 15
82.43111820419495
 25
-9.232972020750013
 35
0.0
 40
0.0
1001
ACAD_DSTYLE_DIMRADIAL_EXTENSION
1070
   387
1070
     1
1070
   388
1040
4.71238898038469
1070
   390
1040
0.0
  0
ARC
  5
17E
330
1F
100
AcDbEntity
  8
0
  6
Continuous
 62
     1
370
    15
100
AcDbCircle
 10
81.53400007368529
 20
8.00100000000002
 30
0.0
 40
1.524
100
AcDbArc
 50
0.0
 51
90.0
  0
LINE
  5
1A7
330
1F
100
AcDbEntity
  8
0
  6
Continuous
 62
     4
370
    15
100
AcDbLine
 10
0.5080000000000098
 20
9.017
 30
0.0
 11
0.5080000000000098
 21
-9.017
 31
0.0
  0
LINE
  5
1A8
330
1F
100
AcDbEntity
  8
0
  6
Continuous
 62
     4
370
    15
100
AcDbLine
 10
-69.34199992631474
 20
9.024999999999999
 30
0.0
 11
-69.34199992631474
 21
-9.024999999999991
 31
0.0
  0
ENDSEC
  0
SECTION
  2
OBJECTS
  0
DICTIONARY
  5
C
330
0
100
AcDbDictionary
281
     1
  3
ACAD_GROUP
350
D
  3
ACAD_IMAGE_VARS
350
157
  3
ACAD_LAYOUT
350
1A
  3
ACAD_MLINESTYLE
350
17
  3
ACAD_PLOTSETTINGS
350
19
  3
ACAD_PLOTSTYLENAME
350
E
  3
ACAD_SCALELIST
350
47
  3
APPDATA
350
155
  3
DWGPROPS
350
1AA
  0
DICTIONARY
  5
D
102
{ACAD_REACTORS
330
C
102
}
330
C
100
AcDbDictionary
281
     1
  0
RASTERVARIABLES
  5
157
102
{ACAD_REACTORS
330
C
102
}
330
C
100
AcDbRasterVariables
 90
        0
 70
     1
 71
     1
 72
     1
  0
DICTIONARY
  5
1A
102
{ACAD_REACTORS
330
C
102
}
330
C
100
AcDbDictionary
281
     1
  3
Layout1
350
1E
  3
Layout2
350
26
  3
Model
350
22
  0
DICTIONARY
  5
17
102
{ACAD_REACTORS
330
C
102
}
330
C
100
AcDbDictionary
281
     1
  3
Standard
350
18
  0
DICTIONARY
  5
19
102
{ACAD_REACTORS
330
C
102
}
330
C
100
AcDbDictionary
281
     1
  0
ACDBDICTIONARYWDFLT
  5
E
102
{ACAD_REACTORS
330
C
102
}
330
C
100
AcDbDictionary
281
     1
  3
Normal
350
F
100
AcDbDictionaryWithDefault
340
F
  0
DICTIONARY
  5
47
102
{ACAD_REACTORS
330
C
102
}
330
C
100
AcDbDictionary
281
     1
  3
A0
350
48
  3
A1
350
49
  3
A2
350
4A
  3
A3
350
4B
  3
A4
350
4C
  3
A5
350
4D
  3
A6
350
4E
  3
A7
350
4F
  3
A8
350
50
  3
A9
350
51
  3
B0
350
52
  3
B1
350
53
  3
B2
350
54
  3
B3
350
55
  3
B4
350
56
  3
B5
350
57
  3
B6
350
58
  3
B7
350
59
  3
B8
350
5A
  3
B9
350
5B
  3
C0
350
5C
  3
C1
350
5D
  3
C2
350
5E
  3
C3
350
5F
  3
C4
350
60
  3
C5
350
61
  3
C6
350
62
  3
C7
350
63
  3
C8
350
64
  3
C9
350
65
  3
D0
350
66
  3
D1
350
67
  3
D2
350
68
  0
DICTIONARY
  5
155
102
{ACAD_REACTORS
330
C
102
}
330
C
100
AcDbDictionary
281
     1
  0
XRECORD
  5
1AA
102
{ACAD_REACTORS
330
C
102
}
330
C
100
AcDbXrecord
280
     1
  1
DWGPROPS COOKIE
  2

  3

  4

  6

  7

  8
12014074
  9

300
=
301
=
302
=
303
=
304
=
305
=
306
=
307
=
308
=
309
=
 40
0.0
 41
2458269.041660718
 42
2458270.139626273
  1

 90
        0
  0
LAYOUT
  5
1E
102
{ACAD_REACTORS
330
1A
102
}
330
1A
100
AcDbPlotSettings
  1

  2
none_device
  4

  6

 40
0.0
 41
0.0
 42
0.0
 43
0.0
 44
0.0
 45
0.0
 46
0.0
 47
0.0
 48
0.0
 49
0.0
140
0.0
141
0.0
142
1.0
143
1.0
 70
   688
 72
     1
 73
     0
 74
     5
  7

 75
    16
147
1.0
148
0.0
149
0.0
100
AcDbLayout
  1
Layout1
 70
     1
 71
     1
 10
0.0
 20
0.0
 11
420.0
 21
297.0
 12
0.0
 22
0.0
 32
0.0
 14
1.000000000000000E+20
 24
1.000000000000000E+20
 34
1.000000000000000E+20
 15
-1.000000000000000E+20
 25
-1.000000000000000E+20
 35
-1.000000000000000E+20
146
0.0
 13
0.0
 23
0.0
 33
0.0
 16
1.0
 26
0.0
 36
0.0
 17
0.0
 27
1.0
 37
0.0
 76
     0
330
1B
  0
LAYOUT
  5
26
102
{ACAD_REACTORS
330
1A
102
}
330
1A
100
AcDbPlotSettings
  1

  2
none_device
  4

  6

 40
0.0
 41
0.0
 42
0.0
 43
0.0
 44
0.0
 45
0.0
 46
0.0
 47
0.0
 48
0.0
 49
0.0
140
0.0
141
0.0
142
1.0
143
1.0
 70
   688
 72
     1
 73
     0
 74
     5
  7

 75
    16
147
1.0
148
0.0
149
0.0
100
AcDbLayout
  1
Layout2
 70
     1
 71
     2
 10
0.0
 20
0.0
 11
0.0
 21
0.0
 12
0.0
 22
0.0
 32
0.0
 14
0.0
 24
0.0
 34
0.0
 15
0.0
 25
0.0
 35
0.0
146
0.0
 13
0.0
 23
0.0
 33
0.0
 16
1.0
 26
0.0
 36
0.0
 17
0.0
 27
1.0
 37
0.0
 76
     0
330
23
  0
LAYOUT
  5
22
102
{ACAD_REACTORS
330
1A
102
}
330
1A
100
AcDbPlotSettings
  1

  2
none_device
  4
ANSI_A_(11.00_x_8.50_Inches)
  6

 40
6.35
 41
19.05
 42
6.35000508
 43
19.05000254
 44
279.4
 45
215.9
 46
167.3377186515977
 47
63.51763376393241
 48
0.0
 49
0.0
140
0.0
141
0.0
142
0.0633796506203478
143
1.0
 70
  1696
 72
     0
 73
     0
 74
     0
  7

 75
     0
147
0.0235690232323232
148
0.0
149
0.0
100
AcDbLayout
  1
Model
 70
     1
 71
     0
 10
0.0
 20
0.0
 11
420.0
 21
297.0
 12
0.0
 22
0.0
 32
0.0
 14
-87.52247208812749
 24
-49.87471488395509
 34
0.0
 15
105.8227028595371
 25
75.73475965011002
 35
0.0
146
0.0
 13
0.0
 23
0.0
 33
0.0
 16
1.0
 26
0.0
 36
0.0
 17
0.0
 27
1.0
 37
0.0
 76
     0
330
1F
331
29
  0
MLINESTYLE
  5
18
102
{ACAD_REACTORS
330
17
102
}
330
17
100
AcDbMlineStyle
  2
Standard
 70
     0
  3

 62
   256
 51
90.0
 52
90.0
 71
     2
 49
0.5
 62
   256
  6
BYLAYER
 49
-0.5
 62
   256
  6
BYLAYER
  0
ACDBPLACEHOLDER
  5
F
102
{ACAD_REACTORS
330
E
102
}
330
E
  0
SCALE
  5
48
102
{ACAD_REACTORS
330
47
102
}
330
47
100
AcDbScale
 70
     0
300
1:1
140
1.0
141
1.0
290
     1
  0
SCALE
  5
49
102
{ACAD_REACTORS
330
47
102
}
330
47
100
AcDbScale
 70
     0
300
1:2
140
1.0
141
2.0
290
     0
  0
SCALE
  5
4A
102
{ACAD_REACTORS
330
47
102
}
330
47
100
AcDbScale
 70
     0
300
1:4
140
1.0
141
4.0
290
     0
  0
SCALE
  5
4B
102
{ACAD_REACTORS
330
47
102
}
330
47
100
AcDbScale
 70
     0
300
1:5
140
1.0
141
5.0
290
     0
  0
SCALE
  5
4C
102
{ACAD_REACTORS
330
47
102
}
330
47
100
AcDbScale
 70
     0
300
1:8
140
1.0
141
8.0
290
     0
  0
SCALE
  5
4D
102
{ACAD_REACTORS
330
47
102
}
330
47
100
AcDbScale
 70
     0
300
1:10
140
1.0
141
10.0
290
     0
  0
SCALE
  5
4E
102
{ACAD_REACTORS
330
47
102
}
330
47
100
AcDbScale
 70
     0
300
1:16
140
1.0
141
16.0
290
     0
  0
SCALE
  5
4F
102
{ACAD_REACTORS
330
47
102
}
330
47
100
AcDbScale
 70
     0
300
1:20
140
1.0
141
20.0
290
     0
  0
SCALE
  5
50
102
{ACAD_REACTORS
330
47
102
}
330
47
100
AcDbScale
 70
     0
300
1:30
140
1.0
141
30.0
290
     0
  0
SCALE
  5
51
102
{ACAD_REACTORS
330
47
102
}
330
47
100
AcDbScale
 70
     0
300
1:40
140
1.0
141
40.0
290
     0
  0
SCALE
  5
52
102
{ACAD_REACTORS
330
47
102
}
330
47
100
AcDbScale
 70
     0
300
1:50
140
1.0
141
50.0
290
     0
  0
SCALE
  5
53
102
{ACAD_REACTORS
330
47
102
}
330
47
100
AcDbScale
 70
     0
300
1:100
140
1.0
141
100.0
290
     0
  0
SCALE
  5
54
102
{ACAD_REACTORS
330
47
102
}
330
47
100
AcDbScale
 70
     0
300
2:1
140
2.0
141
1.0
290
     0
  0
SCALE
  5
55
102
{ACAD_REACTORS
330
47
102
}
330
47
100
AcDbScale
 70
     0
300
4:1
140
4.0
141
1.0
290
     0
  0
SCALE
  5
56
102
{ACAD_REACTORS
330
47
102
}
330
47
100
AcDbScale
 70
     0
300
8:1
140
8.0
141
1.0
290
     0
  0
SCALE
  5
57
102
{ACAD_REACTORS
330
47
102
}
330
47
100
AcDbScale
 70
     0
300
10:1
140
10.0
141
1.0
290
     0
  0
SCALE
  5
58
102
{ACAD_REACTORS
330
47
102
}
330
47
100
AcDbScale
 70
     0
300
100:1
140
100.0
141
1.0
290
     0
  0
SCALE
  5
59
102
{ACAD_REACTORS
330
47
102
}
330
47
100
AcDbScale
 70
     0
300
1/128" = 1'-0"
140
0.0078125
141
12.0
290
     0
  0
SCALE
  5
5A
102
{ACAD_REACTORS
330
47
102
}
330
47
100
AcDbScale
 70
     0
300
1/64" = 1'-0"
140
0.015625
141
12.0
290
     0
  0
SCALE
  5
5B
102
{ACAD_REACTORS
330
47
102
}
330
47
100
AcDbScale
 70
     0
300
1/32" = 1'-0"
140
0.03125
141
12.0
290
     0
  0
SCALE
  5
5C
102
{ACAD_REACTORS
330
47
102
}
330
47
100
AcDbScale
 70
     0
300
1/16" = 1'-0"
140
0.0625
141
12.0
290
     0
  0
SCALE
  5
5D
102
{ACAD_REACTORS
330
47
102
}
330
47
100
AcDbScale
 70
     0
300
3/32" = 1'-0"
140
0.09375
141
12.0
290
     0
  0
SCALE
  5
5E
102
{ACAD_REACTORS
330
47
102
}
330
47
100
AcDbScale
 70
     0
300
1/8" = 1'-0"
140
0.125
141
12.0
290
     0
  0
SCALE
  5
5F
102
{ACAD_REACTORS
330
47
102
}
330
47
100
AcDbScale
 70
     0
300
3/16" = 1'-0"
140
0.1875
141
12.0
290
     0
  0
SCALE
  5
60
102
{ACAD_REACTORS
330
47
102
}
330
47
100
AcDbScale
 70
     0
300
1/4" = 1'-0"
140
0.25
141
12.0
290
     0
  0
SCALE
  5
61
102
{ACAD_REACTORS
330
47
102
}
330
47
100
AcDbScale
 70
     0
300
3/8" = 1'-0"
140
0.375
141
12.0
290
     0
  0
SCALE
  5
62
102
{ACAD_REACTORS
330
47
102
}
330
47
100
AcDbScale
 70
     0
300
1/2" = 1'-0"
140
0.5
141
12.0
290
     0
  0
SCALE
  5
63
102
{ACAD_REACTORS
330
47
102
}
330
47
100
AcDbScale
 70
     0
300
3/4" = 1'-0"
140
0.75
141
12.0
290
     0
  0
SCALE
  5
64
102
{ACAD_REACTORS
330
47
102
}
330
47
100
AcDbScale
 70
     0
300
1" = 1'-0"
140
1.0
141
12.0
290
     0
  0
SCALE
  5
65
102
{ACAD_REACTORS
330
47
102
}
330
47
100
AcDbScale
 70
     0
300
1-1/2" = 1'-0"
140
1.5
141
12.0
290
     0
  0
SCALE
  5
66
102
{ACAD_REACTORS
330
47
102
}
330
47
100
AcDbScale
 70
     0
300
3" = 1'-0"
140
3.0
141
12.0
290
     0
  0
SCALE
  5
67
102
{ACAD_REACTORS
330
47
102
}
330
47
100
AcDbScale
 70
     0
300
6" = 1'-0"
140
6.0
141
12.0
290
     0
  0
SCALE
  5
68
102
{ACAD_REACTORS
330
47
102
}
330
47
100
AcDbScale
 70
     0
300
1'-0" = 1'-0"
140
12.0
141
12.0
290
     0
  0
ENDSEC
  0
EOF
