  0
SECTION
  2
HEADER
  9
$ACADVER
  1
AC1015
  9
$ACADMAINTVER
 70
     6
  9
$DWGCODEPAGE
  3
ANSI_949
  9
$INSBASE
 10
0.0
 20
0.0
 30
0.0
  9
$EXTMIN
 10
-66.79391076355263
 20
-40.87734245657439
 30
0.0
  9
$EXTMAX
 10
121.2771732248121
 20
72.55975965011002
 30
0.0
  9
$LIMMIN
 10
0.0
 20
0.0
  9
$LIMMAX
 10
420.0
 20
297.0
  9
$ORTHOMODE
 70
     1
  9
$REGENMODE
 70
     1
  9
$FILLMODE
 70
     1
  9
$QTEXTMODE
 70
     0
  9
$MIRRTEXT
 70
     1
  9
$LTSCALE
 40
1.0
  9
$ATTMODE
 70
     1
  9
$TEXTSIZE
 40
3.5
  9
$TRACEWID
 40
1.0
  9
$TEXTSTYLE
  7
Standard
  9
$CLAYER
  8
0
  9
$CELTYPE
  6
ByLayer
  9
$CECOLOR
 62
   256
  9
$CELTSCALE
 40
1.0
  9
$DISPSILH
 70
     0
  9
$DIMSCALE
 40
1.0
  9
$DIMASZ
 40
3.302
  9
$DIMEXO
 40
1.0
  9
$DIMDLI
 40
3.75
  9
$DIMRND
 40
0.0
  9
$DIMDLE
 40
0.0
  9
$DIMEXE
 40
1.0
  9
$DIMTP
 40
0.0
  9
$DIMTM
 40
0.0
  9
$DIMTXT
 40
3.5
  9
$DIMCEN
 40
2.5
  9
$DIMTSZ
 40
0.0
  9
$DIMTOL
 70
     0
  9
$DIMLIM
 70
     0
  9
$DIMTIH
 70
     1
  9
$DIMTOH
 70
     1
  9
$DIMSE1
 70
     0
  9
$DIMSE2
 70
     0
  9
$DIMTAD
 70
     1
  9
$DIMZIN
 70
     0
  9
$DIMBLK
  1

  9
$DIMASO
 70
     1
  9
$DIMSHO
 70
     1
  9
$DIMPOST
  1

  9
$DIMAPOST
  1

  9
$DIMALT
 70
     0
  9
$DIMALTD
 70
     3
  9
$DIMALTF
 40
0.0393700787401575
  9
$DIMLFAC
 40
1.0
  9
$DIMTOFL
 70
     1
  9
$DIMTVP
 40
0.0
  9
$DIMTIX
 70
     0
  9
$DIMSOXD
 70
     0
  9
$DIMSAH
 70
     0
  9
$DIMBLK1
  1

  9
$DIMBLK2
  1

  9
$DIMSTYLE
  2
ISO-25
  9
$DIMCLRD
 70
     0
  9
$DIMCLRE
 70
     0
  9
$DIMCLRT
 70
     0
  9
$DIMTFAC
 40
1.0
  9
$DIMGAP
 40
1.524
  9
$DIMJUST
 70
     0
  9
$DIMSD1
 70
     0
  9
$DIMSD2
 70
     0
  9
$DIMTOLJ
 70
     0
  9
$DIMTZIN
 70
     0
  9
$DIMALTZ
 70
     0
  9
$DIMALTTZ
 70
     0
  9
$DIMUPT
 70
     0
  9
$DIMDEC
 70
     2
  9
$DIMTDEC
 70
     2
  9
$DIMALTU
 70
     2
  9
$DIMALTTD
 70
     3
  9
$DIMTXSTY
  7
Standard
  9
$DIMAUNIT
 70
     0
  9
$DIMADEC
 70
     2
  9
$DIMALTRND
 40
0.0
  9
$DIMAZIN
 70
     0
  9
$DIMDSEP
 70
    44
  9
$DIMATFIT
 70
     3
  9
$DIMFRAC
 70
     0
  9
$DIMLDRBLK
  1

  9
$DIMLUNIT
 70
     2
  9
$DIMLWD
 70
    -2
  9
$DIMLWE
 70
    -2
  9
$DIMTMOVE
 70
     0
  9
$LUNITS
 70
     2
  9
$LUPREC
 70
     2
  9
$SKETCHINC
 40
1.0
  9
$FILLETRAD
 40
10.0
  9
$AUNITS
 70
     0
  9
$AUPREC
 70
     2
  9
$MENU
  1
.
  9
$ELEVATION
 40
0.0
  9
$PELEVATION
 40
0.0
  9
$THICKNESS
 40
0.0
  9
$LIMCHECK
 70
     0
  9
$CHAMFERA
 40
0.0
  9
$CHAMFERB
 40
0.0
  9
$CHAMFERC
 40
0.0
  9
$CHAMFERD
 40
0.0
  9
$SKPOLY
 70
     0
  9
$TDCREATE
 40
2458269.416425047
  9
$TDUCREATE
 40
2458269.041425047
  9
$TDUPDATE
 40
2458270.501189711
  9
$TDUUPDATE
 40
2458270.126189711
  9
$TDINDWG
 40
0.0068396875
  9
$TDUSRTIMER
 40
2458270.123483588
  9
$USRTIMER
 70
     1
  9
$ANGBASE
 50
0.0
  9
$ANGDIR
 70
     0
  9
$PDMODE
 70
     0
  9
$PDSIZE
 40
-1.0
  9
$PLINEWID
 40
0.0
  9
$SPLFRAME
 70
     0
  9
$SPLINETYPE
 70
     6
  9
$SPLINESEGS
 70
     8
  9
$HANDSEED
  5
1BB
  9
$SURFTAB1
 70
     6
  9
$SURFTAB2
 70
     6
  9
$SURFTYPE
 70
     6
  9
$SURFU
 70
     6
  9
$SURFV
 70
     6
  9
$UCSBASE
  2

  9
$UCSNAME
  2

  9
$UCSORG
 10
0.0
 20
0.0
 30
0.0
  9
$UCSXDIR
 10
1.0
 20
0.0
 30
0.0
  9
$UCSYDIR
 10
0.0
 20
1.0
 30
0.0
  9
$UCSORTHOREF
  2

  9
$UCSORTHOVIEW
 70
     0
  9
$UCSORGTOP
 10
0.0
 20
0.0
 30
0.0
  9
$UCSORGBOTTOM
 10
0.0
 20
0.0
 30
0.0
  9
$UCSORGLEFT
 10
0.0
 20
0.0
 30
0.0
  9
$UCSORGRIGHT
 10
0.0
 20
0.0
 30
0.0
  9
$UCSORGFRONT
 10
0.0
 20
0.0
 30
0.0
  9
$UCSORGBACK
 10
0.0
 20
0.0
 30
0.0
  9
$PUCSBASE
  2

  9
$PUCSNAME
  2

  9
$PUCSORG
 10
0.0
 20
0.0
 30
0.0
  9
$PUCSXDIR
 10
1.0
 20
0.0
 30
0.0
  9
$PUCSYDIR
 10
0.0
 20
1.0
 30
0.0
  9
$PUCSORTHOREF
  2

  9
$PUCSORTHOVIEW
 70
     0
  9
$PUCSORGTOP
 10
0.0
 20
0.0
 30
0.0
  9
$PUCSORGBOTTOM
 10
0.0
 20
0.0
 30
0.0
  9
$PUCSORGLEFT
 10
0.0
 20
0.0
 30
0.0
  9
$PUCSORGRIGHT
 10
0.0
 20
0.0
 30
0.0
  9
$PUCSORGFRONT
 10
0.0
 20
0.0
 30
0.0
  9
$PUCSORGBACK
 10
0.0
 20
0.0
 30
0.0
  9
$USERI1
 70
     0
  9
$USERI2
 70
     0
  9
$USERI3
 70
     0
  9
$USERI4
 70
     0
  9
$USERI5
 70
     0
  9
$USERR1
 40
0.0
  9
$USERR2
 40
0.0
  9
$USERR3
 40
0.0
  9
$USERR4
 40
0.0
  9
$USERR5
 40
0.0
  9
$WORLDVIEW
 70
     1
  9
$SHADEDGE
 70
     3
  9
$SHADEDIF
 70
    70
  9
$TILEMODE
 70
     1
  9
$MAXACTVP
 70
    64
  9
$PINSBASE
 10
0.0
 20
0.0
 30
0.0
  9
$PLIMCHECK
 70
     0
  9
$PEXTMIN
 10
1.000000000000000E+20
 20
1.000000000000000E+20
 30
1.000000000000000E+20
  9
$PEXTMAX
 10
-1.000000000000000E+20
 20
-1.000000000000000E+20
 30
-1.000000000000000E+20
  9
$PLIMMIN
 10
0.0
 20
0.0
  9
$PLIMMAX
 10
0.0
 20
0.0
  9
$UNITMODE
 70
     0
  9
$VISRETAIN
 70
     1
  9
$PLINEGEN
 70
     0
  9
$PSLTSCALE
 70
     1
  9
$TREEDEPTH
 70
  3020
  9
$CMLSTYLE
  2
Standard
  9
$CMLJUST
 70
     0
  9
$CMLSCALE
 40
20.0
  9
$PROXYGRAPHICS
 70
     1
  9
$MEASUREMENT
 70
     1
  9
$CELWEIGHT
370
    -1
  9
$ENDCAPS
280
     0
  9
$JOINSTYLE
280
     0
  9
$LWDISPLAY
290
     1
  9
$INSUNITS
 70
     4
  9
$HYPERLINKBASE
  1

  9
$STYLESHEET
  1

  9
$XEDIT
290
     1
  9
$CEPSNTYPE
380
     0
  9
$PSTYLEMODE
290
     1
  9
$FINGERPRINTGUID
  2
{14341D3A-063D-4FD1-8BA7-A2F613E3D953}
  9
$VERSIONGUID
  2
{FAEB1C32-E019-11D5-929B-00C0DF256EC4}
  9
$EXTNAMES
290
     1
  9
$PSVPSCALE
 40
0.0
  9
$OLESTARTUP
290
     0
  0
ENDSEC
  0
SECTION
  2
CLASSES
  0
CLASS
  1
ACDBDICTIONARYWDFLT
  2
AcDbDictionaryWithDefault
  3
ObjectDBX Classes
 90
        0
280
     0
281
     0
  0
CLASS
  1
VISUALSTYLE
  2
AcDbVisualStyle
  3
ObjectDBX Classes
 90
     4095
280
     0
281
     0
  0
CLASS
  1
MATERIAL
  2
AcDbMaterial
  3
ObjectDBX Classes
 90
     1153
280
     0
281
     0
  0
CLASS
  1
SCALE
  2
AcDbScale
  3
ObjectDBX Classes
 90
     1153
280
     0
281
     0
  0
CLASS
  1
SUN
  2
AcDbSun
  3
SCENEOE
 90
     1153
280
     0
281
     0
  0
CLASS
  1
ACDBPLACEHOLDER
  2
AcDbPlaceHolder
  3
ObjectDBX Classes
 90
        0
280
     0
281
     0
  0
CLASS
  1
LAYOUT
  2
AcDbLayout
  3
ObjectDBX Classes
 90
        0
280
     0
281
     0
  0
CLASS
  1
TABLESTYLE
  2
AcDbTableStyle
  3
ObjectDBX Classes
 90
     4095
280
     0
281
     0
  0
CLASS
  1
MLEADERSTYLE
  2
AcDbMLeaderStyle
  3
ACDB_MLEADERSTYLE_CLASS
 90
     4095
280
     0
281
     0
  0
CLASS
  1
RASTERVARIABLES
  2
AcDbRasterVariables
  3
ISM
 90
        0
280
     0
281
     0
  0
CLASS
  1
DIMASSOC
  2
AcDbDimAssoc
  3
"AcDbDimAssoc|Product Desc:     AcDim ARX App For Dimension|Company:          Autodesk, Inc.|WEB Address:      www.autodesk.com"
 90
        0
280
     0
281
     0
  0
ENDSEC
  0
SECTION
  2
TABLES
  0
TABLE
  2
VPORT
  5
8
330
0
100
AcDbSymbolTable
 70
     1
  0
VPORT
  5
29
330
8
100
AcDbSymbolTableRecord
100
AcDbViewportTableRecord
  2
*Active
 70
     0
 10
0.0
 20
0.0
 11
1.0
 21
1.0
 12
45.66283312061575
 22
19.96795134992071
 13
0.0
 23
0.0
 14
10.0
 24
10.0
 15
10.0
 25
10.0
 16
0.0
 26
0.0
 36
1.0
 17
0.0
 27
0.0
 37
0.0
 40
166.9855042188862
 41
1.970186335403727
 42
50.0
 43
0.0
 44
0.0
 50
0.0
 51
0.0
 71
    16
 72
  2000
 73
     1
 74
     3
 75
     0
 76
     0
 77
     0
 78
     0
281
     0
 65
     1
110
0.0
120
0.0
130
0.0
111
1.0
121
0.0
131
0.0
112
0.0
122
1.0
132
0.0
 79
     0
146
0.0
  0
ENDTAB
  0
TABLE
  2
LTYPE
  5
5
330
0
100
AcDbSymbolTable
 70
     6
  0
LTYPE
  5
14
330
5
100
AcDbSymbolTableRecord
100
AcDbLinetypeTableRecord
  2
ByBlock
 70
     0
  3

 72
    65
 73
     0
 40
0.0
  0
LTYPE
  5
15
330
5
100
AcDbSymbolTableRecord
100
AcDbLinetypeTableRecord
  2
ByLayer
 70
     0
  3

 72
    65
 73
     0
 40
0.0
  0
LTYPE
  5
16
330
5
100
AcDbSymbolTableRecord
100
AcDbLinetypeTableRecord
  2
Continuous
 70
     0
  3
Solid line
 72
    65
 73
     0
 40
0.0
  0
LTYPE
  5
6A
330
5
100
AcDbSymbolTableRecord
100
AcDbLinetypeTableRecord
  2
HIDDEN
 70
     0
  3
Hidden __ __ __ __ __ __ __ __ __ __ __ __ __ __
 72
    65
 73
     2
 40
1.905
 49
1.27
 74
     0
 49
-0.635
 74
     0
  0
LTYPE
  5
6B
330
5
100
AcDbSymbolTableRecord
100
AcDbLinetypeTableRecord
  2
PHANTOM
 70
     0
  3
Phantom ______  __  __  ______  __  __  ______
 72
    65
 73
     6
 40
12.7
 49
6.35
 74
     0
 49
-1.27
 74
     0
 49
1.27
 74
     0
 49
-1.27
 74
     0
 49
1.27
 74
     0
 49
-1.27
 74
     0
  0
LTYPE
  5
6C
330
5
100
AcDbSymbolTableRecord
100
AcDbLinetypeTableRecord
  2
CENTER
 70
     0
  3
Center ____ _ ____ _ ____ _ ____ _ ____ _ ____
 72
    65
 73
     4
 40
10.16
 49
6.35
 74
     0
 49
-1.27
 74
     0
 49
1.27
 74
     0
 49
-1.27
 74
     0
  0
LTYPE
  5
6D
330
5
100
AcDbSymbolTableRecord
100
AcDbLinetypeTableRecord
  2
CENTERX2
 70
     0
  3
Center (2x) ________  __  ________  __  _____
 72
    65
 73
     4
 40
20.32
 49
12.7
 74
     0
 49
-2.54
 74
     0
 49
2.54
 74
     0
 49
-2.54
 74
     0
  0
LTYPE
  5
6E
330
5
100
AcDbSymbolTableRecord
100
AcDbLinetypeTableRecord
  2
DOT2
 70
     0
  3
Dot (.5x) ........................................
 72
    65
 73
     2
 40
0.635
 49
0.0
 74
     0
 49
-0.635
 74
     0
  0
ENDTAB
  0
TABLE
  2
LAYER
  5
2
330
0
100
AcDbSymbolTable
 70
    17
  0
LAYER
  5
10
330
2
100
AcDbSymbolTableRecord
100
AcDbLayerTableRecord
  2
0
 70
     0
 62
     7
  6
Continuous
370
    -3
390
F
  0
LAYER
  5
6F
330
2
100
AcDbSymbolTableRecord
100
AcDbLayerTableRecord
  2
FORMAT
 70
     0
 62
     2
  6
Continuous
370
    -3
390
F
  0
LAYER
  5
70
330
2
100
AcDbSymbolTableRecord
100
AcDbLayerTableRecord
  2
외형선
 70
     0
 62
   100
  6
Continuous
370
    30
390
F
  0
LAYER
  5
71
330
2
100
AcDbSymbolTableRecord
100
AcDbLayerTableRecord
  2
숨은선
 70
     0
 62
     2
  6
HIDDEN
370
    15
390
F
  0
LAYER
  5
72
330
2
100
AcDbSymbolTableRecord
100
AcDbLayerTableRecord
  2
중심선
 70
     0
 62
     1
  6
CENTERX2
370
    -3
390
F
  0
LAYER
  5
73
330
2
100
AcDbSymbolTableRecord
100
AcDbLayerTableRecord
  2
파단선
 70
     0
 62
     4
  6
Continuous
370
    -3
390
F
  0
LAYER
  5
74
330
2
100
AcDbSymbolTableRecord
100
AcDbLayerTableRecord
  2
해칭선
 70
     0
 62
     4
  6
Continuous
370
    -3
390
F
  0
LAYER
  5
75
330
2
100
AcDbSymbolTableRecord
100
AcDbLayerTableRecord
  2
가는실선
 70
     0
 62
     4
  6
Continuous
370
    -3
390
F
  0
LAYER
  5
76
330
2
100
AcDbSymbolTableRecord
100
AcDbLayerTableRecord
  2
치수_보조선
 70
     0
 62
     4
  6
Continuous
370
    -3
390
F
  0
LAYER
  5
77
330
2
100
AcDbSymbolTableRecord
100
AcDbLayerTableRecord
  2
치수문자_일반주서
 70
     0
 62
     7
  6
Continuous
370
    15
390
F
  0
LAYER
  5
78
330
2
100
AcDbSymbolTableRecord
100
AcDbLayerTableRecord
  2
개별주서
 70
     0
 62
   100
  6
Continuous
370
    30
390
F
  0
LAYER
  5
79
330
2
100
AcDbSymbolTableRecord
100
AcDbLayerTableRecord
  2
중간선
 70
     0
 62
     2
  6
Continuous
370
    15
390
F
  0
LAYER
  5
7A
330
2
100
AcDbSymbolTableRecord
100
AcDbLayerTableRecord
  2
윤곽선
 70
     0
 62
     3
  6
Continuous
370
    40
390
F
  0
LAYER
  5
7B
330
2
100
AcDbSymbolTableRecord
100
AcDbLayerTableRecord
  2
중심마크
 70
     0
 62
   100
  6
Continuous
370
    30
390
F
  0
LAYER
  5
7C
330
2
100
AcDbSymbolTableRecord
100
AcDbLayerTableRecord
  2
가상선
 70
     0
 62
     4
  6
PHANTOM
370
    -3
390
F
  0
LAYER
  5
7D
330
2
100
AcDbSymbolTableRecord
100
AcDbLayerTableRecord
  2
특수지정선
 70
     0
 62
     5
  6
CENTERX2
370
    60
390
F
  0
LAYER
  5
15F
330
2
100
AcDbSymbolTableRecord
100
AcDbLayerTableRecord
  2
Defpoints
 70
     0
 62
     7
  6
Continuous
290
     0
370
    -3
390
F
  0
ENDTAB
  0
TABLE
  2
STYLE
  5
3
330
0
100
AcDbSymbolTable
 70
     2
  0
STYLE
  5
11
330
3
100
AcDbSymbolTableRecord
100
AcDbTextStyleTableRecord
  2
Standard
 70
     0
 40
0.0
 41
1.0
 50
0.0
 71
     0
 42
3.5
  3
txt
  4

  0
STYLE
  5
93
330
3
100
AcDbSymbolTableRecord
100
AcDbTextStyleTableRecord
  2
SLDTEXTSTYLE0
 70
     0
 40
0.0
 41
0.75
 50
0.0
 71
     0
 42
3.5
  3
TXT
  4

  0
ENDTAB
  0
TABLE
  2
VIEW
  5
6
330
0
100
AcDbSymbolTable
 70
     0
  0
ENDTAB
  0
TABLE
  2
UCS
  5
7
330
0
100
AcDbSymbolTable
 70
     0
  0
ENDTAB
  0
TABLE
  2
APPID
  5
9
330
0
100
AcDbSymbolTable
 70
     3
  0
APPID
  5
12
330
9
100
AcDbSymbolTableRecord
100
AcDbRegAppTableRecord
  2
ACAD
 70
     0
  0
APPID
  5
171
330
9
100
AcDbSymbolTableRecord
100
AcDbRegAppTableRecord
  2
ACAD_DSTYLE_DIMRADIAL_EXTENSION
 70
     0
  0
APPID
  5
17F
330
9
100
AcDbSymbolTableRecord
100
AcDbRegAppTableRecord
  2
PE_DIMMEASUREMENT
 70
     0
  0
ENDTAB
  0
TABLE
  2
DIMSTYLE
  5
A
330
0
100
AcDbSymbolTable
 70
     5
100
AcDbDimStyleTable
  0
DIMSTYLE
105
27
330
A
100
AcDbSymbolTableRecord
100
AcDbDimStyleTableRecord
  2
ISO-25
 70
     0
 41
2.5
 42
0.625
 43
3.75
 44
1.25
 73
     0
 74
     0
 77
     1
 78
     8
140
2.5
141
2.5
143
0.03937007874016
147
0.625
171
     3
172
     1
178
     0
271
     2
272
     2
274
     3
278
    44
283
     0
284
     8
340
11
  0
DIMSTYLE
105
DA
102
{ACAD_REACTORS
330
D9
102
}
330
A
100
AcDbSymbolTableRecord
100
AcDbDimStyleTableRecord
  2
SLDDIMSTYLE0
 70
     0
 41
3.302
 44
0.0
 45
0.000000001
 73
     0
 74
     0
 77
     1
 78
    12
 79
     3
140
3.5
143
0.0393700787401575
147
0.875
148
0.000000001
170
     1
172
     1
173
     1
178
     0
271
     2
272
     2
276
     2
284
    12
289
     0
340
93
  0
DIMSTYLE
105
F0
102
{ACAD_REACTORS
330
EF
102
}
330
A
100
AcDbSymbolTableRecord
100
AcDbDimStyleTableRecord
  2
SLDDIMSTYLE1
 70
     0
 41
3.302
 44
0.0
 45
0.000000001
 73
     0
 74
     0
 77
     1
 78
     4
 79
     1
140
3.5
143
0.0393700787401575
147
0.875
148
0.000000001
170
     1
173
     1
178
     0
271
     2
272
     2
276
     2
284
    12
340
93
  0
DIMSTYLE
105
104
102
{ACAD_REACTORS
330
103
102
}
330
A
100
AcDbSymbolTableRecord
100
AcDbDimStyleTableRecord
  2
SLDDIMSTYLE2
 70
     0
 41
3.302
 44
0.0
 45
0.000000001
 73
     0
 74
     0
 77
     1
 78
     4
 79
     1
140
3.5
143
0.0393700787401575
147
0.875
148
0.000000001
170
     1
172
     1
173
     1
178
     0
271
     2
272
     2
276
     2
284
    12
289
     0
340
93
  0
DIMSTYLE
105
119
102
{ACAD_REACTORS
330
118
330
160
330
1AB
102
}
330
A
100
AcDbSymbolTableRecord
100
AcDbDimStyleTableRecord
  2
SLDDIMSTYLE3
 70
     0
 41
3.302
 44
0.0
 45
0.000000001
 73
     0
 74
     0
 77
     1
 78
    12
 79
     3
140
3.5
143
0.0393700787401575
147
0.875
148
0.000000001
170
     1
173
     1
178
     0
271
     2
272
     2
276
     2
284
    12
340
93
  0
ENDTAB
  0
TABLE
  2
BLOCK_RECORD
  5
1
330
0
100
AcDbSymbolTable
 70
    10
  0
BLOCK_RECORD
  5
1F
330
1
100
AcDbSymbolTableRecord
100
AcDbBlockTableRecord
  2
*Model_Space
340
22
  0
BLOCK_RECORD
  5
1B
330
1
100
AcDbSymbolTableRecord
100
AcDbBlockTableRecord
  2
*Paper_Space
340
1E
  0
BLOCK_RECORD
  5
23
330
1
100
AcDbSymbolTableRecord
100
AcDbBlockTableRecord
  2
*Paper_Space0
340
26
  0
BLOCK_RECORD
  5
7E
330
1
100
AcDbSymbolTableRecord
100
AcDbBlockTableRecord
  2
블럭10
340
0
102
{BLKREFS
331
D0
102
}
  0
BLOCK_RECORD
  5
DB
330
1
100
AcDbSymbolTableRecord
100
AcDbBlockTableRecord
  2
_D
340
0
  0
BLOCK_RECORD
  5
F1
330
1
100
AcDbSymbolTableRecord
100
AcDbBlockTableRecord
  2
_D_1
340
0
  0
BLOCK_RECORD
  5
105
330
1
100
AcDbSymbolTableRecord
100
AcDbBlockTableRecord
  2
_D_2
340
0
  0
BLOCK_RECORD
  5
11A
330
1
100
AcDbSymbolTableRecord
100
AcDbBlockTableRecord
  2
_D_3
340
0
  0
BLOCK_RECORD
  5
12C
330
1
100
AcDbSymbolTableRecord
100
AcDbBlockTableRecord
  2
SW_DOWELSYMBOL_0
340
0
102
{BLKREFS
331
132
102
}
  0
BLOCK_RECORD
  5
163
330
1
100
AcDbSymbolTableRecord
100
AcDbBlockTableRecord
  2
*D7
340
0
  0
BLOCK_RECORD
  5
175
330
1
100
AcDbSymbolTableRecord
100
AcDbBlockTableRecord
  2
*D8
340
0
  0
BLOCK_RECORD
  5
1AE
330
1
100
AcDbSymbolTableRecord
100
AcDbBlockTableRecord
  2
*D9
340
0
  0
ENDTAB
  0
ENDSEC
  0
SECTION
  2
BLOCKS
  0
BLOCK
  5
20
330
1F
100
AcDbEntity
  8
0
100
AcDbBlockBegin
  2
*Model_Space
 70
     0
 10
0.0
 20
0.0
 30
0.0
  3
*Model_Space
  1
*Model_Space
  0
ENDBLK
  5
21
330
1F
100
AcDbEntity
  8
0
100
AcDbBlockEnd
  0
BLOCK
  5
1C
330
1B
100
AcDbEntity
 67
     1
  8
0
100
AcDbBlockBegin
  2
*Paper_Space
 70
     0
 10
0.0
 20
0.0
 30
0.0
  3
*Paper_Space
  1
*Paper_Space
  0
ENDBLK
  5
1D
330
1B
100
AcDbEntity
 67
     1
  8
0
100
AcDbBlockEnd
  0
BLOCK
  5
24
330
23
100
AcDbEntity
  8
0
100
AcDbBlockBegin
  2
*Paper_Space0
 70
     0
 10
0.0
 20
0.0
 30
0.0
  3
*Paper_Space0
  1
*Paper_Space0
  0
ENDBLK
  5
25
330
23
100
AcDbEntity
  8
0
100
AcDbBlockEnd
  0
BLOCK
  5
7F
330
7E
100
AcDbEntity
  8
0
100
AcDbBlockBegin
  2
블럭10
 70
     2
 10
0.0
 20
0.0
 30
0.0
  3
블럭10
  1
블럭10
  0
ELLIPSE
  5
81
330
7E
100
AcDbEntity
  8
중심선
100
AcDbEllipse
 10
20.54032771741204
 20
12.0471743016438
 30
0.0
 11
6.600054785286829
 21
-1.261213355974178E-13
 31
0.0
210
0.0
220
0.0
230
1.0
 40
0.636358354079598
 41
0.9219305317359503
 42
6.513795318482858
  0
ELLIPSE
  5
82
330
7E
100
AcDbEntity
  8
중심선
100
AcDbEllipse
 10
20.54032771746488
 20
12.04717430159265
 30
0.0
 11
3.960054785062283
 21
1.540847449632565E-10
 31
0.0
210
0.0
220
0.0
230
1.0
 40
0.3939339440162632
 41
1.131841032648279
 42
5.62031148352944
  0
LINE
  5
83
330
7E
100
AcDbEntity
  8
중심선
100
AcDbLine
 10
2.268634060543552
 20
16.24717430164393
 30
0.0
 11
5.714909304380834
 21
16.24717430164393
 31
0.0
  0
LINE
  5
84
330
7E
100
AcDbEntity
  8
중심선
100
AcDbLine
 10
5.245725140726316
 20
7.84717430164391
 30
0.0
 11
8.692000384563599
 21
7.84717430164391
 31
0.0
  0
LINE
  5
85
330
7E
100
AcDbEntity
  8
중심선
100
AcDbLine
 10
15.74043728645272
 20
16.24717430164393
 30
0.0
 11
8.692000384563599
 21
7.84717430164391
 31
0.0
  0
LINE
  5
86
330
7E
100
AcDbEntity
  8
중심선
100
AcDbLine
 10
0.1404042013395286
 20
13.71084872107135
 30
0.0
 11
3.58671253028996
 21
13.71088815037384
 31
0.0
  0
LINE
  5
87
330
7E
100
AcDbEntity
  8
중심선
100
AcDbLine
 10
2.750260043222114
 20
10.84717430164391
 30
0.0
 11
6.196535287059397
 21
10.84717430164391
 31
0.0
  0
LINE
  5
88
330
7E
100
AcDbEntity
  8
중심선
100
AcDbLine
 10
12.29416204261559
 20
16.24717430164393
 30
0.0
 11
5.245725140726316
 21
7.84717430164391
 31
0.0
  0
LINE
  5
89
330
7E
100
AcDbEntity
  8
중심선
100
AcDbLine
 10
10.72767329541681
 20
16.24717430164393
 30
0.0
 11
6.196535287059397
 21
10.84717430164391
 31
0.0
  0
LINE
  5
8A
330
7E
100
AcDbEntity
  8
중심선
100
AcDbLine
 10
7.28139805157953
 20
16.24717430164393
 30
0.0
 11
2.750260043222114
 21
10.84717430164391
 31
0.0
  0
LINE
  5
8B
330
7E
100
AcDbEntity
  8
중심선
100
AcDbLine
 10
5.714909304380834
 20
16.24717430164393
 30
0.0
 11
3.58671253028996
 21
13.71088815037384
 31
0.0
  0
LINE
  5
8C
330
7E
100
AcDbEntity
  8
중심선
100
AcDbLine
 10
2.268634060543552
 20
16.24717430164393
 30
0.0
 11
0.1404042013395286
 21
13.71084872107135
 31
0.0
  0
LINE
  5
8D
330
7E
100
AcDbEntity
  8
중심선
100
AcDbLine
 10
7.28139805157953
 20
16.24717430164393
 30
0.0
 11
10.72767329541681
 21
16.24717430164393
 31
0.0
  0
LINE
  5
8E
330
7E
100
AcDbEntity
  8
중심선
100
AcDbLine
 10
12.29416204261559
 20
16.24717430164393
 30
0.0
 11
15.74043728645272
 21
16.24717430164393
 31
0.0
  0
LINE
  5
8F
330
7E
100
AcDbEntity
  8
중심선
100
AcDbLine
 10
19.22036997980202
 20
11.08717430171403
 30
0.0
 11
23.66174974927406
 21
11.08717430171406
 31
0.0
  0
LINE
  5
90
330
7E
100
AcDbEntity
  8
중심선
100
AcDbLine
 10
19.22039502424796
 20
13.00717430171391
 30
0.0
 11
19.22036997980202
 21
11.08717430171403
 31
0.0
  0
LINE
  5
91
330
7E
100
AcDbEntity
  8
중심선
100
AcDbLine
 10
19.22039502424796
 20
13.00717430171391
 30
0.0
 11
26.96566020931264
 21
13.00717430171391
 31
0.0
  0
LINE
  5
92
330
7E
100
AcDbEntity
  8
중심선
100
AcDbLine
 10
22.22332737316547
 20
13.45928029700563
 30
0.0
 11
24.52862924686651
 21
15.39360700705356
 31
0.0
  0
ATTDEF
  5
94
330
7E
100
AcDbEntity
  8
FORMAT
 62
     2
100
AcDbText
 10
-9.18129528874128
 20
2.075366912832191
 30
0.0
 40
4.233333333333333
  1
E5985032 [ 3 FLUTE ]
 41
0.75
  7
SLDTEXTSTYLE0
 11
-9.18129528874128
 21
-0.0412997538344756
 31
0.0
100
AcDbAttributeDefinition
  3

  2
AUTOATTR0
 70
     0
 74
     1
  0
ENDBLK
  5
80
330
7E
100
AcDbEntity
  8
0
100
AcDbBlockEnd
  0
BLOCK
  5
DC
330
DB
100
AcDbEntity
  8
0
100
AcDbBlockBegin
  2
_D
 70
     0
 10
0.0
 20
0.0
 30
0.0
  3
_D
  1
_D
  0
LINE
  5
DE
330
DB
100
AcDbEntity
  8
치수문자_일반주서
 62
     0
370
    -2
100
AcDbLine
 10
101.981
 20
6.412500000000001
 30
0.0
 11
101.981
 21
28.32027939768169
 31
0.0
  0
LINE
  5
DF
330
DB
100
AcDbEntity
  8
치수문자_일반주서
 62
     0
370
    -2
100
AcDbLine
 10
86.106
 20
6.330945502775768
 30
0.0
 11
86.106
 21
28.32027939768169
 31
0.0
  0
LINE
  5
E0
330
DB
100
AcDbEntity
  8
치수문자_일반주서
 62
     0
370
    -2
100
AcDbLine
 10
86.106
 20
28.32027939768169
 30
0.0
 11
54.127
 21
28.32027939768169
 31
0.0
  0
LINE
  5
E1
330
DB
100
AcDbEntity
  8
치수문자_일반주서
 62
     0
370
    -2
100
AcDbLine
 10
101.981
 20
28.32027939768169
 30
0.0
 11
86.106
 21
28.32027939768169
 31
0.0
  0
LINE
  5
E2
330
DB
100
AcDbEntity
  8
치수문자_일반주서
 62
     0
370
    -2
100
AcDbLine
 10
105.283
 20
28.32027939768169
 30
0.0
 11
108.585
 21
28.32027939768169
 31
0.0
  0
LINE
  5
E3
330
DB
100
AcDbEntity
  8
치수문자_일반주서
 62
     0
370
    -2
100
AcDbLine
 10
82.80399999999999
 20
28.32027939768169
 30
0.0
 11
79.50199999999998
 21
28.32027939768169
 31
0.0
  0
SOLID
  5
E4
330
DB
100
AcDbEntity
  8
치수문자_일반주서
 62
     0
100
AcDbTrace
 10
105.283
 20
28.87061273101503
 30
0.0
 11
105.283
 21
27.76994606434836
 31
0.0
 12
101.981
 22
28.32027939768169
 32
0.0
 13
101.981
 23
28.32027939768169
 33
0.0
  0
SOLID
  5
E5
330
DB
100
AcDbEntity
  8
치수문자_일반주서
 62
     0
100
AcDbTrace
 10
82.80399999999999
 20
27.76994606434836
 30
0.0
 11
82.80399999999999
 21
28.87061273101503
 31
0.0
 12
86.106
 22
28.32027939768169
 32
0.0
 13
86.106
 23
28.32027939768169
 33
0.0
  0
MTEXT
  5
E6
330
DB
100
AcDbEntity
  8
치수문자_일반주서
 62
     0
100
AcDbMText
 10
66.8145
 20
32.69527939768169
 30
0.0
 40
3.5
 41
0.0
 71
     2
 72
     1
  1
\A1;15.88 [5/8]
  7
SLDTEXTSTYLE0
 73
     1
 44
1.0
  0
POINT
  5
180
330
DB
100
AcDbEntity
  8
Defpoints
 62
     0
100
AcDbPoint
 10
101.981
 20
6.350000000000001
 30
0.0
  0
POINT
  5
181
330
DB
100
AcDbEntity
  8
Defpoints
 62
     0
100
AcDbPoint
 10
86.106
 20
6.268445502775768
 30
0.0
  0
POINT
  5
182
330
DB
100
AcDbEntity
  8
Defpoints
 62
     0
100
AcDbPoint
 10
86.106
 20
28.32027939768169
 30
0.0
  0
ENDBLK
  5
DD
330
DB
100
AcDbEntity
  8
0
100
AcDbBlockEnd
  0
BLOCK
  5
F2
330
F1
100
AcDbEntity
  8
0
100
AcDbBlockBegin
  2
_D_1
 70
     0
 10
0.0
 20
0.0
 30
0.0
  3
_D_1
  1
_D_1
  0
LINE
  5
F4
330
F1
100
AcDbEntity
  8
치수문자_일반주서
 62
     0
370
    -2
100
AcDbLine
 10
101.981
 20
6.412500000000001
 30
0.0
 11
101.981
 21
68.18475965011002
 31
0.0
  0
LINE
  5
F5
330
F1
100
AcDbEntity
  8
치수문자_일반주서
 62
     0
370
    -2
100
AcDbLine
 10
-50.41900000000002
 20
5.912499999999995
 30
0.0
 11
-50.41900000000001
 21
68.18475965011002
 31
0.0
  0
LINE
  5
F6
330
F1
100
AcDbEntity
  8
치수문자_일반주서
 62
     0
370
    -2
100
AcDbLine
 10
98.67900000000002
 20
68.18475965011002
 30
0.0
 11
-47.11700000000001
 21
68.18475965011002
 31
0.0
  0
SOLID
  5
F7
330
F1
100
AcDbEntity
  8
치수문자_일반주서
 62
     0
100
AcDbTrace
 10
98.67900000000002
 20
67.6344263167767
 30
0.0
 11
98.67900000000002
 21
68.73509298344335
 31
0.0
 12
101.981
 22
68.18475965011002
 32
0.0
 13
101.981
 23
68.18475965011002
 33
0.0
  0
SOLID
  5
F8
330
F1
100
AcDbEntity
  8
치수문자_일반주서
 62
     0
100
AcDbTrace
 10
-47.11700000000001
 20
68.73509298344335
 30
0.0
 11
-47.11700000000001
 21
67.6344263167767
 31
0.0
 12
-50.41900000000001
 22
68.18475965011002
 32
0.0
 13
-50.41900000000001
 23
68.18475965011002
 33
0.0
  0
MTEXT
  5
F9
330
F1
100
AcDbEntity
  8
치수문자_일반주서
 62
     0
100
AcDbMText
 10
25.17241452505229
 20
72.55975965011002
 30
0.0
 40
3.5
 41
0.0
 71
     2
 72
     1
  1
\A1;152.40 [6]
  7
SLDTEXTSTYLE0
 73
     1
 44
1.0
  0
POINT
  5
FA
330
F1
100
AcDbEntity
  8
Defpoints
 62
     0
100
AcDbPoint
 10
101.981
 20
6.350000000000001
 30
0.0
  0
POINT
  5
FB
330
F1
100
AcDbEntity
  8
Defpoints
 62
     0
100
AcDbPoint
 10
-50.41900000000002
 20
5.849999999999995
 30
0.0
  0
POINT
  5
FC
330
F1
100
AcDbEntity
  8
Defpoints
 62
     0
100
AcDbPoint
 10
-50.41900000000002
 20
68.18475965011002
 30
0.0
  0
ENDBLK
  5
F3
330
F1
100
AcDbEntity
  8
0
100
AcDbBlockEnd
  0
BLOCK
  5
106
330
105
100
AcDbEntity
  8
0
100
AcDbBlockBegin
  2
_D_2
 70
     0
 10
0.0
 20
0.0
 30
0.0
  3
_D_2
  1
_D_2
  0
LINE
  5
108
330
105
100
AcDbEntity
  8
치수문자_일반주서
 62
     0
370
    -2
100
AcDbLine
 10
-49.98150000000002
 20
6.349999999999998
 30
0.0
 11
-62.41891076355252
 21
6.349999999999952
 31
0.0
  0
LINE
  5
109
330
105
100
AcDbEntity
  8
치수문자_일반주서
 62
     0
370
    -2
100
AcDbLine
 10
-49.98150000000002
 20
-6.35
 30
0.0
 11
-62.41891076355248
 21
-6.350000000000041
 31
0.0
  0
LINE
  5
10A
330
105
100
AcDbEntity
  8
치수문자_일반주서
 62
     0
370
    -2
100
AcDbLine
 10
-62.41891076355252
 20
6.349999999999952
 30
0.0
 11
-62.41891076355264
 21
40.07899999999996
 31
0.0
  0
LINE
  5
10B
330
105
100
AcDbEntity
  8
치수문자_일반주서
 62
     0
370
    -2
100
AcDbLine
 10
-62.41891076355252
 20
6.349999999999952
 30
0.0
 11
-62.41891076355248
 21
-6.350000000000041
 31
0.0
  0
LINE
  5
10C
330
105
100
AcDbEntity
  8
치수문자_일반주서
 62
     0
370
    -2
100
AcDbLine
 10
-62.41891076355254
 20
9.651999999999951
 30
0.0
 11
-62.41891076355255
 21
12.95399999999995
 31
0.0
  0
LINE
  5
10D
330
105
100
AcDbEntity
  8
치수문자_일반주서
 62
     0
370
    -2
100
AcDbLine
 10
-62.41891076355247
 20
-9.65200000000004
 30
0.0
 11
-62.41891076355245
 21
-12.95400000000004
 31
0.0
  0
SOLID
  5
10E
330
105
100
AcDbEntity
  8
치수문자_일반주서
 62
     0
100
AcDbTrace
 10
-62.96924409688587
 20
9.65199999999995
 30
0.0
 11
-61.8685774302192
 21
9.651999999999953
 31
0.0
 12
-62.41891076355252
 22
6.349999999999952
 32
0.0
 13
-62.41891076355252
 23
6.349999999999952
 33
0.0
  0
SOLID
  5
10F
330
105
100
AcDbEntity
  8
치수문자_일반주서
 62
     0
100
AcDbTrace
 10
-61.86857743021913
 20
-9.652000000000038
 30
0.0
 11
-62.9692440968858
 21
-9.652000000000042
 31
0.0
 12
-62.41891076355248
 22
-6.350000000000041
 32
0.0
 13
-62.41891076355248
 23
-6.350000000000041
 33
0.0
  0
MTEXT
  5
110
330
105
100
AcDbEntity
  8
치수문자_일반주서
 62
     0
100
AcDbMText
 10
-66.79391076355259
 20
26.73524999999995
 30
0.0
 40
3.5
 41
0.0
 71
     2
 72
     1
  1
\A1;%%c12.70 [1/2]
  7
SLDTEXTSTYLE0
 11
-3.356894814614647E-15
 21
1.0
 31
0.0
 73
     1
 44
1.0
  0
POINT
  5
111
330
105
100
AcDbEntity
  8
Defpoints
 62
     0
100
AcDbPoint
 10
-49.91900000000002
 20
6.349999999999998
 30
0.0
  0
POINT
  5
112
330
105
100
AcDbEntity
  8
Defpoints
 62
     0
100
AcDbPoint
 10
-49.91900000000002
 20
-6.35
 30
0.0
  0
POINT
  5
113
330
105
100
AcDbEntity
  8
Defpoints
 62
     0
100
AcDbPoint
 10
-62.41891076355248
 20
-6.350000000000047
 30
0.0
  0
ENDBLK
  5
107
330
105
100
AcDbEntity
  8
0
100
AcDbBlockEnd
  0
BLOCK
  5
11B
330
11A
100
AcDbEntity
  8
0
100
AcDbBlockBegin
  2
_D_3
 70
     0
 10
0.0
 20
0.0
 30
0.0
  3
_D_3
  1
_D_3
  0
LINE
  5
11D
330
11A
100
AcDbEntity
  8
치수문자_일반주서
 62
     0
370
    -2
100
AcDbLine
 10
0.3810000000000073
 20
6.031499999999999
 30
0.0
 11
0.3810000000000002
 21
52.44959778227562
 31
0.0
  0
LINE
  5
11E
330
11A
100
AcDbEntity
  8
치수문자_일반주서
 62
     0
370
    -2
100
AcDbLine
 10
101.981
 20
6.412500000000001
 30
0.0
 11
101.981
 21
52.44959778227562
 31
0.0
  0
LINE
  5
11F
330
11A
100
AcDbEntity
  8
치수문자_일반주서
 62
     0
370
    -2
100
AcDbLine
 10
3.683
 20
52.44959778227562
 30
0.0
 11
98.67900000000002
 21
52.44959778227562
 31
0.0
  0
SOLID
  5
120
330
11A
100
AcDbEntity
  8
치수문자_일반주서
 62
     0
100
AcDbTrace
 10
3.683
 20
52.99993111560895
 30
0.0
 11
3.683
 21
51.89926444894228
 31
0.0
 12
0.3810000000000002
 22
52.44959778227562
 32
0.0
 13
0.3810000000000002
 23
52.44959778227562
 33
0.0
  0
SOLID
  5
121
330
11A
100
AcDbEntity
  8
치수문자_일반주서
 62
     0
100
AcDbTrace
 10
98.67900000000002
 20
51.89926444894228
 30
0.0
 11
98.67900000000002
 21
52.99993111560895
 31
0.0
 12
101.981
 22
52.44959778227562
 32
0.0
 13
101.981
 23
52.44959778227562
 33
0.0
  0
MTEXT
  5
122
330
11A
100
AcDbEntity
  8
치수문자_일반주서
 62
     0
100
AcDbMText
 10
51.18100000000001
 20
56.82459778227562
 30
0.0
 40
3.5
 41
0.0
 71
     2
 72
     1
  1
\A1;101.6 [4]
  7
SLDTEXTSTYLE0
 73
     1
 44
1.0
  0
POINT
  5
123
330
11A
100
AcDbEntity
  8
Defpoints
 62
     0
100
AcDbPoint
 10
0.3810000000000073
 20
5.968999999999999
 30
0.0
  0
POINT
  5
124
330
11A
100
AcDbEntity
  8
Defpoints
 62
     0
100
AcDbPoint
 10
101.981
 20
6.350000000000001
 30
0.0
  0
POINT
  5
125
330
11A
100
AcDbEntity
  8
Defpoints
 62
     0
100
AcDbPoint
 10
101.981
 20
52.44959778227562
 30
0.0
  0
ENDBLK
  5
11C
330
11A
100
AcDbEntity
  8
0
100
AcDbBlockEnd
  0
BLOCK
  5
12D
330
12C
100
AcDbEntity
  8
0
100
AcDbBlockBegin
  2
SW_DOWELSYMBOL_0
 70
     0
 10
0.0
 20
0.0
 30
0.0
  3
SW_DOWELSYMBOL_0
  1
SW_DOWELSYMBOL_0
  0
CIRCLE
  5
12F
330
12C
100
AcDbEntity
  8
외형선
 62
     0
100
AcDbCircle
 10
0.0
 20
0.0
 30
0.0
 40
3.000000000000008
  0
HATCH
  5
130
330
12C
100
AcDbEntity
  8
0
  6
Continuous
 62
     0
370
    30
100
AcDbHatch
 10
0.0
 20
0.0
 30
0.0
210
0.0
220
0.0
230
1.0
  2
SOLID
 70
     1
 71
     0
 91
        1
 92
        0
 93
        3
 72
     2
 10
0.0
 20
0.0
 40
3.000000000000008
 50
0.0
 51
90.0
 73
     1
 72
     1
 10
0.0
 20
3.000000000000008
 11
0.0
 21
0.0
 72
     1
 10
0.0
 20
0.0
 11
3.00000000000001
 21
0.0
 97
        0
 75
     0
 76
     1
 98
        1
 10
0.0
 20
0.0
  0
HATCH
  5
131
330
12C
100
AcDbEntity
  8
0
  6
Continuous
 62
     0
370
    30
100
AcDbHatch
 10
0.0
 20
0.0
 30
0.0
210
0.0
220
0.0
230
1.0
  2
SOLID
 70
     1
 71
     0
 91
        1
 92
        0
 93
        3
 72
     2
 10
0.0
 20
0.0
 40
3.000000000000008
 50
180.0
 51
270.0000000000007
 73
     1
 72
     1
 10
0.0
 20
-3.000000000000008
 11
0.0
 21
0.0
 72
     1
 10
0.0
 20
0.0
 11
-3.00000000000001
 21
0.0
 97
        0
 75
     0
 76
     1
 98
        1
 10
0.0
 20
0.0
  0
ENDBLK
  5
12E
330
12C
100
AcDbEntity
  8
0
100
AcDbBlockEnd
  0
BLOCK
  5
164
330
163
100
AcDbEntity
  8
0
100
AcDbBlockBegin
  2
*D7
 70
     1
 10
0.0
 20
0.0
 30
0.0
  3
*D7
  1
*D7
  0
LINE
  5
166
330
163
100
AcDbEntity
  8
치수문자_일반주서
 62
     0
370
    -2
100
AcDbLine
 10
102.0435
 20
-6.350000000000005
 30
0.0
 11
116.9143105125134
 21
-6.350000000000001
 31
0.0
  0
LINE
  5
167
330
163
100
AcDbEntity
  8
치수문자_일반주서
 62
     0
370
    -2
100
AcDbLine
 10
102.0435
 20
6.350000000000001
 30
0.0
 11
116.9143105125134
 21
6.350000000000001
 31
0.0
  0
LINE
  5
168
330
163
100
AcDbEntity
  8
치수문자_일반주서
 62
     0
370
    -2
100
AcDbLine
 10
116.9143105125134
 20
6.350000000000001
 30
0.0
 11
116.9143105125134
 21
39.24107156470169
 31
0.0
  0
LINE
  5
169
330
163
100
AcDbEntity
  8
치수문자_일반주서
 62
     0
370
    -2
100
AcDbLine
 10
116.9143105125134
 20
-3.048000000000001
 30
0.0
 11
116.9143105125134
 21
3.048000000000001
 31
0.0
  0
SOLID
  5
16A
330
163
100
AcDbEntity
  8
치수문자_일반주서
 62
     0
100
AcDbTrace
 10
116.36397717918
 20
-3.048000000000001
 30
0.0
 11
117.4646438458467
 21
-3.048000000000001
 31
0.0
 12
116.9143105125134
 22
-6.350000000000001
 32
0.0
 13
116.9143105125134
 23
-6.350000000000001
 33
0.0
  0
SOLID
  5
16B
330
163
100
AcDbEntity
  8
치수문자_일반주서
 62
     0
100
AcDbTrace
 10
117.4646438458467
 20
3.048000000000001
 30
0.0
 11
116.36397717918
 21
3.048000000000001
 31
0.0
 12
116.9143105125134
 22
6.350000000000001
 32
0.0
 13
116.9143105125134
 23
6.350000000000001
 33
0.0
  0
MTEXT
  5
16C
330
163
100
AcDbEntity
  8
치수문자_일반주서
 62
     0
100
AcDbMText
 10
114.2893105125134
 20
26.99107156470169
 30
0.0
 40
3.5
 41
0.0
 71
     5
 72
     1
  1
\A1;{Ø12.7 [1/2]}
  7
SLDTEXTSTYLE0
 11
0.0
 21
1.0
 31
0.0
 73
     1
 44
1.0
  0
POINT
  5
16D
330
163
100
AcDbEntity
  8
Defpoints
 62
     0
100
AcDbPoint
 10
101.981
 20
-6.350000000000005
 30
0.0
  0
POINT
  5
16E
330
163
100
AcDbEntity
  8
Defpoints
 62
     0
100
AcDbPoint
 10
101.981
 20
6.350000000000001
 30
0.0
  0
POINT
  5
16F
330
163
100
AcDbEntity
  8
Defpoints
 62
     0
100
AcDbPoint
 10
116.9143105125134
 20
6.35
 30
0.0
  0
ENDBLK
  5
165
330
163
100
AcDbEntity
  8
0
100
AcDbBlockEnd
  0
BLOCK
  5
176
330
175
100
AcDbEntity
  8
0
100
AcDbBlockBegin
  2
*D8
 70
     1
 10
0.0
 20
0.0
 30
0.0
  3
*D8
  1
*D8
  0
LINE
  5
178
330
175
100
AcDbEntity
  8
치수문자_일반주서
 62
     0
370
    -2
100
AcDbLine
 10
84.2466045973834
 20
-8.728168915541206
 30
0.0
 11
102.6646112839451
 21
-34.03809253640124
 31
0.0
  0
MTEXT
  5
179
330
175
100
AcDbEntity
  8
치수문자_일반주서
 62
     0
100
AcDbMText
 10
96.5495533289548
 20
-21.17354080666304
 30
0.0
 40
3.5
 41
0.0
 71
     5
 72
     1
  1
\A1;R1.52 [R0.06]
  7
SLDTEXTSTYLE0
 11
0.5883971211603635
 21
-0.8085720919065886
 31
0.0
 73
     1
 44
1.0
  0
SOLID
  5
17A
330
175
100
AcDbEntity
  8
치수문자_일반주서
 62
     0
100
AcDbTrace
 10
84.69158877196266
 20
-8.404354366529287
 30
0.0
 11
83.80162042280413
 21
-9.051983464553125
 31
0.0
 12
82.30371730331187
 22
-6.05826386806565
 32
0.0
 13
82.30371730331187
 23
-6.05826386806565
 33
0.0
  0
LINE
  5
17B
330
175
100
AcDbEntity
  8
치수문자_일반주서
 62
     0
100
AcDbLine
 10
81.31700009066347
 20
-4.826000000000004
 30
0.0
 11
81.49700009066348
 21
-4.826000000000004
 31
0.0
  0
LINE
  5
17C
330
175
100
AcDbEntity
  8
치수문자_일반주서
 62
     0
100
AcDbLine
 10
81.40700009066347
 20
-4.916000000000004
 30
0.0
 11
81.40700009066347
 21
-4.736000000000004
 31
0.0
  0
POINT
  5
17D
330
175
100
AcDbEntity
  8
Defpoints
 62
     0
100
AcDbPoint
 10
82.30371730331187
 20
-6.05826386806565
 30
0.0
  0
POINT
  5
17E
330
175
100
AcDbEntity
  8
Defpoints
 62
     0
100
AcDbPoint
 10
81.40700009066347
 20
-4.826000000000004
 30
0.0
  0
ENDBLK
  5
177
330
175
100
AcDbEntity
  8
0
100
AcDbBlockEnd
  0
BLOCK
  5
1AF
330
1AE
100
AcDbEntity
  8
0
100
AcDbBlockBegin
  2
*D9
 70
     1
 10
0.0
 20
0.0
 30
0.0
  3
*D9
  1
*D9
  0
LINE
  5
1B1
330
1AE
100
AcDbEntity
  8
치수문자_일반주서
 62
     0
370
    -2
100
AcDbLine
 10
101.7772589479195
 20
-8.979384172061948
 30
0.0
 11
117.757515087278
 21
-40.87734245657439
 31
0.0
  0
MTEXT
  5
1B2
330
1AE
100
AcDbEntity
  8
치수문자_일반주서
 62
     0
100
AcDbMText
 10
113.8336581078747
 20
-27.18449865387264
 30
0.0
 40
3.5
 41
0.0
 71
     5
 72
     1
  1
\A1;R3.05 [R0.12]
  7
SLDTEXTSTYLE0
 11
0.4479147949479628
 21
-0.8940762475688102
 31
0.0
 73
     1
 44
1.0
  0
SOLID
  5
1B3
330
1AE
100
AcDbEntity
  8
치수문자_일반주서
 62
     0
100
AcDbTrace
 10
102.2692989094982
 20
-8.73288172990892
 30
0.0
 11
101.2852189863409
 21
-9.225886614214977
 31
0.0
 12
100.2982442950014
 22
-6.027144402589736
 32
0.0
 13
100.2982442950014
 23
-6.027144402589736
 33
0.0
  0
LINE
  5
1B4
330
1AE
100
AcDbEntity
  8
치수문자_일반주서
 62
     0
100
AcDbLine
 10
98.84299999999999
 20
-3.302000000000006
 30
0.0
 11
99.023
 21
-3.302000000000006
 31
0.0
  0
LINE
  5
1B5
330
1AE
100
AcDbEntity
  8
치수문자_일반주서
 62
     0
100
AcDbLine
 10
98.93299999999999
 20
-3.392000000000006
 30
0.0
 11
98.93299999999999
 21
-3.212000000000006
 31
0.0
  0
POINT
  5
1B6
330
1AE
100
AcDbEntity
  8
Defpoints
 62
     0
100
AcDbPoint
 10
100.2982442950014
 20
-6.027144402589736
 30
0.0
  0
POINT
  5
1B7
330
1AE
100
AcDbEntity
  8
Defpoints
 62
     0
100
AcDbPoint
 10
98.93299999999999
 20
-3.302000000000006
 30
0.0
  0
ENDBLK
  5
1B0
330
1AE
100
AcDbEntity
  8
0
100
AcDbBlockEnd
  0
ENDSEC
  0
SECTION
  2
ENTITIES
  0
LINE
  5
95
330
1F
100
AcDbEntity
  8
0
  6
Continuous
 62
     4
370
    15
100
AcDbLine
 10
0.0
 20
-6.350000000000002
 30
0.0
 11
0.3809999999999931
 21
-5.968999999999999
 31
0.0
  0
LINE
  5
96
330
1F
100
AcDbEntity
  8
0
  6
Continuous
 62
     4
370
    15
100
AcDbLine
 10
0.3809999999999931
 20
5.969
 30
0.0
 11
0.0
 21
6.350000000000004
 31
0.0
  0
LINE
  5
97
330
1F
100
AcDbEntity
  8
0
  6
Continuous
 62
     4
370
    15
100
AcDbLine
 10
-0.0000000000000071
 20
6.35
 30
0.0
 11
-49.91900000000002
 21
6.349999999999998
 31
0.0
  0
LINE
  5
98
330
1F
100
AcDbEntity
  8
0
  6
Continuous
 62
     4
370
    15
100
AcDbLine
 10
-49.91900000000002
 20
-6.35
 30
0.0
 11
0.0
 21
-6.349999999999999
 31
0.0
  0
LINE
  5
99
330
1F
100
AcDbEntity
  8
0
  6
Continuous
 62
     4
370
    15
100
AcDbLine
 10
-49.91900000000002
 20
6.349999999999996
 30
0.0
 11
-50.41900000000002
 21
5.849999999999994
 31
0.0
  0
LINE
  5
9A
330
1F
100
AcDbEntity
  8
0
  6
Continuous
 62
     4
370
    15
100
AcDbLine
 10
-50.41900000000002
 20
-5.849999999999994
 30
0.0
 11
-49.91900000000002
 21
-6.349999999999994
 31
0.0
  0
LINE
  5
9B
330
1F
100
AcDbEntity
  8
0
  6
Continuous
 62
     4
370
    15
100
AcDbLine
 10
86.106
 20
5.969000000000002
 30
0.0
 11
0.3810000000000073
 21
5.968999999999999
 31
0.0
  0
LINE
  5
9C
330
1F
100
AcDbEntity
  8
0
  6
Continuous
 62
     4
370
    15
100
AcDbLine
 10
0.3809999999999967
 20
-5.968999999999998
 30
0.0
 11
84.07604816809217
 21
-5.968999999999995
 31
0.0
  0
LINE
  5
9D
330
1F
100
AcDbEntity
  8
0
  6
Continuous
 62
     1
370
    15
100
AcDbLine
 10
92.62834191243502
 20
-6.35
 30
0.0
 11
93.57798824559902
 21
-6.35
 31
0.0
  0
LINE
  5
A0
330
1F
100
AcDbEntity
  8
0
  6
Continuous
 62
     4
370
    15
100
AcDbLine
 10
0.3809999999999931
 20
5.969
 30
0.0
 11
0.3809999999999931
 21
-5.968999999999999
 31
0.0
  0
LINE
  5
A1
330
1F
100
AcDbEntity
  8
0
  6
Continuous
 62
     4
370
    15
100
AcDbLine
 10
0.0
 20
6.350000000000004
 30
0.0
 11
0.0
 21
-6.350000000000004
 31
0.0
  0
LINE
  5
A2
330
1F
100
AcDbEntity
  8
0
  6
Continuous
 62
     4
370
    15
100
AcDbLine
 10
-49.91900000000002
 20
6.349999999999996
 30
0.0
 11
-49.91900000000002
 21
-6.35
 31
0.0
  0
LINE
  5
A3
330
1F
100
AcDbEntity
  8
0
  6
Continuous
 62
     4
370
    15
100
AcDbLine
 10
-50.41900000000002
 20
5.849999999999995
 30
0.0
 11
-50.41900000000002
 21
-5.850000000000002
 31
0.0
  0
SPLINE
  5
A4
330
1F
100
AcDbEntity
  8
0
  6
Continuous
 62
     4
370
    15
100
AcDbSpline
210
0.0
220
0.0
230
1.0
 70
     8
 71
     3
 72
     8
 73
     4
 74
     0
 42
0.000000001
 43
0.00000001
 40
0.0
 40
0.0
 40
0.0
 40
0.0
 40
1.0
 40
1.0
 40
1.0
 40
1.0
 10
86.106
 20
-0.8197495456499196
 30
0.0
 10
85.70018953668404
 20
-0.535539913869446
 30
0.0
 10
85.29440498753908
 20
-0.2484922322237502
 30
0.0
 10
84.89169730164059
 20
0.0376979630734843
 30
0.0
  0
SPLINE
  5
A5
330
1F
100
AcDbEntity
  8
0
  6
Continuous
 62
     4
370
    15
100
AcDbSpline
210
0.0
220
0.0
230
1.0
 70
    24
 71
     3
 72
    12
 73
     8
 74
     0
 42
0.000000001
 43
0.00000001
 40
0.0
 40
0.0
 40
0.0
 40
0.0
 40
0.4999999999999998
 40
0.4999999999999998
 40
0.7499999999999999
 40
0.7499999999999999
 40
1.0
 40
1.0
 40
1.0
 40
1.0
 10
86.106
 20
2.042841145177697
 30
0.0
 10
86.106
 20
1.450035881841847
 30
0.0
 10
86.106
 20
0.8669555869851671
 30
0.0
 10
86.106
 20
0.1147431512452971
 30
0.0
 10
86.106
 20
-0.1152374260734024
 30
0.0
 10
86.106
 20
-0.5156834224237593
 30
0.0
 10
86.106
 20
-0.6860294249014719
 30
0.0
 10
86.106
 20
-0.8197495456499282
 30
0.0
  0
LINE
  5
A6
330
1F
100
AcDbEntity
  8
0
  6
Continuous
 62
     1
370
    15
100
AcDbLine
 10
86.106
 20
5.969000000000002
 30
0.0
 11
86.106
 21
5.62667865218398
 31
0.0
  0
SPLINE
  5
A7
330
1F
100
AcDbEntity
  8
0
  6
Continuous
 62
     4
370
    15
100
AcDbSpline
210
0.0
220
0.0
230
1.0
 70
     8
 71
     3
 72
    20
 73
    16
 74
     0
 42
0.000000001
 43
0.00000001
 40
0.0
 40
0.0
 40
0.0
 40
0.0
 40
0.1249999999999999
 40
0.1249999999999999
 40
0.2499999999999999
 40
0.2499999999999999
 40
0.3749999999999998
 40
0.3749999999999998
 40
0.4999999999999998
 40
0.4999999999999998
 40
0.7499999999999998
 40
0.7499999999999998
 40
0.8749999999999998
 40
0.8749999999999998
 40
1.0
 40
1.0
 40
1.0
 40
1.0
 10
84.07604816809217
 20
4.627614007462392
 30
0.0
 10
84.07604816809217
 20
4.713872686644494
 30
0.0
 10
84.08564711997391
 20
4.795445248068531
 30
0.0
 10
84.12810214209262
 20
4.949408716149602
 30
0.0
 10
84.16145148392431
 20
5.022540312914448
 30
0.0
 10
84.25373847689914
 20
5.156057478130878
 30
0.0
 10
84.31188609111399
 20
5.215920678604923
 30
0.0
 10
84.45335371895857
 20
5.323636660345754
 30
0.0
 10
84.5380349183356
 20
5.371938324697306
 30
0.0
 10
84.82057446301371
 20
5.494938195797587
 30
0.0
 10
85.05324666658356
 20
5.551028385290752
 30
0.0
 10
85.43174790820598
 20
5.602261106340465
 30
0.0
 10
85.56490170753048
 20
5.614162317380333
 30
0.0
 10
85.83376383388725
 20
5.62780846660748
 30
0.0
 10
85.96931130816296
 20
5.629702922995827
 30
0.0
 10
86.106
 20
5.62667865218398
 30
0.0
  0
LINE
  5
A8
330
1F
100
AcDbEntity
  8
0
  6
Continuous
 62
     4
370
    15
100
AcDbLine
 10
84.07604816809217
 20
4.62761400746239
 30
0.0
 11
84.07604816809217
 21
1.719530073883672
 31
0.0
  0
SPLINE
  5
A9
330
1F
100
AcDbEntity
  8
0
  6
Continuous
 62
     4
370
    15
100
AcDbSpline
210
0.0
220
0.0
230
1.0
 70
     8
 71
     3
 72
    14
 73
    10
 74
     0
 42
0.000000001
 43
0.00000001
 40
0.0
 40
0.0
 40
0.0
 40
0.0
 40
0.25
 40
0.25
 40
0.5
 40
0.5
 40
0.75
 40
0.75
 40
1.0
 40
1.0
 40
1.0
 40
1.0
 10
84.89169730164059
 20
0.0376979630734847
 30
0.0
 10
84.75681668581183
 20
0.1335528750544352
 30
0.0
 10
84.63753231414384
 20
0.2449078826068743
 30
0.0
 10
84.4289665771517
 20
0.4972083925908138
 30
0.0
 10
84.34091913431436
 20
0.6379070525833935
 30
0.0
 10
84.20416311515999
 20
0.9317661797425449
 30
0.0
 10
84.15381543646276
 20
1.088639269471123
 30
0.0
 10
84.09018417328059
 20
1.402601906192872
 30
0.0
 10
84.07604816809217
 20
1.56142704067476
 30
0.0
 10
84.07604816809217
 20
1.719530073883672
 30
0.0
  0
LINE
  5
AA
330
1F
100
AcDbEntity
  8
0
  6
Continuous
 62
     4
370
    15
100
AcDbLine
 10
86.106
 20
-0.8197495456499265
 30
0.0
 11
86.106
 21
-4.01275461424076
 31
0.0
  0
SPLINE
  5
AB
330
1F
100
AcDbEntity
  8
0
  6
Continuous
 62
     4
370
    15
100
AcDbSpline
210
0.0
220
0.0
230
1.0
 70
     8
 71
     3
 72
    20
 73
    16
 74
     0
 42
0.000000001
 43
0.00000001
 40
0.0
 40
0.0
 40
0.0
 40
0.0
 40
0.1250000000000001
 40
0.1250000000000001
 40
0.2500000000000002
 40
0.2500000000000002
 40
0.3750000000000002
 40
0.3750000000000002
 40
0.5000000000000003
 40
0.5000000000000003
 40
0.7500000000000002
 40
0.7500000000000002
 40
0.8750000000000001
 40
0.8750000000000001
 40
1.0
 40
1.0
 40
1.0
 40
1.0
 10
84.07604816809217
 20
-5.5788662985149
 30
0.0
 10
84.07604816809217
 20
-5.530303917678543
 30
0.0
 10
84.08564711996505
 20
-5.477953095843636
 30
0.0
 10
84.12810214208332
 20
-5.366512810454864
 30
0.0
 10
84.16145148392431
 20
-5.306718140728341
 30
0.0
 10
84.25373847689914
 20
-5.184801895778833
 30
0.0
 10
84.31188609111399
 20
-5.123355507699697
 30
0.0
 10
84.45335371895857
 20
-5.001851188657349
 30
0.0
 10
84.5380349183356
 20
-4.941080469521806
 30
0.0
 10
84.82057446301371
 20
-4.773388776042355
 30
0.0
 10
85.05324666658356
 20
-4.677700560609007
 30
0.0
 10
85.43174790820598
 20
-4.58564195817367
 30
0.0
 10
85.56490170753048
 20
-4.56290440629711
 30
0.0
 10
85.83376383388725
 20
-4.536651477864837
 30
0.0
 10
85.96931130816296
 20
-4.532878256989276
 30
0.0
 10
86.106
 20
-4.538762827378808
 30
0.0
  0
LINE
  5
AC
330
1F
100
AcDbEntity
  8
0
  6
Continuous
 62
     4
370
    15
100
AcDbLine
 10
84.07604816809217
 20
-5.578866298514899
 30
0.0
 11
84.07604816809217
 21
-5.968999999999995
 31
0.0
  0
SPLINE
  5
AD
330
1F
100
AcDbEntity
  8
0
  6
Continuous
 62
     4
370
    15
100
AcDbSpline
210
0.0
220
0.0
230
1.0
 70
     8
 71
     3
 72
    14
 73
    10
 74
     0
 42
0.000000001
 43
0.00000001
 40
0.0
 40
0.0
 40
0.0
 40
0.0
 40
0.25
 40
0.25
 40
0.5
 40
0.5
 40
0.75
 40
0.75
 40
1.0
 40
1.0
 40
1.0
 40
1.0
 10
84.89169730164059
 20
-5.188051521356931
 30
0.0
 10
84.75681668581183
 20
-5.235454689282018
 30
0.0
 10
84.63753231414384
 20
-5.288566363997758
 30
0.0
 10
84.4289665771517
 20
-5.401107503222224
 30
0.0
 10
84.34091913431436
 20
-5.460257131594551
 30
0.0
 10
84.20416311516001
 20
-5.573431979252346
 30
0.0
 10
84.15381543646276
 20
-5.628824824286302
 30
0.0
 10
84.09018417328056
 20
-5.727788348525024
 30
0.0
 10
84.07604816809217
 20
-5.772068445474571
 30
0.0
 10
84.07604816809217
 20
-5.809929983057986
 30
0.0
  0
SPLINE
  5
AE
330
1F
100
AcDbEntity
  8
0
  6
Continuous
 62
     4
370
    15
100
AcDbSpline
210
0.0
220
0.0
230
1.0
 70
     8
 71
     3
 72
     8
 73
     4
 74
     0
 42
0.000000001
 43
0.00000001
 40
0.0
 40
0.0
 40
0.0
 40
0.0
 40
1.0
 40
1.0
 40
1.0
 40
1.0
 10
86.106
 20
-4.710450291250898
 30
0.0
 10
85.70018953668404
 20
-4.886680975167948
 30
0.0
 10
85.29440498753908
 20
-5.046521769716411
 30
0.0
 10
84.89169730164059
 20
-5.188051521356932
 30
0.0
  0
SPLINE
  5
AF
330
1F
100
AcDbEntity
  8
0
  6
Continuous
 62
     4
370
    15
100
AcDbSpline
210
0.0
220
0.0
230
1.0
 70
    24
 71
     3
 72
    12
 73
     8
 74
     0
 42
0.000000001
 43
0.00000001
 40
0.0
 40
0.0
 40
0.0
 40
0.0
 40
0.4999999999999997
 40
0.4999999999999997
 40
0.7499999999999998
 40
0.7499999999999998
 40
1.0
 40
1.0
 40
1.0
 40
1.0
 10
86.106
 20
5.62667865218399
 30
0.0
 10
86.106
 20
5.018488911595576
 30
0.0
 10
86.106
 20
4.406523672425118
 30
0.0
 10
86.106
 20
3.481970094724164
 30
0.0
 10
86.106
 20
3.179097279366592
 30
0.0
 10
86.106
 20
2.596108120150131
 30
0.0
 10
86.106
 20
2.314154563310813
 30
0.0
 10
86.106
 20
2.042841145178019
 30
0.0
  0
LINE
  5
B0
330
1F
100
AcDbEntity
  8
0
  6
Continuous
 62
     4
370
    15
100
AcDbLine
 10
86.106
 20
-4.645587944505239
 30
0.0
 11
86.106
 21
-4.710450291250919
 31
0.0
  0
SPLINE
  5
B1
330
1F
100
AcDbEntity
  8
0
  6
Continuous
 62
     1
370
    15
100
AcDbSpline
210
0.0
220
0.0
230
1.0
 70
     8
 71
     3
 72
    34
 73
    30
 74
     0
 42
0.000000001
 43
0.00000001
 40
0.0
 40
0.0
 40
0.0
 40
0.0
 40
0.0625
 40
0.0625
 40
0.1250000000000001
 40
0.1250000000000001
 40
0.1875000000000001
 40
0.1875000000000001
 40
0.2500000000000001
 40
0.2500000000000001
 40
0.3125000000000001
 40
0.3125000000000001
 40
0.3750000000000002
 40
0.3750000000000002
 40
0.4375000000000002
 40
0.4375000000000002
 40
0.5000000000000002
 40
0.5000000000000002
 40
0.5625000000000002
 40
0.5625000000000002
 40
0.6250000000000002
 40
0.6250000000000002
 40
0.7500000000000003
 40
0.7500000000000003
 40
0.8750000000000002
 40
0.8750000000000002
 40
0.9375000000000002
 40
0.9375000000000002
 40
1.0
 40
1.0
 40
1.0
 40
1.0
 10
100.457
 20
-2.504936771877039
 30
0.0
 10
100.1580979346397
 20
-2.297911163447296
 30
0.0
 10
99.86156068804078
 20
-2.086714505906697
 30
0.0
 10
99.26274443353714
 20
-1.655889879687561
 30
0.0
 10
98.96215170568982
 20
-1.43664739994983
 30
0.0
 10
98.36369907887064
 20
-0.9942269511293881
 30
0.0
 10
98.06726606611358
 20
-0.7714151877115984
 30
0.0
 10
97.46902027878815
 20
-0.3223871988440317
 30
0.0
 10
97.168437730374
 20
-0.0964731633011592
 30
0.0
 10
96.5694547819109
 20
0.3543215430963106
 30
0.0
 10
96.27281046195867
 20
0.5787610634922925
 30
0.0
 10
95.67525317978527
 20
1.025681164583493
 30
0.0
 10
95.37474079423623
 20
1.248053651438488
 30
0.0
 10
94.77534604877428
 20
1.686836921004779
 30
0.0
 10
94.47817501967197
 20
1.902840112478307
 30
0.0
 10
93.88142382673749
 20
2.327450969454877
 30
0.0
 10
93.58104154069318
 20
2.536230814154977
 30
0.0
 10
92.9813537950634
 20
2.9431531460547
 30
0.0
 10
92.68334100143778
 20
3.141016174431794
 30
0.0
 10
92.087512951239
 20
3.52414447546545
 30
0.0
 10
91.78732061461014
 20
3.709899413205637
 30
0.0
 10
90.8875279818661
 20
4.244875774035308
 30
0.0
 10
90.29351700460816
 20
4.570945308958058
 30
0.0
 10
89.09368368679236
 20
5.151436256727889
 30
0.0
 10
88.49966261888986
 20
5.40394589988963
 30
0.0
 10
87.59988398810418
 20
5.720020409481307
 30
0.0
 10
87.29967461003938
 20
5.81475489478977
 30
0.0
 10
86.70377001589537
 20
5.981513796347759
 30
0.0
 10
86.40583454126516
 20
6.053784136891239
 30
0.0
 10
86.106
 20
6.114619370878158
 30
0.0
  0
SPLINE
  5
B2
330
1F
100
AcDbEntity
  8
0
  6
Continuous
 62
     1
370
    15
100
AcDbSpline
210
0.0
220
0.0
230
1.0
 70
     8
 71
     3
 72
    16
 73
    12
 74
     0
 42
0.000000001
 43
0.00000001
 40
0.0
 40
0.0
 40
0.0
 40
0.0
 40
0.2500000000000003
 40
0.2500000000000003
 40
0.5000000000000007
 40
0.5000000000000007
 40
0.6250000000000009
 40
0.6250000000000009
 40
0.750000000000001
 40
0.750000000000001
 40
1.0
 40
1.0
 40
1.0
 40
1.0
 10
100.457
 20
-2.504936771877039
 30
0.0
 10
100.6485136762692
 20
-2.637583012726708
 30
0.0
 10
100.83235028862
 20
-2.752705286750674
 30
0.0
 10
101.189283032069
 20
-2.942186689400328
 30
0.0
 10
101.3551440598583
 20
-3.012159900602088
 30
0.0
 10
101.5735435876927
 20
-3.074567782245888
 30
0.0
 10
101.640558362702
 20
-3.088025952943131
 30
0.0
 10
101.7579754075686
 20
-3.100575913048499
 30
0.0
 10
101.8090766457271
 20
-3.099862434506028
 30
0.0
 10
101.9362056377665
 20
-3.078560373087558
 30
0.0
 10
101.981
 20
-3.039845152367667
 30
0.0
 10
101.981
 20
-2.989807193186495
 30
0.0
  0
SPLINE
  5
B3
330
1F
100
AcDbEntity
  8
0
  6
Continuous
 62
     1
370
    15
100
AcDbSpline
210
0.0
220
0.0
230
1.0
 70
     8
 71
     3
 72
    10
 73
     6
 74
     0
 42
0.000000001
 43
0.00000001
 40
0.0
 40
0.0
 40
0.0
 40
0.0
 40
0.2663721865172964
 40
0.9452703170816331
 40
1.0
 40
1.0
 40
1.0
 40
1.0
 10
100.9950190379874
 20
-2.833232781238107
 30
0.0
 10
100.9085010517682
 20
-2.845675483665963
 30
0.0
 10
100.6014761880393
 20
-2.889830684038461
 30
0.0
 10
100.1828397677367
 20
-3.097611581821665
 30
0.0
 10
99.88738164894704
 20
-3.258485627815859
 30
0.0
 10
99.86534005120521
 20
-3.270487061465519
 30
0.0
  0
SPLINE
  5
B4
330
1F
100
AcDbEntity
  8
0
  6
Continuous
 62
     1
370
    15
100
AcDbSpline
210
0.0
220
0.0
230
1.0
 70
     8
 71
     3
 72
     8
 73
     4
 74
     0
 42
0.000000001
 43
0.00000001
 40
0.0125946161727488
 40
0.0125946161727488
 40
0.0125946161727488
 40
0.0125946161727488
 40
1.0
 40
1.0
 40
1.0
 40
1.0
 10
101.953523388436
 20
-3.710341107300039
 30
0.0
 10
101.2357490656866
 20
-3.658951807252557
 30
0.0
 10
100.5393056013879
 20
-3.514010691821788
 30
0.0
 10
99.86534005120521
 20
-3.270487061465499
 30
0.0
  0
SPLINE
  5
B7
330
1F
100
AcDbEntity
  8
0
  6
Continuous
 62
     1
370
    15
100
AcDbSpline
210
0.0
220
0.0
230
1.0
 70
     8
 71
     3
 72
    34
 73
    30
 74
     0
 42
0.000000001
 43
0.00000001
 40
0.0
 40
0.0
 40
0.0
 40
0.0
 40
0.0625000000000001
 40
0.0625000000000001
 40
0.1250000000000003
 40
0.1250000000000003
 40
0.1875000000000004
 40
0.1875000000000004
 40
0.2500000000000006
 40
0.2500000000000006
 40
0.3125000000000006
 40
0.3125000000000006
 40
0.3750000000000006
 40
0.3750000000000006
 40
0.4375000000000007
 40
0.4375000000000007
 40
0.5000000000000006
 40
0.5000000000000006
 40
0.5625000000000004
 40
0.5625000000000004
 40
0.6250000000000004
 40
0.6250000000000004
 40
0.6875000000000003
 40
0.6875000000000003
 40
0.7500000000000002
 40
0.7500000000000002
 40
0.8125000000000002
 40
0.8125000000000002
 40
0.8346065685043035
 40
0.8346065685043035
 40
0.8346065685043035
 40
0.8346065685043035
 10
86.106
 20
-0.8162116590596499
 30
0.0
 10
86.42709371931451
 20
-1.040703031870495
 30
0.0
 10
86.74572611146795
 20
-1.262849815908332
 30
0.0
 10
87.3845389641634
 20
-1.701092361766972
 30
0.0
 10
87.70632983465765
 20
-1.91754248134553
 30
0.0
 10
88.34842955007997
 20
-2.340851966343162
 30
0.0
 10
88.66680779367874
 20
-2.547305538710369
 30
0.0
 10
89.30591499114428
 20
-2.948832340887335
 30
0.0
 10
89.62775518554935
 20
-3.144109785044496
 30
0.0
 10
90.26975467902034
 20
-3.519836106704174
 30
0.0
 10
90.58790928304259
 20
-3.699928395542027
 30
0.0
 10
91.22729852026654
 20
-4.043940340406081
 30
0.0
 10
91.54918173806678
 20
-4.207932847165877
 30
0.0
 10
92.19106851734807
 20
-4.516632159789534
 30
0.0
 10
92.50903000521834
 20
-4.66106158111201
 30
0.0
 10
93.14868895897726
 20
-4.929731724875177
 30
0.0
 10
93.47060889683897
 20
-5.05394624654521
 30
0.0
 10
94.1123704770078
 20
-5.279647476146553
 30
0.0
 10
94.42320701836371
 20
-5.397735264967591
 30
0.0
 10
95.07822375368201
 20
-5.615933415954875
 30
0.0
 10
95.3920360664564
 20
-5.789159723096186
 30
0.0
 10
96.03365997071421
 20
-5.994619710732283
 30
0.0
 10
96.3513268444895
 20
-6.122343191468773
 30
0.0
 10
96.991488192736
 20
-6.350000000000005
 30
0.0
 10
97.3134626515099
 20
-6.350000000000005
 30
0.0
 10
97.95493641198968
 20
-6.350000000000005
 30
0.0
 10
98.27250180685976
 20
-6.350000000000005
 30
0.0
 10
98.70595411325345
 20
-6.350000000000005
 30
0.0
 10
98.81943402280982
 20
-6.350000000000004
 30
0.0
 10
98.9329999408146
 20
-6.350000000000004
 30
0.0
  0
SPLINE
  5
B8
330
1F
100
AcDbEntity
  8
0
  6
Continuous
 62
     4
370
    15
100
AcDbSpline
210
0.0
220
0.0
230
1.0
 70
    24
 71
     3
 72
    18
 73
    14
 74
     0
 42
0.000000001
 43
0.00000001
 40
0.0
 40
0.0
 40
0.0
 40
0.0
 40
0.2500000000000001
 40
0.2500000000000001
 40
0.5
 40
0.5
 40
0.625
 40
0.625
 40
0.75
 40
0.75
 40
0.875
 40
0.875
 40
1.0
 40
1.0
 40
1.0
 40
1.0
 10
86.106
 20
6.114619370878161
 30
0.0
 10
86.106
 20
5.627097785812482
 30
0.0
 10
86.106
 20
5.075728223866664
 30
0.0
 10
86.106
 20
3.86156263801074
 30
0.0
 10
86.106
 20
3.197128137394795
 30
0.0
 10
86.106
 20
2.186709823703114
 30
0.0
 10
86.106
 20
1.848444496238917
 30
0.0
 10
86.106
 20
1.191021325855733
 30
0.0
 10
86.106
 20
0.8719750289743627
 30
0.0
 10
86.106
 20
0.2799996380321807
 30
0.0
 10
86.106
 20
0.0072712918234589
 30
0.0
 10
86.106
 20
-0.464861806634968
 30
0.0
 10
86.106
 20
-0.6640409830548775
 30
0.0
 10
86.106
 20
-0.8162116590595352
 30
0.0
  0
LINE
  5
B9
330
1F
100
AcDbEntity
  8
0
  6
Continuous
 62
     4
370
    15
100
AcDbLine
 10
86.106
 20
6.114619370878156
 30
0.0
 11
86.106
 21
6.268445502775768
 31
0.0
  0
SPLINE
  5
BA
330
1F
100
AcDbEntity
  8
0
  6
Continuous
 62
     1
370
    15
100
AcDbSpline
210
0.0
220
0.0
230
1.0
 70
     8
 71
     3
 72
    28
 73
    24
 74
     0
 42
0.000000001
 43
0.00000001
 40
0.0
 40
0.0
 40
0.0
 40
0.0
 40
0.0121685856217752
 40
0.0311730008500207
 40
0.0623962548999415
 40
0.1250150220539746
 40
0.1718780036327759
 40
0.210922937475358
 40
0.2500276782039494
 40
0.3124185118554411
 40
0.375024657040522
 40
0.4374329024650008
 40
0.5000186090824057
 40
0.5624546838923605
 40
0.6250105503920947
 40
0.6874848575055728
 40
0.7500015031620597
 40
0.8125215600089791
 40
0.8749924963196463
 40
0.9130135681820527
 40
0.9375586968493272
 40
0.9740448610287156
 40
1.0
 40
1.0
 40
1.0
 40
1.0
 10
100.457
 20
-1.832919443211301
 30
0.0
 10
100.39882269647
 20
-1.790813003280031
 30
0.0
 10
100.249786383725
 20
-1.682946392601796
 30
0.0
 10
99.95172647796625
 20
-1.464739236289038
 30
0.0
 10
99.41214227514723
 20
-1.066851753225652
 30
0.0
 10
98.73786223482034
 20
-0.564753005540259
 30
0.0
 10
98.02845214441439
 20
-0.0279684887251396
 30
0.0
 10
97.43028556612433
 20
0.4224342738355179
 30
0.0
 10
96.7572314405092
 20
0.9257244520452544
 30
0.0
 10
95.97348506488345
 20
1.509683890588912
 30
0.0
 10
95.0755436501234
 20
2.155684355192176
 30
0.0
 10
94.17934912506757
 20
2.781288377792995
 30
0.0
 10
93.28157627544962
 20
3.371998784825997
 30
0.0
 10
92.38512066365158
 20
3.927275609598355
 30
0.0
 10
91.48759744709542
 20
4.436066967044093
 30
0.0
 10
90.59078367265914
 20
4.895943111860796
 30
0.0
 10
89.69359734341342
 20
5.299762274884833
 30
0.0
 10
88.79634724264196
 20
5.643617855881053
 30
0.0
 10
88.01698112194072
 20
5.887312822554509
 30
0.0
 10
87.41828799862105
 20
6.037925910700979
 30
0.0
 10
86.94457457271994
 20
6.139105256319915
 30
0.0
 10
86.52892088053557
 20
6.213469795566109
 30
0.0
 10
86.23017886924467
 20
6.25230342638991
 30
0.0
 10
86.10599999999675
 20
6.268445502770971
 30
0.0
  0
SPLINE
  5
BB
330
1F
100
AcDbEntity
  8
0
  6
Continuous
 62
     1
370
    15
100
AcDbSpline
210
0.0
220
0.0
230
1.0
 70
     8
 71
     3
 72
    24
 73
    20
 74
     0
 42
0.000000001
 43
0.00000001
 40
0.0
 40
0.0
 40
0.0
 40
0.0
 40
0.2499999999999992
 40
0.2499999999999992
 40
0.4999999999999984
 40
0.4999999999999984
 40
0.624999999999998
 40
0.624999999999998
 40
0.6874999999999984
 40
0.6874999999999984
 40
0.7499999999999988
 40
0.7499999999999988
 40
0.8124999999999991
 40
0.8124999999999991
 40
0.8749999999999994
 40
0.8749999999999994
 40
0.9374999999999999
 40
0.9374999999999999
 40
1.0
 40
1.0
 40
1.0
 40
1.0
 10
101.4768797410543
 20
0.7898817918004319
 30
0.0
 10
101.5219183778037
 20
0.5043306715107208
 30
0.0
 10
101.5475546705854
 20
0.2165037269749322
 30
0.0
 10
101.560780000088
 20
-0.3637501964551068
 30
0.0
 10
101.5493059141738
 20
-0.657198123583138
 30
0.0
 10
101.4841986788228
 20
-1.090496141310331
 30
0.0
 10
101.4542468327884
 20
-1.234123693063609
 30
0.0
 10
101.38839367364
 20
-1.440885482189954
 30
0.0
 10
101.3628839172731
 20
-1.508527242527429
 30
0.0
 10
101.3008391077741
 20
-1.639843112855175
 30
0.0
 10
101.2636646882407
 20
-1.704535029603007
 30
0.0
 10
101.1744398330923
 20
-1.820075351143059
 30
0.0
 10
101.1210735954656
 20
-1.872182204087117
 30
0.0
 10
100.9981858587
 20
-1.947358129527235
 30
0.0
 10
100.9280739239086
 20
-1.969869503725054
 30
0.0
 10
100.7848520954901
 20
-1.977313521753988
 30
0.0
 10
100.7126594567977
 20
-1.962856633241077
 30
0.0
 10
100.5785376062863
 20
-1.911686975697314
 30
0.0
 10
100.5162731799822
 20
-1.875694634658877
 30
0.0
 10
100.457
 20
-1.832919443211297
 30
0.0
  0
SPLINE
  5
BC
330
1F
100
AcDbEntity
  8
0
  6
Continuous
 62
     1
370
    15
100
AcDbSpline
210
0.0
220
0.0
230
1.0
 70
     8
 71
     3
 72
    18
 73
    14
 74
     0
 42
0.000000001
 43
0.00000001
 40
0.0
 40
0.0
 40
0.0
 40
0.0
 40
0.0209383323231221
 40
0.104129003495054
 40
0.1873192829690969
 40
0.3498309369529388
 40
0.433029346268024
 40
0.5162280715409381
 40
0.606766781351349
 40
0.6973056155356424
 40
0.790457228508872
 40
0.8836082325582924
 40
1.0
 40
1.0
 40
1.0
 40
1.0
 10
88.01315288492069
 20
5.860470679475621
 30
0.0
 10
88.1071789891867
 20
5.878507726652498
 30
0.0
 10
88.57478282642873
 20
5.96820826820172
 30
0.0
 10
89.41550418035627
 20
5.9649668824889
 30
0.0
 10
90.8901677555242
 20
5.90599177153509
 30
0.0
 10
92.36827439550098
 20
5.618563411657277
 30
0.0
 10
93.84309099936931
 20
5.14929879064068
 30
0.0
 10
94.99657749433652
 20
4.689368477648021
 30
0.0
 10
96.18238197628696
 20
4.123679393925465
 30
0.0
 10
97.4131531052902
 20
3.45086135905978
 30
0.0
 10
98.65629291324288
 20
2.696774048516447
 30
0.0
 10
100.0136856404536
 20
1.807585403179105
 30
0.0
 10
100.9543706874418
 20
1.153305448730979
 30
0.0
 10
101.4768797410627
 20
0.7898817917945644
 30
0.0
  0
LINE
  5
BD
330
1F
100
AcDbEntity
  8
0
  6
Continuous
 62
     1
370
    15
100
AcDbLine
 10
101.981
 20
-2.989807193186494
 30
0.0
 11
101.981
 21
0.6950915867540642
 31
0.0
  0
SPLINE
  5
BE
330
1F
100
AcDbEntity
  8
0
  6
Continuous
 62
     1
370
    15
100
AcDbSpline
210
0.0
220
0.0
230
1.0
 70
     8
 71
     3
 72
    14
 73
    10
 74
     0
 42
0.000000001
 43
0.00000001
 40
0.0
 40
0.0
 40
0.0
 40
0.0
 40
0.25
 40
0.25
 40
0.5
 40
0.5
 40
0.75
 40
0.75
 40
1.0
 40
1.0
 40
1.0
 40
1.0
 10
101.981
 20
0.6950915867540566
 30
0.0
 10
101.981
 20
0.6609346978296207
 30
0.0
 10
101.9714217715814
 20
0.6347606131717556
 30
0.0
 10
101.9287502171721
 20
0.60350736529399
 30
0.0
 10
101.8957465885749
 20
0.5991228309437695
 30
0.0
 10
101.8075550097707
 20
0.6153804992939488
 30
0.0
 10
101.7515987713507
 20
0.6363600842007895
 30
0.0
 10
101.6249229461614
 20
0.6990174117984025
 30
0.0
 10
101.5528236720351
 20
0.7412437311959892
 30
0.0
 10
101.4768797410543
 20
0.789881791800527
 30
0.0
  0
SPLINE
  5
BF
330
1F
100
AcDbEntity
  8
0
  6
Continuous
 62
     1
370
    15
100
AcDbSpline
210
0.0
220
0.0
230
1.0
 70
     8
 71
     3
 72
    10
 73
     6
 74
     0
 42
0.000000001
 43
0.00000001
 40
0.0
 40
0.0
 40
0.0
 40
0.0
 40
0.2097607678257876
 40
0.6048310327619458
 40
0.7138603905604602
 40
0.7138603905604602
 40
0.7138603905604602
 40
0.7138603905604602
 10
95.13119990398314
 20
4.608893562637578
 30
0.0
 10
95.50358691656703
 20
4.805843541186584
 30
0.0
 10
96.57733976245339
 20
5.373735526723048
 30
0.0
 10
97.728612884001
 20
5.940420511533666
 30
0.0
 10
98.4292674068983
 20
6.195867473006644
 30
0.0
 10
98.93299994081463
 20
6.350000000000006
 30
0.0
  0
SPLINE
  5
C2
330
1F
100
AcDbEntity
  8
0
  6
Continuous
 62
     1
370
    15
100
AcDbSpline
210
0.0
220
0.0
230
1.0
 70
     8
 71
     3
 72
    18
 73
    14
 74
     0
 42
0.000000001
 43
0.00000001
 40
0.0556811096827047
 40
0.0556811096827047
 40
0.0556811096827047
 40
0.0556811096827047
 40
0.2499999999999998
 40
0.2499999999999998
 40
0.3749999999999997
 40
0.3749999999999997
 40
0.4999999999999996
 40
0.4999999999999996
 40
0.6249999999999994
 40
0.6249999999999994
 40
0.7499999999999993
 40
0.7499999999999993
 40
1.0
 40
1.0
 40
1.0
 40
1.0
 10
101.9117132976327
 20
3.948197408309869
 30
0.0
 10
101.8274614904756
 20
3.761185604352556
 30
0.0
 10
101.7303185373061
 20
3.585224194797582
 30
0.0
 10
101.5469674344794
 20
3.316403559153581
 30
0.0
 10
101.4684742053101
 20
3.215580402328659
 30
0.0
 10
101.3024216565915
 20
3.029842202697923
 30
0.0
 10
101.2149798594257
 20
2.944787749750413
 30
0.0
 10
101.031430947866
 20
2.790014829445812
 30
0.0
 10
100.9353249837076
 20
2.720294326387795
 30
0.0
 10
100.7343914447001
 20
2.596288934728579
 30
0.0
 10
100.6294423477561
 20
2.542136079338191
 30
0.0
 10
100.3112331848885
 20
2.406908288380254
 30
0.0
 10
100.0902931580165
 20
2.35065193994789
 30
0.0
 10
99.86534005120521
 20
2.325333853375555
 30
0.0
  0
SPLINE
  5
C3
330
1F
100
AcDbEntity
  8
0
  6
Continuous
 62
     1
370
    15
100
AcDbSpline
210
0.0
220
0.0
230
1.0
 70
     8
 71
     3
 72
     8
 73
     4
 74
     0
 42
0.000000001
 43
0.00000001
 40
0.0
 40
0.0
 40
0.0
 40
0.0
 40
1.0
 40
1.0
 40
1.0
 40
1.0
 10
101.981
 20
1.224917617528842
 30
0.0
 10
101.2535193630227
 20
1.646691084810045
 30
0.0
 10
100.5479022097893
 20
2.014477226214661
 30
0.0
 10
99.86534005120521
 20
2.325333853375566
 30
0.0
  0
LINE
  5
C4
330
1F
100
AcDbEntity
  8
0
  6
Continuous
 62
     1
370
    15
100
AcDbLine
 10
101.981
 20
0.6950915867540642
 30
0.0
 11
101.981
 21
1.224917617528842
 31
0.0
  0
SPLINE
  5
C5
330
1F
100
AcDbEntity
  8
0
  6
Continuous
 62
     1
370
    15
100
AcDbSpline
210
0.0
220
0.0
230
1.0
 70
     8
 71
     3
 72
    25
 73
    21
 74
     0
 42
0.000000001
 43
0.00000001
 40
0.0601634524718691
 40
0.0601634524718691
 40
0.0601634524718691
 40
0.0601634524718691
 40
0.1079708080377148
 40
0.1831848820886043
 40
0.2195550685741575
 40
0.2655921703573958
 40
0.3310715404192083
 40
0.3727336198607926
 40
0.4222437340111436
 40
0.4671897088553243
 40
0.52450993430586
 40
0.5713460962427857
 40
0.6109426389161333
 40
0.6655390340621126
 40
0.7275761656798793
 40
0.7750773609386955
 40
0.8327688125078876
 40
0.8965799523065164
 40
0.950572983658677
 40
1.0
 40
1.0
 40
1.0
 40
1.0
 10
96.18747667017212
 20
-6.048328552751679
 30
0.0
 10
96.01661584636327
 20
-6.088038172714817
 30
0.0
 10
95.57690615075751
 20
-6.178200741001953
 30
0.0
 10
95.0063881930133
 20
-6.264496019047233
 30
0.0
 10
94.4428885408563
 20
-6.319459139806968
 30
0.0
 10
93.91456119392831
 20
-6.350358345110033
 30
0.0
 10
93.36630615744667
 20
-6.352990148606689
 30
0.0
 10
92.80616116466283
 20
-6.326991594788261
 30
0.0
 10
92.32001831293258
 20
-6.283055889997419
 30
0.0
 10
91.77717836342705
 20
-6.209861927939233
 30
0.0
 10
91.2435349401363
 20
-6.112536228660197
 30
0.0
 10
90.72971960973604
 20
-5.993826753924988
 30
0.0
 10
90.22603468330155
 20
-5.857418395221607
 30
0.0
 10
89.6669742801378
 20
-5.683475467987918
 30
0.0
 10
89.079626333388
 20
-5.471438685756204
 30
0.0
 10
88.48251310691089
 20
-5.227522412339344
 30
0.0
 10
87.87797481277715
 20
-4.956658800183594
 30
0.0
 10
87.24986135066118
 20
-4.646785038310512
 30
0.0
 10
86.65256163899247
 20
-4.327133640932717
 30
0.0
 10
86.28274471689906
 20
-4.114417131543282
 30
0.0
 10
86.10599999999675
 20
-4.012754614264022
 30
0.0
  0
LINE
  5
C6
330
1F
100
AcDbEntity
  8
0
  6
Continuous
 62
     4
370
    15
100
AcDbLine
 10
86.106
 20
-0.8162116590596242
 30
0.0
 11
86.106
 21
-4.012754614265904
 31
0.0
  0
SPLINE
  5
C7
330
1F
100
AcDbEntity
  8
0
  6
Continuous
 62
     1
370
    15
100
AcDbSpline
210
0.0
220
0.0
230
1.0
 70
     8
 71
     3
 72
    11
 73
     7
 74
     0
 42
0.000000001
 43
0.00000001
 40
0.0
 40
0.0
 40
0.0
 40
0.0
 40
0.3081165669358905
 40
0.6162222041594386
 40
0.9243128296538126
 40
1.0
 40
1.0
 40
1.0
 40
1.0
 10
86.106
 20
-4.540700214585488
 30
0.0
 10
86.77589240392717
 20
-4.870090016221277
 30
0.0
 10
88.11565344892011
 20
-5.528857935162416
 30
0.0
 10
90.12522075841059
 20
-6.108250556897203
 30
0.0
 10
91.62944572464698
 20
-6.377841699872997
 30
0.0
 10
92.46379481638388
 20
-6.326700824299378
 30
0.0
 10
92.62834191243502
 20
-6.316615018911093
 30
0.0
  0
LINE
  5
C8
330
1F
100
AcDbEntity
  8
0
  6
Continuous
 62
     4
370
    15
100
AcDbLine
 10
86.106
 20
-4.54070021458549
 30
0.0
 11
86.106
 21
-4.01275461424076
 31
0.0
  0
LINE
  5
C9
330
1F
100
AcDbEntity
  8
0
  6
Continuous
 62
     1
370
    15
100
AcDbLine
 10
86.106
 20
-4.703411372827742
 30
0.0
 11
86.27566070775273
 21
-4.618372121385778
 31
0.0
  0
LINE
  5
CA
330
1F
100
AcDbEntity
  8
0
  6
Continuous
 62
     4
370
    15
100
AcDbLine
 10
86.10600000000002
 20
-4.012754614264022
 30
0.0
 11
86.106
 21
-4.703411372827718
 31
0.0
  0
LINE
  5
CB
330
1F
100
AcDbEntity
  8
0
  6
Continuous
 62
     1
370
    15
100
AcDbLine
 10
101.981
 20
1.224917617528842
 30
0.0
 11
101.981
 21
3.302000000000008
 31
0.0
  0
LINE
  5
CD
330
1F
100
AcDbEntity
  8
0
  6
Continuous
 62
     1
370
    15
100
AcDbLine
 10
101.981
 20
-2.989807193186494
 30
0.0
 11
101.981
 21
-3.302000000000006
 31
0.0
  0
LINE
  5
CE
330
1F
100
AcDbEntity
  8
중심선
100
AcDbLine
 10
-53.419
 20
0.0000000000000016
 30
0.0
 11
104.981
 21
0.0000000000000011
 31
0.0
  0
CIRCLE
  5
CF
330
1F
100
AcDbEntity
  8
외형선
100
AcDbCircle
 10
0.0
 20
-0.0000000000000009
 30
0.0
 40
3.000000000000012
  0
INSERT
  5
D0
330
1F
100
AcDbEntity
  8
0
  6
Continuous
 62
     7
100
AcDbBlockReference
 66
     1
  2
블럭10
 10
14.91982286049799
 20
-40.54113430357142
 30
0.0
  0
ATTRIB
  5
D1
330
D0
100
AcDbEntity
  8
FORMAT
 62
     2
100
AcDbText
 10
5.738527571756709
 20
-38.46576739073922
 30
0.0
 40
4.233333333333333
  1
E5985903 [ 3 FLUTE ]
 41
0.75
  7
SLDTEXTSTYLE0
 11
5.738527571756709
 21
-40.58243405740589
 31
0.0
100
AcDbAttribute
  2
AUTOATTR0
 70
     0
 74
     1
  0
SEQEND
  5
D2
330
D0
100
AcDbEntity
  8
0
  6
Continuous
 62
     7
  0
HATCH
  5
D3
330
1F
100
AcDbEntity
  8
중심선
100
AcDbHatch
 10
0.0
 20
0.0
 30
0.0
210
0.0
220
0.0
230
1.0
  2
SOLID
 70
     1
 71
     0
 91
        1
 92
        0
 93
        4
 72
     1
 10
20.63473216487883
 20
-24.29396000192749
 11
17.18845692104155
 21
-24.29396000192749
 72
     1
 10
17.18845692104155
 20
-24.29396000192749
 11
15.06022706183753
 21
-26.83028558250008
 72
     1
 10
15.06022706183753
 20
-26.83028558250008
 11
18.50653539078796
 21
-26.83024615319759
 72
     1
 10
18.50653539078796
 20
-26.83024615319759
 11
20.63473216487883
 21
-24.29396000192749
 97
        0
 75
     0
 76
     1
 98
        1
 10
66.83309582673607
 20
11.40894749321586
  0
HATCH
  5
D4
330
1F
100
AcDbEntity
  8
중심선
100
AcDbHatch
 10
0.0
 20
0.0
 30
0.0
210
0.0
220
0.0
230
1.0
  2
SOLID
 70
     1
 71
     0
 91
        1
 92
        0
 93
        4
 72
     1
 10
25.64749615591482
 20
-24.29396000192746
 11
22.20122091207753
 21
-24.29396000192749
 72
     1
 10
22.20122091207753
 20
-24.29396000192749
 11
17.67008290372011
 21
-29.6939600019275
 72
     1
 10
17.67008290372011
 20
-29.6939600019275
 11
21.1163581475574
 21
-29.6939600019275
 72
     1
 10
21.1163581475574
 20
-29.6939600019275
 11
25.64749615591482
 21
-24.29396000192746
 97
        0
 75
     0
 76
     1
 98
        1
 10
66.83309582673607
 20
11.40894749321586
  0
HATCH
  5
D5
330
1F
100
AcDbEntity
  8
중심선
100
AcDbHatch
 10
0.0
 20
0.0
 30
0.0
210
0.0
220
0.0
230
1.0
  2
SOLID
 70
     1
 71
     0
 91
        1
 92
        0
 93
        4
 72
     1
 10
30.66026014695071
 20
-24.29396000192749
 11
27.21398490311359
 21
-24.29396000192749
 72
     1
 10
27.21398490311359
 20
-24.29396000192749
 11
20.16554800122432
 21
-32.69396000192751
 72
     1
 10
20.16554800122432
 20
-32.69396000192751
 11
23.6118232450616
 21
-32.69396000192751
 72
     1
 10
23.6118232450616
 20
-32.69396000192751
 11
30.66026014695071
 21
-24.29396000192749
 97
        0
 75
     0
 76
     1
 98
        1
 10
66.83309582673607
 20
11.40894749321586
  0
HATCH
  5
D6
330
1F
100
AcDbEntity
  8
중심선
100
AcDbHatch
 10
0.0
 20
0.0
 30
0.0
210
0.0
220
0.0
230
1.0
  2
SOLID
 70
     1
 71
     0
 91
        1
 92
        0
 93
        6
 72
     3
 10
35.46015057796288
 20
-28.49396000197876
 11
3.960054785062283
 21
1.540882976769353E-10
 40
0.3939339440162628
 50
17.09539180608436
 51
320.0019657685078
 73
     0
 72
     1
 10
37.14315023366348
 20
-27.08185400656579
 11
39.44845210736454
 21
-25.14752729651786
 72
     3
 10
35.46015057791003
 20
-28.49396000192763
 11
6.600054785286829
 21
-1.278976924368180E-13
 40
0.636358354079598
 50
39.99873849337384
 51
368.4976242363724
 73
     1
 72
     1
 10
41.88548306981064
 20
-27.53396000185751
 11
34.14021788474596
 21
-27.53396000185751
 72
     1
 10
34.14021788474596
 20
-27.53396000185751
 11
34.14019284030002
 21
-29.4539600018574
 72
     1
 10
34.14019284030002
 20
-29.4539600018574
 11
38.58157260977206
 21
-29.45396000185738
 97
        0
 75
     0
 76
     1
 98
        1
 10
66.83309582673607
 20
11.40894749321586
  0
POINT
  5
D7
330
1F
100
AcDbEntity
  8
치수문자_일반주서
100
AcDbPoint
 10
19.04999990933653
 20
0.0000000000000239
 30
0.0
  0
POINT
  5
D8
330
1F
100
AcDbEntity
  8
치수문자_일반주서
100
AcDbPoint
 10
-50.419
 20
0.0000000000000019
 30
0.0
  0
DIMENSION
  5
D9
330
1F
100
AcDbEntity
  8
치수문자_일반주서
100
AcDbDimension
  2
_D
 10
86.106
 20
28.32027939768169
 30
0.0
 11
66.8145
 21
28.32027939768169
 31
0.0
 70
   160
  1
<>
 71
     2
 42
15.87500000000003
  3
SLDDIMSTYLE0
100
AcDbAlignedDimension
 13
101.981
 23
6.350000000000001
 33
0.0
 14
86.106
 24
6.268445502775768
 34
0.0
 50
-0.0000000000000256
100
AcDbRotatedDimension
1001
ACAD
1000
DSTYLE
1002
{
1070
   171
1070
     6
1070
   273
1070
     5
1002
}
  0
DIMENSION
  5
EF
330
1F
100
AcDbEntity
  8
치수문자_일반주서
100
AcDbDimension
  2
_D_1
 10
-50.41900000000001
 20
68.18475965011002
 30
0.0
 11
25.17241452505229
 21
68.18475965011002
 31
0.0
 70
   160
  1
<>
 71
     2
 42
152.4
  3
SLDDIMSTYLE1
100
AcDbAlignedDimension
 13
101.981
 23
6.350000000000001
 33
0.0
 14
-50.41900000000002
 24
5.849999999999995
 34
0.0
 50
0.0000000000000053
100
AcDbRotatedDimension
1001
ACAD
1000
DSTYLE
1002
{
1070
   171
1070
     6
1070
   273
1070
     5
1002
}
  0
DIMENSION
  5
103
330
1F
100
AcDbEntity
  8
치수문자_일반주서
100
AcDbDimension
  2
_D_2
 10
-62.41891076355248
 20
-6.350000000000041
 30
0.0
 11
-62.4189107635526
 21
26.73524999999996
 31
0.0
 70
   160
  1
%%c<>
 71
     2
 42
12.7
 52
-270.0
  3
SLDDIMSTYLE2
100
AcDbAlignedDimension
 13
-49.91900000000002
 23
6.349999999999998
 33
0.0
 14
-49.91900000000002
 24
-6.35
 34
0.0
 50
90.0000000000002
100
AcDbRotatedDimension
1001
ACAD
1000
DSTYLE
1002
{
1070
   171
1070
     6
1070
   273
1070
     5
1002
}
  0
DIMENSION
  5
118
330
1F
100
AcDbEntity
  8
치수문자_일반주서
100
AcDbDimension
  2
_D_3
 10
101.981
 20
52.44959778227562
 30
0.0
 11
51.18100000000001
 21
52.44959778227562
 31
0.0
 70
   160
  1
<>
 71
     2
 42
101.6
  3
SLDDIMSTYLE3
100
AcDbAlignedDimension
 13
0.3810000000000073
 23
5.968999999999999
 33
0.0
 14
101.981
 24
6.350000000000001
 34
0.0
100
AcDbRotatedDimension
1001
ACAD
1000
DSTYLE
1002
{
1070
   171
1070
     6
1070
   273
1070
     5
1002
}
  0
INSERT
  5
132
330
1F
100
AcDbEntity
  8
외형선
100
AcDbBlockReference
  2
SW_DOWELSYMBOL_0
 10
0.0
 20
-0.0000000000000009
 30
0.0
  0
DIMENSION
  5
160
330
1F
100
AcDbEntity
  8
치수문자_일반주서
100
AcDbDimension
  2
*D7
 10
116.9143105125134
 20
6.350000000000001
 30
0.0
 11
116.9143105125134
 21
26.99107156470169
 31
0.0
 70
   160
  1
{Ø<>[]}
 71
     5
 42
12.70000000000001
  3
SLDDIMSTYLE3
100
AcDbAlignedDimension
 13
101.981
 23
-6.350000000000005
 33
0.0
 14
101.981
 24
6.350000000000001
 34
0.0
 50
90.0
100
AcDbRotatedDimension
1001
ACAD
1000
DSTYLE
1002
{
1070
   171
1070
     6
1070
   273
1070
     5
1070
   283
1070
     1
1070
   170
1070
     1
1002
}
  0
ARC
  5
1A8
102
{ACAD_REACTORS
102
}
330
1F
100
AcDbEntity
  8
0
  6
Continuous
 62
     1
370
    15
100
AcDbCircle
 10
98.93299999999999
 20
-3.302000000000006
 30
0.0
 40
3.047999999999999
100
AcDbArc
 50
269.9999988874436
 51
0.0
  0
ARC
  5
1A9
330
1F
100
AcDbEntity
  8
0
  6
Continuous
 62
     1
370
    15
100
AcDbCircle
 10
98.93299999999999
 20
3.302000000000008
 30
0.0
 40
3.047999999999999
100
AcDbArc
 50
0.0
 51
90.00000111255636
  0
DIMENSION
  5
1AB
102
{ACAD_REACTORS
102
}
102
{ACAD_XDICTIONARY
360
1AC
102
}
330
1F
100
AcDbEntity
  8
치수문자_일반주서
100
AcDbDimension
  2
*D9
 10
98.93299999999999
 20
-3.302000000000006
 30
0.0
 11
111.4867079580065
 21
-28.36027499061105
 31
0.0
 70
   164
  1
<>
 71
     5
 42
3.047999999999997
  3
SLDDIMSTYLE3
100
AcDbRadialDimension
 15
100.2982442950014
 25
-6.027144402589736
 35
0.0
 40
0.0
1001
ACAD
1000
DSTYLE
1002
{
1070
   171
1070
     2
1070
   273
1070
     2
1002
}
1001
ACAD_DSTYLE_DIMRADIAL_EXTENSION
1070
   387
1070
     1
1070
   388
1040
4.712388960966918
1070
   390
1040
0.0
  0
ENDSEC
  0
SECTION
  2
OBJECTS
  0
DICTIONARY
  5
C
330
0
100
AcDbDictionary
281
     1
  3
ACAD_GROUP
350
D
  3
ACAD_IMAGE_VARS
350
156
  3
ACAD_LAYOUT
350
1A
  3
ACAD_MLINESTYLE
350
17
  3
ACAD_PLOTSETTINGS
350
19
  3
ACAD_PLOTSTYLENAME
350
E
  3
ACAD_SCALELIST
350
47
  3
APPDATA
350
154
  3
DWGPROPS
350
1BA
  0
DICTIONARY
  5
1AC
330
1AB
100
AcDbDictionary
280
     1
281
     1
  0
DICTIONARY
  5
D
102
{ACAD_REACTORS
330
C
102
}
330
C
100
AcDbDictionary
281
     1
  0
RASTERVARIABLES
  5
156
102
{ACAD_REACTORS
330
C
102
}
330
C
100
AcDbRasterVariables
 90
        0
 70
     1
 71
     1
 72
     1
  0
DICTIONARY
  5
1A
102
{ACAD_REACTORS
330
C
102
}
330
C
100
AcDbDictionary
281
     1
  3
Layout1
350
1E
  3
Layout2
350
26
  3
Model
350
22
  0
DICTIONARY
  5
17
102
{ACAD_REACTORS
330
C
102
}
330
C
100
AcDbDictionary
281
     1
  3
Standard
350
18
  0
DICTIONARY
  5
19
102
{ACAD_REACTORS
330
C
102
}
330
C
100
AcDbDictionary
281
     1
  0
ACDBDICTIONARYWDFLT
  5
E
102
{ACAD_REACTORS
330
C
102
}
330
C
100
AcDbDictionary
281
     1
  3
Normal
350
F
100
AcDbDictionaryWithDefault
340
F
  0
DICTIONARY
  5
47
102
{ACAD_REACTORS
330
C
102
}
330
C
100
AcDbDictionary
281
     1
  3
A0
350
48
  3
A1
350
49
  3
A2
350
4A
  3
A3
350
4B
  3
A4
350
4C
  3
A5
350
4D
  3
A6
350
4E
  3
A7
350
4F
  3
A8
350
50
  3
A9
350
51
  3
B0
350
52
  3
B1
350
53
  3
B2
350
54
  3
B3
350
55
  3
B4
350
56
  3
B5
350
57
  3
B6
350
58
  3
B7
350
59
  3
B8
350
5A
  3
B9
350
5B
  3
C0
350
5C
  3
C1
350
5D
  3
C2
350
5E
  3
C3
350
5F
  3
C4
350
60
  3
C5
350
61
  3
C6
350
62
  3
C7
350
63
  3
C8
350
64
  3
C9
350
65
  3
D0
350
66
  3
D1
350
67
  3
D2
350
68
  0
DICTIONARY
  5
154
102
{ACAD_REACTORS
330
C
102
}
330
C
100
AcDbDictionary
281
     1
  0
XRECORD
  5
1BA
102
{ACAD_REACTORS
330
C
102
}
330
C
100
AcDbXrecord
280
     1
  1
DWGPROPS COOKIE
  2

  3

  4

  6

  7

  8
12014074
  9

300
=
301
=
302
=
303
=
304
=
305
=
306
=
307
=
308
=
309
=
 40
0.0
 41
2458269.041425047
 42
2458270.126189711
  1

 90
        0
  0
LAYOUT
  5
1E
102
{ACAD_REACTORS
330
1A
102
}
330
1A
100
AcDbPlotSettings
  1

  2
none_device
  4

  6

 40
0.0
 41
0.0
 42
0.0
 43
0.0
 44
0.0
 45
0.0
 46
0.0
 47
0.0
 48
0.0
 49
0.0
140
0.0
141
0.0
142
1.0
143
1.0
 70
   688
 72
     1
 73
     0
 74
     5
  7

 75
    16
147
1.0
148
0.0
149
0.0
100
AcDbLayout
  1
Layout1
 70
     1
 71
     1
 10
0.0
 20
0.0
 11
420.0
 21
297.0
 12
0.0
 22
0.0
 32
0.0
 14
1.000000000000000E+20
 24
1.000000000000000E+20
 34
1.000000000000000E+20
 15
-1.000000000000000E+20
 25
-1.000000000000000E+20
 35
-1.000000000000000E+20
146
0.0
 13
0.0
 23
0.0
 33
0.0
 16
1.0
 26
0.0
 36
0.0
 17
0.0
 27
1.0
 37
0.0
 76
     0
330
1B
  0
LAYOUT
  5
26
102
{ACAD_REACTORS
330
1A
102
}
330
1A
100
AcDbPlotSettings
  1

  2
none_device
  4

  6

 40
0.0
 41
0.0
 42
0.0
 43
0.0
 44
0.0
 45
0.0
 46
0.0
 47
0.0
 48
0.0
 49
0.0
140
0.0
141
0.0
142
1.0
143
1.0
 70
   688
 72
     1
 73
     0
 74
     5
  7

 75
    16
147
1.0
148
0.0
149
0.0
100
AcDbLayout
  1
Layout2
 70
     1
 71
     2
 10
0.0
 20
0.0
 11
0.0
 21
0.0
 12
0.0
 22
0.0
 32
0.0
 14
0.0
 24
0.0
 34
0.0
 15
0.0
 25
0.0
 35
0.0
146
0.0
 13
0.0
 23
0.0
 33
0.0
 16
1.0
 26
0.0
 36
0.0
 17
0.0
 27
1.0
 37
0.0
 76
     0
330
23
  0
LAYOUT
  5
22
102
{ACAD_REACTORS
330
1A
102
}
330
1A
100
AcDbPlotSettings
  1

  2
none_device
  4
ANSI_A_(11.00_x_8.50_Inches)
  6

 40
6.35
 41
19.05
 42
6.35000508
 43
19.05000254
 44
279.4
 45
215.9
 46
196.677910392799
 47
68.17988151048725
 48
0.0
 49
0.0
140
0.0
141
0.0
142
0.0575305035887674
143
1.0
 70
  1696
 72
     0
 73
     0
 74
     0
  7

 75
     0
147
0.0235690232323232
148
0.0
149
0.0
100
AcDbLayout
  1
Model
 70
     1
 71
     0
 10
0.0
 20
0.0
 11
420.0
 21
297.0
 12
0.0
 22
0.0
 32
0.0
 14
-66.79391076355263
 24
-40.87734245657439
 34
0.0
 15
121.2771732248121
 25
72.55975965011002
 35
0.0
146
0.0
 13
0.0
 23
0.0
 33
0.0
 16
1.0
 26
0.0
 36
0.0
 17
0.0
 27
1.0
 37
0.0
 76
     0
330
1F
331
29
  0
MLINESTYLE
  5
18
102
{ACAD_REACTORS
330
17
102
}
330
17
100
AcDbMlineStyle
  2
Standard
 70
     0
  3

 62
   256
 51
90.0
 52
90.0
 71
     2
 49
0.5
 62
   256
  6
BYLAYER
 49
-0.5
 62
   256
  6
BYLAYER
  0
ACDBPLACEHOLDER
  5
F
102
{ACAD_REACTORS
330
E
102
}
330
E
  0
SCALE
  5
48
102
{ACAD_REACTORS
330
47
102
}
330
47
100
AcDbScale
 70
     0
300
1:1
140
1.0
141
1.0
290
     1
  0
SCALE
  5
49
102
{ACAD_REACTORS
330
47
102
}
330
47
100
AcDbScale
 70
     0
300
1:2
140
1.0
141
2.0
290
     0
  0
SCALE
  5
4A
102
{ACAD_REACTORS
330
47
102
}
330
47
100
AcDbScale
 70
     0
300
1:4
140
1.0
141
4.0
290
     0
  0
SCALE
  5
4B
102
{ACAD_REACTORS
330
47
102
}
330
47
100
AcDbScale
 70
     0
300
1:5
140
1.0
141
5.0
290
     0
  0
SCALE
  5
4C
102
{ACAD_REACTORS
330
47
102
}
330
47
100
AcDbScale
 70
     0
300
1:8
140
1.0
141
8.0
290
     0
  0
SCALE
  5
4D
102
{ACAD_REACTORS
330
47
102
}
330
47
100
AcDbScale
 70
     0
300
1:10
140
1.0
141
10.0
290
     0
  0
SCALE
  5
4E
102
{ACAD_REACTORS
330
47
102
}
330
47
100
AcDbScale
 70
     0
300
1:16
140
1.0
141
16.0
290
     0
  0
SCALE
  5
4F
102
{ACAD_REACTORS
330
47
102
}
330
47
100
AcDbScale
 70
     0
300
1:20
140
1.0
141
20.0
290
     0
  0
SCALE
  5
50
102
{ACAD_REACTORS
330
47
102
}
330
47
100
AcDbScale
 70
     0
300
1:30
140
1.0
141
30.0
290
     0
  0
SCALE
  5
51
102
{ACAD_REACTORS
330
47
102
}
330
47
100
AcDbScale
 70
     0
300
1:40
140
1.0
141
40.0
290
     0
  0
SCALE
  5
52
102
{ACAD_REACTORS
330
47
102
}
330
47
100
AcDbScale
 70
     0
300
1:50
140
1.0
141
50.0
290
     0
  0
SCALE
  5
53
102
{ACAD_REACTORS
330
47
102
}
330
47
100
AcDbScale
 70
     0
300
1:100
140
1.0
141
100.0
290
     0
  0
SCALE
  5
54
102
{ACAD_REACTORS
330
47
102
}
330
47
100
AcDbScale
 70
     0
300
2:1
140
2.0
141
1.0
290
     0
  0
SCALE
  5
55
102
{ACAD_REACTORS
330
47
102
}
330
47
100
AcDbScale
 70
     0
300
4:1
140
4.0
141
1.0
290
     0
  0
SCALE
  5
56
102
{ACAD_REACTORS
330
47
102
}
330
47
100
AcDbScale
 70
     0
300
8:1
140
8.0
141
1.0
290
     0
  0
SCALE
  5
57
102
{ACAD_REACTORS
330
47
102
}
330
47
100
AcDbScale
 70
     0
300
10:1
140
10.0
141
1.0
290
     0
  0
SCALE
  5
58
102
{ACAD_REACTORS
330
47
102
}
330
47
100
AcDbScale
 70
     0
300
100:1
140
100.0
141
1.0
290
     0
  0
SCALE
  5
59
102
{ACAD_REACTORS
330
47
102
}
330
47
100
AcDbScale
 70
     0
300
1/128" = 1'-0"
140
0.0078125
141
12.0
290
     0
  0
SCALE
  5
5A
102
{ACAD_REACTORS
330
47
102
}
330
47
100
AcDbScale
 70
     0
300
1/64" = 1'-0"
140
0.015625
141
12.0
290
     0
  0
SCALE
  5
5B
102
{ACAD_REACTORS
330
47
102
}
330
47
100
AcDbScale
 70
     0
300
1/32" = 1'-0"
140
0.03125
141
12.0
290
     0
  0
SCALE
  5
5C
102
{ACAD_REACTORS
330
47
102
}
330
47
100
AcDbScale
 70
     0
300
1/16" = 1'-0"
140
0.0625
141
12.0
290
     0
  0
SCALE
  5
5D
102
{ACAD_REACTORS
330
47
102
}
330
47
100
AcDbScale
 70
     0
300
3/32" = 1'-0"
140
0.09375
141
12.0
290
     0
  0
SCALE
  5
5E
102
{ACAD_REACTORS
330
47
102
}
330
47
100
AcDbScale
 70
     0
300
1/8" = 1'-0"
140
0.125
141
12.0
290
     0
  0
SCALE
  5
5F
102
{ACAD_REACTORS
330
47
102
}
330
47
100
AcDbScale
 70
     0
300
3/16" = 1'-0"
140
0.1875
141
12.0
290
     0
  0
SCALE
  5
60
102
{ACAD_REACTORS
330
47
102
}
330
47
100
AcDbScale
 70
     0
300
1/4" = 1'-0"
140
0.25
141
12.0
290
     0
  0
SCALE
  5
61
102
{ACAD_REACTORS
330
47
102
}
330
47
100
AcDbScale
 70
     0
300
3/8" = 1'-0"
140
0.375
141
12.0
290
     0
  0
SCALE
  5
62
102
{ACAD_REACTORS
330
47
102
}
330
47
100
AcDbScale
 70
     0
300
1/2" = 1'-0"
140
0.5
141
12.0
290
     0
  0
SCALE
  5
63
102
{ACAD_REACTORS
330
47
102
}
330
47
100
AcDbScale
 70
     0
300
3/4" = 1'-0"
140
0.75
141
12.0
290
     0
  0
SCALE
  5
64
102
{ACAD_REACTORS
330
47
102
}
330
47
100
AcDbScale
 70
     0
300
1" = 1'-0"
140
1.0
141
12.0
290
     0
  0
SCALE
  5
65
102
{ACAD_REACTORS
330
47
102
}
330
47
100
AcDbScale
 70
     0
300
1-1/2" = 1'-0"
140
1.5
141
12.0
290
     0
  0
SCALE
  5
66
102
{ACAD_REACTORS
330
47
102
}
330
47
100
AcDbScale
 70
     0
300
3" = 1'-0"
140
3.0
141
12.0
290
     0
  0
SCALE
  5
67
102
{ACAD_REACTORS
330
47
102
}
330
47
100
AcDbScale
 70
     0
300
6" = 1'-0"
140
6.0
141
12.0
290
     0
  0
SCALE
  5
68
102
{ACAD_REACTORS
330
47
102
}
330
47
100
AcDbScale
 70
     0
300
1'-0" = 1'-0"
140
12.0
141
12.0
290
     0
  0
ENDSEC
  0
EOF
