  0
SECTION
  2
HEADER
  9
$ACADVER
  1
AC1015
  9
$ACADMAINTVER
 70
     6
  9
$DWGCODEPAGE
  3
ANSI_949
  9
$INSBASE
 10
0.0
 20
0.0
 30
0.0
  9
$EXTMIN
 10
-85.84391067288915
 20
-40.87734245657439
 30
0.0
  9
$EXTMAX
 10
102.2271733154756
 20
72.55975965011002
 30
0.0
  9
$LIMMIN
 10
0.0
 20
0.0
  9
$LIMMAX
 10
420.0
 20
297.0
  9
$ORTHOMODE
 70
     0
  9
$REGENMODE
 70
     1
  9
$FILLMODE
 70
     1
  9
$QTEXTMODE
 70
     0
  9
$MIRRTEXT
 70
     1
  9
$LTSCALE
 40
1.0
  9
$ATTMODE
 70
     1
  9
$TEXTSIZE
 40
3.5
  9
$TRACEWID
 40
1.0
  9
$TEXTSTYLE
  7
Standard
  9
$CLAYER
  8
0
  9
$CELTYPE
  6
ByLayer
  9
$CECOLOR
 62
   256
  9
$CELTSCALE
 40
1.0
  9
$DISPSILH
 70
     0
  9
$DIMSCALE
 40
1.0
  9
$DIMASZ
 40
3.302
  9
$DIMEXO
 40
1.0
  9
$DIMDLI
 40
3.75
  9
$DIMRND
 40
0.0
  9
$DIMDLE
 40
0.0
  9
$DIMEXE
 40
1.0
  9
$DIMTP
 40
0.0
  9
$DIMTM
 40
0.0
  9
$DIMTXT
 40
3.5
  9
$DIMCEN
 40
2.5
  9
$DIMTSZ
 40
0.0
  9
$DIMTOL
 70
     0
  9
$DIMLIM
 70
     0
  9
$DIMTIH
 70
     1
  9
$DIMTOH
 70
     1
  9
$DIMSE1
 70
     0
  9
$DIMSE2
 70
     0
  9
$DIMTAD
 70
     1
  9
$DIMZIN
 70
     0
  9
$DIMBLK
  1

  9
$DIMASO
 70
     1
  9
$DIMSHO
 70
     1
  9
$DIMPOST
  1

  9
$DIMAPOST
  1

  9
$DIMALT
 70
     0
  9
$DIMALTD
 70
     3
  9
$DIMALTF
 40
0.0393700787401575
  9
$DIMLFAC
 40
1.0
  9
$DIMTOFL
 70
     1
  9
$DIMTVP
 40
0.0
  9
$DIMTIX
 70
     0
  9
$DIMSOXD
 70
     0
  9
$DIMSAH
 70
     0
  9
$DIMBLK1
  1

  9
$DIMBLK2
  1

  9
$DIMSTYLE
  2
ISO-25
  9
$DIMCLRD
 70
     0
  9
$DIMCLRE
 70
     0
  9
$DIMCLRT
 70
     0
  9
$DIMTFAC
 40
1.0
  9
$DIMGAP
 40
1.524
  9
$DIMJUST
 70
     0
  9
$DIMSD1
 70
     0
  9
$DIMSD2
 70
     0
  9
$DIMTOLJ
 70
     0
  9
$DIMTZIN
 70
     0
  9
$DIMALTZ
 70
     0
  9
$DIMALTTZ
 70
     0
  9
$DIMUPT
 70
     0
  9
$DIMDEC
 70
     2
  9
$DIMTDEC
 70
     2
  9
$DIMALTU
 70
     2
  9
$DIMALTTD
 70
     3
  9
$DIMTXSTY
  7
Standard
  9
$DIMAUNIT
 70
     0
  9
$DIMADEC
 70
     2
  9
$DIMALTRND
 40
0.0
  9
$DIMAZIN
 70
     0
  9
$DIMDSEP
 70
    44
  9
$DIMATFIT
 70
     3
  9
$DIMFRAC
 70
     0
  9
$DIMLDRBLK
  1

  9
$DIMLUNIT
 70
     2
  9
$DIMLWD
 70
    -2
  9
$DIMLWE
 70
    -2
  9
$DIMTMOVE
 70
     0
  9
$LUNITS
 70
     2
  9
$LUPREC
 70
     2
  9
$SKETCHINC
 40
1.0
  9
$FILLETRAD
 40
10.0
  9
$AUNITS
 70
     0
  9
$AUPREC
 70
     2
  9
$MENU
  1
.
  9
$ELEVATION
 40
0.0
  9
$PELEVATION
 40
0.0
  9
$THICKNESS
 40
0.0
  9
$LIMCHECK
 70
     0
  9
$CHAMFERA
 40
0.0
  9
$CHAMFERB
 40
0.0
  9
$CHAMFERC
 40
0.0
  9
$CHAMFERD
 40
0.0
  9
$SKPOLY
 70
     0
  9
$TDCREATE
 40
2458269.416425047
  9
$TDUCREATE
 40
2458269.041425047
  9
$TDUPDATE
 40
2458270.500226655
  9
$TDUUPDATE
 40
2458270.125226655
  9
$TDINDWG
 40
0.0058765972
  9
$TDUSRTIMER
 40
2458270.123483588
  9
$USRTIMER
 70
     1
  9
$ANGBASE
 50
0.0
  9
$ANGDIR
 70
     0
  9
$PDMODE
 70
     0
  9
$PDSIZE
 40
-1.0
  9
$PLINEWID
 40
0.0
  9
$SPLFRAME
 70
     0
  9
$SPLINETYPE
 70
     6
  9
$SPLINESEGS
 70
     8
  9
$HANDSEED
  5
1B9
  9
$SURFTAB1
 70
     6
  9
$SURFTAB2
 70
     6
  9
$SURFTYPE
 70
     6
  9
$SURFU
 70
     6
  9
$SURFV
 70
     6
  9
$UCSBASE
  2

  9
$UCSNAME
  2

  9
$UCSORG
 10
0.0
 20
0.0
 30
0.0
  9
$UCSXDIR
 10
1.0
 20
0.0
 30
0.0
  9
$UCSYDIR
 10
0.0
 20
1.0
 30
0.0
  9
$UCSORTHOREF
  2

  9
$UCSORTHOVIEW
 70
     0
  9
$UCSORGTOP
 10
0.0
 20
0.0
 30
0.0
  9
$UCSORGBOTTOM
 10
0.0
 20
0.0
 30
0.0
  9
$UCSORGLEFT
 10
0.0
 20
0.0
 30
0.0
  9
$UCSORGRIGHT
 10
0.0
 20
0.0
 30
0.0
  9
$UCSORGFRONT
 10
0.0
 20
0.0
 30
0.0
  9
$UCSORGBACK
 10
0.0
 20
0.0
 30
0.0
  9
$PUCSBASE
  2

  9
$PUCSNAME
  2

  9
$PUCSORG
 10
0.0
 20
0.0
 30
0.0
  9
$PUCSXDIR
 10
1.0
 20
0.0
 30
0.0
  9
$PUCSYDIR
 10
0.0
 20
1.0
 30
0.0
  9
$PUCSORTHOREF
  2

  9
$PUCSORTHOVIEW
 70
     0
  9
$PUCSORGTOP
 10
0.0
 20
0.0
 30
0.0
  9
$PUCSORGBOTTOM
 10
0.0
 20
0.0
 30
0.0
  9
$PUCSORGLEFT
 10
0.0
 20
0.0
 30
0.0
  9
$PUCSORGRIGHT
 10
0.0
 20
0.0
 30
0.0
  9
$PUCSORGFRONT
 10
0.0
 20
0.0
 30
0.0
  9
$PUCSORGBACK
 10
0.0
 20
0.0
 30
0.0
  9
$USERI1
 70
     0
  9
$USERI2
 70
     0
  9
$USERI3
 70
     0
  9
$USERI4
 70
     0
  9
$USERI5
 70
     0
  9
$USERR1
 40
0.0
  9
$USERR2
 40
0.0
  9
$USERR3
 40
0.0
  9
$USERR4
 40
0.0
  9
$USERR5
 40
0.0
  9
$WORLDVIEW
 70
     1
  9
$SHADEDGE
 70
     3
  9
$SHADEDIF
 70
    70
  9
$TILEMODE
 70
     1
  9
$MAXACTVP
 70
    64
  9
$PINSBASE
 10
0.0
 20
0.0
 30
0.0
  9
$PLIMCHECK
 70
     0
  9
$PEXTMIN
 10
1.000000000000000E+20
 20
1.000000000000000E+20
 30
1.000000000000000E+20
  9
$PEXTMAX
 10
-1.000000000000000E+20
 20
-1.000000000000000E+20
 30
-1.000000000000000E+20
  9
$PLIMMIN
 10
0.0
 20
0.0
  9
$PLIMMAX
 10
0.0
 20
0.0
  9
$UNITMODE
 70
     0
  9
$VISRETAIN
 70
     1
  9
$PLINEGEN
 70
     0
  9
$PSLTSCALE
 70
     1
  9
$TREEDEPTH
 70
  3020
  9
$CMLSTYLE
  2
Standard
  9
$CMLJUST
 70
     0
  9
$CMLSCALE
 40
20.0
  9
$PROXYGRAPHICS
 70
     1
  9
$MEASUREMENT
 70
     1
  9
$CELWEIGHT
370
    -1
  9
$ENDCAPS
280
     0
  9
$JOINSTYLE
280
     0
  9
$LWDISPLAY
290
     1
  9
$INSUNITS
 70
     4
  9
$HYPERLINKBASE
  1

  9
$STYLESHEET
  1

  9
$XEDIT
290
     1
  9
$CEPSNTYPE
380
     0
  9
$PSTYLEMODE
290
     1
  9
$FINGERPRINTGUID
  2
{14341D3A-063D-4FD1-8BA7-A2F613E3D953}
  9
$VERSIONGUID
  2
{FAEB1C32-E019-11D5-929B-00C0DF256EC4}
  9
$EXTNAMES
290
     1
  9
$PSVPSCALE
 40
0.0
  9
$OLESTARTUP
290
     0
  0
ENDSEC
  0
SECTION
  2
CLASSES
  0
CLASS
  1
ACDBDICTIONARYWDFLT
  2
AcDbDictionaryWithDefault
  3
ObjectDBX Classes
 90
        0
280
     0
281
     0
  0
CLASS
  1
VISUALSTYLE
  2
AcDbVisualStyle
  3
ObjectDBX Classes
 90
     4095
280
     0
281
     0
  0
CLASS
  1
MATERIAL
  2
AcDbMaterial
  3
ObjectDBX Classes
 90
     1153
280
     0
281
     0
  0
CLASS
  1
SCALE
  2
AcDbScale
  3
ObjectDBX Classes
 90
     1153
280
     0
281
     0
  0
CLASS
  1
SUN
  2
AcDbSun
  3
SCENEOE
 90
     1153
280
     0
281
     0
  0
CLASS
  1
ACDBPLACEHOLDER
  2
AcDbPlaceHolder
  3
ObjectDBX Classes
 90
        0
280
     0
281
     0
  0
CLASS
  1
LAYOUT
  2
AcDbLayout
  3
ObjectDBX Classes
 90
        0
280
     0
281
     0
  0
CLASS
  1
TABLESTYLE
  2
AcDbTableStyle
  3
ObjectDBX Classes
 90
     4095
280
     0
281
     0
  0
CLASS
  1
MLEADERSTYLE
  2
AcDbMLeaderStyle
  3
ACDB_MLEADERSTYLE_CLASS
 90
     4095
280
     0
281
     0
  0
CLASS
  1
RASTERVARIABLES
  2
AcDbRasterVariables
  3
ISM
 90
        0
280
     0
281
     0
  0
CLASS
  1
DIMASSOC
  2
AcDbDimAssoc
  3
"AcDbDimAssoc|Product Desc:     AcDim ARX App For Dimension|Company:          Autodesk, Inc.|WEB Address:      www.autodesk.com"
 90
        0
280
     0
281
     0
  0
ENDSEC
  0
SECTION
  2
TABLES
  0
TABLE
  2
VPORT
  5
8
330
0
100
AcDbSymbolTable
 70
     1
  0
VPORT
  5
29
330
8
100
AcDbSymbolTableRecord
100
AcDbViewportTableRecord
  2
*Active
 70
     0
 10
0.0
 20
0.0
 11
1.0
 21
1.0
 12
46.34161751376458
 22
14.8636995394145
 13
0.0
 23
0.0
 14
10.0
 24
10.0
 15
10.0
 25
10.0
 16
0.0
 26
0.0
 36
1.0
 17
0.0
 27
0.0
 37
0.0
 40
166.9855042188864
 41
1.970186335403727
 42
50.0
 43
0.0
 44
0.0
 50
0.0
 51
0.0
 71
    16
 72
  2000
 73
     1
 74
     3
 75
     0
 76
     0
 77
     0
 78
     0
281
     0
 65
     1
110
0.0
120
0.0
130
0.0
111
1.0
121
0.0
131
0.0
112
0.0
122
1.0
132
0.0
 79
     0
146
0.0
  0
ENDTAB
  0
TABLE
  2
LTYPE
  5
5
330
0
100
AcDbSymbolTable
 70
     6
  0
LTYPE
  5
14
330
5
100
AcDbSymbolTableRecord
100
AcDbLinetypeTableRecord
  2
ByBlock
 70
     0
  3

 72
    65
 73
     0
 40
0.0
  0
LTYPE
  5
15
330
5
100
AcDbSymbolTableRecord
100
AcDbLinetypeTableRecord
  2
ByLayer
 70
     0
  3

 72
    65
 73
     0
 40
0.0
  0
LTYPE
  5
16
330
5
100
AcDbSymbolTableRecord
100
AcDbLinetypeTableRecord
  2
Continuous
 70
     0
  3
Solid line
 72
    65
 73
     0
 40
0.0
  0
LTYPE
  5
6A
330
5
100
AcDbSymbolTableRecord
100
AcDbLinetypeTableRecord
  2
HIDDEN
 70
     0
  3
Hidden __ __ __ __ __ __ __ __ __ __ __ __ __ __
 72
    65
 73
     2
 40
1.905
 49
1.27
 74
     0
 49
-0.635
 74
     0
  0
LTYPE
  5
6B
330
5
100
AcDbSymbolTableRecord
100
AcDbLinetypeTableRecord
  2
PHANTOM
 70
     0
  3
Phantom ______  __  __  ______  __  __  ______
 72
    65
 73
     6
 40
12.7
 49
6.35
 74
     0
 49
-1.27
 74
     0
 49
1.27
 74
     0
 49
-1.27
 74
     0
 49
1.27
 74
     0
 49
-1.27
 74
     0
  0
LTYPE
  5
6C
330
5
100
AcDbSymbolTableRecord
100
AcDbLinetypeTableRecord
  2
CENTER
 70
     0
  3
Center ____ _ ____ _ ____ _ ____ _ ____ _ ____
 72
    65
 73
     4
 40
10.16
 49
6.35
 74
     0
 49
-1.27
 74
     0
 49
1.27
 74
     0
 49
-1.27
 74
     0
  0
LTYPE
  5
6D
330
5
100
AcDbSymbolTableRecord
100
AcDbLinetypeTableRecord
  2
CENTERX2
 70
     0
  3
Center (2x) ________  __  ________  __  _____
 72
    65
 73
     4
 40
20.32
 49
12.7
 74
     0
 49
-2.54
 74
     0
 49
2.54
 74
     0
 49
-2.54
 74
     0
  0
LTYPE
  5
6E
330
5
100
AcDbSymbolTableRecord
100
AcDbLinetypeTableRecord
  2
DOT2
 70
     0
  3
Dot (.5x) ........................................
 72
    65
 73
     2
 40
0.635
 49
0.0
 74
     0
 49
-0.635
 74
     0
  0
ENDTAB
  0
TABLE
  2
LAYER
  5
2
330
0
100
AcDbSymbolTable
 70
    17
  0
LAYER
  5
10
330
2
100
AcDbSymbolTableRecord
100
AcDbLayerTableRecord
  2
0
 70
     0
 62
     7
  6
Continuous
370
    -3
390
F
  0
LAYER
  5
6F
330
2
100
AcDbSymbolTableRecord
100
AcDbLayerTableRecord
  2
FORMAT
 70
     0
 62
     2
  6
Continuous
370
    -3
390
F
  0
LAYER
  5
70
330
2
100
AcDbSymbolTableRecord
100
AcDbLayerTableRecord
  2
외형선
 70
     0
 62
   100
  6
Continuous
370
    30
390
F
  0
LAYER
  5
71
330
2
100
AcDbSymbolTableRecord
100
AcDbLayerTableRecord
  2
숨은선
 70
     0
 62
     2
  6
HIDDEN
370
    15
390
F
  0
LAYER
  5
72
330
2
100
AcDbSymbolTableRecord
100
AcDbLayerTableRecord
  2
중심선
 70
     0
 62
     1
  6
CENTERX2
370
    -3
390
F
  0
LAYER
  5
73
330
2
100
AcDbSymbolTableRecord
100
AcDbLayerTableRecord
  2
파단선
 70
     0
 62
     4
  6
Continuous
370
    -3
390
F
  0
LAYER
  5
74
330
2
100
AcDbSymbolTableRecord
100
AcDbLayerTableRecord
  2
해칭선
 70
     0
 62
     4
  6
Continuous
370
    -3
390
F
  0
LAYER
  5
75
330
2
100
AcDbSymbolTableRecord
100
AcDbLayerTableRecord
  2
가는실선
 70
     0
 62
     4
  6
Continuous
370
    -3
390
F
  0
LAYER
  5
76
330
2
100
AcDbSymbolTableRecord
100
AcDbLayerTableRecord
  2
치수_보조선
 70
     0
 62
     4
  6
Continuous
370
    -3
390
F
  0
LAYER
  5
77
330
2
100
AcDbSymbolTableRecord
100
AcDbLayerTableRecord
  2
치수문자_일반주서
 70
     0
 62
     7
  6
Continuous
370
    15
390
F
  0
LAYER
  5
78
330
2
100
AcDbSymbolTableRecord
100
AcDbLayerTableRecord
  2
개별주서
 70
     0
 62
   100
  6
Continuous
370
    30
390
F
  0
LAYER
  5
79
330
2
100
AcDbSymbolTableRecord
100
AcDbLayerTableRecord
  2
중간선
 70
     0
 62
     2
  6
Continuous
370
    15
390
F
  0
LAYER
  5
7A
330
2
100
AcDbSymbolTableRecord
100
AcDbLayerTableRecord
  2
윤곽선
 70
     0
 62
     3
  6
Continuous
370
    40
390
F
  0
LAYER
  5
7B
330
2
100
AcDbSymbolTableRecord
100
AcDbLayerTableRecord
  2
중심마크
 70
     0
 62
   100
  6
Continuous
370
    30
390
F
  0
LAYER
  5
7C
330
2
100
AcDbSymbolTableRecord
100
AcDbLayerTableRecord
  2
가상선
 70
     0
 62
     4
  6
PHANTOM
370
    -3
390
F
  0
LAYER
  5
7D
330
2
100
AcDbSymbolTableRecord
100
AcDbLayerTableRecord
  2
특수지정선
 70
     0
 62
     5
  6
CENTERX2
370
    60
390
F
  0
LAYER
  5
15F
330
2
100
AcDbSymbolTableRecord
100
AcDbLayerTableRecord
  2
Defpoints
 70
     0
 62
     7
  6
Continuous
290
     0
370
    -3
390
F
  0
ENDTAB
  0
TABLE
  2
STYLE
  5
3
330
0
100
AcDbSymbolTable
 70
     2
  0
STYLE
  5
11
330
3
100
AcDbSymbolTableRecord
100
AcDbTextStyleTableRecord
  2
Standard
 70
     0
 40
0.0
 41
1.0
 50
0.0
 71
     0
 42
3.5
  3
txt
  4

  0
STYLE
  5
93
330
3
100
AcDbSymbolTableRecord
100
AcDbTextStyleTableRecord
  2
SLDTEXTSTYLE0
 70
     0
 40
0.0
 41
0.75
 50
0.0
 71
     0
 42
3.5
  3
TXT
  4

  0
ENDTAB
  0
TABLE
  2
VIEW
  5
6
330
0
100
AcDbSymbolTable
 70
     0
  0
ENDTAB
  0
TABLE
  2
UCS
  5
7
330
0
100
AcDbSymbolTable
 70
     0
  0
ENDTAB
  0
TABLE
  2
APPID
  5
9
330
0
100
AcDbSymbolTable
 70
     3
  0
APPID
  5
12
330
9
100
AcDbSymbolTableRecord
100
AcDbRegAppTableRecord
  2
ACAD
 70
     0
  0
APPID
  5
171
330
9
100
AcDbSymbolTableRecord
100
AcDbRegAppTableRecord
  2
ACAD_DSTYLE_DIMRADIAL_EXTENSION
 70
     0
  0
APPID
  5
17F
330
9
100
AcDbSymbolTableRecord
100
AcDbRegAppTableRecord
  2
PE_DIMMEASUREMENT
 70
     0
  0
ENDTAB
  0
TABLE
  2
DIMSTYLE
  5
A
330
0
100
AcDbSymbolTable
 70
     5
100
AcDbDimStyleTable
  0
DIMSTYLE
105
27
330
A
100
AcDbSymbolTableRecord
100
AcDbDimStyleTableRecord
  2
ISO-25
 70
     0
 41
2.5
 42
0.625
 43
3.75
 44
1.25
 73
     0
 74
     0
 77
     1
 78
     8
140
2.5
141
2.5
143
0.03937007874016
147
0.625
171
     3
172
     1
178
     0
271
     2
272
     2
274
     3
278
    44
283
     0
284
     8
340
11
  0
DIMSTYLE
105
DA
102
{ACAD_REACTORS
330
D9
102
}
330
A
100
AcDbSymbolTableRecord
100
AcDbDimStyleTableRecord
  2
SLDDIMSTYLE0
 70
     0
 41
3.302
 44
0.0
 45
0.000000001
 73
     0
 74
     0
 77
     1
 78
    12
 79
     3
140
3.5
143
0.0393700787401575
147
0.875
148
0.000000001
170
     1
172
     1
173
     1
178
     0
271
     2
272
     2
276
     2
284
    12
289
     0
340
93
  0
DIMSTYLE
105
F0
102
{ACAD_REACTORS
330
EF
102
}
330
A
100
AcDbSymbolTableRecord
100
AcDbDimStyleTableRecord
  2
SLDDIMSTYLE1
 70
     0
 41
3.302
 44
0.0
 45
0.000000001
 73
     0
 74
     0
 77
     1
 78
     4
 79
     1
140
3.5
143
0.0393700787401575
147
0.875
148
0.000000001
170
     1
173
     1
178
     0
271
     2
272
     2
276
     2
284
    12
340
93
  0
DIMSTYLE
105
104
102
{ACAD_REACTORS
330
103
102
}
330
A
100
AcDbSymbolTableRecord
100
AcDbDimStyleTableRecord
  2
SLDDIMSTYLE2
 70
     0
 41
3.302
 44
0.0
 45
0.000000001
 73
     0
 74
     0
 77
     1
 78
     4
 79
     1
140
3.5
143
0.0393700787401575
147
0.875
148
0.000000001
170
     1
172
     1
173
     1
178
     0
271
     2
272
     2
276
     2
284
    12
289
     0
340
93
  0
DIMSTYLE
105
119
102
{ACAD_REACTORS
330
118
330
160
330
1AB
102
}
330
A
100
AcDbSymbolTableRecord
100
AcDbDimStyleTableRecord
  2
SLDDIMSTYLE3
 70
     0
 41
3.302
 44
0.0
 45
0.000000001
 73
     0
 74
     0
 77
     1
 78
    12
 79
     3
140
3.5
143
0.0393700787401575
147
0.875
148
0.000000001
170
     1
173
     1
178
     0
271
     2
272
     2
276
     2
284
    12
340
93
  0
ENDTAB
  0
TABLE
  2
BLOCK_RECORD
  5
1
330
0
100
AcDbSymbolTable
 70
    10
  0
BLOCK_RECORD
  5
1F
330
1
100
AcDbSymbolTableRecord
100
AcDbBlockTableRecord
  2
*Model_Space
340
22
  0
BLOCK_RECORD
  5
1B
330
1
100
AcDbSymbolTableRecord
100
AcDbBlockTableRecord
  2
*Paper_Space
340
1E
  0
BLOCK_RECORD
  5
23
330
1
100
AcDbSymbolTableRecord
100
AcDbBlockTableRecord
  2
*Paper_Space0
340
26
  0
BLOCK_RECORD
  5
7E
330
1
100
AcDbSymbolTableRecord
100
AcDbBlockTableRecord
  2
블럭10
340
0
102
{BLKREFS
331
D0
102
}
  0
BLOCK_RECORD
  5
DB
330
1
100
AcDbSymbolTableRecord
100
AcDbBlockTableRecord
  2
_D
340
0
  0
BLOCK_RECORD
  5
F1
330
1
100
AcDbSymbolTableRecord
100
AcDbBlockTableRecord
  2
_D_1
340
0
  0
BLOCK_RECORD
  5
105
330
1
100
AcDbSymbolTableRecord
100
AcDbBlockTableRecord
  2
_D_2
340
0
  0
BLOCK_RECORD
  5
11A
330
1
100
AcDbSymbolTableRecord
100
AcDbBlockTableRecord
  2
_D_3
340
0
  0
BLOCK_RECORD
  5
12C
330
1
100
AcDbSymbolTableRecord
100
AcDbBlockTableRecord
  2
SW_DOWELSYMBOL_0
340
0
102
{BLKREFS
331
132
102
}
  0
BLOCK_RECORD
  5
163
330
1
100
AcDbSymbolTableRecord
100
AcDbBlockTableRecord
  2
*D7
340
0
  0
BLOCK_RECORD
  5
175
330
1
100
AcDbSymbolTableRecord
100
AcDbBlockTableRecord
  2
*D8
340
0
  0
BLOCK_RECORD
  5
1AE
330
1
100
AcDbSymbolTableRecord
100
AcDbBlockTableRecord
  2
*D9
340
0
  0
ENDTAB
  0
ENDSEC
  0
SECTION
  2
BLOCKS
  0
BLOCK
  5
20
330
1F
100
AcDbEntity
  8
0
100
AcDbBlockBegin
  2
*Model_Space
 70
     0
 10
0.0
 20
0.0
 30
0.0
  3
*Model_Space
  1
*Model_Space
  0
ENDBLK
  5
21
330
1F
100
AcDbEntity
  8
0
100
AcDbBlockEnd
  0
BLOCK
  5
1C
330
1B
100
AcDbEntity
 67
     1
  8
0
100
AcDbBlockBegin
  2
*Paper_Space
 70
     0
 10
0.0
 20
0.0
 30
0.0
  3
*Paper_Space
  1
*Paper_Space
  0
ENDBLK
  5
1D
330
1B
100
AcDbEntity
 67
     1
  8
0
100
AcDbBlockEnd
  0
BLOCK
  5
24
330
23
100
AcDbEntity
  8
0
100
AcDbBlockBegin
  2
*Paper_Space0
 70
     0
 10
0.0
 20
0.0
 30
0.0
  3
*Paper_Space0
  1
*Paper_Space0
  0
ENDBLK
  5
25
330
23
100
AcDbEntity
  8
0
100
AcDbBlockEnd
  0
BLOCK
  5
7F
330
7E
100
AcDbEntity
  8
0
100
AcDbBlockBegin
  2
블럭10
 70
     2
 10
0.0
 20
0.0
 30
0.0
  3
블럭10
  1
블럭10
  0
ELLIPSE
  5
81
330
7E
100
AcDbEntity
  8
중심선
100
AcDbEllipse
 10
20.54032771741204
 20
12.0471743016438
 30
0.0
 11
6.600054785286829
 21
-1.261213355974178E-13
 31
0.0
210
0.0
220
0.0
230
1.0
 40
0.636358354079598
 41
0.9219305317359503
 42
6.513795318482858
  0
ELLIPSE
  5
82
330
7E
100
AcDbEntity
  8
중심선
100
AcDbEllipse
 10
20.54032771746488
 20
12.04717430159265
 30
0.0
 11
3.960054785062283
 21
1.540847449632565E-10
 31
0.0
210
0.0
220
0.0
230
1.0
 40
0.3939339440162632
 41
1.131841032648279
 42
5.62031148352944
  0
LINE
  5
83
330
7E
100
AcDbEntity
  8
중심선
100
AcDbLine
 10
2.268634060543552
 20
16.24717430164393
 30
0.0
 11
5.714909304380834
 21
16.24717430164393
 31
0.0
  0
LINE
  5
84
330
7E
100
AcDbEntity
  8
중심선
100
AcDbLine
 10
5.245725140726316
 20
7.84717430164391
 30
0.0
 11
8.692000384563599
 21
7.84717430164391
 31
0.0
  0
LINE
  5
85
330
7E
100
AcDbEntity
  8
중심선
100
AcDbLine
 10
15.74043728645272
 20
16.24717430164393
 30
0.0
 11
8.692000384563599
 21
7.84717430164391
 31
0.0
  0
LINE
  5
86
330
7E
100
AcDbEntity
  8
중심선
100
AcDbLine
 10
0.1404042013395286
 20
13.71084872107135
 30
0.0
 11
3.58671253028996
 21
13.71088815037384
 31
0.0
  0
LINE
  5
87
330
7E
100
AcDbEntity
  8
중심선
100
AcDbLine
 10
2.750260043222114
 20
10.84717430164391
 30
0.0
 11
6.196535287059397
 21
10.84717430164391
 31
0.0
  0
LINE
  5
88
330
7E
100
AcDbEntity
  8
중심선
100
AcDbLine
 10
12.29416204261559
 20
16.24717430164393
 30
0.0
 11
5.245725140726316
 21
7.84717430164391
 31
0.0
  0
LINE
  5
89
330
7E
100
AcDbEntity
  8
중심선
100
AcDbLine
 10
10.72767329541681
 20
16.24717430164393
 30
0.0
 11
6.196535287059397
 21
10.84717430164391
 31
0.0
  0
LINE
  5
8A
330
7E
100
AcDbEntity
  8
중심선
100
AcDbLine
 10
7.28139805157953
 20
16.24717430164393
 30
0.0
 11
2.750260043222114
 21
10.84717430164391
 31
0.0
  0
LINE
  5
8B
330
7E
100
AcDbEntity
  8
중심선
100
AcDbLine
 10
5.714909304380834
 20
16.24717430164393
 30
0.0
 11
3.58671253028996
 21
13.71088815037384
 31
0.0
  0
LINE
  5
8C
330
7E
100
AcDbEntity
  8
중심선
100
AcDbLine
 10
2.268634060543552
 20
16.24717430164393
 30
0.0
 11
0.1404042013395286
 21
13.71084872107135
 31
0.0
  0
LINE
  5
8D
330
7E
100
AcDbEntity
  8
중심선
100
AcDbLine
 10
7.28139805157953
 20
16.24717430164393
 30
0.0
 11
10.72767329541681
 21
16.24717430164393
 31
0.0
  0
LINE
  5
8E
330
7E
100
AcDbEntity
  8
중심선
100
AcDbLine
 10
12.29416204261559
 20
16.24717430164393
 30
0.0
 11
15.74043728645272
 21
16.24717430164393
 31
0.0
  0
LINE
  5
8F
330
7E
100
AcDbEntity
  8
중심선
100
AcDbLine
 10
19.22036997980202
 20
11.08717430171403
 30
0.0
 11
23.66174974927406
 21
11.08717430171406
 31
0.0
  0
LINE
  5
90
330
7E
100
AcDbEntity
  8
중심선
100
AcDbLine
 10
19.22039502424796
 20
13.00717430171391
 30
0.0
 11
19.22036997980202
 21
11.08717430171403
 31
0.0
  0
LINE
  5
91
330
7E
100
AcDbEntity
  8
중심선
100
AcDbLine
 10
19.22039502424796
 20
13.00717430171391
 30
0.0
 11
26.96566020931264
 21
13.00717430171391
 31
0.0
  0
LINE
  5
92
330
7E
100
AcDbEntity
  8
중심선
100
AcDbLine
 10
22.22332737316547
 20
13.45928029700563
 30
0.0
 11
24.52862924686651
 21
15.39360700705356
 31
0.0
  0
ATTDEF
  5
94
330
7E
100
AcDbEntity
  8
FORMAT
 62
     2
100
AcDbText
 10
-9.18129528874128
 20
2.075366912832191
 30
0.0
 40
4.233333333333333
  1
E5985032 [ 3 FLUTE ]
 41
0.75
  7
SLDTEXTSTYLE0
 11
-9.18129528874128
 21
-0.0412997538344756
 31
0.0
100
AcDbAttributeDefinition
  3

  2
AUTOATTR0
 70
     0
 74
     1
  0
ENDBLK
  5
80
330
7E
100
AcDbEntity
  8
0
100
AcDbBlockEnd
  0
BLOCK
  5
DC
330
DB
100
AcDbEntity
  8
0
100
AcDbBlockBegin
  2
_D
 70
     0
 10
0.0
 20
0.0
 30
0.0
  3
_D
  1
_D
  0
LINE
  5
DE
330
DB
100
AcDbEntity
  8
치수문자_일반주서
 62
     0
370
    -2
100
AcDbLine
 10
82.9310000906635
 20
6.412500000000001
 30
0.0
 11
82.9310000906635
 21
28.32027939768169
 31
0.0
  0
LINE
  5
DF
330
DB
100
AcDbEntity
  8
치수문자_일반주서
 62
     0
370
    -2
100
AcDbLine
 10
67.05600009066349
 20
6.330945502775768
 30
0.0
 11
67.05600009066349
 21
28.32027939768169
 31
0.0
  0
LINE
  5
E0
330
DB
100
AcDbEntity
  8
치수문자_일반주서
 62
     0
370
    -2
100
AcDbLine
 10
67.05600009066349
 20
28.32027939768169
 30
0.0
 11
35.07700009066349
 21
28.32027939768169
 31
0.0
  0
LINE
  5
E1
330
DB
100
AcDbEntity
  8
치수문자_일반주서
 62
     0
370
    -2
100
AcDbLine
 10
82.9310000906635
 20
28.32027939768169
 30
0.0
 11
67.05600009066349
 21
28.32027939768169
 31
0.0
  0
LINE
  5
E2
330
DB
100
AcDbEntity
  8
치수문자_일반주서
 62
     0
370
    -2
100
AcDbLine
 10
86.2330000906635
 20
28.32027939768169
 30
0.0
 11
89.53500009066349
 21
28.32027939768169
 31
0.0
  0
LINE
  5
E3
330
DB
100
AcDbEntity
  8
치수문자_일반주서
 62
     0
370
    -2
100
AcDbLine
 10
63.75400009066349
 20
28.32027939768169
 30
0.0
 11
60.45200009066349
 21
28.32027939768169
 31
0.0
  0
SOLID
  5
E4
330
DB
100
AcDbEntity
  8
치수문자_일반주서
 62
     0
100
AcDbTrace
 10
86.2330000906635
 20
28.87061273101502
 30
0.0
 11
86.2330000906635
 21
27.76994606434835
 31
0.0
 12
82.9310000906635
 22
28.32027939768169
 32
0.0
 13
82.9310000906635
 23
28.32027939768169
 33
0.0
  0
SOLID
  5
E5
330
DB
100
AcDbEntity
  8
치수문자_일반주서
 62
     0
100
AcDbTrace
 10
63.75400009066349
 20
27.76994606434835
 30
0.0
 11
63.75400009066349
 21
28.87061273101502
 31
0.0
 12
67.05600009066349
 22
28.32027939768169
 32
0.0
 13
67.05600009066349
 23
28.32027939768169
 33
0.0
  0
MTEXT
  5
E6
330
DB
100
AcDbEntity
  8
치수문자_일반주서
 62
     0
100
AcDbMText
 10
47.76450009066349
 20
32.69527939768169
 30
0.0
 40
3.5
 41
0.0
 71
     2
 72
     1
  1
\A1;15.88 [5/8]
  7
SLDTEXTSTYLE0
 73
     1
 44
1.0
  0
POINT
  5
180
330
DB
100
AcDbEntity
  8
Defpoints
 62
     0
100
AcDbPoint
 10
82.9310000906635
 20
6.350000000000001
 30
0.0
  0
POINT
  5
181
330
DB
100
AcDbEntity
  8
Defpoints
 62
     0
100
AcDbPoint
 10
67.05600009066349
 20
6.268445502775768
 30
0.0
  0
POINT
  5
182
330
DB
100
AcDbEntity
  8
Defpoints
 62
     0
100
AcDbPoint
 10
67.05600009066349
 20
28.32027939768169
 30
0.0
  0
ENDBLK
  5
DD
330
DB
100
AcDbEntity
  8
0
100
AcDbBlockEnd
  0
BLOCK
  5
F2
330
F1
100
AcDbEntity
  8
0
100
AcDbBlockBegin
  2
_D_1
 70
     0
 10
0.0
 20
0.0
 30
0.0
  3
_D_1
  1
_D_1
  0
LINE
  5
F4
330
F1
100
AcDbEntity
  8
치수문자_일반주서
 62
     0
370
    -2
100
AcDbLine
 10
82.9310000906635
 20
6.412500000000001
 30
0.0
 11
82.9310000906635
 21
68.18475965011002
 31
0.0
  0
LINE
  5
F5
330
F1
100
AcDbEntity
  8
치수문자_일반주서
 62
     0
370
    -2
100
AcDbLine
 10
-69.46899990933653
 20
5.912499999999996
 30
0.0
 11
-69.46899990933653
 21
68.18475965011002
 31
0.0
  0
LINE
  5
F6
330
F1
100
AcDbEntity
  8
치수문자_일반주서
 62
     0
370
    -2
100
AcDbLine
 10
79.62900009066351
 20
68.18475965011002
 30
0.0
 11
-66.16699990933654
 21
68.18475965011002
 31
0.0
  0
SOLID
  5
F7
330
F1
100
AcDbEntity
  8
치수문자_일반주서
 62
     0
100
AcDbTrace
 10
79.62900009066351
 20
67.6344263167767
 30
0.0
 11
79.62900009066351
 21
68.73509298344335
 31
0.0
 12
82.9310000906635
 22
68.18475965011002
 32
0.0
 13
82.9310000906635
 23
68.18475965011002
 33
0.0
  0
SOLID
  5
F8
330
F1
100
AcDbEntity
  8
치수문자_일반주서
 62
     0
100
AcDbTrace
 10
-66.16699990933654
 20
68.73509298344335
 30
0.0
 11
-66.16699990933654
 21
67.6344263167767
 31
0.0
 12
-69.46899990933653
 22
68.18475965011002
 32
0.0
 13
-69.46899990933653
 23
68.18475965011002
 33
0.0
  0
MTEXT
  5
F9
330
F1
100
AcDbEntity
  8
치수문자_일반주서
 62
     0
100
AcDbMText
 10
6.122414615715776
 20
72.55975965011002
 30
0.0
 40
3.5
 41
0.0
 71
     2
 72
     1
  1
\A1;152.40 [6]
  7
SLDTEXTSTYLE0
 73
     1
 44
1.0
  0
POINT
  5
FA
330
F1
100
AcDbEntity
  8
Defpoints
 62
     0
100
AcDbPoint
 10
82.9310000906635
 20
6.350000000000001
 30
0.0
  0
POINT
  5
FB
330
F1
100
AcDbEntity
  8
Defpoints
 62
     0
100
AcDbPoint
 10
-69.46899990933653
 20
5.849999999999996
 30
0.0
  0
POINT
  5
FC
330
F1
100
AcDbEntity
  8
Defpoints
 62
     0
100
AcDbPoint
 10
-69.46899990933653
 20
68.18475965011002
 30
0.0
  0
ENDBLK
  5
F3
330
F1
100
AcDbEntity
  8
0
100
AcDbBlockEnd
  0
BLOCK
  5
106
330
105
100
AcDbEntity
  8
0
100
AcDbBlockBegin
  2
_D_2
 70
     0
 10
0.0
 20
0.0
 30
0.0
  3
_D_2
  1
_D_2
  0
LINE
  5
108
330
105
100
AcDbEntity
  8
치수문자_일반주서
 62
     0
370
    -2
100
AcDbLine
 10
-69.03149990933653
 20
6.349999999999999
 30
0.0
 11
-81.46891067288904
 21
6.349999999999952
 31
0.0
  0
LINE
  5
109
330
105
100
AcDbEntity
  8
치수문자_일반주서
 62
     0
370
    -2
100
AcDbLine
 10
-69.03149990933653
 20
-6.349999999999999
 30
0.0
 11
-81.468910672889
 21
-6.350000000000044
 31
0.0
  0
LINE
  5
10A
330
105
100
AcDbEntity
  8
치수문자_일반주서
 62
     0
370
    -2
100
AcDbLine
 10
-81.46891067288904
 20
6.349999999999952
 30
0.0
 11
-81.46891067288915
 21
40.07899999999996
 31
0.0
  0
LINE
  5
10B
330
105
100
AcDbEntity
  8
치수문자_일반주서
 62
     0
370
    -2
100
AcDbLine
 10
-81.46891067288904
 20
6.349999999999952
 30
0.0
 11
-81.468910672889
 21
-6.350000000000044
 31
0.0
  0
LINE
  5
10C
330
105
100
AcDbEntity
  8
치수문자_일반주서
 62
     0
370
    -2
100
AcDbLine
 10
-81.46891067288905
 20
9.651999999999951
 30
0.0
 11
-81.46891067288907
 21
12.95399999999995
 31
0.0
  0
LINE
  5
10D
330
105
100
AcDbEntity
  8
치수문자_일반주서
 62
     0
370
    -2
100
AcDbLine
 10
-81.46891067288898
 20
-9.652000000000044
 30
0.0
 11
-81.46891067288897
 21
-12.95400000000004
 31
0.0
  0
SOLID
  5
10E
330
105
100
AcDbEntity
  8
치수문자_일반주서
 62
     0
100
AcDbTrace
 10
-82.01924400622238
 20
9.65199999999995
 30
0.0
 11
-80.91857733955572
 21
9.651999999999953
 31
0.0
 12
-81.46891067288904
 22
6.349999999999952
 32
0.0
 13
-81.46891067288904
 23
6.349999999999952
 33
0.0
  0
SOLID
  5
10F
330
105
100
AcDbEntity
  8
치수문자_일반주서
 62
     0
100
AcDbTrace
 10
-80.91857733955565
 20
-9.652000000000042
 30
0.0
 11
-82.01924400622231
 21
-9.652000000000045
 31
0.0
 12
-81.468910672889
 22
-6.350000000000044
 32
0.0
 13
-81.468910672889
 23
-6.350000000000044
 33
0.0
  0
MTEXT
  5
110
330
105
100
AcDbEntity
  8
치수문자_일반주서
 62
     0
100
AcDbMText
 10
-85.84391067288911
 20
26.73524999999994
 30
0.0
 40
3.5
 41
0.0
 71
     2
 72
     1
  1
\A1;%%c12.70 [1/2]
  7
SLDTEXTSTYLE0
 11
-3.356894814614647E-15
 21
1.0
 31
0.0
 73
     1
 44
1.0
  0
POINT
  5
111
330
105
100
AcDbEntity
  8
Defpoints
 62
     0
100
AcDbPoint
 10
-68.96899990933653
 20
6.349999999999999
 30
0.0
  0
POINT
  5
112
330
105
100
AcDbEntity
  8
Defpoints
 62
     0
100
AcDbPoint
 10
-68.96899990933653
 20
-6.349999999999999
 30
0.0
  0
POINT
  5
113
330
105
100
AcDbEntity
  8
Defpoints
 62
     0
100
AcDbPoint
 10
-81.468910672889
 20
-6.350000000000046
 30
0.0
  0
ENDBLK
  5
107
330
105
100
AcDbEntity
  8
0
100
AcDbBlockEnd
  0
BLOCK
  5
11B
330
11A
100
AcDbEntity
  8
0
100
AcDbBlockBegin
  2
_D_3
 70
     0
 10
0.0
 20
0.0
 30
0.0
  3
_D_3
  1
_D_3
  0
LINE
  5
11D
330
11A
100
AcDbEntity
  8
치수문자_일반주서
 62
     0
370
    -2
100
AcDbLine
 10
0.3809999999999931
 20
6.031500000000001
 30
0.0
 11
0.3810000000000002
 21
52.44959778227562
 31
0.0
  0
LINE
  5
11E
330
11A
100
AcDbEntity
  8
치수문자_일반주서
 62
     0
370
    -2
100
AcDbLine
 10
82.9310000906635
 20
6.412500000000001
 30
0.0
 11
82.9310000906635
 21
52.44959778227562
 31
0.0
  0
LINE
  5
11F
330
11A
100
AcDbEntity
  8
치수문자_일반주서
 62
     0
370
    -2
100
AcDbLine
 10
3.683
 20
52.44959778227562
 30
0.0
 11
79.62900009066351
 21
52.44959778227562
 31
0.0
  0
SOLID
  5
120
330
11A
100
AcDbEntity
  8
치수문자_일반주서
 62
     0
100
AcDbTrace
 10
3.683
 20
52.99993111560895
 30
0.0
 11
3.683
 21
51.89926444894228
 31
0.0
 12
0.3810000000000002
 22
52.44959778227562
 32
0.0
 13
0.3810000000000002
 23
52.44959778227562
 33
0.0
  0
SOLID
  5
121
330
11A
100
AcDbEntity
  8
치수문자_일반주서
 62
     0
100
AcDbTrace
 10
79.62900009066351
 20
51.89926444894228
 30
0.0
 11
79.62900009066351
 21
52.99993111560895
 31
0.0
 12
82.9310000906635
 22
52.44959778227562
 32
0.0
 13
82.9310000906635
 23
52.44959778227562
 33
0.0
  0
MTEXT
  5
122
330
11A
100
AcDbEntity
  8
치수문자_일반주서
 62
     0
100
AcDbMText
 10
52.83761286620998
 20
56.82459778227562
 30
0.0
 40
3.5
 41
0.0
 71
     2
 72
     1
  1
\A1;82.55 [3 1/4]
  7
SLDTEXTSTYLE0
 73
     1
 44
1.0
  0
POINT
  5
123
330
11A
100
AcDbEntity
  8
Defpoints
 62
     0
100
AcDbPoint
 10
0.3809999999999931
 20
5.969000000000001
 30
0.0
  0
POINT
  5
124
330
11A
100
AcDbEntity
  8
Defpoints
 62
     0
100
AcDbPoint
 10
82.9310000906635
 20
6.350000000000001
 30
0.0
  0
POINT
  5
125
330
11A
100
AcDbEntity
  8
Defpoints
 62
     0
100
AcDbPoint
 10
82.9310000906635
 20
52.44959778227562
 30
0.0
  0
ENDBLK
  5
11C
330
11A
100
AcDbEntity
  8
0
100
AcDbBlockEnd
  0
BLOCK
  5
12D
330
12C
100
AcDbEntity
  8
0
100
AcDbBlockBegin
  2
SW_DOWELSYMBOL_0
 70
     0
 10
0.0
 20
0.0
 30
0.0
  3
SW_DOWELSYMBOL_0
  1
SW_DOWELSYMBOL_0
  0
CIRCLE
  5
12F
330
12C
100
AcDbEntity
  8
외형선
 62
     0
100
AcDbCircle
 10
0.0
 20
0.0
 30
0.0
 40
3.000000000000008
  0
HATCH
  5
130
330
12C
100
AcDbEntity
  8
0
  6
Continuous
 62
     0
370
    30
100
AcDbHatch
 10
0.0
 20
0.0
 30
0.0
210
0.0
220
0.0
230
1.0
  2
SOLID
 70
     1
 71
     0
 91
        1
 92
        0
 93
        3
 72
     2
 10
0.0
 20
0.0
 40
3.000000000000008
 50
0.0
 51
90.0
 73
     1
 72
     1
 10
0.0
 20
3.000000000000008
 11
0.0
 21
0.0
 72
     1
 10
0.0
 20
0.0
 11
3.00000000000001
 21
0.0
 97
        0
 75
     0
 76
     1
 98
        1
 10
0.0
 20
0.0
  0
HATCH
  5
131
330
12C
100
AcDbEntity
  8
0
  6
Continuous
 62
     0
370
    30
100
AcDbHatch
 10
0.0
 20
0.0
 30
0.0
210
0.0
220
0.0
230
1.0
  2
SOLID
 70
     1
 71
     0
 91
        1
 92
        0
 93
        3
 72
     2
 10
0.0
 20
0.0
 40
3.000000000000008
 50
180.0
 51
270.0000000000007
 73
     1
 72
     1
 10
0.0
 20
-3.000000000000008
 11
0.0
 21
0.0
 72
     1
 10
0.0
 20
0.0
 11
-3.00000000000001
 21
0.0
 97
        0
 75
     0
 76
     1
 98
        1
 10
0.0
 20
0.0
  0
ENDBLK
  5
12E
330
12C
100
AcDbEntity
  8
0
100
AcDbBlockEnd
  0
BLOCK
  5
164
330
163
100
AcDbEntity
  8
0
100
AcDbBlockBegin
  2
*D7
 70
     1
 10
0.0
 20
0.0
 30
0.0
  3
*D7
  1
*D7
  0
LINE
  5
166
330
163
100
AcDbEntity
  8
치수문자_일반주서
 62
     0
370
    -2
100
AcDbLine
 10
82.99350009066347
 20
-6.350000000000004
 30
0.0
 11
97.86431060317685
 21
-6.350000000000001
 31
0.0
  0
LINE
  5
167
330
163
100
AcDbEntity
  8
치수문자_일반주서
 62
     0
370
    -2
100
AcDbLine
 10
82.9935000906635
 20
6.350000000000001
 30
0.0
 11
97.86431060317685
 21
6.350000000000001
 31
0.0
  0
LINE
  5
168
330
163
100
AcDbEntity
  8
치수문자_일반주서
 62
     0
370
    -2
100
AcDbLine
 10
97.86431060317685
 20
6.350000000000001
 30
0.0
 11
97.86431060317685
 21
39.24107156470169
 31
0.0
  0
LINE
  5
169
330
163
100
AcDbEntity
  8
치수문자_일반주서
 62
     0
370
    -2
100
AcDbLine
 10
97.86431060317685
 20
-3.048000000000002
 30
0.0
 11
97.86431060317685
 21
3.048000000000002
 31
0.0
  0
SOLID
  5
16A
330
163
100
AcDbEntity
  8
치수문자_일반주서
 62
     0
100
AcDbTrace
 10
97.31397726984352
 20
-3.048000000000002
 30
0.0
 11
98.41464393651017
 21
-3.048000000000002
 31
0.0
 12
97.86431060317685
 22
-6.350000000000001
 32
0.0
 13
97.86431060317685
 23
-6.350000000000001
 33
0.0
  0
SOLID
  5
16B
330
163
100
AcDbEntity
  8
치수문자_일반주서
 62
     0
100
AcDbTrace
 10
98.41464393651017
 20
3.048000000000002
 30
0.0
 11
97.31397726984352
 21
3.048000000000002
 31
0.0
 12
97.86431060317685
 22
6.350000000000001
 32
0.0
 13
97.86431060317685
 23
6.350000000000001
 33
0.0
  0
MTEXT
  5
16C
330
163
100
AcDbEntity
  8
치수문자_일반주서
 62
     0
100
AcDbMText
 10
95.23931060317685
 20
26.99107156470169
 30
0.0
 40
3.5
 41
0.0
 71
     5
 72
     1
  1
\A1;{Ø12.7 [1/2]}
  7
SLDTEXTSTYLE0
 11
0.0
 21
1.0
 31
0.0
 73
     1
 44
1.0
  0
POINT
  5
16D
330
163
100
AcDbEntity
  8
Defpoints
 62
     0
100
AcDbPoint
 10
82.93100009066347
 20
-6.350000000000004
 30
0.0
  0
POINT
  5
16E
330
163
100
AcDbEntity
  8
Defpoints
 62
     0
100
AcDbPoint
 10
82.9310000906635
 20
6.350000000000001
 30
0.0
  0
POINT
  5
16F
330
163
100
AcDbEntity
  8
Defpoints
 62
     0
100
AcDbPoint
 10
97.86431060317685
 20
6.35
 30
0.0
  0
ENDBLK
  5
165
330
163
100
AcDbEntity
  8
0
100
AcDbBlockEnd
  0
BLOCK
  5
176
330
175
100
AcDbEntity
  8
0
100
AcDbBlockBegin
  2
*D8
 70
     1
 10
0.0
 20
0.0
 30
0.0
  3
*D8
  1
*D8
  0
LINE
  5
178
330
175
100
AcDbEntity
  8
치수문자_일반주서
 62
     0
370
    -2
100
AcDbLine
 10
84.2466045973834
 20
-8.728168915541206
 30
0.0
 11
102.6646112839451
 21
-34.03809253640124
 31
0.0
  0
MTEXT
  5
179
330
175
100
AcDbEntity
  8
치수문자_일반주서
 62
     0
100
AcDbMText
 10
96.5495533289548
 20
-21.17354080666304
 30
0.0
 40
3.5
 41
0.0
 71
     5
 72
     1
  1
\A1;R1.52 [R0.06]
  7
SLDTEXTSTYLE0
 11
0.5883971211603635
 21
-0.8085720919065886
 31
0.0
 73
     1
 44
1.0
  0
SOLID
  5
17A
330
175
100
AcDbEntity
  8
치수문자_일반주서
 62
     0
100
AcDbTrace
 10
84.69158877196266
 20
-8.404354366529287
 30
0.0
 11
83.80162042280413
 21
-9.051983464553125
 31
0.0
 12
82.30371730331187
 22
-6.05826386806565
 32
0.0
 13
82.30371730331187
 23
-6.05826386806565
 33
0.0
  0
LINE
  5
17B
330
175
100
AcDbEntity
  8
치수문자_일반주서
 62
     0
100
AcDbLine
 10
81.31700009066347
 20
-4.826000000000004
 30
0.0
 11
81.49700009066348
 21
-4.826000000000004
 31
0.0
  0
LINE
  5
17C
330
175
100
AcDbEntity
  8
치수문자_일반주서
 62
     0
100
AcDbLine
 10
81.40700009066347
 20
-4.916000000000004
 30
0.0
 11
81.40700009066347
 21
-4.736000000000004
 31
0.0
  0
POINT
  5
17D
330
175
100
AcDbEntity
  8
Defpoints
 62
     0
100
AcDbPoint
 10
82.30371730331187
 20
-6.05826386806565
 30
0.0
  0
POINT
  5
17E
330
175
100
AcDbEntity
  8
Defpoints
 62
     0
100
AcDbPoint
 10
81.40700009066347
 20
-4.826000000000004
 30
0.0
  0
ENDBLK
  5
177
330
175
100
AcDbEntity
  8
0
100
AcDbBlockEnd
  0
BLOCK
  5
1AF
330
1AE
100
AcDbEntity
  8
0
100
AcDbBlockBegin
  2
*D9
 70
     1
 10
0.0
 20
0.0
 30
0.0
  3
*D9
  1
*D9
  0
LINE
  5
1B1
330
1AE
100
AcDbEntity
  8
치수문자_일반주서
 62
     0
370
    -2
100
AcDbLine
 10
82.72725903858303
 20
-8.979384172061947
 30
0.0
 11
98.7075151779415
 21
-40.87734245657439
 31
0.0
  0
MTEXT
  5
1B2
330
1AE
100
AcDbEntity
  8
치수문자_일반주서
 62
     0
100
AcDbMText
 10
94.78365819853815
 20
-27.18449865387264
 30
0.0
 40
3.5
 41
0.0
 71
     5
 72
     1
  1
\A1;R3.05 [R0.12]
  7
SLDTEXTSTYLE0
 11
0.4479147949479628
 21
-0.8940762475688102
 31
0.0
 73
     1
 44
1.0
  0
SOLID
  5
1B3
330
1AE
100
AcDbEntity
  8
치수문자_일반주서
 62
     0
100
AcDbTrace
 10
83.21929900016173
 20
-8.732881729908918
 30
0.0
 11
82.23521907700433
 21
-9.225886614214975
 31
0.0
 12
81.24824438566486
 22
-6.027144402589736
 32
0.0
 13
81.24824438566486
 23
-6.027144402589736
 33
0.0
  0
LINE
  5
1B4
330
1AE
100
AcDbEntity
  8
치수문자_일반주서
 62
     0
100
AcDbLine
 10
79.79300009066347
 20
-3.302000000000005
 30
0.0
 11
79.97300009066348
 21
-3.302000000000005
 31
0.0
  0
LINE
  5
1B5
330
1AE
100
AcDbEntity
  8
치수문자_일반주서
 62
     0
100
AcDbLine
 10
79.88300009066347
 20
-3.392000000000005
 30
0.0
 11
79.88300009066347
 21
-3.212000000000005
 31
0.0
  0
POINT
  5
1B6
330
1AE
100
AcDbEntity
  8
Defpoints
 62
     0
100
AcDbPoint
 10
81.24824438566486
 20
-6.027144402589736
 30
0.0
  0
POINT
  5
1B7
330
1AE
100
AcDbEntity
  8
Defpoints
 62
     0
100
AcDbPoint
 10
79.88300009066347
 20
-3.302000000000005
 30
0.0
  0
ENDBLK
  5
1B0
330
1AE
100
AcDbEntity
  8
0
100
AcDbBlockEnd
  0
ENDSEC
  0
SECTION
  2
ENTITIES
  0
LINE
  5
95
330
1F
100
AcDbEntity
  8
0
  6
Continuous
 62
     4
370
    15
100
AcDbLine
 10
0.0
 20
-6.350000000000001
 30
0.0
 11
0.3809999999999931
 21
-5.968999999999998
 31
0.0
  0
LINE
  5
96
330
1F
100
AcDbEntity
  8
0
  6
Continuous
 62
     4
370
    15
100
AcDbLine
 10
0.3809999999999931
 20
5.969000000000001
 30
0.0
 11
0.0
 21
6.350000000000004
 31
0.0
  0
LINE
  5
97
330
1F
100
AcDbEntity
  8
0
  6
Continuous
 62
     4
370
    15
100
AcDbLine
 10
0.0
 20
6.350000000000001
 30
0.0
 11
-68.96899990933653
 21
6.349999999999999
 31
0.0
  0
LINE
  5
98
330
1F
100
AcDbEntity
  8
0
  6
Continuous
 62
     4
370
    15
100
AcDbLine
 10
-68.96899990933653
 20
-6.349999999999999
 30
0.0
 11
0.0
 21
-6.349999999999997
 31
0.0
  0
LINE
  5
99
330
1F
100
AcDbEntity
  8
0
  6
Continuous
 62
     4
370
    15
100
AcDbLine
 10
-68.96899990933653
 20
6.349999999999997
 30
0.0
 11
-69.46899990933653
 21
5.849999999999995
 31
0.0
  0
LINE
  5
9A
330
1F
100
AcDbEntity
  8
0
  6
Continuous
 62
     4
370
    15
100
AcDbLine
 10
-69.46899990933653
 20
-5.849999999999993
 30
0.0
 11
-68.96899990933653
 21
-6.349999999999993
 31
0.0
  0
LINE
  5
9B
330
1F
100
AcDbEntity
  8
0
  6
Continuous
 62
     4
370
    15
100
AcDbLine
 10
67.05600009066349
 20
5.969000000000003
 30
0.0
 11
0.3809999999999931
 21
5.969000000000001
 31
0.0
  0
LINE
  5
9C
330
1F
100
AcDbEntity
  8
0
  6
Continuous
 62
     4
370
    15
100
AcDbLine
 10
0.3809999999999931
 20
-5.968999999999996
 30
0.0
 11
65.02604825875567
 21
-5.968999999999994
 31
0.0
  0
LINE
  5
9D
330
1F
100
AcDbEntity
  8
0
  6
Continuous
 62
     1
370
    15
100
AcDbLine
 10
73.57834200309851
 20
-6.349999999999999
 30
0.0
 11
74.52798833626251
 21
-6.349999999999999
 31
0.0
  0
LINE
  5
A0
330
1F
100
AcDbEntity
  8
0
  6
Continuous
 62
     4
370
    15
100
AcDbLine
 10
0.3809999999999931
 20
5.969000000000001
 30
0.0
 11
0.3809999999999931
 21
-5.968999999999998
 31
0.0
  0
LINE
  5
A1
330
1F
100
AcDbEntity
  8
0
  6
Continuous
 62
     4
370
    15
100
AcDbLine
 10
0.0
 20
6.350000000000004
 30
0.0
 11
0.0
 21
-6.350000000000004
 31
0.0
  0
LINE
  5
A2
330
1F
100
AcDbEntity
  8
0
  6
Continuous
 62
     4
370
    15
100
AcDbLine
 10
-68.96899990933653
 20
6.349999999999997
 30
0.0
 11
-68.96899990933653
 21
-6.349999999999999
 31
0.0
  0
LINE
  5
A3
330
1F
100
AcDbEntity
  8
0
  6
Continuous
 62
     4
370
    15
100
AcDbLine
 10
-69.46899990933653
 20
5.849999999999996
 30
0.0
 11
-69.46899990933653
 21
-5.850000000000001
 31
0.0
  0
SPLINE
  5
A4
330
1F
100
AcDbEntity
  8
0
  6
Continuous
 62
     4
370
    15
100
AcDbSpline
210
0.0
220
0.0
230
1.0
 70
     8
 71
     3
 72
     8
 73
     4
 74
     0
 42
0.000000001
 43
0.00000001
 40
0.0
 40
0.0
 40
0.0
 40
0.0
 40
1.0
 40
1.0
 40
1.0
 40
1.0
 10
67.05600009066349
 20
-0.8197495456499188
 30
0.0
 10
66.65018962734752
 20
-0.5355399138694451
 30
0.0
 10
66.24440507820256
 20
-0.2484922322237493
 30
0.0
 10
65.84169739230408
 20
0.0376979630734852
 30
0.0
  0
SPLINE
  5
A5
330
1F
100
AcDbEntity
  8
0
  6
Continuous
 62
     4
370
    15
100
AcDbSpline
210
0.0
220
0.0
230
1.0
 70
    24
 71
     3
 72
    12
 73
     8
 74
     0
 42
0.000000001
 43
0.00000001
 40
0.0
 40
0.0
 40
0.0
 40
0.0
 40
0.4999999999999998
 40
0.4999999999999998
 40
0.7499999999999999
 40
0.7499999999999999
 40
1.0
 40
1.0
 40
1.0
 40
1.0
 10
67.05600009066349
 20
2.042841145177698
 30
0.0
 10
67.05600009066349
 20
1.450035881841848
 30
0.0
 10
67.05600009066349
 20
0.866955586985168
 30
0.0
 10
67.05600009066349
 20
0.114743151245298
 30
0.0
 10
67.05600009066349
 20
-0.1152374260734015
 30
0.0
 10
67.05600009066349
 20
-0.5156834224237584
 30
0.0
 10
67.05600009066349
 20
-0.686029424901471
 30
0.0
 10
67.05600009066349
 20
-0.8197495456499273
 30
0.0
  0
LINE
  5
A6
330
1F
100
AcDbEntity
  8
0
  6
Continuous
 62
     1
370
    15
100
AcDbLine
 10
67.05600009066349
 20
5.969000000000003
 30
0.0
 11
67.05600009066349
 21
5.626678652183981
 31
0.0
  0
SPLINE
  5
A7
330
1F
100
AcDbEntity
  8
0
  6
Continuous
 62
     4
370
    15
100
AcDbSpline
210
0.0
220
0.0
230
1.0
 70
     8
 71
     3
 72
    20
 73
    16
 74
     0
 42
0.000000001
 43
0.00000001
 40
0.0
 40
0.0
 40
0.0
 40
0.0
 40
0.1249999999999999
 40
0.1249999999999999
 40
0.2499999999999999
 40
0.2499999999999999
 40
0.3749999999999998
 40
0.3749999999999998
 40
0.4999999999999998
 40
0.4999999999999998
 40
0.7499999999999998
 40
0.7499999999999998
 40
0.8749999999999998
 40
0.8749999999999998
 40
1.0
 40
1.0
 40
1.0
 40
1.0
 10
65.02604825875567
 20
4.627614007462393
 30
0.0
 10
65.02604825875567
 20
4.713872686644494
 30
0.0
 10
65.03564721063739
 20
4.795445248068532
 30
0.0
 10
65.07810223275611
 20
4.949408716149603
 30
0.0
 10
65.1114515745878
 20
5.022540312914449
 30
0.0
 10
65.20373856756262
 20
5.156057478130879
 30
0.0
 10
65.26188618177747
 20
5.215920678604924
 30
0.0
 10
65.40335380962206
 20
5.323636660345755
 30
0.0
 10
65.48803500899908
 20
5.371938324697307
 30
0.0
 10
65.77057455367719
 20
5.494938195797588
 30
0.0
 10
66.00324675724706
 20
5.551028385290753
 30
0.0
 10
66.38174799886946
 20
5.602261106340466
 30
0.0
 10
66.51490179819397
 20
5.614162317380334
 30
0.0
 10
66.78376392455073
 20
5.627808466607481
 30
0.0
 10
66.91931139882645
 20
5.629702922995828
 30
0.0
 10
67.05600009066347
 20
5.626678652183981
 30
0.0
  0
LINE
  5
A8
330
1F
100
AcDbEntity
  8
0
  6
Continuous
 62
     4
370
    15
100
AcDbLine
 10
65.02604825875567
 20
4.627614007462391
 30
0.0
 11
65.02604825875567
 21
1.719530073883673
 31
0.0
  0
SPLINE
  5
A9
330
1F
100
AcDbEntity
  8
0
  6
Continuous
 62
     4
370
    15
100
AcDbSpline
210
0.0
220
0.0
230
1.0
 70
     8
 71
     3
 72
    14
 73
    10
 74
     0
 42
0.000000001
 43
0.00000001
 40
0.0
 40
0.0
 40
0.0
 40
0.0
 40
0.25
 40
0.25
 40
0.5
 40
0.5
 40
0.75
 40
0.75
 40
1.0
 40
1.0
 40
1.0
 40
1.0
 10
65.84169739230408
 20
0.0376979630734856
 30
0.0
 10
65.7068167764753
 20
0.1335528750544361
 30
0.0
 10
65.58753240480733
 20
0.2449078826068752
 30
0.0
 10
65.37896666781518
 20
0.4972083925908147
 30
0.0
 10
65.29091922497786
 20
0.6379070525833944
 30
0.0
 10
65.15416320582348
 20
0.9317661797425458
 30
0.0
 10
65.10381552712624
 20
1.088639269471124
 30
0.0
 10
65.04018426394407
 20
1.402601906192873
 30
0.0
 10
65.02604825875567
 20
1.561427040674761
 30
0.0
 10
65.02604825875567
 20
1.719530073883673
 30
0.0
  0
LINE
  5
AA
330
1F
100
AcDbEntity
  8
0
  6
Continuous
 62
     4
370
    15
100
AcDbLine
 10
67.05600009066347
 20
-0.8197495456499256
 30
0.0
 11
67.05600009066349
 21
-4.012754614240759
 31
0.0
  0
SPLINE
  5
AB
330
1F
100
AcDbEntity
  8
0
  6
Continuous
 62
     4
370
    15
100
AcDbSpline
210
0.0
220
0.0
230
1.0
 70
     8
 71
     3
 72
    20
 73
    16
 74
     0
 42
0.000000001
 43
0.00000001
 40
0.0
 40
0.0
 40
0.0
 40
0.0
 40
0.1250000000000001
 40
0.1250000000000001
 40
0.2500000000000002
 40
0.2500000000000002
 40
0.3750000000000002
 40
0.3750000000000002
 40
0.5000000000000003
 40
0.5000000000000003
 40
0.7500000000000002
 40
0.7500000000000002
 40
0.8750000000000001
 40
0.8750000000000001
 40
1.0
 40
1.0
 40
1.0
 40
1.0
 10
65.02604825875567
 20
-5.5788662985149
 30
0.0
 10
65.02604825875567
 20
-5.530303917678542
 30
0.0
 10
65.03564721062853
 20
-5.477953095843635
 30
0.0
 10
65.0781022327468
 20
-5.366512810454863
 30
0.0
 10
65.1114515745878
 20
-5.30671814072834
 30
0.0
 10
65.20373856756262
 20
-5.184801895778832
 30
0.0
 10
65.26188618177747
 20
-5.123355507699696
 30
0.0
 10
65.40335380962206
 20
-5.001851188657348
 30
0.0
 10
65.48803500899908
 20
-4.941080469521805
 30
0.0
 10
65.7705745536772
 20
-4.773388776042355
 30
0.0
 10
66.00324675724706
 20
-4.677700560609006
 30
0.0
 10
66.38174799886946
 20
-4.585641958173669
 30
0.0
 10
66.51490179819397
 20
-4.562904406297109
 30
0.0
 10
66.78376392455073
 20
-4.536651477864837
 30
0.0
 10
66.91931139882645
 20
-4.532878256989275
 30
0.0
 10
67.05600009066349
 20
-4.538762827378807
 30
0.0
  0
LINE
  5
AC
330
1F
100
AcDbEntity
  8
0
  6
Continuous
 62
     4
370
    15
100
AcDbLine
 10
65.02604825875567
 20
-5.578866298514898
 30
0.0
 11
65.02604825875567
 21
-5.968999999999994
 31
0.0
  0
SPLINE
  5
AD
330
1F
100
AcDbEntity
  8
0
  6
Continuous
 62
     4
370
    15
100
AcDbSpline
210
0.0
220
0.0
230
1.0
 70
     8
 71
     3
 72
    14
 73
    10
 74
     0
 42
0.000000001
 43
0.00000001
 40
0.0
 40
0.0
 40
0.0
 40
0.0
 40
0.25
 40
0.25
 40
0.5
 40
0.5
 40
0.75
 40
0.75
 40
1.0
 40
1.0
 40
1.0
 40
1.0
 10
65.84169739230408
 20
-5.18805152135693
 30
0.0
 10
65.7068167764753
 20
-5.235454689282017
 30
0.0
 10
65.58753240480733
 20
-5.288566363997757
 30
0.0
 10
65.37896666781518
 20
-5.401107503222223
 30
0.0
 10
65.29091922497786
 20
-5.46025713159455
 30
0.0
 10
65.1541632058235
 20
-5.573431979252345
 30
0.0
 10
65.10381552712624
 20
-5.628824824286301
 30
0.0
 10
65.04018426394406
 20
-5.727788348525023
 30
0.0
 10
65.02604825875567
 20
-5.77206844547457
 30
0.0
 10
65.02604825875567
 20
-5.809929983057986
 30
0.0
  0
SPLINE
  5
AE
330
1F
100
AcDbEntity
  8
0
  6
Continuous
 62
     4
370
    15
100
AcDbSpline
210
0.0
220
0.0
230
1.0
 70
     8
 71
     3
 72
     8
 73
     4
 74
     0
 42
0.000000001
 43
0.00000001
 40
0.0
 40
0.0
 40
0.0
 40
0.0
 40
1.0
 40
1.0
 40
1.0
 40
1.0
 10
67.05600009066349
 20
-4.710450291250897
 30
0.0
 10
66.65018962734752
 20
-4.886680975167947
 30
0.0
 10
66.24440507820256
 20
-5.04652176971641
 30
0.0
 10
65.84169739230408
 20
-5.188051521356932
 30
0.0
  0
SPLINE
  5
AF
330
1F
100
AcDbEntity
  8
0
  6
Continuous
 62
     4
370
    15
100
AcDbSpline
210
0.0
220
0.0
230
1.0
 70
    24
 71
     3
 72
    12
 73
     8
 74
     0
 42
0.000000001
 43
0.00000001
 40
0.0
 40
0.0
 40
0.0
 40
0.0
 40
0.4999999999999997
 40
0.4999999999999997
 40
0.7499999999999998
 40
0.7499999999999998
 40
1.0
 40
1.0
 40
1.0
 40
1.0
 10
67.05600009066347
 20
5.626678652183991
 30
0.0
 10
67.05600009066347
 20
5.018488911595576
 30
0.0
 10
67.05600009066347
 20
4.406523672425119
 30
0.0
 10
67.05600009066347
 20
3.481970094724165
 30
0.0
 10
67.05600009066347
 20
3.179097279366593
 30
0.0
 10
67.05600009066347
 20
2.596108120150132
 30
0.0
 10
67.05600009066347
 20
2.314154563310814
 30
0.0
 10
67.05600009066347
 20
2.04284114517802
 30
0.0
  0
LINE
  5
B0
330
1F
100
AcDbEntity
  8
0
  6
Continuous
 62
     4
370
    15
100
AcDbLine
 10
67.05600009066347
 20
-4.645587944505238
 30
0.0
 11
67.05600009066347
 21
-4.710450291250918
 31
0.0
  0
SPLINE
  5
B1
330
1F
100
AcDbEntity
  8
0
  6
Continuous
 62
     1
370
    15
100
AcDbSpline
210
0.0
220
0.0
230
1.0
 70
     8
 71
     3
 72
    34
 73
    30
 74
     0
 42
0.000000001
 43
0.00000001
 40
0.0
 40
0.0
 40
0.0
 40
0.0
 40
0.0625
 40
0.0625
 40
0.1250000000000001
 40
0.1250000000000001
 40
0.1875000000000001
 40
0.1875000000000001
 40
0.2500000000000001
 40
0.2500000000000001
 40
0.3125000000000001
 40
0.3125000000000001
 40
0.3750000000000002
 40
0.3750000000000002
 40
0.4375000000000002
 40
0.4375000000000002
 40
0.5000000000000002
 40
0.5000000000000002
 40
0.5625000000000002
 40
0.5625000000000002
 40
0.6250000000000002
 40
0.6250000000000002
 40
0.7500000000000003
 40
0.7500000000000003
 40
0.8750000000000002
 40
0.8750000000000002
 40
0.9375000000000002
 40
0.9375000000000002
 40
1.0
 40
1.0
 40
1.0
 40
1.0
 10
81.40700009066347
 20
-2.504936771877038
 30
0.0
 10
81.10809802530315
 20
-2.297911163447295
 30
0.0
 10
80.81156077870426
 20
-2.086714505906696
 30
0.0
 10
80.21274452420062
 20
-1.65588987968756
 30
0.0
 10
79.9121517963533
 20
-1.436647399949829
 30
0.0
 10
79.31369916953412
 20
-0.9942269511293872
 30
0.0
 10
79.01726615677705
 20
-0.7714151877115976
 30
0.0
 10
78.41902036945163
 20
-0.3223871988440308
 30
0.0
 10
78.11843782103747
 20
-0.0964731633011583
 30
0.0
 10
77.5194548725744
 20
0.3543215430963115
 30
0.0
 10
77.22281055262216
 20
0.5787610634922934
 30
0.0
 10
76.62525327044875
 20
1.025681164583494
 30
0.0
 10
76.32474088489971
 20
1.248053651438489
 30
0.0
 10
75.72534613943776
 20
1.68683692100478
 30
0.0
 10
75.42817511033546
 20
1.902840112478308
 30
0.0
 10
74.83142391740098
 20
2.327450969454878
 30
0.0
 10
74.53104163135666
 20
2.536230814154978
 30
0.0
 10
73.93135388572688
 20
2.943153146054701
 30
0.0
 10
73.63334109210128
 20
3.141016174431795
 30
0.0
 10
73.03751304190249
 20
3.524144475465451
 30
0.0
 10
72.73732070527362
 20
3.709899413205638
 30
0.0
 10
71.8375280725296
 20
4.244875774035309
 30
0.0
 10
71.24351709527166
 20
4.570945308958059
 30
0.0
 10
70.04368377745584
 20
5.15143625672789
 30
0.0
 10
69.44966270955335
 20
5.403945899889631
 30
0.0
 10
68.54988407876768
 20
5.720020409481308
 30
0.0
 10
68.24967470070285
 20
5.814754894789771
 30
0.0
 10
67.65377010655887
 20
5.98151379634776
 30
0.0
 10
67.35583463192864
 20
6.05378413689124
 30
0.0
 10
67.05600009066349
 20
6.114619370878159
 30
0.0
  0
SPLINE
  5
B2
330
1F
100
AcDbEntity
  8
0
  6
Continuous
 62
     1
370
    15
100
AcDbSpline
210
0.0
220
0.0
230
1.0
 70
     8
 71
     3
 72
    16
 73
    12
 74
     0
 42
0.000000001
 43
0.00000001
 40
0.0
 40
0.0
 40
0.0
 40
0.0
 40
0.2500000000000003
 40
0.2500000000000003
 40
0.5000000000000007
 40
0.5000000000000007
 40
0.6250000000000009
 40
0.6250000000000009
 40
0.750000000000001
 40
0.750000000000001
 40
1.0
 40
1.0
 40
1.0
 40
1.0
 10
81.40700009066347
 20
-2.504936771877038
 30
0.0
 10
81.5985137669327
 20
-2.637583012726707
 30
0.0
 10
81.78235037928351
 20
-2.752705286750673
 30
0.0
 10
82.13928312273248
 20
-2.942186689400327
 30
0.0
 10
82.30514415052177
 20
-3.012159900602087
 30
0.0
 10
82.52354367835616
 20
-3.074567782245887
 30
0.0
 10
82.59055845336545
 20
-3.08802595294313
 30
0.0
 10
82.70797549823212
 20
-3.100575913048498
 30
0.0
 10
82.75907673639057
 20
-3.099862434506027
 30
0.0
 10
82.88620572842999
 20
-3.078560373087557
 30
0.0
 10
82.93100009066349
 20
-3.039845152367666
 30
0.0
 10
82.9310000906635
 20
-2.989807193186494
 30
0.0
  0
SPLINE
  5
B3
330
1F
100
AcDbEntity
  8
0
  6
Continuous
 62
     1
370
    15
100
AcDbSpline
210
0.0
220
0.0
230
1.0
 70
     8
 71
     3
 72
    10
 73
     6
 74
     0
 42
0.000000001
 43
0.00000001
 40
0.0
 40
0.0
 40
0.0
 40
0.0
 40
0.2663721865172964
 40
0.9452703170816331
 40
1.0
 40
1.0
 40
1.0
 40
1.0
 10
81.94501912865084
 20
-2.833232781238106
 30
0.0
 10
81.85850114243169
 20
-2.845675483665962
 30
0.0
 10
81.55147627870278
 20
-2.88983068403846
 30
0.0
 10
81.13283985840019
 20
-3.097611581821664
 30
0.0
 10
80.83738173961054
 20
-3.258485627815858
 30
0.0
 10
80.81534014186869
 20
-3.270487061465518
 30
0.0
  0
SPLINE
  5
B4
330
1F
100
AcDbEntity
  8
0
  6
Continuous
 62
     1
370
    15
100
AcDbSpline
210
0.0
220
0.0
230
1.0
 70
     8
 71
     3
 72
     8
 73
     4
 74
     0
 42
0.000000001
 43
0.00000001
 40
0.0125946161727488
 40
0.0125946161727488
 40
0.0125946161727488
 40
0.0125946161727488
 40
1.0
 40
1.0
 40
1.0
 40
1.0
 10
82.9035234790995
 20
-3.710341107300038
 30
0.0
 10
82.1857491563501
 20
-3.658951807252556
 30
0.0
 10
81.48930569205136
 20
-3.514010691821787
 30
0.0
 10
80.8153401418687
 20
-3.270487061465498
 30
0.0
  0
SPLINE
  5
B7
330
1F
100
AcDbEntity
  8
0
  6
Continuous
 62
     1
370
    15
100
AcDbSpline
210
0.0
220
0.0
230
1.0
 70
     8
 71
     3
 72
    34
 73
    30
 74
     0
 42
0.000000001
 43
0.00000001
 40
0.0
 40
0.0
 40
0.0
 40
0.0
 40
0.0625000000000001
 40
0.0625000000000001
 40
0.1250000000000003
 40
0.1250000000000003
 40
0.1875000000000004
 40
0.1875000000000004
 40
0.2500000000000006
 40
0.2500000000000006
 40
0.3125000000000006
 40
0.3125000000000006
 40
0.3750000000000006
 40
0.3750000000000006
 40
0.4375000000000007
 40
0.4375000000000007
 40
0.5000000000000006
 40
0.5000000000000006
 40
0.5625000000000004
 40
0.5625000000000004
 40
0.6250000000000004
 40
0.6250000000000004
 40
0.6875000000000003
 40
0.6875000000000003
 40
0.7500000000000002
 40
0.7500000000000002
 40
0.8125000000000002
 40
0.8125000000000002
 40
0.8346065685043035
 40
0.8346065685043035
 40
0.8346065685043035
 40
0.8346065685043035
 10
67.05600009066347
 20
-0.816211659059649
 30
0.0
 10
67.37709380997799
 20
-1.040703031870494
 30
0.0
 10
67.69572620213144
 20
-1.262849815908331
 30
0.0
 10
68.33453905482688
 20
-1.701092361766971
 30
0.0
 10
68.65632992532113
 20
-1.917542481345529
 30
0.0
 10
69.29842964074345
 20
-2.340851966343161
 30
0.0
 10
69.61680788434222
 20
-2.547305538710368
 30
0.0
 10
70.25591508180777
 20
-2.948832340887334
 30
0.0
 10
70.57775527621283
 20
-3.144109785044495
 30
0.0
 10
71.21975476968382
 20
-3.519836106704173
 30
0.0
 10
71.53790937370607
 20
-3.699928395542026
 30
0.0
 10
72.17729861093002
 20
-4.04394034040608
 30
0.0
 10
72.49918182873026
 20
-4.207932847165876
 30
0.0
 10
73.14106860801155
 20
-4.516632159789533
 30
0.0
 10
73.45903009588181
 20
-4.661061581112009
 30
0.0
 10
74.09868904964074
 20
-4.929731724875176
 30
0.0
 10
74.42060898750245
 20
-5.053946246545209
 30
0.0
 10
75.06237056767128
 20
-5.279647476146552
 30
0.0
 10
75.37320710902719
 20
-5.39773526496759
 30
0.0
 10
76.02822384434549
 20
-5.615933415954874
 30
0.0
 10
76.34203615711988
 20
-5.789159723096185
 30
0.0
 10
76.98366006137769
 20
-5.994619710732282
 30
0.0
 10
77.30132693515299
 20
-6.122343191468772
 30
0.0
 10
77.94148828339948
 20
-6.350000000000004
 30
0.0
 10
78.26346274217339
 20
-6.350000000000004
 30
0.0
 10
78.90493650265316
 20
-6.350000000000004
 30
0.0
 10
79.22250189752324
 20
-6.350000000000004
 30
0.0
 10
79.65595420391693
 20
-6.350000000000004
 30
0.0
 10
79.76943411347331
 20
-6.350000000000003
 30
0.0
 10
79.88300003147808
 20
-6.350000000000003
 30
0.0
  0
SPLINE
  5
B8
330
1F
100
AcDbEntity
  8
0
  6
Continuous
 62
     4
370
    15
100
AcDbSpline
210
0.0
220
0.0
230
1.0
 70
    24
 71
     3
 72
    18
 73
    14
 74
     0
 42
0.000000001
 43
0.00000001
 40
0.0
 40
0.0
 40
0.0
 40
0.0
 40
0.2500000000000001
 40
0.2500000000000001
 40
0.5
 40
0.5
 40
0.625
 40
0.625
 40
0.75
 40
0.75
 40
0.875
 40
0.875
 40
1.0
 40
1.0
 40
1.0
 40
1.0
 10
67.05600009066349
 20
6.114619370878162
 30
0.0
 10
67.05600009066349
 20
5.627097785812483
 30
0.0
 10
67.05600009066349
 20
5.075728223866665
 30
0.0
 10
67.05600009066349
 20
3.861562638010741
 30
0.0
 10
67.05600009066349
 20
3.197128137394796
 30
0.0
 10
67.05600009066349
 20
2.186709823703115
 30
0.0
 10
67.05600009066349
 20
1.848444496238918
 30
0.0
 10
67.05600009066349
 20
1.191021325855734
 30
0.0
 10
67.05600009066349
 20
0.8719750289743636
 30
0.0
 10
67.05600009066349
 20
0.2799996380321816
 30
0.0
 10
67.05600009066349
 20
0.0072712918234598
 30
0.0
 10
67.05600009066349
 20
-0.4648618066349671
 30
0.0
 10
67.05600009066349
 20
-0.6640409830548766
 30
0.0
 10
67.05600009066349
 20
-0.8162116590595343
 30
0.0
  0
LINE
  5
B9
330
1F
100
AcDbEntity
  8
0
  6
Continuous
 62
     4
370
    15
100
AcDbLine
 10
67.05600009066349
 20
6.114619370878157
 30
0.0
 11
67.05600009066349
 21
6.268445502775769
 31
0.0
  0
SPLINE
  5
BA
330
1F
100
AcDbEntity
  8
0
  6
Continuous
 62
     1
370
    15
100
AcDbSpline
210
0.0
220
0.0
230
1.0
 70
     8
 71
     3
 72
    28
 73
    24
 74
     0
 42
0.000000001
 43
0.00000001
 40
0.0
 40
0.0
 40
0.0
 40
0.0
 40
0.0121685856217752
 40
0.0311730008500207
 40
0.0623962548999415
 40
0.1250150220539746
 40
0.1718780036327759
 40
0.210922937475358
 40
0.2500276782039494
 40
0.3124185118554411
 40
0.375024657040522
 40
0.4374329024650008
 40
0.5000186090824057
 40
0.5624546838923605
 40
0.6250105503920947
 40
0.6874848575055728
 40
0.7500015031620597
 40
0.8125215600089791
 40
0.8749924963196463
 40
0.9130135681820527
 40
0.9375586968493272
 40
0.9740448610287156
 40
1.0
 40
1.0
 40
1.0
 40
1.0
 10
81.40700009066347
 20
-1.8329194432113
 30
0.0
 10
81.34882278713353
 20
-1.79081300328003
 30
0.0
 10
81.1997864743885
 20
-1.682946392601795
 30
0.0
 10
80.90172656862973
 20
-1.464739236289037
 30
0.0
 10
80.36214236581071
 20
-1.066851753225651
 30
0.0
 10
79.68786232548382
 20
-0.5647530055402581
 30
0.0
 10
78.97845223507787
 20
-0.0279684887251387
 30
0.0
 10
78.3802856567878
 20
0.4224342738355188
 30
0.0
 10
77.7072315311727
 20
0.9257244520452553
 30
0.0
 10
76.92348515554693
 20
1.509683890588913
 30
0.0
 10
76.02554374078689
 20
2.155684355192177
 30
0.0
 10
75.12934921573105
 20
2.781288377792996
 30
0.0
 10
74.23157636611312
 20
3.371998784825998
 30
0.0
 10
73.33512075431506
 20
3.927275609598356
 30
0.0
 10
72.4375975377589
 20
4.436066967044094
 30
0.0
 10
71.54078376332262
 20
4.895943111860797
 30
0.0
 10
70.6435974340769
 20
5.299762274884833
 30
0.0
 10
69.74634733330544
 20
5.643617855881054
 30
0.0
 10
68.96698121260421
 20
5.88731282255451
 30
0.0
 10
68.36828808928453
 20
6.03792591070098
 30
0.0
 10
67.89457466338342
 20
6.139105256319916
 30
0.0
 10
67.47892097119905
 20
6.21346979556611
 30
0.0
 10
67.18017895990815
 20
6.252303426389911
 30
0.0
 10
67.05600009066025
 20
6.268445502770972
 30
0.0
  0
SPLINE
  5
BB
330
1F
100
AcDbEntity
  8
0
  6
Continuous
 62
     1
370
    15
100
AcDbSpline
210
0.0
220
0.0
230
1.0
 70
     8
 71
     3
 72
    24
 73
    20
 74
     0
 42
0.000000001
 43
0.00000001
 40
0.0
 40
0.0
 40
0.0
 40
0.0
 40
0.2499999999999992
 40
0.2499999999999992
 40
0.4999999999999984
 40
0.4999999999999984
 40
0.624999999999998
 40
0.624999999999998
 40
0.6874999999999984
 40
0.6874999999999984
 40
0.7499999999999988
 40
0.7499999999999988
 40
0.8124999999999991
 40
0.8124999999999991
 40
0.8749999999999994
 40
0.8749999999999994
 40
0.9374999999999999
 40
0.9374999999999999
 40
1.0
 40
1.0
 40
1.0
 40
1.0
 10
82.42687983171777
 20
0.7898817918004328
 30
0.0
 10
82.47191846846718
 20
0.5043306715107216
 30
0.0
 10
82.49755476124889
 20
0.2165037269749331
 30
0.0
 10
82.51078009075154
 20
-0.3637501964551059
 30
0.0
 10
82.49930600483731
 20
-0.6571981235831371
 30
0.0
 10
82.43419876948633
 20
-1.09049614131033
 30
0.0
 10
82.40424692345186
 20
-1.234123693063608
 30
0.0
 10
82.33839376430345
 20
-1.440885482189953
 30
0.0
 10
82.31288400793653
 20
-1.508527242527428
 30
0.0
 10
82.25083919843756
 20
-1.639843112855174
 30
0.0
 10
82.21366477890422
 20
-1.704535029603006
 30
0.0
 10
82.1244399237558
 20
-1.820075351143058
 30
0.0
 10
82.0710736861291
 20
-1.872182204087116
 30
0.0
 10
81.94818594936352
 20
-1.947358129527234
 30
0.0
 10
81.87807401457204
 20
-1.969869503725053
 30
0.0
 10
81.7348521861536
 20
-1.977313521753987
 30
0.0
 10
81.66265954746115
 20
-1.962856633241076
 30
0.0
 10
81.52853769694974
 20
-1.911686975697313
 30
0.0
 10
81.46627327064567
 20
-1.875694634658876
 30
0.0
 10
81.40700009066347
 20
-1.832919443211296
 30
0.0
  0
SPLINE
  5
BC
330
1F
100
AcDbEntity
  8
0
  6
Continuous
 62
     1
370
    15
100
AcDbSpline
210
0.0
220
0.0
230
1.0
 70
     8
 71
     3
 72
    18
 73
    14
 74
     0
 42
0.000000001
 43
0.00000001
 40
0.0
 40
0.0
 40
0.0
 40
0.0
 40
0.0209383323231221
 40
0.104129003495054
 40
0.1873192829690969
 40
0.3498309369529388
 40
0.433029346268024
 40
0.5162280715409381
 40
0.606766781351349
 40
0.6973056155356424
 40
0.790457228508872
 40
0.8836082325582924
 40
1.0
 40
1.0
 40
1.0
 40
1.0
 10
68.96315297558418
 20
5.860470679475622
 30
0.0
 10
69.05717907985019
 20
5.878507726652499
 30
0.0
 10
69.52478291709221
 20
5.968208268201721
 30
0.0
 10
70.36550427101976
 20
5.964966882488901
 30
0.0
 10
71.8401678461877
 20
5.905991771535091
 30
0.0
 10
73.31827448616447
 20
5.618563411657278
 30
0.0
 10
74.7930910900328
 20
5.149298790640681
 30
0.0
 10
75.946577585
 20
4.689368477648022
 30
0.0
 10
77.13238206695044
 20
4.123679393925466
 30
0.0
 10
78.3631531959537
 20
3.450861359059781
 30
0.0
 10
79.60629300390636
 20
2.696774048516448
 30
0.0
 10
80.9636857311171
 20
1.807585403179106
 30
0.0
 10
81.90437077810523
 20
1.15330544873098
 30
0.0
 10
82.42687983172617
 20
0.7898817917945653
 30
0.0
  0
LINE
  5
BD
330
1F
100
AcDbEntity
  8
0
  6
Continuous
 62
     1
370
    15
100
AcDbLine
 10
82.93100009066347
 20
-2.989807193186493
 30
0.0
 11
82.93100009066347
 21
0.6950915867540651
 31
0.0
  0
SPLINE
  5
BE
330
1F
100
AcDbEntity
  8
0
  6
Continuous
 62
     1
370
    15
100
AcDbSpline
210
0.0
220
0.0
230
1.0
 70
     8
 71
     3
 72
    14
 73
    10
 74
     0
 42
0.000000001
 43
0.00000001
 40
0.0
 40
0.0
 40
0.0
 40
0.0
 40
0.25
 40
0.25
 40
0.5
 40
0.5
 40
0.75
 40
0.75
 40
1.0
 40
1.0
 40
1.0
 40
1.0
 10
82.93100009066347
 20
0.6950915867540575
 30
0.0
 10
82.93100009066347
 20
0.6609346978296216
 30
0.0
 10
82.92142186224494
 20
0.6347606131717565
 30
0.0
 10
82.87875030783553
 20
0.6035073652939908
 30
0.0
 10
82.8457466792384
 20
0.5991228309437704
 30
0.0
 10
82.75755510043423
 20
0.6153804992939497
 30
0.0
 10
82.70159886201421
 20
0.6363600842007904
 30
0.0
 10
82.5749230368249
 20
0.6990174117984034
 30
0.0
 10
82.50282376269863
 20
0.7412437311959901
 30
0.0
 10
82.42687983171776
 20
0.7898817918005279
 30
0.0
  0
SPLINE
  5
BF
330
1F
100
AcDbEntity
  8
0
  6
Continuous
 62
     1
370
    15
100
AcDbSpline
210
0.0
220
0.0
230
1.0
 70
     8
 71
     3
 72
    10
 73
     6
 74
     0
 42
0.000000001
 43
0.00000001
 40
0.0
 40
0.0
 40
0.0
 40
0.0
 40
0.2097607678257876
 40
0.6048310327619458
 40
0.7138603905604602
 40
0.7138603905604602
 40
0.7138603905604602
 40
0.7138603905604602
 10
76.08119999464662
 20
4.608893562637578
 30
0.0
 10
76.45358700723051
 20
4.805843541186585
 30
0.0
 10
77.52733985311689
 20
5.373735526723049
 30
0.0
 10
78.67861297466447
 20
5.940420511533667
 30
0.0
 10
79.37926749756178
 20
6.195867473006645
 30
0.0
 10
79.8830000314781
 20
6.350000000000007
 30
0.0
  0
SPLINE
  5
C2
330
1F
100
AcDbEntity
  8
0
  6
Continuous
 62
     1
370
    15
100
AcDbSpline
210
0.0
220
0.0
230
1.0
 70
     8
 71
     3
 72
    18
 73
    14
 74
     0
 42
0.000000001
 43
0.00000001
 40
0.0556811096827047
 40
0.0556811096827047
 40
0.0556811096827047
 40
0.0556811096827047
 40
0.2499999999999998
 40
0.2499999999999998
 40
0.3749999999999997
 40
0.3749999999999997
 40
0.4999999999999996
 40
0.4999999999999996
 40
0.6249999999999994
 40
0.6249999999999994
 40
0.7499999999999993
 40
0.7499999999999993
 40
1.0
 40
1.0
 40
1.0
 40
1.0
 10
82.86171338829615
 20
3.948197408309869
 30
0.0
 10
82.77746158113908
 20
3.761185604352557
 30
0.0
 10
82.68031862796961
 20
3.585224194797583
 30
0.0
 10
82.4969675251429
 20
3.316403559153582
 30
0.0
 10
82.41847429597362
 20
3.21558040232866
 30
0.0
 10
82.252421747255
 20
3.029842202697924
 30
0.0
 10
82.16497995008919
 20
2.944787749750414
 30
0.0
 10
81.98143103852951
 20
2.790014829445813
 30
0.0
 10
81.88532507437108
 20
2.720294326387796
 30
0.0
 10
81.68439153536355
 20
2.59628893472858
 30
0.0
 10
81.57944243841953
 20
2.542136079338192
 30
0.0
 10
81.26123327555199
 20
2.406908288380255
 30
0.0
 10
81.04029324868
 20
2.350651939947891
 30
0.0
 10
80.8153401418687
 20
2.325333853375556
 30
0.0
  0
SPLINE
  5
C3
330
1F
100
AcDbEntity
  8
0
  6
Continuous
 62
     1
370
    15
100
AcDbSpline
210
0.0
220
0.0
230
1.0
 70
     8
 71
     3
 72
     8
 73
     4
 74
     0
 42
0.000000001
 43
0.00000001
 40
0.0
 40
0.0
 40
0.0
 40
0.0
 40
1.0
 40
1.0
 40
1.0
 40
1.0
 10
82.93100009066347
 20
1.224917617528843
 30
0.0
 10
82.20351945368617
 20
1.646691084810046
 30
0.0
 10
81.49790230045278
 20
2.014477226214662
 30
0.0
 10
80.8153401418687
 20
2.325333853375567
 30
0.0
  0
LINE
  5
C4
330
1F
100
AcDbEntity
  8
0
  6
Continuous
 62
     1
370
    15
100
AcDbLine
 10
82.93100009066347
 20
0.6950915867540651
 30
0.0
 11
82.93100009066347
 21
1.224917617528843
 31
0.0
  0
SPLINE
  5
C5
330
1F
100
AcDbEntity
  8
0
  6
Continuous
 62
     1
370
    15
100
AcDbSpline
210
0.0
220
0.0
230
1.0
 70
     8
 71
     3
 72
    25
 73
    21
 74
     0
 42
0.000000001
 43
0.00000001
 40
0.0601634524718691
 40
0.0601634524718691
 40
0.0601634524718691
 40
0.0601634524718691
 40
0.1079708080377148
 40
0.1831848820886043
 40
0.2195550685741575
 40
0.2655921703573958
 40
0.3310715404192083
 40
0.3727336198607926
 40
0.4222437340111436
 40
0.4671897088553243
 40
0.52450993430586
 40
0.5713460962427857
 40
0.6109426389161333
 40
0.6655390340621126
 40
0.7275761656798793
 40
0.7750773609386955
 40
0.8327688125078876
 40
0.8965799523065164
 40
0.950572983658677
 40
1.0
 40
1.0
 40
1.0
 40
1.0
 10
77.1374767608356
 20
-6.048328552751678
 30
0.0
 10
76.96661593702675
 20
-6.088038172714816
 30
0.0
 10
76.52690624142099
 20
-6.178200741001953
 30
0.0
 10
75.95638828367679
 20
-6.264496019047232
 30
0.0
 10
75.39288863151978
 20
-6.319459139806967
 30
0.0
 10
74.8645612845918
 20
-6.350358345110032
 30
0.0
 10
74.31630624811015
 20
-6.352990148606688
 30
0.0
 10
73.75616125532632
 20
-6.32699159478826
 30
0.0
 10
73.27001840359605
 20
-6.283055889997418
 30
0.0
 10
72.72717845409055
 20
-6.209861927939232
 30
0.0
 10
72.1935350307998
 20
-6.112536228660196
 30
0.0
 10
71.67971970039952
 20
-5.993826753924987
 30
0.0
 10
71.17603477396504
 20
-5.857418395221607
 30
0.0
 10
70.61697437080127
 20
-5.683475467987917
 30
0.0
 10
70.02962642405149
 20
-5.471438685756203
 30
0.0
 10
69.43251319757438
 20
-5.227522412339343
 30
0.0
 10
68.82797490344063
 20
-4.956658800183593
 30
0.0
 10
68.19986144132466
 20
-4.646785038310511
 30
0.0
 10
67.60256172965596
 20
-4.327133640932717
 30
0.0
 10
67.23274480756255
 20
-4.114417131543282
 30
0.0
 10
67.05600009066025
 20
-4.012754614264021
 30
0.0
  0
LINE
  5
C6
330
1F
100
AcDbEntity
  8
0
  6
Continuous
 62
     4
370
    15
100
AcDbLine
 10
67.05600009066349
 20
-0.8162116590596233
 30
0.0
 11
67.05600009066349
 21
-4.012754614265903
 31
0.0
  0
SPLINE
  5
C7
330
1F
100
AcDbEntity
  8
0
  6
Continuous
 62
     1
370
    15
100
AcDbSpline
210
0.0
220
0.0
230
1.0
 70
     8
 71
     3
 72
    11
 73
     7
 74
     0
 42
0.000000001
 43
0.00000001
 40
0.0
 40
0.0
 40
0.0
 40
0.0
 40
0.3081165669358905
 40
0.6162222041594386
 40
0.9243128296538126
 40
1.0
 40
1.0
 40
1.0
 40
1.0
 10
67.05600009066349
 20
-4.540700214585487
 30
0.0
 10
67.72589249459065
 20
-4.870090016221276
 30
0.0
 10
69.0656535395836
 20
-5.528857935162415
 30
0.0
 10
71.07522084907407
 20
-6.108250556897202
 30
0.0
 10
72.57944581531046
 20
-6.377841699872996
 30
0.0
 10
73.41379490704736
 20
-6.326700824299377
 30
0.0
 10
73.57834200309851
 20
-6.316615018911092
 30
0.0
  0
LINE
  5
C8
330
1F
100
AcDbEntity
  8
0
  6
Continuous
 62
     4
370
    15
100
AcDbLine
 10
67.05600009066349
 20
-4.540700214585489
 30
0.0
 11
67.05600009066349
 21
-4.012754614240759
 31
0.0
  0
LINE
  5
C9
330
1F
100
AcDbEntity
  8
0
  6
Continuous
 62
     1
370
    15
100
AcDbLine
 10
67.05600009066349
 20
-4.703411372827741
 30
0.0
 11
67.22566079841623
 21
-4.618372121385777
 31
0.0
  0
LINE
  5
CA
330
1F
100
AcDbEntity
  8
0
  6
Continuous
 62
     4
370
    15
100
AcDbLine
 10
67.05600009066352
 20
-4.012754614264021
 30
0.0
 11
67.05600009066347
 21
-4.703411372827717
 31
0.0
  0
LINE
  5
CB
330
1F
100
AcDbEntity
  8
0
  6
Continuous
 62
     1
370
    15
100
AcDbLine
 10
82.93100009066347
 20
1.224917617528843
 30
0.0
 11
82.93100009066347
 21
3.302000000000008
 31
0.0
  0
LINE
  5
CD
330
1F
100
AcDbEntity
  8
0
  6
Continuous
 62
     1
370
    15
100
AcDbLine
 10
82.93100009066347
 20
-2.989807193186493
 30
0.0
 11
82.93100009066347
 21
-3.302000000000005
 31
0.0
  0
LINE
  5
CE
330
1F
100
AcDbEntity
  8
중심선
100
AcDbLine
 10
-72.46899990933652
 20
0.0000000000000025
 30
0.0
 11
85.9310000906635
 21
0.000000000000002
 31
0.0
  0
CIRCLE
  5
CF
330
1F
100
AcDbEntity
  8
외형선
100
AcDbCircle
 10
0.0
 20
0.0
 30
0.0
 40
3.000000000000012
  0
INSERT
  5
D0
330
1F
100
AcDbEntity
  8
0
  6
Continuous
 62
     7
100
AcDbBlockReference
 66
     1
  2
블럭10
 10
-10.68548543393526
 20
-40.54113430357142
 30
0.0
  0
ATTRIB
  5
D1
330
D0
100
AcDbEntity
  8
FORMAT
 62
     2
100
AcDbText
 10
-19.86678072267654
 20
-38.46576739073922
 30
0.0
 40
4.233333333333333
  1
E5985902 [ 3 FLUTE ]
 41
0.75
  7
SLDTEXTSTYLE0
 11
-19.86678072267654
 21
-40.58243405740589
 31
0.0
100
AcDbAttribute
  2
AUTOATTR0
 70
     0
 74
     1
  0
SEQEND
  5
D2
330
D0
100
AcDbEntity
  8
0
  6
Continuous
 62
     7
  0
HATCH
  5
D3
330
1F
100
AcDbEntity
  8
중심선
100
AcDbHatch
 10
0.0
 20
0.0
 30
0.0
210
0.0
220
0.0
230
1.0
  2
SOLID
 70
     1
 71
     0
 91
        1
 92
        0
 93
        4
 72
     1
 10
-4.970576129554416
 20
-24.29396000192749
 11
-8.416851373391701
 21
-24.29396000192749
 72
     1
 10
-8.416851373391701
 20
-24.29396000192749
 11
-10.54508123259572
 21
-26.83028558250008
 72
     1
 10
-10.54508123259572
 20
-26.83028558250008
 11
-7.09877290364529
 21
-26.83024615319759
 72
     1
 10
-7.09877290364529
 20
-26.83024615319759
 11
-4.970576129554416
 21
-24.29396000192749
 97
        0
 75
     0
 76
     1
 98
        1
 10
41.22778753230281
 20
11.40894749321586
  0
HATCH
  5
D4
330
1F
100
AcDbEntity
  8
중심선
100
AcDbHatch
 10
0.0
 20
0.0
 30
0.0
210
0.0
220
0.0
230
1.0
  2
SOLID
 70
     1
 71
     0
 91
        1
 92
        0
 93
        4
 72
     1
 10
0.0421878614815654
 20
-24.29396000192746
 11
-3.404087382355719
 21
-24.29396000192749
 72
     1
 10
-3.404087382355719
 20
-24.29396000192749
 11
-7.935225390713136
 21
-29.6939600019275
 72
     1
 10
-7.935225390713136
 20
-29.6939600019275
 11
-4.488950146875851
 21
-29.6939600019275
 72
     1
 10
-4.488950146875851
 20
-29.6939600019275
 11
0.0421878614815654
 21
-24.29396000192746
 97
        0
 75
     0
 76
     1
 98
        1
 10
41.22778753230281
 20
11.40894749321586
  0
HATCH
  5
D5
330
1F
100
AcDbEntity
  8
중심선
100
AcDbHatch
 10
0.0
 20
0.0
 30
0.0
210
0.0
220
0.0
230
1.0
  2
SOLID
 70
     1
 71
     0
 91
        1
 92
        0
 93
        4
 72
     1
 10
5.054951852517462
 20
-24.29396000192749
 11
1.608676608680341
 21
-24.29396000192749
 72
     1
 10
1.608676608680341
 20
-24.29396000192749
 11
-5.439760293208934
 21
-32.69396000192751
 72
     1
 10
-5.439760293208934
 20
-32.69396000192751
 11
-1.99348504937165
 21
-32.69396000192751
 72
     1
 10
-1.99348504937165
 20
-32.69396000192751
 11
5.054951852517462
 21
-24.29396000192749
 97
        0
 75
     0
 76
     1
 98
        1
 10
41.22778753230281
 20
11.40894749321586
  0
HATCH
  5
D6
330
1F
100
AcDbEntity
  8
중심선
100
AcDbHatch
 10
0.0
 20
0.0
 30
0.0
210
0.0
220
0.0
230
1.0
  2
SOLID
 70
     1
 71
     0
 91
        1
 92
        0
 93
        6
 72
     3
 10
9.854842283529631
 20
-28.49396000197876
 11
3.960054785062283
 21
1.540882976769353E-10
 40
0.3939339440162628
 50
17.09539180608436
 51
320.0019657685078
 73
     0
 72
     1
 10
11.53784193923023
 20
-27.08185400656579
 11
13.84314381293129
 21
-25.14752729651786
 72
     3
 10
9.854842283476785
 20
-28.49396000192763
 11
6.600054785286829
 21
-1.278976924368180E-13
 40
0.636358354079598
 50
39.99873849337385
 51
368.4976242363724
 73
     1
 72
     1
 10
16.28017477537739
 20
-27.53396000185751
 11
8.534909590312708
 21
-27.53396000185751
 72
     1
 10
8.534909590312708
 20
-27.53396000185751
 11
8.534884545866774
 21
-29.4539600018574
 72
     1
 10
8.534884545866774
 20
-29.4539600018574
 11
12.97626431533881
 21
-29.45396000185738
 97
        0
 75
     0
 76
     1
 98
        1
 10
41.22778753230281
 20
11.40894749321586
  0
POINT
  5
D7
330
1F
100
AcDbEntity
  8
치수문자_일반주서
100
AcDbPoint
 10
0.0000000000000142
 20
0.0000000000000248
 30
0.0
  0
POINT
  5
D8
330
1F
100
AcDbEntity
  8
치수문자_일반주서
100
AcDbPoint
 10
-69.46899990933652
 20
0.0000000000000028
 30
0.0
  0
DIMENSION
  5
D9
330
1F
100
AcDbEntity
  8
치수문자_일반주서
100
AcDbDimension
  2
_D
 10
67.05600009066349
 20
28.32027939768169
 30
0.0
 11
47.76450009066349
 21
28.32027939768169
 31
0.0
 70
   160
  1
<>
 71
     2
 42
15.87500000000001
  3
SLDDIMSTYLE0
100
AcDbAlignedDimension
 13
82.9310000906635
 23
6.350000000000001
 33
0.0
 14
67.05600009066349
 24
6.268445502775768
 34
0.0
 50
-0.0000000000000256
100
AcDbRotatedDimension
1001
ACAD
1000
DSTYLE
1002
{
1070
   171
1070
     6
1070
   273
1070
     5
1002
}
  0
DIMENSION
  5
EF
330
1F
100
AcDbEntity
  8
치수문자_일반주서
100
AcDbDimension
  2
_D_1
 10
-69.46899990933653
 20
68.18475965011002
 30
0.0
 11
6.122414615715776
 21
68.18475965011002
 31
0.0
 70
   160
  1
<>
 71
     2
 42
152.4
  3
SLDDIMSTYLE1
100
AcDbAlignedDimension
 13
82.9310000906635
 23
6.350000000000001
 33
0.0
 14
-69.46899990933653
 24
5.849999999999996
 34
0.0
 50
0.0000000000000053
100
AcDbRotatedDimension
1001
ACAD
1000
DSTYLE
1002
{
1070
   171
1070
     6
1070
   273
1070
     5
1002
}
  0
DIMENSION
  5
103
330
1F
100
AcDbEntity
  8
치수문자_일반주서
100
AcDbDimension
  2
_D_2
 10
-81.468910672889
 20
-6.350000000000044
 30
0.0
 11
-81.46891067288911
 21
26.73524999999996
 31
0.0
 70
   160
  1
%%c<>
 71
     2
 42
12.7
 52
-270.0
  3
SLDDIMSTYLE2
100
AcDbAlignedDimension
 13
-68.96899990933653
 23
6.349999999999999
 33
0.0
 14
-68.96899990933653
 24
-6.349999999999999
 34
0.0
 50
90.0000000000002
100
AcDbRotatedDimension
1001
ACAD
1000
DSTYLE
1002
{
1070
   171
1070
     6
1070
   273
1070
     5
1002
}
  0
DIMENSION
  5
118
330
1F
100
AcDbEntity
  8
치수문자_일반주서
100
AcDbDimension
  2
_D_3
 10
82.9310000906635
 20
52.44959778227562
 30
0.0
 11
52.83761286620998
 21
52.44959778227562
 31
0.0
 70
   160
  1
<>
 71
     2
 42
82.5500000906635
  3
SLDDIMSTYLE3
100
AcDbAlignedDimension
 13
0.3809999999999931
 23
5.969000000000001
 33
0.0
 14
82.9310000906635
 24
6.350000000000001
 34
0.0
100
AcDbRotatedDimension
1001
ACAD
1000
DSTYLE
1002
{
1070
   171
1070
     6
1070
   273
1070
     5
1002
}
  0
INSERT
  5
132
330
1F
100
AcDbEntity
  8
외형선
100
AcDbBlockReference
  2
SW_DOWELSYMBOL_0
 10
0.0
 20
0.0
 30
0.0
  0
DIMENSION
  5
160
330
1F
100
AcDbEntity
  8
치수문자_일반주서
100
AcDbDimension
  2
*D7
 10
97.86431060317685
 20
6.350000000000001
 30
0.0
 11
97.86431060317685
 21
26.99107156470169
 31
0.0
 70
   160
  1
{Ø<>[]}
 71
     5
 42
12.7
  3
SLDDIMSTYLE3
100
AcDbAlignedDimension
 13
82.93100009066347
 23
-6.350000000000004
 33
0.0
 14
82.9310000906635
 24
6.350000000000001
 34
0.0
 50
90.0
100
AcDbRotatedDimension
1001
ACAD
1000
DSTYLE
1002
{
1070
   171
1070
     6
1070
   273
1070
     5
1070
   283
1070
     1
1070
   170
1070
     1
1002
}
  0
ARC
  5
1A8
102
{ACAD_REACTORS
102
}
330
1F
100
AcDbEntity
  8
0
  6
Continuous
 62
     1
370
    15
100
AcDbCircle
 10
79.88300009066347
 20
-3.302000000000005
 30
0.0
 40
3.047999999999999
100
AcDbArc
 50
269.9999988874436
 51
0.0
  0
ARC
  5
1A9
330
1F
100
AcDbEntity
  8
0
  6
Continuous
 62
     1
370
    15
100
AcDbCircle
 10
79.88300009066347
 20
3.302000000000009
 30
0.0
 40
3.047999999999999
100
AcDbArc
 50
0.0
 51
90.00000111255636
  0
DIMENSION
  5
1AB
102
{ACAD_REACTORS
102
}
102
{ACAD_XDICTIONARY
360
1AC
102
}
330
1F
100
AcDbEntity
  8
치수문자_일반주서
100
AcDbDimension
  2
*D9
 10
79.88300009066347
 20
-3.302000000000005
 30
0.0
 11
92.43670804867003
 21
-28.36027499061105
 31
0.0
 70
   164
  1
<>
 71
     5
 42
3.047999999999997
  3
SLDDIMSTYLE3
100
AcDbRadialDimension
 15
81.24824438566486
 25
-6.027144402589736
 35
0.0
 40
0.0
1001
ACAD
1000
DSTYLE
1002
{
1070
   171
1070
     2
1070
   273
1070
     2
1002
}
1001
ACAD_DSTYLE_DIMRADIAL_EXTENSION
1070
   387
1070
     1
1070
   388
1040
4.712388960966918
1070
   390
1040
0.0
  0
ENDSEC
  0
SECTION
  2
OBJECTS
  0
DICTIONARY
  5
C
330
0
100
AcDbDictionary
281
     1
  3
ACAD_GROUP
350
D
  3
ACAD_IMAGE_VARS
350
156
  3
ACAD_LAYOUT
350
1A
  3
ACAD_MLINESTYLE
350
17
  3
ACAD_PLOTSETTINGS
350
19
  3
ACAD_PLOTSTYLENAME
350
E
  3
ACAD_SCALELIST
350
47
  3
APPDATA
350
154
  3
DWGPROPS
350
1B8
  0
DICTIONARY
  5
1AC
330
1AB
100
AcDbDictionary
280
     1
281
     1
  0
DICTIONARY
  5
D
102
{ACAD_REACTORS
330
C
102
}
330
C
100
AcDbDictionary
281
     1
  0
RASTERVARIABLES
  5
156
102
{ACAD_REACTORS
330
C
102
}
330
C
100
AcDbRasterVariables
 90
        0
 70
     1
 71
     1
 72
     1
  0
DICTIONARY
  5
1A
102
{ACAD_REACTORS
330
C
102
}
330
C
100
AcDbDictionary
281
     1
  3
Layout1
350
1E
  3
Layout2
350
26
  3
Model
350
22
  0
DICTIONARY
  5
17
102
{ACAD_REACTORS
330
C
102
}
330
C
100
AcDbDictionary
281
     1
  3
Standard
350
18
  0
DICTIONARY
  5
19
102
{ACAD_REACTORS
330
C
102
}
330
C
100
AcDbDictionary
281
     1
  0
ACDBDICTIONARYWDFLT
  5
E
102
{ACAD_REACTORS
330
C
102
}
330
C
100
AcDbDictionary
281
     1
  3
Normal
350
F
100
AcDbDictionaryWithDefault
340
F
  0
DICTIONARY
  5
47
102
{ACAD_REACTORS
330
C
102
}
330
C
100
AcDbDictionary
281
     1
  3
A0
350
48
  3
A1
350
49
  3
A2
350
4A
  3
A3
350
4B
  3
A4
350
4C
  3
A5
350
4D
  3
A6
350
4E
  3
A7
350
4F
  3
A8
350
50
  3
A9
350
51
  3
B0
350
52
  3
B1
350
53
  3
B2
350
54
  3
B3
350
55
  3
B4
350
56
  3
B5
350
57
  3
B6
350
58
  3
B7
350
59
  3
B8
350
5A
  3
B9
350
5B
  3
C0
350
5C
  3
C1
350
5D
  3
C2
350
5E
  3
C3
350
5F
  3
C4
350
60
  3
C5
350
61
  3
C6
350
62
  3
C7
350
63
  3
C8
350
64
  3
C9
350
65
  3
D0
350
66
  3
D1
350
67
  3
D2
350
68
  0
DICTIONARY
  5
154
102
{ACAD_REACTORS
330
C
102
}
330
C
100
AcDbDictionary
281
     1
  0
XRECORD
  5
1B8
102
{ACAD_REACTORS
330
C
102
}
330
C
100
AcDbXrecord
280
     1
  1
DWGPROPS COOKIE
  2

  3

  4

  6

  7

  8
12014074
  9

300
=
301
=
302
=
303
=
304
=
305
=
306
=
307
=
308
=
309
=
 40
0.0
 41
2458269.041425047
 42
2458270.125226655
  1

 90
        0
  0
LAYOUT
  5
1E
102
{ACAD_REACTORS
330
1A
102
}
330
1A
100
AcDbPlotSettings
  1

  2
none_device
  4

  6

 40
0.0
 41
0.0
 42
0.0
 43
0.0
 44
0.0
 45
0.0
 46
0.0
 47
0.0
 48
0.0
 49
0.0
140
0.0
141
0.0
142
1.0
143
1.0
 70
   688
 72
     1
 73
     0
 74
     5
  7

 75
    16
147
1.0
148
0.0
149
0.0
100
AcDbLayout
  1
Layout1
 70
     1
 71
     1
 10
0.0
 20
0.0
 11
420.0
 21
297.0
 12
0.0
 22
0.0
 32
0.0
 14
1.000000000000000E+20
 24
1.000000000000000E+20
 34
1.000000000000000E+20
 15
-1.000000000000000E+20
 25
-1.000000000000000E+20
 35
-1.000000000000000E+20
146
0.0
 13
0.0
 23
0.0
 33
0.0
 16
1.0
 26
0.0
 36
0.0
 17
0.0
 27
1.0
 37
0.0
 76
     0
330
1B
  0
LAYOUT
  5
26
102
{ACAD_REACTORS
330
1A
102
}
330
1A
100
AcDbPlotSettings
  1

  2
none_device
  4

  6

 40
0.0
 41
0.0
 42
0.0
 43
0.0
 44
0.0
 45
0.0
 46
0.0
 47
0.0
 48
0.0
 49
0.0
140
0.0
141
0.0
142
1.0
143
1.0
 70
   688
 72
     1
 73
     0
 74
     5
  7

 75
    16
147
1.0
148
0.0
149
0.0
100
AcDbLayout
  1
Layout2
 70
     1
 71
     2
 10
0.0
 20
0.0
 11
0.0
 21
0.0
 12
0.0
 22
0.0
 32
0.0
 14
0.0
 24
0.0
 34
0.0
 15
0.0
 25
0.0
 35
0.0
146
0.0
 13
0.0
 23
0.0
 33
0.0
 16
1.0
 26
0.0
 36
0.0
 17
0.0
 27
1.0
 37
0.0
 76
     0
330
23
  0
LAYOUT
  5
22
102
{ACAD_REACTORS
330
1A
102
}
330
1A
100
AcDbPlotSettings
  1

  2
none_device
  4
ANSI_A_(11.00_x_8.50_Inches)
  6

 40
6.35
 41
19.05
 42
6.35000508
 43
19.05000254
 44
279.4
 45
215.9
 46
196.677910392799
 47
68.17988151048725
 48
0.0
 49
0.0
140
0.0
141
0.0
142
0.0575305035887674
143
1.0
 70
  1696
 72
     0
 73
     0
 74
     0
  7

 75
     0
147
0.0235690232323232
148
0.0
149
0.0
100
AcDbLayout
  1
Model
 70
     1
 71
     0
 10
0.0
 20
0.0
 11
420.0
 21
297.0
 12
0.0
 22
0.0
 32
0.0
 14
-85.84391067288915
 24
-40.87734245657439
 34
0.0
 15
102.2271733154756
 25
72.55975965011002
 35
0.0
146
0.0
 13
0.0
 23
0.0
 33
0.0
 16
1.0
 26
0.0
 36
0.0
 17
0.0
 27
1.0
 37
0.0
 76
     0
330
1F
331
29
  0
MLINESTYLE
  5
18
102
{ACAD_REACTORS
330
17
102
}
330
17
100
AcDbMlineStyle
  2
Standard
 70
     0
  3

 62
   256
 51
90.0
 52
90.0
 71
     2
 49
0.5
 62
   256
  6
BYLAYER
 49
-0.5
 62
   256
  6
BYLAYER
  0
ACDBPLACEHOLDER
  5
F
102
{ACAD_REACTORS
330
E
102
}
330
E
  0
SCALE
  5
48
102
{ACAD_REACTORS
330
47
102
}
330
47
100
AcDbScale
 70
     0
300
1:1
140
1.0
141
1.0
290
     1
  0
SCALE
  5
49
102
{ACAD_REACTORS
330
47
102
}
330
47
100
AcDbScale
 70
     0
300
1:2
140
1.0
141
2.0
290
     0
  0
SCALE
  5
4A
102
{ACAD_REACTORS
330
47
102
}
330
47
100
AcDbScale
 70
     0
300
1:4
140
1.0
141
4.0
290
     0
  0
SCALE
  5
4B
102
{ACAD_REACTORS
330
47
102
}
330
47
100
AcDbScale
 70
     0
300
1:5
140
1.0
141
5.0
290
     0
  0
SCALE
  5
4C
102
{ACAD_REACTORS
330
47
102
}
330
47
100
AcDbScale
 70
     0
300
1:8
140
1.0
141
8.0
290
     0
  0
SCALE
  5
4D
102
{ACAD_REACTORS
330
47
102
}
330
47
100
AcDbScale
 70
     0
300
1:10
140
1.0
141
10.0
290
     0
  0
SCALE
  5
4E
102
{ACAD_REACTORS
330
47
102
}
330
47
100
AcDbScale
 70
     0
300
1:16
140
1.0
141
16.0
290
     0
  0
SCALE
  5
4F
102
{ACAD_REACTORS
330
47
102
}
330
47
100
AcDbScale
 70
     0
300
1:20
140
1.0
141
20.0
290
     0
  0
SCALE
  5
50
102
{ACAD_REACTORS
330
47
102
}
330
47
100
AcDbScale
 70
     0
300
1:30
140
1.0
141
30.0
290
     0
  0
SCALE
  5
51
102
{ACAD_REACTORS
330
47
102
}
330
47
100
AcDbScale
 70
     0
300
1:40
140
1.0
141
40.0
290
     0
  0
SCALE
  5
52
102
{ACAD_REACTORS
330
47
102
}
330
47
100
AcDbScale
 70
     0
300
1:50
140
1.0
141
50.0
290
     0
  0
SCALE
  5
53
102
{ACAD_REACTORS
330
47
102
}
330
47
100
AcDbScale
 70
     0
300
1:100
140
1.0
141
100.0
290
     0
  0
SCALE
  5
54
102
{ACAD_REACTORS
330
47
102
}
330
47
100
AcDbScale
 70
     0
300
2:1
140
2.0
141
1.0
290
     0
  0
SCALE
  5
55
102
{ACAD_REACTORS
330
47
102
}
330
47
100
AcDbScale
 70
     0
300
4:1
140
4.0
141
1.0
290
     0
  0
SCALE
  5
56
102
{ACAD_REACTORS
330
47
102
}
330
47
100
AcDbScale
 70
     0
300
8:1
140
8.0
141
1.0
290
     0
  0
SCALE
  5
57
102
{ACAD_REACTORS
330
47
102
}
330
47
100
AcDbScale
 70
     0
300
10:1
140
10.0
141
1.0
290
     0
  0
SCALE
  5
58
102
{ACAD_REACTORS
330
47
102
}
330
47
100
AcDbScale
 70
     0
300
100:1
140
100.0
141
1.0
290
     0
  0
SCALE
  5
59
102
{ACAD_REACTORS
330
47
102
}
330
47
100
AcDbScale
 70
     0
300
1/128" = 1'-0"
140
0.0078125
141
12.0
290
     0
  0
SCALE
  5
5A
102
{ACAD_REACTORS
330
47
102
}
330
47
100
AcDbScale
 70
     0
300
1/64" = 1'-0"
140
0.015625
141
12.0
290
     0
  0
SCALE
  5
5B
102
{ACAD_REACTORS
330
47
102
}
330
47
100
AcDbScale
 70
     0
300
1/32" = 1'-0"
140
0.03125
141
12.0
290
     0
  0
SCALE
  5
5C
102
{ACAD_REACTORS
330
47
102
}
330
47
100
AcDbScale
 70
     0
300
1/16" = 1'-0"
140
0.0625
141
12.0
290
     0
  0
SCALE
  5
5D
102
{ACAD_REACTORS
330
47
102
}
330
47
100
AcDbScale
 70
     0
300
3/32" = 1'-0"
140
0.09375
141
12.0
290
     0
  0
SCALE
  5
5E
102
{ACAD_REACTORS
330
47
102
}
330
47
100
AcDbScale
 70
     0
300
1/8" = 1'-0"
140
0.125
141
12.0
290
     0
  0
SCALE
  5
5F
102
{ACAD_REACTORS
330
47
102
}
330
47
100
AcDbScale
 70
     0
300
3/16" = 1'-0"
140
0.1875
141
12.0
290
     0
  0
SCALE
  5
60
102
{ACAD_REACTORS
330
47
102
}
330
47
100
AcDbScale
 70
     0
300
1/4" = 1'-0"
140
0.25
141
12.0
290
     0
  0
SCALE
  5
61
102
{ACAD_REACTORS
330
47
102
}
330
47
100
AcDbScale
 70
     0
300
3/8" = 1'-0"
140
0.375
141
12.0
290
     0
  0
SCALE
  5
62
102
{ACAD_REACTORS
330
47
102
}
330
47
100
AcDbScale
 70
     0
300
1/2" = 1'-0"
140
0.5
141
12.0
290
     0
  0
SCALE
  5
63
102
{ACAD_REACTORS
330
47
102
}
330
47
100
AcDbScale
 70
     0
300
3/4" = 1'-0"
140
0.75
141
12.0
290
     0
  0
SCALE
  5
64
102
{ACAD_REACTORS
330
47
102
}
330
47
100
AcDbScale
 70
     0
300
1" = 1'-0"
140
1.0
141
12.0
290
     0
  0
SCALE
  5
65
102
{ACAD_REACTORS
330
47
102
}
330
47
100
AcDbScale
 70
     0
300
1-1/2" = 1'-0"
140
1.5
141
12.0
290
     0
  0
SCALE
  5
66
102
{ACAD_REACTORS
330
47
102
}
330
47
100
AcDbScale
 70
     0
300
3" = 1'-0"
140
3.0
141
12.0
290
     0
  0
SCALE
  5
67
102
{ACAD_REACTORS
330
47
102
}
330
47
100
AcDbScale
 70
     0
300
6" = 1'-0"
140
6.0
141
12.0
290
     0
  0
SCALE
  5
68
102
{ACAD_REACTORS
330
47
102
}
330
47
100
AcDbScale
 70
     0
300
1'-0" = 1'-0"
140
12.0
141
12.0
290
     0
  0
ENDSEC
  0
EOF
