  0
SECTION
  2
HEADER
  9
$ACADVER
  1
AC1015
  9
$ACADMAINTVER
 70
     6
  9
$DWGCODEPAGE
  3
ANSI_949
  9
$INSBASE
 10
0.0
 20
0.0
 30
0.0
  9
$EXTMIN
 10
-75.22500000000008
 20
-49.87471488395506
 30
0.0
  9
$EXTMAX
 10
110.8300523497382
 20
64.6985977822756
 30
0.0
  9
$LIMMIN
 10
0.0
 20
0.0
  9
$LIMMAX
 10
420.0
 20
297.0
  9
$ORTHOMODE
 70
     1
  9
$REGENMODE
 70
     1
  9
$FILLMODE
 70
     1
  9
$QTEXTMODE
 70
     0
  9
$MIRRTEXT
 70
     1
  9
$LTSCALE
 40
1.0
  9
$ATTMODE
 70
     1
  9
$TEXTSIZE
 40
3.5
  9
$TRACEWID
 40
1.0
  9
$TEXTSTYLE
  7
Standard
  9
$CLAYER
  8
0
  9
$CELTYPE
  6
ByLayer
  9
$CECOLOR
 62
   256
  9
$CELTSCALE
 40
1.0
  9
$DISPSILH
 70
     0
  9
$DIMSCALE
 40
1.0
  9
$DIMASZ
 40
3.302
  9
$DIMEXO
 40
1.0
  9
$DIMDLI
 40
3.75
  9
$DIMRND
 40
0.0
  9
$DIMDLE
 40
0.0
  9
$DIMEXE
 40
1.0
  9
$DIMTP
 40
0.0
  9
$DIMTM
 40
0.0
  9
$DIMTXT
 40
3.5
  9
$DIMCEN
 40
2.5
  9
$DIMTSZ
 40
0.0
  9
$DIMTOL
 70
     0
  9
$DIMLIM
 70
     0
  9
$DIMTIH
 70
     1
  9
$DIMTOH
 70
     1
  9
$DIMSE1
 70
     0
  9
$DIMSE2
 70
     0
  9
$DIMTAD
 70
     1
  9
$DIMZIN
 70
     0
  9
$DIMBLK
  1

  9
$DIMASO
 70
     1
  9
$DIMSHO
 70
     1
  9
$DIMPOST
  1

  9
$DIMAPOST
  1

  9
$DIMALT
 70
     0
  9
$DIMALTD
 70
     3
  9
$DIMALTF
 40
0.0393700787401575
  9
$DIMLFAC
 40
1.0
  9
$DIMTOFL
 70
     1
  9
$DIMTVP
 40
0.0
  9
$DIMTIX
 70
     0
  9
$DIMSOXD
 70
     0
  9
$DIMSAH
 70
     0
  9
$DIMBLK1
  1

  9
$DIMBLK2
  1

  9
$DIMSTYLE
  2
ISO-25
  9
$DIMCLRD
 70
     0
  9
$DIMCLRE
 70
     0
  9
$DIMCLRT
 70
     0
  9
$DIMTFAC
 40
1.0
  9
$DIMGAP
 40
1.524
  9
$DIMJUST
 70
     0
  9
$DIMSD1
 70
     0
  9
$DIMSD2
 70
     0
  9
$DIMTOLJ
 70
     0
  9
$DIMTZIN
 70
     0
  9
$DIMALTZ
 70
     0
  9
$DIMALTTZ
 70
     0
  9
$DIMUPT
 70
     0
  9
$DIMDEC
 70
     2
  9
$DIMTDEC
 70
     2
  9
$DIMALTU
 70
     2
  9
$DIMALTTD
 70
     3
  9
$DIMTXSTY
  7
Standard
  9
$DIMAUNIT
 70
     0
  9
$DIMADEC
 70
     2
  9
$DIMALTRND
 40
0.0
  9
$DIMAZIN
 70
     0
  9
$DIMDSEP
 70
    44
  9
$DIMATFIT
 70
     3
  9
$DIMFRAC
 70
     0
  9
$DIMLDRBLK
  1

  9
$DIMLUNIT
 70
     2
  9
$DIMLWD
 70
    -2
  9
$DIMLWE
 70
    -2
  9
$DIMTMOVE
 70
     0
  9
$LUNITS
 70
     2
  9
$LUPREC
 70
     2
  9
$SKETCHINC
 40
1.0
  9
$FILLETRAD
 40
10.0
  9
$AUNITS
 70
     0
  9
$AUPREC
 70
     2
  9
$MENU
  1
.
  9
$ELEVATION
 40
0.0
  9
$PELEVATION
 40
0.0
  9
$THICKNESS
 40
0.0
  9
$LIMCHECK
 70
     0
  9
$CHAMFERA
 40
0.0
  9
$CHAMFERB
 40
0.0
  9
$CHAMFERC
 40
0.0
  9
$CHAMFERD
 40
0.0
  9
$SKPOLY
 70
     0
  9
$TDCREATE
 40
2458269.434317512
  9
$TDUCREATE
 40
2458269.059317512
  9
$TDUPDATE
 40
2458270.353539792
  9
$TDUUPDATE
 40
2458269.978539792
  9
$TDINDWG
 40
0.0023062384
  9
$TDUSRTIMER
 40
2458269.976198079
  9
$USRTIMER
 70
     1
  9
$ANGBASE
 50
0.0
  9
$ANGDIR
 70
     0
  9
$PDMODE
 70
     0
  9
$PDSIZE
 40
-1.0
  9
$PLINEWID
 40
0.0
  9
$SPLFRAME
 70
     0
  9
$SPLINETYPE
 70
     6
  9
$SPLINESEGS
 70
     8
  9
$HANDSEED
  5
163
  9
$SURFTAB1
 70
     6
  9
$SURFTAB2
 70
     6
  9
$SURFTYPE
 70
     6
  9
$SURFU
 70
     6
  9
$SURFV
 70
     6
  9
$UCSBASE
  2

  9
$UCSNAME
  2

  9
$UCSORG
 10
0.0
 20
0.0
 30
0.0
  9
$UCSXDIR
 10
1.0
 20
0.0
 30
0.0
  9
$UCSYDIR
 10
0.0
 20
1.0
 30
0.0
  9
$UCSORTHOREF
  2

  9
$UCSORTHOVIEW
 70
     0
  9
$UCSORGTOP
 10
0.0
 20
0.0
 30
0.0
  9
$UCSORGBOTTOM
 10
0.0
 20
0.0
 30
0.0
  9
$UCSORGLEFT
 10
0.0
 20
0.0
 30
0.0
  9
$UCSORGRIGHT
 10
0.0
 20
0.0
 30
0.0
  9
$UCSORGFRONT
 10
0.0
 20
0.0
 30
0.0
  9
$UCSORGBACK
 10
0.0
 20
0.0
 30
0.0
  9
$PUCSBASE
  2

  9
$PUCSNAME
  2

  9
$PUCSORG
 10
0.0
 20
0.0
 30
0.0
  9
$PUCSXDIR
 10
1.0
 20
0.0
 30
0.0
  9
$PUCSYDIR
 10
0.0
 20
1.0
 30
0.0
  9
$PUCSORTHOREF
  2

  9
$PUCSORTHOVIEW
 70
     0
  9
$PUCSORGTOP
 10
0.0
 20
0.0
 30
0.0
  9
$PUCSORGBOTTOM
 10
0.0
 20
0.0
 30
0.0
  9
$PUCSORGLEFT
 10
0.0
 20
0.0
 30
0.0
  9
$PUCSORGRIGHT
 10
0.0
 20
0.0
 30
0.0
  9
$PUCSORGFRONT
 10
0.0
 20
0.0
 30
0.0
  9
$PUCSORGBACK
 10
0.0
 20
0.0
 30
0.0
  9
$USERI1
 70
     0
  9
$USERI2
 70
     0
  9
$USERI3
 70
     0
  9
$USERI4
 70
     0
  9
$USERI5
 70
     0
  9
$USERR1
 40
0.0
  9
$USERR2
 40
0.0
  9
$USERR3
 40
0.0
  9
$USERR4
 40
0.0
  9
$USERR5
 40
0.0
  9
$WORLDVIEW
 70
     1
  9
$SHADEDGE
 70
     3
  9
$SHADEDIF
 70
    70
  9
$TILEMODE
 70
     1
  9
$MAXACTVP
 70
    64
  9
$PINSBASE
 10
0.0
 20
0.0
 30
0.0
  9
$PLIMCHECK
 70
     0
  9
$PEXTMIN
 10
1.000000000000000E+20
 20
1.000000000000000E+20
 30
1.000000000000000E+20
  9
$PEXTMAX
 10
-1.000000000000000E+20
 20
-1.000000000000000E+20
 30
-1.000000000000000E+20
  9
$PLIMMIN
 10
0.0
 20
0.0
  9
$PLIMMAX
 10
0.0
 20
0.0
  9
$UNITMODE
 70
     0
  9
$VISRETAIN
 70
     1
  9
$PLINEGEN
 70
     0
  9
$PSLTSCALE
 70
     1
  9
$TREEDEPTH
 70
  3020
  9
$CMLSTYLE
  2
Standard
  9
$CMLJUST
 70
     0
  9
$CMLSCALE
 40
20.0
  9
$PROXYGRAPHICS
 70
     1
  9
$MEASUREMENT
 70
     1
  9
$CELWEIGHT
370
    -1
  9
$ENDCAPS
280
     0
  9
$JOINSTYLE
280
     0
  9
$LWDISPLAY
290
     1
  9
$INSUNITS
 70
     4
  9
$HYPERLINKBASE
  1

  9
$STYLESHEET
  1

  9
$XEDIT
290
     1
  9
$CEPSNTYPE
380
     0
  9
$PSTYLEMODE
290
     1
  9
$FINGERPRINTGUID
  2
{55A5C91E-46DA-4D07-8F71-915FDB9B9346}
  9
$VERSIONGUID
  2
{FAEB1C32-E019-11D5-929B-00C0DF256EC4}
  9
$EXTNAMES
290
     1
  9
$PSVPSCALE
 40
0.0
  9
$OLESTARTUP
290
     0
  0
ENDSEC
  0
SECTION
  2
CLASSES
  0
CLASS
  1
ACDBDICTIONARYWDFLT
  2
AcDbDictionaryWithDefault
  3
ObjectDBX Classes
 90
        0
280
     0
281
     0
  0
CLASS
  1
VISUALSTYLE
  2
AcDbVisualStyle
  3
ObjectDBX Classes
 90
     4095
280
     0
281
     0
  0
CLASS
  1
MATERIAL
  2
AcDbMaterial
  3
ObjectDBX Classes
 90
     1153
280
     0
281
     0
  0
CLASS
  1
SCALE
  2
AcDbScale
  3
ObjectDBX Classes
 90
     1153
280
     0
281
     0
  0
CLASS
  1
SUN
  2
AcDbSun
  3
SCENEOE
 90
     1153
280
     0
281
     0
  0
CLASS
  1
ACDBPLACEHOLDER
  2
AcDbPlaceHolder
  3
ObjectDBX Classes
 90
        0
280
     0
281
     0
  0
CLASS
  1
LAYOUT
  2
AcDbLayout
  3
ObjectDBX Classes
 90
        0
280
     0
281
     0
  0
CLASS
  1
TABLESTYLE
  2
AcDbTableStyle
  3
ObjectDBX Classes
 90
     4095
280
     0
281
     0
  0
CLASS
  1
MLEADERSTYLE
  2
AcDbMLeaderStyle
  3
ACDB_MLEADERSTYLE_CLASS
 90
     4095
280
     0
281
     0
  0
CLASS
  1
RASTERVARIABLES
  2
AcDbRasterVariables
  3
ISM
 90
        0
280
     0
281
     0
  0
CLASS
  1
DIMASSOC
  2
AcDbDimAssoc
  3
"AcDbDimAssoc|Product Desc:     AcDim ARX App For Dimension|Company:          Autodesk, Inc.|WEB Address:      www.autodesk.com"
 90
        0
280
     0
281
     0
  0
ENDSEC
  0
SECTION
  2
TABLES
  0
TABLE
  2
VPORT
  5
8
330
0
100
AcDbSymbolTable
 70
     1
  0
VPORT
  5
29
330
8
100
AcDbSymbolTableRecord
100
AcDbViewportTableRecord
  2
*Active
 70
     0
 10
0.0
 20
0.0
 11
1.0
 21
1.0
 12
43.97484158368977
 22
1.620502187246661
 13
0.0
 23
0.0
 14
10.0
 24
10.0
 15
10.0
 25
10.0
 16
0.0
 26
0.0
 36
1.0
 17
0.0
 27
0.0
 37
0.0
 40
157.1100323748561
 41
1.970186335403727
 42
50.0
 43
0.0
 44
0.0
 50
0.0
 51
0.0
 71
    16
 72
  2000
 73
     1
 74
     3
 75
     0
 76
     0
 77
     0
 78
     0
281
     0
 65
     1
110
0.0
120
0.0
130
0.0
111
1.0
121
0.0
131
0.0
112
0.0
122
1.0
132
0.0
 79
     0
146
0.0
  0
ENDTAB
  0
TABLE
  2
LTYPE
  5
5
330
0
100
AcDbSymbolTable
 70
     6
  0
LTYPE
  5
14
330
5
100
AcDbSymbolTableRecord
100
AcDbLinetypeTableRecord
  2
ByBlock
 70
     0
  3

 72
    65
 73
     0
 40
0.0
  0
LTYPE
  5
15
330
5
100
AcDbSymbolTableRecord
100
AcDbLinetypeTableRecord
  2
ByLayer
 70
     0
  3

 72
    65
 73
     0
 40
0.0
  0
LTYPE
  5
16
330
5
100
AcDbSymbolTableRecord
100
AcDbLinetypeTableRecord
  2
Continuous
 70
     0
  3
Solid line
 72
    65
 73
     0
 40
0.0
  0
LTYPE
  5
6A
330
5
100
AcDbSymbolTableRecord
100
AcDbLinetypeTableRecord
  2
HIDDEN
 70
     0
  3
Hidden __ __ __ __ __ __ __ __ __ __ __ __ __ __
 72
    65
 73
     2
 40
1.905
 49
1.27
 74
     0
 49
-0.635
 74
     0
  0
LTYPE
  5
6B
330
5
100
AcDbSymbolTableRecord
100
AcDbLinetypeTableRecord
  2
PHANTOM
 70
     0
  3
Phantom ______  __  __  ______  __  __  ______
 72
    65
 73
     6
 40
12.7
 49
6.35
 74
     0
 49
-1.27
 74
     0
 49
1.27
 74
     0
 49
-1.27
 74
     0
 49
1.27
 74
     0
 49
-1.27
 74
     0
  0
LTYPE
  5
6C
330
5
100
AcDbSymbolTableRecord
100
AcDbLinetypeTableRecord
  2
CENTER
 70
     0
  3
Center ____ _ ____ _ ____ _ ____ _ ____ _ ____
 72
    65
 73
     4
 40
10.16
 49
6.35
 74
     0
 49
-1.27
 74
     0
 49
1.27
 74
     0
 49
-1.27
 74
     0
  0
LTYPE
  5
6D
330
5
100
AcDbSymbolTableRecord
100
AcDbLinetypeTableRecord
  2
CENTERX2
 70
     0
  3
Center (2x) ________  __  ________  __  _____
 72
    65
 73
     4
 40
20.32
 49
12.7
 74
     0
 49
-2.54
 74
     0
 49
2.54
 74
     0
 49
-2.54
 74
     0
  0
LTYPE
  5
6E
330
5
100
AcDbSymbolTableRecord
100
AcDbLinetypeTableRecord
  2
DOT2
 70
     0
  3
Dot (.5x) ........................................
 72
    65
 73
     2
 40
0.635
 49
0.0
 74
     0
 49
-0.635
 74
     0
  0
ENDTAB
  0
TABLE
  2
LAYER
  5
2
330
0
100
AcDbSymbolTable
 70
    17
  0
LAYER
  5
10
330
2
100
AcDbSymbolTableRecord
100
AcDbLayerTableRecord
  2
0
 70
     0
 62
     7
  6
Continuous
370
    -3
390
F
  0
LAYER
  5
6F
330
2
100
AcDbSymbolTableRecord
100
AcDbLayerTableRecord
  2
FORMAT
 70
     0
 62
     2
  6
Continuous
370
    -3
390
F
  0
LAYER
  5
70
330
2
100
AcDbSymbolTableRecord
100
AcDbLayerTableRecord
  2
외형선
 70
     0
 62
   100
  6
Continuous
370
    30
390
F
  0
LAYER
  5
71
330
2
100
AcDbSymbolTableRecord
100
AcDbLayerTableRecord
  2
숨은선
 70
     0
 62
     2
  6
HIDDEN
370
    15
390
F
  0
LAYER
  5
72
330
2
100
AcDbSymbolTableRecord
100
AcDbLayerTableRecord
  2
중심선
 70
     0
 62
     1
  6
CENTERX2
370
    -3
390
F
  0
LAYER
  5
73
330
2
100
AcDbSymbolTableRecord
100
AcDbLayerTableRecord
  2
파단선
 70
     0
 62
     4
  6
Continuous
370
    -3
390
F
  0
LAYER
  5
74
330
2
100
AcDbSymbolTableRecord
100
AcDbLayerTableRecord
  2
해칭선
 70
     0
 62
     4
  6
Continuous
370
    -3
390
F
  0
LAYER
  5
75
330
2
100
AcDbSymbolTableRecord
100
AcDbLayerTableRecord
  2
가는실선
 70
     0
 62
     4
  6
Continuous
370
    -3
390
F
  0
LAYER
  5
76
330
2
100
AcDbSymbolTableRecord
100
AcDbLayerTableRecord
  2
치수_보조선
 70
     0
 62
     4
  6
Continuous
370
    -3
390
F
  0
LAYER
  5
77
330
2
100
AcDbSymbolTableRecord
100
AcDbLayerTableRecord
  2
치수문자_일반주서
 70
     0
 62
     7
  6
Continuous
370
    15
390
F
  0
LAYER
  5
78
330
2
100
AcDbSymbolTableRecord
100
AcDbLayerTableRecord
  2
개별주서
 70
     0
 62
   100
  6
Continuous
370
    30
390
F
  0
LAYER
  5
79
330
2
100
AcDbSymbolTableRecord
100
AcDbLayerTableRecord
  2
중간선
 70
     0
 62
     2
  6
Continuous
370
    15
390
F
  0
LAYER
  5
7A
330
2
100
AcDbSymbolTableRecord
100
AcDbLayerTableRecord
  2
윤곽선
 70
     0
 62
     3
  6
Continuous
370
    40
390
F
  0
LAYER
  5
7B
330
2
100
AcDbSymbolTableRecord
100
AcDbLayerTableRecord
  2
중심마크
 70
     0
 62
   100
  6
Continuous
370
    30
390
F
  0
LAYER
  5
7C
330
2
100
AcDbSymbolTableRecord
100
AcDbLayerTableRecord
  2
가상선
 70
     0
 62
     4
  6
PHANTOM
370
    -3
390
F
  0
LAYER
  5
7D
330
2
100
AcDbSymbolTableRecord
100
AcDbLayerTableRecord
  2
특수지정선
 70
     0
 62
     5
  6
CENTERX2
370
    60
390
F
  0
LAYER
  5
13F
330
2
100
AcDbSymbolTableRecord
100
AcDbLayerTableRecord
  2
Defpoints
 70
     0
 62
     7
  6
Continuous
290
     0
370
    -3
390
F
  0
ENDTAB
  0
TABLE
  2
STYLE
  5
3
330
0
100
AcDbSymbolTable
 70
     2
  0
STYLE
  5
11
330
3
100
AcDbSymbolTableRecord
100
AcDbTextStyleTableRecord
  2
Standard
 70
     0
 40
0.0
 41
1.0
 50
0.0
 71
     0
 42
3.5
  3
txt
  4

  0
STYLE
  5
93
330
3
100
AcDbSymbolTableRecord
100
AcDbTextStyleTableRecord
  2
SLDTEXTSTYLE0
 70
     0
 40
0.0
 41
0.75
 50
0.0
 71
     0
 42
3.5
  3
TXT
  4

  0
ENDTAB
  0
TABLE
  2
VIEW
  5
6
330
0
100
AcDbSymbolTable
 70
     0
  0
ENDTAB
  0
TABLE
  2
UCS
  5
7
330
0
100
AcDbSymbolTable
 70
     0
  0
ENDTAB
  0
TABLE
  2
APPID
  5
9
330
0
100
AcDbSymbolTable
 70
     3
  0
APPID
  5
12
330
9
100
AcDbSymbolTableRecord
100
AcDbRegAppTableRecord
  2
ACAD
 70
     0
  0
APPID
  5
151
330
9
100
AcDbSymbolTableRecord
100
AcDbRegAppTableRecord
  2
ACAD_DSTYLE_DIMRADIAL_EXTENSION
 70
     0
  0
APPID
  5
15F
330
9
100
AcDbSymbolTableRecord
100
AcDbRegAppTableRecord
  2
PE_DIMMEASUREMENT
 70
     0
  0
ENDTAB
  0
TABLE
  2
DIMSTYLE
  5
A
330
0
100
AcDbSymbolTable
 70
     4
100
AcDbDimStyleTable
  0
DIMSTYLE
105
27
330
A
100
AcDbSymbolTableRecord
100
AcDbDimStyleTableRecord
  2
ISO-25
 70
     0
 41
2.5
 42
0.625
 43
3.75
 44
1.25
 73
     0
 74
     0
 77
     1
 78
     8
140
2.5
141
2.5
143
0.03937007874016
147
0.625
171
     3
172
     1
178
     0
271
     2
272
     2
274
     3
278
    44
283
     0
284
     8
340
11
  0
DIMSTYLE
105
D3
102
{ACAD_REACTORS
330
D2
330
152
330
140
102
}
330
A
100
AcDbSymbolTableRecord
100
AcDbDimStyleTableRecord
  2
SLDDIMSTYLE0
 70
     0
 41
3.302
 44
0.0
 45
0.000000001
 73
     0
 74
     0
 77
     1
 78
    12
 79
     3
140
3.5
143
0.0393700787401575
147
0.875
148
0.000000001
170
     1
173
     1
178
     0
271
     2
272
     2
276
     2
284
    12
340
93
  0
DIMSTYLE
105
E7
102
{ACAD_REACTORS
330
E6
102
}
330
A
100
AcDbSymbolTableRecord
100
AcDbDimStyleTableRecord
  2
SLDDIMSTYLE1
 70
     0
 41
3.302
 44
0.0
 45
0.000000001
 73
     0
 74
     0
 77
     1
 78
     4
 79
     1
140
3.5
143
0.0393700787401575
147
0.875
148
0.000000001
170
     1
173
     1
178
     0
271
     2
272
     2
276
     2
284
    12
340
93
  0
DIMSTYLE
105
FB
102
{ACAD_REACTORS
330
FA
102
}
330
A
100
AcDbSymbolTableRecord
100
AcDbDimStyleTableRecord
  2
SLDDIMSTYLE2
 70
     0
 41
3.302
 44
0.0
 45
0.000000001
 73
     0
 74
     0
 77
     1
 78
    12
 79
     3
140
3.5
143
0.0393700787401575
147
0.875
148
0.000000001
170
     1
172
     1
173
     1
178
     0
271
     2
272
     2
276
     2
284
    12
289
     0
340
93
  0
ENDTAB
  0
TABLE
  2
BLOCK_RECORD
  5
1
330
0
100
AcDbSymbolTable
 70
     8
  0
BLOCK_RECORD
  5
1F
330
1
100
AcDbSymbolTableRecord
100
AcDbBlockTableRecord
  2
*Model_Space
340
22
  0
BLOCK_RECORD
  5
1B
330
1
100
AcDbSymbolTableRecord
100
AcDbBlockTableRecord
  2
*Paper_Space
340
1E
  0
BLOCK_RECORD
  5
23
330
1
100
AcDbSymbolTableRecord
100
AcDbBlockTableRecord
  2
*Paper_Space0
340
26
  0
BLOCK_RECORD
  5
7E
330
1
100
AcDbSymbolTableRecord
100
AcDbBlockTableRecord
  2
블럭10
340
0
102
{BLKREFS
331
CA
102
}
  0
BLOCK_RECORD
  5
D4
330
1
100
AcDbSymbolTableRecord
100
AcDbBlockTableRecord
  2
_D
340
0
  0
BLOCK_RECORD
  5
E8
330
1
100
AcDbSymbolTableRecord
100
AcDbBlockTableRecord
  2
_D_1
340
0
  0
BLOCK_RECORD
  5
FC
330
1
100
AcDbSymbolTableRecord
100
AcDbBlockTableRecord
  2
_D_2
340
0
  0
BLOCK_RECORD
  5
10F
330
1
100
AcDbSymbolTableRecord
100
AcDbBlockTableRecord
  2
SW_DOWELSYMBOL_0
340
0
102
{BLKREFS
331
115
102
}
  0
BLOCK_RECORD
  5
143
330
1
100
AcDbSymbolTableRecord
100
AcDbBlockTableRecord
  2
*D6
340
0
  0
BLOCK_RECORD
  5
155
330
1
100
AcDbSymbolTableRecord
100
AcDbBlockTableRecord
  2
*D7
340
0
  0
ENDTAB
  0
ENDSEC
  0
SECTION
  2
BLOCKS
  0
BLOCK
  5
20
330
1F
100
AcDbEntity
  8
0
100
AcDbBlockBegin
  2
*Model_Space
 70
     0
 10
0.0
 20
0.0
 30
0.0
  3
*Model_Space
  1
*Model_Space
  0
ENDBLK
  5
21
330
1F
100
AcDbEntity
  8
0
100
AcDbBlockEnd
  0
BLOCK
  5
1C
330
1B
100
AcDbEntity
 67
     1
  8
0
100
AcDbBlockBegin
  2
*Paper_Space
 70
     0
 10
0.0
 20
0.0
 30
0.0
  3
*Paper_Space
  1
*Paper_Space
  0
ENDBLK
  5
1D
330
1B
100
AcDbEntity
 67
     1
  8
0
100
AcDbBlockEnd
  0
BLOCK
  5
24
330
23
100
AcDbEntity
  8
0
100
AcDbBlockBegin
  2
*Paper_Space0
 70
     0
 10
0.0
 20
0.0
 30
0.0
  3
*Paper_Space0
  1
*Paper_Space0
  0
ENDBLK
  5
25
330
23
100
AcDbEntity
  8
0
100
AcDbBlockEnd
  0
BLOCK
  5
7F
330
7E
100
AcDbEntity
  8
0
100
AcDbBlockBegin
  2
블럭10
 70
     2
 10
0.0
 20
0.0
 30
0.0
  3
블럭10
  1
블럭10
  0
ELLIPSE
  5
81
330
7E
100
AcDbEntity
  8
중심선
100
AcDbEllipse
 10
20.54032771741204
 20
12.0471743016438
 30
0.0
 11
6.600054785286829
 21
-1.261213355974178E-13
 31
0.0
210
0.0
220
0.0
230
1.0
 40
0.636358354079598
 41
0.9219305317359503
 42
6.513795318482858
  0
ELLIPSE
  5
82
330
7E
100
AcDbEntity
  8
중심선
100
AcDbEllipse
 10
20.54032771746488
 20
12.04717430159265
 30
0.0
 11
3.960054785062283
 21
1.540847449632565E-10
 31
0.0
210
0.0
220
0.0
230
1.0
 40
0.3939339440162632
 41
1.131841032648279
 42
5.62031148352944
  0
LINE
  5
83
330
7E
100
AcDbEntity
  8
중심선
100
AcDbLine
 10
2.268634060543552
 20
16.24717430164393
 30
0.0
 11
5.714909304380834
 21
16.24717430164393
 31
0.0
  0
LINE
  5
84
330
7E
100
AcDbEntity
  8
중심선
100
AcDbLine
 10
5.245725140726316
 20
7.84717430164391
 30
0.0
 11
8.692000384563599
 21
7.84717430164391
 31
0.0
  0
LINE
  5
85
330
7E
100
AcDbEntity
  8
중심선
100
AcDbLine
 10
15.74043728645272
 20
16.24717430164393
 30
0.0
 11
8.692000384563599
 21
7.84717430164391
 31
0.0
  0
LINE
  5
86
330
7E
100
AcDbEntity
  8
중심선
100
AcDbLine
 10
0.1404042013395286
 20
13.71084872107135
 30
0.0
 11
3.58671253028996
 21
13.71088815037384
 31
0.0
  0
LINE
  5
87
330
7E
100
AcDbEntity
  8
중심선
100
AcDbLine
 10
2.750260043222114
 20
10.84717430164391
 30
0.0
 11
6.196535287059397
 21
10.84717430164391
 31
0.0
  0
LINE
  5
88
330
7E
100
AcDbEntity
  8
중심선
100
AcDbLine
 10
12.29416204261559
 20
16.24717430164393
 30
0.0
 11
5.245725140726316
 21
7.84717430164391
 31
0.0
  0
LINE
  5
89
330
7E
100
AcDbEntity
  8
중심선
100
AcDbLine
 10
10.72767329541681
 20
16.24717430164393
 30
0.0
 11
6.196535287059397
 21
10.84717430164391
 31
0.0
  0
LINE
  5
8A
330
7E
100
AcDbEntity
  8
중심선
100
AcDbLine
 10
7.28139805157953
 20
16.24717430164393
 30
0.0
 11
2.750260043222114
 21
10.84717430164391
 31
0.0
  0
LINE
  5
8B
330
7E
100
AcDbEntity
  8
중심선
100
AcDbLine
 10
5.714909304380834
 20
16.24717430164393
 30
0.0
 11
3.58671253028996
 21
13.71088815037384
 31
0.0
  0
LINE
  5
8C
330
7E
100
AcDbEntity
  8
중심선
100
AcDbLine
 10
2.268634060543552
 20
16.24717430164393
 30
0.0
 11
0.1404042013395286
 21
13.71084872107135
 31
0.0
  0
LINE
  5
8D
330
7E
100
AcDbEntity
  8
중심선
100
AcDbLine
 10
7.28139805157953
 20
16.24717430164393
 30
0.0
 11
10.72767329541681
 21
16.24717430164393
 31
0.0
  0
LINE
  5
8E
330
7E
100
AcDbEntity
  8
중심선
100
AcDbLine
 10
12.29416204261559
 20
16.24717430164393
 30
0.0
 11
15.74043728645272
 21
16.24717430164393
 31
0.0
  0
LINE
  5
8F
330
7E
100
AcDbEntity
  8
중심선
100
AcDbLine
 10
19.22036997980202
 20
11.08717430171403
 30
0.0
 11
23.66174974927406
 21
11.08717430171406
 31
0.0
  0
LINE
  5
90
330
7E
100
AcDbEntity
  8
중심선
100
AcDbLine
 10
19.22039502424796
 20
13.00717430171391
 30
0.0
 11
19.22036997980202
 21
11.08717430171403
 31
0.0
  0
LINE
  5
91
330
7E
100
AcDbEntity
  8
중심선
100
AcDbLine
 10
19.22039502424796
 20
13.00717430171391
 30
0.0
 11
26.96566020931264
 21
13.00717430171391
 31
0.0
  0
LINE
  5
92
330
7E
100
AcDbEntity
  8
중심선
100
AcDbLine
 10
22.22332737316547
 20
13.45928029700563
 30
0.0
 11
24.52862924686651
 21
15.39360700705356
 31
0.0
  0
ATTDEF
  5
94
330
7E
100
AcDbEntity
  8
FORMAT
 62
     2
100
AcDbText
 10
-9.18129528874128
 20
2.075366912832191
 30
0.0
 40
4.233333333333333
  1
E5984904 [ 3 FLUTE ]
 41
0.75
  7
SLDTEXTSTYLE0
 11
-9.18129528874128
 21
-0.0412997538344756
 31
0.0
100
AcDbAttributeDefinition
  3

  2
AUTOATTR0
 70
     0
 74
     1
  0
ENDBLK
  5
80
330
7E
100
AcDbEntity
  8
0
100
AcDbBlockEnd
  0
BLOCK
  5
D5
330
D4
100
AcDbEntity
  8
0
100
AcDbBlockBegin
  2
_D
 70
     0
 10
0.0
 20
0.0
 30
0.0
  3
_D
  1
_D
  0
LINE
  5
D7
330
D4
100
AcDbEntity
  8
치수문자_일반주서
 62
     0
370
    -2
100
AcDbLine
 10
94.54999999999998
 20
12.7625
 30
0.0
 11
94.54999999999998
 21
33.31773873834311
 31
0.0
  0
LINE
  5
D8
330
D4
100
AcDbEntity
  8
치수문자_일반주서
 62
     0
370
    -2
100
AcDbLine
 10
11.99999999999887
 20
11.0829886203121
 30
0.0
 11
11.99999999999887
 21
33.31773873834311
 31
0.0
  0
LINE
  5
D9
330
D4
100
AcDbEntity
  8
치수문자_일반주서
 62
     0
370
    -2
100
AcDbLine
 10
91.24799999999999
 20
33.31773873834311
 30
0.0
 11
15.30199999999887
 21
33.31773873834311
 31
0.0
  0
SOLID
  5
DA
330
D4
100
AcDbEntity
  8
치수문자_일반주서
 62
     0
100
AcDbTrace
 10
91.24799999999999
 20
32.76740540500978
 30
0.0
 11
91.24799999999999
 21
33.86807207167644
 31
0.0
 12
94.54999999999998
 22
33.31773873834311
 32
0.0
 13
94.54999999999998
 23
33.31773873834311
 33
0.0
  0
SOLID
  5
DB
330
D4
100
AcDbEntity
  8
치수문자_일반주서
 62
     0
100
AcDbTrace
 10
15.30199999999887
 20
33.86807207167644
 30
0.0
 11
15.30199999999887
 21
32.76740540500978
 31
0.0
 12
11.99999999999887
 22
33.31773873834311
 32
0.0
 13
11.99999999999887
 23
33.31773873834311
 33
0.0
  0
MTEXT
  5
DC
330
D4
100
AcDbEntity
  8
치수문자_일반주서
 62
     0
100
AcDbMText
 10
53.27499999999999
 20
37.69273873834311
 30
0.0
 40
3.5
 41
0.0
 71
     2
 72
     1
  1
\A1;82.55 [3 1/4]
  7
SLDTEXTSTYLE0
 73
     1
 44
1.0
  0
POINT
  5
DD
330
D4
100
AcDbEntity
  8
Defpoints
 62
     0
100
AcDbPoint
 10
94.54999999999998
 20
12.7
 30
0.0
  0
POINT
  5
DE
330
D4
100
AcDbEntity
  8
Defpoints
 62
     0
100
AcDbPoint
 10
11.99999999999887
 20
11.0204886203121
 30
0.0
  0
POINT
  5
DF
330
D4
100
AcDbEntity
  8
Defpoints
 62
     0
100
AcDbPoint
 10
11.99999999999887
 20
33.31773873834311
 30
0.0
  0
ENDBLK
  5
D6
330
D4
100
AcDbEntity
  8
0
100
AcDbBlockEnd
  0
BLOCK
  5
E9
330
E8
100
AcDbEntity
  8
0
100
AcDbBlockBegin
  2
_D_1
 70
     0
 10
0.0
 20
0.0
 30
0.0
  3
_D_1
  1
_D_1
  0
LINE
  5
EB
330
E8
100
AcDbEntity
  8
치수문자_일반주서
 62
     0
370
    -2
100
AcDbLine
 10
94.54999999999998
 20
12.7625
 30
0.0
 11
94.55
 21
60.3235977822756
 31
0.0
  0
LINE
  5
EC
330
E8
100
AcDbEntity
  8
치수문자_일반주서
 62
     0
370
    -2
100
AcDbLine
 10
-57.85000000000004
 20
12.26249999999999
 30
0.0
 11
-57.85000000000002
 21
60.3235977822756
 31
0.0
  0
LINE
  5
ED
330
E8
100
AcDbEntity
  8
치수문자_일반주서
 62
     0
370
    -2
100
AcDbLine
 10
91.24799999999999
 20
60.3235977822756
 30
0.0
 11
-54.54800000000002
 21
60.3235977822756
 31
0.0
  0
SOLID
  5
EE
330
E8
100
AcDbEntity
  8
치수문자_일반주서
 62
     0
100
AcDbTrace
 10
91.24799999999999
 20
59.77326444894226
 30
0.0
 11
91.24799999999999
 21
60.87393111560893
 31
0.0
 12
94.55
 22
60.3235977822756
 32
0.0
 13
94.55
 23
60.3235977822756
 33
0.0
  0
SOLID
  5
EF
330
E8
100
AcDbEntity
  8
치수문자_일반주서
 62
     0
100
AcDbTrace
 10
-54.54800000000002
 20
60.87393111560893
 30
0.0
 11
-54.54800000000002
 21
59.77326444894226
 31
0.0
 12
-57.85000000000002
 22
60.3235977822756
 32
0.0
 13
-57.85000000000002
 23
60.3235977822756
 33
0.0
  0
MTEXT
  5
F0
330
E8
100
AcDbEntity
  8
치수문자_일반주서
 62
     0
100
AcDbMText
 10
17.74141452505225
 20
64.6985977822756
 30
0.0
 40
3.5
 41
0.0
 71
     2
 72
     1
  1
\A1;152.40 [6]
  7
SLDTEXTSTYLE0
 73
     1
 44
1.0
  0
POINT
  5
F1
330
E8
100
AcDbEntity
  8
Defpoints
 62
     0
100
AcDbPoint
 10
94.54999999999998
 20
12.7
 30
0.0
  0
POINT
  5
F2
330
E8
100
AcDbEntity
  8
Defpoints
 62
     0
100
AcDbPoint
 10
-57.85000000000004
 20
12.19999999999999
 30
0.0
  0
POINT
  5
F3
330
E8
100
AcDbEntity
  8
Defpoints
 62
     0
100
AcDbPoint
 10
-57.85000000000004
 20
60.3235977822756
 30
0.0
  0
ENDBLK
  5
EA
330
E8
100
AcDbEntity
  8
0
100
AcDbBlockEnd
  0
BLOCK
  5
FD
330
FC
100
AcDbEntity
  8
0
100
AcDbBlockBegin
  2
_D_2
 70
     0
 10
0.0
 20
0.0
 30
0.0
  3
_D_2
  1
_D_2
  0
LINE
  5
FF
330
FC
100
AcDbEntity
  8
치수문자_일반주서
 62
     0
370
    -2
100
AcDbLine
 10
-57.41250000000004
 20
12.7
 30
0.0
 11
-70.85000000000008
 21
12.69999999999995
 31
0.0
  0
LINE
  5
100
330
FC
100
AcDbEntity
  8
치수문자_일반주서
 62
     0
370
    -2
100
AcDbLine
 10
-57.41250000000004
 20
-12.7
 30
0.0
 11
-70.85
 21
-12.70000000000005
 31
0.0
  0
LINE
  5
101
330
FC
100
AcDbEntity
  8
치수문자_일반주서
 62
     0
370
    -2
100
AcDbLine
 10
-70.85000000000007
 20
9.397999999999948
 30
0.0
 11
-70.85000000000001
 21
-9.398000000000051
 31
0.0
  0
SOLID
  5
102
330
FC
100
AcDbEntity
  8
치수문자_일반주서
 62
     0
100
AcDbTrace
 10
-70.29966666666674
 20
9.39799999999995
 30
0.0
 11
-71.40033333333339
 21
9.397999999999946
 31
0.0
 12
-70.85000000000008
 22
12.69999999999995
 32
0.0
 13
-70.85000000000008
 23
12.69999999999995
 33
0.0
  0
SOLID
  5
103
330
FC
100
AcDbEntity
  8
치수문자_일반주서
 62
     0
100
AcDbTrace
 10
-71.40033333333334
 20
-9.398000000000053
 30
0.0
 11
-70.29966666666668
 21
-9.39800000000005
 31
0.0
 12
-70.85
 22
-12.70000000000005
 32
0.0
 13
-70.85
 23
-12.70000000000005
 33
0.0
  0
MTEXT
  5
104
330
FC
100
AcDbEntity
  8
치수문자_일반주서
 62
     0
100
AcDbMText
 10
-75.22500000000004
 20
-0.0186012500122315
 30
0.0
 40
3.5
 41
0.0
 71
     2
 72
     1
  1
\A1;%%c25.4 [1]
  7
SLDTEXTSTYLE0
 11
-3.356894814614647E-15
 21
1.0
 31
0.0
 73
     1
 44
1.0
  0
POINT
  5
105
330
FC
100
AcDbEntity
  8
Defpoints
 62
     0
100
AcDbPoint
 10
-57.35000000000004
 20
12.7
 30
0.0
  0
POINT
  5
106
330
FC
100
AcDbEntity
  8
Defpoints
 62
     0
100
AcDbPoint
 10
-57.35000000000004
 20
-12.7
 30
0.0
  0
POINT
  5
107
330
FC
100
AcDbEntity
  8
Defpoints
 62
     0
100
AcDbPoint
 10
-70.85
 20
-12.70000000000005
 30
0.0
  0
ENDBLK
  5
FE
330
FC
100
AcDbEntity
  8
0
100
AcDbBlockEnd
  0
BLOCK
  5
110
330
10F
100
AcDbEntity
  8
0
100
AcDbBlockBegin
  2
SW_DOWELSYMBOL_0
 70
     0
 10
0.0
 20
0.0
 30
0.0
  3
SW_DOWELSYMBOL_0
  1
SW_DOWELSYMBOL_0
  0
CIRCLE
  5
112
330
10F
100
AcDbEntity
  8
외형선
 62
     0
100
AcDbCircle
 10
0.0
 20
0.0
 30
0.0
 40
3.000000000000008
  0
HATCH
  5
113
330
10F
100
AcDbEntity
  8
0
  6
Continuous
 62
     0
370
    30
100
AcDbHatch
 10
0.0
 20
0.0
 30
0.0
210
0.0
220
0.0
230
1.0
  2
SOLID
 70
     1
 71
     0
 91
        1
 92
        0
 93
        3
 72
     2
 10
0.0
 20
0.0
 40
3.000000000000008
 50
0.0
 51
90.0
 73
     1
 72
     1
 10
0.0
 20
3.000000000000008
 11
0.0
 21
0.0
 72
     1
 10
0.0
 20
0.0
 11
3.000000000000008
 21
0.0
 97
        0
 75
     0
 76
     1
 98
        1
 10
0.0
 20
0.0
  0
HATCH
  5
114
330
10F
100
AcDbEntity
  8
0
  6
Continuous
 62
     0
370
    30
100
AcDbHatch
 10
0.0
 20
0.0
 30
0.0
210
0.0
220
0.0
230
1.0
  2
SOLID
 70
     1
 71
     0
 91
        1
 92
        0
 93
        3
 72
     2
 10
0.0
 20
0.0
 40
3.000000000000008
 50
180.0
 51
270.0000000000008
 73
     1
 72
     1
 10
0.0
 20
-3.000000000000008
 11
0.0
 21
0.0
 72
     1
 10
0.0
 20
0.0
 11
-3.000000000000008
 21
0.0
 97
        0
 75
     0
 76
     1
 98
        1
 10
0.0
 20
0.0
  0
ENDBLK
  5
111
330
10F
100
AcDbEntity
  8
0
100
AcDbBlockEnd
  0
BLOCK
  5
144
330
143
100
AcDbEntity
  8
0
100
AcDbBlockBegin
  2
*D6
 70
     1
 10
0.0
 20
0.0
 30
0.0
  3
*D6
  1
*D6
  0
LINE
  5
146
330
143
100
AcDbEntity
  8
치수문자_일반주서
 62
     0
370
    -2
100
AcDbLine
 10
94.6125
 20
-12.7
 30
0.0
 11
110.2797190164048
 21
-12.7
 31
0.0
  0
LINE
  5
147
330
143
100
AcDbEntity
  8
치수문자_일반주서
 62
     0
370
    -2
100
AcDbLine
 10
94.61249999999998
 20
12.7
 30
0.0
 11
110.2797190164048
 21
12.7
 31
0.0
  0
LINE
  5
148
330
143
100
AcDbEntity
  8
치수문자_일반주서
 62
     0
370
    -2
100
AcDbLine
 10
110.2797190164048
 20
-9.398000000000003
 30
0.0
 11
110.2797190164048
 21
9.397999999999996
 31
0.0
  0
SOLID
  5
149
330
143
100
AcDbEntity
  8
치수문자_일반주서
 62
     0
100
AcDbTrace
 10
109.7293856830715
 20
-9.398000000000003
 30
0.0
 11
110.8300523497382
 21
-9.398000000000003
 31
0.0
 12
110.2797190164048
 22
-12.7
 32
0.0
 13
110.2797190164048
 23
-12.7
 33
0.0
  0
SOLID
  5
14A
330
143
100
AcDbEntity
  8
치수문자_일반주서
 62
     0
100
AcDbTrace
 10
110.8300523497382
 20
9.397999999999996
 30
0.0
 11
109.7293856830715
 21
9.397999999999996
 31
0.0
 12
110.2797190164048
 22
12.7
 32
0.0
 13
110.2797190164048
 23
12.7
 33
0.0
  0
MTEXT
  5
14B
330
143
100
AcDbEntity
  8
치수문자_일반주서
 62
     0
100
AcDbMText
 10
107.6547190164048
 20
-0.0000000000000036
 30
0.0
 40
3.5
 41
0.0
 71
     5
 72
     1
  1
\A1;{Ø25.4 [1]}
  7
SLDTEXTSTYLE0
 11
0.0
 21
1.0
 31
0.0
 73
     1
 44
1.0
  0
POINT
  5
14C
330
143
100
AcDbEntity
  8
Defpoints
 62
     0
100
AcDbPoint
 10
94.55
 20
-12.7
 30
0.0
  0
POINT
  5
14D
330
143
100
AcDbEntity
  8
Defpoints
 62
     0
100
AcDbPoint
 10
94.54999999999998
 20
12.7
 30
0.0
  0
POINT
  5
14E
330
143
100
AcDbEntity
  8
Defpoints
 62
     0
100
AcDbPoint
 10
110.2797190164048
 20
12.7
 30
0.0
  0
ENDBLK
  5
145
330
143
100
AcDbEntity
  8
0
100
AcDbBlockEnd
  0
BLOCK
  5
156
330
155
100
AcDbEntity
  8
0
100
AcDbBlockBegin
  2
*D7
 70
     1
 10
0.0
 20
0.0
 30
0.0
  3
*D7
  1
*D7
  0
LINE
  5
158
330
155
100
AcDbEntity
  8
치수문자_일반주서
 62
     0
370
    -2
100
AcDbLine
 10
93.81825607481035
 20
-15.5644832173888
 30
0.0
 11
105.2361218470487
 21
-44.70976663009809
 31
0.0
  0
MTEXT
  5
159
330
155
100
AcDbEntity
  8
치수문자_일반주서
 62
     0
100
AcDbMText
 10
102.573552303474
 20
-30.71686312776419
 30
0.0
 40
3.5
 41
0.0
 71
     5
 72
     1
  1
\A1;R3.05 [R0.12]
  7
SLDTEXTSTYLE0
 11
0.3647647361906059
 21
-0.931099719273826
 31
0.0
 73
     1
 44
1.0
  0
SOLID
  5
15A
330
155
100
AcDbEntity
  8
치수문자_일반주서
 62
     0
100
AcDbTrace
 10
94.33067128698404
 20
-15.36374102423857
 30
0.0
 11
93.30584086263666
 21
-15.76522541053903
 31
0.0
 12
92.61380291590896
 22
-12.48999194434662
 32
0.0
 13
92.61380291590896
 23
-12.48999194434662
 33
0.0
  0
LINE
  5
15B
330
155
100
AcDbEntity
  8
치수문자_일반주서
 62
     0
100
AcDbLine
 10
91.41199999999999
 20
-9.652000000000001
 30
0.0
 11
91.592
 21
-9.652000000000001
 31
0.0
  0
LINE
  5
15C
330
155
100
AcDbEntity
  8
치수문자_일반주서
 62
     0
100
AcDbLine
 10
91.502
 20
-9.742
 30
0.0
 11
91.502
 21
-9.562000000000001
 31
0.0
  0
POINT
  5
15D
330
155
100
AcDbEntity
  8
Defpoints
 62
     0
100
AcDbPoint
 10
92.61380291590896
 20
-12.48999194434662
 30
0.0
  0
POINT
  5
15E
330
155
100
AcDbEntity
  8
Defpoints
 62
     0
100
AcDbPoint
 10
91.502
 20
-9.652000000000001
 30
0.0
  0
ENDBLK
  5
157
330
155
100
AcDbEntity
  8
0
100
AcDbBlockEnd
  0
ENDSEC
  0
SECTION
  2
ENTITIES
  0
LINE
  5
95
330
1F
100
AcDbEntity
  8
0
  6
Continuous
 62
     4
370
    15
100
AcDbLine
 10
8.950027258561068
 20
12.7
 30
0.0
 11
-57.35000000000004
 21
12.7
 31
0.0
  0
LINE
  5
96
330
1F
100
AcDbEntity
  8
0
  6
Continuous
 62
     4
370
    15
100
AcDbLine
 10
-57.35000000000004
 20
-12.7
 30
0.0
 11
12.0
 21
-12.7
 31
0.0
  0
LINE
  5
97
330
1F
100
AcDbEntity
  8
0
  6
Continuous
 62
     4
370
    15
100
AcDbLine
 10
-57.35000000000004
 20
12.69999999999999
 30
0.0
 11
-57.85000000000004
 21
12.19999999999999
 31
0.0
  0
LINE
  5
98
330
1F
100
AcDbEntity
  8
0
  6
Continuous
 62
     4
370
    15
100
AcDbLine
 10
-57.85000000000004
 20
-12.2
 30
0.0
 11
-57.35000000000004
 21
-12.7
 31
0.0
  0
LINE
  5
99
330
1F
100
AcDbEntity
  8
0
  6
Continuous
 62
     1
370
    15
100
AcDbLine
 10
75.8451023858437
 20
-12.7
 30
0.0
 11
86.78045829800172
 21
-12.7
 31
0.0
  0
LINE
  5
9A
330
1F
100
AcDbEntity
  8
0
  6
Continuous
 62
     1
370
    15
100
AcDbLine
 10
33.83366373852999
 20
12.7
 30
0.0
 11
22.89853091915141
 21
12.7
 31
0.0
  0
LINE
  5
9B
330
1F
100
AcDbEntity
  8
0
  6
Continuous
 62
     1
370
    15
100
AcDbLine
 10
40.54842869364597
 20
-12.7
 30
0.0
 11
51.48344443474835
 21
-12.7
 31
0.0
  0
LINE
  5
9C
330
1F
100
AcDbEntity
  8
0
  6
Continuous
 62
     1
370
    15
100
AcDbLine
 10
12.0
 20
-12.7
 30
0.0
 11
16.18548836192311
 21
-12.7
 31
0.0
  0
LINE
  5
9D
330
1F
100
AcDbEntity
  8
0
  6
Continuous
 62
     1
370
    15
100
AcDbLine
 10
69.13213967005954
 20
12.7
 30
0.0
 11
58.19628043673495
 21
12.7
 31
0.0
  0
LINE
  5
9E
330
1F
100
AcDbEntity
  8
0
  6
Continuous
 62
     1
370
    15
100
AcDbLine
 10
94.54999999999998
 20
9.652
 30
0.0
 11
94.54806868293437
 21
9.760487689838161
 31
0.0
  0
SPLINE
  5
A0
330
1F
100
AcDbEntity
  8
0
  6
Continuous
 62
     4
370
    15
100
AcDbSpline
210
0.0
220
0.0
230
1.0
 70
     8
 71
     3
 72
    14
 73
    10
 74
     0
 42
0.000000001
 43
0.00000001
 40
0.0
 40
0.0
 40
0.0
 40
0.0
 40
0.25
 40
0.25
 40
0.5
 40
0.5
 40
0.75
 40
0.75
 40
1.0
 40
1.0
 40
1.0
 40
1.0
 10
8.950027258561068
 20
-3.865490040216293
 30
0.0
 10
8.950027258561068
 20
-3.436184395183141
 30
0.0
 10
9.012317852748119
 20
-3.009821607732694
 30
0.0
 10
9.288514429187565
 20
-2.168635069131088
 30
0.0
 10
9.493752951198132
 20
-1.779060161659687
 30
0.0
 10
10.04678122202704
 20
-1.07056484694827
 30
0.0
 10
10.38007643521803
 20
-0.7714387693974318
 30
0.0
 10
11.14533010975474
 20
-0.2979960333827005
 30
0.0
 10
11.55772908845032
 20
-0.1342947738937526
 30
0.0
 10
11.99999999999887
 20
-0.0440643892990771
 30
0.0
  0
LINE
  5
A1
330
1F
100
AcDbEntity
  8
0
  6
Continuous
 62
     4
370
    15
100
AcDbLine
 10
8.950027258561068
 20
-3.865490040216293
 30
0.0
 11
8.950027258561068
 21
-10.54967601077296
 31
0.0
  0
SPLINE
  5
A2
330
1F
100
AcDbEntity
  8
0
  6
Continuous
 62
     4
370
    15
100
AcDbSpline
210
0.0
220
0.0
230
1.0
 70
     8
 71
     3
 72
    16
 73
    12
 74
     0
 42
0.000000001
 43
0.00000001
 40
0.0
 40
0.0
 40
0.0
 40
0.0
 40
0.2500000000000007
 40
0.2500000000000007
 40
0.5000000000000014
 40
0.5000000000000014
 40
0.6250000000000012
 40
0.6250000000000012
 40
0.750000000000001
 40
0.750000000000001
 40
1.0
 40
1.0
 40
1.0
 40
1.0
 10
10.47459103959767
 20
-11.9777050546633
 30
0.0
 10
10.22825280817771
 20
-11.91582489951933
 30
0.0
 10
10.00960599728715
 20
-11.8414953667286
 30
0.0
 10
9.625665013064987
 20
-11.66145948838032
 30
0.0
 10
9.460993408148665
 20
-11.55484842093268
 30
0.0
 10
9.267285996052626
 20
-11.37490527160324
 30
0.0
 10
9.210911892983901
 20
-11.31129091641899
 30
0.0
 10
9.114310188598962
 20
-11.17617478207991
 30
0.0
 10
9.074037133498027
 20
-11.10432625663309
 30
0.0
 10
8.979475740325485
 20
-10.88129379181655
 30
0.0
 10
8.950027258557743
 20
-10.72135508013987
 30
0.0
 10
8.950027258557668
 20
-10.54967601077348
 30
0.0
  0
SPLINE
  5
A3
330
1F
100
AcDbEntity
  8
0
  6
Continuous
 62
     4
370
    15
100
AcDbSpline
210
0.0
220
0.0
230
1.0
 70
     8
 71
     3
 72
     8
 73
     4
 74
     0
 42
0.000000001
 43
0.00000001
 40
0.0
 40
0.0
 40
0.0
 40
0.0
 40
1.0
 40
1.0
 40
1.0
 40
1.0
 10
12.0
 20
-12.31027742242318
 30
0.0
 10
11.49045605307981
 20
-12.21602090368251
 30
0.0
 10
10.98094803073478
 20
-12.10490191318253
 30
0.0
 10
10.47459103959767
 20
-11.9777050546633
 30
0.0
  0
LINE
  5
A4
330
1F
100
AcDbEntity
  8
0
  6
Continuous
 62
     4
370
    15
100
AcDbLine
 10
12.0
 20
-12.31027742241236
 30
0.0
 11
12.0
 21
-12.7
 31
0.0
  0
SPLINE
  5
A5
330
1F
100
AcDbEntity
  8
0
  6
Continuous
 62
     4
370
    15
100
AcDbSpline
210
0.0
220
0.0
230
1.0
 70
     8
 71
     3
 72
    14
 73
    10
 74
     0
 42
0.000000001
 43
0.00000001
 40
0.0
 40
0.0
 40
0.0
 40
0.0
 40
0.2499999999999998
 40
0.2499999999999998
 40
0.4999999999999999
 40
0.4999999999999999
 40
0.7499999999999999
 40
0.7499999999999999
 40
1.0
 40
1.0
 40
1.0
 40
1.0
 10
8.950027258561068
 20
12.40943295388483
 30
0.0
 10
8.950027258561068
 20
12.31357793551976
 30
0.0
 10
9.012317852748119
 20
12.19657383012127
 30
0.0
 10
9.288514429187565
 20
11.92768851883371
 30
0.0
 10
9.493752951198145
 20
11.78397944689972
 30
0.0
 10
10.04678122202705
 20
11.49900608221905
 30
0.0
 10
10.38007643521803
 20
11.36584980556748
 30
0.0
 10
11.14533010975474
 20
11.14640685530197
 30
0.0
 10
11.55772908845032
 20
11.06533268728242
 30
0.0
 10
11.99999999999887
 20
11.0204886203121
 30
0.0
  0
LINE
  5
A6
330
1F
100
AcDbEntity
  8
0
  6
Continuous
 62
     4
370
    15
100
AcDbLine
 10
8.950027258561068
 20
12.7
 30
0.0
 11
8.950027258561068
 21
11.39821550892082
 31
0.0
  0
SPLINE
  5
A7
330
1F
100
AcDbEntity
  8
0
  6
Continuous
 62
     4
370
    15
100
AcDbSpline
210
0.0
220
0.0
230
1.0
 70
     8
 71
     3
 72
    16
 73
    12
 74
     0
 42
0.000000001
 43
0.00000001
 40
0.0
 40
0.0
 40
0.0
 40
0.0
 40
0.2499999999999998
 40
0.2499999999999998
 40
0.4999999999999997
 40
0.4999999999999997
 40
0.6249999999999996
 40
0.6249999999999996
 40
0.7499999999999996
 40
0.7499999999999996
 40
1.0
 40
1.0
 40
1.0
 40
1.0
 10
10.47459103959768
 20
9.645139744936316
 30
0.0
 10
10.22825280817771
 20
9.76623550377564
 30
0.0
 10
10.00960599728715
 20
9.90120054037863
 30
0.0
 10
9.625665013064987
 20
10.19163977396069
 30
0.0
 10
9.460993408148667
 20
10.34783147270617
 30
0.0
 10
9.267285996052628
 20
10.58034554930226
 30
0.0
 10
9.2109118929839
 20
10.65808059901651
 30
0.0
 10
9.11431018859896
 20
10.81333110929643
 30
0.0
 10
9.074037133498019
 20
10.89115412908681
 30
0.0
 10
8.979475740325475
 20
11.11806431306281
 30
0.0
 10
8.950027258557745
 20
11.26222176304055
 30
0.0
 10
8.950027258557668
 20
11.39821550892041
 30
0.0
  0
SPLINE
  5
A8
330
1F
100
AcDbEntity
  8
0
  6
Continuous
 62
     4
370
    15
100
AcDbSpline
210
0.0
220
0.0
230
1.0
 70
     8
 71
     3
 72
     8
 73
     4
 74
     0
 42
0.000000001
 43
0.00000001
 40
0.0
 40
0.0
 40
0.0
 40
0.0
 40
1.0
 40
1.0
 40
1.0
 40
1.0
 10
12.0
 20
8.858895789285187
 30
0.0
 10
11.49045605307981
 20
9.133631845309331
 30
0.0
 10
10.98094803073478
 20
9.396223108115919
 30
0.0
 10
10.47459103959767
 20
9.645139744936317
 30
0.0
  0
LINE
  5
A9
330
1F
100
AcDbEntity
  8
0
  6
Continuous
 62
     4
370
    15
100
AcDbLine
 10
12.0
 20
8.858895789278614
 30
0.0
 11
12.0
 21
-0.0440643893008293
 31
0.0
  0
LINE
  5
AA
330
1F
100
AcDbEntity
  8
0
  6
Continuous
 62
     4
370
    15
100
AcDbLine
 10
-57.35000000000004
 20
12.69999999999998
 30
0.0
 11
-57.35000000000004
 21
-12.69999999999998
 31
0.0
  0
SPLINE
  5
AB
330
1F
100
AcDbEntity
  8
0
  6
Continuous
 62
     1
370
    15
100
AcDbSpline
210
0.0
220
0.0
230
1.0
 70
    24
 71
     3
 72
    22
 73
    18
 74
     0
 42
0.000000001
 43
0.00000001
 40
0.0
 40
0.0
 40
0.0
 40
0.0
 40
0.2499999999999993
 40
0.2499999999999993
 40
0.3749999999999991
 40
0.3749999999999991
 40
0.499999999999999
 40
0.499999999999999
 40
0.6249999999999993
 40
0.6249999999999993
 40
0.6874999999999994
 40
0.6874999999999994
 40
0.7499999999999996
 40
0.7499999999999996
 40
0.8749999999999998
 40
0.8749999999999998
 40
1.0
 40
1.0
 40
1.0
 40
1.0
 10
12.0
 20
-0.0440643893008293
 30
0.0
 10
12.0
 20
-0.1004511036024301
 30
0.0
 10
12.0
 20
-0.2548351264045083
 30
0.0
 10
12.0
 20
-0.6425747780704042
 30
0.0
 10
12.0
 20
-0.7988739624182728
 30
0.0
 10
12.0
 20
-1.166903638924474
 30
0.0
 10
12.0
 20
-1.375948785669997
 30
0.0
 10
12.0
 20
-1.845786022032369
 30
0.0
 10
12.0
 20
-2.10655210128626
 30
0.0
 10
12.0
 20
-2.539990062741043
 30
0.0
 10
12.0
 20
-2.692225059503409
 30
0.0
 10
12.0
 20
-3.006516624131618
 30
0.0
 10
12.0
 20
-3.168879110009416
 30
0.0
 10
12.0
 20
-3.671430819867743
 30
0.0
 10
12.0
 20
-4.027044990734401
 30
0.0
 10
12.0
 20
-4.77945059625993
 30
0.0
 10
12.0
 20
-5.178475129428085
 30
0.0
 10
12.0
 20
-5.592250137769958
 30
0.0
  0
LINE
  5
AC
330
1F
100
AcDbEntity
  8
0
  6
Continuous
 62
     4
370
    15
100
AcDbLine
 10
-57.85000000000004
 20
12.19999999999999
 30
0.0
 11
-57.85000000000004
 21
-12.2
 31
0.0
  0
SPLINE
  5
AD
330
1F
100
AcDbEntity
  8
0
  6
Continuous
 62
     4
370
    15
100
AcDbSpline
210
0.0
220
0.0
230
1.0
 70
    24
 71
     3
 72
     9
 73
     5
 74
     0
 42
0.000000001
 43
0.00000001
 40
0.0
 40
0.0
 40
0.0
 40
0.0
 40
0.698305898608808
 40
1.0
 40
1.0
 40
1.0
 40
1.0
 10
12.0
 20
11.02048862031297
 30
0.0
 10
12.0
 20
10.49377967570143
 30
0.0
 10
12.0
 20
9.73951289138688
 30
0.0
 10
12.0
 20
9.145343727056064
 30
0.0
 10
12.0
 20
8.966086394948926
 30
0.0
  0
SPLINE
  5
AE
330
1F
100
AcDbEntity
  8
0
  6
Continuous
 62
     4
370
    15
100
AcDbSpline
210
0.0
220
0.0
230
1.0
 70
    24
 71
     3
 72
    10
 73
     6
 74
     0
 42
0.000000001
 43
0.00000001
 40
0.0
 40
0.0
 40
0.0
 40
0.0
 40
0.5
 40
0.5
 40
1.0
 40
1.0
 40
1.0
 40
1.0
 10
12.0
 20
-5.592250137769958
 30
0.0
 10
12.0
 20
-6.580286495104166
 30
0.0
 10
12.0
 20
-7.666139769733301
 30
0.0
 10
12.0
 20
-9.94363059851451
 30
0.0
 10
12.0
 20
-11.13416541636974
 30
0.0
 10
12.0
 20
-12.31027742241236
 30
0.0
  0
SPLINE
  5
AF
330
1F
100
AcDbEntity
  8
0
  6
Continuous
 62
     1
370
    15
100
AcDbSpline
210
0.0
220
0.0
230
1.0
 70
     8
 71
     3
 72
    27
 73
    23
 74
     0
 42
0.000000001
 43
0.00000001
 40
0.0
 40
0.0
 40
0.0
 40
0.0
 40
0.0235009161730801
 40
0.075274601289711
 40
0.127063894059059
 40
0.1788593990127802
 40
0.2306377323428522
 40
0.282404753269296
 40
0.3341670490027222
 40
0.3859312214843996
 40
0.4377038668034212
 40
0.4894915546524636
 40
0.5412880410055898
 40
0.5930676585100367
 40
0.6448353964325073
 40
0.6955597568340055
 40
0.7462867753269051
 40
0.797025763582494
 40
0.8477855146680077
 40
0.898539471296354
 40
0.9492745396705198
 40
1.0
 40
1.0
 40
1.0
 40
1.0
 10
63.6651639727484
 20
-9.495280766116181
 30
0.0
 10
63.26046686918248
 20
-9.703576854090082
 30
0.0
 10
61.96420195382061
 20
-10.37075956547742
 30
0.0
 10
59.77597618178835
 20
-11.23254969946025
 30
0.0
 10
57.10019122937824
 20
-12.05415111613277
 30
0.0
 10
54.42413606921761
 20
-12.55911741114265
 30
0.0
 10
51.74889802029712
 20
-12.75201339863586
 30
0.0
 10
49.07438055165598
 20
-12.62332407804521
 30
0.0
 10
46.40019528712151
 20
-12.17759696637747
 30
0.0
 10
43.72587777526428
 20
-11.42568785328334
 30
0.0
 10
41.05099084087669
 20
-10.38650075369487
 30
0.0
 10
38.37527481200264
 20
-9.08612876524929
 30
0.0
 10
35.69917750437806
 20
-7.557514904345736
 30
0.0
 10
33.0238741983904
 20
-5.838641580782217
 30
0.0
 10
30.36715625113538
 20
-3.985646144532912
 30
0.0
 10
27.72879280974048
 20
-2.047623335900178
 30
0.0
 10
25.10805840040411
 20
-0.0731727147518021
 30
0.0
 10
22.48657040392371
 20
1.903005614736644
 30
0.0
 10
19.864098780299
 20
3.834009690325264
 30
0.0
 10
17.24187068139793
 20
5.668504190611809
 30
0.0
 10
14.62061970200033
 20
7.381540803840739
 30
0.0
 10
12.87348475097448
 20
8.366475217701726
 30
0.0
 10
11.99999999999934
 20
8.858895789285542
 30
0.0
  0
SPLINE
  5
B0
330
1F
100
AcDbEntity
  8
0
  6
Continuous
 62
     1
370
    15
100
AcDbSpline
210
0.0
220
0.0
230
1.0
 70
     8
 71
     3
 72
    32
 73
    28
 74
     0
 42
0.000000001
 43
0.00000001
 40
0.0
 40
0.0
 40
0.0
 40
0.0
 40
0.0410483280576872
 40
0.0821044311886344
 40
0.1231758191735585
 40
0.164251896180074
 40
0.2053111713784123
 40
0.2463607603414272
 40
0.2874081983095143
 40
0.3292999638103784
 40
0.3712013425700478
 40
0.413116372029584
 40
0.4550242815166308
 40
0.4969200182071548
 40
0.538808898462969
 40
0.5806962600065348
 40
0.6225874452960437
 40
0.6644877848692635
 40
0.7064020201555289
 40
0.7483112283847613
 40
0.7902078065058629
 40
0.832097068261433
 40
0.873984350184567
 40
0.9158749949817748
 40
0.9577743348751943
 40
0.9988565176301827
 40
1.0
 40
1.0
 40
1.0
 40
1.0
 10
12.0
 20
10.13598643618508
 30
0.0
 10
12.87348475097512
 20
10.5090343132645
 30
0.0
 10
14.62061970200091
 20
11.25520072741634
 30
0.0
 10
17.24187068139844
 20
12.0371819890274
 30
0.0
 10
19.86409878029938
 20
12.54605177634414
 30
0.0
 10
22.48657040392407
 20
12.74728368021202
 30
0.0
 10
25.1080584004042
 20
12.64199699811773
 30
0.0
 10
27.72879280974105
 20
12.23114520503117
 30
0.0
 10
30.36715625113374
 20
11.52030728794968
 30
0.0
 10
33.02387419839673
 20
10.5196909615021
 30
0.0
 10
35.69917750435432
 20
9.247723270510615
 30
0.0
 10
38.37527481209106
 20
7.743482867552508
 30
0.0
 10
41.05099084054676
 20
6.044380141533243
 30
0.0
 10
43.72587777649507
 20
4.193353600565461
 30
0.0
 10
46.40019528252881
 20
2.23705874740875
 30
0.0
 10
49.07438056879617
 20
0.2245579323458186
 30
0.0
 10
51.74889795631637
 20
-1.793655530188108
 30
0.0
 10
54.4241363080879
 20
-3.767006340686061
 30
0.0
 10
57.10019033762499
 20
-5.645369922995328
 30
0.0
 10
59.77597950895002
 20
-7.38202878158758
 30
0.0
 10
62.45093219924807
 20
-8.932894577182472
 30
0.0
 10
65.12528381012677
 20
-10.25978540931009
 30
0.0
 10
67.79945938984643
 20
-11.32608972833838
 30
0.0
 10
70.4739413300317
 20
-12.11768457943779
 30
0.0
 10
73.13138232239518
 20
-12.5645315241244
 30
0.0
 10
74.92206752146775
 20
-12.74815466097554
 30
0.0
 10
75.82076540540682
 20
-12.6972271158707
 30
0.0
 10
75.8451023858437
 20
-12.69584798425032
 30
0.0
  0
SPLINE
  5
B2
330
1F
100
AcDbEntity
  8
0
  6
Continuous
 62
     1
370
    15
100
AcDbSpline
210
0.0
220
0.0
230
1.0
 70
     8
 71
     3
 72
    29
 73
    25
 74
     0
 42
0.000000001
 43
0.00000001
 40
0.0
 40
0.0
 40
0.0
 40
0.0
 40
0.0454762955464571
 40
0.0909357566244664
 40
0.1363866806031601
 40
0.18183739817684
 40
0.2272962408461321
 40
0.2727715083925204
 40
0.3182540504106984
 40
0.3646412761966739
 40
0.411018875544805
 40
0.4573927518176004
 40
0.5037688199849333
 40
0.5501529881820209
 40
0.5965511393124685
 40
0.6429548559537387
 40
0.6893431884963539
 40
0.7357213862295303
 40
0.7820953506509926
 40
0.828470996455697
 40
0.8748542330956222
 40
0.9212509463741333
 40
0.9676555422534753
 40
1.0
 40
1.0
 40
1.0
 40
1.0
 10
91.502
 20
-12.7
 30
0.0
 10
90.62772785302039
 20
-12.7
 30
0.0
 10
88.87950719812875
 20
-12.7
 30
0.0
 10
86.25793410483809
 20
-12.74164515051642
 30
0.0
 10
83.63697785079896
 20
-12.53093860933203
 30
0.0
 10
81.01604171777939
 20
-12.01197522120684
 30
0.0
 10
78.39450228946751
 20
-11.20437975178897
 30
0.0
 10
75.77198877373642
 20
-10.12575346326527
 30
0.0
 10
73.13140265279533
 20
-8.793917229768622
 30
0.0
 10
70.47393583849583
 20
-7.23508842980783
 30
0.0
 10
67.79946086103283
 20
-5.484216830483465
 30
0.0
 10
65.12528341592879
 20
-3.595532571991928
 30
0.0
 10
62.4509323048574
 20
-1.616438178051987
 30
0.0
 10
59.7759794807797
 20
0.4034644543305158
 30
0.0
 10
57.10019034465589
 20
2.413220481440526
 30
0.0
 10
54.42413630814293
 20
4.362127313867862
 30
0.0
 10
51.74889794907104
 20
6.20164501828941
 30
0.0
 10
49.07438059771486
 20
7.884978765226451
 30
0.0
 10
46.40019517410599
 20
9.370282006999975
 30
0.0
 10
43.72587818131588
 20
10.61922358137498
 30
0.0
 10
41.0509893292393
 20
11.60444161335069
 30
0.0
 10
38.3752804545755
 20
12.28617551765026
 30
0.0
 10
35.96919032338198
 20
12.66075378118863
 30
0.0
 10
34.45541426686455
 20
12.66465265515285
 30
0.0
 10
33.83366373853002
 20
12.66625403267281
 30
0.0
  0
SPLINE
  5
B3
330
1F
100
AcDbEntity
  8
0
  6
Continuous
 62
     1
370
    15
100
AcDbSpline
210
0.0
220
0.0
230
1.0
 70
     8
 71
     3
 72
    25
 73
    21
 74
     0
 42
0.000000001
 43
0.00000001
 40
0.0
 40
0.0
 40
0.0
 40
0.0
 40
0.0084746144297901
 40
0.0672666311770271
 40
0.1260640148351231
 40
0.1848742472089514
 40
0.2437039832460322
 40
0.3025266634359462
 40
0.3613316163329159
 40
0.4201263001685507
 40
0.4789182051626099
 40
0.5377148301996982
 40
0.596523659448827
 40
0.6541855480839527
 40
0.7118382142841922
 40
0.7694700573423663
 40
0.8270915995611949
 40
0.884713403456315
 40
0.9423460305211204
 40
1.0
 40
1.0
 40
1.0
 40
1.0
 10
46.01475845197204
 20
9.510221385733034
 30
0.0
 10
46.14324635442881
 20
9.578848587455418
 30
0.0
 10
47.16310966701647
 20
10.12357197342371
 30
0.0
 10
49.07437630970861
 20
10.91689643092385
 30
0.0
 10
51.74889909835041
 20
11.83557867681667
 30
0.0
 10
54.42413600005085
 20
12.4345157375163
 30
0.0
 10
57.10019042721029
 20
12.72674213120214
 30
0.0
 10
59.77597945866771
 20
12.6974425364288
 30
0.0
 10
62.4509323107804
 20
12.34932291343319
 30
0.0
 10
65.12528341434192
 20
11.69067937403284
 30
0.0
 10
67.79946086145804
 20
10.73821208527193
 30
0.0
 10
70.47393583838179
 20
9.51579782727227
 30
0.0
 10
73.13140265282519
 20
8.063603194220114
 30
0.0
 10
75.77198877372854
 20
6.423666894593831
 30
0.0
 10
78.3945022894696
 20
4.639368487517823
 30
0.0
 10
81.0160417177788
 20
2.743168651358538
 30
0.0
 10
83.63697785079916
 20
0.7802659619920373
 30
0.0
 10
86.25793410483801
 20
-1.19915122911319
 30
0.0
 10
88.87950719812879
 20
-3.158491418011948
 30
0.0
 10
90.62772785302043
 20
-4.392050022803318
 30
0.0
 10
91.5020000000109
 20
-5.008943506375815
 30
0.0
  0
SPLINE
  5
B4
330
1F
100
AcDbEntity
  8
0
  6
Continuous
 62
     1
370
    15
100
AcDbSpline
210
0.0
220
0.0
230
1.0
 70
     8
 71
     3
 72
    18
 73
    14
 74
     0
 42
0.000000001
 43
0.00000001
 40
0.0
 40
0.0
 40
0.0
 40
0.0
 40
0.2499999999999957
 40
0.2499999999999957
 40
0.3749999999999962
 40
0.3749999999999962
 40
0.4999999999999968
 40
0.4999999999999968
 40
0.6249999999999973
 40
0.6249999999999973
 40
0.7499999999999979
 40
0.7499999999999979
 40
1.0
 40
1.0
 40
1.0
 40
1.0
 10
91.502
 20
-5.008943506368263
 30
0.0
 10
91.8847583906141
 20
-5.274653166406824
 30
0.0
 10
92.25229170114903
 20
-5.505220374500934
 30
0.0
 10
92.78762638030625
 20
-5.789771789264528
 30
0.0
 10
92.96121474151545
 20
-5.872959971768674
 30
0.0
 10
93.28833804129789
 20
-6.010780007964503
 30
0.0
 10
93.44347733830287
 20
-6.066273202916081
 30
0.0
 10
93.73476085242304
 20
-6.149490504191296
 30
0.0
 10
93.86884822718808
 20
-6.176388938763941
 30
0.0
 10
94.10377849182883
 20
-6.201424239783493
 30
0.0
 10
94.20602432066669
 20
-6.199952158389941
 30
0.0
 10
94.46038605385496
 20
-6.157211482121166
 30
0.0
 10
94.54999999999997
 20
-6.079702717448745
 30
0.0
 10
94.54999999999997
 20
-5.979614386372993
 30
0.0
  0
SPLINE
  5
B5
330
1F
100
AcDbEntity
  8
0
  6
Continuous
 62
     1
370
    15
100
AcDbSpline
210
0.0
220
0.0
230
1.0
 70
     8
 71
     3
 72
    11
 73
     7
 74
     0
 42
0.000000001
 43
0.00000001
 40
0.0
 40
0.0
 40
0.0
 40
0.0
 40
0.2345450391853412
 40
0.5846903192729423
 40
0.943418279899499
 40
1.0
 40
1.0
 40
1.0
 40
1.0
 10
92.52093485229045
 20
-5.640456448165869
 30
0.0
 10
92.36433704717112
 20
-5.677644159892103
 30
0.0
 10
91.97395905840324
 20
-5.770348295173599
 30
0.0
 10
91.27013495144517
 20
-6.056683739492065
 30
0.0
 10
90.68435418650893
 20
-6.341364659862987
 30
0.0
 10
90.36261420410091
 20
-6.516938085929202
 30
0.0
 10
90.31878040374768
 20
-6.540858179564807
 30
0.0
  0
SPLINE
  5
B6
330
1F
100
AcDbEntity
  8
0
  6
Continuous
 62
     1
370
    15
100
AcDbSpline
210
0.0
220
0.0
230
1.0
 70
     8
 71
     3
 72
     8
 73
     4
 74
     0
 42
0.000000001
 43
0.00000001
 40
0.0
 40
0.0
 40
0.0
 40
0.0
 40
1.0
 40
1.0
 40
1.0
 40
1.0
 10
94.54999999999998
 20
-7.424523816498303
 30
0.0
 10
93.09522549203028
 20
-7.324563569594247
 30
0.0
 10
91.68372878874534
 20
-7.034789775025959
 30
0.0
 10
90.3187804037477
 20
-6.540858179564774
 30
0.0
  0
LINE
  5
B7
330
1F
100
AcDbEntity
  8
0
  6
Continuous
 62
     1
370
    15
100
AcDbLine
 10
94.55
 20
-9.652000000000001
 30
0.0
 11
94.54999999999998
 21
-7.424523816498316
 31
0.0
  0
SPLINE
  5
B8
330
1F
100
AcDbEntity
  8
0
  6
Continuous
 62
     1
370
    15
100
AcDbSpline
210
0.0
220
0.0
230
1.0
 70
     8
 71
     3
 72
    24
 73
    20
 74
     0
 42
0.000000001
 43
0.00000001
 40
0.0
 40
0.0
 40
0.0
 40
0.0
 40
0.124999999999998
 40
0.124999999999998
 40
0.249999999999996
 40
0.249999999999996
 40
0.3124999999999966
 40
0.3124999999999966
 40
0.3749999999999972
 40
0.3749999999999972
 40
0.4999999999999977
 40
0.4999999999999977
 40
0.6249999999999982
 40
0.6249999999999982
 40
0.7499999999999988
 40
0.7499999999999988
 40
0.8749999999999993
 40
0.8749999999999993
 40
1.0
 40
1.0
 40
1.0
 40
1.0
 10
94.55
 20
1.390183173508011
 30
0.0
 10
94.54999999999997
 20
1.321842232262252
 30
0.0
 10
94.53082840009284
 20
1.269465924583339
 30
0.0
 10
94.44541999377324
 20
1.206900983234806
 30
0.0
 10
94.37936342119363
 20
1.198102029318867
 30
0.0
 10
94.24697558026656
 20
1.222458057131388
 30
0.0
 10
94.19658062630855
 20
1.236972150153492
 30
0.0
 10
94.08673201743989
 20
1.277761142551026
 30
0.0
 10
94.02746402721974
 20
1.303861684664315
 30
0.0
 10
93.83731052268718
 20
1.397868006457032
 30
0.0
 10
93.69300887935624
 20
1.482358258150094
 30
0.0
 10
93.38904291580451
 20
1.677035891427389
 30
0.0
 10
93.22600916794059
 20
1.789241241602618
 30
0.0
 10
92.89507531268637
 20
2.025262748107043
 30
0.0
 10
92.72588843417158
 20
2.149860470025846
 30
0.0
 10
92.37899524993573
 20
2.408110191033331
 30
0.0
 10
92.20314657885504
 20
2.540396354372404
 30
0.0
 10
91.85339709087408
 20
2.802280713826396
 30
0.0
 10
91.67822539012086
 20
2.932859435490836
 30
0.0
 10
91.50200000000002
 20
3.062058802360216
 30
0.0
  0
SPLINE
  5
B9
330
1F
100
AcDbEntity
  8
0
  6
Continuous
 62
     1
370
    15
100
AcDbSpline
210
0.0
220
0.0
230
1.0
 70
     8
 71
     3
 72
    16
 73
    12
 74
     0
 42
0.000000001
 43
0.00000001
 40
0.0
 40
0.0
 40
0.0
 40
0.0
 40
0.1172349849298472
 40
0.2344265716754091
 40
0.3515961503242778
 40
0.4687651968742058
 40
0.5859551894015975
 40
0.7031875242129348
 40
0.82043861214786
 40
0.9400219170457004
 40
0.9999999999999999
 40
0.9999999999999999
 40
0.9999999999999999
 40
0.9999999999999999
 10
91.50200000001087
 20
3.062058802352276
 30
0.0
 10
90.62772785339835
 20
3.694077712790704
 30
0.0
 10
88.87950719926249
 20
4.957881572165684
 30
0.0
 10
86.25793410030552
 20
6.714358923412923
 30
0.0
 10
83.63697786779261
 20
8.313726681703487
 30
0.0
 10
81.01604165433162
 20
9.711229921045758
 30
0.0
 10
78.39450252634718
 20
10.87353472672045
 30
0.0
 10
75.77198788927765
 20
11.7774339581257
 30
0.0
 10
73.13140598194245
 20
12.38473997410096
 30
0.0
 10
70.9181910078038
 20
12.6905588948222
 30
0.0
 10
69.57934753494801
 20
12.66767769069123
 30
0.0
 10
69.13213967005954
 20
12.6600347849648
 30
0.0
  0
SPLINE
  5
BA
330
1F
100
AcDbEntity
  8
0
  6
Continuous
 62
     1
370
    15
100
AcDbSpline
210
0.0
220
0.0
230
1.0
 70
     8
 71
     3
 72
    14
 73
    10
 74
     0
 42
0.000000001
 43
0.00000001
 40
0.0
 40
0.0
 40
0.0
 40
0.0
 40
0.0390313977136547
 40
0.1991517272480661
 40
0.3593098394553645
 40
0.519533489738197
 40
0.6797388497603629
 40
0.8398845888236469
 40
1.0
 40
1.0
 40
1.0
 40
1.0
 10
28.36761479641689
 20
-9.503783890835855
 30
0.0
 10
28.15468478011596
 20
-9.616176339537605
 30
0.0
 10
27.0682419926865
 20
-10.18964159058503
 30
0.0
 10
25.10806030047686
 20
-10.99485151719437
 30
0.0
 10
22.48656989452819
 20
-11.873661665222
 30
0.0
 10
19.86409891675222
 20
-12.44895423777088
 30
0.0
 10
17.24187064502705
 20
-12.72289935565019
 30
0.0
 10
14.62061971108962
 20
-12.70966843441938
 30
0.0
 10
12.87348475400405
 20
-12.44339935476179
 30
0.0
 10
11.99999999999934
 20
-12.31027742242306
 30
0.0
  0
SPLINE
  5
BB
330
1F
100
AcDbEntity
  8
0
  6
Continuous
 62
     4
370
    15
100
AcDbSpline
210
0.0
220
0.0
230
1.0
 70
    24
 71
     3
 72
    14
 73
    10
 74
     0
 42
0.000000001
 43
0.00000001
 40
0.0
 40
0.0
 40
0.0
 40
0.0
 40
0.1373759840707579
 40
0.2890097842462721
 40
0.4406435844217861
 40
0.5922773845973
 40
0.7439111847728139
 40
0.8955449849483279
 40
1.0
 40
1.0
 40
1.0
 40
1.0
 10
12.0
 20
-0.151264994971146
 30
0.0
 10
12.0
 20
-0.5259322567324815
 30
0.0
 10
12.0
 20
-1.314152302748766
 30
0.0
 10
12.0
 20
-2.853191235342733
 30
0.0
 10
12.0
 20
-4.643584421975699
 30
0.0
 10
12.0
 20
-6.611310058332515
 30
0.0
 10
12.0
 20
-8.696190321199003
 30
0.0
 10
12.0
 20
-10.619340861454
 30
0.0
 10
12.0
 20
-11.82038745871579
 30
0.0
 10
12.0
 20
-12.31027742241235
 30
0.0
  0
SPLINE
  5
BC
330
1F
100
AcDbEntity
  8
0
  6
Continuous
 62
     1
370
    15
100
AcDbSpline
210
0.0
220
0.0
230
1.0
 70
     8
 71
     3
 72
    18
 73
    14
 74
     0
 42
0.000000001
 43
0.00000001
 40
0.0
 40
0.0
 40
0.0
 40
0.0
 40
0.0917999145610131
 40
0.1836172171885989
 40
0.2754687026527473
 40
0.3673306745800924
 40
0.4591550711754295
 40
0.5509578056077218
 40
0.6427557295846328
 40
0.736441896007412
 40
0.8301495613895578
 40
0.9238877550085589
 40
1.0
 40
1.0
 40
1.0
 40
1.0
 10
12.0
 20
1.558758189958424
 30
0.0
 10
12.8734847509358
 20
0.9017115247788028
 30
0.0
 10
14.62061970188294
 20
-0.4125062585411018
 30
0.0
 10
17.24187068187049
 20
-2.384079682691501
 30
0.0
 10
19.86409877852841
 20
-4.295312237961478
 30
0.0
 10
22.48657041053531
 20
-6.103412880618497
 30
0.0
 10
25.10805837574389
 20
-7.764194569715848
 30
0.0
 10
27.72879290174978
 20
-9.23752133007418
 30
0.0
 10
30.36715590478434
 20
-10.49566833142638
 30
0.0
 10
33.02387552075659
 20
-11.50559147838512
 30
0.0
 10
35.69917257064621
 20
-12.22375529818366
 30
0.0
 10
38.20768336030324
 20
-12.6415881056575
 30
0.0
 10
39.82409368613595
 20
-12.6650837841493
 30
0.0
 10
40.54842869364597
 20
-12.6756125107881
 30
0.0
  0
SPLINE
  5
BD
330
1F
100
AcDbEntity
  8
0
  6
Continuous
 62
     1
370
    15
100
AcDbSpline
210
0.0
220
0.0
230
1.0
 70
     8
 71
     3
 72
    11
 73
     7
 74
     0
 42
0.000000001
 43
0.00000001
 40
0.0
 40
0.0
 40
0.0
 40
0.0
 40
0.2279730261960336
 40
0.4852513699513401
 40
0.7425780385938016
 40
1.0
 40
1.0
 40
1.0
 40
1.0
 10
81.31468728161256
 20
9.513387270767167
 30
0.0
 10
82.0887845747455
 20
9.886974991719601
 30
0.0
 10
83.73648727991282
 20
10.68217412739842
 30
0.0
 10
86.25793241224683
 20
11.58693813396355
 30
0.0
 10
88.87950762149252
 20
12.29113398765798
 30
0.0
 10
90.6277279941591
 20
12.61357079059169
 30
0.0
 10
91.502
 20
12.70000000000001
 30
0.0
  0
LINE
  5
BF
330
1F
100
AcDbEntity
  8
0
  6
Continuous
 62
     1
370
    15
100
AcDbLine
 10
94.54999999999998
 20
8.223300350377992
 30
0.0
 11
94.54999999999998
 21
9.551360884402545
 31
0.0
  0
SPLINE
  5
C0
330
1F
100
AcDbEntity
  8
0
  6
Continuous
 62
     1
370
    15
100
AcDbSpline
210
0.0
220
0.0
230
1.0
 70
     8
 71
     3
 72
    20
 73
    16
 74
     0
 42
0.000000001
 43
0.00000001
 40
0.0
 40
0.0
 40
0.0
 40
0.0
 40
0.2499999999999973
 40
0.2499999999999973
 40
0.3749999999999978
 40
0.3749999999999978
 40
0.4999999999999982
 40
0.4999999999999982
 40
0.6249999999999987
 40
0.6249999999999987
 40
0.7499999999999991
 40
0.7499999999999991
 40
0.8749999999999996
 40
0.8749999999999996
 40
1.0
 40
1.0
 40
1.0
 40
1.0
 10
94.54999999999998
 20
8.223300350377988
 30
0.0
 10
94.35181924402407
 20
7.726153525028169
 30
0.0
 10
94.11246050984582
 20
7.264314974489664
 30
0.0
 10
93.68182395632364
 20
6.632949619575986
 30
0.0
 10
93.52485421834902
 20
6.431305398265731
 30
0.0
 10
93.19278143706427
 20
6.059800927345924
 30
0.0
 10
93.0179198990916
 20
5.889670717046513
 30
0.0
 10
92.65086833340109
 20
5.580084696847019
 30
0.0
 10
92.45868066310337
 20
5.440624713908755
 30
0.0
 10
92.0568502428126
 20
5.192603234366072
 30
0.0
 10
91.84694639327557
 20
5.084297174360561
 30
0.0
 10
91.42264704216998
 20
4.904067784535928
 30
0.0
 10
91.20670476958419
 20
4.831109222492552
 30
0.0
 10
90.76776269263202
 20
4.717117439247372
 30
0.0
 10
90.54370915890613
 20
4.675995651344276
 30
0.0
 10
90.31878040374767
 20
4.650557464982221
 30
0.0
  0
SPLINE
  5
C1
330
1F
100
AcDbEntity
  8
0
  6
Continuous
 62
     1
370
    15
100
AcDbSpline
210
0.0
220
0.0
230
1.0
 70
     8
 71
     3
 72
     8
 73
     4
 74
     0
 42
0.000000001
 43
0.00000001
 40
0.0
 40
0.0
 40
0.0
 40
0.0
 40
1.0
 40
1.0
 40
1.0
 40
1.0
 10
94.54999999999998
 20
2.449835235057681
 30
0.0
 10
93.09522549203028
 20
3.292970240501962
 30
0.0
 10
91.68372878874534
 20
4.029236352714951
 30
0.0
 10
90.31878040374771
 20
4.650557464982241
 30
0.0
  0
LINE
  5
C2
330
1F
100
AcDbEntity
  8
0
  6
Continuous
 62
     1
370
    15
100
AcDbLine
 10
94.54999999999998
 20
1.390183173508126
 30
0.0
 11
94.54999999999998
 21
2.449835235057682
 31
0.0
  0
LINE
  5
C3
330
1F
100
AcDbEntity
  8
0
  6
Continuous
 62
     4
370
    15
100
AcDbLine
 10
12.0
 20
1.558758189958427
 30
0.0
 11
12.0
 21
8.858895789278607
 31
0.0
  0
LINE
  5
C4
330
1F
100
AcDbEntity
  8
0
  6
Continuous
 62
     1
370
    15
100
AcDbLine
 10
94.54999999999998
 20
-5.979614386372991
 30
0.0
 11
94.54999999999998
 21
1.390183173508126
 31
0.0
  0
LINE
  5
C5
330
1F
100
AcDbEntity
  8
0
  6
Continuous
 62
     1
370
    15
100
AcDbLine
 10
94.54999999999998
 20
2.449835235057681
 30
0.0
 11
94.54999999999998
 21
8.223300350377992
 31
0.0
  0
LINE
  5
C6
330
1F
100
AcDbEntity
  8
0
  6
Continuous
 62
     1
370
    15
100
AcDbLine
 10
94.54999999999998
 20
9.551360884402545
 30
0.0
 11
94.54999999999998
 21
9.652
 31
0.0
  0
LINE
  5
C7
330
1F
100
AcDbEntity
  8
0
  6
Continuous
 62
     1
370
    15
100
AcDbLine
 10
94.54999999999998
 20
-5.97961438637299
 30
0.0
 11
94.54999999999998
 21
-7.424523816498303
 31
0.0
  0
LINE
  5
C8
330
1F
100
AcDbEntity
  8
중심선
100
AcDbLine
 10
-60.85000000000004
 20
0.0000000000000018
 30
0.0
 11
97.54999999999997
 21
0.0000000000000022
 31
0.0
  0
CIRCLE
  5
C9
330
1F
100
AcDbEntity
  8
외형선
100
AcDbCircle
 10
0.0
 20
0.0
 30
0.0
 40
3.000000000000008
  0
INSERT
  5
CA
330
1F
100
AcDbEntity
  8
0
  6
Continuous
 62
     7
100
AcDbBlockReference
 66
     1
  2
블럭10
 10
6.34140914955691
 20
-51.95008179678725
 30
0.0
  0
ATTRIB
  5
CB
330
CA
100
AcDbEntity
  8
FORMAT
 62
     2
100
AcDbText
 10
-2.839886139184372
 20
-49.87471488395506
 30
0.0
 40
4.233333333333333
  1
E5984904 [ 3 FLUTE ]
 41
0.75
  7
SLDTEXTSTYLE0
 11
-2.839886139184372
 21
-51.99138155062172
 31
0.0
100
AcDbAttribute
  2
AUTOATTR0
 70
     0
 74
     1
  0
SEQEND
  5
CC
330
CA
100
AcDbEntity
  8
0
  6
Continuous
 62
     7
  0
HATCH
  5
CD
330
1F
100
AcDbEntity
  8
중심선
100
AcDbHatch
 10
0.0
 20
0.0
 30
0.0
210
0.0
220
0.0
230
1.0
  2
SOLID
 70
     1
 71
     0
 91
        1
 92
        0
 93
        4
 72
     1
 10
12.05631845393775
 20
-35.70290749514332
 11
8.610043210100464
 21
-35.70290749514332
 72
     1
 10
8.610043210100464
 20
-35.70290749514332
 11
6.481813350896442
 21
-38.23923307571592
 72
     1
 10
6.481813350896442
 20
-38.23923307571592
 11
9.928121679846871
 21
-38.23919364641343
 72
     1
 10
9.928121679846871
 20
-38.23919364641343
 11
12.05631845393775
 21
-35.70290749514332
 97
        0
 75
     0
 76
     1
 98
        1
 10
25.61576614807436
 20
0.0
  0
HATCH
  5
CE
330
1F
100
AcDbEntity
  8
중심선
100
AcDbHatch
 10
0.0
 20
0.0
 30
0.0
210
0.0
220
0.0
230
1.0
  2
SOLID
 70
     1
 71
     0
 91
        1
 92
        0
 93
        4
 72
     1
 10
17.0690824449737
 20
-35.70290749514335
 11
13.62280720113644
 21
-35.70290749514329
 72
     1
 10
13.62280720113644
 20
-35.70290749514329
 11
9.091669192779026
 21
-41.10290749514333
 72
     1
 10
9.091669192779026
 20
-41.10290749514333
 11
12.53794443661631
 21
-41.10290749514333
 72
     1
 10
12.53794443661631
 20
-41.10290749514333
 11
17.0690824449737
 21
-35.70290749514335
 97
        0
 75
     0
 76
     1
 98
        1
 10
25.61576614807436
 20
0.0
  0
HATCH
  5
CF
330
1F
100
AcDbEntity
  8
중심선
100
AcDbHatch
 10
0.0
 20
0.0
 30
0.0
210
0.0
220
0.0
230
1.0
  2
SOLID
 70
     1
 71
     0
 91
        1
 92
        0
 93
        4
 72
     1
 10
22.08184643600962
 20
-35.70290749514335
 11
18.63557119217251
 21
-35.70290749514332
 72
     1
 10
18.63557119217251
 20
-35.70290749514332
 11
11.58713429028323
 21
-44.10290749514334
 72
     1
 10
11.58713429028323
 20
-44.10290749514334
 11
15.03340953412051
 21
-44.10290749514334
 72
     1
 10
15.03340953412051
 20
-44.10290749514334
 11
22.08184643600962
 21
-35.70290749514335
 97
        0
 75
     0
 76
     1
 98
        1
 10
25.61576614807436
 20
0.0
  0
HATCH
  5
D0
330
1F
100
AcDbEntity
  8
중심선
100
AcDbHatch
 10
0.0
 20
0.0
 30
0.0
210
0.0
220
0.0
230
1.0
  2
SOLID
 70
     1
 71
     0
 91
        1
 92
        0
 93
        6
 72
     3
 10
26.88173686702179
 20
-39.9029074951946
 11
3.960054785062283
 21
1.540882976769353E-10
 40
0.3939339440162628
 50
17.09539180608437
 51
320.0019657685082
 73
     0
 72
     1
 10
28.56473652272236
 20
-38.49080149978165
 11
30.87003839642345
 21
-36.5564747897337
 72
     3
 10
26.88173686696895
 20
-39.90290749514347
 11
6.600054785286826
 21
-1.278976924368180E-13
 40
0.6363583540795983
 50
39.99873849337387
 51
368.4976242363725
 73
     1
 72
     1
 10
33.30706935886955
 20
-38.94290749507334
 11
25.56180417380487
 21
-38.94290749507334
 72
     1
 10
25.56180417380487
 20
-38.94290749507334
 11
25.56177912935893
 21
-40.86290749507324
 72
     1
 10
25.56177912935893
 20
-40.86290749507324
 11
30.00315889883097
 21
-40.86290749507321
 97
        0
 75
     0
 76
     1
 98
        1
 10
25.61576614807436
 20
0.0
  0
POINT
  5
D1
330
1F
100
AcDbEntity
  8
치수문자_일반주서
100
AcDbPoint
 10
-57.85000000000004
 20
-0.1156937548689107
 30
0.0
  0
DIMENSION
  5
D2
102
{ACAD_REACTORS
102
}
330
1F
100
AcDbEntity
  8
치수문자_일반주서
100
AcDbDimension
  2
_D
 10
11.99999999999887
 20
33.31773873834311
 30
0.0
 11
53.27499999999999
 21
33.31773873834311
 31
0.0
 70
   160
  1
<>
 71
     2
 42
82.5500000000011
  3
SLDDIMSTYLE0
100
AcDbAlignedDimension
 13
94.54999999999998
 23
12.7
 33
0.0
 14
11.99999999999887
 24
11.0204886203121
 34
0.0
100
AcDbRotatedDimension
1001
ACAD
1000
DSTYLE
1002
{
1070
   171
1070
     6
1070
   273
1070
     5
1002
}
  0
DIMENSION
  5
E6
330
1F
100
AcDbEntity
  8
치수문자_일반주서
100
AcDbDimension
  2
_D_1
 10
-57.85000000000002
 20
60.3235977822756
 30
0.0
 11
17.74141452505225
 21
60.3235977822756
 31
0.0
 70
   160
  1
<>
 71
     2
 42
152.4
  3
SLDDIMSTYLE1
100
AcDbAlignedDimension
 13
94.54999999999998
 23
12.7
 33
0.0
 14
-57.85000000000004
 24
12.19999999999999
 34
0.0
 50
0.0000000000000053
100
AcDbRotatedDimension
1001
ACAD
1000
DSTYLE
1002
{
1070
   171
1070
     6
1070
   273
1070
     5
1002
}
  0
DIMENSION
  5
FA
330
1F
100
AcDbEntity
  8
치수문자_일반주서
100
AcDbDimension
  2
_D_2
 10
-70.85
 20
-12.70000000000005
 30
0.0
 11
-70.85000000000004
 21
-0.0186012500122169
 31
0.0
 70
   160
  1
%%c<>
 71
     2
 42
25.4
 52
-270.0
  3
SLDDIMSTYLE2
100
AcDbAlignedDimension
 13
-57.35000000000004
 23
12.7
 33
0.0
 14
-57.35000000000004
 24
-12.7
 34
0.0
 50
90.0000000000002
100
AcDbRotatedDimension
1001
ACAD
1000
DSTYLE
1002
{
1070
   171
1070
     6
1070
   273
1070
     5
1002
}
  0
INSERT
  5
115
330
1F
100
AcDbEntity
  8
외형선
100
AcDbBlockReference
  2
SW_DOWELSYMBOL_0
 10
0.0
 20
0.0
 30
0.0
  0
ARC
  5
13E
102
{ACAD_REACTORS
102
}
330
1F
100
AcDbEntity
  8
0
  6
Continuous
 62
     1
370
    15
100
AcDbCircle
 10
91.502
 20
-9.652000000000001
 30
0.0
 40
3.047999999999999
100
AcDbArc
 50
270.0
 51
0.0
  0
DIMENSION
  5
140
102
{ACAD_XDICTIONARY
360
141
102
}
330
1F
100
AcDbEntity
  8
치수문자_일반주서
100
AcDbDimension
  2
*D6
 10
110.2797190164048
 20
12.7
 30
0.0
 11
107.6547190164048
 21
-0.0000000000000036
 31
0.0
 70
    32
  1
{Ø<>[]}
 71
     5
 42
25.4
  3
SLDDIMSTYLE0
100
AcDbAlignedDimension
 13
94.55
 23
-12.7
 33
0.0
 14
94.54999999999998
 24
12.7
 34
0.0
 50
90.0
100
AcDbRotatedDimension
1001
ACAD
1000
DSTYLE
1002
{
1070
   171
1070
     6
1070
   273
1070
     5
1070
   283
1070
     1
1070
   170
1070
     1
1002
}
  0
ARC
  5
150
330
1F
100
AcDbEntity
  8
0
  6
Continuous
 62
     1
370
    15
100
AcDbCircle
 10
91.502
 20
9.652000000000006
 30
0.0
 40
3.047999999999999
100
AcDbArc
 50
0.0
 51
90.0
  0
DIMENSION
  5
152
102
{ACAD_REACTORS
102
}
102
{ACAD_XDICTIONARY
360
153
102
}
330
1F
100
AcDbEntity
  8
치수문자_일반주서
100
AcDbDimension
  2
*D7
 10
91.502
 20
-9.652000000000001
 30
0.0
 11
100.1294155403802
 21
-31.67437056026453
 31
0.0
 70
   164
  1
<>
 71
     5
 42
3.048000000000001
  3
SLDDIMSTYLE0
100
AcDbRadialDimension
 15
92.61380291590896
 25
-12.48999194434662
 35
0.0
 40
0.0
1001
ACAD_DSTYLE_DIMRADIAL_EXTENSION
1070
   387
1070
     1
1070
   388
1040
4.71238898038469
1070
   390
1040
0.0
  0
ENDSEC
  0
SECTION
  2
OBJECTS
  0
DICTIONARY
  5
C
330
0
100
AcDbDictionary
281
     1
  3
ACAD_GROUP
350
D
  3
ACAD_IMAGE_VARS
350
139
  3
ACAD_LAYOUT
350
1A
  3
ACAD_MLINESTYLE
350
17
  3
ACAD_PLOTSETTINGS
350
19
  3
ACAD_PLOTSTYLENAME
350
E
  3
ACAD_SCALELIST
350
47
  3
APPDATA
350
137
  3
DWGPROPS
350
162
  0
DICTIONARY
  5
141
330
140
100
AcDbDictionary
280
     1
281
     1
  0
DICTIONARY
  5
153
330
152
100
AcDbDictionary
280
     1
281
     1
  0
DICTIONARY
  5
D
102
{ACAD_REACTORS
330
C
102
}
330
C
100
AcDbDictionary
281
     1
  0
RASTERVARIABLES
  5
139
102
{ACAD_REACTORS
330
C
102
}
330
C
100
AcDbRasterVariables
 90
        0
 70
     1
 71
     1
 72
     1
  0
DICTIONARY
  5
1A
102
{ACAD_REACTORS
330
C
102
}
330
C
100
AcDbDictionary
281
     1
  3
Layout1
350
1E
  3
Layout2
350
26
  3
Model
350
22
  0
DICTIONARY
  5
17
102
{ACAD_REACTORS
330
C
102
}
330
C
100
AcDbDictionary
281
     1
  3
Standard
350
18
  0
DICTIONARY
  5
19
102
{ACAD_REACTORS
330
C
102
}
330
C
100
AcDbDictionary
281
     1
  0
ACDBDICTIONARYWDFLT
  5
E
102
{ACAD_REACTORS
330
C
102
}
330
C
100
AcDbDictionary
281
     1
  3
Normal
350
F
100
AcDbDictionaryWithDefault
340
F
  0
DICTIONARY
  5
47
102
{ACAD_REACTORS
330
C
102
}
330
C
100
AcDbDictionary
281
     1
  3
A0
350
48
  3
A1
350
49
  3
A2
350
4A
  3
A3
350
4B
  3
A4
350
4C
  3
A5
350
4D
  3
A6
350
4E
  3
A7
350
4F
  3
A8
350
50
  3
A9
350
51
  3
B0
350
52
  3
B1
350
53
  3
B2
350
54
  3
B3
350
55
  3
B4
350
56
  3
B5
350
57
  3
B6
350
58
  3
B7
350
59
  3
B8
350
5A
  3
B9
350
5B
  3
C0
350
5C
  3
C1
350
5D
  3
C2
350
5E
  3
C3
350
5F
  3
C4
350
60
  3
C5
350
61
  3
C6
350
62
  3
C7
350
63
  3
C8
350
64
  3
C9
350
65
  3
D0
350
66
  3
D1
350
67
  3
D2
350
68
  0
DICTIONARY
  5
137
102
{ACAD_REACTORS
330
C
102
}
330
C
100
AcDbDictionary
281
     1
  0
XRECORD
  5
162
102
{ACAD_REACTORS
330
C
102
}
330
C
100
AcDbXrecord
280
     1
  1
DWGPROPS COOKIE
  2

  3

  4

  6

  7

  8
12014074
  9

300
=
301
=
302
=
303
=
304
=
305
=
306
=
307
=
308
=
309
=
 40
0.0
 41
2458269.059317512
 42
2458269.978539792
  1

 90
        0
  0
LAYOUT
  5
1E
102
{ACAD_REACTORS
330
1A
102
}
330
1A
100
AcDbPlotSettings
  1

  2
none_device
  4

  6

 40
0.0
 41
0.0
 42
0.0
 43
0.0
 44
0.0
 45
0.0
 46
0.0
 47
0.0
 48
0.0
 49
0.0
140
0.0
141
0.0
142
1.0
143
1.0
 70
   688
 72
     1
 73
     0
 74
     5
  7

 75
    16
147
1.0
148
0.0
149
0.0
100
AcDbLayout
  1
Layout1
 70
     1
 71
     1
 10
0.0
 20
0.0
 11
420.0
 21
297.0
 12
0.0
 22
0.0
 32
0.0
 14
1.000000000000000E+20
 24
1.000000000000000E+20
 34
1.000000000000000E+20
 15
-1.000000000000000E+20
 25
-1.000000000000000E+20
 35
-1.000000000000000E+20
146
0.0
 13
0.0
 23
0.0
 33
0.0
 16
1.0
 26
0.0
 36
0.0
 17
0.0
 27
1.0
 37
0.0
 76
     0
330
1B
  0
LAYOUT
  5
26
102
{ACAD_REACTORS
330
1A
102
}
330
1A
100
AcDbPlotSettings
  1

  2
none_device
  4

  6

 40
0.0
 41
0.0
 42
0.0
 43
0.0
 44
0.0
 45
0.0
 46
0.0
 47
0.0
 48
0.0
 49
0.0
140
0.0
141
0.0
142
1.0
143
1.0
 70
   688
 72
     1
 73
     0
 74
     5
  7

 75
    16
147
1.0
148
0.0
149
0.0
100
AcDbLayout
  1
Layout2
 70
     1
 71
     2
 10
0.0
 20
0.0
 11
0.0
 21
0.0
 12
0.0
 22
0.0
 32
0.0
 14
0.0
 24
0.0
 34
0.0
 15
0.0
 25
0.0
 35
0.0
146
0.0
 13
0.0
 23
0.0
 33
0.0
 16
1.0
 26
0.0
 36
0.0
 17
0.0
 27
1.0
 37
0.0
 76
     0
330
23
  0
LAYOUT
  5
22
102
{ACAD_REACTORS
330
1A
102
}
330
1A
100
AcDbPlotSettings
  1

  2
none_device
  4
ANSI_A_(11.00_x_8.50_Inches)
  6

 40
6.35
 41
19.05
 42
6.35000508
 43
19.05000254
 44
279.4
 45
215.9
 46
122.5059724290419
 47
72.9902826514763
 48
0.0
 49
0.0
140
0.0
141
0.0
142
0.0607725033255327
143
1.0
 70
  1696
 72
     0
 73
     0
 74
     0
  7

 75
     0
147
0.0235690232323232
148
0.0
149
0.0
100
AcDbLayout
  1
Model
 70
     1
 71
     0
 10
0.0
 20
0.0
 11
420.0
 21
297.0
 12
0.0
 22
0.0
 32
0.0
 14
-75.22500000000008
 24
-49.87471488395506
 34
0.0
 15
110.8300523497382
 25
64.6985977822756
 35
0.0
146
0.0
 13
0.0
 23
0.0
 33
0.0
 16
1.0
 26
0.0
 36
0.0
 17
0.0
 27
1.0
 37
0.0
 76
     0
330
1F
331
29
  0
MLINESTYLE
  5
18
102
{ACAD_REACTORS
330
17
102
}
330
17
100
AcDbMlineStyle
  2
Standard
 70
     0
  3

 62
   256
 51
90.0
 52
90.0
 71
     2
 49
0.5
 62
   256
  6
BYLAYER
 49
-0.5
 62
   256
  6
BYLAYER
  0
ACDBPLACEHOLDER
  5
F
102
{ACAD_REACTORS
330
E
102
}
330
E
  0
SCALE
  5
48
102
{ACAD_REACTORS
330
47
102
}
330
47
100
AcDbScale
 70
     0
300
1:1
140
1.0
141
1.0
290
     1
  0
SCALE
  5
49
102
{ACAD_REACTORS
330
47
102
}
330
47
100
AcDbScale
 70
     0
300
1:2
140
1.0
141
2.0
290
     0
  0
SCALE
  5
4A
102
{ACAD_REACTORS
330
47
102
}
330
47
100
AcDbScale
 70
     0
300
1:4
140
1.0
141
4.0
290
     0
  0
SCALE
  5
4B
102
{ACAD_REACTORS
330
47
102
}
330
47
100
AcDbScale
 70
     0
300
1:5
140
1.0
141
5.0
290
     0
  0
SCALE
  5
4C
102
{ACAD_REACTORS
330
47
102
}
330
47
100
AcDbScale
 70
     0
300
1:8
140
1.0
141
8.0
290
     0
  0
SCALE
  5
4D
102
{ACAD_REACTORS
330
47
102
}
330
47
100
AcDbScale
 70
     0
300
1:10
140
1.0
141
10.0
290
     0
  0
SCALE
  5
4E
102
{ACAD_REACTORS
330
47
102
}
330
47
100
AcDbScale
 70
     0
300
1:16
140
1.0
141
16.0
290
     0
  0
SCALE
  5
4F
102
{ACAD_REACTORS
330
47
102
}
330
47
100
AcDbScale
 70
     0
300
1:20
140
1.0
141
20.0
290
     0
  0
SCALE
  5
50
102
{ACAD_REACTORS
330
47
102
}
330
47
100
AcDbScale
 70
     0
300
1:30
140
1.0
141
30.0
290
     0
  0
SCALE
  5
51
102
{ACAD_REACTORS
330
47
102
}
330
47
100
AcDbScale
 70
     0
300
1:40
140
1.0
141
40.0
290
     0
  0
SCALE
  5
52
102
{ACAD_REACTORS
330
47
102
}
330
47
100
AcDbScale
 70
     0
300
1:50
140
1.0
141
50.0
290
     0
  0
SCALE
  5
53
102
{ACAD_REACTORS
330
47
102
}
330
47
100
AcDbScale
 70
     0
300
1:100
140
1.0
141
100.0
290
     0
  0
SCALE
  5
54
102
{ACAD_REACTORS
330
47
102
}
330
47
100
AcDbScale
 70
     0
300
2:1
140
2.0
141
1.0
290
     0
  0
SCALE
  5
55
102
{ACAD_REACTORS
330
47
102
}
330
47
100
AcDbScale
 70
     0
300
4:1
140
4.0
141
1.0
290
     0
  0
SCALE
  5
56
102
{ACAD_REACTORS
330
47
102
}
330
47
100
AcDbScale
 70
     0
300
8:1
140
8.0
141
1.0
290
     0
  0
SCALE
  5
57
102
{ACAD_REACTORS
330
47
102
}
330
47
100
AcDbScale
 70
     0
300
10:1
140
10.0
141
1.0
290
     0
  0
SCALE
  5
58
102
{ACAD_REACTORS
330
47
102
}
330
47
100
AcDbScale
 70
     0
300
100:1
140
100.0
141
1.0
290
     0
  0
SCALE
  5
59
102
{ACAD_REACTORS
330
47
102
}
330
47
100
AcDbScale
 70
     0
300
1/128" = 1'-0"
140
0.0078125
141
12.0
290
     0
  0
SCALE
  5
5A
102
{ACAD_REACTORS
330
47
102
}
330
47
100
AcDbScale
 70
     0
300
1/64" = 1'-0"
140
0.015625
141
12.0
290
     0
  0
SCALE
  5
5B
102
{ACAD_REACTORS
330
47
102
}
330
47
100
AcDbScale
 70
     0
300
1/32" = 1'-0"
140
0.03125
141
12.0
290
     0
  0
SCALE
  5
5C
102
{ACAD_REACTORS
330
47
102
}
330
47
100
AcDbScale
 70
     0
300
1/16" = 1'-0"
140
0.0625
141
12.0
290
     0
  0
SCALE
  5
5D
102
{ACAD_REACTORS
330
47
102
}
330
47
100
AcDbScale
 70
     0
300
3/32" = 1'-0"
140
0.09375
141
12.0
290
     0
  0
SCALE
  5
5E
102
{ACAD_REACTORS
330
47
102
}
330
47
100
AcDbScale
 70
     0
300
1/8" = 1'-0"
140
0.125
141
12.0
290
     0
  0
SCALE
  5
5F
102
{ACAD_REACTORS
330
47
102
}
330
47
100
AcDbScale
 70
     0
300
3/16" = 1'-0"
140
0.1875
141
12.0
290
     0
  0
SCALE
  5
60
102
{ACAD_REACTORS
330
47
102
}
330
47
100
AcDbScale
 70
     0
300
1/4" = 1'-0"
140
0.25
141
12.0
290
     0
  0
SCALE
  5
61
102
{ACAD_REACTORS
330
47
102
}
330
47
100
AcDbScale
 70
     0
300
3/8" = 1'-0"
140
0.375
141
12.0
290
     0
  0
SCALE
  5
62
102
{ACAD_REACTORS
330
47
102
}
330
47
100
AcDbScale
 70
     0
300
1/2" = 1'-0"
140
0.5
141
12.0
290
     0
  0
SCALE
  5
63
102
{ACAD_REACTORS
330
47
102
}
330
47
100
AcDbScale
 70
     0
300
3/4" = 1'-0"
140
0.75
141
12.0
290
     0
  0
SCALE
  5
64
102
{ACAD_REACTORS
330
47
102
}
330
47
100
AcDbScale
 70
     0
300
1" = 1'-0"
140
1.0
141
12.0
290
     0
  0
SCALE
  5
65
102
{ACAD_REACTORS
330
47
102
}
330
47
100
AcDbScale
 70
     0
300
1-1/2" = 1'-0"
140
1.5
141
12.0
290
     0
  0
SCALE
  5
66
102
{ACAD_REACTORS
330
47
102
}
330
47
100
AcDbScale
 70
     0
300
3" = 1'-0"
140
3.0
141
12.0
290
     0
  0
SCALE
  5
67
102
{ACAD_REACTORS
330
47
102
}
330
47
100
AcDbScale
 70
     0
300
6" = 1'-0"
140
6.0
141
12.0
290
     0
  0
SCALE
  5
68
102
{ACAD_REACTORS
330
47
102
}
330
47
100
AcDbScale
 70
     0
300
1'-0" = 1'-0"
140
12.0
141
12.0
290
     0
  0
ENDSEC
  0
EOF
