  0
SECTION
  2
HEADER
  9
$ACADVER
  1
AC1015
  9
$ACADMAINTVER
 70
     6
  9
$DWGCODEPAGE
  3
ANSI_949
  9
$INSBASE
 10
0.0
 20
0.0
 30
0.0
  9
$EXTMIN
 10
-75.22500000000011
 20
-49.87471488395506
 30
0.0
  9
$EXTMAX
 10
116.1351143663615
 20
61.5235977822756
 30
0.0
  9
$LIMMIN
 10
0.0
 20
0.0
  9
$LIMMAX
 10
420.0
 20
297.0
  9
$ORTHOMODE
 70
     1
  9
$REGENMODE
 70
     1
  9
$FILLMODE
 70
     1
  9
$QTEXTMODE
 70
     0
  9
$MIRRTEXT
 70
     1
  9
$LTSCALE
 40
1.0
  9
$ATTMODE
 70
     1
  9
$TEXTSIZE
 40
3.5
  9
$TRACEWID
 40
1.0
  9
$TEXTSTYLE
  7
Standard
  9
$CLAYER
  8
0
  9
$CELTYPE
  6
ByLayer
  9
$CECOLOR
 62
   256
  9
$CELTSCALE
 40
1.0
  9
$DISPSILH
 70
     0
  9
$DIMSCALE
 40
1.0
  9
$DIMASZ
 40
3.302
  9
$DIMEXO
 40
1.0
  9
$DIMDLI
 40
3.75
  9
$DIMRND
 40
0.0
  9
$DIMDLE
 40
0.0
  9
$DIMEXE
 40
1.0
  9
$DIMTP
 40
0.0
  9
$DIMTM
 40
0.0
  9
$DIMTXT
 40
3.5
  9
$DIMCEN
 40
2.5
  9
$DIMTSZ
 40
0.0
  9
$DIMTOL
 70
     0
  9
$DIMLIM
 70
     0
  9
$DIMTIH
 70
     1
  9
$DIMTOH
 70
     1
  9
$DIMSE1
 70
     0
  9
$DIMSE2
 70
     0
  9
$DIMTAD
 70
     1
  9
$DIMZIN
 70
     0
  9
$DIMBLK
  1

  9
$DIMASO
 70
     1
  9
$DIMSHO
 70
     1
  9
$DIMPOST
  1

  9
$DIMAPOST
  1

  9
$DIMALT
 70
     0
  9
$DIMALTD
 70
     3
  9
$DIMALTF
 40
0.0393700787401575
  9
$DIMLFAC
 40
1.0
  9
$DIMTOFL
 70
     1
  9
$DIMTVP
 40
0.0
  9
$DIMTIX
 70
     0
  9
$DIMSOXD
 70
     0
  9
$DIMSAH
 70
     0
  9
$DIMBLK1
  1

  9
$DIMBLK2
  1

  9
$DIMSTYLE
  2
ISO-25
  9
$DIMCLRD
 70
     0
  9
$DIMCLRE
 70
     0
  9
$DIMCLRT
 70
     0
  9
$DIMTFAC
 40
1.0
  9
$DIMGAP
 40
1.524
  9
$DIMJUST
 70
     0
  9
$DIMSD1
 70
     0
  9
$DIMSD2
 70
     0
  9
$DIMTOLJ
 70
     0
  9
$DIMTZIN
 70
     0
  9
$DIMALTZ
 70
     0
  9
$DIMALTTZ
 70
     0
  9
$DIMUPT
 70
     0
  9
$DIMDEC
 70
     2
  9
$DIMTDEC
 70
     2
  9
$DIMALTU
 70
     2
  9
$DIMALTTD
 70
     3
  9
$DIMTXSTY
  7
Standard
  9
$DIMAUNIT
 70
     0
  9
$DIMADEC
 70
     2
  9
$DIMALTRND
 40
0.0
  9
$DIMAZIN
 70
     0
  9
$DIMDSEP
 70
    44
  9
$DIMATFIT
 70
     3
  9
$DIMFRAC
 70
     0
  9
$DIMLDRBLK
  1

  9
$DIMLUNIT
 70
     2
  9
$DIMLWD
 70
    -2
  9
$DIMLWE
 70
    -2
  9
$DIMTMOVE
 70
     0
  9
$LUNITS
 70
     2
  9
$LUPREC
 70
     2
  9
$SKETCHINC
 40
1.0
  9
$FILLETRAD
 40
10.0
  9
$AUNITS
 70
     0
  9
$AUPREC
 70
     2
  9
$MENU
  1
.
  9
$ELEVATION
 40
0.0
  9
$PELEVATION
 40
0.0
  9
$THICKNESS
 40
0.0
  9
$LIMCHECK
 70
     0
  9
$CHAMFERA
 40
0.0
  9
$CHAMFERB
 40
0.0
  9
$CHAMFERC
 40
0.0
  9
$CHAMFERD
 40
0.0
  9
$SKPOLY
 70
     0
  9
$TDCREATE
 40
2458269.434193623
  9
$TDUCREATE
 40
2458269.059193623
  9
$TDUPDATE
 40
2458270.35115294
  9
$TDUUPDATE
 40
2458269.97615294
  9
$TDINDWG
 40
0.0021848843
  9
$TDUSRTIMER
 40
2458269.973968183
  9
$USRTIMER
 70
     1
  9
$ANGBASE
 50
0.0
  9
$ANGDIR
 70
     0
  9
$PDMODE
 70
     0
  9
$PDSIZE
 40
-1.0
  9
$PLINEWID
 40
0.0
  9
$SPLFRAME
 70
     0
  9
$SPLINETYPE
 70
     6
  9
$SPLINESEGS
 70
     8
  9
$HANDSEED
  5
167
  9
$SURFTAB1
 70
     6
  9
$SURFTAB2
 70
     6
  9
$SURFTYPE
 70
     6
  9
$SURFU
 70
     6
  9
$SURFV
 70
     6
  9
$UCSBASE
  2

  9
$UCSNAME
  2

  9
$UCSORG
 10
0.0
 20
0.0
 30
0.0
  9
$UCSXDIR
 10
1.0
 20
0.0
 30
0.0
  9
$UCSYDIR
 10
0.0
 20
1.0
 30
0.0
  9
$UCSORTHOREF
  2

  9
$UCSORTHOVIEW
 70
     0
  9
$UCSORGTOP
 10
0.0
 20
0.0
 30
0.0
  9
$UCSORGBOTTOM
 10
0.0
 20
0.0
 30
0.0
  9
$UCSORGLEFT
 10
0.0
 20
0.0
 30
0.0
  9
$UCSORGRIGHT
 10
0.0
 20
0.0
 30
0.0
  9
$UCSORGFRONT
 10
0.0
 20
0.0
 30
0.0
  9
$UCSORGBACK
 10
0.0
 20
0.0
 30
0.0
  9
$PUCSBASE
  2

  9
$PUCSNAME
  2

  9
$PUCSORG
 10
0.0
 20
0.0
 30
0.0
  9
$PUCSXDIR
 10
1.0
 20
0.0
 30
0.0
  9
$PUCSYDIR
 10
0.0
 20
1.0
 30
0.0
  9
$PUCSORTHOREF
  2

  9
$PUCSORTHOVIEW
 70
     0
  9
$PUCSORGTOP
 10
0.0
 20
0.0
 30
0.0
  9
$PUCSORGBOTTOM
 10
0.0
 20
0.0
 30
0.0
  9
$PUCSORGLEFT
 10
0.0
 20
0.0
 30
0.0
  9
$PUCSORGRIGHT
 10
0.0
 20
0.0
 30
0.0
  9
$PUCSORGFRONT
 10
0.0
 20
0.0
 30
0.0
  9
$PUCSORGBACK
 10
0.0
 20
0.0
 30
0.0
  9
$USERI1
 70
     0
  9
$USERI2
 70
     0
  9
$USERI3
 70
     0
  9
$USERI4
 70
     0
  9
$USERI5
 70
     0
  9
$USERR1
 40
0.0
  9
$USERR2
 40
0.0
  9
$USERR3
 40
0.0
  9
$USERR4
 40
0.0
  9
$USERR5
 40
0.0
  9
$WORLDVIEW
 70
     1
  9
$SHADEDGE
 70
     3
  9
$SHADEDIF
 70
    70
  9
$TILEMODE
 70
     1
  9
$MAXACTVP
 70
    64
  9
$PINSBASE
 10
0.0
 20
0.0
 30
0.0
  9
$PLIMCHECK
 70
     0
  9
$PEXTMIN
 10
1.000000000000000E+20
 20
1.000000000000000E+20
 30
1.000000000000000E+20
  9
$PEXTMAX
 10
-1.000000000000000E+20
 20
-1.000000000000000E+20
 30
-1.000000000000000E+20
  9
$PLIMMIN
 10
0.0
 20
0.0
  9
$PLIMMAX
 10
0.0
 20
0.0
  9
$UNITMODE
 70
     0
  9
$VISRETAIN
 70
     1
  9
$PLINEGEN
 70
     0
  9
$PSLTSCALE
 70
     1
  9
$TREEDEPTH
 70
  3020
  9
$CMLSTYLE
  2
Standard
  9
$CMLJUST
 70
     0
  9
$CMLSCALE
 40
20.0
  9
$PROXYGRAPHICS
 70
     1
  9
$MEASUREMENT
 70
     1
  9
$CELWEIGHT
370
    -1
  9
$ENDCAPS
280
     0
  9
$JOINSTYLE
280
     0
  9
$LWDISPLAY
290
     1
  9
$INSUNITS
 70
     4
  9
$HYPERLINKBASE
  1

  9
$STYLESHEET
  1

  9
$XEDIT
290
     1
  9
$CEPSNTYPE
380
     0
  9
$PSTYLEMODE
290
     1
  9
$FINGERPRINTGUID
  2
{1373506A-63A5-4F7B-9C16-AFBB1EEA2099}
  9
$VERSIONGUID
  2
{FAEB1C32-E019-11D5-929B-00C0DF256EC4}
  9
$EXTNAMES
290
     1
  9
$PSVPSCALE
 40
0.0
  9
$OLESTARTUP
290
     0
  0
ENDSEC
  0
SECTION
  2
CLASSES
  0
CLASS
  1
ACDBDICTIONARYWDFLT
  2
AcDbDictionaryWithDefault
  3
ObjectDBX Classes
 90
        0
280
     0
281
     0
  0
CLASS
  1
VISUALSTYLE
  2
AcDbVisualStyle
  3
ObjectDBX Classes
 90
     4095
280
     0
281
     0
  0
CLASS
  1
MATERIAL
  2
AcDbMaterial
  3
ObjectDBX Classes
 90
     1153
280
     0
281
     0
  0
CLASS
  1
SCALE
  2
AcDbScale
  3
ObjectDBX Classes
 90
     1153
280
     0
281
     0
  0
CLASS
  1
SUN
  2
AcDbSun
  3
SCENEOE
 90
     1153
280
     0
281
     0
  0
CLASS
  1
ACDBPLACEHOLDER
  2
AcDbPlaceHolder
  3
ObjectDBX Classes
 90
        0
280
     0
281
     0
  0
CLASS
  1
LAYOUT
  2
AcDbLayout
  3
ObjectDBX Classes
 90
        0
280
     0
281
     0
  0
CLASS
  1
TABLESTYLE
  2
AcDbTableStyle
  3
ObjectDBX Classes
 90
     4095
280
     0
281
     0
  0
CLASS
  1
MLEADERSTYLE
  2
AcDbMLeaderStyle
  3
ACDB_MLEADERSTYLE_CLASS
 90
     4095
280
     0
281
     0
  0
CLASS
  1
RASTERVARIABLES
  2
AcDbRasterVariables
  3
ISM
 90
        0
280
     0
281
     0
  0
CLASS
  1
DIMASSOC
  2
AcDbDimAssoc
  3
"AcDbDimAssoc|Product Desc:     AcDim ARX App For Dimension|Company:          Autodesk, Inc.|WEB Address:      www.autodesk.com"
 90
        0
280
     0
281
     0
  0
ENDSEC
  0
SECTION
  2
TABLES
  0
TABLE
  2
VPORT
  5
8
330
0
100
AcDbSymbolTable
 70
     1
  0
VPORT
  5
29
330
8
100
AcDbSymbolTableRecord
100
AcDbViewportTableRecord
  2
*Active
 70
     0
 10
0.0
 20
0.0
 11
1.0
 21
1.0
 12
38.60731463723501
 22
-4.634314927723533
 13
0.0
 23
0.0
 14
10.0
 24
10.0
 15
10.0
 25
10.0
 16
0.0
 26
0.0
 36
1.0
 17
0.0
 27
0.0
 37
0.0
 40
191.3273842185696
 41
1.970186335403727
 42
50.0
 43
0.0
 44
0.0
 50
0.0
 51
0.0
 71
    16
 72
  2000
 73
     1
 74
     3
 75
     0
 76
     0
 77
     0
 78
     0
281
     0
 65
     1
110
0.0
120
0.0
130
0.0
111
1.0
121
0.0
131
0.0
112
0.0
122
1.0
132
0.0
 79
     0
146
0.0
  0
ENDTAB
  0
TABLE
  2
LTYPE
  5
5
330
0
100
AcDbSymbolTable
 70
     6
  0
LTYPE
  5
14
330
5
100
AcDbSymbolTableRecord
100
AcDbLinetypeTableRecord
  2
ByBlock
 70
     0
  3

 72
    65
 73
     0
 40
0.0
  0
LTYPE
  5
15
330
5
100
AcDbSymbolTableRecord
100
AcDbLinetypeTableRecord
  2
ByLayer
 70
     0
  3

 72
    65
 73
     0
 40
0.0
  0
LTYPE
  5
16
330
5
100
AcDbSymbolTableRecord
100
AcDbLinetypeTableRecord
  2
Continuous
 70
     0
  3
Solid line
 72
    65
 73
     0
 40
0.0
  0
LTYPE
  5
6A
330
5
100
AcDbSymbolTableRecord
100
AcDbLinetypeTableRecord
  2
HIDDEN
 70
     0
  3
Hidden __ __ __ __ __ __ __ __ __ __ __ __ __ __
 72
    65
 73
     2
 40
1.905
 49
1.27
 74
     0
 49
-0.635
 74
     0
  0
LTYPE
  5
6B
330
5
100
AcDbSymbolTableRecord
100
AcDbLinetypeTableRecord
  2
PHANTOM
 70
     0
  3
Phantom ______  __  __  ______  __  __  ______
 72
    65
 73
     6
 40
12.7
 49
6.35
 74
     0
 49
-1.27
 74
     0
 49
1.27
 74
     0
 49
-1.27
 74
     0
 49
1.27
 74
     0
 49
-1.27
 74
     0
  0
LTYPE
  5
6C
330
5
100
AcDbSymbolTableRecord
100
AcDbLinetypeTableRecord
  2
CENTER
 70
     0
  3
Center ____ _ ____ _ ____ _ ____ _ ____ _ ____
 72
    65
 73
     4
 40
10.16
 49
6.35
 74
     0
 49
-1.27
 74
     0
 49
1.27
 74
     0
 49
-1.27
 74
     0
  0
LTYPE
  5
6D
330
5
100
AcDbSymbolTableRecord
100
AcDbLinetypeTableRecord
  2
CENTERX2
 70
     0
  3
Center (2x) ________  __  ________  __  _____
 72
    65
 73
     4
 40
20.32
 49
12.7
 74
     0
 49
-2.54
 74
     0
 49
2.54
 74
     0
 49
-2.54
 74
     0
  0
LTYPE
  5
6E
330
5
100
AcDbSymbolTableRecord
100
AcDbLinetypeTableRecord
  2
DOT2
 70
     0
  3
Dot (.5x) ........................................
 72
    65
 73
     2
 40
0.635
 49
0.0
 74
     0
 49
-0.635
 74
     0
  0
ENDTAB
  0
TABLE
  2
LAYER
  5
2
330
0
100
AcDbSymbolTable
 70
    17
  0
LAYER
  5
10
330
2
100
AcDbSymbolTableRecord
100
AcDbLayerTableRecord
  2
0
 70
     0
 62
     7
  6
Continuous
370
    -3
390
F
  0
LAYER
  5
6F
330
2
100
AcDbSymbolTableRecord
100
AcDbLayerTableRecord
  2
FORMAT
 70
     0
 62
     2
  6
Continuous
370
    -3
390
F
  0
LAYER
  5
70
330
2
100
AcDbSymbolTableRecord
100
AcDbLayerTableRecord
  2
외형선
 70
     0
 62
   100
  6
Continuous
370
    30
390
F
  0
LAYER
  5
71
330
2
100
AcDbSymbolTableRecord
100
AcDbLayerTableRecord
  2
숨은선
 70
     0
 62
     2
  6
HIDDEN
370
    15
390
F
  0
LAYER
  5
72
330
2
100
AcDbSymbolTableRecord
100
AcDbLayerTableRecord
  2
중심선
 70
     0
 62
     1
  6
CENTERX2
370
    -3
390
F
  0
LAYER
  5
73
330
2
100
AcDbSymbolTableRecord
100
AcDbLayerTableRecord
  2
파단선
 70
     0
 62
     4
  6
Continuous
370
    -3
390
F
  0
LAYER
  5
74
330
2
100
AcDbSymbolTableRecord
100
AcDbLayerTableRecord
  2
해칭선
 70
     0
 62
     4
  6
Continuous
370
    -3
390
F
  0
LAYER
  5
75
330
2
100
AcDbSymbolTableRecord
100
AcDbLayerTableRecord
  2
가는실선
 70
     0
 62
     4
  6
Continuous
370
    -3
390
F
  0
LAYER
  5
76
330
2
100
AcDbSymbolTableRecord
100
AcDbLayerTableRecord
  2
치수_보조선
 70
     0
 62
     4
  6
Continuous
370
    -3
390
F
  0
LAYER
  5
77
330
2
100
AcDbSymbolTableRecord
100
AcDbLayerTableRecord
  2
치수문자_일반주서
 70
     0
 62
     7
  6
Continuous
370
    15
390
F
  0
LAYER
  5
78
330
2
100
AcDbSymbolTableRecord
100
AcDbLayerTableRecord
  2
개별주서
 70
     0
 62
   100
  6
Continuous
370
    30
390
F
  0
LAYER
  5
79
330
2
100
AcDbSymbolTableRecord
100
AcDbLayerTableRecord
  2
중간선
 70
     0
 62
     2
  6
Continuous
370
    15
390
F
  0
LAYER
  5
7A
330
2
100
AcDbSymbolTableRecord
100
AcDbLayerTableRecord
  2
윤곽선
 70
     0
 62
     3
  6
Continuous
370
    40
390
F
  0
LAYER
  5
7B
330
2
100
AcDbSymbolTableRecord
100
AcDbLayerTableRecord
  2
중심마크
 70
     0
 62
   100
  6
Continuous
370
    30
390
F
  0
LAYER
  5
7C
330
2
100
AcDbSymbolTableRecord
100
AcDbLayerTableRecord
  2
가상선
 70
     0
 62
     4
  6
PHANTOM
370
    -3
390
F
  0
LAYER
  5
7D
330
2
100
AcDbSymbolTableRecord
100
AcDbLayerTableRecord
  2
특수지정선
 70
     0
 62
     5
  6
CENTERX2
370
    60
390
F
  0
LAYER
  5
143
330
2
100
AcDbSymbolTableRecord
100
AcDbLayerTableRecord
  2
Defpoints
 70
     0
 62
     7
  6
Continuous
290
     0
370
    -3
390
F
  0
ENDTAB
  0
TABLE
  2
STYLE
  5
3
330
0
100
AcDbSymbolTable
 70
     2
  0
STYLE
  5
11
330
3
100
AcDbSymbolTableRecord
100
AcDbTextStyleTableRecord
  2
Standard
 70
     0
 40
0.0
 41
1.0
 50
0.0
 71
     0
 42
3.5
  3
txt
  4

  0
STYLE
  5
93
330
3
100
AcDbSymbolTableRecord
100
AcDbTextStyleTableRecord
  2
SLDTEXTSTYLE0
 70
     0
 40
0.0
 41
0.75
 50
0.0
 71
     0
 42
3.5
  3
TXT
  4

  0
ENDTAB
  0
TABLE
  2
VIEW
  5
6
330
0
100
AcDbSymbolTable
 70
     0
  0
ENDTAB
  0
TABLE
  2
UCS
  5
7
330
0
100
AcDbSymbolTable
 70
     0
  0
ENDTAB
  0
TABLE
  2
APPID
  5
9
330
0
100
AcDbSymbolTable
 70
     3
  0
APPID
  5
12
330
9
100
AcDbSymbolTableRecord
100
AcDbRegAppTableRecord
  2
ACAD
 70
     0
  0
APPID
  5
154
330
9
100
AcDbSymbolTableRecord
100
AcDbRegAppTableRecord
  2
ACAD_DSTYLE_DIMRADIAL_EXTENSION
 70
     0
  0
APPID
  5
163
330
9
100
AcDbSymbolTableRecord
100
AcDbRegAppTableRecord
  2
PE_DIMMEASUREMENT
 70
     0
  0
ENDTAB
  0
TABLE
  2
DIMSTYLE
  5
A
330
0
100
AcDbSymbolTable
 70
     4
100
AcDbDimStyleTable
  0
DIMSTYLE
105
27
330
A
100
AcDbSymbolTableRecord
100
AcDbDimStyleTableRecord
  2
ISO-25
 70
     0
 41
2.5
 42
0.625
 43
3.75
 44
1.25
 73
     0
 74
     0
 77
     1
 78
     8
140
2.5
141
2.5
143
0.03937007874016
147
0.625
171
     3
172
     1
178
     0
271
     2
272
     2
274
     3
278
    44
283
     0
284
     8
340
11
  0
DIMSTYLE
105
D6
102
{ACAD_REACTORS
330
D5
330
155
330
144
330
FD
102
}
330
A
100
AcDbSymbolTableRecord
100
AcDbDimStyleTableRecord
  2
SLDDIMSTYLE0
 70
     0
 41
3.302
 44
0.0
 45
0.000000001
 73
     0
 74
     0
 77
     1
 78
    12
 79
     3
140
3.5
143
0.0393700787401575
147
0.875
148
0.000000001
170
     1
173
     1
178
     0
271
     2
272
     2
276
     2
284
    12
340
93
  0
DIMSTYLE
105
EA
102
{ACAD_REACTORS
330
E9
102
}
330
A
100
AcDbSymbolTableRecord
100
AcDbDimStyleTableRecord
  2
SLDDIMSTYLE1
 70
     0
 41
3.302
 44
0.0
 45
0.000000001
 73
     0
 74
     0
 77
     1
 78
     4
 79
     1
140
3.5
143
0.0393700787401575
147
0.875
148
0.000000001
170
     1
173
     1
178
     0
271
     2
272
     2
276
     2
284
    12
340
93
  0
DIMSTYLE
105
FE
330
A
100
AcDbSymbolTableRecord
100
AcDbDimStyleTableRecord
  2
SLDDIMSTYLE2
 70
     0
 41
3.302
 44
0.0
 45
0.000000001
 73
     0
 74
     0
 77
     1
 78
    12
 79
     3
140
3.5
143
0.0393700787401575
147
0.875
148
0.000000001
170
     1
172
     1
173
     1
178
     0
271
     2
272
     2
276
     2
284
    12
289
     0
340
93
  0
ENDTAB
  0
TABLE
  2
BLOCK_RECORD
  5
1
330
0
100
AcDbSymbolTable
 70
     8
  0
BLOCK_RECORD
  5
1F
330
1
100
AcDbSymbolTableRecord
100
AcDbBlockTableRecord
  2
*Model_Space
340
22
  0
BLOCK_RECORD
  5
1B
330
1
100
AcDbSymbolTableRecord
100
AcDbBlockTableRecord
  2
*Paper_Space
340
1E
  0
BLOCK_RECORD
  5
23
330
1
100
AcDbSymbolTableRecord
100
AcDbBlockTableRecord
  2
*Paper_Space0
340
26
  0
BLOCK_RECORD
  5
7E
330
1
100
AcDbSymbolTableRecord
100
AcDbBlockTableRecord
  2
블럭10
340
0
102
{BLKREFS
331
CD
102
}
  0
BLOCK_RECORD
  5
D7
330
1
100
AcDbSymbolTableRecord
100
AcDbBlockTableRecord
  2
_D
340
0
  0
BLOCK_RECORD
  5
EB
330
1
100
AcDbSymbolTableRecord
100
AcDbBlockTableRecord
  2
_D_1
340
0
  0
BLOCK_RECORD
  5
FF
330
1
100
AcDbSymbolTableRecord
100
AcDbBlockTableRecord
  2
_D_2
340
0
  0
BLOCK_RECORD
  5
112
330
1
100
AcDbSymbolTableRecord
100
AcDbBlockTableRecord
  2
SW_DOWELSYMBOL_0
340
0
102
{BLKREFS
331
118
102
}
  0
BLOCK_RECORD
  5
147
330
1
100
AcDbSymbolTableRecord
100
AcDbBlockTableRecord
  2
*D6
340
0
  0
BLOCK_RECORD
  5
158
330
1
100
AcDbSymbolTableRecord
100
AcDbBlockTableRecord
  2
*D7
340
0
  0
ENDTAB
  0
ENDSEC
  0
SECTION
  2
BLOCKS
  0
BLOCK
  5
20
330
1F
100
AcDbEntity
  8
0
100
AcDbBlockBegin
  2
*Model_Space
 70
     0
 10
0.0
 20
0.0
 30
0.0
  3
*Model_Space
  1
*Model_Space
  0
ENDBLK
  5
21
330
1F
100
AcDbEntity
  8
0
100
AcDbBlockEnd
  0
BLOCK
  5
1C
330
1B
100
AcDbEntity
 67
     1
  8
0
100
AcDbBlockBegin
  2
*Paper_Space
 70
     0
 10
0.0
 20
0.0
 30
0.0
  3
*Paper_Space
  1
*Paper_Space
  0
ENDBLK
  5
1D
330
1B
100
AcDbEntity
 67
     1
  8
0
100
AcDbBlockEnd
  0
BLOCK
  5
24
330
23
100
AcDbEntity
  8
0
100
AcDbBlockBegin
  2
*Paper_Space0
 70
     0
 10
0.0
 20
0.0
 30
0.0
  3
*Paper_Space0
  1
*Paper_Space0
  0
ENDBLK
  5
25
330
23
100
AcDbEntity
  8
0
100
AcDbBlockEnd
  0
BLOCK
  5
7F
330
7E
100
AcDbEntity
  8
0
100
AcDbBlockBegin
  2
블럭10
 70
     2
 10
0.0
 20
0.0
 30
0.0
  3
블럭10
  1
블럭10
  0
ELLIPSE
  5
81
330
7E
100
AcDbEntity
  8
중심선
100
AcDbEllipse
 10
20.54032771741204
 20
12.0471743016438
 30
0.0
 11
6.600054785286829
 21
-1.261213355974178E-13
 31
0.0
210
0.0
220
0.0
230
1.0
 40
0.636358354079598
 41
0.9219305317359503
 42
6.513795318482858
  0
ELLIPSE
  5
82
330
7E
100
AcDbEntity
  8
중심선
100
AcDbEllipse
 10
20.54032771746488
 20
12.04717430159265
 30
0.0
 11
3.960054785062283
 21
1.540847449632565E-10
 31
0.0
210
0.0
220
0.0
230
1.0
 40
0.3939339440162632
 41
1.131841032648279
 42
5.62031148352944
  0
LINE
  5
83
330
7E
100
AcDbEntity
  8
중심선
100
AcDbLine
 10
2.268634060543552
 20
16.24717430164393
 30
0.0
 11
5.714909304380834
 21
16.24717430164393
 31
0.0
  0
LINE
  5
84
330
7E
100
AcDbEntity
  8
중심선
100
AcDbLine
 10
5.245725140726316
 20
7.84717430164391
 30
0.0
 11
8.692000384563599
 21
7.84717430164391
 31
0.0
  0
LINE
  5
85
330
7E
100
AcDbEntity
  8
중심선
100
AcDbLine
 10
15.74043728645272
 20
16.24717430164393
 30
0.0
 11
8.692000384563599
 21
7.84717430164391
 31
0.0
  0
LINE
  5
86
330
7E
100
AcDbEntity
  8
중심선
100
AcDbLine
 10
0.1404042013395286
 20
13.71084872107135
 30
0.0
 11
3.58671253028996
 21
13.71088815037384
 31
0.0
  0
LINE
  5
87
330
7E
100
AcDbEntity
  8
중심선
100
AcDbLine
 10
2.750260043222114
 20
10.84717430164391
 30
0.0
 11
6.196535287059397
 21
10.84717430164391
 31
0.0
  0
LINE
  5
88
330
7E
100
AcDbEntity
  8
중심선
100
AcDbLine
 10
12.29416204261559
 20
16.24717430164393
 30
0.0
 11
5.245725140726316
 21
7.84717430164391
 31
0.0
  0
LINE
  5
89
330
7E
100
AcDbEntity
  8
중심선
100
AcDbLine
 10
10.72767329541681
 20
16.24717430164393
 30
0.0
 11
6.196535287059397
 21
10.84717430164391
 31
0.0
  0
LINE
  5
8A
330
7E
100
AcDbEntity
  8
중심선
100
AcDbLine
 10
7.28139805157953
 20
16.24717430164393
 30
0.0
 11
2.750260043222114
 21
10.84717430164391
 31
0.0
  0
LINE
  5
8B
330
7E
100
AcDbEntity
  8
중심선
100
AcDbLine
 10
5.714909304380834
 20
16.24717430164393
 30
0.0
 11
3.58671253028996
 21
13.71088815037384
 31
0.0
  0
LINE
  5
8C
330
7E
100
AcDbEntity
  8
중심선
100
AcDbLine
 10
2.268634060543552
 20
16.24717430164393
 30
0.0
 11
0.1404042013395286
 21
13.71084872107135
 31
0.0
  0
LINE
  5
8D
330
7E
100
AcDbEntity
  8
중심선
100
AcDbLine
 10
7.28139805157953
 20
16.24717430164393
 30
0.0
 11
10.72767329541681
 21
16.24717430164393
 31
0.0
  0
LINE
  5
8E
330
7E
100
AcDbEntity
  8
중심선
100
AcDbLine
 10
12.29416204261559
 20
16.24717430164393
 30
0.0
 11
15.74043728645272
 21
16.24717430164393
 31
0.0
  0
LINE
  5
8F
330
7E
100
AcDbEntity
  8
중심선
100
AcDbLine
 10
19.22036997980202
 20
11.08717430171403
 30
0.0
 11
23.66174974927406
 21
11.08717430171406
 31
0.0
  0
LINE
  5
90
330
7E
100
AcDbEntity
  8
중심선
100
AcDbLine
 10
19.22039502424796
 20
13.00717430171391
 30
0.0
 11
19.22036997980202
 21
11.08717430171403
 31
0.0
  0
LINE
  5
91
330
7E
100
AcDbEntity
  8
중심선
100
AcDbLine
 10
19.22039502424796
 20
13.00717430171391
 30
0.0
 11
26.96566020931264
 21
13.00717430171391
 31
0.0
  0
LINE
  5
92
330
7E
100
AcDbEntity
  8
중심선
100
AcDbLine
 10
22.22332737316547
 20
13.45928029700563
 30
0.0
 11
24.52862924686651
 21
15.39360700705356
 31
0.0
  0
ATTDEF
  5
94
330
7E
100
AcDbEntity
  8
FORMAT
 62
     2
100
AcDbText
 10
-9.18129528874128
 20
2.075366912832191
 30
0.0
 40
4.233333333333333
  1
E5984903 [ 3 FLUTE ]
 41
0.75
  7
SLDTEXTSTYLE0
 11
-9.18129528874128
 21
-0.0412997538344756
 31
0.0
100
AcDbAttributeDefinition
  3

  2
AUTOATTR0
 70
     0
 74
     1
  0
ENDBLK
  5
80
330
7E
100
AcDbEntity
  8
0
100
AcDbBlockEnd
  0
BLOCK
  5
D8
330
D7
100
AcDbEntity
  8
0
100
AcDbBlockBegin
  2
_D
 70
     0
 10
0.0
 20
0.0
 30
0.0
  3
_D
  1
_D
  0
LINE
  5
DA
330
D7
100
AcDbEntity
  8
치수문자_일반주서
 62
     0
370
    -2
100
AcDbLine
 10
94.55000000000001
 20
9.587499999999999
 30
0.0
 11
94.55000000000001
 21
30.0999994188765
 31
0.0
  0
LINE
  5
DB
330
D7
100
AcDbEntity
  8
치수문자_일반주서
 62
     0
370
    -2
100
AcDbLine
 10
12.00000000000002
 20
9.424948997432974
 30
0.0
 11
12.00000000000002
 21
30.0999994188765
 31
0.0
  0
LINE
  5
DC
330
D7
100
AcDbEntity
  8
치수문자_일반주서
 62
     0
370
    -2
100
AcDbLine
 10
91.24800000000002
 20
30.0999994188765
 30
0.0
 11
15.30200000000002
 21
30.0999994188765
 31
0.0
  0
SOLID
  5
DD
330
D7
100
AcDbEntity
  8
치수문자_일반주서
 62
     0
100
AcDbTrace
 10
91.24800000000002
 20
29.54966608554317
 30
0.0
 11
91.24800000000002
 21
30.65033275220984
 31
0.0
 12
94.55000000000001
 22
30.0999994188765
 32
0.0
 13
94.55000000000001
 23
30.0999994188765
 33
0.0
  0
SOLID
  5
DE
330
D7
100
AcDbEntity
  8
치수문자_일반주서
 62
     0
100
AcDbTrace
 10
15.30200000000002
 20
30.65033275220984
 30
0.0
 11
15.30200000000002
 21
29.54966608554317
 31
0.0
 12
12.00000000000002
 22
30.0999994188765
 32
0.0
 13
12.00000000000002
 23
30.0999994188765
 33
0.0
  0
MTEXT
  5
DF
330
D7
100
AcDbEntity
  8
치수문자_일반주서
 62
     0
100
AcDbMText
 10
53.27500000000001
 20
34.47499941887651
 30
0.0
 40
3.5
 41
0.0
 71
     2
 72
     1
  1
\A1;82.55 [3 1/4]
  7
SLDTEXTSTYLE0
 73
     1
 44
1.0
  0
POINT
  5
E0
330
D7
100
AcDbEntity
  8
Defpoints
 62
     0
100
AcDbPoint
 10
94.55000000000001
 20
9.524999999999999
 30
0.0
  0
POINT
  5
E1
330
D7
100
AcDbEntity
  8
Defpoints
 62
     0
100
AcDbPoint
 10
12.00000000000002
 20
9.362448997432974
 30
0.0
  0
POINT
  5
E2
330
D7
100
AcDbEntity
  8
Defpoints
 62
     0
100
AcDbPoint
 10
12.00000000000002
 20
30.0999994188765
 30
0.0
  0
ENDBLK
  5
D9
330
D7
100
AcDbEntity
  8
0
100
AcDbBlockEnd
  0
BLOCK
  5
EC
330
EB
100
AcDbEntity
  8
0
100
AcDbBlockBegin
  2
_D_1
 70
     0
 10
0.0
 20
0.0
 30
0.0
  3
_D_1
  1
_D_1
  0
LINE
  5
EE
330
EB
100
AcDbEntity
  8
치수문자_일반주서
 62
     0
370
    -2
100
AcDbLine
 10
94.55000000000001
 20
9.587499999999999
 30
0.0
 11
94.55000000000001
 21
57.1485977822756
 31
0.0
  0
LINE
  5
EF
330
EB
100
AcDbEntity
  8
치수문자_일반주서
 62
     0
370
    -2
100
AcDbLine
 10
-57.85000000000002
 20
9.087499999999995
 30
0.0
 11
-57.85000000000002
 21
57.1485977822756
 31
0.0
  0
LINE
  5
F0
330
EB
100
AcDbEntity
  8
치수문자_일반주서
 62
     0
370
    -2
100
AcDbLine
 10
91.24800000000002
 20
57.1485977822756
 30
0.0
 11
-54.54800000000002
 21
57.1485977822756
 31
0.0
  0
SOLID
  5
F1
330
EB
100
AcDbEntity
  8
치수문자_일반주서
 62
     0
100
AcDbTrace
 10
91.24800000000002
 20
56.59826444894227
 30
0.0
 11
91.24800000000002
 21
57.69893111560894
 31
0.0
 12
94.55000000000001
 22
57.1485977822756
 32
0.0
 13
94.55000000000001
 23
57.1485977822756
 33
0.0
  0
SOLID
  5
F2
330
EB
100
AcDbEntity
  8
치수문자_일반주서
 62
     0
100
AcDbTrace
 10
-54.54800000000002
 20
57.69893111560894
 30
0.0
 11
-54.54800000000002
 21
56.59826444894227
 31
0.0
 12
-57.85000000000002
 22
57.1485977822756
 32
0.0
 13
-57.85000000000002
 23
57.1485977822756
 33
0.0
  0
MTEXT
  5
F3
330
EB
100
AcDbEntity
  8
치수문자_일반주서
 62
     0
100
AcDbMText
 10
17.74141452505228
 20
61.5235977822756
 30
0.0
 40
3.5
 41
0.0
 71
     2
 72
     1
  1
\A1;152.40 [6]
  7
SLDTEXTSTYLE0
 73
     1
 44
1.0
  0
POINT
  5
F4
330
EB
100
AcDbEntity
  8
Defpoints
 62
     0
100
AcDbPoint
 10
94.55000000000001
 20
9.524999999999999
 30
0.0
  0
POINT
  5
F5
330
EB
100
AcDbEntity
  8
Defpoints
 62
     0
100
AcDbPoint
 10
-57.85000000000002
 20
9.024999999999995
 30
0.0
  0
POINT
  5
F6
330
EB
100
AcDbEntity
  8
Defpoints
 62
     0
100
AcDbPoint
 10
-57.85000000000002
 20
57.1485977822756
 30
0.0
  0
ENDBLK
  5
ED
330
EB
100
AcDbEntity
  8
0
100
AcDbBlockEnd
  0
BLOCK
  5
100
330
FF
100
AcDbEntity
  8
0
100
AcDbBlockBegin
  2
_D_2
 70
     0
 10
0.0
 20
0.0
 30
0.0
  3
_D_2
  1
_D_2
  0
LINE
  5
102
330
FF
100
AcDbEntity
  8
치수문자_일반주서
 62
     0
370
    -2
100
AcDbLine
 10
-57.41250000000002
 20
9.524999999999999
 30
0.0
 11
-70.85
 21
9.524999999999949
 31
0.0
  0
LINE
  5
103
330
FF
100
AcDbEntity
  8
치수문자_일반주서
 62
     0
370
    -2
100
AcDbLine
 10
-57.41250000000002
 20
-9.525000000000002
 30
0.0
 11
-70.84999999999992
 21
-9.525000000000052
 31
0.0
  0
LINE
  5
104
330
FF
100
AcDbEntity
  8
치수문자_일반주서
 62
     0
370
    -2
100
AcDbLine
 10
-70.85
 20
9.524999999999949
 30
0.0
 11
-70.85000000000012
 21
40.60824999999996
 31
0.0
  0
LINE
  5
105
330
FF
100
AcDbEntity
  8
치수문자_일반주서
 62
     0
370
    -2
100
AcDbLine
 10
-70.84999999999998
 20
6.222999999999949
 30
0.0
 11
-70.84999999999994
 21
-6.223000000000052
 31
0.0
  0
SOLID
  5
106
330
FF
100
AcDbEntity
  8
치수문자_일반주서
 62
     0
100
AcDbTrace
 10
-70.29966666666665
 20
6.222999999999951
 30
0.0
 11
-71.40033333333331
 21
6.222999999999947
 31
0.0
 12
-70.85
 22
9.524999999999949
 32
0.0
 13
-70.85
 23
9.524999999999949
 33
0.0
  0
SOLID
  5
107
330
FF
100
AcDbEntity
  8
치수문자_일반주서
 62
     0
100
AcDbTrace
 10
-71.40033333333326
 20
-6.223000000000054
 30
0.0
 11
-70.29966666666661
 21
-6.22300000000005
 31
0.0
 12
-70.84999999999992
 22
-9.525000000000052
 32
0.0
 13
-70.84999999999992
 23
-9.525000000000052
 33
0.0
  0
MTEXT
  5
108
330
FF
100
AcDbEntity
  8
치수문자_일반주서
 62
     0
100
AcDbMText
 10
-75.22500000000007
 20
26.82699999999993
 30
0.0
 40
3.5
 41
0.0
 71
     2
 72
     1
  1
\A1;%%c19.05 [3/4]
  7
SLDTEXTSTYLE0
 11
-3.729883127349607E-15
 21
1.0
 31
0.0
 73
     1
 44
1.0
  0
POINT
  5
109
330
FF
100
AcDbEntity
  8
Defpoints
 62
     0
100
AcDbPoint
 10
-57.35000000000002
 20
9.524999999999999
 30
0.0
  0
POINT
  5
10A
330
FF
100
AcDbEntity
  8
Defpoints
 62
     0
100
AcDbPoint
 10
-57.35000000000002
 20
-9.525000000000002
 30
0.0
  0
POINT
  5
162
330
FF
100
AcDbEntity
  8
Defpoints
 62
     0
100
AcDbPoint
 10
-70.84999999999992
 20
-9.525000000000052
 30
0.0
  0
ENDBLK
  5
101
330
FF
100
AcDbEntity
  8
0
100
AcDbBlockEnd
  0
BLOCK
  5
113
330
112
100
AcDbEntity
  8
0
100
AcDbBlockBegin
  2
SW_DOWELSYMBOL_0
 70
     0
 10
0.0
 20
0.0
 30
0.0
  3
SW_DOWELSYMBOL_0
  1
SW_DOWELSYMBOL_0
  0
CIRCLE
  5
115
330
112
100
AcDbEntity
  8
외형선
 62
     0
100
AcDbCircle
 10
0.0
 20
0.0
 30
0.0
 40
3.000000000000008
  0
HATCH
  5
116
330
112
100
AcDbEntity
  8
0
  6
Continuous
 62
     0
370
    30
100
AcDbHatch
 10
0.0
 20
0.0
 30
0.0
210
0.0
220
0.0
230
1.0
  2
SOLID
 70
     1
 71
     0
 91
        1
 92
        0
 93
        3
 72
     2
 10
0.0
 20
0.0
 40
3.000000000000008
 50
0.0
 51
90.0
 73
     1
 72
     1
 10
0.0
 20
3.000000000000008
 11
0.0
 21
0.0
 72
     1
 10
0.0
 20
0.0
 11
3.00000000000001
 21
0.0
 97
        0
 75
     0
 76
     1
 98
        1
 10
0.0
 20
0.0
  0
HATCH
  5
117
330
112
100
AcDbEntity
  8
0
  6
Continuous
 62
     0
370
    30
100
AcDbHatch
 10
0.0
 20
0.0
 30
0.0
210
0.0
220
0.0
230
1.0
  2
SOLID
 70
     1
 71
     0
 91
        1
 92
        0
 93
        3
 72
     2
 10
0.0
 20
0.0
 40
3.000000000000008
 50
180.0
 51
270.0000000000008
 73
     1
 72
     1
 10
0.0
 20
-3.000000000000008
 11
0.0
 21
0.0
 72
     1
 10
0.0
 20
0.0
 11
-3.00000000000001
 21
0.0
 97
        0
 75
     0
 76
     1
 98
        1
 10
0.0
 20
0.0
  0
ENDBLK
  5
114
330
112
100
AcDbEntity
  8
0
100
AcDbBlockEnd
  0
BLOCK
  5
148
330
147
100
AcDbEntity
  8
0
100
AcDbBlockBegin
  2
*D6
 70
     1
 10
0.0
 20
0.0
 30
0.0
  3
*D6
  1
*D6
  0
LINE
  5
14A
330
147
100
AcDbEntity
  8
치수문자_일반주서
 62
     0
370
    -2
100
AcDbLine
 10
94.61250000000003
 20
-9.525000000000002
 30
0.0
 11
107.25077404504
 21
-9.525000000000002
 31
0.0
  0
LINE
  5
14B
330
147
100
AcDbEntity
  8
치수문자_일반주서
 62
     0
370
    -2
100
AcDbLine
 10
94.61250000000001
 20
9.524999999999999
 30
0.0
 11
107.25077404504
 21
9.524999999999999
 31
0.0
  0
LINE
  5
14C
330
147
100
AcDbEntity
  8
치수문자_일반주서
 62
     0
370
    -2
100
AcDbLine
 10
107.25077404504
 20
9.524999999999999
 30
0.0
 11
107.25077404504
 21
40.3895
 31
0.0
  0
LINE
  5
14D
330
147
100
AcDbEntity
  8
치수문자_일반주서
 62
     0
370
    -2
100
AcDbLine
 10
107.25077404504
 20
-6.223000000000003
 30
0.0
 11
107.25077404504
 21
6.222999999999999
 31
0.0
  0
SOLID
  5
14E
330
147
100
AcDbEntity
  8
치수문자_일반주서
 62
     0
100
AcDbTrace
 10
106.7004407117067
 20
-6.223000000000003
 30
0.0
 11
107.8011073783733
 21
-6.223000000000003
 31
0.0
 12
107.25077404504
 22
-9.525000000000002
 32
0.0
 13
107.25077404504
 23
-9.525000000000002
 33
0.0
  0
SOLID
  5
14F
330
147
100
AcDbEntity
  8
치수문자_일반주서
 62
     0
100
AcDbTrace
 10
107.8011073783733
 20
6.222999999999999
 30
0.0
 11
106.7004407117067
 21
6.222999999999999
 31
0.0
 12
107.25077404504
 22
9.524999999999999
 32
0.0
 13
107.25077404504
 23
9.524999999999999
 33
0.0
  0
MTEXT
  5
150
330
147
100
AcDbEntity
  8
치수문자_일반주서
 62
     0
100
AcDbMText
 10
104.62577404504
 20
26.60825
 30
0.0
 40
3.5
 41
0.0
 71
     5
 72
     1
  1
\A1;{Ø19.05 [3/4]}
  7
SLDTEXTSTYLE0
 11
0.0
 21
1.0
 31
0.0
 73
     1
 44
1.0
  0
POINT
  5
151
330
147
100
AcDbEntity
  8
Defpoints
 62
     0
100
AcDbPoint
 10
94.55000000000003
 20
-9.525000000000002
 30
0.0
  0
POINT
  5
152
330
147
100
AcDbEntity
  8
Defpoints
 62
     0
100
AcDbPoint
 10
94.55000000000001
 20
9.524999999999999
 30
0.0
  0
POINT
  5
153
330
147
100
AcDbEntity
  8
Defpoints
 62
     0
100
AcDbPoint
 10
107.25077404504
 20
9.524999999999999
 30
0.0
  0
ENDBLK
  5
149
330
147
100
AcDbEntity
  8
0
100
AcDbBlockEnd
  0
BLOCK
  5
159
330
158
100
AcDbEntity
  8
0
100
AcDbBlockBegin
  2
*D7
 70
     1
 10
0.0
 20
0.0
 30
0.0
  3
*D7
  1
*D7
  0
LINE
  5
15B
330
158
100
AcDbEntity
  8
치수문자_일반주서
 62
     0
370
    -2
100
AcDbLine
 10
95.13571773792972
 20
-11.68455176652665
 30
0.0
 11
113.0479433493748
 21
-37.35491167137976
 31
0.0
  0
MTEXT
  5
15C
330
158
100
AcDbEntity
  8
치수문자_일반주서
 62
     0
100
AcDbMText
 10
107.1893252479758
 20
-24.37156776690123
 30
0.0
 40
3.5
 41
0.0
 71
     5
 72
     1
  1
\A1;R3.05 [R0.12]
  7
SLDTEXTSTYLE0
 11
0.5722390138472015
 21
-0.8200868923664018
 31
0.0
 73
     1
 44
1.0
  0
SOLID
  5
15D
330
158
100
AcDbEntity
  8
치수문자_일반주서
 62
     0
100
AcDbTrace
 10
95.5870388910287
 20
-11.36962956257274
 30
0.0
 11
94.68439658483075
 21
-11.99947397048056
 31
0.0
 12
93.24618451420626
 22
-8.976624847932792
 32
0.0
 13
93.24618451420626
 23
-8.976624847932792
 33
0.0
  0
LINE
  5
15E
330
158
100
AcDbEntity
  8
치수문자_일반주서
 62
     0
100
AcDbLine
 10
91.41199999999999
 20
-6.477000000000003
 30
0.0
 11
91.592
 21
-6.477000000000003
 31
0.0
  0
LINE
  5
15F
330
158
100
AcDbEntity
  8
치수문자_일반주서
 62
     0
100
AcDbLine
 10
91.502
 20
-6.567000000000003
 30
0.0
 11
91.502
 21
-6.387000000000003
 31
0.0
  0
POINT
  5
160
330
158
100
AcDbEntity
  8
Defpoints
 62
     0
100
AcDbPoint
 10
93.24618451420626
 20
-8.976624847932792
 30
0.0
  0
POINT
  5
161
330
158
100
AcDbEntity
  8
Defpoints
 62
     0
100
AcDbPoint
 10
91.502
 20
-6.477000000000003
 30
0.0
  0
ENDBLK
  5
15A
330
158
100
AcDbEntity
  8
0
100
AcDbBlockEnd
  0
ENDSEC
  0
SECTION
  2
ENTITIES
  0
LINE
  5
95
330
1F
100
AcDbEntity
  8
0
  6
Continuous
 62
     4
370
    15
100
AcDbLine
 10
9.506389356442085
 20
9.524999999999999
 30
0.0
 11
-57.35000000000002
 21
9.524999999999999
 31
0.0
  0
LINE
  5
96
330
1F
100
AcDbEntity
  8
0
  6
Continuous
 62
     4
370
    15
100
AcDbLine
 10
-57.35000000000002
 20
-9.525000000000002
 30
0.0
 11
9.519071690160722
 21
-9.525000000000002
 31
0.0
  0
LINE
  5
97
330
1F
100
AcDbEntity
  8
0
  6
Continuous
 62
     4
370
    15
100
AcDbLine
 10
-57.35000000000002
 20
9.524999999999995
 30
0.0
 11
-57.85000000000002
 21
9.024999999999995
 31
0.0
  0
LINE
  5
98
330
1F
100
AcDbEntity
  8
0
  6
Continuous
 62
     4
370
    15
100
AcDbLine
 10
-57.85000000000002
 20
-9.024999999999999
 30
0.0
 11
-57.35000000000002
 21
-9.524999999999999
 31
0.0
  0
LINE
  5
99
330
1F
100
AcDbEntity
  8
0
  6
Continuous
 62
     1
370
    15
100
AcDbLine
 10
80.51997142817403
 20
-9.525
 30
0.0
 11
88.7250098830291
 21
-9.525
 31
0.0
  0
LINE
  5
9A
330
1F
100
AcDbEntity
  8
0
  6
Continuous
 62
     1
370
    15
100
AcDbLine
 10
49.01507714866133
 20
9.524999999999997
 30
0.0
 11
40.81085894502615
 21
9.524999999999997
 31
0.0
  0
LINE
  5
9B
330
1F
100
AcDbEntity
  8
0
  6
Continuous
 62
     1
370
    15
100
AcDbLine
 10
54.04884327196778
 20
-9.525
 30
0.0
 11
62.25033160466555
 21
-9.525
 31
0.0
  0
LINE
  5
9C
330
1F
100
AcDbEntity
  8
0
  6
Continuous
 62
     1
370
    15
100
AcDbLine
 10
22.54019751558109
 20
9.524999999999997
 30
0.0
 11
14.33827943752247
 21
9.524999999999997
 31
0.0
  0
LINE
  5
9D
330
1F
100
AcDbEntity
  8
0
  6
Continuous
 62
     1
370
    15
100
AcDbLine
 10
27.57435508592537
 20
-9.525
 30
0.0
 11
35.77634038882424
 21
-9.525
 31
0.0
  0
LINE
  5
9E
330
1F
100
AcDbEntity
  8
0
  6
Continuous
 62
     1
370
    15
100
AcDbLine
 10
75.48627077407185
 20
9.524999999999997
 30
0.0
 11
67.2846057012603
 21
9.524999999999997
 31
0.0
  0
SPLINE
  5
A0
330
1F
100
AcDbEntity
  8
0
  6
Continuous
 62
     4
370
    15
100
AcDbSpline
210
0.0
220
0.0
230
1.0
 70
     8
 71
     3
 72
    22
 73
    18
 74
     0
 42
0.000000001
 43
0.00000001
 40
0.0
 40
0.0
 40
0.0
 40
0.0
 40
0.125
 40
0.125
 40
0.25
 40
0.25
 40
0.375
 40
0.375
 40
0.5
 40
0.5
 40
0.625
 40
0.625
 40
0.75
 40
0.75
 40
0.875
 40
0.875
 40
1.0
 40
1.0
 40
1.0
 40
1.0
 10
8.950015539887858
 20
9.358803248579752
 30
0.0
 10
8.950015539887858
 20
9.396195053147856
 30
0.0
 10
8.966735247736827
 20
9.426798996241313
 30
0.0
 10
9.037034139559497
 20
9.475392789762227
 30
0.0
 10
9.09158548408094
 20
9.493484711599098
 30
0.0
 10
9.237926183865303
 20
9.51727950893496
 30
0.0
 10
9.328991023130355
 20
9.523166621841778
 30
0.0
 10
9.548124745042424
 20
9.52609444713796
 30
0.0
 10
9.677171781623617
 20
9.52301587814466
 30
0.0
 10
9.960827246269869
 20
9.511975819851124
 30
0.0
 10
10.11708378963974
 20
9.504030127792571
 30
0.0
 10
10.45706156854209
 20
9.487152121798546
 30
0.0
 10
10.63550633520392
 20
9.478516097333694
 30
0.0
 10
11.00869403221714
 20
9.463921075709969
 30
0.0
 10
11.2054715961484
 20
9.4579454423139
 30
0.0
 10
11.60004265711485
 20
9.45107586410624
 30
0.0
 10
11.79910537425643
 20
9.450087194450681
 30
0.0
 10
12.00000000000001
 20
9.451768889547921
 30
0.0
  0
LINE
  5
A1
330
1F
100
AcDbEntity
  8
0
  6
Continuous
 62
     4
370
    15
100
AcDbLine
 10
8.950015539887858
 20
9.35880324857975
 30
0.0
 11
8.950015539887858
 21
6.228230962183241
 31
0.0
  0
SPLINE
  5
A2
330
1F
100
AcDbEntity
  8
0
  6
Continuous
 62
     4
370
    15
100
AcDbSpline
210
0.0
220
0.0
230
1.0
 70
     8
 71
     3
 72
    14
 73
    10
 74
     0
 42
0.000000001
 43
0.00000001
 40
0.0
 40
0.0
 40
0.0
 40
0.0
 40
0.2500000000000001
 40
0.2500000000000001
 40
0.5000000000000001
 40
0.5000000000000001
 40
0.7500000000000002
 40
0.7500000000000002
 40
1.0
 40
1.0
 40
1.0
 40
1.0
 10
10.09353923816244
 20
4.238193492626858
 30
0.0
 10
9.908774646228716
 20
4.363214727036498
 30
0.0
 10
9.74477876115648
 20
4.504371236268499
 30
0.0
 10
9.456801609716537
 20
4.814931969131751
 30
0.0
 10
9.333287479754441
 20
4.985258777185201
 30
0.0
 10
9.13956074742635
 20
5.332916305983566
 30
0.0
 10
9.066681980774744
 20
5.514543221240364
 30
0.0
 10
8.972106474145187
 20
5.87521911296411
 30
0.0
 10
8.950015539885362
 20
6.053247306811966
 30
0.0
 10
8.950015539885305
 20
6.228230962182711
 30
0.0
  0
SPLINE
  5
A3
330
1F
100
AcDbEntity
  8
0
  6
Continuous
 62
     4
370
    15
100
AcDbSpline
210
0.0
220
0.0
230
1.0
 70
     8
 71
     3
 72
     8
 73
     4
 74
     0
 42
0.000000001
 43
0.00000001
 40
0.0
 40
0.0
 40
0.0
 40
0.0
 40
1.0
 40
1.0
 40
1.0
 40
1.0
 10
12.0
 20
2.90875437104795
 30
0.0
 10
11.36428828830373
 20
3.364681579942142
 30
0.0
 10
10.7262286695387
 20
3.810083253101266
 30
0.0
 10
10.09353923816244
 20
4.238193492626857
 30
0.0
  0
LINE
  5
A4
330
1F
100
AcDbEntity
  8
0
  6
Continuous
 62
     4
370
    15
100
AcDbLine
 10
12.00000000000002
 20
2.908754371047939
 30
0.0
 11
12.00000000000001
 21
-3.704969465977751
 31
0.0
  0
SPLINE
  5
A5
330
1F
100
AcDbEntity
  8
0
  6
Continuous
 62
     4
370
    15
100
AcDbSpline
210
0.0
220
0.0
230
1.0
 70
     8
 71
     3
 72
    22
 73
    18
 74
     0
 42
0.000000001
 43
0.00000001
 40
0.0
 40
0.0
 40
0.0
 40
0.0
 40
0.125
 40
0.125
 40
0.25
 40
0.25
 40
0.375
 40
0.375
 40
0.5
 40
0.5
 40
0.625
 40
0.625
 40
0.75
 40
0.75
 40
0.875
 40
0.875
 40
1.0
 40
1.0
 40
1.0
 40
1.0
 10
8.950015539887858
 20
-6.213618058102234
 30
0.0
 10
8.95001553988786
 20
-6.061244937292519
 30
0.0
 10
8.966735247736825
 20
-5.90690575750074
 30
0.0
 10
9.037034139559495
 20
-5.595344508983289
 30
0.0
 10
9.09158548408094
 20
-5.436182949939361
 30
0.0
 10
9.237926183865303
 20
-5.127503376253681
 30
0.0
 10
9.328991023130353
 20
-4.978171635890665
 30
0.0
 10
9.54812474504242
 20
-4.691767344292241
 30
0.0
 10
9.677171781623619
 20
-4.554494514579018
 30
0.0
 10
9.96082724626987
 20
-4.308254594890175
 30
0.0
 10
10.11708378963974
 20
-4.197091372859266
 30
0.0
 10
10.45706156854208
 20
-4.003076048235005
 30
0.0
 10
10.63550633520392
 20
-3.923129975099387
 30
0.0
 10
11.00869403221714
 20
-3.797394332294919
 30
0.0
 10
11.2054715961484
 20
-3.751593674230415
 30
0.0
 10
11.60004265711485
 20
-3.699529865860623
 30
0.0
 10
11.79910537425643
 20
-3.692451598012207
 30
0.0
 10
12.00000000000001
 20
-3.704969465977753
 30
0.0
  0
LINE
  5
A6
330
1F
100
AcDbEntity
  8
0
  6
Continuous
 62
     4
370
    15
100
AcDbLine
 10
8.950015539887858
 20
-6.213618058102233
 30
0.0
 11
8.950015539887858
 21
-9.355194959937942
 31
0.0
  0
SPLINE
  5
A7
330
1F
100
AcDbEntity
  8
0
  6
Continuous
 62
     4
370
    15
100
AcDbSpline
210
0.0
220
0.0
230
1.0
 70
     8
 71
     3
 72
    14
 73
    10
 74
     0
 42
0.000000001
 43
0.00000001
 40
0.0
 40
0.0
 40
0.0
 40
0.0
 40
0.2499999999999999
 40
0.2499999999999999
 40
0.4999999999999999
 40
0.4999999999999999
 40
0.7499999999999998
 40
0.7499999999999998
 40
1.0
 40
1.0
 40
1.0
 40
1.0
 10
10.09353923816244
 20
-9.506417349163383
 30
0.0
 10
9.908774646228716
 20
-9.515133342044871
 30
0.0
 10
9.744778761156482
 20
-9.522053016987122
 30
0.0
 10
9.456801609716537
 20
-9.526476784668011
 30
0.0
 10
9.333287479754434
 20
-9.523752054672443
 30
0.0
 10
9.139560747426339
 20
-9.503584194474364
 30
0.0
 10
9.066681980774744
 20
-9.48590742502831
 30
0.0
 10
8.972106474145187
 20
-9.433264289311357
 30
0.0
 10
8.950015539885364
 20
-9.398670694508935
 30
0.0
 10
8.950015539885307
 20
-9.355194959938071
 30
0.0
  0
SPLINE
  5
A8
330
1F
100
AcDbEntity
  8
0
  6
Continuous
 62
     4
370
    15
100
AcDbSpline
210
0.0
220
0.0
230
1.0
 70
     8
 71
     3
 72
     8
 73
     4
 74
     0
 42
0.000000001
 43
0.00000001
 40
0.0
 40
0.0
 40
0.0
 40
0.0
 40
1.0
 40
1.0
 40
1.0
 40
1.0
 10
12.0
 20
-9.30922153513918
 30
0.0
 10
11.36428828830373
 20
-9.410558162393313
 30
0.0
 10
10.7262286695387
 20
-9.476571172889281
 30
0.0
 10
10.09353923816244
 20
-9.506417349163385
 30
0.0
  0
LINE
  5
A9
330
1F
100
AcDbEntity
  8
0
  6
Continuous
 62
     4
370
    15
100
AcDbLine
 10
-57.35000000000002
 20
9.524999999999995
 30
0.0
 11
-57.35000000000002
 21
-9.525000000000002
 31
0.0
  0
LINE
  5
AA
330
1F
100
AcDbEntity
  8
0
  6
Continuous
 62
     4
370
    15
100
AcDbLine
 10
-57.85000000000002
 20
9.024999999999995
 30
0.0
 11
-57.85000000000002
 21
-9.024999999999999
 31
0.0
  0
SPLINE
  5
AB
330
1F
100
AcDbEntity
  8
0
  6
Continuous
 62
     1
370
    15
100
AcDbSpline
210
0.0
220
0.0
230
1.0
 70
    24
 71
     3
 72
    11
 73
     7
 74
     0
 42
0.000000001
 43
0.00000001
 40
0.0
 40
0.0
 40
0.0
 40
0.0
 40
0.2675778521619195
 40
0.5420701724842689
 40
0.8247671281681589
 40
1.0
 40
1.0
 40
1.0
 40
1.0
 10
12.00000000000002
 20
4.396564626513014
 30
0.0
 10
12.00000000000002
 20
4.133769710071114
 30
0.0
 10
12.00000000000003
 20
3.601389004670104
 30
0.0
 10
12.00000000000002
 20
3.078132273628905
 30
0.0
 10
12.00000000000003
 20
2.778552478782628
 30
0.0
 10
12.00000000000003
 20
2.779592214440342
 30
0.0
 10
12.00000000000003
 20
2.779990082965823
 30
0.0
  0
LINE
  5
AC
330
1F
100
AcDbEntity
  8
0
  6
Continuous
 62
     1
370
    15
100
AcDbLine
 10
12.00000000000001
 20
-3.810823721773546
 30
0.0
 11
12.00000000000001
 21
-3.89491235836842
 31
0.0
  0
SPLINE
  5
AD
330
1F
100
AcDbEntity
  8
0
  6
Continuous
 62
     4
370
    15
100
AcDbSpline
210
0.0
220
0.0
230
1.0
 70
    24
 71
     3
 72
    16
 73
    12
 74
     0
 42
0.000000001
 43
0.00000001
 40
0.0
 40
0.0
 40
0.0
 40
0.0
 40
0.2500000000000006
 40
0.2500000000000006
 40
0.3750000000000005
 40
0.3750000000000005
 40
0.5000000000000004
 40
0.5000000000000004
 40
0.7500000000000002
 40
0.7500000000000002
 40
1.0
 40
1.0
 40
1.0
 40
1.0
 10
12.00000000000001
 20
9.451768889547987
 30
0.0
 10
12.00000000000001
 20
8.948055053407801
 30
0.0
 10
12.00000000000001
 20
8.459202366492937
 30
0.0
 10
12.00000000000001
 20
7.748832606852933
 30
0.0
 10
12.00000000000001
 20
7.515884589952343
 30
0.0
 10
12.00000000000001
 20
7.058114922669355
 30
0.0
 10
12.00000000000001
 20
6.832343876068774
 30
0.0
 10
12.00000000000001
 20
6.175051872963141
 30
0.0
 10
12.00000000000001
 20
5.768705036281661
 30
0.0
 10
12.00000000000001
 20
5.024703241825387
 30
0.0
 10
12.00000000000001
 20
4.685668215019247
 30
0.0
 10
12.00000000000001
 20
4.39656462651295
 30
0.0
  0
SPLINE
  5
AE
330
1F
100
AcDbEntity
  8
0
  6
Continuous
 62
     4
370
    15
100
AcDbSpline
210
0.0
220
0.0
230
1.0
 70
    24
 71
     3
 72
    14
 73
    10
 74
     0
 42
0.000000001
 43
0.00000001
 40
0.0
 40
0.0
 40
0.0
 40
0.0
 40
0.2500000000000001
 40
0.2500000000000001
 40
0.5000000000000001
 40
0.5000000000000001
 40
0.7500000000000002
 40
0.7500000000000002
 40
1.0
 40
1.0
 40
1.0
 40
1.0
 10
12.00000000000002
 20
-3.894912358368662
 30
0.0
 10
12.00000000000002
 20
-4.135034947926826
 30
0.0
 10
12.00000000000002
 20
-4.428245210391069
 30
0.0
 10
12.00000000000002
 20
-5.127750887925954
 30
0.0
 10
12.00000000000002
 20
-5.534187945080144
 30
0.0
 10
12.00000000000002
 20
-6.454630295743696
 30
0.0
 10
12.00000000000002
 20
-6.968665056133923
 30
0.0
 10
12.00000000000002
 20
-8.083126059319682
 30
0.0
 10
12.00000000000002
 20
-8.683413610018848
 30
0.0
 10
12.00000000000002
 20
-9.309221535139182
 30
0.0
  0
SPLINE
  5
B0
330
1F
100
AcDbEntity
  8
0
  6
Continuous
 62
     1
370
    15
100
AcDbSpline
210
0.0
220
0.0
230
1.0
 70
     8
 71
     3
 72
    26
 73
    22
 74
     0
 42
0.000000001
 43
0.00000001
 40
0.0
 40
0.0
 40
0.0
 40
0.0
 40
0.0539921658800628
 40
0.107989438738917
 40
0.1619929221137592
 40
0.2159966346455349
 40
0.2699941012479667
 40
0.3239864231280948
 40
0.3779747088845004
 40
0.4319600712484535
 40
0.4883682299044847
 40
0.544776121941466
 40
0.6011838509260709
 40
0.6575915204594619
 40
0.7139992341553754
 40
0.7693991562713367
 40
0.8247997638886447
 40
0.8802014083468556
 40
0.935604440491691
 40
0.992015371051108
 40
1.0
 40
1.0
 40
1.0
 40
1.0
 10
91.502
 20
-9.525000000000002
 30
0.0
 10
90.73736149692009
 20
-9.525000000000002
 30
0.0
 10
89.2080121655894
 20
-9.525000000000002
 30
0.0
 10
86.91378674285069
 20
-9.47568167029618
 30
0.0
 10
84.61929285163592
 20
-9.077910246196724
 30
0.0
 10
82.32478998931013
 20
-8.376091217559505
 30
0.0
 10
80.03055648599083
 20
-7.400703891808415
 30
0.0
 10
77.73660869769697
 20
-6.181865774505003
 30
0.0
 10
75.44286931061906
 20
-4.760152005696091
 30
0.0
 10
73.11503117360863
 20
-3.158495560231281
 30
0.0
 10
70.75266645612928
 20
-1.423179827765648
 30
0.0
 10
68.3560727565503
 20
0.3883583355000788
 30
0.0
 10
65.95946596024675
 20
2.185961274046728
 30
0.0
 10
63.56287666241263
 20
3.905251992931444
 30
0.0
 10
61.18052540135426
 20
5.474979050702689
 30
0.0
 10
58.81255574680999
 20
6.843419596210894
 30
0.0
 10
56.45879337063435
 20
7.964675190039028
 30
0.0
 10
54.10497588599828
 20
8.819095860651002
 30
0.0
 10
51.73685065770312
 20
9.3396576043964
 30
0.0
 10
50.04017475498136
 20
9.564699069409295
 30
0.0
 10
49.12816091090801
 20
9.510903090373004
 30
0.0
 10
49.01507714866134
 20
9.504232740199377
 30
0.0
  0
SPLINE
  5
B1
330
1F
100
AcDbEntity
  8
0
  6
Continuous
 62
     1
370
    15
100
AcDbSpline
210
0.0
220
0.0
230
1.0
 70
     8
 71
     3
 72
    10
 73
     6
 74
     0
 42
0.000000001
 43
0.00000001
 40
0.0
 40
0.0
 40
0.0
 40
0.0
 40
0.2874842879163533
 40
0.6437342270780021
 40
1.0
 40
1.0
 40
1.0
 40
1.0
 10
18.43796379321833
 20
-7.125456777555084
 30
0.0
 10
17.82103301703222
 20
-7.424937986694559
 30
0.0
 10
16.43960289002526
 20
-8.095535695136551
 30
0.0
 10
14.29362548764815
 20
-8.850600774959965
 30
0.0
 10
12.76455315573346
 20
-9.156345683624545
 30
0.0
 10
12.0
 20
-9.309221535139192
 30
0.0
  0
SPLINE
  5
B2
330
1F
100
AcDbEntity
  8
0
  6
Continuous
 62
     4
370
    15
100
AcDbSpline
210
0.0
220
0.0
230
1.0
 70
    24
 71
     3
 72
    13
 73
     9
 74
     0
 42
0.000000001
 43
0.00000001
 40
0.0
 40
0.0
 40
0.0
 40
0.0
 40
0.0033331128014796
 40
0.2101780156478364
 40
0.4230214346894067
 40
0.6298663375357637
 40
0.8427097565773329
 40
1.0
 40
1.0
 40
1.0
 40
1.0
 10
12.00000000000003
 20
-3.810833721773546
 30
0.0
 10
12.00000000000003
 20
-3.81370212551238
 30
0.0
 10
12.00000000000001
 20
-3.994576713866298
 30
0.0
 10
12.00000000000003
 20
-4.588286937488862
 30
0.0
 10
12.00000000000002
 20
-5.57622743764769
 30
0.0
 10
12.00000000000003
 20
-6.802500748581975
 30
0.0
 10
12.00000000000002
 20
-8.056766967506366
 30
0.0
 10
12.00000000000002
 20
-8.935710054866918
 30
0.0
 10
12.00000000000002
 20
-9.309221535139184
 30
0.0
  0
SPLINE
  5
B3
330
1F
100
AcDbEntity
  8
0
  6
Continuous
 62
     1
370
    15
100
AcDbSpline
210
0.0
220
0.0
230
1.0
 70
     8
 71
     3
 72
    14
 73
    10
 74
     0
 42
0.000000001
 43
0.00000001
 40
0.0
 40
0.0
 40
0.0
 40
0.0
 40
0.1472695680178788
 40
0.2945325908348869
 40
0.4417921135129571
 40
0.5890511847052444
 40
0.7363128535282566
 40
0.8835801664329629
 40
1.0
 40
1.0
 40
1.0
 40
1.0
 10
12.0
 20
-3.163782464288261
 30
0.0
 10
12.76455319264265
 20
-3.697170629039013
 30
0.0
 10
14.29362559837407
 20
-4.763923252810084
 30
0.0
 10
16.58715381008707
 20
-6.179964078671783
 30
0.0
 10
18.88061368924109
 20
-7.399810325004388
 30
0.0
 10
21.17406294251858
 20
-8.377216658846857
 30
0.0
 10
23.46756742371341
 20
-9.070473158777396
 30
0.0
 10
25.60099292960543
 20
-9.47138263973667
 30
0.0
 10
26.96995025815078
 20
-9.490582919419706
 30
0.0
 10
27.57435508592537
 20
-9.499059985499905
 30
0.0
  0
SPLINE
  5
B4
330
1F
100
AcDbEntity
  8
0
  6
Continuous
 62
     1
370
    15
100
AcDbSpline
210
0.0
220
0.0
230
1.0
 70
     8
 71
     3
 72
    22
 73
    18
 74
     0
 42
0.000000001
 43
0.00000001
 40
0.0
 40
0.0
 40
0.0
 40
0.0
 40
0.0236682574136106
 40
0.095530363059611
 40
0.1673920150071888
 40
0.2379690800262313
 40
0.3085458660890393
 40
0.3791228214267201
 40
0.4497003941896926
 40
0.5184755556127089
 40
0.5872544413191058
 40
0.6560384688833757
 40
0.7248290506151356
 40
0.793627589407477
 40
0.8624258362631824
 40
0.9312161711734847
 40
1.0
 40
1.0
 40
1.0
 40
1.0
 10
58.15185681820223
 20
7.117022023861971
 30
0.0
 10
58.4149741695803
 20
7.255810593889437
 30
0.0
 10
59.47697445397706
 20
7.815992201328932
 30
0.0
 10
61.33783923396328
 20
8.530021335010401
 30
0.0
 10
63.72021169368594
 20
9.205655436327689
 30
0.0
 10
66.08816827717563
 20
9.536552076169896
 30
0.0
 10
68.44187499719423
 20
9.540286622748754
 30
0.0
 10
70.79556957784324
 20
9.212888738806074
 30
0.0
 10
73.12928674879514
 20
8.572731642982397
 30
0.0
 10
75.4428742607369
 20
7.650508094306188
 30
0.0
 10
77.73660737118092
 20
6.485043886219457
 30
0.0
 10
80.03055684147667
 20
5.106505545085533
 30
0.0
 10
82.32478989404423
 20
3.56031864677672
 30
0.0
 10
84.61929287715482
 20
1.896667354253525
 30
0.0
 10
86.91378673604656
 20
0.1727481790821963
 30
0.0
 10
89.20801216729016
 20
-1.564459534773151
 30
0.0
 10
90.73736149748697
 20
-2.669440940411628
 30
0.0
 10
91.502
 20
-3.22190551513598
 30
0.0
  0
SPLINE
  5
B5
330
1F
100
AcDbEntity
  8
0
  6
Continuous
 62
     1
370
    15
100
AcDbSpline
210
0.0
220
0.0
230
1.0
 70
     8
 71
     3
 72
    20
 73
    16
 74
     0
 42
0.000000001
 43
0.00000001
 40
0.0
 40
0.0
 40
0.0
 40
0.0
 40
0.2499999999999958
 40
0.2499999999999958
 40
0.3749999999999963
 40
0.3749999999999963
 40
0.4999999999999968
 40
0.4999999999999968
 40
0.6249999999999976
 40
0.6249999999999976
 40
0.7499999999999983
 40
0.7499999999999983
 40
0.8749999999999992
 40
0.8749999999999992
 40
1.0
 40
1.0
 40
1.0
 40
1.0
 10
91.50200000000001
 20
-3.221905515135999
 30
0.0
 10
91.89130736330735
 20
-3.497925969738802
 30
0.0
 10
92.26298606595584
 20
-3.741545219402486
 30
0.0
 10
92.80634550459276
 20
-4.042609529394788
 30
0.0
 10
92.98207934903515
 20
-4.13046801397692
 30
0.0
 10
93.31283426306918
 20
-4.276141637014254
 30
0.0
 10
93.4694446308436
 20
-4.334827210492153
 30
0.0
 10
93.76252519555439
 20
-4.42356251679386
 30
0.0
 10
93.89473240362885
 20
-4.452248864951047
 30
0.0
 10
94.12652028628709
 20
-4.482506780623188
 30
0.0
 10
94.22716278982581
 20
-4.484054376871053
 30
0.0
 10
94.38908820824528
 20
-4.466080954315316
 30
0.0
 10
94.44961660822305
 20
-4.446917984098919
 30
0.0
 10
94.5301867357935
 20
-4.398415499425434
 30
0.0
 10
94.55
 20
-4.368892543930541
 30
0.0
 10
94.54999999999998
 20
-4.340512258199304
 30
0.0
  0
SPLINE
  5
B6
330
1F
100
AcDbEntity
  8
0
  6
Continuous
 62
     1
370
    15
100
AcDbSpline
210
0.0
220
0.0
230
1.0
 70
     8
 71
     3
 72
    11
 73
     7
 74
     0
 42
0.000000001
 43
0.00000001
 40
0.0
 40
0.0
 40
0.0
 40
0.0
 40
0.2885614302454331
 40
0.6138623557460428
 40
0.9471477007364381
 40
1.0
 40
1.0
 40
1.0
 40
1.0
 10
93.14479718127909
 20
-4.199758899348708
 30
0.0
 10
92.98965490607887
 20
-4.235959265356728
 30
0.0
 10
92.659617719719
 20
-4.312969009651563
 30
0.0
 10
92.09110118059306
 20
-4.541416676551076
 30
0.0
 10
91.65109484754069
 20
-4.7558752897913
 30
0.0
 10
91.40959967011173
 20
-4.88765301511777
 30
0.0
 10
91.3765451995671
 20
-4.905689992032267
 30
0.0
  0
SPLINE
  5
B7
330
1F
100
AcDbEntity
  8
0
  6
Continuous
 62
     1
370
    15
100
AcDbSpline
210
0.0
220
0.0
230
1.0
 70
     8
 71
     3
 72
     8
 73
     4
 74
     0
 42
0.000000001
 43
0.00000001
 40
0.0
 40
0.0
 40
0.0
 40
0.0
 40
1.0
 40
1.0
 40
1.0
 40
1.0
 10
94.55
 20
-5.568392862373729
 30
0.0
 10
93.45888231960768
 20
-5.493565819759738
 30
0.0
 10
92.4002860398041
 20
-5.276077758008848
 30
0.0
 10
91.37654519956712
 20
-4.905689992032243
 30
0.0
  0
LINE
  5
B8
330
1F
100
AcDbEntity
  8
0
  6
Continuous
 62
     1
370
    15
100
AcDbLine
 10
94.55
 20
-6.477000000000003
 30
0.0
 11
94.55
 21
-4.340512258199304
 31
0.0
  0
SPLINE
  5
B9
330
1F
100
AcDbEntity
  8
0
  6
Continuous
 62
     1
370
    15
100
AcDbSpline
210
0.0
220
0.0
230
1.0
 70
     8
 71
     3
 72
    29
 73
    25
 74
     0
 42
0.000000001
 43
0.00000001
 40
0.0
 40
0.0
 40
0.0
 40
0.0
 40
0.0129467251111061
 40
0.0620127019150877
 40
0.1110785368891971
 40
0.1601443201501194
 40
0.2092101418254766
 40
0.2573993436432301
 40
0.3055891417391277
 40
0.353779841723216
 40
0.4019717487759834
 40
0.4510403686156461
 40
0.5001097470997194
 40
0.5491799735965739
 40
0.598251137295856
 40
0.6473233271898544
 40
0.6955239562538704
 40
0.743726442856764
 40
0.7919266947197389
 40
0.8401244705061093
 40
0.887090766631836
 40
0.9340533266620199
 40
0.9810131173487707
 40
1.0
 40
1.0
 40
1.0
 40
1.0
 10
71.38505446532946
 20
-7.119679496271222
 30
0.0
 10
71.17426152165126
 20
-7.231907563637103
 30
0.0
 10
70.16459769779308
 20
-7.769461704034853
 30
0.0
 10
68.35606966563164
 20
-8.473595935841697
 30
0.0
 10
65.95946678845968
 20
-9.175912652710322
 30
0.0
 10
63.56287644047194
 20
-9.529762117744498
 30
0.0
 10
61.18052545922723
 20
-9.54714344202611
 30
0.0
 10
58.81255573293337
 20
-9.227919585213519
 30
0.0
 10
56.4587933686995
 20
-8.591887676096569
 30
0.0
 10
54.10497590761531
 20
-7.658633939790442
 30
0.0
 10
51.73685057252388
 20
-6.453312239481066
 30
0.0
 10
49.35431377230788
 20
-5.012490097992966
 30
0.0
 10
46.95749040423436
 20
-3.383350494282125
 30
0.0
 10
44.56060518727869
 20
-1.632907240806729
 30
0.0
 10
42.1636626474538
 20
0.176080906858606
 30
0.0
 10
39.78085832581138
 20
1.968116035414064
 30
0.0
 10
37.41219693567517
 20
3.67990987368924
 30
0.0
 10
35.05767362339487
 20
5.254040136775382
 30
0.0
 10
32.70326085060165
 20
6.646860309797606
 30
0.0
 10
30.36898669886712
 20
7.798459819063699
 30
0.0
 10
28.05498446039784
 20
8.683265446157558
 30
0.0
 10
25.76118565952
 20
9.255970670382665
 30
0.0
 10
23.92295108848949
 20
9.52901691163542
 30
0.0
 10
22.84931185229524
 20
9.496592130135369
 30
0.0
 10
22.54019751558107
 20
9.48725662479186
 30
0.0
  0
SPLINE
  5
BA
330
1F
100
AcDbEntity
  8
0
  6
Continuous
 62
     1
370
    15
100
AcDbSpline
210
0.0
220
0.0
230
1.0
 70
     8
 71
     3
 72
    29
 73
    25
 74
     0
 42
0.000000001
 43
0.00000001
 40
0.0
 40
0.0
 40
0.0
 40
0.0
 40
0.0219035386274807
 40
0.0709769435268137
 40
0.1200514884842022
 40
0.1691272381008107
 40
0.2182026705304894
 40
0.2664033365154208
 40
0.3146015818505259
 40
0.3627977085604026
 40
0.4109920196750493
 40
0.4600608789794594
 40
0.5091291588266953
 40
0.5581969490103715
 40
0.6072643394275542
 40
0.6563314200598033
 40
0.7045213857260957
 40
0.752711160921286
 40
0.8009010516972292
 40
0.8490913640506863
 40
0.8960509913286789
 40
0.9430131615444969
 40
0.9899788426169125
 40
1.0
 40
1.0
 40
1.0
 40
1.0
 10
31.67602889762886
 20
7.112668020788549
 30
0.0
 10
32.03265790324735
 20
7.297495298227033
 30
0.0
 10
33.1882902064246
 20
7.896415657903869
 30
0.0
 10
35.14296173772797
 20
8.625823578398217
 30
0.0
 10
37.54006245590146
 20
9.265667576894598
 30
0.0
 10
39.93722180505299
 20
9.558702279749939
 30
0.0
 10
42.32014943947635
 20
9.513233104084506
 30
0.0
 10
44.68874734577621
 20
9.13305041623438
 30
0.0
 10
47.04298898592297
 20
8.439563761323315
 30
0.0
 10
49.39710102313582
 20
7.454139521291202
 30
0.0
 10
51.76533412898704
 20
6.203445034332918
 30
0.0
 10
54.14783897201388
 20
4.725815707425585
 30
0.0
 10
56.54453339810229
 20
3.069959390688676
 30
0.0
 10
58.94120470070604
 20
1.304061689281727
 30
0.0
 10
61.3378396408172
 20
-0.5085778163214436
 30
0.0
 10
63.72021158845227
 20
-2.292280805834229
 30
0.0
 10
66.08816829926167
 20
-3.984493311197223
 30
0.0
 10
68.44187501331535
 20
-5.528581035861553
 30
0.0
 10
70.7955694912721
 20
-6.882026360389259
 30
0.0
 10
73.12928707541404
 20
-7.986021568223935
 30
0.0
 10
75.4428730745656
 20
-8.819455504161326
 30
0.0
 10
77.73661180274803
 20
-9.329416747447628
 30
0.0
 10
79.42898203110681
 20
-9.552985217600966
 30
0.0
 10
80.35681214674105
 20
-9.506826523086197
 30
0.0
 10
80.51997142817405
 20
-9.498709498965065
 30
0.0
  0
SPLINE
  5
BB
330
1F
100
AcDbEntity
  8
0
  6
Continuous
 62
     1
370
    15
100
AcDbSpline
210
0.0
220
0.0
230
1.0
 70
     8
 71
     3
 72
    24
 73
    20
 74
     0
 42
0.000000001
 43
0.00000001
 40
0.0
 40
0.0
 40
0.0
 40
0.0
 40
0.1249999999999987
 40
0.1249999999999987
 40
0.2499999999999973
 40
0.2499999999999973
 40
0.3124999999999954
 40
0.3124999999999954
 40
0.3749999999999934
 40
0.3749999999999934
 40
0.4999999999999948
 40
0.4999999999999948
 40
0.6249999999999961
 40
0.6249999999999961
 40
0.7499999999999974
 40
0.7499999999999974
 40
0.8749999999999988
 40
0.8749999999999988
 40
1.0
 40
1.0
 40
1.0
 40
1.0
 10
94.55
 20
1.355273725923482
 30
0.0
 10
94.55
 20
1.266997130960584
 30
0.0
 10
94.5339418522696
 20
1.193111912212372
 30
0.0
 10
94.45675529130645
 20
1.087093939839117
 30
0.0
 10
94.39564739943111
 20
1.056830468256884
 30
0.0
 10
94.26849209105256
 20
1.053911107938504
 30
0.0
 10
94.21943029337866
 20
1.06003313541459
 30
0.0
 10
94.11123826438406
 20
1.086423153339362
 30
0.0
 10
94.0524321929041
 20
1.106453581417393
 30
0.0
 10
93.86240158271315
 20
1.185476268595315
 30
0.0
 10
93.7166300115812
 20
1.264329409861713
 30
0.0
 10
93.40851544333941
 20
1.45376068494665
 30
0.0
 10
93.24333314212676
 20
1.565826932116093
 30
0.0
 10
92.90859105520369
 20
1.803487863042515
 30
0.0
 10
92.73571324479188
 20
1.931333246545636
 30
0.0
 10
92.3848639104831
 20
2.193874495260419
 30
0.0
 10
92.20981665288575
 20
2.326413136762476
 30
0.0
 10
91.85784496323316
 20
2.590309368325697
 30
0.0
 10
91.67989807365763
 20
2.722057480990999
 30
0.0
 10
91.50200000000002
 20
2.849948372461885
 30
0.0
  0
SPLINE
  5
BC
330
1F
100
AcDbEntity
  8
0
  6
Continuous
 62
     1
370
    15
100
AcDbSpline
210
0.0
220
0.0
230
1.0
 70
     8
 71
     3
 72
    14
 73
    10
 74
     0
 42
0.000000001
 43
0.00000001
 40
0.0
 40
0.0
 40
0.0
 40
0.0
 40
0.1432332982231632
 40
0.2864801445121318
 40
0.4297434663892544
 40
0.5730073961861161
 40
0.7162547564483831
 40
0.859488468516843
 40
1.0
 40
1.0
 40
1.0
 40
1.0
 10
91.50200000000001
 20
2.849948372461881
 30
0.0
 10
90.73736149911286
 20
3.390678927712306
 30
0.0
 10
89.20801217216798
 20
4.47219118451249
 30
0.0
 10
86.91378671653217
 20
5.922584943911646
 30
0.0
 10
84.61929295034291
 20
7.184700149363612
 30
0.0
 10
82.32478962082186
 20
8.210710129813991
 30
0.0
 10
80.03055786100862
 20
8.961213642742003
 30
0.0
 10
77.7510786351517
 20
9.437734251735634
 30
0.0
 10
76.23636279334329
 20
9.49415487319912
 30
0.0
 10
75.48627077407185
 20
9.522094541296584
 30
0.0
  0
SPLINE
  5
BD
330
1F
100
AcDbEntity
  8
0
  6
Continuous
 62
     1
370
    15
100
AcDbSpline
210
0.0
220
0.0
230
1.0
 70
     8
 71
     3
 72
    22
 73
    18
 74
     0
 42
0.000000001
 43
0.00000001
 40
0.0
 40
0.0
 40
0.0
 40
0.0
 40
0.0105766216881602
 40
0.0834094592410215
 40
0.1562438199017008
 40
0.2277845848217829
 40
0.2993281067546832
 40
0.3708683118220923
 40
0.4424048418251358
 40
0.5121135741704149
 40
0.5818167612948508
 40
0.6515158380798288
 40
0.7212122436183801
 40
0.7909074197431547
 40
0.8606028095483558
 40
0.93029985590889
 40
1.0
 40
1.0
 40
1.0
 40
1.0
 10
44.90869505184579
 20
-7.130677198806757
 30
0.0
 10
44.79266957879035
 20
-7.193365539596094
 30
0.0
 10
43.8776683382174
 20
-7.687738956753367
 30
0.0
 10
42.16366175990085
 20
-8.370336918259017
 30
0.0
 10
39.78085855864236
 20
-9.108591729085378
 30
0.0
 10
37.41219687482597
 20
-9.499154859437018
 30
0.0
 10
35.05767363570926
 20
-9.565002446707386
 30
0.0
 10
32.70326086219035
 20
-9.298383138544812
 30
0.0
 10
30.36898664080053
 20
-8.715597579119546
 30
0.0
 10
28.054984674842
 20
-7.845439352567997
 30
0.0
 10
25.76118485753802
 20
-6.725181636618556
 30
0.0
 10
23.46756653992881
 20
-5.384045185719369
 30
0.0
 10
21.17406317931356
 20
-3.866250374712687
 30
0.0
 10
18.88061362581416
 20
-2.221007255773835
 30
0.0
 10
16.58715382700134
 20
-0.5046632829459485
 30
0.0
 10
14.29362559414522
 20
1.235134378924982
 30
0.0
 10
12.76455319123301
 20
2.350872775570791
 30
0.0
 10
12.0
 20
2.908754371047952
 30
0.0
  0
SPLINE
  5
BE
330
1F
100
AcDbEntity
  8
0
  6
Continuous
 62
     4
370
    15
100
AcDbSpline
210
0.0
220
0.0
230
1.0
 70
    24
 71
     3
 72
    15
 73
    11
 74
     0
 42
0.000000001
 43
0.00000001
 40
0.0
 40
0.0
 40
0.0
 40
0.0
 40
0.1199362591963243
 40
0.2427430560670162
 40
0.3741926090706621
 40
0.5094542080164396
 40
0.6409037610200863
 40
0.7761653599658641
 40
0.9076149129695111
 40
1.0
 40
1.0
 40
1.0
 40
1.0
 10
12.00000000000002
 20
9.362448997432976
 30
0.0
 10
12.00000000000002
 20
8.910349191152559
 30
0.0
 10
12.00000000000003
 20
7.995329084979552
 30
0.0
 10
12.00000000000002
 20
6.706468368153907
 30
0.0
 10
12.00000000000002
 20
5.505002962805134
 30
0.0
 10
12.00000000000003
 20
4.469898037012175
 30
0.0
 10
12.00000000000002
 20
3.644625236692767
 30
0.0
 10
12.00000000000002
 20
3.080995144357592
 30
0.0
 10
12.00000000000002
 20
2.77273376531183
 30
0.0
 10
12.00000000000002
 20
2.775370531130184
 30
0.0
 10
12.00000000000002
 20
2.776458824879401
 30
0.0
  0
SPLINE
  5
BF
330
1F
100
AcDbEntity
  8
0
  6
Continuous
 62
     1
370
    15
100
AcDbSpline
210
0.0
220
0.0
230
1.0
 70
     8
 71
     3
 72
    25
 73
    21
 74
     0
 42
0.000000001
 43
0.00000001
 40
0.0
 40
0.0
 40
0.0
 40
0.0
 40
0.0545498120599516
 40
0.1090971997257654
 40
0.1636432909124504
 40
0.2181892148652326
 40
0.2727361010009678
 40
0.3272850777491753
 40
0.3818372713952508
 40
0.4363938049284058
 40
0.4933957009807113
 40
0.5503988182629401
 40
0.6074032598238324
 40
0.6644091007033767
 40
0.7214145731421374
 40
0.7774039266801047
 40
0.8333904684183566
 40
0.8893745491852815
 40
0.9453565209771302
 40
1.0
 40
1.0
 40
1.0
 40
1.0
 10
12.0
 20
9.362448997432967
 30
0.0
 10
12.76455319142113
 20
9.438689456300036
 30
0.0
 10
14.29362559470957
 20
9.59116698562797
 30
0.0
 10
16.58715382474418
 20
9.422523160144408
 30
0.0
 10
18.8806136342784
 20
8.966518132577887
 30
0.0
 10
21.1740631477136
 20
8.210141735401516
 30
0.0
 10
23.4675666578687
 20
7.185720856581209
 30
0.0
 10
25.76118441735017
 20
5.924876347493886
 30
0.0
 10
28.05498631780662
 20
4.469505275032348
 30
0.0
 10
30.38320483472307
 20
2.843439161130439
 30
0.0
 10
32.74593807726612
 20
1.094046729688649
 30
0.0
 10
35.14295933251546
 20
-0.7199058871985251
 30
0.0
 10
37.54006310083535
 20
-2.508093070132183
 30
0.0
 10
39.93722163061923
 20
-4.206307474849237
 30
0.0
 10
42.32014949092513
 20
-5.744711302763561
 30
0.0
 10
44.68874731151927
 20
-7.071301168606526
 30
0.0
 10
47.0429890720135
 20
-8.147278522309696
 30
0.0
 10
49.39710071304775
 20
-8.934389858942144
 30
0.0
 10
51.73233609688403
 20
-9.434880622104215
 30
0.0
 10
53.28292791599366
 20
-9.490676587996527
 30
0.0
 10
54.04884327196778
 20
-9.51823702430972
 30
0.0
  0
SPLINE
  5
C0
330
1F
100
AcDbEntity
  8
0
  6
Continuous
 62
     1
370
    15
100
AcDbSpline
210
0.0
220
0.0
230
1.0
 70
     8
 71
     3
 72
    10
 73
     6
 74
     0
 42
0.000000001
 43
0.00000001
 40
0.0
 40
0.0
 40
0.0
 40
0.0
 40
0.3330573322057074
 40
0.6665444364508588
 40
1.0
 40
1.0
 40
1.0
 40
1.0
 10
84.62251565066254
 20
7.143585541845209
 30
0.0
 10
85.38630208162414
 20
7.500459934429005
 30
0.0
 10
86.91486052176587
 20
8.214669224803043
 30
0.0
 10
89.20801209309002
 20
8.974555906021868
 30
0.0
 10
90.73736147275437
 20
9.452955214895985
 30
0.0
 10
91.502
 20
9.524999999999995
 30
0.0
  0
LINE
  5
C2
330
1F
100
AcDbEntity
  8
0
  6
Continuous
 62
     1
370
    15
100
AcDbLine
 10
94.55
 20
6.167475262783494
 30
0.0
 11
94.55
 21
6.333621564935934
 31
0.0
  0
SPLINE
  5
C3
330
1F
100
AcDbEntity
  8
0
  6
Continuous
 62
     1
370
    15
100
AcDbSpline
210
0.0
220
0.0
230
1.0
 70
     8
 71
     3
 72
    18
 73
    14
 74
     0
 42
0.000000001
 43
0.00000001
 40
0.0
 40
0.0
 40
0.0
 40
0.0
 40
0.2500000000000005
 40
0.2500000000000005
 40
0.3750000000000005
 40
0.3750000000000005
 40
0.5000000000000006
 40
0.5000000000000006
 40
0.6250000000000003
 40
0.6250000000000003
 40
0.7500000000000001
 40
0.7500000000000001
 40
1.0
 40
1.0
 40
1.0
 40
1.0
 10
94.55
 20
6.167475262783499
 30
0.0
 10
94.4013796212405
 20
5.794600386384976
 30
0.0
 10
94.22186809478634
 20
5.448209991890958
 30
0.0
 10
93.89888471461785
 20
4.974677814563432
 30
0.0
 10
93.78115234346573
 20
4.823443571571215
 30
0.0
 10
93.5320911183733
 20
4.544823148091165
 30
0.0
 10
93.40093987808987
 20
4.417230060198689
 30
0.0
 10
93.12563926191287
 20
4.185047860890324
 30
0.0
 10
92.98149164311025
 20
4.080455639791801
 30
0.0
 10
92.6801060317171
 20
3.894438416319171
 30
0.0
 10
92.52268105620713
 20
3.813209580290865
 30
0.0
 10
92.04535535194843
 20
3.610426227940117
 30
0.0
 10
91.71394241105551
 20
3.526080230646886
 30
0.0
 10
91.37654519956713
 20
3.487962176439307
 30
0.0
  0
SPLINE
  5
C4
330
1F
100
AcDbEntity
  8
0
  6
Continuous
 62
     1
370
    15
100
AcDbSpline
210
0.0
220
0.0
230
1.0
 70
     8
 71
     3
 72
     8
 73
     4
 74
     0
 42
0.000000001
 43
0.00000001
 40
0.0
 40
0.0
 40
0.0
 40
0.0
 40
1.0
 40
1.0
 40
1.0
 40
1.0
 10
94.55
 20
1.837376426293262
 30
0.0
 10
93.45888231960767
 20
2.469810806431686
 30
0.0
 10
92.40028603980414
 20
3.021927505083461
 30
0.0
 10
91.37654519956715
 20
3.487962176439328
 30
0.0
  0
LINE
  5
C5
330
1F
100
AcDbEntity
  8
0
  6
Continuous
 62
     1
370
    15
100
AcDbLine
 10
94.55
 20
1.355273725923484
 30
0.0
 11
94.55
 21
1.837376426293263
 31
0.0
  0
LINE
  5
C6
330
1F
100
AcDbEntity
  8
0
  6
Continuous
 62
     4
370
    15
100
AcDbLine
 10
12.00000000000002
 20
-3.163782464288274
 30
0.0
 11
12.00000000000002
 21
2.908754371047939
 31
0.0
  0
LINE
  5
C7
330
1F
100
AcDbEntity
  8
0
  6
Continuous
 62
     1
370
    15
100
AcDbLine
 10
94.55
 20
-4.340512258199302
 30
0.0
 11
94.55
 21
1.355273725923484
 31
0.0
  0
LINE
  5
C8
330
1F
100
AcDbEntity
  8
0
  6
Continuous
 62
     1
370
    15
100
AcDbLine
 10
94.55
 20
1.837376426293262
 30
0.0
 11
94.55
 21
6.167475262783494
 31
0.0
  0
LINE
  5
C9
330
1F
100
AcDbEntity
  8
0
  6
Continuous
 62
     1
370
    15
100
AcDbLine
 10
94.55
 20
6.333621564935934
 30
0.0
 11
94.55
 21
6.477
 31
0.0
  0
LINE
  5
CA
330
1F
100
AcDbEntity
  8
0
  6
Continuous
 62
     1
370
    15
100
AcDbLine
 10
94.55
 20
-4.340512258199302
 30
0.0
 11
94.55
 21
-5.568392862373729
 31
0.0
  0
LINE
  5
CB
330
1F
100
AcDbEntity
  8
중심선
100
AcDbLine
 10
-60.85000000000003
 20
-0.0000000000000036
 30
0.0
 11
97.54999999999998
 21
-0.0000000000000031
 31
0.0
  0
CIRCLE
  5
CC
330
1F
100
AcDbEntity
  8
외형선
100
AcDbCircle
 10
0.0
 20
0.0
 30
0.0
 40
3.000000000000008
  0
INSERT
  5
CD
330
1F
100
AcDbEntity
  8
0
  6
Continuous
 62
     7
100
AcDbBlockReference
 66
     1
  2
블럭10
 10
2.116282230887862
 20
-51.95008179678725
 30
0.0
  0
ATTRIB
  5
CE
330
CD
100
AcDbEntity
  8
FORMAT
 62
     2
100
AcDbText
 10
-7.06501305785342
 20
-49.87471488395506
 30
0.0
 40
4.233333333333333
  1
E5984903 [ 3 FLUTE ]
 41
0.75
  7
SLDTEXTSTYLE0
 11
-7.06501305785342
 21
-51.99138155062172
 31
0.0
100
AcDbAttribute
  2
AUTOATTR0
 70
     0
 74
     1
  0
SEQEND
  5
CF
330
CD
100
AcDbEntity
  8
0
  6
Continuous
 62
     7
  0
HATCH
  5
D0
330
1F
100
AcDbEntity
  8
중심선
100
AcDbHatch
 10
0.0
 20
0.0
 30
0.0
210
0.0
220
0.0
230
1.0
  2
SOLID
 70
     1
 71
     0
 91
        1
 92
        0
 93
        4
 72
     1
 10
7.831191535268697
 20
-35.70290749514332
 11
4.384916291431416
 21
-35.70290749514332
 72
     1
 10
4.384916291431416
 20
-35.70290749514332
 11
2.256686432227394
 21
-38.23923307571592
 72
     1
 10
2.256686432227394
 20
-38.23923307571592
 11
5.702994761177823
 21
-38.23919364641343
 72
     1
 10
5.702994761177823
 20
-38.23919364641343
 11
7.831191535268697
 21
-35.70290749514332
 97
        0
 75
     0
 76
     1
 98
        1
 10
21.39063922940531
 20
0.0
  0
HATCH
  5
D1
330
1F
100
AcDbEntity
  8
중심선
100
AcDbHatch
 10
0.0
 20
0.0
 30
0.0
210
0.0
220
0.0
230
1.0
  2
SOLID
 70
     1
 71
     0
 91
        1
 92
        0
 93
        4
 72
     1
 10
12.84395552630465
 20
-35.70290749514335
 11
9.397680282467395
 21
-35.70290749514329
 72
     1
 10
9.397680282467395
 20
-35.70290749514329
 11
4.866542274109978
 21
-41.10290749514333
 72
     1
 10
4.866542274109978
 20
-41.10290749514333
 11
8.312817517947261
 21
-41.10290749514333
 72
     1
 10
8.312817517947261
 20
-41.10290749514333
 11
12.84395552630465
 21
-35.70290749514335
 97
        0
 75
     0
 76
     1
 98
        1
 10
21.39063922940531
 20
0.0
  0
HATCH
  5
D2
330
1F
100
AcDbEntity
  8
중심선
100
AcDbHatch
 10
0.0
 20
0.0
 30
0.0
210
0.0
220
0.0
230
1.0
  2
SOLID
 70
     1
 71
     0
 91
        1
 92
        0
 93
        4
 72
     1
 10
17.85671951734057
 20
-35.70290749514335
 11
14.41044427350346
 21
-35.70290749514332
 72
     1
 10
14.41044427350346
 20
-35.70290749514332
 11
7.36200737161418
 21
-44.10290749514334
 72
     1
 10
7.36200737161418
 20
-44.10290749514334
 11
10.80828261545146
 21
-44.10290749514334
 72
     1
 10
10.80828261545146
 20
-44.10290749514334
 11
17.85671951734057
 21
-35.70290749514335
 97
        0
 75
     0
 76
     1
 98
        1
 10
21.39063922940531
 20
0.0
  0
HATCH
  5
D3
330
1F
100
AcDbEntity
  8
중심선
100
AcDbHatch
 10
0.0
 20
0.0
 30
0.0
210
0.0
220
0.0
230
1.0
  2
SOLID
 70
     1
 71
     0
 91
        1
 92
        0
 93
        6
 72
     3
 10
22.65660994835275
 20
-39.9029074951946
 11
3.960054785062283
 21
1.540882976769353E-10
 40
0.3939339440162628
 50
17.09539180608437
 51
320.0019657685082
 73
     0
 72
     1
 10
24.33960960405331
 20
-38.49080149978165
 11
26.64491147775441
 21
-36.5564747897337
 72
     3
 10
22.6566099482999
 20
-39.90290749514347
 11
6.600054785286826
 21
-1.278976924368180E-13
 40
0.6363583540795983
 50
39.99873849337387
 51
368.4976242363725
 73
     1
 72
     1
 10
29.08194244020051
 20
-38.94290749507334
 11
21.33667725513582
 21
-38.94290749507334
 72
     1
 10
21.33667725513582
 20
-38.94290749507334
 11
21.33665221068988
 21
-40.86290749507324
 72
     1
 10
21.33665221068988
 20
-40.86290749507324
 11
25.77803198016192
 21
-40.86290749507321
 97
        0
 75
     0
 76
     1
 98
        1
 10
21.39063922940531
 20
0.0
  0
POINT
  5
D4
330
1F
100
AcDbEntity
  8
치수문자_일반주서
100
AcDbPoint
 10
-57.85000000000003
 20
-0.1156937548689107
 30
0.0
  0
DIMENSION
  5
D5
102
{ACAD_REACTORS
102
}
330
1F
100
AcDbEntity
  8
치수문자_일반주서
100
AcDbDimension
  2
_D
 10
12.00000000000002
 20
30.0999994188765
 30
0.0
 11
53.27500000000001
 21
30.0999994188765
 31
0.0
 70
   160
  1
<>
 71
     2
 42
82.54999999999998
  3
SLDDIMSTYLE0
100
AcDbAlignedDimension
 13
94.55000000000001
 23
9.524999999999999
 33
0.0
 14
12.00000000000002
 24
9.362448997432974
 34
0.0
 50
0.0000000000000025
100
AcDbRotatedDimension
1001
ACAD
1000
DSTYLE
1002
{
1070
   171
1070
     6
1070
   273
1070
     5
1002
}
  0
DIMENSION
  5
E9
330
1F
100
AcDbEntity
  8
치수문자_일반주서
100
AcDbDimension
  2
_D_1
 10
-57.85000000000002
 20
57.1485977822756
 30
0.0
 11
17.74141452505228
 21
57.1485977822756
 31
0.0
 70
   160
  1
<>
 71
     2
 42
152.4
  3
SLDDIMSTYLE1
100
AcDbAlignedDimension
 13
94.55000000000001
 23
9.524999999999999
 33
0.0
 14
-57.85000000000002
 24
9.024999999999995
 34
0.0
 50
0.0000000000000053
100
AcDbRotatedDimension
1001
ACAD
1000
DSTYLE
1002
{
1070
   171
1070
     6
1070
   273
1070
     5
1002
}
  0
DIMENSION
  5
FD
330
1F
100
AcDbEntity
  8
치수문자_일반주서
100
AcDbDimension
  2
_D_2
 10
-70.84999999999992
 20
-9.525000000000052
 30
0.0
 11
-70.85000000000007
 21
26.82699999999995
 31
0.0
 70
   160
  1
%%c<>
 71
     2
 42
19.05
 52
-270.0
  3
SLDDIMSTYLE0
100
AcDbAlignedDimension
 13
-57.35000000000002
 23
9.524999999999999
 33
0.0
 14
-57.35000000000002
 24
-9.525000000000002
 34
0.0
 50
90.0000000000002
100
AcDbRotatedDimension
1001
ACAD
1000
DSTYLE
1002
{
1070
   171
1070
     6
1070
   273
1070
     5
1002
}
  0
INSERT
  5
118
330
1F
100
AcDbEntity
  8
외형선
100
AcDbBlockReference
  2
SW_DOWELSYMBOL_0
 10
0.0
 20
0.0
 30
0.0
  0
ARC
  5
141
102
{ACAD_REACTORS
102
}
330
1F
100
AcDbEntity
  8
0
  6
Continuous
 62
     1
370
    15
100
AcDbCircle
 10
91.502
 20
-6.477000000000003
 30
0.0
 40
3.047999999999999
100
AcDbArc
 50
270.0
 51
0.0
  0
ARC
  5
142
330
1F
100
AcDbEntity
  8
0
  6
Continuous
 62
     1
370
    15
100
AcDbCircle
 10
91.502
 20
6.476999999999997
 30
0.0
 40
3.047999999999999
100
AcDbArc
 50
0.0
 51
90.0
  0
DIMENSION
  5
144
102
{ACAD_XDICTIONARY
360
145
102
}
330
1F
100
AcDbEntity
  8
치수문자_일반주서
100
AcDbDimension
  2
*D6
 10
107.25077404504
 20
9.524999999999999
 30
0.0
 11
104.62577404504
 21
26.60825
 31
0.0
 70
    32
  1
{Ø<>[]}
 71
     5
 42
19.05
  3
SLDDIMSTYLE0
100
AcDbAlignedDimension
 13
94.55000000000003
 23
-9.525000000000002
 33
0.0
 14
94.55000000000001
 24
9.524999999999999
 34
0.0
 50
90.0
100
AcDbRotatedDimension
1001
ACAD
1000
DSTYLE
1002
{
1070
   171
1070
     6
1070
   273
1070
     5
1070
   283
1070
     1
1070
   170
1070
     1
1002
}
  0
DIMENSION
  5
155
102
{ACAD_REACTORS
102
}
102
{ACAD_XDICTIONARY
360
156
102
}
330
1F
100
AcDbEntity
  8
치수문자_일반주서
100
AcDbDimension
  2
*D7
 10
91.502
 20
-6.477000000000003
 30
0.0
 11
105.036597155514
 21
-25.87369517825013
 31
0.0
 70
   164
  1
<>
 71
     5
 42
3.047999999999995
  3
SLDDIMSTYLE0
100
AcDbRadialDimension
 15
93.24618451420626
 25
-8.976624847932792
 35
0.0
 40
0.0
1001
ACAD_DSTYLE_DIMRADIAL_EXTENSION
1070
   387
1070
     1
1070
   388
1040
4.71238898038469
1070
   390
1040
0.0
  0
ENDSEC
  0
SECTION
  2
OBJECTS
  0
DICTIONARY
  5
C
330
0
100
AcDbDictionary
281
     1
  3
ACAD_GROUP
350
D
  3
ACAD_IMAGE_VARS
350
13C
  3
ACAD_LAYOUT
350
1A
  3
ACAD_MLINESTYLE
350
17
  3
ACAD_PLOTSETTINGS
350
19
  3
ACAD_PLOTSTYLENAME
350
E
  3
ACAD_SCALELIST
350
47
  3
APPDATA
350
13A
  3
DWGPROPS
350
166
  0
DICTIONARY
  5
145
330
144
100
AcDbDictionary
280
     1
281
     1
  0
DICTIONARY
  5
156
330
155
100
AcDbDictionary
280
     1
281
     1
  0
DICTIONARY
  5
D
102
{ACAD_REACTORS
330
C
102
}
330
C
100
AcDbDictionary
281
     1
  0
RASTERVARIABLES
  5
13C
102
{ACAD_REACTORS
330
C
102
}
330
C
100
AcDbRasterVariables
 90
        0
 70
     1
 71
     1
 72
     1
  0
DICTIONARY
  5
1A
102
{ACAD_REACTORS
330
C
102
}
330
C
100
AcDbDictionary
281
     1
  3
Layout1
350
1E
  3
Layout2
350
26
  3
Model
350
22
  0
DICTIONARY
  5
17
102
{ACAD_REACTORS
330
C
102
}
330
C
100
AcDbDictionary
281
     1
  3
Standard
350
18
  0
DICTIONARY
  5
19
102
{ACAD_REACTORS
330
C
102
}
330
C
100
AcDbDictionary
281
     1
  0
ACDBDICTIONARYWDFLT
  5
E
102
{ACAD_REACTORS
330
C
102
}
330
C
100
AcDbDictionary
281
     1
  3
Normal
350
F
100
AcDbDictionaryWithDefault
340
F
  0
DICTIONARY
  5
47
102
{ACAD_REACTORS
330
C
102
}
330
C
100
AcDbDictionary
281
     1
  3
A0
350
48
  3
A1
350
49
  3
A2
350
4A
  3
A3
350
4B
  3
A4
350
4C
  3
A5
350
4D
  3
A6
350
4E
  3
A7
350
4F
  3
A8
350
50
  3
A9
350
51
  3
B0
350
52
  3
B1
350
53
  3
B2
350
54
  3
B3
350
55
  3
B4
350
56
  3
B5
350
57
  3
B6
350
58
  3
B7
350
59
  3
B8
350
5A
  3
B9
350
5B
  3
C0
350
5C
  3
C1
350
5D
  3
C2
350
5E
  3
C3
350
5F
  3
C4
350
60
  3
C5
350
61
  3
C6
350
62
  3
C7
350
63
  3
C8
350
64
  3
C9
350
65
  3
D0
350
66
  3
D1
350
67
  3
D2
350
68
  0
DICTIONARY
  5
13A
102
{ACAD_REACTORS
330
C
102
}
330
C
100
AcDbDictionary
281
     1
  0
XRECORD
  5
166
102
{ACAD_REACTORS
330
C
102
}
330
C
100
AcDbXrecord
280
     1
  1
DWGPROPS COOKIE
  2

  3

  4

  6

  7

  8
12014074
  9

300
=
301
=
302
=
303
=
304
=
305
=
306
=
307
=
308
=
309
=
 40
0.0
 41
2458269.059193623
 42
2458269.97615294
  1

 90
        0
  0
LAYOUT
  5
1E
102
{ACAD_REACTORS
330
1A
102
}
330
1A
100
AcDbPlotSettings
  1

  2
none_device
  4

  6

 40
0.0
 41
0.0
 42
0.0
 43
0.0
 44
0.0
 45
0.0
 46
0.0
 47
0.0
 48
0.0
 49
0.0
140
0.0
141
0.0
142
1.0
143
1.0
 70
   688
 72
     1
 73
     0
 74
     5
  7

 75
    16
147
1.0
148
0.0
149
0.0
100
AcDbLayout
  1
Layout1
 70
     1
 71
     1
 10
0.0
 20
0.0
 11
420.0
 21
297.0
 12
0.0
 22
0.0
 32
0.0
 14
1.000000000000000E+20
 24
1.000000000000000E+20
 34
1.000000000000000E+20
 15
-1.000000000000000E+20
 25
-1.000000000000000E+20
 35
-1.000000000000000E+20
146
0.0
 13
0.0
 23
0.0
 33
0.0
 16
1.0
 26
0.0
 36
0.0
 17
0.0
 27
1.0
 37
0.0
 76
     0
330
1B
  0
LAYOUT
  5
26
102
{ACAD_REACTORS
330
1A
102
}
330
1A
100
AcDbPlotSettings
  1

  2
none_device
  4

  6

 40
0.0
 41
0.0
 42
0.0
 43
0.0
 44
0.0
 45
0.0
 46
0.0
 47
0.0
 48
0.0
 49
0.0
140
0.0
141
0.0
142
1.0
143
1.0
 70
   688
 72
     1
 73
     0
 74
     5
  7

 75
    16
147
1.0
148
0.0
149
0.0
100
AcDbLayout
  1
Layout2
 70
     1
 71
     2
 10
0.0
 20
0.0
 11
0.0
 21
0.0
 12
0.0
 22
0.0
 32
0.0
 14
0.0
 24
0.0
 34
0.0
 15
0.0
 25
0.0
 35
0.0
146
0.0
 13
0.0
 23
0.0
 33
0.0
 16
1.0
 26
0.0
 36
0.0
 17
0.0
 27
1.0
 37
0.0
 76
     0
330
23
  0
LAYOUT
  5
22
102
{ACAD_REACTORS
330
1A
102
}
330
1A
100
AcDbPlotSettings
  1

  2
none_device
  4
ANSI_A_(11.00_x_8.50_Inches)
  6

 40
6.35
 41
19.05
 42
6.35000508
 43
19.05000254
 44
279.4
 45
215.9
 46
122.5059724290419
 47
75.44078191682011
 48
0.0
 49
0.0
140
0.0
141
0.0
142
0.0607725033255327
143
1.0
 70
  1696
 72
     0
 73
     0
 74
     0
  7

 75
     0
147
0.0235690232323232
148
0.0
149
0.0
100
AcDbLayout
  1
Model
 70
     1
 71
     0
 10
0.0
 20
0.0
 11
420.0
 21
297.0
 12
0.0
 22
0.0
 32
0.0
 14
-75.22500000000011
 24
-49.87471488395506
 34
0.0
 15
116.1351143663615
 25
61.5235977822756
 35
0.0
146
0.0
 13
0.0
 23
0.0
 33
0.0
 16
1.0
 26
0.0
 36
0.0
 17
0.0
 27
1.0
 37
0.0
 76
     0
330
1F
331
29
  0
MLINESTYLE
  5
18
102
{ACAD_REACTORS
330
17
102
}
330
17
100
AcDbMlineStyle
  2
Standard
 70
     0
  3

 62
   256
 51
90.0
 52
90.0
 71
     2
 49
0.5
 62
   256
  6
BYLAYER
 49
-0.5
 62
   256
  6
BYLAYER
  0
ACDBPLACEHOLDER
  5
F
102
{ACAD_REACTORS
330
E
102
}
330
E
  0
SCALE
  5
48
102
{ACAD_REACTORS
330
47
102
}
330
47
100
AcDbScale
 70
     0
300
1:1
140
1.0
141
1.0
290
     1
  0
SCALE
  5
49
102
{ACAD_REACTORS
330
47
102
}
330
47
100
AcDbScale
 70
     0
300
1:2
140
1.0
141
2.0
290
     0
  0
SCALE
  5
4A
102
{ACAD_REACTORS
330
47
102
}
330
47
100
AcDbScale
 70
     0
300
1:4
140
1.0
141
4.0
290
     0
  0
SCALE
  5
4B
102
{ACAD_REACTORS
330
47
102
}
330
47
100
AcDbScale
 70
     0
300
1:5
140
1.0
141
5.0
290
     0
  0
SCALE
  5
4C
102
{ACAD_REACTORS
330
47
102
}
330
47
100
AcDbScale
 70
     0
300
1:8
140
1.0
141
8.0
290
     0
  0
SCALE
  5
4D
102
{ACAD_REACTORS
330
47
102
}
330
47
100
AcDbScale
 70
     0
300
1:10
140
1.0
141
10.0
290
     0
  0
SCALE
  5
4E
102
{ACAD_REACTORS
330
47
102
}
330
47
100
AcDbScale
 70
     0
300
1:16
140
1.0
141
16.0
290
     0
  0
SCALE
  5
4F
102
{ACAD_REACTORS
330
47
102
}
330
47
100
AcDbScale
 70
     0
300
1:20
140
1.0
141
20.0
290
     0
  0
SCALE
  5
50
102
{ACAD_REACTORS
330
47
102
}
330
47
100
AcDbScale
 70
     0
300
1:30
140
1.0
141
30.0
290
     0
  0
SCALE
  5
51
102
{ACAD_REACTORS
330
47
102
}
330
47
100
AcDbScale
 70
     0
300
1:40
140
1.0
141
40.0
290
     0
  0
SCALE
  5
52
102
{ACAD_REACTORS
330
47
102
}
330
47
100
AcDbScale
 70
     0
300
1:50
140
1.0
141
50.0
290
     0
  0
SCALE
  5
53
102
{ACAD_REACTORS
330
47
102
}
330
47
100
AcDbScale
 70
     0
300
1:100
140
1.0
141
100.0
290
     0
  0
SCALE
  5
54
102
{ACAD_REACTORS
330
47
102
}
330
47
100
AcDbScale
 70
     0
300
2:1
140
2.0
141
1.0
290
     0
  0
SCALE
  5
55
102
{ACAD_REACTORS
330
47
102
}
330
47
100
AcDbScale
 70
     0
300
4:1
140
4.0
141
1.0
290
     0
  0
SCALE
  5
56
102
{ACAD_REACTORS
330
47
102
}
330
47
100
AcDbScale
 70
     0
300
8:1
140
8.0
141
1.0
290
     0
  0
SCALE
  5
57
102
{ACAD_REACTORS
330
47
102
}
330
47
100
AcDbScale
 70
     0
300
10:1
140
10.0
141
1.0
290
     0
  0
SCALE
  5
58
102
{ACAD_REACTORS
330
47
102
}
330
47
100
AcDbScale
 70
     0
300
100:1
140
100.0
141
1.0
290
     0
  0
SCALE
  5
59
102
{ACAD_REACTORS
330
47
102
}
330
47
100
AcDbScale
 70
     0
300
1/128" = 1'-0"
140
0.0078125
141
12.0
290
     0
  0
SCALE
  5
5A
102
{ACAD_REACTORS
330
47
102
}
330
47
100
AcDbScale
 70
     0
300
1/64" = 1'-0"
140
0.015625
141
12.0
290
     0
  0
SCALE
  5
5B
102
{ACAD_REACTORS
330
47
102
}
330
47
100
AcDbScale
 70
     0
300
1/32" = 1'-0"
140
0.03125
141
12.0
290
     0
  0
SCALE
  5
5C
102
{ACAD_REACTORS
330
47
102
}
330
47
100
AcDbScale
 70
     0
300
1/16" = 1'-0"
140
0.0625
141
12.0
290
     0
  0
SCALE
  5
5D
102
{ACAD_REACTORS
330
47
102
}
330
47
100
AcDbScale
 70
     0
300
3/32" = 1'-0"
140
0.09375
141
12.0
290
     0
  0
SCALE
  5
5E
102
{ACAD_REACTORS
330
47
102
}
330
47
100
AcDbScale
 70
     0
300
1/8" = 1'-0"
140
0.125
141
12.0
290
     0
  0
SCALE
  5
5F
102
{ACAD_REACTORS
330
47
102
}
330
47
100
AcDbScale
 70
     0
300
3/16" = 1'-0"
140
0.1875
141
12.0
290
     0
  0
SCALE
  5
60
102
{ACAD_REACTORS
330
47
102
}
330
47
100
AcDbScale
 70
     0
300
1/4" = 1'-0"
140
0.25
141
12.0
290
     0
  0
SCALE
  5
61
102
{ACAD_REACTORS
330
47
102
}
330
47
100
AcDbScale
 70
     0
300
3/8" = 1'-0"
140
0.375
141
12.0
290
     0
  0
SCALE
  5
62
102
{ACAD_REACTORS
330
47
102
}
330
47
100
AcDbScale
 70
     0
300
1/2" = 1'-0"
140
0.5
141
12.0
290
     0
  0
SCALE
  5
63
102
{ACAD_REACTORS
330
47
102
}
330
47
100
AcDbScale
 70
     0
300
3/4" = 1'-0"
140
0.75
141
12.0
290
     0
  0
SCALE
  5
64
102
{ACAD_REACTORS
330
47
102
}
330
47
100
AcDbScale
 70
     0
300
1" = 1'-0"
140
1.0
141
12.0
290
     0
  0
SCALE
  5
65
102
{ACAD_REACTORS
330
47
102
}
330
47
100
AcDbScale
 70
     0
300
1-1/2" = 1'-0"
140
1.5
141
12.0
290
     0
  0
SCALE
  5
66
102
{ACAD_REACTORS
330
47
102
}
330
47
100
AcDbScale
 70
     0
300
3" = 1'-0"
140
3.0
141
12.0
290
     0
  0
SCALE
  5
67
102
{ACAD_REACTORS
330
47
102
}
330
47
100
AcDbScale
 70
     0
300
6" = 1'-0"
140
6.0
141
12.0
290
     0
  0
SCALE
  5
68
102
{ACAD_REACTORS
330
47
102
}
330
47
100
AcDbScale
 70
     0
300
1'-0" = 1'-0"
140
12.0
141
12.0
290
     0
  0
ENDSEC
  0
EOF
