  0
SECTION
  2
HEADER
  9
$ACADVER
  1
AC1015
  9
$ACADMAINTVER
 70
     6
  9
$DWGCODEPAGE
  3
ANSI_949
  9
$INSBASE
 10
0.0
 20
0.0
 30
0.0
  9
$EXTMIN
 10
-54.5133406008924
 20
-37.37490986518466
 30
0.0
  9
$EXTMAX
 10
85.94896060167838
 20
66.2225977822756
 30
0.0
  9
$LIMMIN
 10
0.0
 20
0.0
  9
$LIMMAX
 10
420.0
 20
297.0
  9
$ORTHOMODE
 70
     0
  9
$REGENMODE
 70
     1
  9
$FILLMODE
 70
     1
  9
$QTEXTMODE
 70
     0
  9
$MIRRTEXT
 70
     1
  9
$LTSCALE
 40
1.0
  9
$ATTMODE
 70
     1
  9
$TEXTSIZE
 40
3.5
  9
$TRACEWID
 40
1.0
  9
$TEXTSTYLE
  7
Standard
  9
$CLAYER
  8
0
  9
$CELTYPE
  6
ByLayer
  9
$CECOLOR
 62
   256
  9
$CELTSCALE
 40
1.0
  9
$DISPSILH
 70
     0
  9
$DIMSCALE
 40
1.0
  9
$DIMASZ
 40
3.302
  9
$DIMEXO
 40
1.0
  9
$DIMDLI
 40
3.75
  9
$DIMRND
 40
0.0
  9
$DIMDLE
 40
0.0
  9
$DIMEXE
 40
1.0
  9
$DIMTP
 40
0.0
  9
$DIMTM
 40
0.0
  9
$DIMTXT
 40
3.5
  9
$DIMCEN
 40
2.5
  9
$DIMTSZ
 40
0.0
  9
$DIMTOL
 70
     0
  9
$DIMLIM
 70
     0
  9
$DIMTIH
 70
     1
  9
$DIMTOH
 70
     1
  9
$DIMSE1
 70
     0
  9
$DIMSE2
 70
     0
  9
$DIMTAD
 70
     1
  9
$DIMZIN
 70
     0
  9
$DIMBLK
  1

  9
$DIMASO
 70
     1
  9
$DIMSHO
 70
     1
  9
$DIMPOST
  1

  9
$DIMAPOST
  1

  9
$DIMALT
 70
     0
  9
$DIMALTD
 70
     3
  9
$DIMALTF
 40
0.0393700787401575
  9
$DIMLFAC
 40
1.0
  9
$DIMTOFL
 70
     1
  9
$DIMTVP
 40
0.0
  9
$DIMTIX
 70
     0
  9
$DIMSOXD
 70
     0
  9
$DIMSAH
 70
     0
  9
$DIMBLK1
  1

  9
$DIMBLK2
  1

  9
$DIMSTYLE
  2
ISO-25
  9
$DIMCLRD
 70
     0
  9
$DIMCLRE
 70
     0
  9
$DIMCLRT
 70
     0
  9
$DIMTFAC
 40
1.0
  9
$DIMGAP
 40
1.524
  9
$DIMJUST
 70
     0
  9
$DIMSD1
 70
     0
  9
$DIMSD2
 70
     0
  9
$DIMTOLJ
 70
     0
  9
$DIMTZIN
 70
     0
  9
$DIMALTZ
 70
     0
  9
$DIMALTTZ
 70
     0
  9
$DIMUPT
 70
     0
  9
$DIMDEC
 70
     2
  9
$DIMTDEC
 70
     2
  9
$DIMALTU
 70
     2
  9
$DIMALTTD
 70
     3
  9
$DIMTXSTY
  7
Standard
  9
$DIMAUNIT
 70
     0
  9
$DIMADEC
 70
     2
  9
$DIMALTRND
 40
0.0
  9
$DIMAZIN
 70
     0
  9
$DIMDSEP
 70
    44
  9
$DIMATFIT
 70
     3
  9
$DIMFRAC
 70
     0
  9
$DIMLDRBLK
  1

  9
$DIMLUNIT
 70
     2
  9
$DIMLWD
 70
    -2
  9
$DIMLWE
 70
    -2
  9
$DIMTMOVE
 70
     0
  9
$LUNITS
 70
     2
  9
$LUPREC
 70
     2
  9
$SKETCHINC
 40
1.0
  9
$FILLETRAD
 40
10.0
  9
$AUNITS
 70
     0
  9
$AUPREC
 70
     2
  9
$MENU
  1
.
  9
$ELEVATION
 40
0.0
  9
$PELEVATION
 40
0.0
  9
$THICKNESS
 40
0.0
  9
$LIMCHECK
 70
     0
  9
$CHAMFERA
 40
0.0
  9
$CHAMFERB
 40
0.0
  9
$CHAMFERC
 40
0.0
  9
$CHAMFERD
 40
0.0
  9
$SKPOLY
 70
     0
  9
$TDCREATE
 40
2458269.433652997
  9
$TDUCREATE
 40
2458269.058652997
  9
$TDUPDATE
 40
2458270.346358368
  9
$TDUUPDATE
 40
2458269.971358368
  9
$TDINDWG
 40
0.0020677778
  9
$TDUSRTIMER
 40
2458269.96815765
  9
$USRTIMER
 70
     1
  9
$ANGBASE
 50
0.0
  9
$ANGDIR
 70
     0
  9
$PDMODE
 70
     0
  9
$PDSIZE
 40
-1.0
  9
$PLINEWID
 40
0.0
  9
$SPLFRAME
 70
     0
  9
$SPLINETYPE
 70
     6
  9
$SPLINESEGS
 70
     8
  9
$HANDSEED
  5
175
  9
$SURFTAB1
 70
     6
  9
$SURFTAB2
 70
     6
  9
$SURFTYPE
 70
     6
  9
$SURFU
 70
     6
  9
$SURFV
 70
     6
  9
$UCSBASE
  2

  9
$UCSNAME
  2

  9
$UCSORG
 10
0.0
 20
0.0
 30
0.0
  9
$UCSXDIR
 10
1.0
 20
0.0
 30
0.0
  9
$UCSYDIR
 10
0.0
 20
1.0
 30
0.0
  9
$UCSORTHOREF
  2

  9
$UCSORTHOVIEW
 70
     0
  9
$UCSORGTOP
 10
0.0
 20
0.0
 30
0.0
  9
$UCSORGBOTTOM
 10
0.0
 20
0.0
 30
0.0
  9
$UCSORGLEFT
 10
0.0
 20
0.0
 30
0.0
  9
$UCSORGRIGHT
 10
0.0
 20
0.0
 30
0.0
  9
$UCSORGFRONT
 10
0.0
 20
0.0
 30
0.0
  9
$UCSORGBACK
 10
0.0
 20
0.0
 30
0.0
  9
$PUCSBASE
  2

  9
$PUCSNAME
  2

  9
$PUCSORG
 10
0.0
 20
0.0
 30
0.0
  9
$PUCSXDIR
 10
1.0
 20
0.0
 30
0.0
  9
$PUCSYDIR
 10
0.0
 20
1.0
 30
0.0
  9
$PUCSORTHOREF
  2

  9
$PUCSORTHOVIEW
 70
     0
  9
$PUCSORGTOP
 10
0.0
 20
0.0
 30
0.0
  9
$PUCSORGBOTTOM
 10
0.0
 20
0.0
 30
0.0
  9
$PUCSORGLEFT
 10
0.0
 20
0.0
 30
0.0
  9
$PUCSORGRIGHT
 10
0.0
 20
0.0
 30
0.0
  9
$PUCSORGFRONT
 10
0.0
 20
0.0
 30
0.0
  9
$PUCSORGBACK
 10
0.0
 20
0.0
 30
0.0
  9
$USERI1
 70
     0
  9
$USERI2
 70
     0
  9
$USERI3
 70
     0
  9
$USERI4
 70
     0
  9
$USERI5
 70
     0
  9
$USERR1
 40
0.0
  9
$USERR2
 40
0.0
  9
$USERR3
 40
0.0
  9
$USERR4
 40
0.0
  9
$USERR5
 40
0.0
  9
$WORLDVIEW
 70
     1
  9
$SHADEDGE
 70
     3
  9
$SHADEDIF
 70
    70
  9
$TILEMODE
 70
     1
  9
$MAXACTVP
 70
    64
  9
$PINSBASE
 10
0.0
 20
0.0
 30
0.0
  9
$PLIMCHECK
 70
     0
  9
$PEXTMIN
 10
1.000000000000000E+20
 20
1.000000000000000E+20
 30
1.000000000000000E+20
  9
$PEXTMAX
 10
-1.000000000000000E+20
 20
-1.000000000000000E+20
 30
-1.000000000000000E+20
  9
$PLIMMIN
 10
0.0
 20
0.0
  9
$PLIMMAX
 10
0.0
 20
0.0
  9
$UNITMODE
 70
     0
  9
$VISRETAIN
 70
     1
  9
$PLINEGEN
 70
     0
  9
$PSLTSCALE
 70
     1
  9
$TREEDEPTH
 70
  3020
  9
$CMLSTYLE
  2
Standard
  9
$CMLJUST
 70
     0
  9
$CMLSCALE
 40
20.0
  9
$PROXYGRAPHICS
 70
     1
  9
$MEASUREMENT
 70
     1
  9
$CELWEIGHT
370
    -1
  9
$ENDCAPS
280
     0
  9
$JOINSTYLE
280
     0
  9
$LWDISPLAY
290
     1
  9
$INSUNITS
 70
     4
  9
$HYPERLINKBASE
  1

  9
$STYLESHEET
  1

  9
$XEDIT
290
     1
  9
$CEPSNTYPE
380
     0
  9
$PSTYLEMODE
290
     1
  9
$FINGERPRINTGUID
  2
{4AFA5149-7B41-4307-814D-8504A2D41784}
  9
$VERSIONGUID
  2
{FAEB1C32-E019-11D5-929B-00C0DF256EC4}
  9
$EXTNAMES
290
     1
  9
$PSVPSCALE
 40
0.0
  9
$OLESTARTUP
290
     0
  0
ENDSEC
  0
SECTION
  2
CLASSES
  0
CLASS
  1
ACDBDICTIONARYWDFLT
  2
AcDbDictionaryWithDefault
  3
ObjectDBX Classes
 90
        0
280
     0
281
     0
  0
CLASS
  1
VISUALSTYLE
  2
AcDbVisualStyle
  3
ObjectDBX Classes
 90
     4095
280
     0
281
     0
  0
CLASS
  1
MATERIAL
  2
AcDbMaterial
  3
ObjectDBX Classes
 90
     1153
280
     0
281
     0
  0
CLASS
  1
SCALE
  2
AcDbScale
  3
ObjectDBX Classes
 90
     1153
280
     0
281
     0
  0
CLASS
  1
SUN
  2
AcDbSun
  3
SCENEOE
 90
     1153
280
     0
281
     0
  0
CLASS
  1
ACDBPLACEHOLDER
  2
AcDbPlaceHolder
  3
ObjectDBX Classes
 90
        0
280
     0
281
     0
  0
CLASS
  1
LAYOUT
  2
AcDbLayout
  3
ObjectDBX Classes
 90
        0
280
     0
281
     0
  0
CLASS
  1
TABLESTYLE
  2
AcDbTableStyle
  3
ObjectDBX Classes
 90
     4095
280
     0
281
     0
  0
CLASS
  1
MLEADERSTYLE
  2
AcDbMLeaderStyle
  3
ACDB_MLEADERSTYLE_CLASS
 90
     4095
280
     0
281
     0
  0
CLASS
  1
RASTERVARIABLES
  2
AcDbRasterVariables
  3
ISM
 90
        0
280
     0
281
     0
  0
CLASS
  1
DIMASSOC
  2
AcDbDimAssoc
  3
"AcDbDimAssoc|Product Desc:     AcDim ARX App For Dimension|Company:          Autodesk, Inc.|WEB Address:      www.autodesk.com"
 90
        0
280
     0
281
     0
  0
ENDSEC
  0
SECTION
  2
TABLES
  0
TABLE
  2
VPORT
  5
8
330
0
100
AcDbSymbolTable
 70
     1
  0
VPORT
  5
29
330
8
100
AcDbSymbolTableRecord
100
AcDbViewportTableRecord
  2
*Active
 70
     0
 10
0.0
 20
0.0
 11
1.0
 21
1.0
 12
27.24908533495445
 22
12.44423583118647
 13
0.0
 23
0.0
 14
10.0
 24
10.0
 15
10.0
 25
10.0
 16
0.0
 26
0.0
 36
1.0
 17
0.0
 27
0.0
 37
0.0
 40
127.2425058998845
 41
1.970186335403727
 42
50.0
 43
0.0
 44
0.0
 50
0.0
 51
0.0
 71
    16
 72
  2000
 73
     1
 74
     3
 75
     0
 76
     0
 77
     0
 78
     0
281
     0
 65
     1
110
0.0
120
0.0
130
0.0
111
1.0
121
0.0
131
0.0
112
0.0
122
1.0
132
0.0
 79
     0
146
0.0
  0
ENDTAB
  0
TABLE
  2
LTYPE
  5
5
330
0
100
AcDbSymbolTable
 70
     6
  0
LTYPE
  5
14
330
5
100
AcDbSymbolTableRecord
100
AcDbLinetypeTableRecord
  2
ByBlock
 70
     0
  3

 72
    65
 73
     0
 40
0.0
  0
LTYPE
  5
15
330
5
100
AcDbSymbolTableRecord
100
AcDbLinetypeTableRecord
  2
ByLayer
 70
     0
  3

 72
    65
 73
     0
 40
0.0
  0
LTYPE
  5
16
330
5
100
AcDbSymbolTableRecord
100
AcDbLinetypeTableRecord
  2
Continuous
 70
     0
  3
Solid line
 72
    65
 73
     0
 40
0.0
  0
LTYPE
  5
6A
330
5
100
AcDbSymbolTableRecord
100
AcDbLinetypeTableRecord
  2
HIDDEN
 70
     0
  3
Hidden __ __ __ __ __ __ __ __ __ __ __ __ __ __
 72
    65
 73
     2
 40
1.905
 49
1.27
 74
     0
 49
-0.635
 74
     0
  0
LTYPE
  5
6B
330
5
100
AcDbSymbolTableRecord
100
AcDbLinetypeTableRecord
  2
PHANTOM
 70
     0
  3
Phantom ______  __  __  ______  __  __  ______
 72
    65
 73
     6
 40
12.7
 49
6.35
 74
     0
 49
-1.27
 74
     0
 49
1.27
 74
     0
 49
-1.27
 74
     0
 49
1.27
 74
     0
 49
-1.27
 74
     0
  0
LTYPE
  5
6C
330
5
100
AcDbSymbolTableRecord
100
AcDbLinetypeTableRecord
  2
CENTER
 70
     0
  3
Center ____ _ ____ _ ____ _ ____ _ ____ _ ____
 72
    65
 73
     4
 40
10.16
 49
6.35
 74
     0
 49
-1.27
 74
     0
 49
1.27
 74
     0
 49
-1.27
 74
     0
  0
LTYPE
  5
6D
330
5
100
AcDbSymbolTableRecord
100
AcDbLinetypeTableRecord
  2
CENTERX2
 70
     0
  3
Center (2x) ________  __  ________  __  _____
 72
    65
 73
     4
 40
20.32
 49
12.7
 74
     0
 49
-2.54
 74
     0
 49
2.54
 74
     0
 49
-2.54
 74
     0
  0
LTYPE
  5
6E
330
5
100
AcDbSymbolTableRecord
100
AcDbLinetypeTableRecord
  2
DOT2
 70
     0
  3
Dot (.5x) ........................................
 72
    65
 73
     2
 40
0.635
 49
0.0
 74
     0
 49
-0.635
 74
     0
  0
ENDTAB
  0
TABLE
  2
LAYER
  5
2
330
0
100
AcDbSymbolTable
 70
    17
  0
LAYER
  5
10
330
2
100
AcDbSymbolTableRecord
100
AcDbLayerTableRecord
  2
0
 70
     0
 62
     7
  6
Continuous
370
    -3
390
F
  0
LAYER
  5
6F
330
2
100
AcDbSymbolTableRecord
100
AcDbLayerTableRecord
  2
FORMAT
 70
     0
 62
     2
  6
Continuous
370
    -3
390
F
  0
LAYER
  5
70
330
2
100
AcDbSymbolTableRecord
100
AcDbLayerTableRecord
  2
외형선
 70
     0
 62
   100
  6
Continuous
370
    30
390
F
  0
LAYER
  5
71
330
2
100
AcDbSymbolTableRecord
100
AcDbLayerTableRecord
  2
숨은선
 70
     0
 62
     2
  6
HIDDEN
370
    15
390
F
  0
LAYER
  5
72
330
2
100
AcDbSymbolTableRecord
100
AcDbLayerTableRecord
  2
중심선
 70
     0
 62
     1
  6
CENTERX2
370
    -3
390
F
  0
LAYER
  5
73
330
2
100
AcDbSymbolTableRecord
100
AcDbLayerTableRecord
  2
파단선
 70
     0
 62
     4
  6
Continuous
370
    -3
390
F
  0
LAYER
  5
74
330
2
100
AcDbSymbolTableRecord
100
AcDbLayerTableRecord
  2
해칭선
 70
     0
 62
     4
  6
Continuous
370
    -3
390
F
  0
LAYER
  5
75
330
2
100
AcDbSymbolTableRecord
100
AcDbLayerTableRecord
  2
가는실선
 70
     0
 62
     4
  6
Continuous
370
    -3
390
F
  0
LAYER
  5
76
330
2
100
AcDbSymbolTableRecord
100
AcDbLayerTableRecord
  2
치수_보조선
 70
     0
 62
     4
  6
Continuous
370
    -3
390
F
  0
LAYER
  5
77
330
2
100
AcDbSymbolTableRecord
100
AcDbLayerTableRecord
  2
치수문자_일반주서
 70
     0
 62
     7
  6
Continuous
370
    15
390
F
  0
LAYER
  5
78
330
2
100
AcDbSymbolTableRecord
100
AcDbLayerTableRecord
  2
개별주서
 70
     0
 62
   100
  6
Continuous
370
    30
390
F
  0
LAYER
  5
79
330
2
100
AcDbSymbolTableRecord
100
AcDbLayerTableRecord
  2
중간선
 70
     0
 62
     2
  6
Continuous
370
    15
390
F
  0
LAYER
  5
7A
330
2
100
AcDbSymbolTableRecord
100
AcDbLayerTableRecord
  2
윤곽선
 70
     0
 62
     3
  6
Continuous
370
    40
390
F
  0
LAYER
  5
7B
330
2
100
AcDbSymbolTableRecord
100
AcDbLayerTableRecord
  2
중심마크
 70
     0
 62
   100
  6
Continuous
370
    30
390
F
  0
LAYER
  5
7C
330
2
100
AcDbSymbolTableRecord
100
AcDbLayerTableRecord
  2
가상선
 70
     0
 62
     4
  6
PHANTOM
370
    -3
390
F
  0
LAYER
  5
7D
330
2
100
AcDbSymbolTableRecord
100
AcDbLayerTableRecord
  2
특수지정선
 70
     0
 62
     5
  6
CENTERX2
370
    60
390
F
  0
LAYER
  5
13A
330
2
100
AcDbSymbolTableRecord
100
AcDbLayerTableRecord
  2
Defpoints
 70
     0
 62
     7
  6
Continuous
290
     0
370
    -3
390
F
  0
ENDTAB
  0
TABLE
  2
STYLE
  5
3
330
0
100
AcDbSymbolTable
 70
     2
  0
STYLE
  5
11
330
3
100
AcDbSymbolTableRecord
100
AcDbTextStyleTableRecord
  2
Standard
 70
     0
 40
0.0
 41
1.0
 50
0.0
 71
     0
 42
3.5
  3
txt
  4

  0
STYLE
  5
93
330
3
100
AcDbSymbolTableRecord
100
AcDbTextStyleTableRecord
  2
SLDTEXTSTYLE0
 70
     0
 40
0.0
 41
0.75
 50
0.0
 71
     0
 42
3.5
  3
TXT
  4

  0
ENDTAB
  0
TABLE
  2
VIEW
  5
6
330
0
100
AcDbSymbolTable
 70
     0
  0
ENDTAB
  0
TABLE
  2
UCS
  5
7
330
0
100
AcDbSymbolTable
 70
     0
  0
ENDTAB
  0
TABLE
  2
APPID
  5
9
330
0
100
AcDbSymbolTable
 70
     3
  0
APPID
  5
12
330
9
100
AcDbSymbolTableRecord
100
AcDbRegAppTableRecord
  2
ACAD
 70
     0
  0
APPID
  5
163
330
9
100
AcDbSymbolTableRecord
100
AcDbRegAppTableRecord
  2
ACAD_DSTYLE_DIMRADIAL_EXTENSION
 70
     0
  0
APPID
  5
171
330
9
100
AcDbSymbolTableRecord
100
AcDbRegAppTableRecord
  2
PE_DIMMEASUREMENT
 70
     0
  0
ENDTAB
  0
TABLE
  2
DIMSTYLE
  5
A
330
0
100
AcDbSymbolTable
 70
     4
100
AcDbDimStyleTable
  0
DIMSTYLE
105
27
330
A
100
AcDbSymbolTableRecord
100
AcDbDimStyleTableRecord
  2
ISO-25
 70
     0
 41
2.5
 42
0.625
 43
3.75
 44
1.25
 73
     0
 74
     0
 77
     1
 78
     8
140
2.5
141
2.5
143
0.03937007874016
147
0.625
171
     3
172
     1
178
     0
271
     2
272
     2
274
     3
278
    44
283
     0
284
     8
340
11
  0
DIMSTYLE
105
D7
102
{ACAD_REACTORS
330
D6
330
152
330
164
330
13B
102
}
330
A
100
AcDbSymbolTableRecord
100
AcDbDimStyleTableRecord
  2
SLDDIMSTYLE0
 70
     0
 41
3.302
 44
0.0
 45
0.000000001
 73
     0
 74
     0
 77
     1
 78
    12
 79
     3
140
3.5
143
0.0393700787401575
147
0.875
148
0.000000001
170
     1
173
     1
178
     0
271
     2
272
     2
276
     2
284
    12
340
93
  0
DIMSTYLE
105
EB
102
{ACAD_REACTORS
330
EA
102
}
330
A
100
AcDbSymbolTableRecord
100
AcDbDimStyleTableRecord
  2
SLDDIMSTYLE1
 70
     0
 41
3.302
 44
0.0
 45
0.000000001
 73
     0
 74
     0
 77
     1
 78
     4
 79
     1
140
3.5
143
0.0393700787401575
147
0.875
148
0.000000001
170
     1
173
     1
178
     0
271
     2
272
     2
276
     2
284
    12
340
93
  0
DIMSTYLE
105
FF
330
A
100
AcDbSymbolTableRecord
100
AcDbDimStyleTableRecord
  2
SLDDIMSTYLE2
 70
     0
 41
3.302
 44
0.0
 45
0.000000001
 73
     0
 74
     0
 77
     1
 78
     8
 79
     2
140
3.5
143
0.0393700787401575
147
0.875
148
0.000000001
170
     1
172
     1
173
     1
178
     0
271
     2
272
     2
276
     2
284
    12
289
     0
340
93
341
100
343
100
344
100
  0
ENDTAB
  0
TABLE
  2
BLOCK_RECORD
  5
1
330
0
100
AcDbSymbolTable
 70
    10
  0
BLOCK_RECORD
  5
1F
330
1
100
AcDbSymbolTableRecord
100
AcDbBlockTableRecord
  2
*Model_Space
340
22
  0
BLOCK_RECORD
  5
1B
330
1
100
AcDbSymbolTableRecord
100
AcDbBlockTableRecord
  2
*Paper_Space
340
1E
  0
BLOCK_RECORD
  5
23
330
1
100
AcDbSymbolTableRecord
100
AcDbBlockTableRecord
  2
*Paper_Space0
340
26
  0
BLOCK_RECORD
  5
7E
330
1
100
AcDbSymbolTableRecord
100
AcDbBlockTableRecord
  2
블럭10
340
0
102
{BLKREFS
331
CE
102
}
  0
BLOCK_RECORD
  5
D8
330
1
100
AcDbSymbolTableRecord
100
AcDbBlockTableRecord
  2
_D
340
0
  0
BLOCK_RECORD
  5
EC
330
1
100
AcDbSymbolTableRecord
100
AcDbBlockTableRecord
  2
_D_1
340
0
  0
BLOCK_RECORD
  5
100
330
1
100
AcDbSymbolTableRecord
100
AcDbBlockTableRecord
  2
_NONE
340
0
  0
BLOCK_RECORD
  5
103
330
1
100
AcDbSymbolTableRecord
100
AcDbBlockTableRecord
  2
_D_2
340
0
  0
BLOCK_RECORD
  5
10F
330
1
100
AcDbSymbolTableRecord
100
AcDbBlockTableRecord
  2
SW_DOWELSYMBOL_0
340
0
102
{BLKREFS
331
115
102
}
  0
BLOCK_RECORD
  5
13E
330
1
100
AcDbSymbolTableRecord
100
AcDbBlockTableRecord
  2
*D7
340
0
  0
BLOCK_RECORD
  5
155
330
1
100
AcDbSymbolTableRecord
100
AcDbBlockTableRecord
  2
*D8
340
0
  0
BLOCK_RECORD
  5
167
330
1
100
AcDbSymbolTableRecord
100
AcDbBlockTableRecord
  2
*D9
340
0
  0
ENDTAB
  0
ENDSEC
  0
SECTION
  2
BLOCKS
  0
BLOCK
  5
20
330
1F
100
AcDbEntity
  8
0
100
AcDbBlockBegin
  2
*Model_Space
 70
     0
 10
0.0
 20
0.0
 30
0.0
  3
*Model_Space
  1
*Model_Space
  0
ENDBLK
  5
21
330
1F
100
AcDbEntity
  8
0
100
AcDbBlockEnd
  0
BLOCK
  5
1C
330
1B
100
AcDbEntity
 67
     1
  8
0
100
AcDbBlockBegin
  2
*Paper_Space
 70
     0
 10
0.0
 20
0.0
 30
0.0
  3
*Paper_Space
  1
*Paper_Space
  0
ENDBLK
  5
1D
330
1B
100
AcDbEntity
 67
     1
  8
0
100
AcDbBlockEnd
  0
BLOCK
  5
24
330
23
100
AcDbEntity
  8
0
100
AcDbBlockBegin
  2
*Paper_Space0
 70
     0
 10
0.0
 20
0.0
 30
0.0
  3
*Paper_Space0
  1
*Paper_Space0
  0
ENDBLK
  5
25
330
23
100
AcDbEntity
  8
0
100
AcDbBlockEnd
  0
BLOCK
  5
7F
330
7E
100
AcDbEntity
  8
0
100
AcDbBlockBegin
  2
블럭10
 70
     2
 10
0.0
 20
0.0
 30
0.0
  3
블럭10
  1
블럭10
  0
ELLIPSE
  5
81
330
7E
100
AcDbEntity
  8
중심선
100
AcDbEllipse
 10
20.54032771741204
 20
12.0471743016438
 30
0.0
 11
6.600054785286829
 21
-1.261213355974178E-13
 31
0.0
210
0.0
220
0.0
230
1.0
 40
0.636358354079598
 41
0.9219305317359503
 42
6.513795318482858
  0
ELLIPSE
  5
82
330
7E
100
AcDbEntity
  8
중심선
100
AcDbEllipse
 10
20.54032771746488
 20
12.04717430159265
 30
0.0
 11
3.960054785062283
 21
1.540847449632565E-10
 31
0.0
210
0.0
220
0.0
230
1.0
 40
0.3939339440162632
 41
1.131841032648279
 42
5.62031148352944
  0
LINE
  5
83
330
7E
100
AcDbEntity
  8
중심선
100
AcDbLine
 10
2.268634060543552
 20
16.24717430164393
 30
0.0
 11
5.714909304380834
 21
16.24717430164393
 31
0.0
  0
LINE
  5
84
330
7E
100
AcDbEntity
  8
중심선
100
AcDbLine
 10
5.245725140726316
 20
7.84717430164391
 30
0.0
 11
8.692000384563599
 21
7.84717430164391
 31
0.0
  0
LINE
  5
85
330
7E
100
AcDbEntity
  8
중심선
100
AcDbLine
 10
15.74043728645272
 20
16.24717430164393
 30
0.0
 11
8.692000384563599
 21
7.84717430164391
 31
0.0
  0
LINE
  5
86
330
7E
100
AcDbEntity
  8
중심선
100
AcDbLine
 10
0.1404042013395286
 20
13.71084872107135
 30
0.0
 11
3.58671253028996
 21
13.71088815037384
 31
0.0
  0
LINE
  5
87
330
7E
100
AcDbEntity
  8
중심선
100
AcDbLine
 10
2.750260043222114
 20
10.84717430164391
 30
0.0
 11
6.196535287059397
 21
10.84717430164391
 31
0.0
  0
LINE
  5
88
330
7E
100
AcDbEntity
  8
중심선
100
AcDbLine
 10
12.29416204261559
 20
16.24717430164393
 30
0.0
 11
5.245725140726316
 21
7.84717430164391
 31
0.0
  0
LINE
  5
89
330
7E
100
AcDbEntity
  8
중심선
100
AcDbLine
 10
10.72767329541681
 20
16.24717430164393
 30
0.0
 11
6.196535287059397
 21
10.84717430164391
 31
0.0
  0
LINE
  5
8A
330
7E
100
AcDbEntity
  8
중심선
100
AcDbLine
 10
7.28139805157953
 20
16.24717430164393
 30
0.0
 11
2.750260043222114
 21
10.84717430164391
 31
0.0
  0
LINE
  5
8B
330
7E
100
AcDbEntity
  8
중심선
100
AcDbLine
 10
5.714909304380834
 20
16.24717430164393
 30
0.0
 11
3.58671253028996
 21
13.71088815037384
 31
0.0
  0
LINE
  5
8C
330
7E
100
AcDbEntity
  8
중심선
100
AcDbLine
 10
2.268634060543552
 20
16.24717430164393
 30
0.0
 11
0.1404042013395286
 21
13.71084872107135
 31
0.0
  0
LINE
  5
8D
330
7E
100
AcDbEntity
  8
중심선
100
AcDbLine
 10
7.28139805157953
 20
16.24717430164393
 30
0.0
 11
10.72767329541681
 21
16.24717430164393
 31
0.0
  0
LINE
  5
8E
330
7E
100
AcDbEntity
  8
중심선
100
AcDbLine
 10
12.29416204261559
 20
16.24717430164393
 30
0.0
 11
15.74043728645272
 21
16.24717430164393
 31
0.0
  0
LINE
  5
8F
330
7E
100
AcDbEntity
  8
중심선
100
AcDbLine
 10
19.22036997980202
 20
11.08717430171403
 30
0.0
 11
23.66174974927406
 21
11.08717430171406
 31
0.0
  0
LINE
  5
90
330
7E
100
AcDbEntity
  8
중심선
100
AcDbLine
 10
19.22039502424796
 20
13.00717430171391
 30
0.0
 11
19.22036997980202
 21
11.08717430171403
 31
0.0
  0
LINE
  5
91
330
7E
100
AcDbEntity
  8
중심선
100
AcDbLine
 10
19.22039502424796
 20
13.00717430171391
 30
0.0
 11
26.96566020931264
 21
13.00717430171391
 31
0.0
  0
LINE
  5
92
330
7E
100
AcDbEntity
  8
중심선
100
AcDbLine
 10
22.22332737316547
 20
13.45928029700563
 30
0.0
 11
24.52862924686651
 21
15.39360700705356
 31
0.0
  0
ATTDEF
  5
94
330
7E
100
AcDbEntity
  8
FORMAT
 62
     2
100
AcDbText
 10
-9.18129528874128
 20
2.075366912832191
 30
0.0
 40
4.233333333333333
  1
E5984901 [ 3 FLUTE ]
 41
0.75
  7
SLDTEXTSTYLE0
 11
-9.18129528874128
 21
-0.0412997538344756
 31
0.0
100
AcDbAttributeDefinition
  3

  2
AUTOATTR0
 70
     0
 74
     1
  0
ENDBLK
  5
80
330
7E
100
AcDbEntity
  8
0
100
AcDbBlockEnd
  0
BLOCK
  5
D9
330
D8
100
AcDbEntity
  8
0
100
AcDbBlockBegin
  2
_D
 70
     0
 10
0.0
 20
0.0
 30
0.0
  3
_D
  1
_D
  0
LINE
  5
DB
330
D8
100
AcDbEntity
  8
치수문자_일반주서
 62
     0
370
    -2
100
AcDbLine
 10
60.79999999999999
 20
6.412500000000001
 30
0.0
 11
60.79999999999999
 21
34.89866838988439
 31
0.0
  0
LINE
  5
DC
330
D8
100
AcDbEntity
  8
치수문자_일반주서
 62
     0
370
    -2
100
AcDbLine
 10
10.0
 20
6.412500000000001
 30
0.0
 11
10.0
 21
34.89866838988439
 31
0.0
  0
LINE
  5
DD
330
D8
100
AcDbEntity
  8
치수문자_일반주서
 62
     0
370
    -2
100
AcDbLine
 10
57.49799999999999
 20
34.89866838988439
 30
0.0
 11
13.302
 21
34.89866838988439
 31
0.0
  0
SOLID
  5
DE
330
D8
100
AcDbEntity
  8
치수문자_일반주서
 62
     0
100
AcDbTrace
 10
57.49799999999999
 20
34.34833505655106
 30
0.0
 11
57.49799999999999
 21
35.44900172321773
 31
0.0
 12
60.79999999999999
 22
34.89866838988439
 32
0.0
 13
60.79999999999999
 23
34.89866838988439
 33
0.0
  0
SOLID
  5
DF
330
D8
100
AcDbEntity
  8
치수문자_일반주서
 62
     0
100
AcDbTrace
 10
13.302
 20
35.44900172321773
 30
0.0
 11
13.302
 21
34.34833505655106
 31
0.0
 12
10.0
 22
34.89866838988439
 32
0.0
 13
10.0
 23
34.89866838988439
 33
0.0
  0
MTEXT
  5
E0
330
D8
100
AcDbEntity
  8
치수문자_일반주서
 62
     0
100
AcDbMText
 10
35.4
 20
39.27366838988439
 30
0.0
 40
3.5
 41
0.0
 71
     2
 72
     1
  1
\A1;50.8 [2]
  7
SLDTEXTSTYLE0
 73
     1
 44
1.0
  0
POINT
  5
E1
330
D8
100
AcDbEntity
  8
Defpoints
 62
     0
100
AcDbPoint
 10
60.79999999999999
 20
6.350000000000001
 30
0.0
  0
POINT
  5
E2
330
D8
100
AcDbEntity
  8
Defpoints
 62
     0
100
AcDbPoint
 10
10.0
 20
6.350000000000001
 30
0.0
  0
POINT
  5
E3
330
D8
100
AcDbEntity
  8
Defpoints
 62
     0
100
AcDbPoint
 10
10.0
 20
34.89866838988439
 30
0.0
  0
ENDBLK
  5
DA
330
D8
100
AcDbEntity
  8
0
100
AcDbBlockEnd
  0
BLOCK
  5
ED
330
EC
100
AcDbEntity
  8
0
100
AcDbBlockBegin
  2
_D_1
 70
     0
 10
0.0
 20
0.0
 30
0.0
  3
_D_1
  1
_D_1
  0
LINE
  5
EF
330
EC
100
AcDbEntity
  8
치수문자_일반주서
 62
     0
370
    -2
100
AcDbLine
 10
60.79999999999999
 20
6.412500000000001
 30
0.0
 11
60.8
 21
61.8475977822756
 31
0.0
  0
LINE
  5
F0
330
EC
100
AcDbEntity
  8
치수문자_일반주서
 62
     0
370
    -2
100
AcDbLine
 10
-40.8
 20
5.912499999999999
 30
0.0
 11
-40.79999999999999
 21
61.8475977822756
 31
0.0
  0
LINE
  5
F1
330
EC
100
AcDbEntity
  8
치수문자_일반주서
 62
     0
370
    -2
100
AcDbLine
 10
57.498
 20
61.8475977822756
 30
0.0
 11
-37.49799999999999
 21
61.8475977822756
 31
0.0
  0
SOLID
  5
F2
330
EC
100
AcDbEntity
  8
치수문자_일반주서
 62
     0
100
AcDbTrace
 10
57.498
 20
61.29726444894226
 30
0.0
 11
57.498
 21
62.39793111560893
 31
0.0
 12
60.8
 22
61.8475977822756
 32
0.0
 13
60.8
 23
61.8475977822756
 33
0.0
  0
SOLID
  5
F3
330
EC
100
AcDbEntity
  8
치수문자_일반주서
 62
     0
100
AcDbTrace
 10
-37.49799999999999
 20
62.39793111560893
 30
0.0
 11
-37.49799999999999
 21
61.29726444894226
 31
0.0
 12
-40.79999999999999
 22
61.8475977822756
 32
0.0
 13
-40.79999999999999
 23
61.8475977822756
 33
0.0
  0
MTEXT
  5
F4
330
EC
100
AcDbEntity
  8
치수문자_일반주서
 62
     0
100
AcDbMText
 10
15.74141452505228
 20
66.2225977822756
 30
0.0
 40
3.5
 41
0.0
 71
     2
 72
     1
  1
\A1;101.60 [4]
  7
SLDTEXTSTYLE0
 73
     1
 44
1.0
  0
POINT
  5
F5
330
EC
100
AcDbEntity
  8
Defpoints
 62
     0
100
AcDbPoint
 10
60.79999999999999
 20
6.350000000000001
 30
0.0
  0
POINT
  5
F6
330
EC
100
AcDbEntity
  8
Defpoints
 62
     0
100
AcDbPoint
 10
-40.8
 20
5.849999999999999
 30
0.0
  0
POINT
  5
F7
330
EC
100
AcDbEntity
  8
Defpoints
 62
     0
100
AcDbPoint
 10
-40.8
 20
61.8475977822756
 30
0.0
  0
ENDBLK
  5
EE
330
EC
100
AcDbEntity
  8
0
100
AcDbBlockEnd
  0
BLOCK
  5
101
330
100
100
AcDbEntity
  8
0
100
AcDbBlockBegin
  2
_NONE
 70
     0
 10
0.0
 20
0.0
 30
0.0
  3
_NONE
  1
_NONE
  0
ENDBLK
  5
102
330
100
100
AcDbEntity
  8
0
100
AcDbBlockEnd
  0
BLOCK
  5
104
330
103
100
AcDbEntity
  8
0
100
AcDbBlockBegin
  2
_D_2
 70
     0
 10
0.0
 20
0.0
 30
0.0
  3
_D_2
  1
_D_2
  0
LINE
  5
106
330
103
100
AcDbEntity
  8
치수문자_일반주서
100
AcDbLine
 10
-61.59288171604273
 20
0.9553097476674066
 30
0.0
 11
-61.59288171604272
 21
0.2443722621029065
 31
0.0
  0
LINE
  5
107
330
103
100
AcDbEntity
  8
치수문자_일반주서
100
AcDbLine
 10
-61.59288171604272
 20
0.2443722621029065
 30
0.0
 11
-56.03663172498342
 21
0.2443722621029457
 31
0.0
  0
LINE
  5
108
330
103
100
AcDbEntity
  8
치수문자_일반주서
100
AcDbLine
 10
-56.03663172498342
 20
0.2443722621029457
 30
0.0
 11
-56.03663172498342
 21
0.9553097476674457
 31
0.0
  0
LINE
  5
109
330
103
100
AcDbEntity
  8
치수문자_일반주서
100
AcDbLine
 10
-61.5928817160428
 20
11.78404260980466
 30
0.0
 11
-61.5928817160428
 21
12.49498009536916
 31
0.0
  0
LINE
  5
10A
330
103
100
AcDbEntity
  8
치수문자_일반주서
100
AcDbLine
 10
-61.5928817160428
 20
12.49498009536916
 30
0.0
 11
-56.0366317249835
 21
12.4949800953692
 31
0.0
  0
LINE
  5
10B
330
103
100
AcDbEntity
  8
치수문자_일반주서
100
AcDbLine
 10
-56.0366317249835
 20
12.4949800953692
 30
0.0
 11
-56.03663172498349
 21
11.7840426098047
 31
0.0
  0
MTEXT
  5
10C
330
103
100
AcDbEntity
  8
치수문자_일반주서
100
AcDbMText
 10
-60.54836863956232
 20
1.843981648278785
 30
0.0
 40
3.5
 41
0.0
 71
     1
 72
     1
  1
0.00
  7
SLDTEXTSTYLE0
 11
-7.044195017643634E-15
 21
1.0
 31
0.0
 73
     1
 44
1.0
  0
MTEXT
  5
10D
330
103
100
AcDbEntity
  8
치수문자_일반주서
100
AcDbMText
 10
-55.31173708920186
 20
2.437401766372313
 30
0.0
 40
3.5
 41
0.0
 71
     1
 72
     1
  1
%%c
  7
SLDTEXTSTYLE0
 11
-7.044195017643634E-15
 21
1.0
 31
0.0
 73
     1
 44
1.0
  0
MTEXT
  5
10E
330
103
100
AcDbEntity
  8
치수문자_일반주서
100
AcDbMText
 10
-55.31173708920189
 20
7.715839164746393
 30
0.0
 40
3.5
 41
0.0
 71
     1
 72
     1
  1
0
  7
SLDTEXTSTYLE0
 11
-7.044195017643634E-15
 21
1.0
 31
0.0
 73
     1
 44
1.0
  0
ENDBLK
  5
105
330
103
100
AcDbEntity
  8
0
100
AcDbBlockEnd
  0
BLOCK
  5
110
330
10F
100
AcDbEntity
  8
0
100
AcDbBlockBegin
  2
SW_DOWELSYMBOL_0
 70
     0
 10
0.0
 20
0.0
 30
0.0
  3
SW_DOWELSYMBOL_0
  1
SW_DOWELSYMBOL_0
  0
CIRCLE
  5
112
330
10F
100
AcDbEntity
  8
외형선
 62
     0
100
AcDbCircle
 10
0.0
 20
0.0
 30
0.0
 40
3.000000000000008
  0
HATCH
  5
113
330
10F
100
AcDbEntity
  8
0
  6
Continuous
 62
     0
370
    30
100
AcDbHatch
 10
0.0
 20
0.0
 30
0.0
210
0.0
220
0.0
230
1.0
  2
SOLID
 70
     1
 71
     0
 91
        1
 92
        0
 93
        3
 72
     2
 10
0.0000000000000104
 20
0.0
 40
3.000000000000008
 50
0.0
 51
90.0
 73
     1
 72
     1
 10
0.0000000000000104
 20
3.000000000000008
 11
0.0000000000000104
 21
0.0
 72
     1
 10
0.0000000000000104
 20
0.0
 11
3.000000000000019
 21
0.0
 97
        0
 75
     0
 76
     1
 98
        1
 10
0.0
 20
0.0
  0
HATCH
  5
114
330
10F
100
AcDbEntity
  8
0
  6
Continuous
 62
     0
370
    30
100
AcDbHatch
 10
0.0
 20
0.0
 30
0.0
210
0.0
220
0.0
230
1.0
  2
SOLID
 70
     1
 71
     0
 91
        1
 92
        0
 93
        3
 72
     2
 10
0.0000000000000104
 20
0.0
 40
3.000000000000008
 50
180.0
 51
270.0000000000008
 73
     1
 72
     1
 10
0.0000000000000104
 20
-3.000000000000008
 11
0.0000000000000104
 21
0.0
 72
     1
 10
0.0000000000000104
 20
0.0
 11
-2.999999999999998
 21
0.0
 97
        0
 75
     0
 76
     1
 98
        1
 10
0.0
 20
0.0
  0
ENDBLK
  5
111
330
10F
100
AcDbEntity
  8
0
100
AcDbBlockEnd
  0
BLOCK
  5
13F
330
13E
100
AcDbEntity
  8
0
100
AcDbBlockBegin
  2
*D7
 70
     1
 10
0.0
 20
0.0
 30
0.0
  3
*D7
  1
*D7
  0
LINE
  5
141
330
13E
100
AcDbEntity
  8
치수문자_일반주서
 62
     0
370
    -2
100
AcDbLine
 10
-40.3625
 20
-6.349999999999999
 30
0.0
 11
-50.1383406008924
 21
-6.349999999999999
 31
0.0
  0
LINE
  5
142
330
13E
100
AcDbEntity
  8
치수문자_일반주서
 62
     0
370
    -2
100
AcDbLine
 10
-40.3625
 20
6.350000000000001
 30
0.0
 11
-50.1383406008924
 21
6.350000000000002
 31
0.0
  0
LINE
  5
143
330
13E
100
AcDbEntity
  8
치수문자_일반주서
 62
     0
370
    -2
100
AcDbLine
 10
-50.1383406008924
 20
6.350000000000002
 30
0.0
 11
-50.1383406008924
 21
34.152
 31
0.0
  0
LINE
  5
144
330
13E
100
AcDbEntity
  8
치수문자_일반주서
 62
     0
370
    -2
100
AcDbLine
 10
-50.1383406008924
 20
-3.047999999999999
 30
0.0
 11
-50.1383406008924
 21
3.048000000000003
 31
0.0
  0
SOLID
  5
145
330
13E
100
AcDbEntity
  8
치수문자_일반주서
 62
     0
100
AcDbTrace
 10
-50.68867393422573
 20
-3.047999999999999
 30
0.0
 11
-49.58800726755906
 21
-3.047999999999999
 31
0.0
 12
-50.1383406008924
 22
-6.349999999999999
 32
0.0
 13
-50.1383406008924
 23
-6.349999999999999
 33
0.0
  0
SOLID
  5
146
330
13E
100
AcDbEntity
  8
치수문자_일반주서
 62
     0
100
AcDbTrace
 10
-49.58800726755906
 20
3.048000000000003
 30
0.0
 11
-50.68867393422573
 21
3.048000000000003
 31
0.0
 12
-50.1383406008924
 22
6.350000000000002
 32
0.0
 13
-50.1383406008924
 23
6.350000000000002
 33
0.0
  0
MTEXT
  5
147
330
13E
100
AcDbEntity
  8
치수문자_일반주서
 62
     0
100
AcDbMText
 10
-52.7633406008924
 20
21.902
 30
0.0
 40
3.5
 41
0.0
 71
     5
 72
     1
  1
\A1;{Ø12.7 [1/2]}
  7
SLDTEXTSTYLE0
 11
0.0
 21
1.0
 31
0.0
 73
     1
 44
1.0
  0
POINT
  5
148
330
13E
100
AcDbEntity
  8
Defpoints
 62
     0
100
AcDbPoint
 10
-40.3
 20
-6.349999999999999
 30
0.0
  0
POINT
  5
149
330
13E
100
AcDbEntity
  8
Defpoints
 62
     0
100
AcDbPoint
 10
-40.3
 20
6.350000000000001
 30
0.0
  0
POINT
  5
14A
330
13E
100
AcDbEntity
  8
Defpoints
 62
     0
100
AcDbPoint
 10
-50.1383406008924
 20
6.350000000000002
 30
0.0
  0
ENDBLK
  5
140
330
13E
100
AcDbEntity
  8
0
100
AcDbBlockEnd
  0
BLOCK
  5
156
330
155
100
AcDbEntity
  8
0
100
AcDbBlockBegin
  2
*D8
 70
     1
 10
0.0
 20
0.0
 30
0.0
  3
*D8
  1
*D8
  0
LINE
  5
158
330
155
100
AcDbEntity
  8
치수문자_일반주서
 62
     0
370
    -2
100
AcDbLine
 10
60.86250000000001
 20
-6.349999999999999
 30
0.0
 11
68.15830120466114
 21
-6.349999999999999
 31
0.0
  0
LINE
  5
159
330
155
100
AcDbEntity
  8
치수문자_일반주서
 62
     0
370
    -2
100
AcDbLine
 10
60.86249999999999
 20
6.350000000000001
 30
0.0
 11
68.15830120466114
 21
6.350000000000001
 31
0.0
  0
LINE
  5
15A
330
155
100
AcDbEntity
  8
치수문자_일반주서
 62
     0
370
    -2
100
AcDbLine
 10
68.15830120466114
 20
6.350000000000001
 30
0.0
 11
68.15830120466114
 21
34.152
 31
0.0
  0
LINE
  5
15B
330
155
100
AcDbEntity
  8
치수문자_일반주서
 62
     0
370
    -2
100
AcDbLine
 10
68.15830120466114
 20
-3.047999999999999
 30
0.0
 11
68.15830120466114
 21
3.048000000000001
 31
0.0
  0
SOLID
  5
15C
330
155
100
AcDbEntity
  8
치수문자_일반주서
 62
     0
100
AcDbTrace
 10
67.60796787132782
 20
-3.047999999999999
 30
0.0
 11
68.70863453799447
 21
-3.047999999999999
 31
0.0
 12
68.15830120466114
 22
-6.349999999999999
 32
0.0
 13
68.15830120466114
 23
-6.349999999999999
 33
0.0
  0
SOLID
  5
15D
330
155
100
AcDbEntity
  8
치수문자_일반주서
 62
     0
100
AcDbTrace
 10
68.70863453799447
 20
3.048000000000001
 30
0.0
 11
67.60796787132782
 21
3.048000000000001
 31
0.0
 12
68.15830120466114
 22
6.350000000000001
 32
0.0
 13
68.15830120466114
 23
6.350000000000001
 33
0.0
  0
MTEXT
  5
15E
330
155
100
AcDbEntity
  8
치수문자_일반주서
 62
     0
100
AcDbMText
 10
65.53330120466114
 20
21.902
 30
0.0
 40
3.5
 41
0.0
 71
     5
 72
     1
  1
\A1;{Ø12.7 [1/2]}
  7
SLDTEXTSTYLE0
 11
0.0
 21
1.0
 31
0.0
 73
     1
 44
1.0
  0
POINT
  5
15F
330
155
100
AcDbEntity
  8
Defpoints
 62
     0
100
AcDbPoint
 10
60.80000000000001
 20
-6.349999999999999
 30
0.0
  0
POINT
  5
160
330
155
100
AcDbEntity
  8
Defpoints
 62
     0
100
AcDbPoint
 10
60.79999999999999
 20
6.350000000000001
 30
0.0
  0
POINT
  5
161
330
155
100
AcDbEntity
  8
Defpoints
 62
     0
100
AcDbPoint
 10
68.15830120466114
 20
6.350000000000001
 30
0.0
  0
ENDBLK
  5
157
330
155
100
AcDbEntity
  8
0
100
AcDbBlockEnd
  0
BLOCK
  5
168
330
167
100
AcDbEntity
  8
0
100
AcDbBlockBegin
  2
*D9
 70
     1
 10
0.0
 20
0.0
 30
0.0
  3
*D9
  1
*D9
  0
LINE
  5
16A
330
167
100
AcDbEntity
  8
치수문자_일반주서
 62
     0
370
    -2
100
AcDbLine
 10
62.06627369073652
 20
-7.961350010615078
 30
0.0
 11
83.33326503993877
 21
-30.9293774172723
 31
0.0
  0
MTEXT
  5
16B
330
167
100
AcDbEntity
  8
치수문자_일반주서
 62
     0
100
AcDbMText
 10
75.74758978128577
 20
-18.87333512013931
 30
0.0
 40
3.5
 41
0.0
 71
     5
 72
     1
  1
\A1;R3.05 [R0.12]
  7
SLDTEXTSTYLE0
 11
0.6794131796435449
 21
-0.7337559071834777
 31
0.0
 73
     1
 44
1.0
  0
SOLID
  5
16C
330
167
100
AcDbEntity
  8
치수문자_일반주서
 62
     0
100
AcDbTrace
 10
62.47008402498982
 20
-7.587446290751247
 30
0.0
 11
61.66246335648321
 21
-8.33525373047891
 31
0.0
 12
59.82285137155353
 22
-5.538488005095235
 32
0.0
 13
59.82285137155353
 23
-5.538488005095235
 33
0.0
  0
LINE
  5
16D
330
167
100
AcDbEntity
  8
치수문자_일반주서
 62
     0
100
AcDbLine
 10
57.66200000000001
 20
-3.301999999999997
 30
0.0
 11
57.84200000000001
 21
-3.301999999999997
 31
0.0
  0
LINE
  5
16E
330
167
100
AcDbEntity
  8
치수문자_일반주서
 62
     0
100
AcDbLine
 10
57.75200000000001
 20
-3.391999999999997
 30
0.0
 11
57.75200000000001
 21
-3.211999999999997
 31
0.0
  0
POINT
  5
16F
330
167
100
AcDbEntity
  8
Defpoints
 62
     0
100
AcDbPoint
 10
59.82285137155353
 20
-5.538488005095235
 30
0.0
  0
POINT
  5
170
330
167
100
AcDbEntity
  8
Defpoints
 62
     0
100
AcDbPoint
 10
57.75200000000001
 20
-3.301999999999997
 30
0.0
  0
ENDBLK
  5
169
330
167
100
AcDbEntity
  8
0
100
AcDbBlockEnd
  0
ENDSEC
  0
SECTION
  2
ENTITIES
  0
LINE
  5
95
102
{ACAD_REACTORS
102
}
330
1F
100
AcDbEntity
  8
0
  6
Continuous
 62
     4
370
    15
100
AcDbLine
 10
10.0
 20
6.350000000000001
 30
0.0
 11
-40.3
 21
6.350000000000001
 31
0.0
  0
LINE
  5
96
330
1F
100
AcDbEntity
  8
0
  6
Continuous
 62
     4
370
    15
100
AcDbLine
 10
-40.3
 20
-6.349999999999999
 30
0.0
 11
7.969841965921701
 21
-6.349999999999999
 31
0.0
  0
LINE
  5
97
330
1F
100
AcDbEntity
  8
0
  6
Continuous
 62
     4
370
    15
100
AcDbLine
 10
-40.3
 20
6.349999999999999
 30
0.0
 11
-40.8
 21
5.849999999999999
 31
0.0
  0
LINE
  5
98
330
1F
100
AcDbEntity
  8
0
  6
Continuous
 62
     4
370
    15
100
AcDbLine
 10
-40.8
 20
-5.849999999999996
 30
0.0
 11
-40.3
 21
-6.349999999999996
 31
0.0
  0
LINE
  5
99
330
1F
100
AcDbEntity
  8
0
  6
Continuous
 62
     1
370
    15
100
AcDbLine
 10
51.44771728630032
 20
-6.349999999999999
 30
0.0
 11
56.91561396455416
 21
-6.349999999999999
 31
0.0
  0
LINE
  5
9A
330
1F
100
AcDbEntity
  8
0
  6
Continuous
 62
     1
370
    15
100
AcDbLine
 10
30.44255365136551
 20
6.350000000000001
 30
0.0
 11
24.97420075759418
 21
6.350000000000001
 31
0.0
  0
LINE
  5
9B
330
1F
100
AcDbEntity
  8
0
  6
Continuous
 62
     1
370
    15
100
AcDbLine
 10
33.79831936220737
 20
-6.349999999999999
 30
0.0
 11
39.26609701093774
 21
-6.349999999999999
 31
0.0
  0
LINE
  5
9C
330
1F
100
AcDbEntity
  8
0
  6
Continuous
 62
     1
370
    15
100
AcDbLine
 10
12.79458848600661
 20
6.350000000000001
 30
0.0
 11
10.0
 21
6.350000000000001
 31
0.0
  0
LINE
  5
9D
330
1F
100
AcDbEntity
  8
0
  6
Continuous
 62
     1
370
    15
100
AcDbLine
 10
16.15022777141688
 20
-6.349999999999999
 30
0.0
 11
21.61770702265584
 21
-6.349999999999999
 31
0.0
  0
LINE
  5
9E
330
1F
100
AcDbEntity
  8
0
  6
Continuous
 62
     1
370
    15
100
AcDbLine
 10
48.09095396567486
 20
6.350000000000001
 30
0.0
 11
42.62373445980618
 21
6.350000000000001
 31
0.0
  0
SPLINE
  5
A1
330
1F
100
AcDbEntity
  8
0
  6
Continuous
 62
     1
370
    15
100
AcDbSpline
210
0.0
220
0.0
230
1.0
 70
    24
 71
     3
 72
    14
 73
    10
 74
     0
 42
0.000000001
 43
0.00000001
 40
0.0
 40
0.0
 40
0.0
 40
0.0
 40
0.2499999999999998
 40
0.2499999999999998
 40
0.4999999999999997
 40
0.4999999999999997
 40
0.7499999999999998
 40
0.7499999999999998
 40
1.0
 40
1.0
 40
1.0
 40
1.0
 10
10.0
 20
5.900511224622465
 30
0.0
 10
10.0
 20
5.575304861357565
 30
0.0
 10
10.0
 20
5.245711795261871
 30
0.0
 10
10.0
 20
4.577506373861397
 30
0.0
 10
10.0
 20
4.237076124587889
 30
0.0
 10
10.0
 20
3.553757489440344
 30
0.0
 10
10.0
 20
3.218271027669815
 30
0.0
 10
10.0
 20
2.560560921893479
 30
0.0
 10
10.0
 20
2.236481735793471
 30
0.0
 10
10.0
 20
1.930696744499067
 30
0.0
  0
SPLINE
  5
A2
330
1F
100
AcDbEntity
  8
0
  6
Continuous
 62
     4
370
    15
100
AcDbSpline
210
0.0
220
0.0
230
1.0
 70
     8
 71
     3
 72
    14
 73
    10
 74
     0
 42
0.000000001
 43
0.00000001
 40
0.0
 40
0.0
 40
0.0
 40
0.0
 40
0.25
 40
0.25
 40
0.5
 40
0.5
 40
0.75
 40
0.75
 40
1.0
 40
1.0
 40
1.0
 40
1.0
 10
8.735659623682501
 20
-0.2670367433828044
 30
0.0
 10
8.61195638264555
 20
-0.174094818988378
 30
0.0
 10
8.502138485613187
 20
-0.067970399708996
 30
0.0
 10
8.309261417825137
 20
0.1697080414564358
 30
0.0
 10
8.22653866998546
 20
0.3020298720486683
 30
0.0
 10
8.096779896738452
 20
0.5776515909263351
 30
0.0
 10
8.047954392829887
 20
0.7243900177827509
 30
0.0
 10
7.984632427832687
 20
1.022178277199824
 30
0.0
 10
7.969841965919859
 20
1.172387489343358
 30
0.0
 10
7.969841965919818
 20
1.323568255186139
 30
0.0
  0
SPLINE
  5
A3
330
1F
100
AcDbEntity
  8
0
  6
Continuous
 62
     4
370
    15
100
AcDbSpline
210
0.0
220
0.0
230
1.0
 70
     8
 71
     3
 72
    20
 73
    16
 74
     0
 42
0.000000001
 43
0.00000001
 40
0.0
 40
0.0
 40
0.0
 40
0.0
 40
0.125
 40
0.125
 40
0.25
 40
0.25
 40
0.375
 40
0.375
 40
0.5
 40
0.5
 40
0.75
 40
0.75
 40
0.875
 40
0.875
 40
1.0
 40
1.0
 40
1.0
 40
1.0
 10
7.969841965921701
 20
4.898562504431295
 30
0.0
 10
7.969841965921701
 20
4.983761365391227
 30
0.0
 10
7.980964947876194
 20
5.064474302078754
 30
0.0
 10
8.027731336770497
 20
5.217278125385787
 30
0.0
 10
8.064019407067091
 20
5.290165330410378
 30
0.0
 10
8.161382234020994
 20
5.422870007563357
 30
0.0
 10
8.221970068189357
 20
5.482750250004673
 30
0.0
 10
8.367759976332561
 20
5.591174944098226
 30
0.0
 10
8.453630314711374
 20
5.639713657543929
 30
0.0
 10
8.736772078053692
 20
5.763974505475785
 30
0.0
 10
8.967224665771818
 20
5.822000678895448
 30
0.0
 10
9.339839711603052
 20
5.87523619319348
 30
0.0
 10
9.470836190777788
 20
5.88768025758492
 30
0.0
 10
9.733608579831367
 20
5.901835414045189
 30
0.0
 10
9.866189071028645
 20
5.903772931291369
 30
0.0
 10
10.0
 20
5.900511224622422
 30
0.0
  0
LINE
  5
A4
330
1F
100
AcDbEntity
  8
0
  6
Continuous
 62
     4
370
    15
100
AcDbLine
 10
7.969841965921701
 20
4.898562504431295
 30
0.0
 11
7.969841965921701
 21
1.323568255186647
 31
0.0
  0
SPLINE
  5
A5
330
1F
100
AcDbEntity
  8
0
  6
Continuous
 62
     4
370
    15
100
AcDbSpline
210
0.0
220
0.0
230
1.0
 70
     8
 71
     3
 72
     8
 73
     4
 74
     0
 42
0.000000001
 43
0.00000001
 40
0.0
 40
0.0
 40
0.0
 40
0.0
 40
1.0
 40
1.0
 40
1.0
 40
1.0
 10
9.999999999999998
 20
-1.212779733873012
 30
0.0
 10
9.579067423672184
 20
-0.9010344874051707
 30
0.0
 10
9.158692222726025
 20
-0.5848737176374758
 30
0.0
 10
8.735659623682501
 20
-0.2670367433828026
 30
0.0
  0
LINE
  5
A6
330
1F
100
AcDbEntity
  8
0
  6
Continuous
 62
     4
370
    15
100
AcDbLine
 10
9.999999999999996
 20
-1.212779733872998
 30
0.0
 11
10.0
 21
-4.982458964852163
 31
0.0
  0
SPLINE
  5
A7
330
1F
100
AcDbEntity
  8
0
  6
Continuous
 62
     4
370
    15
100
AcDbSpline
210
0.0
220
0.0
230
1.0
 70
     8
 71
     3
 72
    20
 73
    16
 74
     0
 42
0.000000001
 43
0.00000001
 40
0.0
 40
0.0
 40
0.0
 40
0.0
 40
0.125
 40
0.125
 40
0.2499999999999999
 40
0.2499999999999999
 40
0.3749999999999999
 40
0.3749999999999999
 40
0.4999999999999999
 40
0.4999999999999999
 40
0.7499999999999998
 40
0.7499999999999998
 40
0.8749999999999999
 40
0.8749999999999999
 40
1.0
 40
1.0
 40
1.0
 40
1.0
 10
7.969841965921701
 20
-5.948558183616607
 30
0.0
 10
7.969841965921701
 20
-5.901706574517485
 30
0.0
 10
7.980964947876197
 20
-5.851560210996184
 30
0.0
 10
8.027731336770499
 20
-5.745450702790415
 30
0.0
 10
8.064019407067091
 20
-5.688754161923233
 30
0.0
 10
8.161382234020994
 20
-5.574594754484242
 30
0.0
 10
8.221970068189357
 20
-5.517281967122954
 30
0.0
 10
8.367759976332561
 20
-5.404254484613757
 30
0.0
 10
8.453630314711374
 20
-5.348402826456648
 30
0.0
 10
8.736772078053692
 20
-5.195018444066736
 30
0.0
 10
8.967224665771818
 20
-5.107916742660858
 30
0.0
 10
9.339839711603053
 20
-5.024399987096416
 30
0.0
 10
9.47083619077779
 20
-5.003831062812382
 30
0.0
 10
9.733608579831367
 20
-4.980302051855343
 30
0.0
 10
9.866189071028645
 20
-4.976987033620015
 30
0.0
 10
10.0
 20
-4.982458964852163
 30
0.0
  0
LINE
  5
A8
330
1F
100
AcDbEntity
  8
0
  6
Continuous
 62
     4
370
    15
100
AcDbLine
 10
7.969841965921701
 20
-5.948558183616607
 30
0.0
 11
7.969841965921701
 21
-6.349999999999999
 31
0.0
  0
SPLINE
  5
A9
330
1F
100
AcDbEntity
  8
0
  6
Continuous
 62
     4
370
    15
100
AcDbSpline
210
0.0
220
0.0
230
1.0
 70
     8
 71
     3
 72
    14
 73
    10
 74
     0
 42
0.000000001
 43
0.00000001
 40
0.0
 40
0.0
 40
0.0
 40
0.0
 40
0.25
 40
0.25
 40
0.5
 40
0.5
 40
0.75
 40
0.75
 40
1.0
 40
1.0
 40
1.0
 40
1.0
 10
8.735659623682501
 20
-5.36087818600831
 30
0.0
 10
8.61195638264555
 20
-5.410736996427806
 30
0.0
 10
8.502138485613187
 20
-5.465924141999057
 30
0.0
 10
8.309261417825137
 20
-5.583114394294954
 30
0.0
 10
8.22653866998546
 20
-5.645354842778769
 30
0.0
 10
8.096779896738452
 20
-5.766592358879944
 30
0.0
 10
8.047954392829887
 20
-5.827107355483315
 30
0.0
 10
7.984632427832687
 20
-5.94019461800866
 30
0.0
 10
7.969841965919858
 20
-5.992572010677245
 30
0.0
 10
7.969841965919814
 20
-6.040259776454698
 30
0.0
  0
LINE
  5
AA
330
1F
100
AcDbEntity
  8
0
  6
Continuous
 62
     4
370
    15
100
AcDbLine
 10
9.518796377849938
 20
-5.008291399725152
 30
0.0
 11
8.735659623682501
 21
-5.360878186008311
 31
0.0
  0
LINE
  5
AB
330
1F
100
AcDbEntity
  8
0
  6
Continuous
 62
     4
370
    15
100
AcDbLine
 10
10.0
 20
6.350000000000001
 30
0.0
 11
10.0
 21
5.900511224622422
 31
0.0
  0
LINE
  5
AC
102
{ACAD_REACTORS
102
}
330
1F
100
AcDbEntity
  8
0
  6
Continuous
 62
     4
370
    15
100
AcDbLine
 10
-40.3
 20
6.349999999999999
 30
0.0
 11
-40.3
 21
-6.349999999999999
 31
0.0
  0
LINE
  5
AD
330
1F
100
AcDbEntity
  8
0
  6
Continuous
 62
     4
370
    15
100
AcDbLine
 10
-40.8
 20
5.849999999999999
 30
0.0
 11
-40.8
 21
-5.849999999999996
 31
0.0
  0
SPLINE
  5
AE
330
1F
100
AcDbEntity
  8
0
  6
Continuous
 62
     1
370
    15
100
AcDbSpline
210
0.0
220
0.0
230
1.0
 70
    24
 71
     3
 72
    14
 73
    10
 74
     0
 42
0.000000001
 43
0.00000001
 40
0.0
 40
0.0
 40
0.0
 40
0.0
 40
0.2500000000000001
 40
0.2500000000000001
 40
0.5000000000000002
 40
0.5000000000000002
 40
0.7500000000000001
 40
0.7500000000000001
 40
1.0
 40
1.0
 40
1.0
 40
1.0
 10
9.999999999999998
 20
1.930696744498769
 30
0.0
 10
9.999999999999998
 20
1.603258574101548
 30
0.0
 10
9.999999999999998
 20
1.27739323151101
 30
0.0
 10
9.999999999999998
 20
0.649893446813969
 30
0.0
 10
9.999999999999998
 20
0.3483752569196739
 30
0.0
 10
9.999999999999998
 20
-0.2062036641423016
 30
0.0
 10
9.999999999999998
 20
-0.4590911899222594
 30
0.0
 10
9.999999999999998
 20
-0.8935774977141893
 30
0.0
 10
9.999999999999998
 20
-1.075006920570788
 30
0.0
 10
9.999999999999998
 20
-1.212779733872997
 30
0.0
  0
SPLINE
  5
AF
330
1F
100
AcDbEntity
  8
0
  6
Continuous
 62
     1
370
    15
100
AcDbSpline
210
0.0
220
0.0
230
1.0
 70
     8
 71
     3
 72
    25
 73
    21
 74
     0
 42
0.000000001
 43
0.00000001
 40
0.0
 40
0.0
 40
0.0
 40
0.0
 40
0.0619826538840352
 40
0.1239650011770017
 40
0.1859515897993899
 40
0.2479469569019468
 40
0.3099556173755048
 40
0.3719815786567222
 40
0.4261758362436129
 40
0.4803198520008159
 40
0.534454608389573
 40
0.5886211875406328
 40
0.642838907734926
 40
0.6960398800903238
 40
0.7492057937671244
 40
0.80238615449099
 40
0.8556283968967874
 40
0.9098177343218955
 40
0.9639597332747899
 40
0.9999999999999999
 40
0.9999999999999999
 40
0.9999999999999999
 40
0.9999999999999999
 10
57.75200000000001
 20
-6.349999999999998
 30
0.0
 10
57.18775037380769
 20
-6.349999999999999
 30
0.0
 10
56.059253912428
 20
-6.371304152603041
 30
0.0
 10
54.36648549848999
 20
-6.099393519082822
 30
0.0
 10
52.67356338871726
 20
-5.600297676791086
 30
0.0
 10
50.98031860593981
 20
-4.870896269188695
 30
0.0
 10
49.28662767204804
 20
-3.94671675038727
 30
0.0
 10
47.66371272967013
 20
-2.908796623188677
 30
0.0
 10
46.11260376278323
 20
-1.818457611139721
 30
0.0
 10
44.63394779303907
 20
-0.7218040275843245
 30
0.0
 10
43.15556720676865
 20
0.3968428656627025
 30
0.0
 10
41.67629964901559
 20
1.503501820620237
 30
0.0
 10
40.20471528130108
 20
2.556868479781226
 30
0.0
 10
38.7430638392504
 20
3.527471916955461
 30
0.0
 10
37.29111967519814
 20
4.387669187720948
 30
0.0
 10
35.83876267335216
 20
5.11735158981001
 30
0.0
 10
34.37621474313904
 20
5.700353473608827
 30
0.0
 10
32.90521542573399
 20
6.107078454964504
 30
0.0
 10
31.5913210653586
 20
6.329101909273237
 30
0.0
 10
30.77056072916087
 20
6.328499320574159
 30
0.0
 10
30.44255365136551
 20
6.328258503188644
 30
0.0
  0
LINE
  5
B0
330
1F
100
AcDbEntity
  8
0
  6
Continuous
 62
     1
370
    15
100
AcDbLine
 10
10.06098066127917
 20
-4.758409637222995
 30
0.0
 11
9.999999999999998
 21
-4.791642088121741
 31
0.0
  0
SPLINE
  5
B1
330
1F
100
AcDbEntity
  8
0
  6
Continuous
 62
     1
370
    15
100
AcDbSpline
210
0.0
220
0.0
230
1.0
 70
     8
 71
     3
 72
    11
 73
     7
 74
     0
 42
0.000000001
 43
0.00000001
 40
0.0
 40
0.0
 40
0.0
 40
0.0
 40
0.2597798461806727
 40
0.5195173639751555
 40
0.7791163499406288
 40
1.0
 40
1.0
 40
1.0
 40
1.0
 10
9.999999999998657
 20
-4.733126815454211
 30
0.0
 10
10.53264448651695
 20
-4.984470083587444
 30
0.0
 10
11.59784667075194
 20
-5.487115666119134
 30
0.0
 10
13.19528992872982
 20
-5.993406637132745
 30
0.0
 10
14.71263588651426
 20
-6.303965917306911
 30
0.0
 10
15.69748211036454
 20
-6.32562777559492
 30
0.0
 10
16.15022777141688
 20
-6.335585992535513
 30
0.0
  0
SPLINE
  5
B2
330
1F
100
AcDbEntity
  8
0
  6
Continuous
 62
     1
370
    15
100
AcDbSpline
210
0.0
220
0.0
230
1.0
 70
     8
 71
     3
 72
    21
 73
    17
 74
     0
 42
0.000000001
 43
0.00000001
 40
0.0
 40
0.0
 40
0.0
 40
0.0
 40
0.0381938348141266
 40
0.1078685326605095
 40
0.1775729201255913
 40
0.2473511171940276
 40
0.3158425343052469
 40
0.3842760874261422
 40
0.4527154471617783
 40
0.5212242135804501
 40
0.6010575443009706
 40
0.6808686072311807
 40
0.7606625603244519
 40
0.8404452146760986
 40
0.9202224100320691
 40
1.0
 40
1.0
 40
1.0
 40
1.0
 10
36.53394451367314
 20
4.74455886335468
 30
0.0
 10
36.80404494266364
 20
4.8820422350787
 30
0.0
 10
37.56687321293213
 20
5.270328188695601
 30
0.0
 10
38.82240087267643
 20
5.740207110295702
 30
0.0
 10
40.30142664732711
 20
6.143404001935496
 30
0.0
 10
41.77292380080452
 20
6.349305772722827
 30
0.0
 10
43.23487256627202
 20
6.364855572768129
 30
0.0
 10
44.68690067868123
 20
6.191060604144558
 30
0.0
 10
46.13905977127353
 20
5.833712935336379
 30
0.0
 10
47.67251188519637
 20
5.274481299562637
 30
0.0
 10
49.28662900576566
 20
4.49643435684821
 30
0.0
 10
50.98031824870571
 20
3.498871301268757
 30
0.0
 10
52.67356348438141
 20
2.360284969836281
 30
0.0
 10
54.36648547298305
 20
1.127888016366222
 30
0.0
 10
56.05925391880459
 20
-0.1539450301570091
 30
0.0
 10
57.18775037593321
 20
-0.9941751272305394
 30
0.0
 10
57.752
 20
-1.414291214798648
 30
0.0
  0
SPLINE
  5
B3
330
1F
100
AcDbEntity
  8
0
  6
Continuous
 62
     1
370
    15
100
AcDbSpline
210
0.0
220
0.0
230
1.0
 70
     8
 71
     3
 72
    20
 73
    16
 74
     0
 42
0.000000001
 43
0.00000001
 40
0.0
 40
0.0
 40
0.0
 40
0.0
 40
0.2499999999999975
 40
0.2499999999999975
 40
0.3749999999999979
 40
0.3749999999999979
 40
0.4999999999999983
 40
0.4999999999999983
 40
0.6249999999999988
 40
0.6249999999999988
 40
0.7499999999999991
 40
0.7499999999999991
 40
0.8749999999999996
 40
0.8749999999999996
 40
1.0
 40
1.0
 40
1.0
 40
1.0
 10
57.752
 20
-1.41429121479865
 30
0.0
 10
58.09058905567066
 20
-1.662583959760021
 30
0.0
 10
58.41622592876657
 20
-1.891416178439093
 30
0.0
 10
58.89570873414884
 20
-2.192157333989026
 30
0.0
 10
59.05203794120396
 20
-2.283991235314408
 30
0.0
 10
59.35036673300176
 20
-2.444060812318021
 30
0.0
 10
59.49360253383173
 20
-2.513308250023147
 30
0.0
 10
59.76698273802281
 20
-2.630319452964188
 30
0.0
 10
59.89554575736319
 20
-2.677250930173695
 30
0.0
 10
60.1279864705465
 20
-2.748861503328841
 30
0.0
 10
60.23303569821739
 20
-2.774014196981148
 30
0.0
 10
60.41842587669595
 20
-2.808351363271315
 30
0.0
 10
60.49722276817318
 20
-2.817246296125428
 30
0.0
 10
60.62508127552187
 20
-2.827306157009231
 30
0.0
 10
60.67451426885852
 20
-2.828546335686701
 30
0.0
 10
60.71070854724286
 20
-2.831326972183128
 30
0.0
  0
SPLINE
  5
B4
330
1F
100
AcDbEntity
  8
0
  6
Continuous
 62
     1
370
    15
100
AcDbSpline
210
0.0
220
0.0
230
1.0
 70
     8
 71
     3
 72
    12
 73
     8
 74
     0
 42
0.000000001
 43
0.00000001
 40
0.0
 40
0.0
 40
0.0
 40
0.0
 40
0.183857652146975
 40
0.4601408807553943
 40
0.7067202398313401
 40
0.9593629250600907
 40
1.0
 40
1.0
 40
1.0
 40
1.0
 10
60.18088492626831
 20
-2.755699976202966
 30
0.0
 10
60.10493440029218
 20
-2.760336707947511
 30
0.0
 10
59.91485288065786
 20
-2.771941064926114
 30
0.0
 10
59.56706058369056
 20
-2.868857707015593
 30
0.0
 10
59.16279898392852
 20
-3.025490657709077
 30
0.0
 10
58.86799875418022
 20
-3.170271773188771
 30
0.0
 10
58.7066909832082
 20
-3.258291042122859
 30
0.0
 10
58.68434005120521
 20
-3.270487061465529
 30
0.0
  0
SPLINE
  5
B5
330
1F
100
AcDbEntity
  8
0
  6
Continuous
 62
     1
370
    15
100
AcDbSpline
210
0.0
220
0.0
230
1.0
 70
     8
 71
     3
 72
     8
 73
     4
 74
     0
 42
0.000000001
 43
0.00000001
 40
0.0
 40
0.0
 40
0.0
 40
0.0
 40
1.0
 40
1.0
 40
1.0
 40
1.0
 10
60.76298071589715
 20
-3.70965047126424
 30
0.0
 10
60.04859588143884
 20
-3.657595423164806
 30
0.0
 10
59.35532238564235
 20
-3.512932767989786
 30
0.0
 10
58.68434005120523
 20
-3.270487061465495
 30
0.0
  0
SPLINE
  5
B7
330
1F
100
AcDbEntity
  8
0
  6
Continuous
 62
     1
370
    15
100
AcDbSpline
210
0.0
220
0.0
230
1.0
 70
     8
 71
     3
 72
    30
 73
    26
 74
     0
 42
0.000000001
 43
0.00000001
 40
0.0
 40
0.0
 40
0.0
 40
0.0
 40
0.0221840204773116
 40
0.0675852984640051
 40
0.1130132652948717
 40
0.1584841226617868
 40
0.2031022625814383
 40
0.2476909997861055
 40
0.2922918533175773
 40
0.3369446052527934
 40
0.3823916587997643
 40
0.4277990109186729
 40
0.4732010506331112
 40
0.5186322241532643
 40
0.5641029587477105
 40
0.6087178419350145
 40
0.6533060929601512
 40
0.6979092367736669
 40
0.7425650404272874
 40
0.7916129475327278
 40
0.8406368258850225
 40
0.889649197291308
 40
0.9386626476801486
 40
0.9876897569624506
 40
1.0
 40
1.0
 40
1.0
 40
1.0
 10
45.35611152437728
 20
-4.744514560693735
 30
0.0
 10
45.11536010143705
 20
-4.868202895273816
 30
0.0
 10
44.38189265843273
 20
-5.245028773957983
 30
0.0
 10
43.15557759288095
 20
-5.71043526802475
 30
0.0
 10
41.67629686196316
 20
-6.125088389057574
 30
0.0
 10
40.20471600808899
 20
-6.342210697889366
 30
0.0
 10
38.74306366347079
 20
-6.369336045255023
 30
0.0
 10
37.29111965782543
 20
-6.206854237784234
 30
0.0
 10
35.83876291882325
 20
-5.860359275571244
 30
0.0
 10
34.37621377018055
 20
-5.337246952738724
 30
0.0
 10
32.90521914082839
 20
-4.649108759363591
 30
0.0
 10
31.42662496339859
 20
-3.813795392189703
 30
0.0
 10
29.94821855563527
 20
-2.86133676680304
 30
0.0
 10
28.46885927819958
 20
-1.820766247075372
 30
0.0
 10
26.99727844277028
 20
-0.7315293214366556
 30
0.0
 10
25.53571884292384
 20
0.3737893254903628
 30
0.0
 10
24.08379254551672
 20
1.461211791928164
 30
0.0
 10
22.63135517770311
 20
2.505562185930623
 30
0.0
 10
21.12961685497895
 20
3.5066978968008
 30
0.0
 10
19.5802222993319
 20
4.425714881487853
 30
0.0
 10
17.98378358915815
 20
5.213146946765771
 30
0.0
 10
16.38784496292768
 20
5.818820893956961
 30
0.0
 10
14.79183431272962
 20
6.198087104805703
 30
0.0
 10
13.59412902739523
 20
6.367049119665708
 30
0.0
 10
12.92823220288702
 20
6.335020481444126
 30
0.0
 10
12.79458848600661
 20
6.328592419166292
 30
0.0
  0
SPLINE
  5
B8
330
1F
100
AcDbEntity
  8
0
  6
Continuous
 62
     1
370
    15
100
AcDbSpline
210
0.0
220
0.0
230
1.0
 70
     8
 71
     3
 72
    30
 73
    26
 74
     0
 42
0.000000001
 43
0.00000001
 40
0.0
 40
0.0
 40
0.0
 40
0.0
 40
0.0214074808898128
 40
0.0704518686878067
 40
0.1159144313306103
 40
0.1613287224209033
 40
0.2067254421254481
 40
0.252139056391929
 40
0.297600901006604
 40
0.3422307055105303
 40
0.3868200454771226
 40
0.4314103907703215
 40
0.4760431990415054
 40
0.5215029366239811
 40
0.5669148404277179
 40
0.6123116233350532
 40
0.6577277506129611
 40
0.703191968785319
 40
0.7478177811637101
 40
0.7924058920652655
 40
0.836997786286117
 40
0.8816349026639277
 40
0.9336505768686365
 40
0.9856517424199344
 40
1.0
 40
1.0
 40
1.0
 40
1.0
 10
18.88287919059291
 20
4.741489121867967
 30
0.0
 10
19.11524946218643
 20
4.862143595297123
 30
0.0
 10
19.87997838781386
 20
5.259216616750683
 30
0.0
 10
21.13841787143392
 20
5.729760976482146
 30
0.0
 10
22.65778335699722
 20
6.144318927401936
 30
0.0
 10
24.1367451240572
 20
6.350779964930807
 30
0.0
 10
25.61508155360412
 20
6.364321615795534
 30
0.0
 10
27.09401024280747
 20
6.181552891334944
 30
0.0
 10
28.56545334176633
 20
5.811371458947795
 30
0.0
 10
30.02750560723539
 20
5.268456205716314
 30
0.0
 10
31.4795757214733
 20
4.572460356179676
 30
0.0
 10
32.93168050480573
 20
3.740829602477283
 30
0.0
 10
34.39381024850542
 20
2.792800841832002
 30
0.0
 10
35.86520163174907
 20
1.75460729261041
 30
0.0
 10
37.3440729493212
 20
0.6556362858850779
 30
0.0
 10
38.82241455107827
 20
-0.4632287069558537
 30
0.0
 10
40.30142297381225
 20
-1.568124278158034
 30
0.0
 10
41.77292476960464
 20
-2.617810213325947
 30
0.0
 10
43.23487229360931
 20
-3.582661459065835
 30
0.0
 10
44.68690080909037
 20
-4.435848297653649
 30
0.0
 10
46.13905952206014
 20
-5.156419404014055
 30
0.0
 10
47.67251281404208
 20
-5.75944054640895
 30
0.0
 10
49.28662492029081
 20
-6.171428656488565
 30
0.0
 10
50.57167080420437
 20
-6.366678274854725
 30
0.0
 10
51.29195394259072
 20
-6.331932016597275
 30
0.0
 10
51.44771728630032
 20
-6.324418036220469
 30
0.0
  0
SPLINE
  5
B9
330
1F
100
AcDbEntity
  8
0
  6
Continuous
 62
     1
370
    15
100
AcDbSpline
210
0.0
220
0.0
230
1.0
 70
     8
 71
     3
 72
    13
 73
     9
 74
     0
 42
0.000000001
 43
0.00000001
 40
0.0
 40
0.0
 40
0.0
 40
0.0
 40
0.1752250965626103
 40
0.3504493263916064
 40
0.5256855464680491
 40
0.7009465833269117
 40
0.87624520057434
 40
1.0
 40
1.0
 40
1.0
 40
1.0
 10
57.75200000000001
 20
2.614301553051658
 30
0.0
 10
57.18775036777702
 20
2.991717384224822
 30
0.0
 10
56.05925389433609
 20
3.746547179721061
 30
0.0
 10
54.36648557085928
 20
4.699284248005207
 30
0.0
 10
52.67356311729549
 20
5.472963288288096
 30
0.0
 10
50.9803196194971
 20
6.015197647520627
 30
0.0
 10
49.45277940952584
 20
6.317468496465129
 30
0.0
 10
48.48955651936124
 20
6.321664008162682
 30
0.0
 10
48.09095396567486
 20
6.323400202031971
 30
0.0
  0
SPLINE
  5
BA
330
1F
100
AcDbEntity
  8
0
  6
Continuous
 62
     1
370
    15
100
AcDbSpline
210
0.0
220
0.0
230
1.0
 70
     8
 71
     3
 72
    19
 73
    15
 74
     0
 42
0.000000001
 43
0.00000001
 40
0.0
 40
0.0
 40
0.0
 40
0.0
 40
0.0406297644453709
 40
0.1226732403195439
 40
0.2046677416139767
 40
0.2866896296465739
 40
0.3688083552367867
 40
0.4590038347674603
 40
0.5491551271953522
 40
0.6392852591991914
 40
0.7294173753722794
 40
0.8195746092418869
 40
0.9097799544184783
 40
1.0
 40
1.0
 40
1.0
 40
1.0
 10
27.70776596992711
 20
-4.744428330696493
 30
0.0
 10
27.46787585382092
 20
-4.867587880604584
 30
0.0
 10
26.74357685122775
 20
-5.2394428807446
 30
0.0
 10
25.53572112958009
 20
-5.699198098538259
 30
0.0
 10
24.08379193637969
 20
-6.111636374319162
 30
0.0
 10
22.63135532763741
 20
-6.335206198470202
 30
0.0
 10
21.1296168607382
 20
-6.374186244999303
 30
0.0
 10
19.58022208697589
 20
-6.202376917103608
 30
0.0
 10
17.98378442555767
 20
-5.803373633538375
 30
0.0
 10
16.38784183028512
 20
-5.196610406799253
 30
0.0
 10
14.79184600886717
 20
-4.404100331274782
 30
0.0
 10
13.1952906097365
 20
-3.452973826758103
 30
0.0
 10
11.59784650043146
 20
-2.381434716526255
 30
0.0
 10
10.53264442974127
 20
-1.602352553684894
 30
0.0
 10
10.00000000000001
 20
-1.212779733873016
 30
0.0
  0
SPLINE
  5
BB
330
1F
100
AcDbEntity
  8
0
  6
Continuous
 62
     4
370
    15
100
AcDbSpline
210
0.0
220
0.0
230
1.0
 70
    24
 71
     3
 72
    18
 73
    14
 74
     0
 42
0.000000001
 43
0.00000001
 40
0.0
 40
0.0
 40
0.0
 40
0.0
 40
0.2500000000000001
 40
0.2500000000000001
 40
0.5000000000000001
 40
0.5000000000000001
 40
0.6250000000000002
 40
0.6250000000000002
 40
0.7500000000000002
 40
0.7500000000000002
 40
0.8750000000000001
 40
0.8750000000000001
 40
1.0
 40
1.0
 40
1.0
 40
1.0
 10
10.0
 20
6.032625042749108
 30
0.0
 10
10.0
 20
5.531518129327371
 30
0.0
 10
10.0
 20
4.959536496755583
 30
0.0
 10
10.0
 20
3.688517433854853
 30
0.0
 10
10.0
 20
2.987469406261453
 30
0.0
 10
10.0
 20
1.918710450545034
 30
0.0
 10
10.0
 20
1.560585142314968
 30
0.0
 10
10.0
 20
0.8658124103686334
 30
0.0
 10
10.0
 20
0.5293122339020856
 30
0.0
 10
10.0
 20
-0.0914890908854463
 30
0.0
 10
10.0
 20
-0.3755377087723808
 30
0.0
 10
10.0
 20
-0.861396619238425
 30
0.0
 10
10.0
 20
-1.06294493997881
 30
0.0
 10
10.0
 20
-1.212779733873
 30
0.0
  0
SPLINE
  5
BC
330
1F
100
AcDbEntity
  8
0
  6
Continuous
 62
     1
370
    15
100
AcDbSpline
210
0.0
220
0.0
230
1.0
 70
     8
 71
     3
 72
    23
 73
    19
 74
     0
 42
0.000000001
 43
0.00000001
 40
0.0
 40
0.0
 40
0.0
 40
0.0
 40
0.0671292849868705
 40
0.1342476319647255
 40
0.2013301811593187
 40
0.2683940412366873
 40
0.3354564249696127
 40
0.4025345533646864
 40
0.469645559692777
 40
0.5318552938988426
 40
0.5939989746253673
 40
0.6561186111455499
 40
0.7182613657247789
 40
0.7804701174006825
 40
0.8415403280192959
 40
0.902555168065597
 40
0.9635713837734832
 40
1.0
 40
1.0
 40
1.0
 40
1.0
 10
9.99999999999865
 20
6.032625042727431
 30
0.0
 10
10.5326444298972
 20
5.886472026801826
 30
0.0
 10
11.59784650090192
 20
5.594189809043172
 30
0.0
 10
13.19529060784974
 20
4.8977023321525
 30
0.0
 10
14.79184601593303
 20
4.041331440206348
 30
0.0
 10
16.3878418039103
 20
3.036286809409753
 30
0.0
 10
17.983784523998
 20
1.923686816299119
 30
0.0
 10
19.58022171941652
 20
0.7418472740994635
 30
0.0
 10
21.13841146436376
 20
-0.4371207088912212
 30
0.0
 10
22.65778502077962
 20
-1.570348700813424
 30
0.0
 10
24.13674466255955
 20
-2.626913770532601
 30
0.0
 10
25.61508173731293
 20
-3.602404628816517
 30
0.0
 10
27.0940099693066
 20
-4.467542679670442
 30
0.0
 10
28.56545424567464
 20
-5.189925772938082
 30
0.0
 10
30.02750233228902
 20
-5.754201072314236
 30
0.0
 10
31.47958793128419
 20
-6.136220546191752
 30
0.0
 10
32.73619160492812
 20
-6.336175885491746
 30
0.0
 10
33.50930130085926
 20
-6.329710002499724
 30
0.0
 10
33.79831936220738
 20
-6.327292807401675
 30
0.0
  0
SPLINE
  5
BD
330
1F
100
AcDbEntity
  8
0
  6
Continuous
 62
     1
370
    15
100
AcDbSpline
210
0.0
220
0.0
230
1.0
 70
     8
 71
     3
 72
    10
 73
     6
 74
     0
 42
0.000000001
 43
0.00000001
 40
0.0
 40
0.0
 40
0.0
 40
0.0
 40
0.0518981654175855
 40
0.5259479102828991
 40
1.0
 40
1.0
 40
1.0
 40
1.0
 10
54.18119590796481
 20
4.753150082750739
 30
0.0
 10
54.24296994220913
 20
4.786817453202893
 30
0.0
 10
54.86900217204079
 20
5.128010306390541
 30
0.0
 10
56.05925072294339
 20
5.772459777419875
 30
0.0
 10
57.18774931064438
 20
6.172187248232103
 30
0.0
 10
57.75200000000001
 20
6.349999999999998
 30
0.0
  0
SPLINE
  5
BF
330
1F
100
AcDbEntity
  8
0
  6
Continuous
 62
     1
370
    15
100
AcDbSpline
210
0.0
220
0.0
230
1.0
 70
     8
 71
     3
 72
    14
 73
    10
 74
     0
 42
0.000000001
 43
0.00000001
 40
0.0
 40
0.0
 40
0.0
 40
0.0
 40
0.25
 40
0.25
 40
0.5
 40
0.5
 40
0.75
 40
0.75
 40
1.0
 40
1.0
 40
1.0
 40
1.0
 10
60.7107085472549
 20
3.904583319873287
 30
0.0
 10
60.60754970106744
 20
3.683131442157688
 30
0.0
 10
60.48596457513444
 20
3.477472064394229
 30
0.0
 10
60.19979427833604
 20
3.103007096876081
 30
0.0
 10
60.0382341826822
 20
2.93916442088763
 30
0.0
 10
59.68800287014411
 20
2.667728445465393
 30
0.0
 10
59.49525481139939
 20
2.557677421372303
 30
0.0
 10
59.09906455840892
 20
2.399141885977598
 30
0.0
 10
58.89334341673081
 20
2.348856823906145
 30
0.0
 10
58.68434005120523
 20
2.325333853375558
 30
0.0
  0
SPLINE
  5
C0
330
1F
100
AcDbEntity
  8
0
  6
Continuous
 62
     1
370
    15
100
AcDbSpline
210
0.0
220
0.0
230
1.0
 70
     8
 71
     3
 72
     8
 73
     4
 74
     0
 42
0.000000001
 43
0.00000001
 40
0.0
 40
0.0
 40
0.0
 40
0.0
 40
1.0
 40
1.0
 40
1.0
 40
1.0
 10
60.76298071589714
 20
1.246343912013418
 30
0.0
 10
60.04859588143882
 20
1.659116411140845
 30
0.0
 10
59.35532238564235
 20
2.019750980453982
 30
0.0
 10
58.68434005120522
 20
2.325333853375565
 30
0.0
  0
SPLINE
  5
C1
330
1F
100
AcDbEntity
  8
0
  6
Continuous
 62
     1
370
    15
100
AcDbSpline
210
0.0
220
0.0
230
1.0
 70
     8
 71
     3
 72
    20
 73
    16
 74
     0
 42
0.000000001
 43
0.00000001
 40
0.0
 40
0.0
 40
0.0
 40
0.0
 40
0.125
 40
0.125
 40
0.25
 40
0.25
 40
0.375
 40
0.375
 40
0.5
 40
0.5
 40
0.625
 40
0.625
 40
0.75
 40
0.75
 40
1.0
 40
1.0
 40
1.0
 40
1.0
 10
60.76298071590313
 20
1.246343912011751
 30
0.0
 10
60.74138362950186
 20
1.15212583540173
 30
0.0
 10
60.70663920818102
 20
1.07164115019104
 30
0.0
 10
60.59795309637686
 20
0.9589994985132432
 30
0.0
 10
60.52240646674525
 20
0.9268500983820448
 30
0.0
 10
60.33225412600362
 20
0.9237546520018757
 30
0.0
 10
60.21474245834517
 20
0.9529291508128878
 30
0.0
 10
59.9557405497377
 20
1.061182298475314
 30
0.0
 10
59.81181507831591
 20
1.14055322368761
 30
0.0
 10
59.51381997047496
 20
1.327271601232471
 30
0.0
 10
59.35737173961778
 20
1.435873976366602
 30
0.0
 10
59.04363558348942
 20
1.663099118125646
 30
0.0
 10
58.88323222154536
 20
1.784165930487123
 30
0.0
 10
58.39775345346617
 20
2.150296185191749
 30
0.0
 10
58.07815872220788
 20
2.39071865896231
 30
0.0
 10
57.75199999999999
 20
2.614301553051658
 30
0.0
  0
SPLINE
  5
C2
330
1F
100
AcDbEntity
  8
0
  6
Continuous
 62
     1
370
    15
100
AcDbSpline
210
0.0
220
0.0
230
1.0
 70
     8
 71
     3
 72
     8
 73
     4
 74
     0
 42
0.000000001
 43
0.00000001
 40
0.0
 40
0.0
 40
0.0
 40
0.0
 40
1.0
 40
1.0
 40
1.0
 40
1.0
 10
60.80000000000001
 20
1.020248281348421
 30
0.0
 10
60.80000000000001
 20
1.088501968713607
 30
0.0
 10
60.78745955898957
 20
1.163982832538632
 30
0.0
 10
60.7629807159028
 20
1.246343912010146
 30
0.0
  0
LINE
  5
C3
330
1F
100
AcDbEntity
  8
0
  6
Continuous
 62
     1
370
    15
100
AcDbLine
 10
60.8
 20
-2.405707636236768
 30
0.0
 11
60.8
 21
1.020248281348431
 31
0.0
  0
SPLINE
  5
C4
330
1F
100
AcDbEntity
  8
0
  6
Continuous
 62
     1
370
    15
100
AcDbSpline
210
0.0
220
0.0
230
1.0
 70
     8
 71
     3
 72
     8
 73
     4
 74
     0
 42
0.000000001
 43
0.00000001
 40
0.0
 40
0.0
 40
0.0
 40
0.0
 40
1.0
 40
1.0
 40
1.0
 40
1.0
 10
60.8
 20
-2.405707636236765
 30
0.0
 10
60.8
 20
-2.532301580090128
 30
0.0
 10
60.77113814204245
 20
-2.674058244749826
 30
0.0
 10
60.71070854724229
 20
-2.831326972195917
 30
0.0
  0
LINE
  5
C5
330
1F
100
AcDbEntity
  8
0
  6
Continuous
 62
     4
370
    15
100
AcDbLine
 10
10.0
 20
6.032625042749105
 30
0.0
 11
10.0
 21
6.350000000000001
 31
0.0
  0
LINE
  5
C6
330
1F
100
AcDbEntity
  8
0
  6
Continuous
 62
     4
370
    15
100
AcDbLine
 10
10.0
 20
-4.733126815469589
 30
0.0
 11
10.00000000000001
 21
-1.212779733873
 31
0.0
  0
SPLINE
  5
C7
330
1F
100
AcDbEntity
  8
0
  6
Continuous
 62
     1
370
    15
100
AcDbSpline
210
0.0
220
0.0
230
1.0
 70
     8
 71
     3
 72
     8
 73
     4
 74
     0
 42
0.000000001
 43
0.00000001
 40
0.0
 40
0.0
 40
0.0
 40
0.0
 40
1.0
 40
1.0
 40
1.0
 40
1.0
 10
60.8
 20
3.16163687826417
 30
0.0
 10
60.8
 20
3.414824765970894
 30
0.0
 10
60.77113814204245
 20
3.663334577344448
 30
0.0
 10
60.71070854724229
 20
3.904583319875889
 30
0.0
  0
LINE
  5
C8
330
1F
100
AcDbEntity
  8
0
  6
Continuous
 62
     1
370
    15
100
AcDbLine
 10
60.8
 20
1.020248281348431
 30
0.0
 11
60.8
 21
3.161636878264172
 31
0.0
  0
LINE
  5
C9
330
1F
100
AcDbEntity
  8
0
  6
Continuous
 62
     1
370
    15
100
AcDbLine
 10
60.8
 20
3.161636878264172
 30
0.0
 11
60.8
 21
3.302000000000002
 31
0.0
  0
SPLINE
  5
CA
330
1F
100
AcDbEntity
  8
0
  6
Continuous
 62
     1
370
    15
100
AcDbSpline
210
0.0
220
0.0
230
1.0
 70
     8
 71
     3
 72
     8
 73
     4
 74
     0
 42
0.000000001
 43
0.00000001
 40
0.0
 40
0.0
 40
0.0
 40
0.0
 40
1.0
 40
1.0
 40
1.0
 40
1.0
 10
60.80000000000001
 20
-3.229815866459353
 30
0.0
 10
60.80000000000001
 20
-3.390703285754377
 30
0.0
 10
60.78745955898957
 20
-3.550632825460171
 30
0.0
 10
60.7629807159028
 20
-3.709650471264676
 30
0.0
  0
LINE
  5
CB
330
1F
100
AcDbEntity
  8
0
  6
Continuous
 62
     1
370
    15
100
AcDbLine
 10
60.8
 20
-2.405707636236768
 30
0.0
 11
60.8
 21
-3.229815866459351
 31
0.0
  0
LINE
  5
CC
330
1F
100
AcDbEntity
  8
중심선
100
AcDbLine
 10
-43.80000000000001
 20
-0.0000000000000002
 30
0.0
 11
63.8
 21
0.0000000000000003
 31
0.0
  0
CIRCLE
  5
CD
330
1F
100
AcDbEntity
  8
외형선
100
AcDbCircle
 10
0.0
 20
0.0
 30
0.0
 40
3.000000000000008
  0
INSERT
  5
CE
330
1F
100
AcDbEntity
  8
0
  6
Continuous
 62
     7
100
AcDbBlockReference
 66
     1
  2
블럭10
 10
-3.551421758830333
 20
-39.45027677801685
 30
0.0
  0
ATTRIB
  5
CF
330
CE
100
AcDbEntity
  8
FORMAT
 62
     2
100
AcDbText
 10
-12.73271704757161
 20
-37.37490986518466
 30
0.0
 40
4.233333333333333
  1
E5984901 [ 3 FLUTE ]
 41
0.75
  7
SLDTEXTSTYLE0
 11
-12.73271704757161
 21
-39.49157653185133
 31
0.0
100
AcDbAttribute
  2
AUTOATTR0
 70
     0
 74
     1
  0
SEQEND
  5
D0
330
CE
100
AcDbEntity
  8
0
  6
Continuous
 62
     7
  0
HATCH
  5
D1
330
1F
100
AcDbEntity
  8
중심선
100
AcDbHatch
 10
0.0
 20
0.0
 30
0.0
210
0.0
220
0.0
230
1.0
  2
SOLID
 70
     1
 71
     0
 91
        1
 92
        0
 93
        4
 72
     1
 10
2.163487545550504
 20
-23.20310247637292
 11
-1.282787698286779
 21
-23.20310247637292
 72
     1
 10
-1.282787698286779
 20
-23.20310247637292
 11
-3.411017557490801
 21
-25.73942805694552
 72
     1
 10
-3.411017557490801
 20
-25.73942805694552
 11
0.035290771459632
 21
-25.73938862764303
 72
     1
 10
0.035290771459632
 20
-25.73938862764303
 11
2.163487545550504
 21
-23.20310247637292
 97
        0
 75
     0
 76
     1
 98
        1
 10
16.79443012653755
 20
12.59582259490318
  0
HATCH
  5
D2
330
1F
100
AcDbEntity
  8
중심선
100
AcDbHatch
 10
0.0
 20
0.0
 30
0.0
210
0.0
220
0.0
230
1.0
  2
SOLID
 70
     1
 71
     0
 91
        1
 92
        0
 93
        4
 72
     1
 10
7.176251536586456
 20
-23.20310247637295
 11
3.729976292749202
 21
-23.2031024763729
 72
     1
 10
3.729976292749202
 20
-23.2031024763729
 11
-0.8011617156082167
 21
-28.60310247637294
 72
     1
 10
-0.8011617156082167
 20
-28.60310247637294
 11
2.645113528229068
 21
-28.60310247637294
 72
     1
 10
2.645113528229068
 20
-28.60310247637294
 11
7.176251536586456
 21
-23.20310247637295
 97
        0
 75
     0
 76
     1
 98
        1
 10
16.79443012653755
 20
12.59582259490318
  0
HATCH
  5
D3
330
1F
100
AcDbEntity
  8
중심선
100
AcDbHatch
 10
0.0
 20
0.0
 30
0.0
210
0.0
220
0.0
230
1.0
  2
SOLID
 70
     1
 71
     0
 91
        1
 92
        0
 93
        4
 72
     1
 10
12.18901552762238
 20
-23.20310247637295
 11
8.742740283785263
 21
-23.20310247637292
 72
     1
 10
8.742740283785263
 20
-23.20310247637292
 11
1.694303381895987
 21
-31.60310247637294
 72
     1
 10
1.694303381895987
 20
-31.60310247637294
 11
5.140578625733269
 21
-31.60310247637294
 72
     1
 10
5.140578625733269
 20
-31.60310247637294
 11
12.18901552762238
 21
-23.20310247637295
 97
        0
 75
     0
 76
     1
 98
        1
 10
16.79443012653755
 20
12.59582259490318
  0
HATCH
  5
D4
330
1F
100
AcDbEntity
  8
중심선
100
AcDbHatch
 10
0.0
 20
0.0
 30
0.0
210
0.0
220
0.0
230
1.0
  2
SOLID
 70
     1
 71
     0
 91
        1
 92
        0
 93
        6
 72
     3
 10
16.98890595863455
 20
-27.40310247642419
 11
3.960054785062283
 21
1.540882976769353E-10
 40
0.3939339440162628
 50
17.09539180608437
 51
320.0019657685083
 73
     0
 72
     1
 10
18.67190561433512
 20
-25.99099648101125
 11
20.97720748803621
 21
-24.0566697709633
 72
     3
 10
16.9889059585817
 20
-27.40310247637307
 11
6.600054785286829
 21
-1.278976924368180E-13
 40
0.636358354079598
 50
39.99873849337386
 51
368.4976242363725
 73
     1
 72
     1
 10
23.41423845048232
 20
-26.44310247630295
 11
15.66897326541763
 21
-26.44310247630295
 72
     1
 10
15.66897326541763
 20
-26.44310247630295
 11
15.66894822097169
 21
-28.36310247630283
 72
     1
 10
15.66894822097169
 20
-28.36310247630283
 11
20.11032799044373
 21
-28.36310247630281
 97
        0
 75
     0
 76
     1
 98
        1
 10
16.79443012653755
 20
12.59582259490318
  0
POINT
  5
D5
330
1F
100
AcDbEntity
  8
치수문자_일반주서
100
AcDbPoint
 10
-40.80000000000001
 20
-0.1156937548689074
 30
0.0
  0
DIMENSION
  5
D6
330
1F
100
AcDbEntity
  8
치수문자_일반주서
100
AcDbDimension
  2
_D
 10
10.0
 20
34.89866838988439
 30
0.0
 11
35.4
 21
34.89866838988439
 31
0.0
 70
   160
  1
<>
 71
     2
 42
50.79999999999999
  3
SLDDIMSTYLE0
100
AcDbAlignedDimension
 13
60.79999999999999
 23
6.350000000000001
 33
0.0
 14
10.0
 24
6.350000000000001
 34
0.0
 50
0.0000000000000099
100
AcDbRotatedDimension
1001
ACAD
1000
DSTYLE
1002
{
1070
   171
1070
     6
1070
   273
1070
     5
1002
}
  0
DIMENSION
  5
EA
102
{ACAD_REACTORS
102
}
330
1F
100
AcDbEntity
  8
치수문자_일반주서
100
AcDbDimension
  2
_D_1
 10
-40.79999999999999
 20
61.8475977822756
 30
0.0
 11
15.74141452505228
 21
61.8475977822756
 31
0.0
 70
   160
  1
<>
 71
     2
 42
101.6
  3
SLDDIMSTYLE1
100
AcDbAlignedDimension
 13
60.79999999999999
 23
6.350000000000001
 33
0.0
 14
-40.8
 24
5.849999999999999
 34
0.0
 50
0.0000000000000053
100
AcDbRotatedDimension
1001
ACAD
1000
DSTYLE
1002
{
1070
   171
1070
     6
1070
   273
1070
     5
1002
}
  0
INSERT
  5
115
330
1F
100
AcDbEntity
  8
외형선
100
AcDbBlockReference
  2
SW_DOWELSYMBOL_0
 10
0.0
 20
0.0
 30
0.0
  0
DIMENSION
  5
13B
102
{ACAD_REACTORS
102
}
102
{ACAD_XDICTIONARY
360
13C
102
}
330
1F
100
AcDbEntity
  8
치수문자_일반주서
100
AcDbDimension
  2
*D7
 10
-50.1383406008924
 20
6.350000000000002
 30
0.0
 11
-52.7633406008924
 21
21.902
 31
0.0
 70
    32
  1
{Ø<>[]}
 71
     5
 42
12.7
  3
SLDDIMSTYLE0
100
AcDbAlignedDimension
 13
-40.3
 23
-6.349999999999999
 33
0.0
 14
-40.3
 24
6.350000000000001
 34
0.0
 50
90.0
100
AcDbRotatedDimension
1001
ACAD
1000
DSTYLE
1002
{
1070
   283
1070
     1
1070
   170
1070
     1
1070
   171
1070
     6
1070
   273
1070
     5
1002
}
  0
ARC
  5
150
102
{ACAD_REACTORS
102
}
330
1F
100
AcDbEntity
  8
0
  6
Continuous
 62
     1
370
    15
100
AcDbCircle
 10
57.75200000000001
 20
-3.301999999999997
 30
0.0
 40
3.048000000000001
100
AcDbArc
 50
270.0
 51
0.6757510796080355
  0
ARC
  5
151
330
1F
100
AcDbEntity
  8
0
  6
Continuous
 62
     1
370
    15
100
AcDbCircle
 10
57.75200000000001
 20
3.301999999999997
 30
0.0
 40
3.048000000000001
100
AcDbArc
 50
359.3242489203919
 51
90.0
  0
DIMENSION
  5
152
102
{ACAD_XDICTIONARY
360
153
102
}
330
1F
100
AcDbEntity
  8
치수문자_일반주서
100
AcDbDimension
  2
*D8
 10
68.15830120466114
 20
6.350000000000001
 30
0.0
 11
65.53330120466114
 21
21.902
 31
0.0
 70
    32
  1
{Ø<>[]}
 71
     5
 42
12.7
  3
SLDDIMSTYLE0
100
AcDbAlignedDimension
 13
60.80000000000001
 23
-6.349999999999999
 33
0.0
 14
60.79999999999999
 24
6.350000000000001
 34
0.0
 50
90.0
100
AcDbRotatedDimension
1001
ACAD
1000
DSTYLE
1002
{
1070
   283
1070
     1
1070
   170
1070
     1
1070
   171
1070
     6
1070
   273
1070
     5
1002
}
  0
DIMENSION
  5
164
102
{ACAD_REACTORS
102
}
102
{ACAD_XDICTIONARY
360
165
102
}
330
1F
100
AcDbEntity
  8
치수문자_일반주서
100
AcDbDimension
  2
*D9
 10
57.75200000000001
 20
-3.301999999999997
 30
0.0
 11
73.82148052492914
 21
-20.65679471670361
 31
0.0
 70
   164
  1
<>
 71
     5
 42
3.047999999999998
  3
SLDDIMSTYLE0
100
AcDbRadialDimension
 15
59.82285137155353
 25
-5.538488005095235
 35
0.0
 40
0.0
1001
ACAD_DSTYLE_DIMRADIAL_EXTENSION
1070
   387
1070
     1
1070
   388
1040
4.71238898038469
1070
   390
1040
0.0117940812630665
  0
ENDSEC
  0
SECTION
  2
OBJECTS
  0
DICTIONARY
  5
C
330
0
100
AcDbDictionary
281
     1
  3
ACAD_GROUP
350
D
  3
ACAD_IMAGE_VARS
350
139
  3
ACAD_LAYOUT
350
1A
  3
ACAD_MLINESTYLE
350
17
  3
ACAD_PLOTSETTINGS
350
19
  3
ACAD_PLOTSTYLENAME
350
E
  3
ACAD_SCALELIST
350
47
  3
APPDATA
350
137
  3
DWGPROPS
350
174
  0
DICTIONARY
  5
13C
330
13B
100
AcDbDictionary
280
     1
281
     1
  0
DICTIONARY
  5
153
330
152
100
AcDbDictionary
280
     1
281
     1
  0
DICTIONARY
  5
165
330
164
100
AcDbDictionary
280
     1
281
     1
  0
DICTIONARY
  5
D
102
{ACAD_REACTORS
330
C
102
}
330
C
100
AcDbDictionary
281
     1
  0
RASTERVARIABLES
  5
139
102
{ACAD_REACTORS
330
C
102
}
330
C
100
AcDbRasterVariables
 90
        0
 70
     1
 71
     1
 72
     1
  0
DICTIONARY
  5
1A
102
{ACAD_REACTORS
330
C
102
}
330
C
100
AcDbDictionary
281
     1
  3
Layout1
350
1E
  3
Layout2
350
26
  3
Model
350
22
  0
DICTIONARY
  5
17
102
{ACAD_REACTORS
330
C
102
}
330
C
100
AcDbDictionary
281
     1
  3
Standard
350
18
  0
DICTIONARY
  5
19
102
{ACAD_REACTORS
330
C
102
}
330
C
100
AcDbDictionary
281
     1
  0
ACDBDICTIONARYWDFLT
  5
E
102
{ACAD_REACTORS
330
C
102
}
330
C
100
AcDbDictionary
281
     1
  3
Normal
350
F
100
AcDbDictionaryWithDefault
340
F
  0
DICTIONARY
  5
47
102
{ACAD_REACTORS
330
C
102
}
330
C
100
AcDbDictionary
281
     1
  3
A0
350
48
  3
A1
350
49
  3
A2
350
4A
  3
A3
350
4B
  3
A4
350
4C
  3
A5
350
4D
  3
A6
350
4E
  3
A7
350
4F
  3
A8
350
50
  3
A9
350
51
  3
B0
350
52
  3
B1
350
53
  3
B2
350
54
  3
B3
350
55
  3
B4
350
56
  3
B5
350
57
  3
B6
350
58
  3
B7
350
59
  3
B8
350
5A
  3
B9
350
5B
  3
C0
350
5C
  3
C1
350
5D
  3
C2
350
5E
  3
C3
350
5F
  3
C4
350
60
  3
C5
350
61
  3
C6
350
62
  3
C7
350
63
  3
C8
350
64
  3
C9
350
65
  3
D0
350
66
  3
D1
350
67
  3
D2
350
68
  0
DICTIONARY
  5
137
102
{ACAD_REACTORS
330
C
102
}
330
C
100
AcDbDictionary
281
     1
  0
XRECORD
  5
174
102
{ACAD_REACTORS
330
C
102
}
330
C
100
AcDbXrecord
280
     1
  1
DWGPROPS COOKIE
  2

  3

  4

  6

  7

  8
12014074
  9

300
=
301
=
302
=
303
=
304
=
305
=
306
=
307
=
308
=
309
=
 40
0.0
 41
2458269.058652997
 42
2458269.971358368
  1

 90
        0
  0
LAYOUT
  5
1E
102
{ACAD_REACTORS
330
1A
102
}
330
1A
100
AcDbPlotSettings
  1

  2
none_device
  4

  6

 40
0.0
 41
0.0
 42
0.0
 43
0.0
 44
0.0
 45
0.0
 46
0.0
 47
0.0
 48
0.0
 49
0.0
140
0.0
141
0.0
142
1.0
143
1.0
 70
   688
 72
     1
 73
     0
 74
     5
  7

 75
    16
147
1.0
148
0.0
149
0.0
100
AcDbLayout
  1
Layout1
 70
     1
 71
     1
 10
0.0
 20
0.0
 11
420.0
 21
297.0
 12
0.0
 22
0.0
 32
0.0
 14
1.000000000000000E+20
 24
1.000000000000000E+20
 34
1.000000000000000E+20
 15
-1.000000000000000E+20
 25
-1.000000000000000E+20
 35
-1.000000000000000E+20
146
0.0
 13
0.0
 23
0.0
 33
0.0
 16
1.0
 26
0.0
 36
0.0
 17
0.0
 27
1.0
 37
0.0
 76
     0
330
1B
  0
LAYOUT
  5
26
102
{ACAD_REACTORS
330
1A
102
}
330
1A
100
AcDbPlotSettings
  1

  2
none_device
  4

  6

 40
0.0
 41
0.0
 42
0.0
 43
0.0
 44
0.0
 45
0.0
 46
0.0
 47
0.0
 48
0.0
 49
0.0
140
0.0
141
0.0
142
1.0
143
1.0
 70
   688
 72
     1
 73
     0
 74
     5
  7

 75
    16
147
1.0
148
0.0
149
0.0
100
AcDbLayout
  1
Layout2
 70
     1
 71
     2
 10
0.0
 20
0.0
 11
0.0
 21
0.0
 12
0.0
 22
0.0
 32
0.0
 14
0.0
 24
0.0
 34
0.0
 15
0.0
 25
0.0
 35
0.0
146
0.0
 13
0.0
 23
0.0
 33
0.0
 16
1.0
 26
0.0
 36
0.0
 17
0.0
 27
1.0
 37
0.0
 76
     0
330
23
  0
LAYOUT
  5
22
102
{ACAD_REACTORS
330
1A
102
}
330
1A
100
AcDbPlotSettings
  1

  2
none_device
  4
ANSI_A_(11.00_x_8.50_Inches)
  6

 40
6.35
 41
19.05
 42
6.35000508
 43
19.05000254
 44
279.4
 45
215.9
 46
106.5341382662198
 47
69.8902739776995
 48
0.0
 49
0.0
140
0.0
141
0.0
142
0.0682067677139843
143
1.0
 70
  1696
 72
     0
 73
     0
 74
     0
  7

 75
     0
147
0.0235690232323232
148
0.0
149
0.0
100
AcDbLayout
  1
Model
 70
     1
 71
     0
 10
0.0
 20
0.0
 11
420.0
 21
297.0
 12
0.0
 22
0.0
 32
0.0
 14
-54.5133406008924
 24
-37.37490986518466
 34
0.0
 15
85.94896060167838
 25
66.2225977822756
 35
0.0
146
0.0
 13
0.0
 23
0.0
 33
0.0
 16
1.0
 26
0.0
 36
0.0
 17
0.0
 27
1.0
 37
0.0
 76
     0
330
1F
331
29
  0
MLINESTYLE
  5
18
102
{ACAD_REACTORS
330
17
102
}
330
17
100
AcDbMlineStyle
  2
Standard
 70
     0
  3

 62
   256
 51
90.0
 52
90.0
 71
     2
 49
0.5
 62
   256
  6
BYLAYER
 49
-0.5
 62
   256
  6
BYLAYER
  0
ACDBPLACEHOLDER
  5
F
102
{ACAD_REACTORS
330
E
102
}
330
E
  0
SCALE
  5
48
102
{ACAD_REACTORS
330
47
102
}
330
47
100
AcDbScale
 70
     0
300
1:1
140
1.0
141
1.0
290
     1
  0
SCALE
  5
49
102
{ACAD_REACTORS
330
47
102
}
330
47
100
AcDbScale
 70
     0
300
1:2
140
1.0
141
2.0
290
     0
  0
SCALE
  5
4A
102
{ACAD_REACTORS
330
47
102
}
330
47
100
AcDbScale
 70
     0
300
1:4
140
1.0
141
4.0
290
     0
  0
SCALE
  5
4B
102
{ACAD_REACTORS
330
47
102
}
330
47
100
AcDbScale
 70
     0
300
1:5
140
1.0
141
5.0
290
     0
  0
SCALE
  5
4C
102
{ACAD_REACTORS
330
47
102
}
330
47
100
AcDbScale
 70
     0
300
1:8
140
1.0
141
8.0
290
     0
  0
SCALE
  5
4D
102
{ACAD_REACTORS
330
47
102
}
330
47
100
AcDbScale
 70
     0
300
1:10
140
1.0
141
10.0
290
     0
  0
SCALE
  5
4E
102
{ACAD_REACTORS
330
47
102
}
330
47
100
AcDbScale
 70
     0
300
1:16
140
1.0
141
16.0
290
     0
  0
SCALE
  5
4F
102
{ACAD_REACTORS
330
47
102
}
330
47
100
AcDbScale
 70
     0
300
1:20
140
1.0
141
20.0
290
     0
  0
SCALE
  5
50
102
{ACAD_REACTORS
330
47
102
}
330
47
100
AcDbScale
 70
     0
300
1:30
140
1.0
141
30.0
290
     0
  0
SCALE
  5
51
102
{ACAD_REACTORS
330
47
102
}
330
47
100
AcDbScale
 70
     0
300
1:40
140
1.0
141
40.0
290
     0
  0
SCALE
  5
52
102
{ACAD_REACTORS
330
47
102
}
330
47
100
AcDbScale
 70
     0
300
1:50
140
1.0
141
50.0
290
     0
  0
SCALE
  5
53
102
{ACAD_REACTORS
330
47
102
}
330
47
100
AcDbScale
 70
     0
300
1:100
140
1.0
141
100.0
290
     0
  0
SCALE
  5
54
102
{ACAD_REACTORS
330
47
102
}
330
47
100
AcDbScale
 70
     0
300
2:1
140
2.0
141
1.0
290
     0
  0
SCALE
  5
55
102
{ACAD_REACTORS
330
47
102
}
330
47
100
AcDbScale
 70
     0
300
4:1
140
4.0
141
1.0
290
     0
  0
SCALE
  5
56
102
{ACAD_REACTORS
330
47
102
}
330
47
100
AcDbScale
 70
     0
300
8:1
140
8.0
141
1.0
290
     0
  0
SCALE
  5
57
102
{ACAD_REACTORS
330
47
102
}
330
47
100
AcDbScale
 70
     0
300
10:1
140
10.0
141
1.0
290
     0
  0
SCALE
  5
58
102
{ACAD_REACTORS
330
47
102
}
330
47
100
AcDbScale
 70
     0
300
100:1
140
100.0
141
1.0
290
     0
  0
SCALE
  5
59
102
{ACAD_REACTORS
330
47
102
}
330
47
100
AcDbScale
 70
     0
300
1/128" = 1'-0"
140
0.0078125
141
12.0
290
     0
  0
SCALE
  5
5A
102
{ACAD_REACTORS
330
47
102
}
330
47
100
AcDbScale
 70
     0
300
1/64" = 1'-0"
140
0.015625
141
12.0
290
     0
  0
SCALE
  5
5B
102
{ACAD_REACTORS
330
47
102
}
330
47
100
AcDbScale
 70
     0
300
1/32" = 1'-0"
140
0.03125
141
12.0
290
     0
  0
SCALE
  5
5C
102
{ACAD_REACTORS
330
47
102
}
330
47
100
AcDbScale
 70
     0
300
1/16" = 1'-0"
140
0.0625
141
12.0
290
     0
  0
SCALE
  5
5D
102
{ACAD_REACTORS
330
47
102
}
330
47
100
AcDbScale
 70
     0
300
3/32" = 1'-0"
140
0.09375
141
12.0
290
     0
  0
SCALE
  5
5E
102
{ACAD_REACTORS
330
47
102
}
330
47
100
AcDbScale
 70
     0
300
1/8" = 1'-0"
140
0.125
141
12.0
290
     0
  0
SCALE
  5
5F
102
{ACAD_REACTORS
330
47
102
}
330
47
100
AcDbScale
 70
     0
300
3/16" = 1'-0"
140
0.1875
141
12.0
290
     0
  0
SCALE
  5
60
102
{ACAD_REACTORS
330
47
102
}
330
47
100
AcDbScale
 70
     0
300
1/4" = 1'-0"
140
0.25
141
12.0
290
     0
  0
SCALE
  5
61
102
{ACAD_REACTORS
330
47
102
}
330
47
100
AcDbScale
 70
     0
300
3/8" = 1'-0"
140
0.375
141
12.0
290
     0
  0
SCALE
  5
62
102
{ACAD_REACTORS
330
47
102
}
330
47
100
AcDbScale
 70
     0
300
1/2" = 1'-0"
140
0.5
141
12.0
290
     0
  0
SCALE
  5
63
102
{ACAD_REACTORS
330
47
102
}
330
47
100
AcDbScale
 70
     0
300
3/4" = 1'-0"
140
0.75
141
12.0
290
     0
  0
SCALE
  5
64
102
{ACAD_REACTORS
330
47
102
}
330
47
100
AcDbScale
 70
     0
300
1" = 1'-0"
140
1.0
141
12.0
290
     0
  0
SCALE
  5
65
102
{ACAD_REACTORS
330
47
102
}
330
47
100
AcDbScale
 70
     0
300
1-1/2" = 1'-0"
140
1.5
141
12.0
290
     0
  0
SCALE
  5
66
102
{ACAD_REACTORS
330
47
102
}
330
47
100
AcDbScale
 70
     0
300
3" = 1'-0"
140
3.0
141
12.0
290
     0
  0
SCALE
  5
67
102
{ACAD_REACTORS
330
47
102
}
330
47
100
AcDbScale
 70
     0
300
6" = 1'-0"
140
6.0
141
12.0
290
     0
  0
SCALE
  5
68
102
{ACAD_REACTORS
330
47
102
}
330
47
100
AcDbScale
 70
     0
300
1'-0" = 1'-0"
140
12.0
141
12.0
290
     0
  0
ENDSEC
  0
EOF
