  0
SECTION
  2
HEADER
  9
$ACADVER
  1
AC1015
  9
$ACADMAINTVER
 70
     6
  9
$DWGCODEPAGE
  3
ANSI_949
  9
$INSBASE
 10
0.0
 20
0.0
 30
0.0
  9
$EXTMIN
 10
-73.64007504785306
 20
-39.53620556215245
 30
0.0
  9
$EXTMAX
 10
114.0463503329684
 20
63.0475977822756
 30
0.0
  9
$LIMMIN
 10
0.0
 20
0.0
  9
$LIMMAX
 10
420.0
 20
297.0
  9
$ORTHOMODE
 70
     0
  9
$REGENMODE
 70
     1
  9
$FILLMODE
 70
     1
  9
$QTEXTMODE
 70
     0
  9
$MIRRTEXT
 70
     1
  9
$LTSCALE
 40
1.0
  9
$ATTMODE
 70
     1
  9
$TEXTSIZE
 40
3.5
  9
$TRACEWID
 40
1.0
  9
$TEXTSTYLE
  7
Standard
  9
$CLAYER
  8
0
  9
$CELTYPE
  6
ByLayer
  9
$CECOLOR
 62
   256
  9
$CELTSCALE
 40
1.0
  9
$DISPSILH
 70
     0
  9
$DIMSCALE
 40
1.0
  9
$DIMASZ
 40
3.302
  9
$DIMEXO
 40
1.0
  9
$DIMDLI
 40
3.75
  9
$DIMRND
 40
0.0
  9
$DIMDLE
 40
0.0
  9
$DIMEXE
 40
1.0
  9
$DIMTP
 40
0.0
  9
$DIMTM
 40
0.0
  9
$DIMTXT
 40
3.5
  9
$DIMCEN
 40
2.5
  9
$DIMTSZ
 40
0.0
  9
$DIMTOL
 70
     0
  9
$DIMLIM
 70
     0
  9
$DIMTIH
 70
     1
  9
$DIMTOH
 70
     1
  9
$DIMSE1
 70
     0
  9
$DIMSE2
 70
     0
  9
$DIMTAD
 70
     1
  9
$DIMZIN
 70
     0
  9
$DIMBLK
  1

  9
$DIMASO
 70
     1
  9
$DIMSHO
 70
     1
  9
$DIMPOST
  1

  9
$DIMAPOST
  1

  9
$DIMALT
 70
     0
  9
$DIMALTD
 70
     3
  9
$DIMALTF
 40
0.0393700787401575
  9
$DIMLFAC
 40
1.0
  9
$DIMTOFL
 70
     1
  9
$DIMTVP
 40
0.0
  9
$DIMTIX
 70
     0
  9
$DIMSOXD
 70
     0
  9
$DIMSAH
 70
     0
  9
$DIMBLK1
  1

  9
$DIMBLK2
  1

  9
$DIMSTYLE
  2
ISO-25
  9
$DIMCLRD
 70
     0
  9
$DIMCLRE
 70
     0
  9
$DIMCLRT
 70
     0
  9
$DIMTFAC
 40
1.0
  9
$DIMGAP
 40
1.524
  9
$DIMJUST
 70
     0
  9
$DIMSD1
 70
     0
  9
$DIMSD2
 70
     0
  9
$DIMTOLJ
 70
     0
  9
$DIMTZIN
 70
     0
  9
$DIMALTZ
 70
     0
  9
$DIMALTTZ
 70
     0
  9
$DIMUPT
 70
     0
  9
$DIMDEC
 70
     2
  9
$DIMTDEC
 70
     2
  9
$DIMALTU
 70
     2
  9
$DIMALTTD
 70
     3
  9
$DIMTXSTY
  7
Standard
  9
$DIMAUNIT
 70
     0
  9
$DIMADEC
 70
     2
  9
$DIMALTRND
 40
0.0
  9
$DIMAZIN
 70
     0
  9
$DIMDSEP
 70
    44
  9
$DIMATFIT
 70
     3
  9
$DIMFRAC
 70
     0
  9
$DIMLDRBLK
  1

  9
$DIMLUNIT
 70
     2
  9
$DIMLWD
 70
    -2
  9
$DIMLWE
 70
    -2
  9
$DIMTMOVE
 70
     0
  9
$LUNITS
 70
     2
  9
$LUPREC
 70
     2
  9
$SKETCHINC
 40
1.0
  9
$FILLETRAD
 40
10.0
  9
$AUNITS
 70
     0
  9
$AUPREC
 70
     2
  9
$MENU
  1
.
  9
$ELEVATION
 40
0.0
  9
$PELEVATION
 40
0.0
  9
$THICKNESS
 40
0.0
  9
$LIMCHECK
 70
     0
  9
$CHAMFERA
 40
0.0
  9
$CHAMFERB
 40
0.0
  9
$CHAMFERC
 40
0.0
  9
$CHAMFERD
 40
0.0
  9
$SKPOLY
 70
     0
  9
$TDCREATE
 40
2458269.433386829
  9
$TDUCREATE
 40
2458269.058386829
  9
$TDUPDATE
 40
2458270.340308866
  9
$TDUUPDATE
 40
2458269.965308866
  9
$TDINDWG
 40
0.0028558333
  9
$TDUSRTIMER
 40
2458269.962453194
  9
$USRTIMER
 70
     1
  9
$ANGBASE
 50
0.0
  9
$ANGDIR
 70
     0
  9
$PDMODE
 70
     0
  9
$PDSIZE
 40
-1.0
  9
$PLINEWID
 40
0.0
  9
$SPLFRAME
 70
     0
  9
$SPLINETYPE
 70
     6
  9
$SPLINESEGS
 70
     8
  9
$HANDSEED
  5
173
  9
$SURFTAB1
 70
     6
  9
$SURFTAB2
 70
     6
  9
$SURFTYPE
 70
     6
  9
$SURFU
 70
     6
  9
$SURFV
 70
     6
  9
$UCSBASE
  2

  9
$UCSNAME
  2

  9
$UCSORG
 10
0.0
 20
0.0
 30
0.0
  9
$UCSXDIR
 10
1.0
 20
0.0
 30
0.0
  9
$UCSYDIR
 10
0.0
 20
1.0
 30
0.0
  9
$UCSORTHOREF
  2

  9
$UCSORTHOVIEW
 70
     0
  9
$UCSORGTOP
 10
0.0
 20
0.0
 30
0.0
  9
$UCSORGBOTTOM
 10
0.0
 20
0.0
 30
0.0
  9
$UCSORGLEFT
 10
0.0
 20
0.0
 30
0.0
  9
$UCSORGRIGHT
 10
0.0
 20
0.0
 30
0.0
  9
$UCSORGFRONT
 10
0.0
 20
0.0
 30
0.0
  9
$UCSORGBACK
 10
0.0
 20
0.0
 30
0.0
  9
$PUCSBASE
  2

  9
$PUCSNAME
  2

  9
$PUCSORG
 10
0.0
 20
0.0
 30
0.0
  9
$PUCSXDIR
 10
1.0
 20
0.0
 30
0.0
  9
$PUCSYDIR
 10
0.0
 20
1.0
 30
0.0
  9
$PUCSORTHOREF
  2

  9
$PUCSORTHOVIEW
 70
     0
  9
$PUCSORGTOP
 10
0.0
 20
0.0
 30
0.0
  9
$PUCSORGBOTTOM
 10
0.0
 20
0.0
 30
0.0
  9
$PUCSORGLEFT
 10
0.0
 20
0.0
 30
0.0
  9
$PUCSORGRIGHT
 10
0.0
 20
0.0
 30
0.0
  9
$PUCSORGFRONT
 10
0.0
 20
0.0
 30
0.0
  9
$PUCSORGBACK
 10
0.0
 20
0.0
 30
0.0
  9
$USERI1
 70
     0
  9
$USERI2
 70
     0
  9
$USERI3
 70
     0
  9
$USERI4
 70
     0
  9
$USERI5
 70
     0
  9
$USERR1
 40
0.0
  9
$USERR2
 40
0.0
  9
$USERR3
 40
0.0
  9
$USERR4
 40
0.0
  9
$USERR5
 40
0.0
  9
$WORLDVIEW
 70
     1
  9
$SHADEDGE
 70
     3
  9
$SHADEDIF
 70
    70
  9
$TILEMODE
 70
     1
  9
$MAXACTVP
 70
    64
  9
$PINSBASE
 10
0.0
 20
0.0
 30
0.0
  9
$PLIMCHECK
 70
     0
  9
$PEXTMIN
 10
1.000000000000000E+20
 20
1.000000000000000E+20
 30
1.000000000000000E+20
  9
$PEXTMAX
 10
-1.000000000000000E+20
 20
-1.000000000000000E+20
 30
-1.000000000000000E+20
  9
$PLIMMIN
 10
0.0
 20
0.0
  9
$PLIMMAX
 10
0.0
 20
0.0
  9
$UNITMODE
 70
     0
  9
$VISRETAIN
 70
     1
  9
$PLINEGEN
 70
     0
  9
$PSLTSCALE
 70
     1
  9
$TREEDEPTH
 70
  3020
  9
$CMLSTYLE
  2
Standard
  9
$CMLJUST
 70
     0
  9
$CMLSCALE
 40
20.0
  9
$PROXYGRAPHICS
 70
     1
  9
$MEASUREMENT
 70
     1
  9
$CELWEIGHT
370
    -1
  9
$ENDCAPS
280
     0
  9
$JOINSTYLE
280
     0
  9
$LWDISPLAY
290
     1
  9
$INSUNITS
 70
     4
  9
$HYPERLINKBASE
  1

  9
$STYLESHEET
  1

  9
$XEDIT
290
     1
  9
$CEPSNTYPE
380
     0
  9
$PSTYLEMODE
290
     1
  9
$FINGERPRINTGUID
  2
{723789E3-C263-448A-A0B5-C2032E851689}
  9
$VERSIONGUID
  2
{FAEB1C32-E019-11D5-929B-00C0DF256EC4}
  9
$EXTNAMES
290
     1
  9
$PSVPSCALE
 40
0.0
  9
$OLESTARTUP
290
     0
  0
ENDSEC
  0
SECTION
  2
CLASSES
  0
CLASS
  1
ACDBDICTIONARYWDFLT
  2
AcDbDictionaryWithDefault
  3
ObjectDBX Classes
 90
        0
280
     0
281
     0
  0
CLASS
  1
VISUALSTYLE
  2
AcDbVisualStyle
  3
ObjectDBX Classes
 90
     4095
280
     0
281
     0
  0
CLASS
  1
MATERIAL
  2
AcDbMaterial
  3
ObjectDBX Classes
 90
     1153
280
     0
281
     0
  0
CLASS
  1
SCALE
  2
AcDbScale
  3
ObjectDBX Classes
 90
     1153
280
     0
281
     0
  0
CLASS
  1
SUN
  2
AcDbSun
  3
SCENEOE
 90
     1153
280
     0
281
     0
  0
CLASS
  1
ACDBPLACEHOLDER
  2
AcDbPlaceHolder
  3
ObjectDBX Classes
 90
        0
280
     0
281
     0
  0
CLASS
  1
LAYOUT
  2
AcDbLayout
  3
ObjectDBX Classes
 90
        0
280
     0
281
     0
  0
CLASS
  1
TABLESTYLE
  2
AcDbTableStyle
  3
ObjectDBX Classes
 90
     4095
280
     0
281
     0
  0
CLASS
  1
MLEADERSTYLE
  2
AcDbMLeaderStyle
  3
ACDB_MLEADERSTYLE_CLASS
 90
     4095
280
     0
281
     0
  0
CLASS
  1
RASTERVARIABLES
  2
AcDbRasterVariables
  3
ISM
 90
        0
280
     0
281
     0
  0
CLASS
  1
DIMASSOC
  2
AcDbDimAssoc
  3
"AcDbDimAssoc|Product Desc:     AcDim ARX App For Dimension|Company:          Autodesk, Inc.|WEB Address:      www.autodesk.com"
 90
        0
280
     0
281
     0
  0
ENDSEC
  0
SECTION
  2
TABLES
  0
TABLE
  2
VPORT
  5
8
330
0
100
AcDbSymbolTable
 70
     1
  0
VPORT
  5
29
330
8
100
AcDbSymbolTableRecord
100
AcDbViewportTableRecord
  2
*Active
 70
     0
 10
0.0
 20
0.0
 11
1.0
 21
1.0
 12
40.88349569962021
 22
8.673485882862622
 13
0.0
 23
0.0
 14
10.0
 24
10.0
 15
10.0
 25
10.0
 16
0.0
 26
0.0
 36
1.0
 17
0.0
 27
0.0
 37
0.0
 40
155.0050073748556
 41
1.970186335403727
 42
50.0
 43
0.0
 44
0.0
 50
0.0
 51
0.0
 71
    16
 72
  2000
 73
     1
 74
     3
 75
     0
 76
     0
 77
     0
 78
     0
281
     0
 65
     1
110
0.0
120
0.0
130
0.0
111
1.0
121
0.0
131
0.0
112
0.0
122
1.0
132
0.0
 79
     0
146
0.0
  0
ENDTAB
  0
TABLE
  2
LTYPE
  5
5
330
0
100
AcDbSymbolTable
 70
     6
  0
LTYPE
  5
14
330
5
100
AcDbSymbolTableRecord
100
AcDbLinetypeTableRecord
  2
ByBlock
 70
     0
  3

 72
    65
 73
     0
 40
0.0
  0
LTYPE
  5
15
330
5
100
AcDbSymbolTableRecord
100
AcDbLinetypeTableRecord
  2
ByLayer
 70
     0
  3

 72
    65
 73
     0
 40
0.0
  0
LTYPE
  5
16
330
5
100
AcDbSymbolTableRecord
100
AcDbLinetypeTableRecord
  2
Continuous
 70
     0
  3
Solid line
 72
    65
 73
     0
 40
0.0
  0
LTYPE
  5
6A
330
5
100
AcDbSymbolTableRecord
100
AcDbLinetypeTableRecord
  2
HIDDEN
 70
     0
  3
Hidden __ __ __ __ __ __ __ __ __ __ __ __ __ __
 72
    65
 73
     2
 40
1.905
 49
1.27
 74
     0
 49
-0.635
 74
     0
  0
LTYPE
  5
6B
330
5
100
AcDbSymbolTableRecord
100
AcDbLinetypeTableRecord
  2
PHANTOM
 70
     0
  3
Phantom ______  __  __  ______  __  __  ______
 72
    65
 73
     6
 40
12.7
 49
6.35
 74
     0
 49
-1.27
 74
     0
 49
1.27
 74
     0
 49
-1.27
 74
     0
 49
1.27
 74
     0
 49
-1.27
 74
     0
  0
LTYPE
  5
6C
330
5
100
AcDbSymbolTableRecord
100
AcDbLinetypeTableRecord
  2
CENTER
 70
     0
  3
Center ____ _ ____ _ ____ _ ____ _ ____ _ ____
 72
    65
 73
     4
 40
10.16
 49
6.35
 74
     0
 49
-1.27
 74
     0
 49
1.27
 74
     0
 49
-1.27
 74
     0
  0
LTYPE
  5
6D
330
5
100
AcDbSymbolTableRecord
100
AcDbLinetypeTableRecord
  2
CENTERX2
 70
     0
  3
Center (2x) ________  __  ________  __  _____
 72
    65
 73
     4
 40
20.32
 49
12.7
 74
     0
 49
-2.54
 74
     0
 49
2.54
 74
     0
 49
-2.54
 74
     0
  0
LTYPE
  5
6E
330
5
100
AcDbSymbolTableRecord
100
AcDbLinetypeTableRecord
  2
DOT2
 70
     0
  3
Dot (.5x) ........................................
 72
    65
 73
     2
 40
0.635
 49
0.0
 74
     0
 49
-0.635
 74
     0
  0
ENDTAB
  0
TABLE
  2
LAYER
  5
2
330
0
100
AcDbSymbolTable
 70
    17
  0
LAYER
  5
10
330
2
100
AcDbSymbolTableRecord
100
AcDbLayerTableRecord
  2
0
 70
     0
 62
     7
  6
Continuous
370
    -3
390
F
  0
LAYER
  5
6F
330
2
100
AcDbSymbolTableRecord
100
AcDbLayerTableRecord
  2
FORMAT
 70
     0
 62
     2
  6
Continuous
370
    -3
390
F
  0
LAYER
  5
70
330
2
100
AcDbSymbolTableRecord
100
AcDbLayerTableRecord
  2
외형선
 70
     0
 62
   100
  6
Continuous
370
    30
390
F
  0
LAYER
  5
71
330
2
100
AcDbSymbolTableRecord
100
AcDbLayerTableRecord
  2
숨은선
 70
     0
 62
     2
  6
HIDDEN
370
    15
390
F
  0
LAYER
  5
72
330
2
100
AcDbSymbolTableRecord
100
AcDbLayerTableRecord
  2
중심선
 70
     0
 62
     1
  6
CENTERX2
370
    -3
390
F
  0
LAYER
  5
73
330
2
100
AcDbSymbolTableRecord
100
AcDbLayerTableRecord
  2
파단선
 70
     0
 62
     4
  6
Continuous
370
    -3
390
F
  0
LAYER
  5
74
330
2
100
AcDbSymbolTableRecord
100
AcDbLayerTableRecord
  2
해칭선
 70
     0
 62
     4
  6
Continuous
370
    -3
390
F
  0
LAYER
  5
75
330
2
100
AcDbSymbolTableRecord
100
AcDbLayerTableRecord
  2
가는실선
 70
     0
 62
     4
  6
Continuous
370
    -3
390
F
  0
LAYER
  5
76
330
2
100
AcDbSymbolTableRecord
100
AcDbLayerTableRecord
  2
치수_보조선
 70
     0
 62
     4
  6
Continuous
370
    -3
390
F
  0
LAYER
  5
77
330
2
100
AcDbSymbolTableRecord
100
AcDbLayerTableRecord
  2
치수문자_일반주서
 70
     0
 62
     7
  6
Continuous
370
    15
390
F
  0
LAYER
  5
78
330
2
100
AcDbSymbolTableRecord
100
AcDbLayerTableRecord
  2
개별주서
 70
     0
 62
   100
  6
Continuous
370
    30
390
F
  0
LAYER
  5
79
330
2
100
AcDbSymbolTableRecord
100
AcDbLayerTableRecord
  2
중간선
 70
     0
 62
     2
  6
Continuous
370
    15
390
F
  0
LAYER
  5
7A
330
2
100
AcDbSymbolTableRecord
100
AcDbLayerTableRecord
  2
윤곽선
 70
     0
 62
     3
  6
Continuous
370
    40
390
F
  0
LAYER
  5
7B
330
2
100
AcDbSymbolTableRecord
100
AcDbLayerTableRecord
  2
중심마크
 70
     0
 62
   100
  6
Continuous
370
    30
390
F
  0
LAYER
  5
7C
330
2
100
AcDbSymbolTableRecord
100
AcDbLayerTableRecord
  2
가상선
 70
     0
 62
     4
  6
PHANTOM
370
    -3
390
F
  0
LAYER
  5
7D
330
2
100
AcDbSymbolTableRecord
100
AcDbLayerTableRecord
  2
특수지정선
 70
     0
 62
     5
  6
CENTERX2
370
    60
390
F
  0
LAYER
  5
140
330
2
100
AcDbSymbolTableRecord
100
AcDbLayerTableRecord
  2
Defpoints
 70
     0
 62
     7
  6
Continuous
290
     0
370
    -3
390
F
  0
ENDTAB
  0
TABLE
  2
STYLE
  5
3
330
0
100
AcDbSymbolTable
 70
     2
  0
STYLE
  5
11
330
3
100
AcDbSymbolTableRecord
100
AcDbTextStyleTableRecord
  2
Standard
 70
     0
 40
0.0
 41
1.0
 50
0.0
 71
     0
 42
3.5
  3
txt
  4

  0
STYLE
  5
93
330
3
100
AcDbSymbolTableRecord
100
AcDbTextStyleTableRecord
  2
SLDTEXTSTYLE0
 70
     0
 40
0.0
 41
0.75
 50
0.0
 71
     0
 42
3.5
  3
TXT
  4

  0
ENDTAB
  0
TABLE
  2
VIEW
  5
6
330
0
100
AcDbSymbolTable
 70
     0
  0
ENDTAB
  0
TABLE
  2
UCS
  5
7
330
0
100
AcDbSymbolTable
 70
     0
  0
ENDTAB
  0
TABLE
  2
APPID
  5
9
330
0
100
AcDbSymbolTable
 70
     3
  0
APPID
  5
12
330
9
100
AcDbSymbolTableRecord
100
AcDbRegAppTableRecord
  2
ACAD
 70
     0
  0
APPID
  5
151
330
9
100
AcDbSymbolTableRecord
100
AcDbRegAppTableRecord
  2
ACAD_DSTYLE_DIMRADIAL_EXTENSION
 70
     0
  0
APPID
  5
16F
330
9
100
AcDbSymbolTableRecord
100
AcDbRegAppTableRecord
  2
PE_DIMMEASUREMENT
 70
     0
  0
ENDTAB
  0
TABLE
  2
DIMSTYLE
  5
A
330
0
100
AcDbSymbolTable
 70
     4
100
AcDbDimStyleTable
  0
DIMSTYLE
105
27
330
A
100
AcDbSymbolTableRecord
100
AcDbDimStyleTableRecord
  2
ISO-25
 70
     0
 41
2.5
 42
0.625
 43
3.75
 44
1.25
 73
     0
 74
     0
 77
     1
 78
     8
140
2.5
141
2.5
143
0.03937007874016
147
0.625
171
     3
172
     1
178
     0
271
     2
272
     2
274
     3
278
    44
283
     0
284
     8
340
11
  0
DIMSTYLE
105
D7
102
{ACAD_REACTORS
330
D6
330
152
330
141
102
}
330
A
100
AcDbSymbolTableRecord
100
AcDbDimStyleTableRecord
  2
SLDDIMSTYLE0
 70
     0
 41
3.302
 44
0.0
 45
0.000000001
 73
     0
 74
     0
 77
     1
 78
    12
 79
     3
140
3.5
143
0.0393700787401575
147
0.875
148
0.000000001
170
     1
173
     1
178
     0
271
     2
272
     2
276
     2
284
    12
340
93
  0
DIMSTYLE
105
EB
102
{ACAD_REACTORS
330
EA
330
15F
102
}
330
A
100
AcDbSymbolTableRecord
100
AcDbDimStyleTableRecord
  2
SLDDIMSTYLE1
 70
     0
 41
3.302
 44
0.0
 45
0.000000001
 73
     0
 74
     0
 77
     1
 78
     4
 79
     1
140
3.5
143
0.0393700787401575
147
0.875
148
0.000000001
170
     1
173
     1
178
     0
271
     2
272
     2
276
     2
284
    12
340
93
  0
DIMSTYLE
105
FF
330
A
100
AcDbSymbolTableRecord
100
AcDbDimStyleTableRecord
  2
SLDDIMSTYLE2
 70
     0
 41
3.302
 44
0.0
 45
0.000000001
 73
     0
 74
     0
 77
     1
 78
     8
 79
     2
140
3.5
143
0.0393700787401575
147
0.875
148
0.000000001
170
     1
172
     1
173
     1
178
     0
271
     2
272
     2
276
     2
284
    12
289
     0
340
93
341
100
343
100
344
100
  0
ENDTAB
  0
TABLE
  2
BLOCK_RECORD
  5
1
330
0
100
AcDbSymbolTable
 70
    10
  0
BLOCK_RECORD
  5
1F
330
1
100
AcDbSymbolTableRecord
100
AcDbBlockTableRecord
  2
*Model_Space
340
22
  0
BLOCK_RECORD
  5
1B
330
1
100
AcDbSymbolTableRecord
100
AcDbBlockTableRecord
  2
*Paper_Space
340
1E
  0
BLOCK_RECORD
  5
23
330
1
100
AcDbSymbolTableRecord
100
AcDbBlockTableRecord
  2
*Paper_Space0
340
26
  0
BLOCK_RECORD
  5
7E
330
1
100
AcDbSymbolTableRecord
100
AcDbBlockTableRecord
  2
블럭10
340
0
102
{BLKREFS
331
CE
102
}
  0
BLOCK_RECORD
  5
D8
330
1
100
AcDbSymbolTableRecord
100
AcDbBlockTableRecord
  2
_D
340
0
  0
BLOCK_RECORD
  5
EC
330
1
100
AcDbSymbolTableRecord
100
AcDbBlockTableRecord
  2
_D_1
340
0
  0
BLOCK_RECORD
  5
100
330
1
100
AcDbSymbolTableRecord
100
AcDbBlockTableRecord
  2
_NONE
340
0
  0
BLOCK_RECORD
  5
103
330
1
100
AcDbSymbolTableRecord
100
AcDbBlockTableRecord
  2
_D_2
340
0
  0
BLOCK_RECORD
  5
10F
330
1
100
AcDbSymbolTableRecord
100
AcDbBlockTableRecord
  2
SW_DOWELSYMBOL_0
340
0
102
{BLKREFS
331
115
102
}
  0
BLOCK_RECORD
  5
144
330
1
100
AcDbSymbolTableRecord
100
AcDbBlockTableRecord
  2
*D7
340
0
  0
BLOCK_RECORD
  5
155
330
1
100
AcDbSymbolTableRecord
100
AcDbBlockTableRecord
  2
*D8
340
0
  0
BLOCK_RECORD
  5
162
330
1
100
AcDbSymbolTableRecord
100
AcDbBlockTableRecord
  2
*D9
340
0
  0
ENDTAB
  0
ENDSEC
  0
SECTION
  2
BLOCKS
  0
BLOCK
  5
20
330
1F
100
AcDbEntity
  8
0
100
AcDbBlockBegin
  2
*Model_Space
 70
     0
 10
0.0
 20
0.0
 30
0.0
  3
*Model_Space
  1
*Model_Space
  0
ENDBLK
  5
21
330
1F
100
AcDbEntity
  8
0
100
AcDbBlockEnd
  0
BLOCK
  5
1C
330
1B
100
AcDbEntity
 67
     1
  8
0
100
AcDbBlockBegin
  2
*Paper_Space
 70
     0
 10
0.0
 20
0.0
 30
0.0
  3
*Paper_Space
  1
*Paper_Space
  0
ENDBLK
  5
1D
330
1B
100
AcDbEntity
 67
     1
  8
0
100
AcDbBlockEnd
  0
BLOCK
  5
24
330
23
100
AcDbEntity
  8
0
100
AcDbBlockBegin
  2
*Paper_Space0
 70
     0
 10
0.0
 20
0.0
 30
0.0
  3
*Paper_Space0
  1
*Paper_Space0
  0
ENDBLK
  5
25
330
23
100
AcDbEntity
  8
0
100
AcDbBlockEnd
  0
BLOCK
  5
7F
330
7E
100
AcDbEntity
  8
0
100
AcDbBlockBegin
  2
블럭10
 70
     2
 10
0.0
 20
0.0
 30
0.0
  3
블럭10
  1
블럭10
  0
ELLIPSE
  5
81
330
7E
100
AcDbEntity
  8
중심선
100
AcDbEllipse
 10
20.54032771741204
 20
12.0471743016438
 30
0.0
 11
6.600054785286829
 21
-1.261213355974178E-13
 31
0.0
210
0.0
220
0.0
230
1.0
 40
0.636358354079598
 41
0.9219305317359503
 42
6.513795318482858
  0
ELLIPSE
  5
82
330
7E
100
AcDbEntity
  8
중심선
100
AcDbEllipse
 10
20.54032771746488
 20
12.04717430159265
 30
0.0
 11
3.960054785062283
 21
1.540847449632565E-10
 31
0.0
210
0.0
220
0.0
230
1.0
 40
0.3939339440162632
 41
1.131841032648279
 42
5.62031148352944
  0
LINE
  5
83
330
7E
100
AcDbEntity
  8
중심선
100
AcDbLine
 10
2.268634060543552
 20
16.24717430164393
 30
0.0
 11
5.714909304380834
 21
16.24717430164393
 31
0.0
  0
LINE
  5
84
330
7E
100
AcDbEntity
  8
중심선
100
AcDbLine
 10
5.245725140726316
 20
7.84717430164391
 30
0.0
 11
8.692000384563599
 21
7.84717430164391
 31
0.0
  0
LINE
  5
85
330
7E
100
AcDbEntity
  8
중심선
100
AcDbLine
 10
15.74043728645272
 20
16.24717430164393
 30
0.0
 11
8.692000384563599
 21
7.84717430164391
 31
0.0
  0
LINE
  5
86
330
7E
100
AcDbEntity
  8
중심선
100
AcDbLine
 10
0.1404042013395286
 20
13.71084872107135
 30
0.0
 11
3.58671253028996
 21
13.71088815037384
 31
0.0
  0
LINE
  5
87
330
7E
100
AcDbEntity
  8
중심선
100
AcDbLine
 10
2.750260043222114
 20
10.84717430164391
 30
0.0
 11
6.196535287059397
 21
10.84717430164391
 31
0.0
  0
LINE
  5
88
330
7E
100
AcDbEntity
  8
중심선
100
AcDbLine
 10
12.29416204261559
 20
16.24717430164393
 30
0.0
 11
5.245725140726316
 21
7.84717430164391
 31
0.0
  0
LINE
  5
89
330
7E
100
AcDbEntity
  8
중심선
100
AcDbLine
 10
10.72767329541681
 20
16.24717430164393
 30
0.0
 11
6.196535287059397
 21
10.84717430164391
 31
0.0
  0
LINE
  5
8A
330
7E
100
AcDbEntity
  8
중심선
100
AcDbLine
 10
7.28139805157953
 20
16.24717430164393
 30
0.0
 11
2.750260043222114
 21
10.84717430164391
 31
0.0
  0
LINE
  5
8B
330
7E
100
AcDbEntity
  8
중심선
100
AcDbLine
 10
5.714909304380834
 20
16.24717430164393
 30
0.0
 11
3.58671253028996
 21
13.71088815037384
 31
0.0
  0
LINE
  5
8C
330
7E
100
AcDbEntity
  8
중심선
100
AcDbLine
 10
2.268634060543552
 20
16.24717430164393
 30
0.0
 11
0.1404042013395286
 21
13.71084872107135
 31
0.0
  0
LINE
  5
8D
330
7E
100
AcDbEntity
  8
중심선
100
AcDbLine
 10
7.28139805157953
 20
16.24717430164393
 30
0.0
 11
10.72767329541681
 21
16.24717430164393
 31
0.0
  0
LINE
  5
8E
330
7E
100
AcDbEntity
  8
중심선
100
AcDbLine
 10
12.29416204261559
 20
16.24717430164393
 30
0.0
 11
15.74043728645272
 21
16.24717430164393
 31
0.0
  0
LINE
  5
8F
330
7E
100
AcDbEntity
  8
중심선
100
AcDbLine
 10
19.22036997980202
 20
11.08717430171403
 30
0.0
 11
23.66174974927406
 21
11.08717430171406
 31
0.0
  0
LINE
  5
90
330
7E
100
AcDbEntity
  8
중심선
100
AcDbLine
 10
19.22039502424796
 20
13.00717430171391
 30
0.0
 11
19.22036997980202
 21
11.08717430171403
 31
0.0
  0
LINE
  5
91
330
7E
100
AcDbEntity
  8
중심선
100
AcDbLine
 10
19.22039502424796
 20
13.00717430171391
 30
0.0
 11
26.96566020931264
 21
13.00717430171391
 31
0.0
  0
LINE
  5
92
330
7E
100
AcDbEntity
  8
중심선
100
AcDbLine
 10
22.22332737316547
 20
13.45928029700563
 30
0.0
 11
24.52862924686651
 21
15.39360700705356
 31
0.0
  0
ATTDEF
  5
94
330
7E
100
AcDbEntity
  8
FORMAT
 62
     2
100
AcDbText
 10
-9.18129528874128
 20
2.075366912832191
 30
0.0
 40
4.233333333333333
  1
E5984048 [ 3 FLUTE ]
 41
0.75
  7
SLDTEXTSTYLE0
 11
-9.18129528874128
 21
-0.0412997538344756
 31
0.0
100
AcDbAttributeDefinition
  3

  2
AUTOATTR0
 70
     0
 74
     1
  0
ENDBLK
  5
80
330
7E
100
AcDbEntity
  8
0
100
AcDbBlockEnd
  0
BLOCK
  5
D9
330
D8
100
AcDbEntity
  8
0
100
AcDbBlockBegin
  2
_D
 70
     0
 10
0.0
 20
0.0
 30
0.0
  3
_D
  1
_D
  0
LINE
  5
DB
330
D8
100
AcDbEntity
  8
치수문자_일반주서
 62
     0
370
    -2
100
AcDbLine
 10
94.55000000000001
 20
9.587499999999999
 30
0.0
 11
94.55000000000001
 21
31.72501421023315
 31
0.0
  0
LINE
  5
DC
330
D8
100
AcDbEntity
  8
치수문자_일반주서
 62
     0
370
    -2
100
AcDbLine
 10
12.00000000000002
 20
9.424948997432967
 30
0.0
 11
12.00000000000002
 21
31.72501421023315
 31
0.0
  0
LINE
  5
DD
330
D8
100
AcDbEntity
  8
치수문자_일반주서
 62
     0
370
    -2
100
AcDbLine
 10
91.24800000000002
 20
31.72501421023315
 30
0.0
 11
15.30200000000002
 21
31.72501421023315
 31
0.0
  0
SOLID
  5
DE
330
D8
100
AcDbEntity
  8
치수문자_일반주서
 62
     0
100
AcDbTrace
 10
91.24800000000002
 20
31.17468087689982
 30
0.0
 11
91.24800000000002
 21
32.27534754356648
 31
0.0
 12
94.55000000000001
 22
31.72501421023315
 32
0.0
 13
94.55000000000001
 23
31.72501421023315
 33
0.0
  0
SOLID
  5
DF
330
D8
100
AcDbEntity
  8
치수문자_일반주서
 62
     0
100
AcDbTrace
 10
15.30200000000002
 20
32.27534754356648
 30
0.0
 11
15.30200000000002
 21
31.17468087689982
 31
0.0
 12
12.00000000000002
 22
31.72501421023315
 32
0.0
 13
12.00000000000002
 23
31.72501421023315
 33
0.0
  0
MTEXT
  5
E0
330
D8
100
AcDbEntity
  8
치수문자_일반주서
 62
     0
100
AcDbMText
 10
53.27500000000001
 20
36.10001421023316
 30
0.0
 40
3.5
 41
0.0
 71
     2
 72
     1
  1
\A1;82.55 [3 1/4]
  7
SLDTEXTSTYLE0
 73
     1
 44
1.0
  0
POINT
  5
E1
330
D8
100
AcDbEntity
  8
Defpoints
 62
     0
100
AcDbPoint
 10
94.55000000000001
 20
9.524999999999999
 30
0.0
  0
POINT
  5
E2
330
D8
100
AcDbEntity
  8
Defpoints
 62
     0
100
AcDbPoint
 10
12.00000000000002
 20
9.362448997432967
 30
0.0
  0
POINT
  5
E3
330
D8
100
AcDbEntity
  8
Defpoints
 62
     0
100
AcDbPoint
 10
12.00000000000002
 20
31.72501421023315
 30
0.0
  0
ENDBLK
  5
DA
330
D8
100
AcDbEntity
  8
0
100
AcDbBlockEnd
  0
BLOCK
  5
ED
330
EC
100
AcDbEntity
  8
0
100
AcDbBlockBegin
  2
_D_1
 70
     0
 10
0.0
 20
0.0
 30
0.0
  3
_D_1
  1
_D_1
  0
LINE
  5
EF
330
EC
100
AcDbEntity
  8
치수문자_일반주서
 62
     0
370
    -2
100
AcDbLine
 10
94.55000000000001
 20
9.587499999999999
 30
0.0
 11
94.55000000000001
 21
58.6725977822756
 31
0.0
  0
LINE
  5
F0
330
EC
100
AcDbEntity
  8
치수문자_일반주서
 62
     0
370
    -2
100
AcDbLine
 10
-57.84999999999999
 20
9.087499999999995
 30
0.0
 11
-57.84999999999999
 21
58.6725977822756
 31
0.0
  0
LINE
  5
F1
330
EC
100
AcDbEntity
  8
치수문자_일반주서
 62
     0
370
    -2
100
AcDbLine
 10
91.24800000000002
 20
58.6725977822756
 30
0.0
 11
-54.54799999999999
 21
58.6725977822756
 31
0.0
  0
SOLID
  5
F2
330
EC
100
AcDbEntity
  8
치수문자_일반주서
 62
     0
100
AcDbTrace
 10
91.24800000000002
 20
58.12226444894227
 30
0.0
 11
91.24800000000002
 21
59.22293111560894
 31
0.0
 12
94.55000000000001
 22
58.6725977822756
 32
0.0
 13
94.55000000000001
 23
58.6725977822756
 33
0.0
  0
SOLID
  5
F3
330
EC
100
AcDbEntity
  8
치수문자_일반주서
 62
     0
100
AcDbTrace
 10
-54.54799999999999
 20
59.22293111560894
 30
0.0
 11
-54.54799999999999
 21
58.12226444894227
 31
0.0
 12
-57.84999999999999
 22
58.6725977822756
 32
0.0
 13
-57.84999999999999
 23
58.6725977822756
 33
0.0
  0
MTEXT
  5
F4
330
EC
100
AcDbEntity
  8
치수문자_일반주서
 62
     0
100
AcDbMText
 10
17.74141452505229
 20
63.0475977822756
 30
0.0
 40
3.5
 41
0.0
 71
     2
 72
     1
  1
\A1;152.40 [6]
  7
SLDTEXTSTYLE0
 73
     1
 44
1.0
  0
POINT
  5
F5
330
EC
100
AcDbEntity
  8
Defpoints
 62
     0
100
AcDbPoint
 10
94.55000000000001
 20
9.524999999999999
 30
0.0
  0
POINT
  5
F6
330
EC
100
AcDbEntity
  8
Defpoints
 62
     0
100
AcDbPoint
 10
-57.84999999999999
 20
9.024999999999995
 30
0.0
  0
POINT
  5
F7
330
EC
100
AcDbEntity
  8
Defpoints
 62
     0
100
AcDbPoint
 10
-57.84999999999999
 20
58.6725977822756
 30
0.0
  0
ENDBLK
  5
EE
330
EC
100
AcDbEntity
  8
0
100
AcDbBlockEnd
  0
BLOCK
  5
101
330
100
100
AcDbEntity
  8
0
100
AcDbBlockBegin
  2
_NONE
 70
     0
 10
0.0
 20
0.0
 30
0.0
  3
_NONE
  1
_NONE
  0
ENDBLK
  5
102
330
100
100
AcDbEntity
  8
0
100
AcDbBlockEnd
  0
BLOCK
  5
104
330
103
100
AcDbEntity
  8
0
100
AcDbBlockBegin
  2
_D_2
 70
     0
 10
0.0
 20
0.0
 30
0.0
  3
_D_2
  1
_D_2
  0
LINE
  5
106
330
103
100
AcDbEntity
  8
치수문자_일반주서
100
AcDbLine
 10
-74.29288171604271
 20
-13.33219025233259
 30
0.0
 11
-74.29288171604271
 21
-14.04312773789709
 31
0.0
  0
LINE
  5
107
330
103
100
AcDbEntity
  8
치수문자_일반주서
100
AcDbLine
 10
-74.29288171604271
 20
-14.04312773789709
 30
0.0
 11
-68.73663172498341
 21
-14.04312773789705
 31
0.0
  0
LINE
  5
108
330
103
100
AcDbEntity
  8
치수문자_일반주서
100
AcDbLine
 10
-68.73663172498341
 20
-14.04312773789705
 30
0.0
 11
-68.73663172498341
 21
-13.33219025233255
 31
0.0
  0
LINE
  5
109
330
103
100
AcDbEntity
  8
치수문자_일반주서
100
AcDbLine
 10
-74.2928817160428
 20
-2.50345739019533
 30
0.0
 11
-74.2928817160428
 21
-1.79251990463083
 31
0.0
  0
LINE
  5
10A
330
103
100
AcDbEntity
  8
치수문자_일반주서
100
AcDbLine
 10
-74.2928817160428
 20
-1.79251990463083
 30
0.0
 11
-68.7366317249835
 21
-1.792519904630791
 31
0.0
  0
LINE
  5
10B
330
103
100
AcDbEntity
  8
치수문자_일반주서
100
AcDbLine
 10
-68.7366317249835
 20
-1.792519904630791
 30
0.0
 11
-68.7366317249835
 21
-2.503457390195291
 31
0.0
  0
MTEXT
  5
10C
330
103
100
AcDbEntity
  8
치수문자_일반주서
100
AcDbMText
 10
-73.24836863956233
 20
-12.44351835172121
 30
0.0
 40
3.5
 41
0.0
 71
     1
 72
     1
  1
0.00
  7
SLDTEXTSTYLE0
 11
-7.044195017643634E-15
 21
1.0
 31
0.0
 73
     1
 44
1.0
  0
MTEXT
  5
10D
330
103
100
AcDbEntity
  8
치수문자_일반주서
100
AcDbMText
 10
-68.01173708920186
 20
-11.85009823362768
 30
0.0
 40
3.5
 41
0.0
 71
     1
 72
     1
  1
%%c
  7
SLDTEXTSTYLE0
 11
-7.044195017643634E-15
 21
1.0
 31
0.0
 73
     1
 44
1.0
  0
MTEXT
  5
10E
330
103
100
AcDbEntity
  8
치수문자_일반주서
100
AcDbMText
 10
-68.0117370892019
 20
-6.571660835253604
 30
0.0
 40
3.5
 41
0.0
 71
     1
 72
     1
  1
0
  7
SLDTEXTSTYLE0
 11
-7.044195017643634E-15
 21
1.0
 31
0.0
 73
     1
 44
1.0
  0
ENDBLK
  5
105
330
103
100
AcDbEntity
  8
0
100
AcDbBlockEnd
  0
BLOCK
  5
110
330
10F
100
AcDbEntity
  8
0
100
AcDbBlockBegin
  2
SW_DOWELSYMBOL_0
 70
     0
 10
0.0
 20
0.0
 30
0.0
  3
SW_DOWELSYMBOL_0
  1
SW_DOWELSYMBOL_0
  0
CIRCLE
  5
112
330
10F
100
AcDbEntity
  8
외형선
 62
     0
100
AcDbCircle
 10
0.0
 20
0.0
 30
0.0
 40
3.000000000000008
  0
HATCH
  5
113
330
10F
100
AcDbEntity
  8
0
  6
Continuous
 62
     0
370
    30
100
AcDbHatch
 10
0.0
 20
0.0
 30
0.0
210
0.0
220
0.0
230
1.0
  2
SOLID
 70
     1
 71
     0
 91
        1
 92
        0
 93
        3
 72
     2
 10
0.0
 20
0.0
 40
3.000000000000008
 50
0.0
 51
90.0
 73
     1
 72
     1
 10
0.0
 20
3.000000000000008
 11
0.0
 21
0.0
 72
     1
 10
0.0
 20
0.0
 11
3.00000000000001
 21
0.0
 97
        0
 75
     0
 76
     1
 98
        1
 10
0.0
 20
0.0
  0
HATCH
  5
114
330
10F
100
AcDbEntity
  8
0
  6
Continuous
 62
     0
370
    30
100
AcDbHatch
 10
0.0
 20
0.0
 30
0.0
210
0.0
220
0.0
230
1.0
  2
SOLID
 70
     1
 71
     0
 91
        1
 92
        0
 93
        3
 72
     2
 10
0.0
 20
0.0
 40
3.000000000000008
 50
180.0
 51
270.0000000000008
 73
     1
 72
     1
 10
0.0
 20
-3.000000000000008
 11
0.0
 21
0.0
 72
     1
 10
0.0
 20
0.0
 11
-3.00000000000001
 21
0.0
 97
        0
 75
     0
 76
     1
 98
        1
 10
0.0
 20
0.0
  0
ENDBLK
  5
111
330
10F
100
AcDbEntity
  8
0
100
AcDbBlockEnd
  0
BLOCK
  5
145
330
144
100
AcDbEntity
  8
0
100
AcDbBlockBegin
  2
*D7
 70
     1
 10
0.0
 20
0.0
 30
0.0
  3
*D7
  1
*D7
  0
LINE
  5
147
330
144
100
AcDbEntity
  8
치수문자_일반주서
 62
     0
370
    -2
100
AcDbLine
 10
94.61249999999998
 20
-9.525000000000002
 30
0.0
 11
107.9185644275912
 21
-9.525000000000002
 31
0.0
  0
LINE
  5
148
330
144
100
AcDbEntity
  8
치수문자_일반주서
 62
     0
370
    -2
100
AcDbLine
 10
94.61250000000001
 20
9.524999999999999
 30
0.0
 11
107.9185644275912
 21
9.524999999999999
 31
0.0
  0
LINE
  5
149
330
144
100
AcDbEntity
  8
치수문자_일반주서
 62
     0
370
    -2
100
AcDbLine
 10
107.9185644275912
 20
9.524999999999999
 30
0.0
 11
107.9185644275912
 21
40.3895
 31
0.0
  0
LINE
  5
14A
330
144
100
AcDbEntity
  8
치수문자_일반주서
 62
     0
370
    -2
100
AcDbLine
 10
107.9185644275912
 20
-6.223000000000003
 30
0.0
 11
107.9185644275912
 21
6.222999999999999
 31
0.0
  0
SOLID
  5
14B
330
144
100
AcDbEntity
  8
치수문자_일반주서
 62
     0
100
AcDbTrace
 10
107.3682310942579
 20
-6.223000000000003
 30
0.0
 11
108.4688977609245
 21
-6.223000000000003
 31
0.0
 12
107.9185644275912
 22
-9.525000000000002
 32
0.0
 13
107.9185644275912
 23
-9.525000000000002
 33
0.0
  0
SOLID
  5
14C
330
144
100
AcDbEntity
  8
치수문자_일반주서
 62
     0
100
AcDbTrace
 10
108.4688977609245
 20
6.222999999999999
 30
0.0
 11
107.3682310942579
 21
6.222999999999999
 31
0.0
 12
107.9185644275912
 22
9.524999999999999
 32
0.0
 13
107.9185644275912
 23
9.524999999999999
 33
0.0
  0
MTEXT
  5
14D
330
144
100
AcDbEntity
  8
치수문자_일반주서
 62
     0
100
AcDbMText
 10
105.2935644275912
 20
26.60825
 30
0.0
 40
3.5
 41
0.0
 71
     5
 72
     1
  1
\A1;{Ø19.05 [3/4]}
  7
SLDTEXTSTYLE0
 11
0.0
 21
1.0
 31
0.0
 73
     1
 44
1.0
  0
POINT
  5
14E
330
144
100
AcDbEntity
  8
Defpoints
 62
     0
100
AcDbPoint
 10
94.54999999999998
 20
-9.525000000000002
 30
0.0
  0
POINT
  5
14F
330
144
100
AcDbEntity
  8
Defpoints
 62
     0
100
AcDbPoint
 10
94.55000000000001
 20
9.524999999999999
 30
0.0
  0
POINT
  5
150
330
144
100
AcDbEntity
  8
Defpoints
 62
     0
100
AcDbPoint
 10
107.9185644275912
 20
9.524999999999999
 30
0.0
  0
ENDBLK
  5
146
330
144
100
AcDbEntity
  8
0
100
AcDbBlockEnd
  0
BLOCK
  5
156
330
155
100
AcDbEntity
  8
0
100
AcDbBlockBegin
  2
*D8
 70
     1
 10
0.0
 20
0.0
 30
0.0
  3
*D8
  1
*D8
  0
LINE
  5
158
330
155
100
AcDbEntity
  8
치수문자_일반주서
 62
     0
370
    -2
100
AcDbLine
 10
95.38082254811431
 20
-12.21349175273881
 30
0.0
 11
110.6544767961611
 21
-39.53620556215245
 31
0.0
  0
MTEXT
  5
159
330
155
100
AcDbEntity
  8
치수문자_일반주서
 62
     0
100
AcDbMText
 10
106.114542104354
 20
-26.03510864397106
 30
0.0
 40
3.5
 41
0.0
 71
     5
 72
     1
  1
\A1;R1.52 [R0.06]
  7
SLDTEXTSTYLE0
 11
0.4879449954650429
 21
-0.872874378934689
 31
0.0
 73
     1
 44
1.0
  0
SOLID
  5
15A
330
155
100
AcDbEntity
  8
치수문자_일반주서
 62
     0
100
AcDbTrace
 10
95.8611944146547
 20
-11.94495935690121
 30
0.0
 11
94.90045068157391
 21
-12.4820241485764
 31
0.0
 12
93.76962817308873
 22
-9.331260553496465
 32
0.0
 13
93.76962817308873
 23
-9.331260553496465
 33
0.0
  0
LINE
  5
15B
330
155
100
AcDbEntity
  8
치수문자_일반주서
 62
     0
100
AcDbLine
 10
92.936
 20
-8.001000000000003
 30
0.0
 11
93.11600000000001
 21
-8.001000000000003
 31
0.0
  0
LINE
  5
15C
330
155
100
AcDbEntity
  8
치수문자_일반주서
 62
     0
100
AcDbLine
 10
93.02600000000001
 20
-8.091000000000003
 30
0.0
 11
93.02600000000001
 21
-7.911000000000003
 31
0.0
  0
POINT
  5
15D
330
155
100
AcDbEntity
  8
Defpoints
 62
     0
100
AcDbPoint
 10
93.76962817308873
 20
-9.331260553496465
 30
0.0
  0
POINT
  5
15E
330
155
100
AcDbEntity
  8
Defpoints
 62
     0
100
AcDbPoint
 10
93.02600000000001
 20
-8.001000000000003
 30
0.0
  0
ENDBLK
  5
157
330
155
100
AcDbEntity
  8
0
100
AcDbBlockEnd
  0
BLOCK
  5
163
330
162
100
AcDbEntity
  8
0
100
AcDbBlockBegin
  2
*D9
 70
     1
 10
0.0
 20
0.0
 30
0.0
  3
*D9
  1
*D9
  0
LINE
  5
165
330
162
100
AcDbEntity
  8
치수문자_일반주서
 62
     0
370
    -2
100
AcDbLine
 10
-57.41249999999999
 20
-9.525000000000002
 30
0.0
 11
-69.26507504785306
 21
-9.525000000000002
 31
0.0
  0
LINE
  5
166
330
162
100
AcDbEntity
  8
치수문자_일반주서
 62
     0
370
    -2
100
AcDbLine
 10
-57.41249999999999
 20
9.524999999999999
 30
0.0
 11
-69.26507504785306
 21
9.524999999999999
 31
0.0
  0
LINE
  5
167
330
162
100
AcDbEntity
  8
치수문자_일반주서
 62
     0
370
    -2
100
AcDbLine
 10
-69.26507504785306
 20
9.524999999999999
 30
0.0
 11
-69.26507504785306
 21
40.3895
 31
0.0
  0
LINE
  5
168
330
162
100
AcDbEntity
  8
치수문자_일반주서
 62
     0
370
    -2
100
AcDbLine
 10
-69.26507504785306
 20
-6.223000000000003
 30
0.0
 11
-69.26507504785306
 21
6.222999999999999
 31
0.0
  0
SOLID
  5
169
330
162
100
AcDbEntity
  8
치수문자_일반주서
 62
     0
100
AcDbTrace
 10
-69.81540838118639
 20
-6.223000000000003
 30
0.0
 11
-68.71474171451973
 21
-6.223000000000003
 31
0.0
 12
-69.26507504785306
 22
-9.525000000000002
 32
0.0
 13
-69.26507504785306
 23
-9.525000000000002
 33
0.0
  0
SOLID
  5
16A
330
162
100
AcDbEntity
  8
치수문자_일반주서
 62
     0
100
AcDbTrace
 10
-68.71474171451973
 20
6.222999999999999
 30
0.0
 11
-69.81540838118639
 21
6.222999999999999
 31
0.0
 12
-69.26507504785306
 22
9.524999999999999
 32
0.0
 13
-69.26507504785306
 23
9.524999999999999
 33
0.0
  0
MTEXT
  5
16B
330
162
100
AcDbEntity
  8
치수문자_일반주서
 62
     0
100
AcDbMText
 10
-71.89007504785306
 20
26.60825
 30
0.0
 40
3.5
 41
0.0
 71
     5
 72
     1
  1
\A1;{Ø19.05 [3/4]}
  7
SLDTEXTSTYLE0
 11
0.0
 21
1.0
 31
0.0
 73
     1
 44
1.0
  0
POINT
  5
16C
330
162
100
AcDbEntity
  8
Defpoints
 62
     0
100
AcDbPoint
 10
-57.34999999999999
 20
-9.525000000000002
 30
0.0
  0
POINT
  5
16D
330
162
100
AcDbEntity
  8
Defpoints
 62
     0
100
AcDbPoint
 10
-57.34999999999999
 20
9.524999999999999
 30
0.0
  0
POINT
  5
16E
330
162
100
AcDbEntity
  8
Defpoints
 62
     0
100
AcDbPoint
 10
-69.26507504785306
 20
9.524999999999999
 30
0.0
  0
ENDBLK
  5
164
330
162
100
AcDbEntity
  8
0
100
AcDbBlockEnd
  0
ENDSEC
  0
SECTION
  2
ENTITIES
  0
LINE
  5
95
102
{ACAD_REACTORS
102
}
330
1F
100
AcDbEntity
  8
0
  6
Continuous
 62
     4
370
    15
100
AcDbLine
 10
9.506389356442103
 20
9.524999999999999
 30
0.0
 11
-57.34999999999999
 21
9.524999999999999
 31
0.0
  0
LINE
  5
96
102
{ACAD_REACTORS
102
}
330
1F
100
AcDbEntity
  8
0
  6
Continuous
 62
     4
370
    15
100
AcDbLine
 10
-57.34999999999999
 20
-9.525000000000002
 30
0.0
 11
9.519071690160711
 21
-9.525000000000002
 31
0.0
  0
LINE
  5
97
330
1F
100
AcDbEntity
  8
0
  6
Continuous
 62
     4
370
    15
100
AcDbLine
 10
-57.34999999999999
 20
9.524999999999995
 30
0.0
 11
-57.84999999999999
 21
9.024999999999995
 31
0.0
  0
LINE
  5
98
330
1F
100
AcDbEntity
  8
0
  6
Continuous
 62
     4
370
    15
100
AcDbLine
 10
-57.84999999999999
 20
-9.024999999999999
 30
0.0
 11
-57.34999999999999
 21
-9.524999999999999
 31
0.0
  0
LINE
  5
99
330
1F
100
AcDbEntity
  8
0
  6
Continuous
 62
     1
370
    15
100
AcDbLine
 10
80.52054643724165
 20
-9.525000000000002
 30
0.0
 11
88.72375378161911
 21
-9.525000000000002
 31
0.0
  0
LINE
  5
9A
330
1F
100
AcDbEntity
  8
0
  6
Continuous
 62
     1
370
    15
100
AcDbLine
 10
49.01507714866136
 20
9.524999999999999
 30
0.0
 11
40.81085894502615
 21
9.524999999999999
 31
0.0
  0
LINE
  5
9B
330
1F
100
AcDbEntity
  8
0
  6
Continuous
 62
     1
370
    15
100
AcDbLine
 10
54.0488432719678
 20
-9.525000000000002
 30
0.0
 11
62.25033160466561
 21
-9.525000000000002
 31
0.0
  0
LINE
  5
9C
330
1F
100
AcDbEntity
  8
0
  6
Continuous
 62
     1
370
    15
100
AcDbLine
 10
22.5401975155811
 20
9.524999999999999
 30
0.0
 11
14.33827943752256
 21
9.524999999999999
 31
0.0
  0
LINE
  5
9D
330
1F
100
AcDbEntity
  8
0
  6
Continuous
 62
     1
370
    15
100
AcDbLine
 10
27.57435508592538
 20
-9.525000000000002
 30
0.0
 11
35.77634038882428
 21
-9.525000000000002
 31
0.0
  0
LINE
  5
9E
330
1F
100
AcDbEntity
  8
0
  6
Continuous
 62
     1
370
    15
100
AcDbLine
 10
75.48601451622142
 20
9.524999999999999
 30
0.0
 11
67.28460570126032
 21
9.524999999999999
 31
0.0
  0
SPLINE
  5
A1
330
1F
100
AcDbEntity
  8
0
  6
Continuous
 62
     4
370
    15
100
AcDbSpline
210
0.0
220
0.0
230
1.0
 70
     8
 71
     3
 72
    22
 73
    18
 74
     0
 42
0.000000001
 43
0.00000001
 40
0.0
 40
0.0
 40
0.0
 40
0.0
 40
0.1249999999999999
 40
0.1249999999999999
 40
0.2499999999999999
 40
0.2499999999999999
 40
0.3749999999999999
 40
0.3749999999999999
 40
0.4999999999999999
 40
0.4999999999999999
 40
0.6249999999999999
 40
0.6249999999999999
 40
0.75
 40
0.75
 40
0.875
 40
0.875
 40
1.0
 40
1.0
 40
1.0
 40
1.0
 10
8.950015539887875
 20
9.35880324857975
 30
0.0
 10
8.950015539887875
 20
9.396195053147855
 30
0.0
 10
8.966735247736844
 20
9.426798996241311
 30
0.0
 10
9.037034139559513
 20
9.475392789762228
 30
0.0
 10
9.091585484080957
 20
9.493484711599093
 30
0.0
 10
9.23792618386532
 20
9.51727950893496
 30
0.0
 10
9.32899102313037
 20
9.523166621841774
 30
0.0
 10
9.548124745042436
 20
9.526094447137956
 30
0.0
 10
9.677171781623631
 20
9.523015878144658
 30
0.0
 10
9.960827246269881
 20
9.511975819851124
 30
0.0
 10
10.11708378963975
 20
9.504030127792571
 30
0.0
 10
10.45706156854209
 20
9.487152121798548
 30
0.0
 10
10.63550633520393
 20
9.47851609733369
 30
0.0
 10
11.00869403221715
 20
9.463921075709969
 30
0.0
 10
11.2054715961484
 20
9.457945442313902
 30
0.0
 10
11.60004265711485
 20
9.451075864106238
 30
0.0
 10
11.79910537425643
 20
9.450087194450681
 30
0.0
 10
12.00000000000001
 20
9.451768889547921
 30
0.0
  0
LINE
  5
A2
330
1F
100
AcDbEntity
  8
0
  6
Continuous
 62
     4
370
    15
100
AcDbLine
 10
8.950015539887875
 20
9.358803248579752
 30
0.0
 11
8.950015539887875
 21
6.22823096218324
 31
0.0
  0
SPLINE
  5
A3
330
1F
100
AcDbEntity
  8
0
  6
Continuous
 62
     4
370
    15
100
AcDbSpline
210
0.0
220
0.0
230
1.0
 70
     8
 71
     3
 72
    14
 73
    10
 74
     0
 42
0.000000001
 43
0.00000001
 40
0.0
 40
0.0
 40
0.0
 40
0.0
 40
0.25
 40
0.25
 40
0.5
 40
0.5
 40
0.75
 40
0.75
 40
1.0
 40
1.0
 40
1.0
 40
1.0
 10
10.09353923816246
 20
4.238193492626858
 30
0.0
 10
9.908774646228736
 20
4.3632147270365
 30
0.0
 10
9.744778761156498
 20
4.504371236268498
 30
0.0
 10
9.456801609716555
 20
4.81493196913175
 30
0.0
 10
9.33328747975446
 20
4.985258777185203
 30
0.0
 10
9.139560747426366
 20
5.332916305983564
 30
0.0
 10
9.066681980774764
 20
5.514543221240365
 30
0.0
 10
8.972106474145203
 20
5.875219112964109
 30
0.0
 10
8.95001553988538
 20
6.053247306811966
 30
0.0
 10
8.950015539885323
 20
6.228230962182711
 30
0.0
  0
SPLINE
  5
A4
330
1F
100
AcDbEntity
  8
0
  6
Continuous
 62
     4
370
    15
100
AcDbSpline
210
0.0
220
0.0
230
1.0
 70
     8
 71
     3
 72
     8
 73
     4
 74
     0
 42
0.000000001
 43
0.00000001
 40
0.0
 40
0.0
 40
0.0
 40
0.0
 40
1.0
 40
1.0
 40
1.0
 40
1.0
 10
12.0
 20
2.908754371047962
 30
0.0
 10
11.36428828830374
 20
3.36468157994215
 30
0.0
 10
10.72622866953872
 20
3.810083253101269
 30
0.0
 10
10.09353923816246
 20
4.238193492626857
 30
0.0
  0
LINE
  5
A5
330
1F
100
AcDbEntity
  8
0
  6
Continuous
 62
     4
370
    15
100
AcDbLine
 10
12.00000000000002
 20
2.908754371047951
 30
0.0
 11
12.00000000000002
 21
-3.704969465977751
 31
0.0
  0
SPLINE
  5
A6
330
1F
100
AcDbEntity
  8
0
  6
Continuous
 62
     4
370
    15
100
AcDbSpline
210
0.0
220
0.0
230
1.0
 70
     8
 71
     3
 72
    22
 73
    18
 74
     0
 42
0.000000001
 43
0.00000001
 40
0.0
 40
0.0
 40
0.0
 40
0.0
 40
0.1249999999999999
 40
0.1249999999999999
 40
0.2499999999999999
 40
0.2499999999999999
 40
0.3749999999999999
 40
0.3749999999999999
 40
0.4999999999999999
 40
0.4999999999999999
 40
0.6249999999999999
 40
0.6249999999999999
 40
0.7499999999999999
 40
0.7499999999999999
 40
0.8749999999999999
 40
0.8749999999999999
 40
1.0
 40
1.0
 40
1.0
 40
1.0
 10
8.950015539887875
 20
-6.213618058102234
 30
0.0
 10
8.950015539887875
 20
-6.061244937292519
 30
0.0
 10
8.966735247736844
 20
-5.906905757500739
 30
0.0
 10
9.037034139559513
 20
-5.59534450898329
 30
0.0
 10
9.091585484080955
 20
-5.436182949939364
 30
0.0
 10
9.23792618386532
 20
-5.127503376253684
 30
0.0
 10
9.328991023130369
 20
-4.97817163589067
 30
0.0
 10
9.548124745042433
 20
-4.691767344292249
 30
0.0
 10
9.677171781623631
 20
-4.554494514579022
 30
0.0
 10
9.960827246269881
 20
-4.30825459489018
 30
0.0
 10
10.11708378963975
 20
-4.19709137285927
 30
0.0
 10
10.45706156854209
 20
-4.00307604823501
 30
0.0
 10
10.63550633520393
 20
-3.92312997509939
 30
0.0
 10
11.00869403221715
 20
-3.797394332294922
 30
0.0
 10
11.2054715961484
 20
-3.751593674230418
 30
0.0
 10
11.60004265711485
 20
-3.699529865860624
 30
0.0
 10
11.79910537425643
 20
-3.692451598012207
 30
0.0
 10
12.00000000000001
 20
-3.704969465977753
 30
0.0
  0
LINE
  5
A7
330
1F
100
AcDbEntity
  8
0
  6
Continuous
 62
     4
370
    15
100
AcDbLine
 10
8.950015539887875
 20
-6.213618058102233
 30
0.0
 11
8.950015539887875
 21
-9.355194959937942
 31
0.0
  0
SPLINE
  5
A8
330
1F
100
AcDbEntity
  8
0
  6
Continuous
 62
     4
370
    15
100
AcDbSpline
210
0.0
220
0.0
230
1.0
 70
     8
 71
     3
 72
    14
 73
    10
 74
     0
 42
0.000000001
 43
0.00000001
 40
0.0
 40
0.0
 40
0.0
 40
0.0
 40
0.25
 40
0.25
 40
0.5
 40
0.5
 40
0.75
 40
0.75
 40
1.0
 40
1.0
 40
1.0
 40
1.0
 10
10.09353923816246
 20
-9.506417349163383
 30
0.0
 10
9.908774646228734
 20
-9.515133342044871
 30
0.0
 10
9.7447787611565
 20
-9.522053016987122
 30
0.0
 10
9.456801609716555
 20
-9.526476784668008
 30
0.0
 10
9.33328747975445
 20
-9.523752054672443
 30
0.0
 10
9.139560747426355
 20
-9.503584194474366
 30
0.0
 10
9.066681980774764
 20
-9.485907425028312
 30
0.0
 10
8.972106474145203
 20
-9.433264289311357
 30
0.0
 10
8.95001553988538
 20
-9.398670694508937
 30
0.0
 10
8.950015539885325
 20
-9.355194959938071
 30
0.0
  0
SPLINE
  5
A9
330
1F
100
AcDbEntity
  8
0
  6
Continuous
 62
     4
370
    15
100
AcDbSpline
210
0.0
220
0.0
230
1.0
 70
     8
 71
     3
 72
     8
 73
     4
 74
     0
 42
0.000000001
 43
0.00000001
 40
0.0
 40
0.0
 40
0.0
 40
0.0
 40
1.0
 40
1.0
 40
1.0
 40
1.0
 10
12.0
 20
-9.30922153513918
 30
0.0
 10
11.36428828830374
 20
-9.410558162393315
 30
0.0
 10
10.72622866953872
 20
-9.476571172889281
 30
0.0
 10
10.09353923816246
 20
-9.506417349163385
 30
0.0
  0
LINE
  5
AA
330
1F
100
AcDbEntity
  8
0
  6
Continuous
 62
     4
370
    15
100
AcDbLine
 10
-57.34999999999999
 20
9.524999999999995
 30
0.0
 11
-57.34999999999999
 21
-9.525000000000002
 31
0.0
  0
LINE
  5
AB
330
1F
100
AcDbEntity
  8
0
  6
Continuous
 62
     4
370
    15
100
AcDbLine
 10
-57.84999999999999
 20
9.024999999999995
 30
0.0
 11
-57.84999999999999
 21
-9.024999999999999
 31
0.0
  0
SPLINE
  5
AC
330
1F
100
AcDbEntity
  8
0
  6
Continuous
 62
     1
370
    15
100
AcDbSpline
210
0.0
220
0.0
230
1.0
 70
    24
 71
     3
 72
    11
 73
     7
 74
     0
 42
0.000000001
 43
0.00000001
 40
0.0
 40
0.0
 40
0.0
 40
0.0
 40
0.2675778521619135
 40
0.5420701724842553
 40
0.8247671281681419
 40
1.0
 40
1.0
 40
1.0
 40
1.0
 10
12.00000000000002
 20
4.396564626512994
 30
0.0
 10
12.00000000000002
 20
4.133769710071099
 30
0.0
 10
12.00000000000002
 20
3.6013890046701
 30
0.0
 10
12.00000000000002
 20
3.078132273628914
 30
0.0
 10
12.00000000000002
 20
2.778552478782632
 30
0.0
 10
12.00000000000002
 20
2.779592214440349
 30
0.0
 10
12.00000000000002
 20
2.77999008296583
 30
0.0
  0
LINE
  5
AD
330
1F
100
AcDbEntity
  8
0
  6
Continuous
 62
     1
370
    15
100
AcDbLine
 10
12.00000000000001
 20
-3.810823721773545
 30
0.0
 11
12.00000000000001
 21
-3.894912358379456
 31
0.0
  0
SPLINE
  5
AE
330
1F
100
AcDbEntity
  8
0
  6
Continuous
 62
     4
370
    15
100
AcDbSpline
210
0.0
220
0.0
230
1.0
 70
    24
 71
     3
 72
    16
 73
    12
 74
     0
 42
0.000000001
 43
0.00000001
 40
0.0
 40
0.0
 40
0.0
 40
0.0
 40
0.2499999999999999
 40
0.2499999999999999
 40
0.3749999999999999
 40
0.3749999999999999
 40
0.4999999999999999
 40
0.4999999999999999
 40
0.7499999999999999
 40
0.7499999999999999
 40
1.0
 40
1.0
 40
1.0
 40
1.0
 10
12.00000000000001
 20
9.451768889547987
 30
0.0
 10
12.00000000000001
 20
8.948055053407797
 30
0.0
 10
12.00000000000001
 20
8.459202366492933
 30
0.0
 10
12.00000000000001
 20
7.748832606852922
 30
0.0
 10
12.00000000000001
 20
7.515884589952331
 30
0.0
 10
12.00000000000001
 20
7.058114922669342
 30
0.0
 10
12.00000000000001
 20
6.832343876068758
 30
0.0
 10
12.00000000000001
 20
6.175051872963119
 30
0.0
 10
12.00000000000001
 20
5.768705036281641
 30
0.0
 10
12.00000000000001
 20
5.024703241825362
 30
0.0
 10
12.00000000000002
 20
4.685668215019224
 30
0.0
 10
12.00000000000001
 20
4.396564626512928
 30
0.0
  0
SPLINE
  5
AF
330
1F
100
AcDbEntity
  8
0
  6
Continuous
 62
     4
370
    15
100
AcDbSpline
210
0.0
220
0.0
230
1.0
 70
    24
 71
     3
 72
    14
 73
    10
 74
     0
 42
0.000000001
 43
0.00000001
 40
0.0
 40
0.0
 40
0.0
 40
0.0
 40
0.25
 40
0.25
 40
0.5
 40
0.5
 40
0.75
 40
0.75
 40
1.0
 40
1.0
 40
1.0
 40
1.0
 10
12.00000000000002
 20
-3.894912358379621
 30
0.0
 10
12.00000000000002
 20
-4.135034947938474
 30
0.0
 10
12.00000000000002
 20
-4.428245210403096
 30
0.0
 10
12.00000000000002
 20
-5.127750887937881
 30
0.0
 10
12.00000000000002
 20
-5.534187945091591
 30
0.0
 10
12.00000000000002
 20
-6.454630295753262
 30
0.0
 10
12.00000000000002
 20
-6.968665056142086
 30
0.0
 10
12.00000000000002
 20
-8.08312605932425
 30
0.0
 10
12.00000000000002
 20
-8.683413610021232
 30
0.0
 10
12.00000000000002
 20
-9.309221535139189
 30
0.0
  0
SPLINE
  5
B1
330
1F
100
AcDbEntity
  8
0
  6
Continuous
 62
     1
370
    15
100
AcDbSpline
210
0.0
220
0.0
230
1.0
 70
     8
 71
     3
 72
    27
 73
    23
 74
     0
 42
0.000000001
 43
0.00000001
 40
0.0
 40
0.0
 40
0.0
 40
0.0
 40
0.0505737357796519
 40
0.1011471878159948
 40
0.1517230705254522
 40
0.2023040937323118
 40
0.2528929575589154
 40
0.3025929244446312
 40
0.3522881288804108
 40
0.4019706953177167
 40
0.451644777970254
 40
0.5060981830893267
 40
0.5605513308286957
 40
0.6150043211660632
 40
0.6694572541124233
 40
0.7239102296909097
 40
0.7773903374345609
 40
0.8308711069243747
 40
0.8843528773246788
 40
0.937835987323079
 40
0.9922920682887243
 40
1.0
 40
1.0
 40
1.0
 40
1.0
 10
93.02600000000001
 20
-9.525000000000002
 30
0.0
 10
92.28413122473575
 20
-9.525000000000002
 30
0.0
 10
90.80039783645265
 20
-9.525000000000002
 30
0.0
 10
88.5747789462828
 20
-9.525000000000002
 30
0.0
 10
86.34901795847185
 20
-9.406689516892188
 30
0.0
 10
84.12295243396736
 20
-8.946667091666773
 30
0.0
 10
81.909653568198
 20
-8.215535757425421
 30
0.0
 10
79.70910753727196
 20
-7.239739110288173
 30
0.0
 10
77.52197483799017
 20
-6.053749798160854
 30
0.0
 10
75.33539517972906
 20
-4.687036428411374
 30
0.0
 10
73.07927296167094
 20
-3.132198988274081
 30
0.0
 10
70.75265351464256
 20
-1.423178602946307
 30
0.0
 10
68.356076224204
 20
0.3883580073114254
 30
0.0
 10
65.95946503105395
 20
2.185961361988185
 30
0.0
 10
63.56287691153877
 20
3.905251969353435
 30
0.0
 10
61.18052533592749
 20
5.474979056894861
 30
0.0
 10
58.81255576420778
 20
6.843419594564303
 30
0.0
 10
56.45879336597157
 20
7.964675190480321
 30
0.0
 10
54.10497588725131
 20
8.8190958605324
 30
0.0
 10
51.73685065734443
 20
9.339657604430329
 30
0.0
 10
50.04017475499096
 20
9.564699069408363
 30
0.0
 10
49.1281609109091
 20
9.510903090372885
 30
0.0
 10
49.01507714866138
 20
9.50423274019936
 30
0.0
  0
SPLINE
  5
B2
330
1F
100
AcDbEntity
  8
0
  6
Continuous
 62
     1
370
    15
100
AcDbSpline
210
0.0
220
0.0
230
1.0
 70
     8
 71
     3
 72
    10
 73
     6
 74
     0
 42
0.000000001
 43
0.00000001
 40
0.0
 40
0.0
 40
0.0
 40
0.0
 40
0.2874842879163506
 40
0.6437342270779992
 40
1.0
 40
1.0
 40
1.0
 40
1.0
 10
18.43796379321832
 20
-7.125456777555081
 30
0.0
 10
17.82103301703223
 20
-7.424937986694553
 30
0.0
 10
16.43960289002528
 20
-8.095535695136544
 30
0.0
 10
14.29362548764816
 20
-8.850600774959952
 30
0.0
 10
12.76455315573347
 20
-9.156345683624533
 30
0.0
 10
12.0
 20
-9.30922153513918
 30
0.0
  0
SPLINE
  5
B3
330
1F
100
AcDbEntity
  8
0
  6
Continuous
 62
     4
370
    15
100
AcDbSpline
210
0.0
220
0.0
230
1.0
 70
    24
 71
     3
 72
    13
 73
     9
 74
     0
 42
0.000000001
 43
0.00000001
 40
0.0
 40
0.0
 40
0.0
 40
0.0
 40
0.0033331128014777
 40
0.2101780156478348
 40
0.4230214346894048
 40
0.6298663375357617
 40
0.8427097565773326
 40
1.0
 40
1.0
 40
1.0
 40
1.0
 10
12.00000000000002
 20
-3.810833721773546
 30
0.0
 10
12.00000000000002
 20
-3.813702125512378
 30
0.0
 10
12.00000000000003
 20
-3.994576713866359
 30
0.0
 10
12.00000000000002
 20
-4.58828693748883
 30
0.0
 10
12.00000000000002
 20
-5.576227437647693
 30
0.0
 10
12.00000000000002
 20
-6.802500748581965
 30
0.0
 10
12.00000000000002
 20
-8.056766967506366
 30
0.0
 10
12.00000000000002
 20
-8.93571005486692
 30
0.0
 10
12.00000000000002
 20
-9.309221535139185
 30
0.0
  0
SPLINE
  5
B4
330
1F
100
AcDbEntity
  8
0
  6
Continuous
 62
     1
370
    15
100
AcDbSpline
210
0.0
220
0.0
230
1.0
 70
     8
 71
     3
 72
    14
 73
    10
 74
     0
 42
0.000000001
 43
0.00000001
 40
0.0
 40
0.0
 40
0.0
 40
0.0
 40
0.1472695680178786
 40
0.2945325908348865
 40
0.4417921135129566
 40
0.5890511847052438
 40
0.7363128535282557
 40
0.8835801664329618
 40
1.0
 40
1.0
 40
1.0
 40
1.0
 10
12.0
 20
-3.163782464288249
 30
0.0
 10
12.76455319264265
 20
-3.697170629039
 30
0.0
 10
14.29362559837407
 20
-4.763923252810071
 30
0.0
 10
16.58715381008707
 20
-6.179964078671777
 30
0.0
 10
18.88061368924108
 20
-7.399810325004381
 30
0.0
 10
21.17406294251859
 20
-8.377216658846857
 30
0.0
 10
23.46756742371341
 20
-9.07047315877739
 30
0.0
 10
25.60099292960544
 20
-9.471382639736674
 30
0.0
 10
26.96995025815079
 20
-9.490582919419712
 30
0.0
 10
27.57435508592538
 20
-9.49905998549991
 30
0.0
  0
SPLINE
  5
B5
330
1F
100
AcDbEntity
  8
0
  6
Continuous
 62
     1
370
    15
100
AcDbSpline
210
0.0
220
0.0
230
1.0
 70
     8
 71
     3
 72
    23
 73
    19
 74
     0
 42
0.000000001
 43
0.00000001
 40
0.0
 40
0.0
 40
0.0
 40
0.0
 40
0.0226331907148503
 40
0.0913526031258944
 40
0.1600715816797792
 40
0.2275621512116024
 40
0.2950524539865818
 40
0.3625429186336586
 40
0.4300339737046162
 40
0.4938612039561568
 40
0.5576959234619724
 40
0.6215415349054761
 40
0.6853995582938925
 40
0.7492494838509359
 40
0.8119480181288259
 40
0.8746357671973224
 40
0.9373180001622644
 40
0.9999999999999999
 40
0.9999999999999999
 40
0.9999999999999999
 40
0.9999999999999999
 10
58.15185681820223
 20
7.117022023861972
 30
0.0
 10
58.4149741701731
 20
7.255810593787158
 30
0.0
 10
59.47697445696254
 20
7.815992200813829
 30
0.0
 10
61.33783919037547
 20
8.53002134253102
 30
0.0
 10
63.72021185044085
 20
9.205655409281254
 30
0.0
 10
66.08816770500218
 20
9.536552174892513
 30
0.0
 10
68.44187713352193
 20
9.540286254147482
 30
0.0
 10
70.7955616046523
 20
9.21289011449786
 30
0.0
 10
73.10676046880133
 20
8.578913738730227
 30
0.0
 10
75.37515664926406
 20
7.678780329449617
 30
0.0
 10
77.601356077146
 20
6.557986656929731
 30
0.0
 10
79.82799536519434
 20
5.234180894265263
 30
0.0
 10
82.05503225373326
 20
3.748508751594994
 30
0.0
 10
84.26859414776229
 20
2.156423814364585
 30
0.0
 10
86.4683547498004
 20
0.5082885447901369
 30
0.0
 10
88.65442695399418
 20
-1.142574288774961
 30
0.0
 10
90.8402405287517
 20
-2.768437407519511
 30
0.0
 10
92.29741441283699
 20
-3.774429855897175
 30
0.0
 10
93.02600000000004
 20
-4.277425144714713
 30
0.0
  0
SPLINE
  5
B6
330
1F
100
AcDbEntity
  8
0
  6
Continuous
 62
     1
370
    15
100
AcDbSpline
210
0.0
220
0.0
230
1.0
 70
     8
 71
     3
 72
    18
 73
    14
 74
     0
 42
0.000000001
 43
0.00000001
 40
0.0
 40
0.0
 40
0.0
 40
0.0
 40
0.2499999999999949
 40
0.2499999999999949
 40
0.4999999999999898
 40
0.4999999999999898
 40
0.6249999999999923
 40
0.6249999999999923
 40
0.7499999999999949
 40
0.7499999999999949
 40
0.8749999999999974
 40
0.8749999999999974
 40
1.0
 40
1.0
 40
1.0
 40
1.0
 10
93.02600000000001
 20
-4.277425144714686
 30
0.0
 10
93.21535091230692
 20
-4.404741604728815
 30
0.0
 10
93.39746409129668
 20
-4.514072217920184
 30
0.0
 10
93.75028461683817
 20
-4.693262311421907
 30
0.0
 10
93.91468530266624
 20
-4.75945776591896
 30
0.0
 10
94.13202104180567
 20
-4.81746088385608
 30
0.0
 10
94.19968780521106
 20
-4.829806434216804
 30
0.0
 10
94.31837458554526
 20
-4.839533877161528
 30
0.0
 10
94.37029807103761
 20
-4.837191575079832
 30
0.0
 10
94.45716956656656
 20
-4.818066729613698
 30
0.0
 10
94.49160212303076
 20
-4.801117077101483
 30
0.0
 10
94.5376915850766
 20
-4.755211340255316
 30
0.0
 10
94.55000000000004
 20
-4.726174176532399
 30
0.0
 10
94.55000000000001
 20
-4.691414562931038
 30
0.0
  0
SPLINE
  5
B7
330
1F
100
AcDbEntity
  8
0
  6
Continuous
 62
     1
370
    15
100
AcDbSpline
210
0.0
220
0.0
230
1.0
 70
     8
 71
     3
 72
    11
 73
     7
 74
     0
 42
0.000000001
 43
0.00000001
 40
0.0
 40
0.0
 40
0.0
 40
0.0
 40
0.2079431967446759
 40
0.5701063153935928
 40
0.9411586256689108
 40
1.0
 40
1.0
 40
1.0
 40
1.0
 10
92.97763342503072
 20
-4.243603316460015
 30
0.0
 10
92.87682625466738
 20
-4.267751782248895
 30
0.0
 10
92.60044883352154
 20
-4.333958289933829
 30
0.0
 10
92.0904245059291
 20
-4.542667808573945
 30
0.0
 10
91.6511154150732
 20
-4.755837261625128
 30
0.0
 10
91.40960214634939
 20
-4.887648436705075
 30
0.0
 10
91.37654519957445
 20
-4.905689992028226
 30
0.0
  0
SPLINE
  5
B8
330
1F
100
AcDbEntity
  8
0
  6
Continuous
 62
     1
370
    15
100
AcDbSpline
210
0.0
220
0.0
230
1.0
 70
     8
 71
     3
 72
     8
 73
     4
 74
     0
 42
0.000000001
 43
0.00000001
 40
0.0
 40
0.0
 40
0.0
 40
0.0
 40
1.0
 40
1.0
 40
1.0
 40
1.0
 10
94.55000000000001
 20
-5.568392862373729
 30
0.0
 10
93.45888231960944
 20
-5.493565819759854
 30
0.0
 10
92.40028603980758
 20
-5.276077758009537
 30
0.0
 10
91.37654519957212
 20
-4.905689992034024
 30
0.0
  0
LINE
  5
B9
330
1F
100
AcDbEntity
  8
0
  6
Continuous
 62
     1
370
    15
100
AcDbLine
 10
94.55000000000001
 20
-8.001000000000003
 30
0.0
 11
94.55000000000001
 21
-5.568392862373742
 31
0.0
  0
SPLINE
  5
BA
330
1F
100
AcDbEntity
  8
0
  6
Continuous
 62
     1
370
    15
100
AcDbSpline
210
0.0
220
0.0
230
1.0
 70
     8
 71
     3
 72
    29
 73
    25
 74
     0
 42
0.000000001
 43
0.00000001
 40
0.0
 40
0.0
 40
0.0
 40
0.0
 40
0.012946725111106
 40
0.0620127019150872
 40
0.1110785368891968
 40
0.1601443201501189
 40
0.2092101418254762
 40
0.2573993436432299
 40
0.3055891417391274
 40
0.3537798417232157
 40
0.4019717487759832
 40
0.4510403686156458
 40
0.5001097470997193
 40
0.5491799735965738
 40
0.5982511372958558
 40
0.6473233271898542
 40
0.6955239562538701
 40
0.7437264428567638
 40
0.7919266947197386
 40
0.840124470506109
 40
0.8870907666318357
 40
0.9340533266620197
 40
0.9810131173487704
 40
0.9999999999999999
 40
0.9999999999999999
 40
0.9999999999999999
 40
0.9999999999999999
 10
71.38505446532946
 20
-7.119679496271216
 30
0.0
 10
71.17426152165126
 20
-7.231907563637092
 30
0.0
 10
70.16459769779311
 20
-7.769461704034839
 30
0.0
 10
68.35606966563171
 20
-8.473595935841692
 30
0.0
 10
65.95946678845968
 20
-9.175912652710304
 30
0.0
 10
63.56287644047198
 20
-9.529762117744484
 30
0.0
 10
61.18052545922723
 20
-9.54714344202609
 30
0.0
 10
58.8125557329334
 20
-9.227919585213504
 30
0.0
 10
56.45879336869952
 20
-8.591887676096553
 30
0.0
 10
54.10497590761533
 20
-7.658633939790424
 30
0.0
 10
51.73685057252388
 20
-6.453312239481054
 30
0.0
 10
49.3543137723079
 20
-5.012490097992946
 30
0.0
 10
46.95749040423439
 20
-3.38335049428212
 30
0.0
 10
44.56060518727872
 20
-1.632907240806726
 30
0.0
 10
42.16366264745383
 20
0.1760809068586123
 30
0.0
 10
39.7808583258114
 20
1.968116035414054
 30
0.0
 10
37.4121969356752
 20
3.679909873689246
 30
0.0
 10
35.05767362339488
 20
5.254040136775369
 30
0.0
 10
32.70326085060167
 20
6.646860309797598
 30
0.0
 10
30.36898669886713
 20
7.798459819063688
 30
0.0
 10
28.05498446039786
 20
8.683265446157543
 30
0.0
 10
25.76118565952003
 20
9.255970670382649
 30
0.0
 10
23.9229510884895
 20
9.529016911635406
 30
0.0
 10
22.84931185229526
 20
9.496592130135353
 30
0.0
 10
22.54019751558108
 20
9.487256624791844
 30
0.0
  0
SPLINE
  5
BB
330
1F
100
AcDbEntity
  8
0
  6
Continuous
 62
     1
370
    15
100
AcDbSpline
210
0.0
220
0.0
230
1.0
 70
     8
 71
     3
 72
    29
 73
    25
 74
     0
 42
0.000000001
 43
0.00000001
 40
0.0
 40
0.0
 40
0.0
 40
0.0
 40
0.0219032560050769
 40
0.0709760277079246
 40
0.1200499394541175
 40
0.1691250558439867
 40
0.2181998550510188
 40
0.2663998991004567
 40
0.3145975225313021
 40
0.3627930273642557
 40
0.4109867166254063
 40
0.4600549427919831
 40
0.5091225895088625
 40
0.5581897465685001
 40
0.6072565038668029
 40
0.6563229513841691
 40
0.7045122952530347
 40
0.7527014486532561
 40
0.8008907176327387
 40
0.849080408184296
 40
0.894654069336147
 40
0.940233077935087
 40
0.9858198635513836
 40
1.0
 40
1.0
 40
1.0
 40
1.0
 10
31.67602889762886
 20
7.112668020788543
 30
0.0
 10
32.03265790324735
 20
7.297495298227036
 30
0.0
 10
33.1882902064246
 20
7.896415657903883
 30
0.0
 10
35.14296173772803
 20
8.62582357839807
 30
0.0
 10
37.5400624559014
 20
9.265667576895153
 30
0.0
 10
39.93722180505332
 20
9.558702279747887
 30
0.0
 10
42.32014943947526
 20
9.513233104092134
 30
0.0
 10
44.68874734578029
 20
9.133050416206476
 30
0.0
 10
47.0429889859078
 20
8.439563761427523
 30
0.0
 10
49.39710102319245
 20
7.454139520902314
 30
0.0
 10
51.76533412877416
 20
6.203445035795353
 30
0.0
 10
54.14783897282442
 20
4.725815701857344
 30
0.0
 10
56.54453339507928
 20
3.069959411456852
 30
0.0
 10
58.94120471198746
 20
1.304061611778293
 30
0.0
 10
61.33783959871508
 20
-0.5085775270789118
 30
0.0
 10
63.72021174439141
 20
-2.292281877138978
 30
0.0
 10
66.08816772885896
 20
-3.984489392519453
 30
0.0
 10
68.4418771433603
 20
-5.528595669312074
 30
0.0
 10
70.79556154144149
 20
-6.881971744896693
 30
0.0
 10
73.10676070626738
 20
-7.975550618890495
 30
0.0
 10
75.3751558146935
 20
-8.795581528800792
 30
0.0
 10
77.6013591987111
 20
-9.306886388298974
 30
0.0
 10
79.31650513265751
 20
-9.54013084838878
 30
0.0
 10
80.28965868684318
 20
-9.502332862531432
 30
0.0
 10
80.52054643724165
 20
-9.493365015795778
 30
0.0
  0
SPLINE
  5
BC
330
1F
100
AcDbEntity
  8
0
  6
Continuous
 62
     1
370
    15
100
AcDbSpline
210
0.0
220
0.0
230
1.0
 70
     8
 71
     3
 72
    20
 73
    16
 74
     0
 42
0.000000001
 43
0.00000001
 40
0.0
 40
0.0
 40
0.0
 40
0.0
 40
0.1250000000000016
 40
0.1250000000000016
 40
0.2500000000000032
 40
0.2500000000000032
 40
0.3750000000000048
 40
0.3750000000000048
 40
0.5000000000000064
 40
0.5000000000000064
 40
0.625000000000008
 40
0.625000000000008
 40
0.7500000000000097
 40
0.7500000000000097
 40
1.0
 40
1.0
 40
1.0
 40
1.0
 10
94.55000000000001
 20
0.8222580788888424
 30
0.0
 10
94.55000000000004
 20
0.7973734137908458
 30
0.0
 10
94.53936182526473
 20
0.7810613054643665
 30
0.0
 10
94.49422369973226
 20
0.7689857811245053
 30
0.0
 10
94.45976203246369
 20
0.7736751470878118
 30
0.0
 10
94.37000353136844
 20
0.8047239840756345
 30
0.0
 10
94.3138280504293
 20
0.8314711697222864
 30
0.0
 10
94.18774031219252
 20
0.9018600396842694
 30
0.0
 10
94.11634830275491
 20
0.9462473583519184
 30
0.0
 10
93.96595907185704
 20
1.045677717657612
 30
0.0
 10
93.88558205352902
 20
1.101576553462204
 30
0.0
 10
93.72077490371606
 20
1.219361193883302
 30
0.0
 10
93.6367530333392
 20
1.280912518199654
 30
0.0
 10
93.37954272421331
 20
1.471227278259596
 30
0.0
 10
93.20204681468465
 20
1.604957164905563
 30
0.0
 10
93.02600000000004
 20
1.73522114011007
 30
0.0
  0
SPLINE
  5
BD
330
1F
100
AcDbEntity
  8
0
  6
Continuous
 62
     1
370
    15
100
AcDbSpline
210
0.0
220
0.0
230
1.0
 70
     8
 71
     3
 72
    15
 73
    11
 74
     0
 42
0.000000001
 43
0.00000001
 40
0.0
 40
0.0
 40
0.0
 40
0.0
 40
0.1268954793628355
 40
0.2537902467801787
 40
0.3806911130435999
 40
0.5076048774224541
 40
0.6345383148427713
 40
0.7592414047975664
 40
0.8839325452026937
 40
1.0
 40
1.0
 40
1.0
 40
1.0
 10
93.02600000000004
 20
1.735221140110055
 30
0.0
 10
92.28413122323204
 20
2.27980578712064
 30
0.0
 10
90.80039783194152
 20
3.368972025756493
 30
0.0
 10
88.57477896432763
 20
4.884135259531938
 30
0.0
 10
86.3490178907972
 20
6.252217791767462
 30
0.0
 10
84.12295268666401
 20
7.42542082609246
 30
0.0
 10
81.90965263194354
 20
8.365422828932024
 30
0.0
 10
79.70911096299261
 20
9.039473101460917
 30
0.0
 10
77.57220064123507
 20
9.45405817123944
 30
0.0
 10
76.16460374412102
 20
9.495766502513044
 30
0.0
 10
75.48601451622142
 20
9.515873696819854
 30
0.0
  0
SPLINE
  5
BE
330
1F
100
AcDbEntity
  8
0
  6
Continuous
 62
     1
370
    15
100
AcDbSpline
210
0.0
220
0.0
230
1.0
 70
     8
 71
     3
 72
    22
 73
    18
 74
     0
 42
0.000000001
 43
0.00000001
 40
0.0
 40
0.0
 40
0.0
 40
0.0
 40
0.0105766216881598
 40
0.083409459241021
 40
0.1562438199017004
 40
0.2277845848217825
 40
0.2993281067546829
 40
0.370868311822092
 40
0.4424048418251353
 40
0.5121135741704144
 40
0.5818167612948503
 40
0.6515158380798283
 40
0.7212122436183795
 40
0.790907419743154
 40
0.8606028095483552
 40
0.9302998559088894
 40
1.0
 40
1.0
 40
1.0
 40
1.0
 10
44.9086950518458
 20
-7.130677198806755
 30
0.0
 10
44.79266957879037
 20
-7.19336553959609
 30
0.0
 10
43.8776683382174
 20
-7.687738956753351
 30
0.0
 10
42.16366175990088
 20
-8.370336918259014
 30
0.0
 10
39.78085855864239
 20
-9.10859172908536
 30
0.0
 10
37.41219687482598
 20
-9.499154859436999
 30
0.0
 10
35.05767363570927
 20
-9.565002446707366
 30
0.0
 10
32.70326086219038
 20
-9.298383138544796
 30
0.0
 10
30.36898664080054
 20
-8.71559757911953
 30
0.0
 10
28.05498467484202
 20
-7.84543935256798
 30
0.0
 10
25.76118485753804
 20
-6.725181636618541
 30
0.0
 10
23.46756653992883
 20
-5.384045185719357
 30
0.0
 10
21.17406317931358
 20
-3.866250374712682
 30
0.0
 10
18.88061362581416
 20
-2.221007255773826
 30
0.0
 10
16.58715382700137
 20
-0.5046632829459483
 30
0.0
 10
14.29362559414523
 20
1.235134378924986
 30
0.0
 10
12.76455319123302
 20
2.350872775570797
 30
0.0
 10
12.0
 20
2.908754371047962
 30
0.0
  0
SPLINE
  5
BF
330
1F
100
AcDbEntity
  8
0
  6
Continuous
 62
     4
370
    15
100
AcDbSpline
210
0.0
220
0.0
230
1.0
 70
    24
 71
     3
 72
    15
 73
    11
 74
     0
 42
0.000000001
 43
0.00000001
 40
0.0
 40
0.0
 40
0.0
 40
0.0
 40
0.119936259196325
 40
0.2427430560670163
 40
0.3741926090706634
 40
0.5094542080164415
 40
0.6409037610200887
 40
0.7761653599658666
 40
0.9076149129695137
 40
0.9999999999999999
 40
0.9999999999999999
 40
0.9999999999999999
 40
0.9999999999999999
 10
12.00000000000002
 20
9.362448997432967
 30
0.0
 10
12.00000000000002
 20
8.910349191152552
 30
0.0
 10
12.00000000000002
 20
7.99532908497955
 30
0.0
 10
12.00000000000002
 20
6.706468368153904
 30
0.0
 10
12.00000000000002
 20
5.505002962805138
 30
0.0
 10
12.00000000000002
 20
4.469898037012175
 30
0.0
 10
12.00000000000002
 20
3.644625236692772
 30
0.0
 10
12.00000000000002
 20
3.080995144357602
 30
0.0
 10
12.00000000000002
 20
2.772733765311841
 30
0.0
 10
12.00000000000002
 20
2.775370531130195
 30
0.0
 10
12.00000000000002
 20
2.776458824879412
 30
0.0
  0
SPLINE
  5
C0
330
1F
100
AcDbEntity
  8
0
  6
Continuous
 62
     1
370
    15
100
AcDbSpline
210
0.0
220
0.0
230
1.0
 70
     8
 71
     3
 72
    25
 73
    21
 74
     0
 42
0.000000001
 43
0.00000001
 40
0.0
 40
0.0
 40
0.0
 40
0.0
 40
0.0545498120599516
 40
0.1090971997257653
 40
0.1636432909124503
 40
0.2181892148652325
 40
0.2727361010009677
 40
0.3272850777491751
 40
0.3818372713952505
 40
0.436393804928406
 40
0.4933957009807117
 40
0.5503988182629405
 40
0.6074032598238326
 40
0.6644091007033769
 40
0.7214145731421376
 40
0.7774039266801049
 40
0.8333904684183566
 40
0.8893745491852814
 40
0.9453565209771302
 40
1.0
 40
1.0
 40
1.0
 40
1.0
 10
12.0
 20
9.362448997432967
 30
0.0
 10
12.76455319142113
 20
9.438689456300034
 30
0.0
 10
14.29362559470957
 20
9.59116698562797
 30
0.0
 10
16.58715382474418
 20
9.422523160144413
 30
0.0
 10
18.8806136342784
 20
8.966518132577892
 30
0.0
 10
21.17406314771361
 20
8.210141735401528
 30
0.0
 10
23.4675666578687
 20
7.185720856581217
 30
0.0
 10
25.76118441735017
 20
5.924876347493897
 30
0.0
 10
28.05498631780661
 20
4.469505275032357
 30
0.0
 10
30.38320483472308
 20
2.843439161130444
 30
0.0
 10
32.74593807726615
 20
1.094046729688652
 30
0.0
 10
35.14295933251549
 20
-0.7199058871985228
 30
0.0
 10
37.54006310083536
 20
-2.508093070132186
 30
0.0
 10
39.93722163061925
 20
-4.206307474849239
 30
0.0
 10
42.32014949092515
 20
-5.744711302763565
 30
0.0
 10
44.68874731151928
 20
-7.071301168606527
 30
0.0
 10
47.04298907201351
 20
-8.1472785223097
 30
0.0
 10
49.39710071304776
 20
-8.934389858942149
 30
0.0
 10
51.73233609688405
 20
-9.434880622104219
 30
0.0
 10
53.28292791599368
 20
-9.49067658799653
 30
0.0
 10
54.04884327196779
 20
-9.518237024309723
 30
0.0
  0
SPLINE
  5
C1
330
1F
100
AcDbEntity
  8
0
  6
Continuous
 62
     1
370
    15
100
AcDbSpline
210
0.0
220
0.0
230
1.0
 70
     8
 71
     3
 72
    11
 73
     7
 74
     0
 42
0.000000001
 43
0.00000001
 40
0.0
 40
0.0
 40
0.0
 40
0.0
 40
0.2199801054541469
 40
0.4800023127777742
 40
0.740001639882487
 40
1.0
 40
1.0
 40
1.0
 40
1.0
 10
84.61897657156987
 20
7.127254480919055
 30
0.0
 10
85.23547859676299
 20
7.425929187279057
 30
0.0
 10
86.5807020537386
 20
8.077645166435664
 30
0.0
 10
88.65442398715936
 20
8.795671548881854
 30
0.0
 10
90.84024127043
 20
9.332368532423654
 30
0.0
 10
92.29741466006277
 20
9.450159441260716
 30
0.0
 10
93.02600000000001
 20
9.524999999999993
 30
0.0
  0
LINE
  5
C3
330
1F
100
AcDbEntity
  8
0
  6
Continuous
 62
     1
370
    15
100
AcDbLine
 10
94.55000000000001
 20
6.16747526278351
 30
0.0
 11
94.55000000000001
 21
7.95863635629258
 31
0.0
  0
SPLINE
  5
C4
330
1F
100
AcDbEntity
  8
0
  6
Continuous
 62
     1
370
    15
100
AcDbSpline
210
0.0
220
0.0
230
1.0
 70
     8
 71
     3
 72
    18
 73
    14
 74
     0
 42
0.000000001
 43
0.00000001
 40
0.0
 40
0.0
 40
0.0
 40
0.0
 40
0.2499999999999987
 40
0.2499999999999987
 40
0.3749999999999978
 40
0.3749999999999978
 40
0.4999999999999969
 40
0.4999999999999969
 40
0.624999999999996
 40
0.624999999999996
 40
0.7499999999999951
 40
0.7499999999999951
 40
1.0
 40
1.0
 40
1.0
 40
1.0
 10
94.55000000000001
 20
6.167475262783498
 30
0.0
 10
94.4013796212408
 20
5.794600386385741
 30
0.0
 10
94.22186809478706
 20
5.448209991892377
 30
0.0
 10
93.89888471461944
 20
4.97467781456563
 30
0.0
 10
93.78115234346774
 20
4.823443571573645
 30
0.0
 10
93.53209111837592
 20
4.544823148093876
 30
0.0
 10
93.40093987809286
 20
4.417230060201489
 30
0.0
 10
93.1256392619166
 20
4.185047860893226
 30
0.0
 10
92.98149164311442
 20
4.08045563979471
 30
0.0
 10
92.68010603172218
 20
3.894438416321987
 30
0.0
 10
92.5226810562126
 20
3.813209580293537
 30
0.0
 10
92.0453553519551
 20
3.610426227942257
 30
0.0
 10
91.71394241106316
 20
3.526080230648521
 30
0.0
 10
91.37654519957545
 20
3.487962176440246
 30
0.0
  0
SPLINE
  5
C5
330
1F
100
AcDbEntity
  8
0
  6
Continuous
 62
     1
370
    15
100
AcDbSpline
210
0.0
220
0.0
230
1.0
 70
     8
 71
     3
 72
     8
 73
     4
 74
     0
 42
0.000000001
 43
0.00000001
 40
0.0
 40
0.0
 40
0.0
 40
0.0
 40
1.0
 40
1.0
 40
1.0
 40
1.0
 10
94.55000000000001
 20
1.837376426293262
 30
0.0
 10
93.45888231960964
 20
2.469810806430552
 30
0.0
 10
92.40028603980795
 20
3.02192750508148
 30
0.0
 10
91.37654519957263
 20
3.487962176436825
 30
0.0
  0
LINE
  5
C6
330
1F
100
AcDbEntity
  8
0
  6
Continuous
 62
     1
370
    15
100
AcDbLine
 10
94.55000000000001
 20
0.8222580788888498
 30
0.0
 11
94.55000000000001
 21
1.837376426293263
 31
0.0
  0
LINE
  5
C7
330
1F
100
AcDbEntity
  8
0
  6
Continuous
 62
     4
370
    15
100
AcDbLine
 10
12.00000000000002
 20
-3.163782464288261
 30
0.0
 11
12.00000000000002
 21
2.908754371047951
 31
0.0
  0
LINE
  5
C8
330
1F
100
AcDbEntity
  8
0
  6
Continuous
 62
     1
370
    15
100
AcDbLine
 10
94.55000000000001
 20
-4.691414562931036
 30
0.0
 11
94.55000000000001
 21
0.8222580788888498
 31
0.0
  0
LINE
  5
C9
330
1F
100
AcDbEntity
  8
0
  6
Continuous
 62
     1
370
    15
100
AcDbLine
 10
94.55000000000001
 20
1.837376426293262
 30
0.0
 11
94.55000000000001
 21
6.16747526278351
 31
0.0
  0
LINE
  5
CA
330
1F
100
AcDbEntity
  8
0
  6
Continuous
 62
     1
370
    15
100
AcDbLine
 10
94.55000000000001
 20
-4.691414562931037
 30
0.0
 11
94.55000000000001
 21
-5.568392862373729
 31
0.0
  0
LINE
  5
CB
330
1F
100
AcDbEntity
  8
0
  6
Continuous
 62
     1
370
    15
100
AcDbLine
 10
94.55000000000001
 20
7.95863635629258
 30
0.0
 11
94.55000000000001
 21
8.001
 31
0.0
  0
LINE
  5
CC
330
1F
100
AcDbEntity
  8
중심선
100
AcDbLine
 10
-60.85000000000001
 20
-0.0000000000000056
 30
0.0
 11
97.55000000000001
 21
-0.000000000000005
 31
0.0
  0
CIRCLE
  5
CD
330
1F
100
AcDbEntity
  8
외형선
100
AcDbCircle
 10
0.0
 20
0.0
 30
0.0
 40
3.000000000000008
  0
INSERT
  5
CE
330
1F
100
AcDbEntity
  8
0
  6
Continuous
 62
     7
100
AcDbBlockReference
 66
     1
  2
블럭10
 10
2.820657369026303
 20
-39.40982159779592
 30
0.0
  0
ATTRIB
  5
CF
330
CE
100
AcDbEntity
  8
FORMAT
 62
     2
100
AcDbText
 10
-6.360637919714975
 20
-37.33445468496373
 30
0.0
 40
4.233333333333333
  1
E5984048 [ 3 FLUTE ]
 41
0.75
  7
SLDTEXTSTYLE0
 11
-6.360637919714975
 21
-39.4511213516304
 31
0.0
100
AcDbAttribute
  2
AUTOATTR0
 70
     0
 74
     1
  0
SEQEND
  5
D0
330
CE
100
AcDbEntity
  8
0
  6
Continuous
 62
     7
  0
HATCH
  5
D1
330
1F
100
AcDbEntity
  8
중심선
100
AcDbHatch
 10
0.0
 20
0.0
 30
0.0
210
0.0
220
0.0
230
1.0
  2
SOLID
 70
     1
 71
     0
 91
        1
 92
        0
 93
        4
 72
     1
 10
8.535566673407141
 20
-23.16264729615199
 11
5.089291429569858
 21
-23.16264729615199
 72
     1
 10
5.089291429569858
 20
-23.16264729615199
 11
2.961061570365835
 21
-25.69897287672459
 72
     1
 10
2.961061570365835
 20
-25.69897287672459
 11
6.407369899316269
 21
-25.6989334474221
 72
     1
 10
6.407369899316269
 20
-25.6989334474221
 11
8.535566673407141
 21
-23.16264729615199
 97
        0
 75
     0
 76
     1
 98
        1
 10
23.16650925439419
 20
12.63627777512411
  0
HATCH
  5
D2
330
1F
100
AcDbEntity
  8
중심선
100
AcDbHatch
 10
0.0
 20
0.0
 30
0.0
210
0.0
220
0.0
230
1.0
  2
SOLID
 70
     1
 71
     0
 91
        1
 92
        0
 93
        4
 72
     1
 10
13.54833066444309
 20
-23.16264729615202
 11
10.10205542060584
 21
-23.16264729615197
 72
     1
 10
10.10205542060584
 20
-23.16264729615197
 11
5.57091741224842
 21
-28.56264729615201
 72
     1
 10
5.57091741224842
 20
-28.56264729615201
 11
9.017192656085705
 21
-28.56264729615201
 72
     1
 10
9.017192656085705
 20
-28.56264729615201
 11
13.54833066444309
 21
-23.16264729615202
 97
        0
 75
     0
 76
     1
 98
        1
 10
23.16650925439419
 20
12.63627777512411
  0
HATCH
  5
D3
330
1F
100
AcDbEntity
  8
중심선
100
AcDbHatch
 10
0.0
 20
0.0
 30
0.0
210
0.0
220
0.0
230
1.0
  2
SOLID
 70
     1
 71
     0
 91
        1
 92
        0
 93
        4
 72
     1
 10
18.56109465547902
 20
-23.16264729615202
 11
15.1148194116419
 21
-23.16264729615199
 72
     1
 10
15.1148194116419
 20
-23.16264729615199
 11
8.066382509752623
 21
-31.56264729615201
 72
     1
 10
8.066382509752623
 20
-31.56264729615201
 11
11.51265775358991
 21
-31.56264729615201
 72
     1
 10
11.51265775358991
 20
-31.56264729615201
 11
18.56109465547902
 21
-23.16264729615202
 97
        0
 75
     0
 76
     1
 98
        1
 10
23.16650925439419
 20
12.63627777512411
  0
HATCH
  5
D4
330
1F
100
AcDbEntity
  8
중심선
100
AcDbHatch
 10
0.0
 20
0.0
 30
0.0
210
0.0
220
0.0
230
1.0
  2
SOLID
 70
     1
 71
     0
 91
        1
 92
        0
 93
        6
 72
     3
 10
23.36098508649119
 20
-27.36264729620326
 11
3.960054785062283
 21
1.540882976769353E-10
 40
0.3939339440162628
 50
17.09539180608437
 51
320.0019657685083
 73
     0
 72
     1
 10
25.04398474219175
 20
-25.95054130079032
 11
27.34928661589285
 21
-24.01621459074237
 72
     3
 10
23.36098508643834
 20
-27.36264729615214
 11
6.600054785286829
 21
-1.278976924368180E-13
 40
0.636358354079598
 50
39.99873849337386
 51
368.4976242363725
 73
     1
 72
     1
 10
29.78631757833895
 20
-26.40264729608202
 11
22.04105239327426
 21
-26.40264729608202
 72
     1
 10
22.04105239327426
 20
-26.40264729608202
 11
22.04102734882833
 21
-28.3226472960819
 72
     1
 10
22.04102734882833
 20
-28.3226472960819
 11
26.48240711830037
 21
-28.32264729608188
 97
        0
 75
     0
 76
     1
 98
        1
 10
23.16650925439419
 20
12.63627777512411
  0
POINT
  5
D5
330
1F
100
AcDbEntity
  8
치수문자_일반주서
100
AcDbPoint
 10
-57.85000000000001
 20
-0.1156937548689109
 30
0.0
  0
DIMENSION
  5
D6
102
{ACAD_REACTORS
102
}
330
1F
100
AcDbEntity
  8
치수문자_일반주서
100
AcDbDimension
  2
_D
 10
12.00000000000002
 20
31.72501421023315
 30
0.0
 11
53.27500000000001
 21
31.72501421023315
 31
0.0
 70
   160
  1
<>
 71
     2
 42
82.55
  3
SLDDIMSTYLE0
100
AcDbAlignedDimension
 13
94.55000000000001
 23
9.524999999999999
 33
0.0
 14
12.00000000000002
 24
9.362448997432967
 34
0.0
 50
0.0000000000000049
100
AcDbRotatedDimension
1001
ACAD
1000
DSTYLE
1002
{
1070
   171
1070
     6
1070
   273
1070
     5
1002
}
  0
DIMENSION
  5
EA
330
1F
100
AcDbEntity
  8
치수문자_일반주서
100
AcDbDimension
  2
_D_1
 10
-57.84999999999999
 20
58.6725977822756
 30
0.0
 11
17.74141452505229
 21
58.6725977822756
 31
0.0
 70
   160
  1
<>
 71
     2
 42
152.4
  3
SLDDIMSTYLE1
100
AcDbAlignedDimension
 13
94.55000000000001
 23
9.524999999999999
 33
0.0
 14
-57.84999999999999
 24
9.024999999999995
 34
0.0
 50
0.0000000000000053
100
AcDbRotatedDimension
1001
ACAD
1000
DSTYLE
1002
{
1070
   171
1070
     6
1070
   273
1070
     5
1002
}
  0
INSERT
  5
115
330
1F
100
AcDbEntity
  8
외형선
100
AcDbBlockReference
  2
SW_DOWELSYMBOL_0
 10
0.0
 20
0.0
 30
0.0
  0
ARC
  5
13E
102
{ACAD_REACTORS
102
}
330
1F
100
AcDbEntity
  8
0
  6
Continuous
 62
     1
370
    15
100
AcDbCircle
 10
93.02600000000001
 20
-8.001000000000003
 30
0.0
 40
1.524
100
AcDbArc
 50
270.0
 51
0.0
  0
ARC
  5
13F
330
1F
100
AcDbEntity
  8
0
  6
Continuous
 62
     1
370
    15
100
AcDbCircle
 10
93.02600000000001
 20
8.000999999999994
 30
0.0
 40
1.524
100
AcDbArc
 50
0.0
 51
90.0
  0
DIMENSION
  5
141
102
{ACAD_XDICTIONARY
360
142
102
}
330
1F
100
AcDbEntity
  8
치수문자_일반주서
100
AcDbDimension
  2
*D7
 10
107.9185644275912
 20
9.524999999999999
 30
0.0
 11
105.2935644275912
 21
26.60825
 31
0.0
 70
    32
  1
{Ø<>[]}
 71
     5
 42
19.05
  3
SLDDIMSTYLE0
100
AcDbAlignedDimension
 13
94.54999999999998
 23
-9.525000000000002
 33
0.0
 14
94.55000000000001
 24
9.524999999999999
 34
0.0
 50
90.0
100
AcDbRotatedDimension
1001
ACAD
1000
DSTYLE
1002
{
1070
   171
1070
     6
1070
   273
1070
     5
1070
   283
1070
     1
1070
   170
1070
     1
1002
}
  0
DIMENSION
  5
152
102
{ACAD_REACTORS
102
}
102
{ACAD_XDICTIONARY
360
153
102
}
330
1F
100
AcDbEntity
  8
치수문자_일반주서
100
AcDbDimension
  2
*D8
 10
93.02600000000001
 20
-8.001000000000003
 30
0.0
 11
103.8232468596505
 21
-27.3159642570668
 31
0.0
 70
   164
  1
<>
 71
     5
 42
1.523999999999995
  3
SLDDIMSTYLE0
100
AcDbRadialDimension
 15
93.76962817308873
 25
-9.331260553496465
 35
0.0
 40
0.0
1001
ACAD_DSTYLE_DIMRADIAL_EXTENSION
1070
   387
1070
     1
1070
   388
1040
4.71238898038469
1070
   390
1040
0.0
  0
DIMENSION
  5
15F
102
{ACAD_REACTORS
102
}
102
{ACAD_XDICTIONARY
360
160
102
}
330
1F
100
AcDbEntity
  8
치수문자_일반주서
100
AcDbDimension
  2
*D9
 10
-69.26507504785306
 20
9.524999999999999
 30
0.0
 11
-71.89007504785306
 21
26.60825
 31
0.0
 70
    32
  1
{Ø<>[]}
 71
     5
 42
19.05
  3
SLDDIMSTYLE1
100
AcDbAlignedDimension
 13
-57.34999999999999
 23
-9.525000000000002
 33
0.0
 14
-57.34999999999999
 24
9.524999999999999
 34
0.0
 50
90.0
100
AcDbRotatedDimension
1001
ACAD
1000
DSTYLE
1002
{
1070
   171
1070
     6
1070
   273
1070
     5
1070
   283
1070
     1
1070
   170
1070
     1
1002
}
  0
ENDSEC
  0
SECTION
  2
OBJECTS
  0
DICTIONARY
  5
C
330
0
100
AcDbDictionary
281
     1
  3
ACAD_GROUP
350
D
  3
ACAD_IMAGE_VARS
350
139
  3
ACAD_LAYOUT
350
1A
  3
ACAD_MLINESTYLE
350
17
  3
ACAD_PLOTSETTINGS
350
19
  3
ACAD_PLOTSTYLENAME
350
E
  3
ACAD_SCALELIST
350
47
  3
APPDATA
350
137
  3
DWGPROPS
350
172
  0
DICTIONARY
  5
142
330
141
100
AcDbDictionary
280
     1
281
     1
  0
DICTIONARY
  5
153
330
152
100
AcDbDictionary
280
     1
281
     1
  0
DICTIONARY
  5
160
330
15F
100
AcDbDictionary
280
     1
281
     1
  0
DICTIONARY
  5
D
102
{ACAD_REACTORS
330
C
102
}
330
C
100
AcDbDictionary
281
     1
  0
RASTERVARIABLES
  5
139
102
{ACAD_REACTORS
330
C
102
}
330
C
100
AcDbRasterVariables
 90
        0
 70
     1
 71
     1
 72
     1
  0
DICTIONARY
  5
1A
102
{ACAD_REACTORS
330
C
102
}
330
C
100
AcDbDictionary
281
     1
  3
Layout1
350
1E
  3
Layout2
350
26
  3
Model
350
22
  0
DICTIONARY
  5
17
102
{ACAD_REACTORS
330
C
102
}
330
C
100
AcDbDictionary
281
     1
  3
Standard
350
18
  0
DICTIONARY
  5
19
102
{ACAD_REACTORS
330
C
102
}
330
C
100
AcDbDictionary
281
     1
  0
ACDBDICTIONARYWDFLT
  5
E
102
{ACAD_REACTORS
330
C
102
}
330
C
100
AcDbDictionary
281
     1
  3
Normal
350
F
100
AcDbDictionaryWithDefault
340
F
  0
DICTIONARY
  5
47
102
{ACAD_REACTORS
330
C
102
}
330
C
100
AcDbDictionary
281
     1
  3
A0
350
48
  3
A1
350
49
  3
A2
350
4A
  3
A3
350
4B
  3
A4
350
4C
  3
A5
350
4D
  3
A6
350
4E
  3
A7
350
4F
  3
A8
350
50
  3
A9
350
51
  3
B0
350
52
  3
B1
350
53
  3
B2
350
54
  3
B3
350
55
  3
B4
350
56
  3
B5
350
57
  3
B6
350
58
  3
B7
350
59
  3
B8
350
5A
  3
B9
350
5B
  3
C0
350
5C
  3
C1
350
5D
  3
C2
350
5E
  3
C3
350
5F
  3
C4
350
60
  3
C5
350
61
  3
C6
350
62
  3
C7
350
63
  3
C8
350
64
  3
C9
350
65
  3
D0
350
66
  3
D1
350
67
  3
D2
350
68
  0
DICTIONARY
  5
137
102
{ACAD_REACTORS
330
C
102
}
330
C
100
AcDbDictionary
281
     1
  0
XRECORD
  5
172
102
{ACAD_REACTORS
330
C
102
}
330
C
100
AcDbXrecord
280
     1
  1
DWGPROPS COOKIE
  2

  3

  4

  6

  7

  8
12014074
  9

300
=
301
=
302
=
303
=
304
=
305
=
306
=
307
=
308
=
309
=
 40
0.0
 41
2458269.058386829
 42
2458269.965308866
  1

 90
        0
  0
LAYOUT
  5
1E
102
{ACAD_REACTORS
330
1A
102
}
330
1A
100
AcDbPlotSettings
  1

  2
none_device
  4

  6

 40
0.0
 41
0.0
 42
0.0
 43
0.0
 44
0.0
 45
0.0
 46
0.0
 47
0.0
 48
0.0
 49
0.0
140
0.0
141
0.0
142
1.0
143
1.0
 70
   688
 72
     1
 73
     0
 74
     5
  7

 75
    16
147
1.0
148
0.0
149
0.0
100
AcDbLayout
  1
Layout1
 70
     1
 71
     1
 10
0.0
 20
0.0
 11
420.0
 21
297.0
 12
0.0
 22
0.0
 32
0.0
 14
1.000000000000000E+20
 24
1.000000000000000E+20
 34
1.000000000000000E+20
 15
-1.000000000000000E+20
 25
-1.000000000000000E+20
 35
-1.000000000000000E+20
146
0.0
 13
0.0
 23
0.0
 33
0.0
 16
1.0
 26
0.0
 36
0.0
 17
0.0
 27
1.0
 37
0.0
 76
     0
330
1B
  0
LAYOUT
  5
26
102
{ACAD_REACTORS
330
1A
102
}
330
1A
100
AcDbPlotSettings
  1

  2
none_device
  4

  6

 40
0.0
 41
0.0
 42
0.0
 43
0.0
 44
0.0
 45
0.0
 46
0.0
 47
0.0
 48
0.0
 49
0.0
140
0.0
141
0.0
142
1.0
143
1.0
 70
   688
 72
     1
 73
     0
 74
     5
  7

 75
    16
147
1.0
148
0.0
149
0.0
100
AcDbLayout
  1
Layout2
 70
     1
 71
     2
 10
0.0
 20
0.0
 11
0.0
 21
0.0
 12
0.0
 22
0.0
 32
0.0
 14
0.0
 24
0.0
 34
0.0
 15
0.0
 25
0.0
 35
0.0
146
0.0
 13
0.0
 23
0.0
 33
0.0
 16
1.0
 26
0.0
 36
0.0
 17
0.0
 27
1.0
 37
0.0
 76
     0
330
23
  0
LAYOUT
  5
22
102
{ACAD_REACTORS
330
1A
102
}
330
1A
100
AcDbPlotSettings
  1

  2
none_device
  4
ANSI_A_(11.00_x_8.50_Inches)
  6

 40
6.35
 41
19.05
 42
6.35000508
 43
19.05000254
 44
279.4
 45
215.9
 46
116.0403333732746
 47
73.61522167898907
 48
0.0
 49
0.0
140
0.0
141
0.0
142
0.0641180830775516
143
1.0
 70
  1696
 72
     0
 73
     0
 74
     0
  7

 75
     0
147
0.0235690232323232
148
0.0
149
0.0
100
AcDbLayout
  1
Model
 70
     1
 71
     0
 10
0.0
 20
0.0
 11
420.0
 21
297.0
 12
0.0
 22
0.0
 32
0.0
 14
-73.64007504785306
 24
-39.53620556215245
 34
0.0
 15
114.0463503329684
 25
63.0475977822756
 35
0.0
146
0.0
 13
0.0
 23
0.0
 33
0.0
 16
1.0
 26
0.0
 36
0.0
 17
0.0
 27
1.0
 37
0.0
 76
     0
330
1F
331
29
  0
MLINESTYLE
  5
18
102
{ACAD_REACTORS
330
17
102
}
330
17
100
AcDbMlineStyle
  2
Standard
 70
     0
  3

 62
   256
 51
90.0
 52
90.0
 71
     2
 49
0.5
 62
   256
  6
BYLAYER
 49
-0.5
 62
   256
  6
BYLAYER
  0
ACDBPLACEHOLDER
  5
F
102
{ACAD_REACTORS
330
E
102
}
330
E
  0
SCALE
  5
48
102
{ACAD_REACTORS
330
47
102
}
330
47
100
AcDbScale
 70
     0
300
1:1
140
1.0
141
1.0
290
     1
  0
SCALE
  5
49
102
{ACAD_REACTORS
330
47
102
}
330
47
100
AcDbScale
 70
     0
300
1:2
140
1.0
141
2.0
290
     0
  0
SCALE
  5
4A
102
{ACAD_REACTORS
330
47
102
}
330
47
100
AcDbScale
 70
     0
300
1:4
140
1.0
141
4.0
290
     0
  0
SCALE
  5
4B
102
{ACAD_REACTORS
330
47
102
}
330
47
100
AcDbScale
 70
     0
300
1:5
140
1.0
141
5.0
290
     0
  0
SCALE
  5
4C
102
{ACAD_REACTORS
330
47
102
}
330
47
100
AcDbScale
 70
     0
300
1:8
140
1.0
141
8.0
290
     0
  0
SCALE
  5
4D
102
{ACAD_REACTORS
330
47
102
}
330
47
100
AcDbScale
 70
     0
300
1:10
140
1.0
141
10.0
290
     0
  0
SCALE
  5
4E
102
{ACAD_REACTORS
330
47
102
}
330
47
100
AcDbScale
 70
     0
300
1:16
140
1.0
141
16.0
290
     0
  0
SCALE
  5
4F
102
{ACAD_REACTORS
330
47
102
}
330
47
100
AcDbScale
 70
     0
300
1:20
140
1.0
141
20.0
290
     0
  0
SCALE
  5
50
102
{ACAD_REACTORS
330
47
102
}
330
47
100
AcDbScale
 70
     0
300
1:30
140
1.0
141
30.0
290
     0
  0
SCALE
  5
51
102
{ACAD_REACTORS
330
47
102
}
330
47
100
AcDbScale
 70
     0
300
1:40
140
1.0
141
40.0
290
     0
  0
SCALE
  5
52
102
{ACAD_REACTORS
330
47
102
}
330
47
100
AcDbScale
 70
     0
300
1:50
140
1.0
141
50.0
290
     0
  0
SCALE
  5
53
102
{ACAD_REACTORS
330
47
102
}
330
47
100
AcDbScale
 70
     0
300
1:100
140
1.0
141
100.0
290
     0
  0
SCALE
  5
54
102
{ACAD_REACTORS
330
47
102
}
330
47
100
AcDbScale
 70
     0
300
2:1
140
2.0
141
1.0
290
     0
  0
SCALE
  5
55
102
{ACAD_REACTORS
330
47
102
}
330
47
100
AcDbScale
 70
     0
300
4:1
140
4.0
141
1.0
290
     0
  0
SCALE
  5
56
102
{ACAD_REACTORS
330
47
102
}
330
47
100
AcDbScale
 70
     0
300
8:1
140
8.0
141
1.0
290
     0
  0
SCALE
  5
57
102
{ACAD_REACTORS
330
47
102
}
330
47
100
AcDbScale
 70
     0
300
10:1
140
10.0
141
1.0
290
     0
  0
SCALE
  5
58
102
{ACAD_REACTORS
330
47
102
}
330
47
100
AcDbScale
 70
     0
300
100:1
140
100.0
141
1.0
290
     0
  0
SCALE
  5
59
102
{ACAD_REACTORS
330
47
102
}
330
47
100
AcDbScale
 70
     0
300
1/128" = 1'-0"
140
0.0078125
141
12.0
290
     0
  0
SCALE
  5
5A
102
{ACAD_REACTORS
330
47
102
}
330
47
100
AcDbScale
 70
     0
300
1/64" = 1'-0"
140
0.015625
141
12.0
290
     0
  0
SCALE
  5
5B
102
{ACAD_REACTORS
330
47
102
}
330
47
100
AcDbScale
 70
     0
300
1/32" = 1'-0"
140
0.03125
141
12.0
290
     0
  0
SCALE
  5
5C
102
{ACAD_REACTORS
330
47
102
}
330
47
100
AcDbScale
 70
     0
300
1/16" = 1'-0"
140
0.0625
141
12.0
290
     0
  0
SCALE
  5
5D
102
{ACAD_REACTORS
330
47
102
}
330
47
100
AcDbScale
 70
     0
300
3/32" = 1'-0"
140
0.09375
141
12.0
290
     0
  0
SCALE
  5
5E
102
{ACAD_REACTORS
330
47
102
}
330
47
100
AcDbScale
 70
     0
300
1/8" = 1'-0"
140
0.125
141
12.0
290
     0
  0
SCALE
  5
5F
102
{ACAD_REACTORS
330
47
102
}
330
47
100
AcDbScale
 70
     0
300
3/16" = 1'-0"
140
0.1875
141
12.0
290
     0
  0
SCALE
  5
60
102
{ACAD_REACTORS
330
47
102
}
330
47
100
AcDbScale
 70
     0
300
1/4" = 1'-0"
140
0.25
141
12.0
290
     0
  0
SCALE
  5
61
102
{ACAD_REACTORS
330
47
102
}
330
47
100
AcDbScale
 70
     0
300
3/8" = 1'-0"
140
0.375
141
12.0
290
     0
  0
SCALE
  5
62
102
{ACAD_REACTORS
330
47
102
}
330
47
100
AcDbScale
 70
     0
300
1/2" = 1'-0"
140
0.5
141
12.0
290
     0
  0
SCALE
  5
63
102
{ACAD_REACTORS
330
47
102
}
330
47
100
AcDbScale
 70
     0
300
3/4" = 1'-0"
140
0.75
141
12.0
290
     0
  0
SCALE
  5
64
102
{ACAD_REACTORS
330
47
102
}
330
47
100
AcDbScale
 70
     0
300
1" = 1'-0"
140
1.0
141
12.0
290
     0
  0
SCALE
  5
65
102
{ACAD_REACTORS
330
47
102
}
330
47
100
AcDbScale
 70
     0
300
1-1/2" = 1'-0"
140
1.5
141
12.0
290
     0
  0
SCALE
  5
66
102
{ACAD_REACTORS
330
47
102
}
330
47
100
AcDbScale
 70
     0
300
3" = 1'-0"
140
3.0
141
12.0
290
     0
  0
SCALE
  5
67
102
{ACAD_REACTORS
330
47
102
}
330
47
100
AcDbScale
 70
     0
300
6" = 1'-0"
140
6.0
141
12.0
290
     0
  0
SCALE
  5
68
102
{ACAD_REACTORS
330
47
102
}
330
47
100
AcDbScale
 70
     0
300
1'-0" = 1'-0"
140
12.0
141
12.0
290
     0
  0
ENDSEC
  0
EOF
